  0
SECTION
  2
HEADER
  9
$ACADVER
  1
AC1015
  9
$ACADMAINTVER
 70
               6
  9
$DWGCODEPAGE
  3
ANSI_932
  9
$INSBASE
 10
0.0
 20
0.0
 30
0.0
  9
$EXTMIN
 10
-3448.4608914274513
 20
-1418.7614075562062
 30
0.0
  9
$EXTMAX
 10
1660.4559298168651
 20
1554.9806790051584
 30
0.0
  9
$LIMMIN
 10
0.0
 20
0.0
  9
$LIMMAX
 10
0.0
 20
0.0
  9
$ORTHOMODE
 70
               0
  9
$REGENMODE
 70
               1
  9
$FILLMODE
 70
               1
  9
$QTEXTMODE
 70
               0
  9
$MIRRTEXT
 70
               1
  9
$LTSCALE
 40
25.399999999999999
  9
$ATTMODE
 70
               1
  9
$TEXTSIZE
 40
0.2
  9
$TRACEWID
 40
1.0
  9
$TEXTSTYLE
  7
Standard
  9
$CLAYER
  8
ARJ70-0804
  9
$CELTYPE
  6
Continuous
  9
$CECOLOR
 62
             256
  9
$CELTSCALE
 40
1.0
  9
$DISPSILH
 70
               0
  9
$DIMSCALE
 40
1.0
  9
$DIMASZ
 40
31.75
  9
$DIMEXO
 40
0.0
  9
$DIMDLI
 40
6.9999999999999396
  9
$DIMRND
 40
0.0
  9
$DIMDLE
 40
0.0
  9
$DIMEXE
 40
19.999999999996199
  9
$DIMTP
 40
0.0
  9
$DIMTM
 40
0.0
  9
$DIMTXT
 40
24.432617187500004
  9
$DIMCEN
 40
0.0
  9
$DIMTSZ
 40
0.0
  9
$DIMTOL
 70
               0
  9
$DIMLIM
 70
               0
  9
$DIMTIH
 70
               0
  9
$DIMTOH
 70
               0
  9
$DIMSE1
 70
               0
  9
$DIMSE2
 70
               0
  9
$DIMTAD
 70
               1
  9
$DIMZIN
 70
              11
  9
$DIMBLK
  1
VW_FILLEDARROW
  9
$DIMASO
 70
               1
  9
$DIMSHO
 70
               1
  9
$DIMPOST
  1
<>
  9
$DIMAPOST
  1
[]
  9
$DIMALT
 70
               0
  9
$DIMALTD
 70
               1
  9
$DIMALTF
 40
1.0
  9
$DIMLFAC
 40
1.0
  9
$DIMTOFL
 70
               0
  9
$DIMTVP
 40
0.0
  9
$DIMTIX
 70
               1
  9
$DIMSOXD
 70
               0
  9
$DIMSAH
 70
               0
  9
$DIMBLK1
  1

  9
$DIMBLK2
  1

  9
$DIMSTYLE
  2
JIS
  9
$DIMCLRD
 70
               0
  9
$DIMCLRE
 70
               0
  9
$DIMCLRT
 70
               0
  9
$DIMTFAC
 40
1.0
  9
$DIMGAP
 40
1.00000000000108
  9
$DIMJUST
 70
               0
  9
$DIMSD1
 70
               0
  9
$DIMSD2
 70
               0
  9
$DIMTOLJ
 70
               1
  9
$DIMTZIN
 70
              11
  9
$DIMALTZ
 70
              11
  9
$DIMALTTZ
 70
              11
  9
$DIMUPT
 70
               0
  9
$DIMDEC
 70
               1
  9
$DIMTDEC
 70
               1
  9
$DIMALTU
 70
               2
  9
$DIMALTTD
 70
               2
  9
$DIMTXSTY
  7
ＭＳ ゴシック
  9
$DIMAUNIT
 70
               0
  9
$DIMADEC
 70
               2
  9
$DIMALTRND
 40
0.0
  9
$DIMAZIN
 70
               0
  9
$DIMDSEP
 70
              46
  9
$DIMATFIT
 70
               0
  9
$DIMFRAC
 70
               2
  9
$DIMLDRBLK
  1

  9
$DIMLUNIT
 70
               2
  9
$DIMLWD
 70
              -2
  9
$DIMLWE
 70
              -2
  9
$DIMTMOVE
 70
               0
  9
$LUNITS
 70
               2
  9
$LUPREC
 70
               4
  9
$SKETCHINC
 40
0.1
  9
$FILLETRAD
 40
0.0
  9
$AUNITS
 70
               0
  9
$AUPREC
 70
               0
  9
$MENU
  1
acad
  9
$ELEVATION
 40
0.0
  9
$PELEVATION
 40
0.0
  9
$THICKNESS
 40
0.0
  9
$LIMCHECK
 70
               0
  9
$CHAMFERA
 40
0.0
  9
$CHAMFERB
 40
0.0
  9
$CHAMFERC
 40
0.0
  9
$CHAMFERD
 40
0.0
  9
$SKPOLY
 70
               0
  9
$TDCREATE
 40
2455922.553645833
  9
$TDUCREATE
 40
0.000000000
  9
$TDUPDATE
 40
2455922.553645833
  9
$TDUUPDATE
 40
0.000000000
  9
$TDINDWG
 40
0.0000000000
  9
$TDUSRTIMER
 40
0.0000000000
  9
$USRTIMER
 70
               1
  9
$ANGBASE
 50
0.0
  9
$ANGDIR
 70
               0
  9
$PDMODE
 70
               1
  9
$PDSIZE
 40
-2.0
  9
$PLINEWID
 40
0.0
  9
$SPLFRAME
 70
               0
  9
$SPLINETYPE
 70
               6
  9
$SPLINESEGS
 70
               8
  9
$HANDSEED
  5
209
  9
$SURFTAB1
 70
               6
  9
$SURFTAB2
 70
               6
  9
$SURFTYPE
 70
               6
  9
$SURFU
 70
               6
  9
$SURFV
 70
               6
  9
$UCSBASE
  2

  9
$UCSNAME
  2

  9
$UCSORG
 10
0.0
 20
0.0
 30
0.0
  9
$UCSXDIR
 10
1.0
 20
0.0
 30
0.0
  9
$UCSYDIR
 10
0.0
 20
1.0
 30
0.0
  9
$UCSORTHOREF
  2

  9
$UCSORTHOVIEW
 70
               0
  9
$UCSORGTOP
 10
0.0
 20
0.0
 30
0.0
  9
$UCSORGBOTTOM
 10
0.0
 20
0.0
 30
0.0
  9
$UCSORGLEFT
 10
0.0
 20
0.0
 30
0.0
  9
$UCSORGRIGHT
 10
0.0
 20
0.0
 30
0.0
  9
$UCSORGFRONT
 10
0.0
 20
0.0
 30
0.0
  9
$UCSORGBACK
 10
0.0
 20
0.0
 30
0.0
  9
$PUCSBASE
  2

  9
$PUCSNAME
  2

  9
$PUCSORG
 10
0.0
 20
0.0
 30
0.0
  9
$PUCSXDIR
 10
1.0
 20
0.0
 30
0.0
  9
$PUCSYDIR
 10
0.0
 20
1.0
 30
0.0
  9
$PUCSORTHOREF
  2

  9
$PUCSORTHOVIEW
 70
               0
  9
$PUCSORGTOP
 10
0.0
 20
0.0
 30
0.0
  9
$PUCSORGBOTTOM
 10
0.0
 20
0.0
 30
0.0
  9
$PUCSORGLEFT
 10
0.0
 20
0.0
 30
0.0
  9
$PUCSORGRIGHT
 10
0.0
 20
0.0
 30
0.0
  9
$PUCSORGFRONT
 10
0.0
 20
0.0
 30
0.0
  9
$PUCSORGBACK
 10
0.0
 20
0.0
 30
0.0
  9
$USERI1
 70
               0
  9
$USERI2
 70
               0
  9
$USERI3
 70
               0
  9
$USERI4
 70
               0
  9
$USERI5
 70
               0
  9
$USERR1
 40
0.0
  9
$USERR2
 40
0.0
  9
$USERR3
 40
0.0
  9
$USERR4
 40
0.0
  9
$USERR5
 40
0.0
  9
$WORLDVIEW
 70
               1
  9
$SHADEDGE
 70
               3
  9
$SHADEDIF
 70
              70
  9
$TILEMODE
 70
               1
  9
$MAXACTVP
 70
              64
  9
$PINSBASE
 10
0.0
 20
0.0
 30
0.0
  9
$PLIMCHECK
 70
               0
  9
$PEXTMIN
 10
1.0000000000000000E+20
 20
1.0000000000000000E+20
 30
1.0000000000000000E+20
  9
$PEXTMAX
 10
-1.0000000000000000E+20
 20
-1.0000000000000000E+20
 30
-1.0000000000000000E+20
  9
$PLIMMIN
 10
0.0
 20
0.0
  9
$PLIMMAX
 10
12.0
 20
9.0
  9
$UNITMODE
 70
               0
  9
$VISRETAIN
 70
               0
  9
$PLINEGEN
 70
               1
  9
$PSLTSCALE
 70
               0
  9
$TREEDEPTH
 70
            3020
  9
$CMLSTYLE
  2
Standard
  9
$CMLJUST
 70
               0
  9
$CMLSCALE
 40
1.0
  9
$PROXYGRAPHICS
 70
               0
  9
$MEASUREMENT
 70
               1
  9
$CELWEIGHT
370
               0
  9
$ENDCAPS
280
               0
  9
$JOINSTYLE
280
               0
  9
$LWDISPLAY
290
               1
  9
$INSUNITS
 70
               4
  9
$HYPERLINKBASE
  1

  9
$STYLESHEET
  1

  9
$XEDIT
290
               1
  9
$CEPSNTYPE
380
               0
  9
$PSTYLEMODE
290
               1
  9
$FINGERPRINTGUID
  2

  9
$VERSIONGUID
  2

  9
$EXTNAMES
290
               1
  9
$PSVPSCALE
 40
0.0
  0
ENDSEC
  0
SECTION
  2
CLASSES
  0
CLASS
  1
LWPOLYLINE
  2
AcDbPolyline
  3
AutoCAD 2000
 90
        0
280
               0
281
               1
  0
CLASS
  1
IMAGE
  2
AcDbRasterImage
  3
ISM
 90
      127
280
               0
281
               1
  0
CLASS
  1
OLE2FRAME
  2
AcDbOle2Frame
  3
AutoCAD 2000
 90
        0
280
               0
281
               1
  0
CLASS
  1
HATCH
  2
AcDbHatch
  3
AutoCAD 2000
 90
        0
280
               0
281
               1
  0
CLASS
  1
DICTIONARYVAR
  2
AcDbDictionaryVar
  3
AutoCAD 2000
 90
        0
280
               0
281
               0
  0
CLASS
  1
RASTERVARIABLES
  2
AcDbRasterVariables
  3
ISM
 90
        0
280
               0
281
               0
  0
CLASS
  1
IMAGEDEF
  2
AcDbRasterImageDef
  3
ISM
 90
        0
280
               0
281
               0
  0
CLASS
  1
IMAGEDEF_REACTOR
  2
AcDbRasterImageDefReactor
  3
ISM
 90
        1
280
               0
281
               0
  0
CLASS
  1
IDBUFFER
  2
AcDbIdBuffer
  3
AutoCAD 2000
 90
        0
280
               0
281
               0
  0
CLASS
  1
SPATIAL_FILTER
  2
AcDbSpatialFilter
  3
AutoCAD 2000
 90
        0
280
               0
281
               0
  0
CLASS
  1
XRECORD
  2
AcDbXrecord
  3
AutoCAD 2000
 90
        0
280
               0
281
               0
  0
CLASS
  1
SORTENTSTABLE
  2
AcDbSortentsTable
  3
AutoCAD 2000
 90
        0
280
               0
281
               0
  0
CLASS
  1
LAYER_INDEX
  2
AcDbLayerIndex
  3
AutoCAD 2000
 90
        0
280
               0
281
               0
  0
CLASS
  1
SPATIAL_INDEX
  2
AcDbSpatialIndex
  3
AutoCAD 2000
 90
        0
280
               0
281
               0
  0
CLASS
  1
OBJECT_PTR
  2
CAseDLPNTableRecord
  3
"ASE-LPNTableRecord"
 90
        1
280
               0
281
               0
  0
CLASS
  1
LAYOUT
  2
AcDbLayout
  3
AutoCAD 2000
 90
        0
280
               0
281
               0
  0
CLASS
  1
PLOTSETTINGS
  2
AcDbPlotSettings
  3
AutoCAD 2000
 90
        0
280
               0
281
               0
  0
CLASS
  1
ACDBDICTIONARYWDFLT
  2
AcDbDictionaryWithDefault
  3
AutoCAD 2000
 90
        0
280
               0
281
               0
  0
CLASS
  1
ACDBPLACEHOLDER
  2
AcDbPlaceHolder
  3
AutoCAD 2000
 90
        0
280
               0
281
               0
  0
ENDSEC
  0
SECTION
  2
TABLES
  0
TABLE
  2
VPORT
  5
7
100
AcDbSymbolTable
 70
               1
  0
VPORT
  5
15
100
AcDbSymbolTableRecord
100
AcDbViewportTableRecord
  2
*ACTIVE
 70
               0
 10
0.0
 20
0.0
 11
1.0
 21
1.0
 12
-894.00248080529309
 22
68.10963572447622
 13
0.0
 23
0.0
 14
1.0
 24
1.0
 15
0.0
 25
0.0
 16
0.0
 26
0.0
 36
1.0
 17
0.0
 27
0.0
 37
0.0
 40
2973.7420865613649
 41
0.688564
 42
50.0
 43
0.0
 44
0.0
 50
0.0
 51
0.0
 71
               0
 72
            2000
 73
               1
 74
               1
 75
               0
 76
               0
 77
               0
 78
               0
281
               0
 65
               0
110
0.0
120
0.0
130
0.0
111
1.0
121
0.0
131
0.0
112
0.0
122
1.0
132
0.0
345
0
346
0
 79
               0
146
0.0
  0
ENDTAB
  0
TABLE
  2
LTYPE
  5
4
100
AcDbSymbolTable
 70
              16
  0
LTYPE
  5
11
100
AcDbSymbolTableRecord
100
AcDbLinetypeTableRecord
  2
ByBlock
 70
              64
  3

 72
              65
 73
               0
 40
0.0
  0
LTYPE
  5
12
100
AcDbSymbolTableRecord
100
AcDbLinetypeTableRecord
  2
ByLayer
 70
              64
  3

 72
              65
 73
               0
 40
0.0
  0
LTYPE
  5
13
100
AcDbSymbolTableRecord
100
AcDbLinetypeTableRecord
  2
Continuous
 70
              64
  3
Solid line
 72
              65
 73
               0
 40
0.0
  0
LTYPE
  5
3A
100
AcDbSymbolTableRecord
100
AcDbLinetypeTableRecord
  2
STYLE_01
 70
               0
  3

 72
              65
 73
               4
 40
0.078740157480315
 49
0.0492125984251968
 74
               0
 49
-0.0098425196850394
 74
               0
 49
0.0098425196850394
 74
               0
 49
-0.0098425196850394
 74
               0
  0
LTYPE
  5
3B
100
AcDbSymbolTableRecord
100
AcDbLinetypeTableRecord
  2
STYLE_02
 70
               0
  3

 72
              65
 73
               2
 40
0.0590551181102362
 49
0.0393700787401574
 74
               0
 49
-0.0196850393700788
 74
               0
  0
LTYPE
  5
3C
100
AcDbSymbolTableRecord
100
AcDbLinetypeTableRecord
  2
STYLE_03
 70
               0
  3

 72
              65
 73
               2
 40
0.7499999999999998
 49
0.5
 74
               0
 49
-0.2499999999999998
 74
               0
  0
LTYPE
  5
3D
100
AcDbSymbolTableRecord
100
AcDbLinetypeTableRecord
  2
STYLE_04
 70
               0
  3

 72
              65
 73
               4
 40
0.078740157480315
 49
0.0492125984251968
 74
               0
 49
-0.0098425196850394
 74
               0
 49
0.0098425196850394
 74
               0
 49
-0.0098425196850394
 74
               0
  0
LTYPE
  5
3E
100
AcDbSymbolTableRecord
100
AcDbLinetypeTableRecord
  2
STYLE_05
 70
               0
  3

 72
              65
 73
               2
 40
0.41656
 49
0.13885
 74
               0
 49
-0.27771
 74
               0
  0
LTYPE
  5
3F
100
AcDbSymbolTableRecord
100
AcDbLinetypeTableRecord
  2
STYLE_06
 70
               0
  3

 72
              65
 73
               4
 40
2.0832800000000002
 49
1.25
 74
               0
 49
-0.41656
 74
               0
 49
0.1388600000000001
 74
               0
 49
-0.2778600000000001
 74
               0
  0
LTYPE
  5
40
100
AcDbSymbolTableRecord
100
AcDbLinetypeTableRecord
  2
STYLE_07
 70
               0
  3

 72
              65
 73
               6
 40
3.75
 49
1.25
 74
               0
 49
-0.41656
 74
               0
 49
1.2500000000000002
 74
               0
 49
-0.4167199999999999
 74
               0
 49
0.1388600000000001
 74
               0
 49
-0.2778599999999998
 74
               0
  0
LTYPE
  5
41
100
AcDbSymbolTableRecord
100
AcDbLinetypeTableRecord
  2
STYLE_08
 70
               0
  3

 72
              65
 73
               6
 40
2.5
 49
1.25
 74
               0
 49
-0.41656
 74
               0
 49
0.1388600000000001
 74
               0
 49
-0.2778600000000001
 74
               0
 49
0.1388599999999998
 74
               0
 49
-0.2778600000000001
 74
               0
  0
LTYPE
  5
42
100
AcDbSymbolTableRecord
100
AcDbLinetypeTableRecord
  2
STYLE_09
 70
               0
  3

 72
              65
 73
               4
 40
10.0
 49
7.5
 74
               0
 49
-0.5555699999999997
 74
               0
 49
1.3888600000000006
 74
               0
 49
-0.5555699999999997
 74
               0
  0
LTYPE
  5
43
100
AcDbSymbolTableRecord
100
AcDbLinetypeTableRecord
  2
STYLE_10
 70
               0
  3

 72
              65
 73
               6
 40
11.875
 49
7.5
 74
               0
 49
-0.5555699999999997
 74
               0
 49
1.3888600000000006
 74
               0
 49
-0.5555699999999997
 74
               0
 49
1.25
 74
               0
 49
-0.625
 74
               0
  0
LTYPE
  5
44
100
AcDbSymbolTableRecord
100
AcDbLinetypeTableRecord
  2
STYLE_11
 70
               0
  3

 72
              65
 73
               2
 40
0.1388889763779528
 49
0.0694444881889764
 74
               0
 49
-0.0694444881889764
 74
               0
  0
LTYPE
  5
45
100
AcDbSymbolTableRecord
100
AcDbLinetypeTableRecord
  2
STYLE_12
 70
               0
  3

 72
              65
 73
               2
 40
0.3472222222222222
 49
0.2083333333333333
 74
               0
 49
-0.1388888888888889
 74
               0
  0
LTYPE
  5
46
100
AcDbSymbolTableRecord
100
AcDbLinetypeTableRecord
  2
STYLE_13
 70
               0
  3

 72
              65
 73
               2
 40
0.7874015748031495
 49
0.3937007874015748
 74
               0
 49
-0.3937007874015748
 74
               0
  0
ENDTAB
  0
TABLE
  2
LAYER
  5
2
100
AcDbSymbolTable
 70
               5
  0
LAYER
  5
14
100
AcDbSymbolTableRecord
100
AcDbLayerTableRecord
  2
0
 70
               0
 62
               7
  6
Continuous
290
               1
370
              -3
390
1D
  0
LAYER
  5
47
100
AcDbSymbolTableRecord
100
AcDbLayerTableRecord
  2
Defpoints
 70
               0
 62
               7
  6
Continuous
290
               0
370
              -3
390
1D
  0
LAYER
  5
48
100
AcDbSymbolTableRecord
100
AcDbLayerTableRecord
  2
template
 70
               0
 62
               7
  6
Continuous
290
               1
370
              -3
390
1D
  0
LAYER
  5
49
100
AcDbSymbolTableRecord
100
AcDbLayerTableRecord
  2
notes
 70
               0
 62
               7
  6
Continuous
290
               1
370
              -3
390
1D
  0
LAYER
  5
4A
100
AcDbSymbolTableRecord
100
AcDbLayerTableRecord
  2
ARJ70-0804
 70
               0
 62
               7
  6
Continuous
290
               1
370
              -3
390
1D
  0
ENDTAB
  0
TABLE
  2
STYLE
  5
3
100
AcDbSymbolTable
 70
               2
  0
STYLE
  5
17
100
AcDbSymbolTableRecord
100
AcDbTextStyleTableRecord
  2
Standard
 70
               0
 40
0.0
 41
1.0
 50
0.0
 71
               0
 42
0.0
  3
txt
  4
BIGFONT.SHX
  0
STYLE
  5
39
100
AcDbSymbolTableRecord
100
AcDbTextStyleTableRecord
  2
ＭＳ ゴシック
 70
               0
 40
0.0
 41
1.0
 50
0.0
 71
               0
 42
0.0
  3

  4
ＭＳ ゴシック
1001
ACAD
1000
ＭＳ ゴシック
1071
        0
  0
ENDTAB
  0
TABLE
  2
VIEW
  5
5
100
AcDbSymbolTable
 70
               0
  0
ENDTAB
  0
TABLE
  2
UCS
  5
6
100
AcDbSymbolTable
 70
               0
  0
ENDTAB
  0
TABLE
  2
APPID
  5
8
100
AcDbSymbolTable
 70
               1
  0
APPID
  5
16
100
AcDbSymbolTableRecord
100
AcDbRegAppTableRecord
  2
ACAD
 70
               0
  0
ENDTAB
  0
TABLE
  2
DIMSTYLE
  5
9
100
AcDbSymbolTable
 70
               3
100
AcDbDimStyleTable
 71
               0
  0
DIMSTYLE
105
18
100
AcDbSymbolTableRecord
100
AcDbDimStyleTableRecord
  2
Standard
 70
               0
  3

  4

 40
1.0
 41
0.18
 42
0.0625
 43
0.38
 44
0.18
 45
0.0
 46
0.0
 47
0.0
 48
0.0
 71
               0
 72
               0
 73
               1
 74
               1
 75
               0
 76
               0
 77
               0
 78
               0
 79
               0
140
0.18
141
0.09
142
0.0
143
25.399999999999999
144
1.0
145
0.0
146
1.0
147
0.09
148
0.0
170
               0
171
               2
172
               0
173
               0
174
               0
175
               0
176
               0
177
               0
178
               0
179
               0
271
               4
272
               4
273
               2
274
               2
275
               0
276
               0
277
               2
278
              46
279
               0
280
               0
281
               0
282
               0
283
               1
284
               0
285
               0
286
               0
288
               0
289
               3
340
17
341
0
342
0
343
0
344
0
371
              -2
372
              -2
  0
DIMSTYLE
105
53
100
AcDbSymbolTableRecord
100
AcDbDimStyleTableRecord
  2
tform線あり
 70
               0
  3
<>
  4
[]
 40
1.0
 41
3.999755859375
 42
24.999999999999996
 43
0.9999999999999999
 44
0.0
 45
0.0
 46
0.0
 47
0.0
 48
0.0
 71
               0
 72
               0
 73
               0
 74
               0
 75
               0
 76
               0
 77
               1
 78
              11
 79
               0
140
24.432617187500004
141
0.0
142
0.0
143
1.0
144
1.0
145
0.0
146
1.0
147
0.4999999999999999
148
0.0
170
               0
171
               1
172
               0
173
               0
174
               1
175
               0
176
               0
177
               0
178
               0
179
               2
271
               1
272
               1
273
               2
274
               2
275
               0
276
               2
277
               2
278
              46
279
               0
280
               0
281
               0
282
               0
283
               1
284
              11
285
              11
286
              11
288
               0
289
               0
340
39
341
4B
342
4B
343
0
344
0
371
              -2
372
              -2
  0
DIMSTYLE
105
58
100
AcDbSymbolTableRecord
100
AcDbDimStyleTableRecord
  2
JIS
 70
               0
  3
<>
  4
[]
 40
1.0
 41
31.75
 42
0.0
 43
6.9999999999999396
 44
19.999999999996199
 45
0.0
 46
0.0
 47
0.0
 48
0.0
 71
               0
 72
               0
 73
               0
 74
               0
 75
               0
 76
               0
 77
               1
 78
              11
 79
               0
140
24.432617187500004
141
0.0
142
0.0
143
1.0
144
1.0
145
0.0
146
1.0
147
1.00000000000108
148
0.0
170
               0
171
               1
172
               0
173
               0
174
               1
175
               0
176
               0
177
               0
178
               0
179
               2
271
               1
272
               1
273
               2
274
               2
275
               0
276
               2
277
               2
278
              46
279
               0
280
               0
281
               0
282
               0
283
               1
284
              11
285
              11
286
              11
288
               0
289
               0
340
39
341
54
342
54
343
0
344
0
371
              -2
372
              -2
  0
ENDTAB
  0
TABLE
  2
BLOCK_RECORD
  5
1
100
AcDbSymbolTable
 70
              24
  0
BLOCK_RECORD
  5
A
100
AcDbSymbolTableRecord
100
AcDbBlockTableRecord
  2
*MODEL_SPACE
340
20
  0
BLOCK_RECORD
  5
B
100
AcDbSymbolTableRecord
100
AcDbBlockTableRecord
  2
*PAPER_SPACE
340
21
  0
BLOCK_RECORD
  5
4B
100
AcDbSymbolTableRecord
100
AcDbBlockTableRecord
  2
_DOT
340
0
  0
BLOCK_RECORD
  5
54
100
AcDbSymbolTableRecord
100
AcDbBlockTableRecord
  2
VW_FILLEDARROW
340
0
  0
BLOCK_RECORD
  5
23
100
AcDbSymbolTableRecord
100
AcDbBlockTableRecord
  2
*D2
340
0
  0
BLOCK_RECORD
  5
24
100
AcDbSymbolTableRecord
100
AcDbBlockTableRecord
  2
*D3
340
0
  0
BLOCK_RECORD
  5
25
100
AcDbSymbolTableRecord
100
AcDbBlockTableRecord
  2
*D4
340
0
  0
BLOCK_RECORD
  5
26
100
AcDbSymbolTableRecord
100
AcDbBlockTableRecord
  2
*D5
340
0
  0
BLOCK_RECORD
  5
27
100
AcDbSymbolTableRecord
100
AcDbBlockTableRecord
  2
*D6
340
0
  0
BLOCK_RECORD
  5
28
100
AcDbSymbolTableRecord
100
AcDbBlockTableRecord
  2
*D7
340
0
  0
BLOCK_RECORD
  5
29
100
AcDbSymbolTableRecord
100
AcDbBlockTableRecord
  2
*D8
340
0
  0
BLOCK_RECORD
  5
2A
100
AcDbSymbolTableRecord
100
AcDbBlockTableRecord
  2
*D9
340
0
  0
BLOCK_RECORD
  5
2B
100
AcDbSymbolTableRecord
100
AcDbBlockTableRecord
  2
*D10
340
0
  0
BLOCK_RECORD
  5
2C
100
AcDbSymbolTableRecord
100
AcDbBlockTableRecord
  2
*D11
340
0
  0
BLOCK_RECORD
  5
2D
100
AcDbSymbolTableRecord
100
AcDbBlockTableRecord
  2
*D12
340
0
  0
BLOCK_RECORD
  5
2E
100
AcDbSymbolTableRecord
100
AcDbBlockTableRecord
  2
*D13
340
0
  0
BLOCK_RECORD
  5
2F
100
AcDbSymbolTableRecord
100
AcDbBlockTableRecord
  2
*D14
340
0
  0
BLOCK_RECORD
  5
30
100
AcDbSymbolTableRecord
100
AcDbBlockTableRecord
  2
*D15
340
0
  0
BLOCK_RECORD
  5
31
100
AcDbSymbolTableRecord
100
AcDbBlockTableRecord
  2
*D16
340
0
  0
BLOCK_RECORD
  5
32
100
AcDbSymbolTableRecord
100
AcDbBlockTableRecord
  2
*D17
340
0
  0
BLOCK_RECORD
  5
33
100
AcDbSymbolTableRecord
100
AcDbBlockTableRecord
  2
*D18
340
0
  0
BLOCK_RECORD
  5
34
100
AcDbSymbolTableRecord
100
AcDbBlockTableRecord
  2
*D19
340
0
  0
BLOCK_RECORD
  5
35
100
AcDbSymbolTableRecord
100
AcDbBlockTableRecord
  2
*D20
340
0
  0
BLOCK_RECORD
  5
36
100
AcDbSymbolTableRecord
100
AcDbBlockTableRecord
  2
*D21
340
0
  0
BLOCK_RECORD
  5
37
100
AcDbSymbolTableRecord
100
AcDbBlockTableRecord
  2
*D22
340
0
  0
BLOCK_RECORD
  5
38
100
AcDbSymbolTableRecord
100
AcDbBlockTableRecord
  2
*D23
340
0
  0
ENDTAB
  0
ENDSEC
  0
SECTION
  2
BLOCKS
  0
BLOCK
  5
D
100
AcDbEntity
  8
0
390
0
100
AcDbBlockBegin
  2
*MODEL_SPACE
 70
               0
 10
0.0
 20
0.0
 30
0.0
  3
*MODEL_SPACE
  1

  0
ENDBLK
  5
E
100
AcDbEntity
  8
0
390
0
100
AcDbBlockEnd
  0
BLOCK
  5
F
100
AcDbEntity
 67
               1
  8
0
390
0
100
AcDbBlockBegin
  2
*PAPER_SPACE
 70
               0
 10
0.0
 20
0.0
 30
0.0
  3
*PAPER_SPACE
  1

  0
ENDBLK
  5
10
100
AcDbEntity
 67
               1
  8
0
390
0
100
AcDbBlockEnd
  0
BLOCK
  5
4C
100
AcDbEntity
  8
0
390
0
100
AcDbBlockBegin
  2
_DOT
 70
               0
 10
0.0
 20
0.0
 30
0.0
  3
_DOT
  1

  0
POLYLINE
  5
4D
100
AcDbEntity
  8
0
370
              -2
390
0
  6
ByBlock
 62
               0
100
AcDb2dPolyline
 66
               1
 10
0.0
 20
0.0
 30
0.0
 70
               1
 40
0.5
 41
0.5
  0
VERTEX
  5
4E
100
AcDbEntity
  8
0
370
              -2
390
0
  6
ByBlock
 62
               0
100
AcDbVertex
100
AcDb2dVertex
 10
-0.25
 20
0.0
 30
0.0
 42
1.0
  0
VERTEX
  5
4F
100
AcDbEntity
  8
0
370
              -2
390
0
  6
ByBlock
 62
               0
100
AcDbVertex
100
AcDb2dVertex
 10
0.25
 20
0.0
 30
0.0
 42
1.0
  0
SEQEND
  5
50
100
AcDbEntity
  8
0
390
0
  0
LINE
  5
51
100
AcDbEntity
  8
0
370
              -2
390
0
  6
ByBlock
 62
               0
100
AcDbLine
 10
-0.5
 20
0.0
 30
0.0
 11
-1.0
 21
0.0
 31
0.0
  0
ENDBLK
  5
52
100
AcDbEntity
  8
0
390
0
100
AcDbBlockEnd
  0
BLOCK
  5
55
100
AcDbEntity
  8
0
370
              -2
390
0
  6
ByBlock
 62
               0
100
AcDbBlockBegin
  2
VW_FILLEDARROW
 70
               0
 10
0.0
 20
0.0
 30
0.0
  3
VW_FILLEDARROW
  1

  0
SOLID
  5
56
100
AcDbEntity
  8
0
370
              -2
390
0
 62
               0
100
AcDbTrace
 10
0.0
 20
0.0
 30
0.0
 11
-0.9921874999999999
 21
-0.2658558393652545
 31
0.0
 12
-0.9921874999999999
 22
0.2658558393652548
 32
0.0
 13
-0.9921874999999999
 23
0.2658558393652548
 33
0.0
  0
ENDBLK
  5
57
100
AcDbEntity
  8
0
390
0
100
AcDbBlockEnd
  0
BLOCK
  5
59
100
AcDbEntity
  8
notes
390
0
100
AcDbBlockBegin
  2
*D2
 70
               1
 10
0.0
 20
0.0
 30
0.0
  3
*D2
  1

  0
LINE
  5
5A
100
AcDbEntity
  8
0
370
              -2
390
0
  6
Continuous
 62
               0
100
AcDbLine
 10
-290.0
 20
837.28097757114119
 30
0.0
 11
-290.0
 21
962.32721291936627
 31
0.0
  0
LINE
  5
5B
100
AcDbEntity
  8
0
370
              -2
390
0
  6
Continuous
 62
               0
100
AcDbLine
 10
-690.0284094764902
 20
837.28097757114119
 30
0.0
 11
-690.0284094764902
 21
962.32721291936627
 31
0.0
  0
LINE
  5
5C
100
AcDbEntity
  8
0
370
              -2
390
0
  6
Continuous
 62
               0
100
AcDbLine
 10
-290.0
 20
962.32721291936627
 30
0.0
 11
-690.0284094764902
 21
962.32721291936627
 31
0.0
  0
CIRCLE
  5
5D
102
{ACAD_REACTORS
330
5E
102
}
100
AcDbEntity
  8
0
370
              -2
390
0
  6
Continuous
 62
               0
100
AcDbCircle
 10
-290.0
 20
962.32721291936627
 30
0.0
 40
1.9998779296875
  0
HATCH
  5
5E
100
AcDbEntity
  8
0
370
              -2
390
0
  6
Continuous
 62
               0
100
AcDbHatch
 10
0.0
 20
0.0
 30
0.0
210
0.0
220
0.0
230
1.0
  2
SOLID
 70
               1
 71
               1
 91
        1
 92
        1
 93
        1
 72
               2
 10
-290.0
 20
962.32721291936627
 40
1.9998779296875
 50
0.0
 51
360.0
 73
               0
 97
        1
330
5D
 75
               0
 76
               1
 98
        1
 10
0.0
 20
0.0
  0
CIRCLE
  5
5F
102
{ACAD_REACTORS
330
60
102
}
100
AcDbEntity
  8
0
370
              -2
390
0
  6
Continuous
 62
               0
100
AcDbCircle
 10
-690.0284094764902
 20
962.32721291936627
 30
0.0
 40
1.9998779296875
  0
HATCH
  5
60
100
AcDbEntity
  8
0
370
              -2
390
0
  6
Continuous
 62
               0
100
AcDbHatch
 10
0.0
 20
0.0
 30
0.0
210
0.0
220
0.0
230
1.0
  2
SOLID
 70
               1
 71
               1
 91
        1
 92
        1
 93
        1
 72
               2
 10
-690.0284094764902
 20
962.32721291936627
 40
1.9998779296875
 50
0.0
 51
360.0
 73
               0
 97
        1
330
5F
 75
               0
 76
               1
 98
        1
 10
0.0
 20
0.0
  0
MTEXT
  5
61
100
AcDbEntity
  8
0
390
0
 62
               0
100
AcDbMText
 10
-513.82670642042058
 20
996.20483010686632
 30
0.0
 40
24.432617187500004
 41
0.0
 71
               1
 72
               1
  1
400
  7
ＭＳ ゴシック
 73
               1
 44
0.7828267384257843
  0
POINT
  5
62
100
AcDbEntity
  8
Defpoints
370
               0
390
0
 62
               0
100
AcDbPoint
 10
-690.0284094764902
 20
812.28097757114119
 30
0.0
  0
POINT
  5
63
100
AcDbEntity
  8
Defpoints
370
               0
390
0
 62
               0
100
AcDbPoint
 10
-290.0
 20
812.28097757114119
 30
0.0
  0
POINT
  5
64
100
AcDbEntity
  8
Defpoints
370
               0
390
0
 62
               0
100
AcDbPoint
 10
-290.0
 20
962.32721291936627
 30
0.0
  0
ENDBLK
  5
65
100
AcDbEntity
  8
notes
390
0
100
AcDbBlockEnd
  0
BLOCK
  5
66
100
AcDbEntity
  8
notes
390
0
100
AcDbBlockBegin
  2
*D3
 70
               1
 10
0.0
 20
0.0
 30
0.0
  3
*D3
  1

  0
LINE
  5
67
100
AcDbEntity
  8
0
370
              -2
390
0
  6
Continuous
 62
               0
100
AcDbLine
 10
-715.0284094764902
 20
812.28097757114119
 30
0.0
 11
-790.0284094764902
 21
812.28097757114119
 31
0.0
  0
LINE
  5
68
100
AcDbEntity
  8
0
370
              -2
390
0
  6
Continuous
 62
               0
100
AcDbLine
 10
-715.0284094764902
 20
582.28097757114119
 30
0.0
 11
-790.0284094764902
 21
582.28097757114119
 31
0.0
  0
LINE
  5
69
100
AcDbEntity
  8
0
370
              -2
390
0
  6
Continuous
 62
               0
100
AcDbLine
 10
-790.0284094764902
 20
812.28097757114119
 30
0.0
 11
-790.0284094764902
 21
582.28097757114119
 31
0.0
  0
CIRCLE
  5
6A
102
{ACAD_REACTORS
330
6B
102
}
100
AcDbEntity
  8
0
370
              -2
390
0
  6
Continuous
 62
               0
100
AcDbCircle
 10
-790.0284094764902
 20
812.28097757114119
 30
0.0
 40
1.9998779296875
  0
HATCH
  5
6B
100
AcDbEntity
  8
0
370
              -2
390
0
  6
Continuous
 62
               0
100
AcDbHatch
 10
0.0
 20
0.0
 30
0.0
210
0.0
220
0.0
230
1.0
  2
SOLID
 70
               1
 71
               1
 91
        1
 92
        1
 93
        1
 72
               2
 10
-790.0284094764902
 20
812.28097757114119
 40
1.9998779296875
 50
0.0
 51
360.0
 73
               0
 97
        1
330
6A
 75
               0
 76
               1
 98
        1
 10
0.0
 20
0.0
  0
CIRCLE
  5
6C
102
{ACAD_REACTORS
330
6D
102
}
100
AcDbEntity
  8
0
370
              -2
390
0
  6
Continuous
 62
               0
100
AcDbCircle
 10
-790.0284094764902
 20
582.28097757114119
 30
0.0
 40
1.9998779296875
  0
HATCH
  5
6D
100
AcDbEntity
  8
0
370
              -2
390
0
  6
Continuous
 62
               0
100
AcDbHatch
 10
0.0
 20
0.0
 30
0.0
210
0.0
220
0.0
230
1.0
  2
SOLID
 70
               1
 71
               1
 91
        1
 92
        1
 93
        1
 72
               2
 10
-790.0284094764902
 20
582.28097757114119
 40
1.9998779296875
 50
0.0
 51
360.0
 73
               0
 97
        1
330
6C
 75
               0
 76
               1
 98
        1
 10
0.0
 20
0.0
  0
MTEXT
  5
6E
100
AcDbEntity
  8
0
390
0
 62
               0
100
AcDbMText
 10
-823.90602666399036
 20
673.46847588896571
 30
0.0
 40
24.432617187500004
 41
0.0
 71
               1
 72
               1
  1
230
  7
ＭＳ ゴシック
 11
0.0
 21
1.0
 31
0.0
 73
               1
 44
0.7828267384257843
  0
POINT
  5
6F
100
AcDbEntity
  8
Defpoints
370
               0
390
0
 62
               0
100
AcDbPoint
 10
-690.0284094764902
 20
582.28097757114119
 30
0.0
  0
POINT
  5
70
100
AcDbEntity
  8
Defpoints
370
               0
390
0
 62
               0
100
AcDbPoint
 10
-690.0284094764902
 20
812.28097757114119
 30
0.0
  0
POINT
  5
71
100
AcDbEntity
  8
Defpoints
370
               0
390
0
 62
               0
100
AcDbPoint
 10
-790.0284094764902
 20
812.28097757114119
 30
0.0
  0
ENDBLK
  5
72
100
AcDbEntity
  8
notes
390
0
100
AcDbBlockEnd
  0
BLOCK
  5
73
100
AcDbEntity
  8
notes
390
0
100
AcDbBlockBegin
  2
*D4
 70
               1
 10
0.0
 20
0.0
 30
0.0
  3
*D4
  1

  0
LINE
  5
74
100
AcDbEntity
  8
0
370
              -2
390
0
  6
Continuous
 62
               0
100
AcDbLine
 10
-300.02629526619603
 20
572.25406321775768
 30
0.0
 11
-300.02629526619603
 21
482.23474222291611
 31
0.0
  0
LINE
  5
75
100
AcDbEntity
  8
0
370
              -2
390
0
  6
Continuous
 62
               0
100
AcDbLine
 10
-620.02751129793705
 20
572.25406321775768
 30
0.0
 11
-620.02751129793705
 21
482.23474222291611
 31
0.0
  0
LINE
  5
76
100
AcDbEntity
  8
0
370
              -2
390
0
  6
Continuous
 62
               0
100
AcDbLine
 10
-300.02629526619603
 20
482.23474222291611
 30
0.0
 11
-620.02751129793705
 21
482.23474222291611
 31
0.0
  0
CIRCLE
  5
77
102
{ACAD_REACTORS
330
78
102
}
100
AcDbEntity
  8
0
370
              -2
390
0
  6
Continuous
 62
               0
100
AcDbCircle
 10
-300.02629526619603
 20
482.23474222291611
 30
0.0
 40
1.9998779296875
  0
HATCH
  5
78
100
AcDbEntity
  8
0
370
              -2
390
0
  6
Continuous
 62
               0
100
AcDbHatch
 10
0.0
 20
0.0
 30
0.0
210
0.0
220
0.0
230
1.0
  2
SOLID
 70
               1
 71
               1
 91
        1
 92
        1
 93
        1
 72
               2
 10
-300.02629526619603
 20
482.23474222291611
 40
1.9998779296875
 50
0.0
 51
360.0
 73
               0
 97
        1
330
77
 75
               0
 76
               1
 98
        1
 10
0.0
 20
0.0
  0
CIRCLE
  5
79
102
{ACAD_REACTORS
330
7A
102
}
100
AcDbEntity
  8
0
370
              -2
390
0
  6
Continuous
 62
               0
100
AcDbCircle
 10
-620.02751129793705
 20
482.23474222291611
 30
0.0
 40
1.9998779296875
  0
HATCH
  5
7A
100
AcDbEntity
  8
0
370
              -2
390
0
  6
Continuous
 62
               0
100
AcDbHatch
 10
0.0
 20
0.0
 30
0.0
210
0.0
220
0.0
230
1.0
  2
SOLID
 70
               1
 71
               1
 91
        1
 92
        1
 93
        1
 72
               2
 10
-620.02751129793705
 20
482.23474222291611
 40
1.9998779296875
 50
0.0
 51
360.0
 73
               0
 97
        1
330
79
 75
               0
 76
               1
 98
        1
 10
0.0
 20
0.0
  0
MTEXT
  5
7B
100
AcDbEntity
  8
0
390
0
 62
               0
100
AcDbMText
 10
-483.83940496424202
 20
516.11235941041616
 30
0.0
 40
24.432617187500004
 41
0.0
 71
               1
 72
               1
  1
320
  7
ＭＳ ゴシック
 73
               1
 44
0.7828267384257843
  0
POINT
  5
7C
100
AcDbEntity
  8
Defpoints
370
               0
390
0
 62
               0
100
AcDbPoint
 10
-620.02751129793705
 20
597.25406321775768
 30
0.0
  0
POINT
  5
7D
100
AcDbEntity
  8
Defpoints
370
               0
390
0
 62
               0
100
AcDbPoint
 10
-300.02629526619603
 20
597.25406321775768
 30
0.0
  0
POINT
  5
7E
100
AcDbEntity
  8
Defpoints
370
               0
390
0
 62
               0
100
AcDbPoint
 10
-300.02629526619603
 20
482.23474222291611
 30
0.0
  0
ENDBLK
  5
7F
100
AcDbEntity
  8
notes
390
0
100
AcDbBlockEnd
  0
BLOCK
  5
80
100
AcDbEntity
  8
notes
390
0
100
AcDbBlockBegin
  2
*D5
 70
               1
 10
0.0
 20
0.0
 30
0.0
  3
*D5
  1

  0
LINE
  5
81
100
AcDbEntity
  8
0
370
              -2
390
0
  6
Continuous
 62
               0
100
AcDbLine
 10
-280.00898881537159
 20
802.31383287750714
 30
0.0
 11
-187.0
 21
802.31383287750714
 31
0.0
  0
LINE
  5
82
100
AcDbEntity
  8
0
370
              -2
390
0
  6
Continuous
 62
               0
100
AcDbLine
 10
-280.00898881537159
 20
592.26362053397975
 30
0.0
 11
-187.0
 21
592.26362053397975
 31
0.0
  0
LINE
  5
83
100
AcDbEntity
  8
0
370
              -2
390
0
  6
Continuous
 62
               0
100
AcDbLine
 10
-187.0
 20
802.31383287750714
 30
0.0
 11
-187.0
 21
592.26362053397975
 31
0.0
  0
CIRCLE
  5
84
102
{ACAD_REACTORS
330
85
102
}
100
AcDbEntity
  8
0
370
              -2
390
0
  6
Continuous
 62
               0
100
AcDbCircle
 10
-187.0
 20
802.31383287750714
 30
0.0
 40
1.9998779296875
  0
HATCH
  5
85
100
AcDbEntity
  8
0
370
              -2
390
0
  6
Continuous
 62
               0
100
AcDbHatch
 10
0.0
 20
0.0
 30
0.0
210
0.0
220
0.0
230
1.0
  2
SOLID
 70
               1
 71
               1
 91
        1
 92
        1
 93
        1
 72
               2
 10
-187.0
 20
802.31383287750714
 40
1.9998779296875
 50
0.0
 51
360.0
 73
               0
 97
        1
330
84
 75
               0
 76
               1
 98
        1
 10
0.0
 20
0.0
  0
CIRCLE
  5
86
102
{ACAD_REACTORS
330
87
102
}
100
AcDbEntity
  8
0
370
              -2
390
0
  6
Continuous
 62
               0
100
AcDbCircle
 10
-187.0
 20
592.26362053397975
 30
0.0
 40
1.9998779296875
  0
HATCH
  5
87
100
AcDbEntity
  8
0
370
              -2
390
0
  6
Continuous
 62
               0
100
AcDbHatch
 10
0.0
 20
0.0
 30
0.0
210
0.0
220
0.0
230
1.0
  2
SOLID
 70
               1
 71
               1
 91
        1
 92
        1
 93
        1
 72
               2
 10
-187.0
 20
592.26362053397975
 40
1.9998779296875
 50
0.0
 51
360.0
 73
               0
 97
        1
330
86
 75
               0
 76
               1
 98
        1
 10
0.0
 20
0.0
  0
MTEXT
  5
88
100
AcDbEntity
  8
0
390
0
 62
               0
100
AcDbMText
 10
-220.87761718749994
 20
673.47622502356785
 30
0.0
 40
24.432617187500004
 41
0.0
 71
               1
 72
               1
  1
210
  7
ＭＳ ゴシック
 11
0.0
 21
1.0
 31
0.0
 73
               1
 44
0.7828267384257843
  0
POINT
  5
89
100
AcDbEntity
  8
Defpoints
370
               0
390
0
 62
               0
100
AcDbPoint
 10
-305.00898881537159
 20
592.26362053397975
 30
0.0
  0
POINT
  5
8A
100
AcDbEntity
  8
Defpoints
370
               0
390
0
 62
               0
100
AcDbPoint
 10
-305.00898881537159
 20
802.31383287750714
 30
0.0
  0
POINT
  5
8B
100
AcDbEntity
  8
Defpoints
370
               0
390
0
 62
               0
100
AcDbPoint
 10
-187.0
 20
802.31383287750714
 30
0.0
  0
ENDBLK
  5
8C
100
AcDbEntity
  8
notes
390
0
100
AcDbBlockEnd
  0
BLOCK
  5
8D
100
AcDbEntity
  8
notes
390
0
100
AcDbBlockBegin
  2
*D6
 70
               1
 10
0.0
 20
0.0
 30
0.0
  3
*D6
  1

  0
LINE
  5
8E
100
AcDbEntity
  8
0
370
              -2
390
0
  6
Continuous
 62
               0
100
AcDbLine
 10
-644.35575463725581
 20
711.86486417111985
 30
0.0
 11
-550.61819216579943
 21
853.19710479828143
 31
0.0
  0
CIRCLE
  5
8F
102
{ACAD_REACTORS
330
90
102
}
100
AcDbEntity
  8
0
370
              -2
390
0
  6
Continuous
 62
               0
100
AcDbCircle
 10
-644.35575463725581
 20
711.86486417111985
 30
0.0
 40
1.9998779296875
  0
HATCH
  5
90
100
AcDbEntity
  8
0
370
              -2
390
0
  6
Continuous
 62
               0
100
AcDbHatch
 10
0.0
 20
0.0
 30
0.0
210
0.0
220
0.0
230
1.0
  2
SOLID
 70
               1
 71
               1
 91
        1
 92
        1
 93
        1
 72
               2
 10
-644.35575463725581
 20
711.86486417111985
 40
1.9998779296875
 50
0.0
 51
360.0
 73
               0
 97
        1
330
8F
 75
               0
 76
               1
 98
        1
 10
0.0
 20
0.0
  0
LINE
  5
91
100
AcDbEntity
  8
0
370
              -2
390
0
  6
Continuous
 62
               0
100
AcDbLine
 10
-550.61819216579943
 20
853.19710479828143
 30
0.0
 11
-457.11819216579943
 21
853.19710479828143
 31
0.0
  0
MTEXT
  5
92
100
AcDbEntity
  8
0
390
0
 62
               0
100
AcDbMText
 10
-520.61819216579943
 20
887.07472198578148
 30
0.0
 40
24.432617187500004
 41
0.0
 71
               1
 72
               1
  1
φ35
  7
ＭＳ ゴシック
 73
               1
 44
0.7828267384257843
  0
POINT
  5
93
100
AcDbEntity
  8
Defpoints
370
               0
390
0
 62
               0
100
AcDbPoint
 10
-663.70106431572458
 20
682.69709097116254
 30
0.0
  0
POINT
  5
94
100
AcDbEntity
  8
Defpoints
370
               0
390
0
 62
               0
100
AcDbPoint
 10
-644.35575463725581
 20
711.86486417111985
 30
0.0
  0
ENDBLK
  5
95
100
AcDbEntity
  8
notes
390
0
100
AcDbBlockEnd
  0
BLOCK
  5
96
100
AcDbEntity
  8
notes
390
0
100
AcDbBlockBegin
  2
*D7
 70
               1
 10
0.0
 20
0.0
 30
0.0
  3
*D7
  1

  0
LINE
  5
97
100
AcDbEntity
  8
0
370
              -2
390
0
  6
Continuous
 62
               0
100
AcDbLine
 10
-620.02751129793705
 20
575.25406321775768
 30
0.0
 11
-620.02751129793705
 21
482.23474222291611
 31
0.0
  0
LINE
  5
98
100
AcDbEntity
  8
0
370
              -2
390
0
  6
Continuous
 62
               0
100
AcDbLine
 10
-690.02751129793705
 20
557.28097757114119
 30
0.0
 11
-690.02751129793705
 21
482.23474222291611
 31
0.0
  0
LINE
  5
99
100
AcDbEntity
  8
0
370
              -2
390
0
  6
Continuous
 62
               0
100
AcDbLine
 10
-620.02751129793705
 20
482.23474222291611
 30
0.0
 11
-690.02751129793705
 21
482.23474222291611
 31
0.0
  0
CIRCLE
  5
9A
102
{ACAD_REACTORS
330
9B
102
}
100
AcDbEntity
  8
0
370
              -2
390
0
  6
Continuous
 62
               0
100
AcDbCircle
 10
-620.02751129793705
 20
482.23474222291611
 30
0.0
 40
1.9998779296875
  0
HATCH
  5
9B
100
AcDbEntity
  8
0
370
              -2
390
0
  6
Continuous
 62
               0
100
AcDbHatch
 10
0.0
 20
0.0
 30
0.0
210
0.0
220
0.0
230
1.0
  2
SOLID
 70
               1
 71
               1
 91
        1
 92
        1
 93
        1
 72
               2
 10
-620.02751129793705
 20
482.23474222291611
 40
1.9998779296875
 50
0.0
 51
360.0
 73
               0
 97
        1
330
9A
 75
               0
 76
               1
 98
        1
 10
0.0
 20
0.0
  0
CIRCLE
  5
9C
102
{ACAD_REACTORS
330
9D
102
}
100
AcDbEntity
  8
0
370
              -2
390
0
  6
Continuous
 62
               0
100
AcDbCircle
 10
-690.02751129793705
 20
482.23474222291611
 30
0.0
 40
1.9998779296875
  0
HATCH
  5
9D
100
AcDbEntity
  8
0
370
              -2
390
0
  6
Continuous
 62
               0
100
AcDbHatch
 10
0.0
 20
0.0
 30
0.0
210
0.0
220
0.0
230
1.0
  2
SOLID
 70
               1
 71
               1
 91
        1
 92
        1
 93
        1
 72
               2
 10
-690.02751129793705
 20
482.23474222291611
 40
1.9998779296875
 50
0.0
 51
360.0
 73
               0
 97
        1
330
9C
 75
               0
 76
               1
 98
        1
 10
0.0
 20
0.0
  0
MTEXT
  5
9E
100
AcDbEntity
  8
0
390
0
 62
               0
100
AcDbMText
 10
-670.90251129793705
 20
516.11235941041616
 30
0.0
 40
24.432617187500004
 41
0.0
 71
               1
 72
               1
  1
70
  7
ＭＳ ゴシック
 73
               1
 44
0.7828267384257843
  0
POINT
  5
9F
100
AcDbEntity
  8
Defpoints
370
               0
390
0
 62
               0
100
AcDbPoint
 10
-690.02751129793705
 20
582.28097757114119
 30
0.0
  0
POINT
  5
A0
100
AcDbEntity
  8
Defpoints
370
               0
390
0
 62
               0
100
AcDbPoint
 10
-620.02751129793705
 20
600.25406321775768
 30
0.0
  0
POINT
  5
A1
100
AcDbEntity
  8
Defpoints
370
               0
390
0
 62
               0
100
AcDbPoint
 10
-620.02751129793705
 20
482.23474222291611
 30
0.0
  0
ENDBLK
  5
A2
100
AcDbEntity
  8
notes
390
0
100
AcDbBlockEnd
  0
BLOCK
  5
A3
100
AcDbEntity
  8
notes
390
0
100
AcDbBlockBegin
  2
*D8
 70
               1
 10
0.0
 20
0.0
 30
0.0
  3
*D8
  1

  0
LINE
  5
A4
100
AcDbEntity
  8
0
370
              -2
390
0
  6
Continuous
 62
               0
100
AcDbLine
 10
226.38770071231056
 20
837.32721291936627
 30
0.0
 11
226.38770071231056
 21
912.32721291936627
 31
0.0
  0
LINE
  5
A5
100
AcDbEntity
  8
0
370
              -2
390
0
  6
Continuous
 62
               0
100
AcDbLine
 10
241.36447690769864
 20
777.31369242681842
 30
0.0
 11
241.36447690769864
 21
912.32721291936627
 31
0.0
  0
LINE
  5
A6
100
AcDbEntity
  8
0
370
              -2
390
0
  6
Continuous
 62
               0
100
AcDbLine
 10
226.38770071231056
 20
912.32721291936627
 30
0.0
 11
241.36447690769864
 21
912.32721291936627
 31
0.0
  0
CIRCLE
  5
A7
102
{ACAD_REACTORS
330
A8
102
}
100
AcDbEntity
  8
0
370
              -2
390
0
  6
Continuous
 62
               0
100
AcDbCircle
 10
226.38770071231056
 20
912.32721291936627
 30
0.0
 40
1.9998779296875
  0
HATCH
  5
A8
100
AcDbEntity
  8
0
370
              -2
390
0
  6
Continuous
 62
               0
100
AcDbHatch
 10
0.0
 20
0.0
 30
0.0
210
0.0
220
0.0
230
1.0
  2
SOLID
 70
               1
 71
               1
 91
        1
 92
        1
 93
        1
 72
               2
 10
226.38770071231056
 20
912.32721291936627
 40
1.9998779296875
 50
0.0
 51
360.0
 73
               0
 97
        1
330
A7
 75
               0
 76
               1
 98
        1
 10
0.0
 20
0.0
  0
CIRCLE
  5
A9
102
{ACAD_REACTORS
330
AA
102
}
100
AcDbEntity
  8
0
370
              -2
390
0
  6
Continuous
 62
               0
100
AcDbCircle
 10
241.36447690769864
 20
912.32721291936627
 30
0.0
 40
1.9998779296875
  0
HATCH
  5
AA
100
AcDbEntity
  8
0
370
              -2
390
0
  6
Continuous
 62
               0
100
AcDbHatch
 10
0.0
 20
0.0
 30
0.0
210
0.0
220
0.0
230
1.0
  2
SOLID
 70
               1
 71
               1
 91
        1
 92
        1
 93
        1
 72
               2
 10
241.36447690769864
 20
912.32721291936627
 40
1.9998779296875
 50
0.0
 51
360.0
 73
               0
 97
        1
330
A9
 75
               0
 76
               1
 98
        1
 10
0.0
 20
0.0
  0
MTEXT
  5
AB
100
AcDbEntity
  8
0
390
0
 62
               0
100
AcDbMText
 10
218.0010888100046
 20
946.20483010686621
 30
0.0
 40
24.432617187500004
 41
0.0
 71
               1
 72
               1
  1
15
  7
ＭＳ ゴシック
 73
               1
 44
0.7828267384257843
  0
POINT
  5
AC
100
AcDbEntity
  8
Defpoints
370
               0
390
0
 62
               0
100
AcDbPoint
 10
241.36447690769864
 20
752.31369242681842
 30
0.0
  0
POINT
  5
AD
100
AcDbEntity
  8
Defpoints
370
               0
390
0
 62
               0
100
AcDbPoint
 10
226.38770071231056
 20
812.32721291936627
 30
0.0
  0
POINT
  5
AE
100
AcDbEntity
  8
Defpoints
370
               0
390
0
 62
               0
100
AcDbPoint
 10
226.38770071231056
 20
912.32721291936627
 30
0.0
  0
ENDBLK
  5
AF
100
AcDbEntity
  8
notes
390
0
100
AcDbBlockEnd
  0
BLOCK
  5
B0
100
AcDbEntity
  8
notes
390
0
100
AcDbBlockBegin
  2
*D9
 70
               1
 10
0.0
 20
0.0
 30
0.0
  3
*D9
  1

  0
LINE
  5
B1
100
AcDbEntity
  8
0
370
              -2
390
0
  6
Continuous
 62
               0
100
AcDbLine
 10
241.36447690769864
 20
777.31369242681842
 30
0.0
 11
241.36447690769864
 21
912.32721291936627
 31
0.0
  0
LINE
  5
B2
100
AcDbEntity
  8
0
370
              -2
390
0
  6
Continuous
 62
               0
100
AcDbLine
 10
351.36447690770046
 20
777.31369242681842
 30
0.0
 11
351.36447690770046
 21
912.32721291936627
 31
0.0
  0
LINE
  5
B3
100
AcDbEntity
  8
0
370
              -2
390
0
  6
Continuous
 62
               0
100
AcDbLine
 10
241.36447690769864
 20
912.32721291936627
 30
0.0
 11
351.36447690770046
 21
912.32721291936627
 31
0.0
  0
CIRCLE
  5
B4
102
{ACAD_REACTORS
330
B5
102
}
100
AcDbEntity
  8
0
370
              -2
390
0
  6
Continuous
 62
               0
100
AcDbCircle
 10
241.36447690769864
 20
912.32721291936627
 30
0.0
 40
1.9998779296875
  0
HATCH
  5
B5
100
AcDbEntity
  8
0
370
              -2
390
0
  6
Continuous
 62
               0
100
AcDbHatch
 10
0.0
 20
0.0
 30
0.0
210
0.0
220
0.0
230
1.0
  2
SOLID
 70
               1
 71
               1
 91
        1
 92
        1
 93
        1
 72
               2
 10
241.36447690769864
 20
912.32721291936627
 40
1.9998779296875
 50
0.0
 51
360.0
 73
               0
 97
        1
330
B4
 75
               0
 76
               1
 98
        1
 10
0.0
 20
0.0
  0
CIRCLE
  5
B6
102
{ACAD_REACTORS
330
B7
102
}
100
AcDbEntity
  8
0
370
              -2
390
0
  6
Continuous
 62
               0
100
AcDbCircle
 10
351.36447690770046
 20
912.32721291936627
 30
0.0
 40
1.9998779296875
  0
HATCH
  5
B7
100
AcDbEntity
  8
0
370
              -2
390
0
  6
Continuous
 62
               0
100
AcDbHatch
 10
0.0
 20
0.0
 30
0.0
210
0.0
220
0.0
230
1.0
  2
SOLID
 70
               1
 71
               1
 91
        1
 92
        1
 93
        1
 72
               2
 10
351.36447690770046
 20
912.32721291936627
 40
1.9998779296875
 50
0.0
 51
360.0
 73
               0
 97
        1
330
B6
 75
               0
 76
               1
 98
        1
 10
0.0
 20
0.0
  0
MTEXT
  5
B8
100
AcDbEntity
  8
0
390
0
 62
               0
100
AcDbMText
 10
272.55197522552407
 20
946.20483010686621
 30
0.0
 40
24.432617187500004
 41
0.0
 71
               1
 72
               1
  1
110
  7
ＭＳ ゴシック
 73
               1
 44
0.7828267384257843
  0
POINT
  5
B9
100
AcDbEntity
  8
Defpoints
370
               0
390
0
 62
               0
100
AcDbPoint
 10
351.36447690770046
 20
752.31369242681842
 30
0.0
  0
POINT
  5
BA
100
AcDbEntity
  8
Defpoints
370
               0
390
0
 62
               0
100
AcDbPoint
 10
241.36447690769864
 20
752.31369242681842
 30
0.0
  0
POINT
  5
BB
100
AcDbEntity
  8
Defpoints
370
               0
390
0
 62
               0
100
AcDbPoint
 10
241.36447690769864
 20
912.32721291936627
 30
0.0
  0
ENDBLK
  5
BC
100
AcDbEntity
  8
notes
390
0
100
AcDbBlockEnd
  0
BLOCK
  5
BD
100
AcDbEntity
  8
notes
390
0
100
AcDbBlockBegin
  2
*D10
 70
               1
 10
0.0
 20
0.0
 30
0.0
  3
*D10
  1

  0
LINE
  5
BE
100
AcDbEntity
  8
0
370
              -2
390
0
  6
Continuous
 62
               0
100
AcDbLine
 10
401.36447690770137
 20
777.31369242681842
 30
0.0
 11
401.36447690770137
 21
912.32721291936627
 31
0.0
  0
LINE
  5
BF
100
AcDbEntity
  8
0
370
              -2
390
0
  6
Continuous
 62
               0
100
AcDbLine
 10
511.36447690770228
 20
777.31369242681842
 30
0.0
 11
511.36447690770228
 21
912.32721291936627
 31
0.0
  0
LINE
  5
C0
100
AcDbEntity
  8
0
370
              -2
390
0
  6
Continuous
 62
               0
100
AcDbLine
 10
401.36447690770137
 20
912.32721291936627
 30
0.0
 11
511.36447690770228
 21
912.32721291936627
 31
0.0
  0
CIRCLE
  5
C1
102
{ACAD_REACTORS
330
C2
102
}
100
AcDbEntity
  8
0
370
              -2
390
0
  6
Continuous
 62
               0
100
AcDbCircle
 10
401.36447690770137
 20
912.32721291936627
 30
0.0
 40
1.9998779296875
  0
HATCH
  5
C2
100
AcDbEntity
  8
0
370
              -2
390
0
  6
Continuous
 62
               0
100
AcDbHatch
 10
0.0
 20
0.0
 30
0.0
210
0.0
220
0.0
230
1.0
  2
SOLID
 70
               1
 71
               1
 91
        1
 92
        1
 93
        1
 72
               2
 10
401.36447690770137
 20
912.32721291936627
 40
1.9998779296875
 50
0.0
 51
360.0
 73
               0
 97
        1
330
C1
 75
               0
 76
               1
 98
        1
 10
0.0
 20
0.0
  0
CIRCLE
  5
C3
102
{ACAD_REACTORS
330
C4
102
}
100
AcDbEntity
  8
0
370
              -2
390
0
  6
Continuous
 62
               0
100
AcDbCircle
 10
511.36447690770228
 20
912.32721291936627
 30
0.0
 40
1.9998779296875
  0
HATCH
  5
C4
100
AcDbEntity
  8
0
370
              -2
390
0
  6
Continuous
 62
               0
100
AcDbHatch
 10
0.0
 20
0.0
 30
0.0
210
0.0
220
0.0
230
1.0
  2
SOLID
 70
               1
 71
               1
 91
        1
 92
        1
 93
        1
 72
               2
 10
511.36447690770228
 20
912.32721291936627
 40
1.9998779296875
 50
0.0
 51
360.0
 73
               0
 97
        1
330
C3
 75
               0
 76
               1
 98
        1
 10
0.0
 20
0.0
  0
MTEXT
  5
C5
100
AcDbEntity
  8
0
390
0
 62
               0
100
AcDbMText
 10
432.55197522552635
 20
946.20483010686621
 30
0.0
 40
24.432617187500004
 41
0.0
 71
               1
 72
               1
  1
110
  7
ＭＳ ゴシック
 73
               1
 44
0.7828267384257843
  0
POINT
  5
C6
100
AcDbEntity
  8
Defpoints
370
               0
390
0
 62
               0
100
AcDbPoint
 10
511.36447690770228
 20
752.31369242681842
 30
0.0
  0
POINT
  5
C7
100
AcDbEntity
  8
Defpoints
370
               0
390
0
 62
               0
100
AcDbPoint
 10
401.36447690770137
 20
752.31369242681842
 30
0.0
  0
POINT
  5
C8
100
AcDbEntity
  8
Defpoints
370
               0
390
0
 62
               0
100
AcDbPoint
 10
401.36447690770137
 20
912.32721291936627
 30
0.0
  0
ENDBLK
  5
C9
100
AcDbEntity
  8
notes
390
0
100
AcDbBlockEnd
  0
BLOCK
  5
CA
100
AcDbEntity
  8
notes
390
0
100
AcDbBlockBegin
  2
*D11
 70
               1
 10
0.0
 20
0.0
 30
0.0
  3
*D11
  1

  0
LINE
  5
CB
100
AcDbEntity
  8
0
370
              -2
390
0
  6
Continuous
 62
               0
100
AcDbLine
 10
536.36447690770228
 20
752.31369242681842
 30
0.0
 11
726.41611018880712
 21
752.31369242681842
 31
0.0
  0
LINE
  5
CC
100
AcDbEntity
  8
0
370
              -2
390
0
  6
Continuous
 62
               0
100
AcDbLine
 10
536.36447690770228
 20
642.31369242681842
 30
0.0
 11
726.41611018880712
 21
642.31369242681842
 31
0.0
  0
LINE
  5
CD
100
AcDbEntity
  8
0
370
              -2
390
0
  6
Continuous
 62
               0
100
AcDbLine
 10
726.41611018880712
 20
752.31369242681842
 30
0.0
 11
726.41611018880712
 21
642.31369242681842
 31
0.0
  0
CIRCLE
  5
CE
102
{ACAD_REACTORS
330
CF
102
}
100
AcDbEntity
  8
0
370
              -2
390
0
  6
Continuous
 62
               0
100
AcDbCircle
 10
726.41611018880712
 20
752.31369242681842
 30
0.0
 40
1.9998779296875
  0
HATCH
  5
CF
100
AcDbEntity
  8
0
370
              -2
390
0
  6
Continuous
 62
               0
100
AcDbHatch
 10
0.0
 20
0.0
 30
0.0
210
0.0
220
0.0
230
1.0
  2
SOLID
 70
               1
 71
               1
 91
        1
 92
        1
 93
        1
 72
               2
 10
726.41611018880712
 20
752.31369242681842
 40
1.9998779296875
 50
0.0
 51
360.0
 73
               0
 97
        1
330
CE
 75
               0
 76
               1
 98
        1
 10
0.0
 20
0.0
  0
CIRCLE
  5
D0
102
{ACAD_REACTORS
330
D1
102
}
100
AcDbEntity
  8
0
370
              -2
390
0
  6
Continuous
 62
               0
100
AcDbCircle
 10
726.41611018880712
 20
642.31369242681842
 30
0.0
 40
1.9998779296875
  0
HATCH
  5
D1
100
AcDbEntity
  8
0
370
              -2
390
0
  6
Continuous
 62
               0
100
AcDbHatch
 10
0.0
 20
0.0
 30
0.0
210
0.0
220
0.0
230
1.0
  2
SOLID
 70
               1
 71
               1
 91
        1
 92
        1
 93
        1
 72
               2
 10
726.41611018880712
 20
642.31369242681842
 40
1.9998779296875
 50
0.0
 51
360.0
 73
               0
 97
        1
330
D0
 75
               0
 76
               1
 98
        1
 10
0.0
 20
0.0
  0
MTEXT
  5
D2
100
AcDbEntity
  8
0
390
0
 62
               0
100
AcDbMText
 10
692.53849300130707
 20
673.50119074464283
 30
0.0
 40
24.432617187500004
 41
0.0
 71
               1
 72
               1
  1
110
  7
ＭＳ ゴシック
 11
0.0
 21
1.0
 31
0.0
 73
               1
 44
0.7828267384257843
  0
POINT
  5
D3
100
AcDbEntity
  8
Defpoints
370
               0
390
0
 62
               0
100
AcDbPoint
 10
511.36447690770228
 20
642.31369242681842
 30
0.0
  0
POINT
  5
D4
100
AcDbEntity
  8
Defpoints
370
               0
390
0
 62
               0
100
AcDbPoint
 10
511.36447690770228
 20
752.31369242681842
 30
0.0
  0
POINT
  5
D5
100
AcDbEntity
  8
Defpoints
370
               0
390
0
 62
               0
100
AcDbPoint
 10
726.41611018880712
 20
752.31369242681842
 30
0.0
  0
ENDBLK
  5
D6
100
AcDbEntity
  8
notes
390
0
100
AcDbBlockEnd
  0
BLOCK
  5
D7
100
AcDbEntity
  8
notes
390
0
100
AcDbBlockBegin
  2
*D12
 70
               1
 10
0.0
 20
0.0
 30
0.0
  3
*D12
  1

  0
LINE
  5
D8
100
AcDbEntity
  8
0
370
              -2
390
0
  6
Continuous
 62
               0
100
AcDbLine
 10
423.21640827227111
 20
-508.6174575047462
 30
0.0
 11
265.04752963237934
 21
-508.6174575047462
 31
0.0
  0
LINE
  5
D9
100
AcDbEntity
  8
0
370
              -2
390
0
  6
Continuous
 62
               0
100
AcDbLine
 10
345.03797231615681
 20
-403.6174575047462
 30
0.0
 11
265.04752963237934
 21
-403.6174575047462
 31
0.0
  0
LINE
  5
DA
100
AcDbEntity
  8
0
370
              -2
390
0
  6
Continuous
 62
               0
100
AcDbLine
 10
265.04752963237934
 20
-508.6174575047462
 30
0.0
 11
265.04752963237934
 21
-403.6174575047462
 31
0.0
  0
CIRCLE
  5
DB
102
{ACAD_REACTORS
330
DC
102
}
100
AcDbEntity
  8
0
370
              -2
390
0
  6
Continuous
 62
               0
100
AcDbCircle
 10
265.04752963237934
 20
-508.6174575047462
 30
0.0
 40
1.9998779296875
  0
HATCH
  5
DC
100
AcDbEntity
  8
0
370
              -2
390
0
  6
Continuous
 62
               0
100
AcDbHatch
 10
0.0
 20
0.0
 30
0.0
210
0.0
220
0.0
230
1.0
  2
SOLID
 70
               1
 71
               1
 91
        1
 92
        1
 93
        1
 72
               2
 10
265.04752963237934
 20
-508.6174575047462
 40
1.9998779296875
 50
0.0
 51
360.0
 73
               0
 97
        1
330
DB
 75
               0
 76
               1
 98
        1
 10
0.0
 20
0.0
  0
CIRCLE
  5
DD
102
{ACAD_REACTORS
330
DE
102
}
100
AcDbEntity
  8
0
370
              -2
390
0
  6
Continuous
 62
               0
100
AcDbCircle
 10
265.04752963237934
 20
-403.6174575047462
 30
0.0
 40
1.9998779296875
  0
HATCH
  5
DE
100
AcDbEntity
  8
0
370
              -2
390
0
  6
Continuous
 62
               0
100
AcDbHatch
 10
0.0
 20
0.0
 30
0.0
210
0.0
220
0.0
230
1.0
  2
SOLID
 70
               1
 71
               1
 91
        1
 92
        1
 93
        1
 72
               2
 10
265.04752963237934
 20
-403.6174575047462
 40
1.9998779296875
 50
0.0
 51
360.0
 73
               0
 97
        1
330
DD
 75
               0
 76
               1
 98
        1
 10
0.0
 20
0.0
  0
MTEXT
  5
DF
100
AcDbEntity
  8
0
390
0
 62
               0
100
AcDbMText
 10
231.1699124448794
 20
-479.92995918692168
 30
0.0
 40
24.432617187500004
 41
0.0
 71
               1
 72
               1
  1
105
  7
ＭＳ ゴシック
 11
0.0
 21
1.0
 31
0.0
 73
               1
 44
0.7828267384257843
  0
POINT
  5
E0
100
AcDbEntity
  8
Defpoints
370
               0
390
0
 62
               0
100
AcDbPoint
 10
370.03797231615681
 20
-403.6174575047462
 30
0.0
  0
POINT
  5
E1
100
AcDbEntity
  8
Defpoints
370
               0
390
0
 62
               0
100
AcDbPoint
 10
448.21640827227111
 20
-508.6174575047462
 30
0.0
  0
POINT
  5
E2
100
AcDbEntity
  8
Defpoints
370
               0
390
0
 62
               0
100
AcDbPoint
 10
265.04752963237934
 20
-508.6174575047462
 30
0.0
  0
ENDBLK
  5
E3
100
AcDbEntity
  8
notes
390
0
100
AcDbBlockEnd
  0
BLOCK
  5
E4
100
AcDbEntity
  8
notes
390
0
100
AcDbBlockBegin
  2
*D13
 70
               1
 10
0.0
 20
0.0
 30
0.0
  3
*D13
  1

  0
LINE
  5
E5
100
AcDbEntity
  8
0
370
              -2
390
0
  6
Continuous
 62
               0
100
AcDbLine
 10
455.09893107033804
 20
-488.63579727394381
 30
0.0
 11
480.08859889086898
 21
-488.63579727394381
 31
0.0
  0
LINE
  5
E6
100
AcDbEntity
  8
0
370
              -2
390
0
  6
Continuous
 62
               0
100
AcDbLine
 10
455.08859889086943
 20
-403.63579727394381
 30
0.0
 11
480.08859889086898
 21
-403.63579727394381
 31
0.0
  0
LINE
  5
E7
100
AcDbEntity
  8
0
370
              -2
390
0
  6
Continuous
 62
               0
100
AcDbLine
 10
480.08859889086898
 20
-403.63579727394381
 30
0.0
 11
480.08859889086898
 21
-269.92711988293854
 31
0.0
  0
LINE
  5
E8
100
AcDbEntity
  8
0
370
              -2
390
0
  6
Continuous
 62
               0
100
AcDbLine
 10
480.08859889086898
 20
-488.63579727394381
 30
0.0
 11
480.08859889086898
 21
-403.63579727394381
 31
0.0
  0
CIRCLE
  5
E9
102
{ACAD_REACTORS
330
EA
102
}
100
AcDbEntity
  8
0
370
              -2
390
0
  6
Continuous
 62
               0
100
AcDbCircle
 10
480.08859889086898
 20
-488.63579727394381
 30
0.0
 40
1.9998779296875
  0
HATCH
  5
EA
100
AcDbEntity
  8
0
370
              -2
390
0
  6
Continuous
 62
               0
100
AcDbHatch
 10
0.0
 20
0.0
 30
0.0
210
0.0
220
0.0
230
1.0
  2
SOLID
 70
               1
 71
               1
 91
        1
 92
        1
 93
        1
 72
               2
 10
480.08859889086898
 20
-488.63579727394381
 40
1.9998779296875
 50
0.0
 51
360.0
 73
               0
 97
        1
330
E9
 75
               0
 76
               1
 98
        1
 10
0.0
 20
0.0
  0
CIRCLE
  5
EB
102
{ACAD_REACTORS
330
EC
102
}
100
AcDbEntity
  8
0
370
              -2
390
0
  6
Continuous
 62
               0
100
AcDbCircle
 10
480.08859889086898
 20
-403.63579727394381
 30
0.0
 40
1.9998779296875
  0
HATCH
  5
EC
100
AcDbEntity
  8
0
370
              -2
390
0
  6
Continuous
 62
               0
100
AcDbHatch
 10
0.0
 20
0.0
 30
0.0
210
0.0
220
0.0
230
1.0
  2
SOLID
 70
               1
 71
               1
 91
        1
 92
        1
 93
        1
 72
               2
 10
480.08859889086898
 20
-403.63579727394381
 40
1.9998779296875
 50
0.0
 51
360.0
 73
               0
 97
        1
330
EB
 75
               0
 76
               1
 98
        1
 10
0.0
 20
0.0
  0
MTEXT
  5
ED
100
AcDbEntity
  8
0
390
0
 62
               0
100
AcDbMText
 10
446.21098170336904
 20
-396.92711988293854
 30
0.0
 40
24.432617187500004
 41
0.0
 71
               1
 72
               1
  1
85(深さ)
  7
ＭＳ ゴシック
 11
0.0
 21
1.0
 31
0.0
 73
               1
 44
0.7828267384257843
  0
POINT
  5
EE
100
AcDbEntity
  8
Defpoints
370
               0
390
0
 62
               0
100
AcDbPoint
 10
480.08859889086943
 20
-403.63579727394381
 30
0.0
  0
POINT
  5
EF
100
AcDbEntity
  8
Defpoints
370
               0
390
0
 62
               0
100
AcDbPoint
 10
480.09893107033804
 20
-488.63579727394381
 30
0.0
  0
POINT
  5
F0
100
AcDbEntity
  8
Defpoints
370
               0
390
0
 62
               0
100
AcDbPoint
 10
480.08859889086898
 20
-488.63579727394381
 30
0.0
  0
ENDBLK
  5
F1
100
AcDbEntity
  8
notes
390
0
100
AcDbBlockEnd
  0
BLOCK
  5
F2
100
AcDbEntity
  8
notes
390
0
100
AcDbBlockBegin
  2
*D14
 70
               1
 10
0.0
 20
0.0
 30
0.0
  3
*D14
  1

  0
LINE
  5
F3
100
AcDbEntity
  8
0
370
              -2
390
0
  6
Continuous
 62
               0
100
AcDbLine
 10
620.14516641856335
 20
-513.60790018852322
 30
0.0
 11
695.14516641856335
 21
-513.60790018852322
 31
0.0
  0
LINE
  5
F4
100
AcDbEntity
  8
0
370
              -2
390
0
  6
Continuous
 62
               0
100
AcDbLine
 10
615.14697460018351
 20
-403.60790018852322
 30
0.0
 11
695.14516641856335
 21
-403.60790018852322
 31
0.0
  0
LINE
  5
F5
100
AcDbEntity
  8
0
370
              -2
390
0
  6
Continuous
 62
               0
100
AcDbLine
 10
695.14516641856335
 20
-513.60790018852322
 30
0.0
 11
695.14516641856335
 21
-403.60790018852322
 31
0.0
  0
CIRCLE
  5
F6
102
{ACAD_REACTORS
330
F7
102
}
100
AcDbEntity
  8
0
370
              -2
390
0
  6
Continuous
 62
               0
100
AcDbCircle
 10
695.14516641856335
 20
-513.60790018852322
 30
0.0
 40
1.9998779296875
  0
HATCH
  5
F7
100
AcDbEntity
  8
0
370
              -2
390
0
  6
Continuous
 62
               0
100
AcDbHatch
 10
0.0
 20
0.0
 30
0.0
210
0.0
220
0.0
230
1.0
  2
SOLID
 70
               1
 71
               1
 91
        1
 92
        1
 93
        1
 72
               2
 10
695.14516641856335
 20
-513.60790018852322
 40
1.9998779296875
 50
0.0
 51
360.0
 73
               0
 97
        1
330
F6
 75
               0
 76
               1
 98
        1
 10
0.0
 20
0.0
  0
CIRCLE
  5
F8
102
{ACAD_REACTORS
330
F9
102
}
100
AcDbEntity
  8
0
370
              -2
390
0
  6
Continuous
 62
               0
100
AcDbCircle
 10
695.14516641856335
 20
-403.60790018852322
 30
0.0
 40
1.9998779296875
  0
HATCH
  5
F9
100
AcDbEntity
  8
0
370
              -2
390
0
  6
Continuous
 62
               0
100
AcDbHatch
 10
0.0
 20
0.0
 30
0.0
210
0.0
220
0.0
230
1.0
  2
SOLID
 70
               1
 71
               1
 91
        1
 92
        1
 93
        1
 72
               2
 10
695.14516641856335
 20
-403.60790018852322
 40
1.9998779296875
 50
0.0
 51
360.0
 73
               0
 97
        1
330
F8
 75
               0
 76
               1
 98
        1
 10
0.0
 20
0.0
  0
MTEXT
  5
FA
100
AcDbEntity
  8
0
390
0
 62
               0
100
AcDbMText
 10
661.2675492310633
 20
-482.4204018706987
 30
0.0
 40
24.432617187500004
 41
0.0
 71
               1
 72
               1
  1
110
  7
ＭＳ ゴシック
 11
0.0
 21
1.0
 31
0.0
 73
               1
 44
0.7828267384257843
  0
POINT
  5
FB
100
AcDbEntity
  8
Defpoints
370
               0
390
0
 62
               0
100
AcDbPoint
 10
590.14697460018351
 20
-403.60790018852322
 30
0.0
  0
POINT
  5
FC
100
AcDbEntity
  8
Defpoints
370
               0
390
0
 62
               0
100
AcDbPoint
 10
595.14516641856335
 20
-513.60790018852322
 30
0.0
  0
POINT
  5
FD
100
AcDbEntity
  8
Defpoints
370
               0
390
0
 62
               0
100
AcDbPoint
 10
695.14516641856335
 20
-513.60790018852322
 30
0.0
  0
ENDBLK
  5
FE
100
AcDbEntity
  8
notes
390
0
100
AcDbBlockEnd
  0
BLOCK
  5
FF
100
AcDbEntity
  8
notes
390
0
100
AcDbBlockBegin
  2
*D15
 70
               1
 10
0.0
 20
0.0
 30
0.0
  3
*D15
  1

  0
LINE
  5
100
100
AcDbEntity
  8
0
370
              -2
390
0
  6
Continuous
 62
               0
100
AcDbLine
 10
595.14516641856335
 20
-538.60790018852322
 30
0.0
 11
595.14516641856335
 21
-613.60790018852322
 31
0.0
  0
LINE
  5
101
100
AcDbEntity
  8
0
370
              -2
390
0
  6
Continuous
 62
               0
100
AcDbLine
 10
480.09634802547134
 20
-533.61229141501144
 30
0.0
 11
480.09634802547134
 21
-613.60790018852322
 31
0.0
  0
LINE
  5
102
100
AcDbEntity
  8
0
370
              -2
390
0
  6
Continuous
 62
               0
100
AcDbLine
 10
595.14516641856335
 20
-613.60790018852322
 30
0.0
 11
480.09634802547134
 21
-613.60790018852322
 31
0.0
  0
CIRCLE
  5
103
102
{ACAD_REACTORS
330
104
102
}
100
AcDbEntity
  8
0
370
              -2
390
0
  6
Continuous
 62
               0
100
AcDbCircle
 10
595.14516641856335
 20
-613.60790018852322
 30
0.0
 40
1.9998779296875
  0
HATCH
  5
104
100
AcDbEntity
  8
0
370
              -2
390
0
  6
Continuous
 62
               0
100
AcDbHatch
 10
0.0
 20
0.0
 30
0.0
210
0.0
220
0.0
230
1.0
  2
SOLID
 70
               1
 71
               1
 91
        1
 92
        1
 93
        1
 72
               2
 10
595.14516641856335
 20
-613.60790018852322
 40
1.9998779296875
 50
0.0
 51
360.0
 73
               0
 97
        1
330
103
 75
               0
 76
               1
 98
        1
 10
0.0
 20
0.0
  0
CIRCLE
  5
105
102
{ACAD_REACTORS
330
106
102
}
100
AcDbEntity
  8
0
370
              -2
390
0
  6
Continuous
 62
               0
100
AcDbCircle
 10
480.09634802547134
 20
-613.60790018852322
 30
0.0
 40
1.9998779296875
  0
HATCH
  5
106
100
AcDbEntity
  8
0
370
              -2
390
0
  6
Continuous
 62
               0
100
AcDbHatch
 10
0.0
 20
0.0
 30
0.0
210
0.0
220
0.0
230
1.0
  2
SOLID
 70
               1
 71
               1
 91
        1
 92
        1
 93
        1
 72
               2
 10
480.09634802547134
 20
-613.60790018852322
 40
1.9998779296875
 50
0.0
 51
360.0
 73
               0
 97
        1
330
105
 75
               0
 76
               1
 98
        1
 10
0.0
 20
0.0
  0
MTEXT
  5
107
100
AcDbEntity
  8
0
390
0
 62
               0
100
AcDbMText
 10
513.80825553984187
 20
-579.73028300102328
 30
0.0
 40
24.432617187500004
 41
0.0
 71
               1
 72
               1
  1
115
  7
ＭＳ ゴシック
 73
               1
 44
0.7828267384257843
  0
POINT
  5
108
100
AcDbEntity
  8
Defpoints
370
               0
390
0
 62
               0
100
AcDbPoint
 10
480.09634802547134
 20
-508.61229141501144
 30
0.0
  0
POINT
  5
109
100
AcDbEntity
  8
Defpoints
370
               0
390
0
 62
               0
100
AcDbPoint
 10
595.14516641856335
 20
-513.60790018852322
 30
0.0
  0
POINT
  5
10A
100
AcDbEntity
  8
Defpoints
370
               0
390
0
 62
               0
100
AcDbPoint
 10
595.14516641856335
 20
-613.60790018852322
 30
0.0
  0
ENDBLK
  5
10B
100
AcDbEntity
  8
notes
390
0
100
AcDbBlockEnd
  0
BLOCK
  5
10C
100
AcDbEntity
  8
notes
390
0
100
AcDbBlockBegin
  2
*D16
 70
               1
 10
0.0
 20
0.0
 30
0.0
  3
*D16
  1

  0
LINE
  5
10D
100
AcDbEntity
  8
0
370
              -2
390
0
  6
Continuous
 62
               0
100
AcDbLine
 10
423.21640827227111
 20
-508.6174575047462
 30
0.0
 11
265.04752963237934
 21
-508.6174575047462
 31
0.0
  0
LINE
  5
10E
100
AcDbEntity
  8
0
370
              -2
390
0
  6
Continuous
 62
               0
100
AcDbLine
 10
340.04752963237934
 20
-513.60790018852322
 30
0.0
 11
265.04752963237934
 21
-513.60790018852322
 31
0.0
  0
LINE
  5
10F
100
AcDbEntity
  8
0
370
              -2
390
0
  6
Continuous
 62
               0
100
AcDbLine
 10
265.04752963237934
 20
-508.6174575047462
 30
0.0
 11
265.04752963237934
 21
-513.60790018852322
 31
0.0
  0
CIRCLE
  5
110
102
{ACAD_REACTORS
330
111
102
}
100
AcDbEntity
  8
0
370
              -2
390
0
  6
Continuous
 62
               0
100
AcDbCircle
 10
265.04752963237934
 20
-508.6174575047462
 30
0.0
 40
1.9998779296875
  0
HATCH
  5
111
100
AcDbEntity
  8
0
370
              -2
390
0
  6
Continuous
 62
               0
100
AcDbHatch
 10
0.0
 20
0.0
 30
0.0
210
0.0
220
0.0
230
1.0
  2
SOLID
 70
               1
 71
               1
 91
        1
 92
        1
 93
        1
 72
               2
 10
265.04752963237934
 20
-508.6174575047462
 40
1.9998779296875
 50
0.0
 51
360.0
 73
               0
 97
        1
330
110
 75
               0
 76
               1
 98
        1
 10
0.0
 20
0.0
  0
CIRCLE
  5
112
102
{ACAD_REACTORS
330
113
102
}
100
AcDbEntity
  8
0
370
              -2
390
0
  6
Continuous
 62
               0
100
AcDbCircle
 10
265.04752963237934
 20
-513.60790018852322
 30
0.0
 40
1.9998779296875
  0
HATCH
  5
113
100
AcDbEntity
  8
0
370
              -2
390
0
  6
Continuous
 62
               0
100
AcDbHatch
 10
0.0
 20
0.0
 30
0.0
210
0.0
220
0.0
230
1.0
  2
SOLID
 70
               1
 71
               1
 91
        1
 92
        1
 93
        1
 72
               2
 10
265.04752963237934
 20
-513.60790018852322
 40
1.9998779296875
 50
0.0
 51
360.0
 73
               0
 97
        1
330
112
 75
               0
 76
               1
 98
        1
 10
0.0
 20
0.0
  0
MTEXT
  5
114
100
AcDbEntity
  8
0
390
0
 62
               0
100
AcDbMText
 10
231.1699124448794
 20
-519.05017884663471
 30
0.0
 40
24.432617187500004
 41
0.0
 71
               1
 72
               1
  1
5
  7
ＭＳ ゴシック
 11
0.0
 21
1.0
 31
0.0
 73
               1
 44
0.7828267384257843
  0
POINT
  5
115
100
AcDbEntity
  8
Defpoints
370
               0
390
0
 62
               0
100
AcDbPoint
 10
365.04752963237934
 20
-513.60790018852322
 30
0.0
  0
POINT
  5
116
100
AcDbEntity
  8
Defpoints
370
               0
390
0
 62
               0
100
AcDbPoint
 10
448.21640827227111
 20
-508.6174575047462
 30
0.0
  0
POINT
  5
117
100
AcDbEntity
  8
Defpoints
370
               0
390
0
 62
               0
100
AcDbPoint
 10
265.04752963237934
 20
-508.6174575047462
 30
0.0
  0
ENDBLK
  5
118
100
AcDbEntity
  8
notes
390
0
100
AcDbBlockEnd
  0
BLOCK
  5
119
100
AcDbEntity
  8
notes
390
0
100
AcDbBlockBegin
  2
*D17
 70
               1
 10
0.0
 20
0.0
 30
0.0
  3
*D17
  1

  0
LINE
  5
11A
100
AcDbEntity
  8
0
370
              -2
390
0
  6
Continuous
 62
               0
100
AcDbLine
 10
-325.03839410374167
 20
-438.59498496418701
 30
0.0
 11
-325.03839410374167
 21
-308.88630757318174
 31
0.0
  0
LINE
  5
11B
100
AcDbEntity
  8
0
370
              -2
390
0
  6
Continuous
 62
               0
100
AcDbLine
 10
-610.02315127687507
 20
-438.59498496418701
 30
0.0
 11
-610.02315127687507
 21
-308.88630757318174
 31
0.0
  0
LINE
  5
11C
100
AcDbEntity
  8
0
370
              -2
390
0
  6
Continuous
 62
               0
100
AcDbLine
 10
-325.03839410374167
 20
-308.88630757318174
 30
0.0
 11
-610.02315127687507
 21
-308.88630757318174
 31
0.0
  0
CIRCLE
  5
11D
102
{ACAD_REACTORS
330
11E
102
}
100
AcDbEntity
  8
0
370
              -2
390
0
  6
Continuous
 62
               0
100
AcDbCircle
 10
-325.03839410374167
 20
-308.88630757318174
 30
0.0
 40
1.9998779296875
  0
HATCH
  5
11E
100
AcDbEntity
  8
0
370
              -2
390
0
  6
Continuous
 62
               0
100
AcDbHatch
 10
0.0
 20
0.0
 30
0.0
210
0.0
220
0.0
230
1.0
  2
SOLID
 70
               1
 71
               1
 91
        1
 92
        1
 93
        1
 72
               2
 10
-325.03839410374167
 20
-308.88630757318174
 40
1.9998779296875
 50
0.0
 51
360.0
 73
               0
 97
        1
330
11D
 75
               0
 76
               1
 98
        1
 10
0.0
 20
0.0
  0
CIRCLE
  5
11F
102
{ACAD_REACTORS
330
120
102
}
100
AcDbEntity
  8
0
370
              -2
390
0
  6
Continuous
 62
               0
100
AcDbCircle
 10
-610.02315127687507
 20
-308.88630757318174
 30
0.0
 40
1.9998779296875
  0
HATCH
  5
120
100
AcDbEntity
  8
0
370
              -2
390
0
  6
Continuous
 62
               0
100
AcDbHatch
 10
0.0
 20
0.0
 30
0.0
210
0.0
220
0.0
230
1.0
  2
SOLID
 70
               1
 71
               1
 91
        1
 92
        1
 93
        1
 72
               2
 10
-610.02315127687507
 20
-308.88630757318174
 40
1.9998779296875
 50
0.0
 51
360.0
 73
               0
 97
        1
330
11F
 75
               0
 76
               1
 98
        1
 10
0.0
 20
0.0
  0
MTEXT
  5
121
100
AcDbEntity
  8
0
390
0
 62
               0
100
AcDbMText
 10
-491.34327437248385
 20
-275.0086903856818
 30
0.0
 40
24.432617187500004
 41
0.0
 71
               1
 72
               1
  1
285
  7
ＭＳ ゴシック
 73
               1
 44
0.7828267384257843
  0
POINT
  5
122
100
AcDbEntity
  8
Defpoints
370
               0
390
0
 62
               0
100
AcDbPoint
 10
-610.02315127687507
 20
-463.59498496418701
 30
0.0
  0
POINT
  5
123
100
AcDbEntity
  8
Defpoints
370
               0
390
0
 62
               0
100
AcDbPoint
 10
-325.03839410374167
 20
-463.59498496418701
 30
0.0
  0
POINT
  5
124
100
AcDbEntity
  8
Defpoints
370
               0
390
0
 62
               0
100
AcDbPoint
 10
-325.03839410374167
 20
-308.88630757318174
 30
0.0
  0
ENDBLK
  5
125
100
AcDbEntity
  8
notes
390
0
100
AcDbBlockEnd
  0
BLOCK
  5
126
100
AcDbEntity
  8
notes
390
0
100
AcDbBlockBegin
  2
*D18
 70
               1
 10
0.0
 20
0.0
 30
0.0
  3
*D18
  1

  0
LINE
  5
127
100
AcDbEntity
  8
0
370
              -2
390
0
  6
Continuous
 62
               0
100
AcDbLine
 10
-610.02315127687507
 20
-438.59498496418701
 30
0.0
 11
-610.02315127687507
 21
-308.88630757318174
 31
0.0
  0
LINE
  5
128
100
AcDbEntity
  8
0
370
              -2
390
0
  6
Continuous
 62
               0
100
AcDbLine
 10
-690.02315127687507
 20
-478.59498496418701
 30
0.0
 11
-690.02315127687507
 21
-308.88630757318174
 31
0.0
  0
LINE
  5
129
100
AcDbEntity
  8
0
370
              -2
390
0
  6
Continuous
 62
               0
100
AcDbLine
 10
-610.02315127687507
 20
-308.88630757318174
 30
0.0
 11
-690.02315127687507
 21
-308.88630757318174
 31
0.0
  0
CIRCLE
  5
12A
102
{ACAD_REACTORS
330
12B
102
}
100
AcDbEntity
  8
0
370
              -2
390
0
  6
Continuous
 62
               0
100
AcDbCircle
 10
-610.02315127687507
 20
-308.88630757318174
 30
0.0
 40
1.9998779296875
  0
HATCH
  5
12B
100
AcDbEntity
  8
0
370
              -2
390
0
  6
Continuous
 62
               0
100
AcDbHatch
 10
0.0
 20
0.0
 30
0.0
210
0.0
220
0.0
230
1.0
  2
SOLID
 70
               1
 71
               1
 91
        1
 92
        1
 93
        1
 72
               2
 10
-610.02315127687507
 20
-308.88630757318174
 40
1.9998779296875
 50
0.0
 51
360.0
 73
               0
 97
        1
330
12A
 75
               0
 76
               1
 98
        1
 10
0.0
 20
0.0
  0
CIRCLE
  5
12C
102
{ACAD_REACTORS
330
12D
102
}
100
AcDbEntity
  8
0
370
              -2
390
0
  6
Continuous
 62
               0
100
AcDbCircle
 10
-690.02315127687507
 20
-308.88630757318174
 30
0.0
 40
1.9998779296875
  0
HATCH
  5
12D
100
AcDbEntity
  8
0
370
              -2
390
0
  6
Continuous
 62
               0
100
AcDbHatch
 10
0.0
 20
0.0
 30
0.0
210
0.0
220
0.0
230
1.0
  2
SOLID
 70
               1
 71
               1
 91
        1
 92
        1
 93
        1
 72
               2
 10
-690.02315127687507
 20
-308.88630757318174
 40
1.9998779296875
 50
0.0
 51
360.0
 73
               0
 97
        1
330
12C
 75
               0
 76
               1
 98
        1
 10
0.0
 20
0.0
  0
MTEXT
  5
12E
100
AcDbEntity
  8
0
390
0
 62
               0
100
AcDbMText
 10
-666.37835341562959
 20
-275.0086903856818
 30
0.0
 40
24.432617187500004
 41
0.0
 71
               1
 72
               1
  1
80
  7
ＭＳ ゴシック
 73
               1
 44
0.7828267384257843
  0
POINT
  5
12F
100
AcDbEntity
  8
Defpoints
370
               0
390
0
 62
               0
100
AcDbPoint
 10
-690.02315127687507
 20
-503.59498496418701
 30
0.0
  0
POINT
  5
130
100
AcDbEntity
  8
Defpoints
370
               0
390
0
 62
               0
100
AcDbPoint
 10
-610.02315127687507
 20
-463.59498496418701
 30
0.0
  0
POINT
  5
131
100
AcDbEntity
  8
Defpoints
370
               0
390
0
 62
               0
100
AcDbPoint
 10
-610.02315127687507
 20
-308.88630757318174
 30
0.0
  0
ENDBLK
  5
132
100
AcDbEntity
  8
notes
390
0
100
AcDbBlockEnd
  0
BLOCK
  5
133
100
AcDbEntity
  8
notes
390
0
100
AcDbBlockBegin
  2
*D19
 70
               1
 10
0.0
 20
0.0
 30
0.0
  3
*D19
  1

  0
LINE
  5
134
100
AcDbEntity
  8
0
370
              -2
390
0
  6
Continuous
 62
               0
100
AcDbLine
 10
-690.0284094764902
 20
-538.59498496418701
 30
0.0
 11
-690.0284094764902
 21
-613.59498496418701
 31
0.0
  0
LINE
  5
135
100
AcDbEntity
  8
0
370
              -2
390
0
  6
Continuous
 62
               0
100
AcDbLine
 10
-460.02840947649293
 20
-533.59498496418701
 30
0.0
 11
-460.02840947649293
 21
-613.59498496418701
 31
0.0
  0
LINE
  5
136
100
AcDbEntity
  8
0
370
              -2
390
0
  6
Continuous
 62
               0
100
AcDbLine
 10
-690.0284094764902
 20
-613.59498496418701
 30
0.0
 11
-460.02840947649293
 21
-613.59498496418701
 31
0.0
  0
CIRCLE
  5
137
102
{ACAD_REACTORS
330
138
102
}
100
AcDbEntity
  8
0
370
              -2
390
0
  6
Continuous
 62
               0
100
AcDbCircle
 10
-690.0284094764902
 20
-613.59498496418701
 30
0.0
 40
1.9998779296875
  0
HATCH
  5
138
100
AcDbEntity
  8
0
370
              -2
390
0
  6
Continuous
 62
               0
100
AcDbHatch
 10
0.0
 20
0.0
 30
0.0
210
0.0
220
0.0
230
1.0
  2
SOLID
 70
               1
 71
               1
 91
        1
 92
        1
 93
        1
 72
               2
 10
-690.0284094764902
 20
-613.59498496418701
 40
1.9998779296875
 50
0.0
 51
360.0
 73
               0
 97
        1
330
137
 75
               0
 76
               1
 98
        1
 10
0.0
 20
0.0
  0
CIRCLE
  5
139
102
{ACAD_REACTORS
330
13A
102
}
100
AcDbEntity
  8
0
370
              -2
390
0
  6
Continuous
 62
               0
100
AcDbCircle
 10
-460.02840947649293
 20
-613.59498496418701
 30
0.0
 40
1.9998779296875
  0
HATCH
  5
13A
100
AcDbEntity
  8
0
370
              -2
390
0
  6
Continuous
 62
               0
100
AcDbHatch
 10
0.0
 20
0.0
 30
0.0
210
0.0
220
0.0
230
1.0
  2
SOLID
 70
               1
 71
               1
 91
        1
 92
        1
 93
        1
 72
               2
 10
-460.02840947649293
 20
-613.59498496418701
 40
1.9998779296875
 50
0.0
 51
360.0
 73
               0
 97
        1
330
139
 75
               0
 76
               1
 98
        1
 10
0.0
 20
0.0
  0
MTEXT
  5
13B
100
AcDbEntity
  8
0
390
0
 62
               0
100
AcDbMText
 10
-598.84091115866704
 20
-579.71736777668707
 30
0.0
 40
24.432617187500004
 41
0.0
 71
               1
 72
               1
  1
230
  7
ＭＳ ゴシック
 73
               1
 44
0.7828267384257843
  0
POINT
  5
13C
100
AcDbEntity
  8
Defpoints
370
               0
390
0
 62
               0
100
AcDbPoint
 10
-460.02840947649293
 20
-508.59498496418701
 30
0.0
  0
POINT
  5
13D
100
AcDbEntity
  8
Defpoints
370
               0
390
0
 62
               0
100
AcDbPoint
 10
-690.0284094764902
 20
-513.59498496418701
 30
0.0
  0
POINT
  5
13E
100
AcDbEntity
  8
Defpoints
370
               0
390
0
 62
               0
100
AcDbPoint
 10
-690.0284094764902
 20
-613.59498496418701
 30
0.0
  0
ENDBLK
  5
13F
100
AcDbEntity
  8
notes
390
0
100
AcDbBlockEnd
  0
BLOCK
  5
140
100
AcDbEntity
  8
notes
390
0
100
AcDbBlockBegin
  2
*D20
 70
               1
 10
0.0
 20
0.0
 30
0.0
  3
*D20
  1

  0
LINE
  5
141
100
AcDbEntity
  8
0
370
              -2
390
0
  6
Continuous
 62
               0
100
AcDbLine
 10
-710.0284094764902
 20
-403.59498496418701
 30
0.0
 11
-785.0284094764902
 21
-403.59498496418701
 31
0.0
  0
LINE
  5
142
100
AcDbEntity
  8
0
370
              -2
390
0
  6
Continuous
 62
               0
100
AcDbLine
 10
-655.02315127687507
 20
-483.59498496418701
 30
0.0
 11
-785.0284094764902
 21
-483.59498496418701
 31
0.0
  0
LINE
  5
143
100
AcDbEntity
  8
0
370
              -2
390
0
  6
Continuous
 62
               0
100
AcDbLine
 10
-785.0284094764902
 20
-403.59498496418701
 30
0.0
 11
-785.0284094764902
 21
-483.59498496418701
 31
0.0
  0
CIRCLE
  5
144
102
{ACAD_REACTORS
330
145
102
}
100
AcDbEntity
  8
0
370
              -2
390
0
  6
Continuous
 62
               0
100
AcDbCircle
 10
-785.0284094764902
 20
-403.59498496418701
 30
0.0
 40
1.9998779296875
  0
HATCH
  5
145
100
AcDbEntity
  8
0
370
              -2
390
0
  6
Continuous
 62
               0
100
AcDbHatch
 10
0.0
 20
0.0
 30
0.0
210
0.0
220
0.0
230
1.0
  2
SOLID
 70
               1
 71
               1
 91
        1
 92
        1
 93
        1
 72
               2
 10
-785.0284094764902
 20
-403.59498496418701
 40
1.9998779296875
 50
0.0
 51
360.0
 73
               0
 97
        1
330
144
 75
               0
 76
               1
 98
        1
 10
0.0
 20
0.0
  0
CIRCLE
  5
146
102
{ACAD_REACTORS
330
147
102
}
100
AcDbEntity
  8
0
370
              -2
390
0
  6
Continuous
 62
               0
100
AcDbCircle
 10
-785.0284094764902
 20
-483.59498496418701
 30
0.0
 40
1.9998779296875
  0
HATCH
  5
147
100
AcDbEntity
  8
0
370
              -2
390
0
  6
Continuous
 62
               0
100
AcDbHatch
 10
0.0
 20
0.0
 30
0.0
210
0.0
220
0.0
230
1.0
  2
SOLID
 70
               1
 71
               1
 91
        1
 92
        1
 93
        1
 72
               2
 10
-785.0284094764902
 20
-483.59498496418701
 40
1.9998779296875
 50
0.0
 51
360.0
 73
               0
 97
        1
330
146
 75
               0
 76
               1
 98
        1
 10
0.0
 20
0.0
  0
MTEXT
  5
148
100
AcDbEntity
  8
0
390
0
 62
               0
100
AcDbMText
 10
-818.90602666399036
 20
-459.46998496418701
 30
0.0
 40
24.432617187500004
 41
0.0
 71
               1
 72
               1
  1
80
  7
ＭＳ ゴシック
 11
0.0
 21
1.0
 31
0.0
 73
               1
 44
0.7828267384257843
  0
POINT
  5
149
100
AcDbEntity
  8
Defpoints
370
               0
390
0
 62
               0
100
AcDbPoint
 10
-630.02315127687507
 20
-483.59498496418701
 30
0.0
  0
POINT
  5
14A
100
AcDbEntity
  8
Defpoints
370
               0
390
0
 62
               0
100
AcDbPoint
 10
-685.0284094764902
 20
-403.59498496418701
 30
0.0
  0
POINT
  5
14B
100
AcDbEntity
  8
Defpoints
370
               0
390
0
 62
               0
100
AcDbPoint
 10
-785.0284094764902
 20
-403.59498496418701
 30
0.0
  0
ENDBLK
  5
14C
100
AcDbEntity
  8
notes
390
0
100
AcDbBlockEnd
  0
BLOCK
  5
14D
100
AcDbEntity
  8
notes
390
0
100
AcDbBlockBegin
  2
*D21
 70
               1
 10
0.0
 20
0.0
 30
0.0
  3
*D21
  1

  0
LINE
  5
14E
100
AcDbEntity
  8
0
370
              -2
390
0
  6
Continuous
 62
               0
100
AcDbLine
 10
-654.0284094764902
 20
737.28097757114119
 30
0.0
 11
-654.0284094764902
 21
912.32721291936627
 31
0.0
  0
LINE
  5
14F
100
AcDbEntity
  8
0
370
              -2
390
0
  6
Continuous
 62
               0
100
AcDbLine
 10
-690.0284094764902
 20
837.32721291936627
 30
0.0
 11
-690.0284094764902
 21
912.32721291936627
 31
0.0
  0
LINE
  5
150
100
AcDbEntity
  8
0
370
              -2
390
0
  6
Continuous
 62
               0
100
AcDbLine
 10
-654.0284094764902
 20
912.32721291936627
 30
0.0
 11
-690.0284094764902
 21
912.32721291936627
 31
0.0
  0
CIRCLE
  5
151
102
{ACAD_REACTORS
330
152
102
}
100
AcDbEntity
  8
0
370
              -2
390
0
  6
Continuous
 62
               0
100
AcDbCircle
 10
-654.0284094764902
 20
912.32721291936627
 30
0.0
 40
1.9998779296875
  0
HATCH
  5
152
100
AcDbEntity
  8
0
370
              -2
390
0
  6
Continuous
 62
               0
100
AcDbHatch
 10
0.0
 20
0.0
 30
0.0
210
0.0
220
0.0
230
1.0
  2
SOLID
 70
               1
 71
               1
 91
        1
 92
        1
 93
        1
 72
               2
 10
-654.0284094764902
 20
912.32721291936627
 40
1.9998779296875
 50
0.0
 51
360.0
 73
               0
 97
        1
330
151
 75
               0
 76
               1
 98
        1
 10
0.0
 20
0.0
  0
CIRCLE
  5
153
102
{ACAD_REACTORS
330
154
102
}
100
AcDbEntity
  8
0
370
              -2
390
0
  6
Continuous
 62
               0
100
AcDbCircle
 10
-690.0284094764902
 20
912.32721291936627
 30
0.0
 40
1.9998779296875
  0
HATCH
  5
154
100
AcDbEntity
  8
0
370
              -2
390
0
  6
Continuous
 62
               0
100
AcDbHatch
 10
0.0
 20
0.0
 30
0.0
210
0.0
220
0.0
230
1.0
  2
SOLID
 70
               1
 71
               1
 91
        1
 92
        1
 93
        1
 72
               2
 10
-690.0284094764902
 20
912.32721291936627
 40
1.9998779296875
 50
0.0
 51
360.0
 73
               0
 97
        1
330
153
 75
               0
 76
               1
 98
        1
 10
0.0
 20
0.0
  0
MTEXT
  5
155
100
AcDbEntity
  8
0
390
0
 62
               0
100
AcDbMText
 10
-687.9034094764902
 20
946.20483010686621
 30
0.0
 40
24.432617187500004
 41
0.0
 71
               1
 72
               1
  1
36
  7
ＭＳ ゴシック
 73
               1
 44
0.7828267384257843
  0
POINT
  5
156
100
AcDbEntity
  8
Defpoints
370
               0
390
0
 62
               0
100
AcDbPoint
 10
-690.0284094764902
 20
812.32721291936627
 30
0.0
  0
POINT
  5
157
100
AcDbEntity
  8
Defpoints
370
               0
390
0
 62
               0
100
AcDbPoint
 10
-654.0284094764902
 20
712.28097757114119
 30
0.0
  0
POINT
  5
158
100
AcDbEntity
  8
Defpoints
370
               0
390
0
 62
               0
100
AcDbPoint
 10
-654.0284094764902
 20
912.32721291936627
 30
0.0
  0
ENDBLK
  5
159
100
AcDbEntity
  8
notes
390
0
100
AcDbBlockEnd
  0
BLOCK
  5
15A
100
AcDbEntity
  8
ARJ70-0804
390
0
100
AcDbBlockBegin
  2
*D22
 70
               1
 10
0.0
 20
0.0
 30
0.0
  3
*D22
  1

  0
LINE
  5
15B
100
AcDbEntity
  8
0
370
              -2
390
0
  6
Continuous
 62
               0
100
AcDbLine
 10
1249.2767761953894
 20
0.0
 30
0.0
 11
1317.4057554377721
 21
0.0
 31
0.0
  0
LINE
  5
15C
100
AcDbEntity
  8
0
370
              -2
390
0
  6
Continuous
 62
               0
100
AcDbLine
 10
1317.4057554377721
 20
0.0
 30
0.0
 11
1440.9057554377607
 21
0.0
 31
0.0
  0
LINE
  5
15D
100
AcDbEntity
  8
0
370
              -2
390
0
  6
Continuous
 62
               0
100
AcDbLine
 10
1218.6280819039443
 20
1801.4068607905947
 30
0.0
 11
1249.2767761953894
 21
0.0
 31
0.0
  0
SOLID
  5
15E
100
AcDbEntity
  8
0
370
              -2
390
0
 62
               0
100
AcDbTrace
 10
1218.6280819039443
 20
1801.4068607905947
 30
0.0
 11
1250.3780819039443
 21
1809.9142476502827
 31
0.0
 12
1250.3780819039443
 22
1792.8994739309064
 32
0.0
 13
1250.3780819039443
 23
1792.8994739309064
 33
0.0
  0
SOLID
  5
15F
100
AcDbEntity
  8
0
370
              -2
390
0
 62
               0
100
AcDbTrace
 10
1249.2767761953894
 20
0.0
 30
0.0
 11
1281.0267761953894
 21
0.0
 31
0.0
 12
1281.0267761953894
 22
0.0
 32
0.0
 13
1281.0267761953894
 23
0.0
 33
0.0
  0
MTEXT
  5
160
100
AcDbEntity
  8
0
390
0
 62
               0
100
AcDbMText
 10
1377.4057554377607
 20
0.0
 30
0.0
 40
24.432617187500004
 41
0.0
 71
               1
 72
               1
  1
φ36
  7
ＭＳ ゴシック
 73
               1
 44
0.7828267384257843
  0
POINT
  5
161
100
AcDbEntity
  8
Defpoints
370
               0
390
0
 62
               0
100
AcDbPoint
 10
1218.6280819039443
 20
1801.4068607905947
 30
0.0
  0
POINT
  5
162
100
AcDbEntity
  8
Defpoints
370
               0
390
0
 62
               0
100
AcDbPoint
 10
1249.2767761953894
 20
0.0
 30
0.0
  0
ENDBLK
  5
163
100
AcDbEntity
  8
ARJ70-0804
390
0
100
AcDbBlockEnd
  0
BLOCK
  5
164
100
AcDbEntity
  8
ARJ70-0804
390
0
100
AcDbBlockBegin
  2
*D23
 70
               1
 10
0.0
 20
0.0
 30
0.0
  3
*D23
  1

  0
LINE
  5
165
100
AcDbEntity
  8
0
370
              -2
390
0
  6
Continuous
 62
               0
100
AcDbLine
 10
-1149.1841152320621
 20
0.0
 30
0.0
 11
-1081.0551359896795
 21
0.0
 31
0.0
  0
LINE
  5
166
100
AcDbEntity
  8
0
370
              -2
390
0
  6
Continuous
 62
               0
100
AcDbLine
 10
-1081.0551359896795
 20
0.0
 30
0.0
 11
-957.55513598969083
 21
0.0
 31
0.0
  0
LINE
  5
167
100
AcDbEntity
  8
0
370
              -2
390
0
  6
Continuous
 62
               0
100
AcDbLine
 10
-1179.832809523507
 20
1871.3875397957531
 30
0.0
 11
-1149.1841152320621
 21
0.0
 31
0.0
  0
SOLID
  5
168
100
AcDbEntity
  8
0
370
              -2
390
0
 62
               0
100
AcDbTrace
 10
-1179.832809523507
 20
1871.3875397957531
 30
0.0
 11
-1148.082809523507
 21
1879.8949266554414
 31
0.0
 12
-1148.082809523507
 22
1862.8801529360649
 32
0.0
 13
-1148.082809523507
 23
1862.8801529360649
 33
0.0
  0
SOLID
  5
169
100
AcDbEntity
  8
0
370
              -2
390
0
 62
               0
100
AcDbTrace
 10
-1149.1841152320621
 20
0.0
 30
0.0
 11
-1117.4341152320621
 21
0.0
 31
0.0
 12
-1117.4341152320621
 22
0.0
 32
0.0
 13
-1117.4341152320621
 23
0.0
 33
0.0
  0
MTEXT
  5
16A
100
AcDbEntity
  8
0
390
0
 62
               0
100
AcDbMText
 10
-1021.0551359896908
 20
0.0
 30
0.0
 40
24.432617187500004
 41
0.0
 71
               1
 72
               1
  1
φ36
  7
ＭＳ ゴシック
 73
               1
 44
0.7828267384257843
  0
POINT
  5
16B
100
AcDbEntity
  8
Defpoints
370
               0
390
0
 62
               0
100
AcDbPoint
 10
-1179.832809523507
 20
1871.3875397957531
 30
0.0
  0
POINT
  5
16C
100
AcDbEntity
  8
Defpoints
370
               0
390
0
 62
               0
100
AcDbPoint
 10
-1149.1841152320621
 20
0.0
 30
0.0
  0
ENDBLK
  5
16D
100
AcDbEntity
  8
ARJ70-0804
390
0
100
AcDbBlockEnd
  0
ENDSEC
  0
SECTION
  2
ENTITIES
  0
MTEXT
  5
16E
100
AcDbEntity
  8
template
390
0
 62
               7
100
AcDbMText
 10
-967.99999999975898
 20
-1134.6535143187937
 30
0.0
 40
16.288411458333332
 41
0.0
 71
               1
 72
               1
  1
品名
  7
ＭＳ ゴシック
 73
               1
 44
0.7828267384257843
  0
MTEXT
  5
16F
100
AcDbEntity
  8
template
390
0
 62
               7
100
AcDbMText
 10
-967.99999999975898
 20
-1219.6535143187937
 30
0.0
 40
16.288411458333332
 41
0.0
 71
               1
 72
               1
  1
仕様
  7
ＭＳ ゴシック
 73
               1
 44
0.7828267384257843
  0
MTEXT
  5
170
100
AcDbEntity
  8
template
390
0
 62
               7
100
AcDbMText
 10
-914.99999999975898
 20
-1163.2359752562936
 30
0.0
 40
24.432617187500004
 41
0.0
 71
               1
 72
               1
  1
手洗器 -POZZI GINORI,Rettangolo-
  7
ＭＳ ゴシック
 73
               1
 44
0.7828267384257843
  0
LINE
  5
171
100
AcDbEntity
  8
template
370
               5
390
0
  6
Continuous
 62
               7
100
AcDbLine
 10
974.99999999975876
 20
-1211.2385924437938
 30
0.0
 11
-975.00000000024102
 21
-1211.2385924437938
 31
0.0
  0
LWPOLYLINE
  5
172
100
AcDbEntity
  8
template
370
               5
390
0
  6
Continuous
 62
               7
100
AcDbPolyline
 90
        5
 70
             128
 10
975.00000000024124
 20
1418.7614075562062
 10
-974.99999999975898
 20
1418.7614075562062
 10
-974.99999999975898
 20
-1381.2385924437938
 10
975.00000000024124
 20
-1381.2385924437938
 10
975.00000000024124
 20
1418.7614075562062
  0
LINE
  5
173
100
AcDbEntity
  8
template
370
               5
390
0
  6
Continuous
 62
               7
100
AcDbLine
 10
974.99999999975876
 20
-1126.2385924437938
 30
0.0
 11
-975.00000000024102
 21
-1126.2385924437938
 31
0.0
  0
LINE
  5
174
100
AcDbEntity
  8
template
370
               5
390
0
  6
Continuous
 62
               7
100
AcDbLine
 10
975.00000000024124
 20
-1296.2385924437938
 30
0.0
 11
222.00000000024102
 21
-1296.2385924437938
 31
0.0
  0
MTEXT
  5
175
100
AcDbEntity
  8
template
390
0
 62
               7
100
AcDbMText
 10
-974.99999999955617
 20
-1393.0924145006509
 30
0.0
 40
21.717881944444446
 41
0.0
 71
               1
 72
               1
  1
100709SH
  7
ＭＳ ゴシック
 73
               1
 44
0.7828267384257843
  0
MTEXT
  5
176
100
AcDbEntity
  8
template
390
0
 62
               7
100
AcDbMText
 10
251.87140625250095
 20
-1326.1489869171012
 30
0.0
 40
24.432617187500004
 41
0.0
 71
               1
 72
               1
  1
大洋金物株式会社 ティーフォルム事業部
  7
ＭＳ ゴシック
 73
               1
 44
0.7828267384257843
  0
LWPOLYLINE
  5
177
100
AcDbEntity
  8
template
370
              15
390
0
  6
Continuous
 62
               7
100
AcDbPolyline
 90
        8
 70
             129
 10
887.42850780307481
 20
-1321.7256061087789
 10
887.42850780307481
 20
-1327.7229948023548
 10
877.92731088507162
 20
-1327.7229948023548
 10
877.92731088507162
 20
-1352.1739580658639
 10
869.57193362328871
 20
-1352.1739580658639
 10
869.57193362328871
 20
-1327.7229948023548
 10
860.23897667697929
 20
-1327.7229948023548
 10
860.23897667697929
 20
-1321.7256061087789
  0
LWPOLYLINE
  5
178
100
AcDbEntity
  8
template
370
              15
390
0
  6
Continuous
 62
               7
100
AcDbPolyline
 90
      101
 70
             128
 10
900.15679963363164
 20
-1322.4538546017154
 10
900.17214966241249
 20
-1322.4494938450314
 42
-0.0222221607822395
 10
900.46215423908779
 20
-1322.3808693797853
 10
900.4779480030877
 20
-1322.3778659566872
 42
-0.0146883565588433
 10
900.74065070830557
 20
-1322.3358627697392
 42
-0.0127458844188005
 10
901.00528967544562
 20
-1322.3083258016679
 10
901.06774475377142
 20
-1322.3034323790787
 42
-0.019809901856188
 10
901.45859386325219
 20
-1322.288347221682
 10
901.51040533269202
 20
-1322.288400997347
 42
-0.0147617382765571
 10
902.00502879366002
 20
-1322.3035210225914
 10
902.07772024854341
 20
-1322.3078936294798
 42
-0.0162624548995883
 10
902.46787387800578
 20
-1322.344126504752
 10
902.58940626927426
 20
-1322.3594130637496
 42
-0.0080020874671844
 10
902.73498530035647
 20
-1322.380095911017
 10
902.7733047709404
 20
-1322.386167188826
 42
-0.0053821929644278
 10
902.84178887626649
 20
-1322.3977747126498
 10
902.11538317706777
 20
-1324.5787031683637
 42
0.010866775738149
 10
902.04806610693515
 20
-1324.5655160531435
 10
902.01059808374737
 20
-1324.5590183105494
 42
0.0170663203307906
 10
901.86738129683226
 20
-1324.5391887132575
 10
901.79950596414892
 20
-1324.5321415426699
 42
0.022016237528189
 10
901.51912655628814
 20
-1324.5154591818994
 10
901.441270989244
 20
-1324.5142598146333
 42
0.0282606915784319
 10
901.10563466566362
 20
-1324.528063091602
 10
901.06172139188959
 20
-1324.5323630816058
 42
0.0169677213696532
 10
900.8157968969324
 20
-1324.5649001311579
 42
0.019057626986672
 10
900.57288893434713
 20
-1324.615047003266
 10
900.56662974624146
 20
-1324.6165899773739
 42
0.0213685642838728
 10
900.31624526176643
 20
-1324.6897902624776
 10
900.31075536684739
 20
-1324.6916532585376
 42
0.0237595297596312
 10
900.05726048195174
 20
-1324.7913377804318
 10
900.05215840791902
 20
-1324.7936295559114
 42
0.0261857468815952
 10
899.79998763168601
 20
-1324.9231658932879
 10
899.78956144260098
 20
-1324.9292313677549
 42
0.0272553062022599
 10
899.5531316673638
 20
-1325.0846035736984
 10
899.51836865385553
 20
-1325.1102647217897
 42
0.0325996893169218
 10
899.3682133102028
 20
-1325.2370125947621
 10
899.34450388107939
 20
-1325.2598306232751
 42
0.0138050960620457
 10
899.25262072486953
 20
-1325.3532802848265
 42
0.012528010381416
 10
899.16577819203644
 20
-1325.4514436114257
 10
899.14209774712765
 20
-1325.4796021096138
 42
0.020521802472811
 10
899.01699767161267
 20
-1325.6413954238449
 10
898.99453133112684
 20
-1325.67305515367
 42
0.0163110129577978
 10
898.83882095187778
 20
-1325.9083855887363
 10
898.83609705582455
 20
-1325.9128093507254
 42
0.0131897341895725
 10
898.68929653491739
 20
-1326.1659414430922
 10
898.68759643955218
 20
-1326.1690596822257
 42
0.0107895576068081
 10
898.54981973734209
 20
-1326.4352748918593
 10
898.54908684781628
 20
-1326.4367691245072
 42
0.0091371507222232
 10
898.42060689916798
 20
-1326.7112943222639
 10
898.3908612677576
 20
-1326.7780008294255
 42
0.013541832634555
 10
898.21914732868538
 20
-1327.1929386146955
 10
898.18554252025103
 20
-1327.2808047569772
 42
0.0092834542414146
 10
898.01431346033087
 20
-1327.7547032552809
 10
897.98869633261256
 20
-1327.829944325076
 42
0.0054261043582016
 10
897.8810581843203
 20
-1328.1577082981396
 10
897.86353219813623
 20
-1328.2130964603905
 42
0.0008225090814652
 10
897.79486214631288
 20
-1328.431365218519
 10
896.81017301437942
 20
-1331.4562565117756
 10
900.04279685445317
 20
-1331.4562565117756
 10
899.53860442459973
 20
-1333.3607348101275
 10
896.28254814261641
 20
-1333.3607348101275
 10
890.45339911026258
 20
-1352.1739578761324
 10
888.62830149995216
 20
-1352.1739578761324
 10
894.46297953545309
 20
-1333.3607348101275
 10
892.05786316641297
 20
-1333.3607348101275
 10
892.56205559626642
 20
-1331.4562565117756
 10
894.99060440721632
 20
-1331.4562565117756
 10
895.85075932540485
 20
-1328.819843511076
 42
-0.0005863560650499
 10
895.88749400361178
 20
-1328.703017090774
 10
895.96358183726886
 20
-1328.4620247913988
 42
-0.0087522378925075
 10
896.16304998072405
 20
-1327.8667487042574
 10
896.2553142561402
 20
-1327.6066085357363
 42
-0.0077400953831298
 10
896.51324791527031
 20
-1326.9136038581917
 10
896.52901288684939
 20
-1326.8731729748049
 42
-0.0082369946329136
 10
896.77609735746114
 20
-1326.2690939086099
 42
-0.0085725238365112
 10
897.04334345346365
 20
-1325.6736678693235
 10
897.14497305447276
 20
-1325.4572467673345
 42
-0.0168109410598433
 10
897.43191748320135
 20
-1324.896039241233
 10
897.55776087362199
 20
-1324.6690752083048
 42
-0.0007817726875778
 10
897.61204522371702
 20
-1324.5715309632049
 10
897.61217352973392
 20
-1324.5713012544691
 42
-0.0036626142154471
 10
897.6670613937556
 20
-1324.4747033745
 42
-0.0080221150674964
 10
897.72418564916211
 20
-1324.3794241397475
 10
897.75488560052349
 20
-1324.3300331906246
 42
-0.0202139325585602
 10
897.88254134032968
 20
-1324.1420515899433
 10
897.93660880551784
 20
-1324.068972725702
 42
-0.0249323791798341
 10
898.19577159923745
 20
-1323.7529274835472
 10
898.219911413364
 20
-1323.7263132106352
 42
-0.0242132121535526
 10
898.55959215490486
 20
-1323.3864297244324
 10
898.6075037276571
 20
-1323.3429205882446
 42
-0.0251017527866255
 10
898.8914854282973
 20
-1323.1099278424806
 10
898.89293090511001
 20
-1323.1088585849022
 42
-0.0130868069036008
 10
899.19119155506837
 20
-1322.9000781163593
 10
899.19275337421197
 20
-1322.8990446760838
 42
-0.0290329526397902
 10
899.50386451560439
 20
-1322.7182191744548
 10
899.53371007759654
 20
-1322.7031167916123
 42
-0.0160250190047073
 10
899.7996144913551
 20
-1322.5791006814022
 42
-0.026760037477404
 10
900.07489056882332
 20
-1322.4783523608537
 10
900.10162648834466
 20
-1322.4701598020281
 42
-0.0049981587650629
 10
900.15679963363164
 20
-1322.4538546017154
 42
-0.0049981587650629
  0
LWPOLYLINE
  5
179
100
AcDbEntity
  8
template
370
              15
390
0
  6
Continuous
 62
               7
100
AcDbPolyline
 90
      118
 70
             128
 10
919.97116719807855
 20
-1331.5302398396022
 10
921.84628912257813
 20
-1331.5302398396022
 10
921.00825021697824
 20
-1334.2118063660025
 42
-0.0010587229245765
 10
921.03970603254982
 20
-1334.1749018326479
 10
921.09790012318217
 20
-1334.1069195764715
 42
-0.0071874740409328
 10
921.24827534128065
 20
-1333.9362788844417
 10
921.38999811454244
 20
-1333.7800427431291
 42
-0.0148118053510881
 10
921.84012740725507
 20
-1333.312428897116
 10
921.92734974216103
 20
-1333.2270315762582
 42
-0.0086273358689516
 10
922.26289854316542
 20
-1332.9096559422462
 10
922.30673225938745
 20
-1332.8696062979168
 42
-0.010313832310526
 10
922.56475596162477
 20
-1332.6434431605751
 10
922.61053036795499
 20
-1332.6049611133124
 42
-0.0060206748575777
 10
922.78337843206396
 20
-1332.4631664625606
 10
922.78540956294876
 20
-1332.4615407569302
 42
-0.0067069027286236
 10
922.95770237761246
 20
-1332.3273901231344
 10
922.96025114354109
 20
-1332.3254599532572
 42
-0.0076184352045689
 10
923.13115640940987
 20
-1332.2000850780153
 42
-0.0089652861667499
 10
923.30611737214406
 20
-1332.0804518176826
 10
923.34246909228546
 20
-1332.0565406042017
 42
-0.0156916245938616
 10
923.5384285894495
 20
-1331.9362781177249
 42
-0.0023299011061741
 10
923.73869063343113
 20
-1331.8231001781835
 10
923.75407476580926
 20
-1331.8145001831197
 42
-0.0107669341483918
 10
923.98831159091048
 20
-1331.6901000497703
 10
924.01057639198541
 20
-1331.6788832998202
 42
-0.0078058045899269
 10
924.29416650993915
 20
-1331.541521844181
 10
924.30407359764729
 20
-1331.5369127163133
 42
-0.0181829330469064
 10
924.61438300226496
 20
-1331.4060489752171
 10
924.66843844482366
 20
-1331.3855338552764
 42
-0.0208411536028547
 10
925.01752341227984
 20
-1331.2694433927811
 10
925.03187951240795
 20
-1331.2653249478274
 42
-0.0222799817138871
 10
925.3605993063245
 20
-1331.1866833816873
 10
925.36948826956632
 20
-1331.1849713711015
 42
-0.0215509523875536
 10
925.68595923784142
 20
-1331.1380556825677
 10
925.72844119888885
 20
-1331.133618155777
 42
-0.0182545924883578
 10
925.96254997819563
 20
-1331.1177743303858
 10
926.00195099455016
 20
-1331.1165497853065
 42
-0.0072962856517012
 10
926.15787387423245
 20
-1331.1139804567845
 10
926.18697354479491
 20
-1331.1139256213808
 42
-0.0059227516336509
 10
926.2847230439495
 20
-1331.114899333171
 10
926.31396526142908
 20
-1331.1155370997742
 42
-0.0011833111912937
 10
926.35321654515383
 20
-1331.116486104085
 10
925.55782994954666
 20
-1333.655220049184
 42
0.0143932051613521
 10
925.53142856719205
 20
-1333.645021079137
 10
925.52415659477879
 20
-1333.6424498602812
 42
0.0234388603458653
 10
925.48232572884774
 20
-1333.629830624566
 10
925.47364406593397
 20
-1333.6276496625608
 42
0.0199162742994417
 10
925.4133552318558
 20
-1333.6150329272257
 10
925.39254129404776
 20
-1333.611535727797
 42
0.0293643550675609
 10
925.28946643528479
 20
-1333.6003856821437
 10
925.26478125456822
 20
-1333.5991740651255
 42
0.0214606686848985
 10
925.11164033861462
 20
-1333.5982355047079
 10
925.10226842779787
 20
-1333.5985804162522
 42
0.0167564054203005
 10
924.93074823668837
 20
-1333.6106574586204
 10
924.92228844393048
 20
-1333.6115387990474
 42
0.0137677553226941
 10
924.7349351306724
 20
-1333.63628810759
 10
924.72758339115796
 20
-1333.637466027559
 42
0.0118497261492572
 10
924.52708562705504
 20
-1333.6744833777482
 10
924.52093561980939
 20
-1333.6757702404682
 42
0.0106421143873612
 10
924.31005473252719
 20
-1333.7246026160421
 10
924.30514592413533
 20
-1333.7258499587281
 42
0.0099746379714826
 10
924.08668745495936
 20
-1333.7860244870465
 10
924.02513941480254
 20
-1333.8043063656735
 42
0.019161367585603
 10
923.68915495228714
 20
-1333.9182837459605
 10
923.6010951795455
 20
-1333.9519706562826
 42
0.0205274080145232
 10
923.21578840764073
 20
-1334.1177990641106
 10
923.15813912565704
 20
-1334.1454670286837
 42
0.0181256912191751
 10
922.89986218499178
 20
-1334.2811508476609
 10
922.84690680167375
 20
-1334.3114684608779
 42
0.0140709242404126
 10
922.70195186704939
 20
-1334.3999631343102
 10
922.6757029984326
 20
-1334.4170199530247
 42
0.0086667884402274
 10
922.58677683688836
 20
-1334.4770226209087
 42
0.0036408191995096
 10
922.49934359885992
 20
-1334.5392034786976
 10
922.46411672438637
 20
-1334.5646444246138
 42
0.0052260781278045
 10
922.30788802699919
 20
-1334.6799768112448
 10
922.29168117073573
 20
-1334.6922049218658
 42
0.0050024435899273
 10
922.1056778276801
 20
-1334.8354874901254
 10
922.09035967116176
 20
-1334.8475335125738
 42
0.0136138710271272
 10
921.8799184028353
 20
-1335.022500017488
 10
921.8462505270428
 20
-1335.0520789902014
 42
0.0172815186916764
 10
921.58184698538162
 20
-1335.3010756628235
 10
921.57928463953772
 20
-1335.3036614799719
 42
0.0189403857994126
 10
921.32870284095975
 20
-1335.576466744775
 10
921.29607134742355
 20
-1335.6148106762723
 42
0.0185044199510638
 10
921.10411490844263
 20
-1335.8580592573965
 42
0.0088565243892415
 10
920.92565480181349
 20
-1336.1115756775478
 10
920.91647682216569
 20
-1336.1251170573066
 42
0.0157195347234347
 10
920.73325621582967
 20
-1336.4146392666255
 10
920.68717327390209
 20
-1336.4927914636407
 42
0.0095451879784964
 10
920.52208772376309
 20
-1336.7853861059996
 10
920.51093980482995
 20
-1336.8060567781383
 42
0.0100351706253521
 10
920.3788960556742
 20
-1337.0631123386222
 42
0.0086935915433796
 10
920.25656490388155
 20
-1337.3249454840236
 10
920.25324416246576
 20
-1337.3323878069984
 42
0.0072580174862567
 10
920.13289771051871
 20
-1337.6129797985866
 10
920.1296360772144
 20
-1337.6208998245995
 42
0.0060005122615166
 10
920.01043540887156
 20
-1337.9205094952047
 10
920.00722443053007
 20
-1337.9288710231092
 42
0.004901778697962
 10
919.88832427167154
 20
-1338.247800003717
 10
919.88515846528219
 20
-1338.2565529409442
 42
0.0039415167598304
 10
919.76572218722572
 20
-1338.5950950033573
 10
919.76259108457339
 20
-1338.6041982042336
 42
0.0031035838757183
 10
919.64178629888397
 20
-1338.9626380659959
 10
919.63867625435
 20
-1338.9720586873816
 42
0.0025070747157967
 10
919.51577490303532
 20
-1339.3507059043234
 10
919.47848100660917
 20
-1339.4675975695784
 42
0.0029081910282664
 10
919.28646270879244
 20
-1340.0817612278886
 10
919.24565954028128
 20
-1340.214984470146
 42
0.000926645373264
 10
918.97724216596657
 20
-1341.0972089300692
 10
918.95635469331239
 20
-1341.1663208093498
 42
-0.0005809993665711
 10
918.67901801273479
 20
-1342.0801289159447
 10
918.61273621446708
 20
-1342.2976138480869
 42
-0.0012018708179002
 10
918.46575190503268
 20
-1342.775776512625
 10
918.41343205344776
 20
-1342.9445356535532
 42
-0.0002691059602009
 10
918.36986257229864
 20
-1343.0848032738329
 10
915.53690667400929
 20
-1352.1739578761324
 10
913.71891778203076
 20
-1352.1739578761324
 10
919.97116719807855
 20
-1331.5302398396022
  0
SPLINE
  5
17A
100
AcDbEntity
  8
template
370
              15
390
0
  6
Continuous
 62
               7
100
AcDbSpline
210
0.0
220
0.0
230
1.0
 70
              13
 71
               2
 72
             782
 73
             779
 74
               0
 42
0.000001
 43
0.000001
 40
0.0
 40
0.0
 40
0.0
 40
1.0
 40
1.0
 40
2.0
 40
2.0
 40
3.0
 40
3.0
 40
4.0
 40
4.0
 40
5.0
 40
5.0
 40
6.0
 40
6.0
 40
7.0
 40
7.0
 40
8.0
 40
8.0
 40
9.0
 40
9.0
 40
10.0
 40
10.0
 40
11.0
 40
11.0
 40
12.0
 40
12.0
 40
13.0
 40
13.0
 40
14.0
 40
14.0
 40
15.0
 40
15.0
 40
16.0
 40
16.0
 40
17.0
 40
17.0
 40
18.0
 40
18.0
 40
19.0
 40
19.0
 40
20.0
 40
20.0
 40
21.0
 40
21.0
 40
22.0
 40
22.0
 40
23.0
 40
23.0
 40
24.0
 40
24.0
 40
25.0
 40
25.0
 40
26.0
 40
26.0
 40
27.0
 40
27.0
 40
28.0
 40
28.0
 40
29.0
 40
29.0
 40
30.0
 40
30.0
 40
31.0
 40
31.0
 40
32.0
 40
32.0
 40
33.0
 40
33.0
 40
34.0
 40
34.0
 40
35.0
 40
35.0
 40
36.0
 40
36.0
 40
37.0
 40
37.0
 40
38.0
 40
38.0
 40
39.0
 40
39.0
 40
40.0
 40
40.0
 40
41.0
 40
41.0
 40
42.0
 40
42.0
 40
43.0
 40
43.0
 40
44.0
 40
44.0
 40
45.0
 40
45.0
 40
46.0
 40
46.0
 40
47.0
 40
47.0
 40
48.0
 40
48.0
 40
49.0
 40
49.0
 40
50.0
 40
50.0
 40
51.0
 40
51.0
 40
52.0
 40
52.0
 40
53.0
 40
53.0
 40
54.0
 40
54.0
 40
55.0
 40
55.0
 40
56.0
 40
56.0
 40
57.0
 40
57.0
 40
58.0
 40
58.0
 40
59.0
 40
59.0
 40
60.0
 40
60.0
 40
61.0
 40
61.0
 40
62.0
 40
62.0
 40
63.0
 40
63.0
 40
64.0
 40
64.0
 40
65.0
 40
65.0
 40
66.0
 40
66.0
 40
67.0
 40
67.0
 40
68.0
 40
68.0
 40
69.0
 40
69.0
 40
70.0
 40
70.0
 40
71.0
 40
71.0
 40
72.0
 40
72.0
 40
73.0
 40
73.0
 40
74.0
 40
74.0
 40
75.0
 40
75.0
 40
76.0
 40
76.0
 40
77.0
 40
77.0
 40
78.0
 40
78.0
 40
79.0
 40
79.0
 40
80.0
 40
80.0
 40
81.0
 40
81.0
 40
82.0
 40
82.0
 40
83.0
 40
83.0
 40
84.0
 40
84.0
 40
85.0
 40
85.0
 40
86.0
 40
86.0
 40
87.0
 40
87.0
 40
88.0
 40
88.0
 40
89.0
 40
89.0
 40
90.0
 40
90.0
 40
91.0
 40
91.0
 40
92.0
 40
92.0
 40
93.0
 40
93.0
 40
94.0
 40
94.0
 40
95.0
 40
95.0
 40
96.0
 40
96.0
 40
97.0
 40
97.0
 40
98.0
 40
98.0
 40
99.0
 40
99.0
 40
100.0
 40
100.0
 40
101.0
 40
101.0
 40
102.0
 40
102.0
 40
103.0
 40
103.0
 40
104.0
 40
104.0
 40
105.0
 40
105.0
 40
106.0
 40
106.0
 40
107.0
 40
107.0
 40
108.0
 40
108.0
 40
109.0
 40
109.0
 40
110.0
 40
110.0
 40
111.0
 40
111.0
 40
112.0
 40
112.0
 40
113.0
 40
113.0
 40
114.0
 40
114.0
 40
115.0
 40
115.0
 40
116.0
 40
116.0
 40
117.0
 40
117.0
 40
118.0
 40
118.0
 40
119.0
 40
119.0
 40
120.0
 40
120.0
 40
121.0
 40
121.0
 40
122.0
 40
122.0
 40
123.0
 40
123.0
 40
124.0
 40
124.0
 40
125.0
 40
125.0
 40
126.0
 40
126.0
 40
127.0
 40
127.0
 40
128.0
 40
128.0
 40
129.0
 40
129.0
 40
130.0
 40
130.0
 40
131.0
 40
131.0
 40
132.0
 40
132.0
 40
133.0
 40
133.0
 40
134.0
 40
134.0
 40
135.0
 40
135.0
 40
136.0
 40
136.0
 40
137.0
 40
137.0
 40
138.0
 40
138.0
 40
139.0
 40
139.0
 40
140.0
 40
140.0
 40
141.0
 40
141.0
 40
142.0
 40
142.0
 40
143.0
 40
143.0
 40
144.0
 40
144.0
 40
145.0
 40
145.0
 40
146.0
 40
146.0
 40
147.0
 40
147.0
 40
148.0
 40
148.0
 40
149.0
 40
149.0
 40
150.0
 40
150.0
 40
151.0
 40
151.0
 40
152.0
 40
152.0
 40
153.0
 40
153.0
 40
154.0
 40
154.0
 40
155.0
 40
155.0
 40
156.0
 40
156.0
 40
157.0
 40
157.0
 40
158.0
 40
158.0
 40
159.0
 40
159.0
 40
160.0
 40
160.0
 40
161.0
 40
161.0
 40
162.0
 40
162.0
 40
163.0
 40
163.0
 40
164.0
 40
164.0
 40
165.0
 40
165.0
 40
166.0
 40
166.0
 40
167.0
 40
167.0
 40
168.0
 40
168.0
 40
169.0
 40
169.0
 40
170.0
 40
170.0
 40
171.0
 40
171.0
 40
172.0
 40
172.0
 40
173.0
 40
173.0
 40
174.0
 40
174.0
 40
175.0
 40
175.0
 40
176.0
 40
176.0
 40
177.0
 40
177.0
 40
178.0
 40
178.0
 40
179.0
 40
179.0
 40
180.0
 40
180.0
 40
181.0
 40
181.0
 40
182.0
 40
182.0
 40
183.0
 40
183.0
 40
184.0
 40
184.0
 40
185.0
 40
185.0
 40
186.0
 40
186.0
 40
187.0
 40
187.0
 40
188.0
 40
188.0
 40
189.0
 40
189.0
 40
190.0
 40
190.0
 40
191.0
 40
191.0
 40
192.0
 40
192.0
 40
193.0
 40
193.0
 40
194.0
 40
194.0
 40
195.0
 40
195.0
 40
196.0
 40
196.0
 40
197.0
 40
197.0
 40
198.0
 40
198.0
 40
199.0
 40
199.0
 40
200.0
 40
200.0
 40
201.0
 40
201.0
 40
202.0
 40
202.0
 40
203.0
 40
203.0
 40
204.0
 40
204.0
 40
205.0
 40
205.0
 40
206.0
 40
206.0
 40
207.0
 40
207.0
 40
208.0
 40
208.0
 40
209.0
 40
209.0
 40
210.0
 40
210.0
 40
211.0
 40
211.0
 40
212.0
 40
212.0
 40
213.0
 40
213.0
 40
214.0
 40
214.0
 40
215.0
 40
215.0
 40
216.0
 40
216.0
 40
217.0
 40
217.0
 40
218.0
 40
218.0
 40
219.0
 40
219.0
 40
220.0
 40
220.0
 40
221.0
 40
221.0
 40
222.0
 40
222.0
 40
223.0
 40
223.0
 40
224.0
 40
224.0
 40
225.0
 40
225.0
 40
226.0
 40
226.0
 40
227.0
 40
227.0
 40
228.0
 40
228.0
 40
229.0
 40
229.0
 40
230.0
 40
230.0
 40
231.0
 40
231.0
 40
232.0
 40
232.0
 40
233.0
 40
233.0
 40
234.0
 40
234.0
 40
235.0
 40
235.0
 40
236.0
 40
236.0
 40
237.0
 40
237.0
 40
238.0
 40
238.0
 40
239.0
 40
239.0
 40
240.0
 40
240.0
 40
241.0
 40
241.0
 40
242.0
 40
242.0
 40
243.0
 40
243.0
 40
244.0
 40
244.0
 40
245.0
 40
245.0
 40
246.0
 40
246.0
 40
247.0
 40
247.0
 40
248.0
 40
248.0
 40
249.0
 40
249.0
 40
250.0
 40
250.0
 40
251.0
 40
251.0
 40
252.0
 40
252.0
 40
253.0
 40
253.0
 40
254.0
 40
254.0
 40
255.0
 40
255.0
 40
256.0
 40
256.0
 40
257.0
 40
257.0
 40
258.0
 40
258.0
 40
259.0
 40
259.0
 40
260.0
 40
260.0
 40
261.0
 40
261.0
 40
262.0
 40
262.0
 40
263.0
 40
263.0
 40
264.0
 40
264.0
 40
265.0
 40
265.0
 40
266.0
 40
266.0
 40
267.0
 40
267.0
 40
268.0
 40
268.0
 40
269.0
 40
269.0
 40
270.0
 40
270.0
 40
271.0
 40
271.0
 40
272.0
 40
272.0
 40
273.0
 40
273.0
 40
274.0
 40
274.0
 40
275.0
 40
275.0
 40
276.0
 40
276.0
 40
277.0
 40
277.0
 40
278.0
 40
278.0
 40
279.0
 40
279.0
 40
280.0
 40
280.0
 40
281.0
 40
281.0
 40
282.0
 40
282.0
 40
283.0
 40
283.0
 40
284.0
 40
284.0
 40
285.0
 40
285.0
 40
286.0
 40
286.0
 40
287.0
 40
287.0
 40
288.0
 40
288.0
 40
289.0
 40
289.0
 40
290.0
 40
290.0
 40
291.0
 40
291.0
 40
292.0
 40
292.0
 40
293.0
 40
293.0
 40
294.0
 40
294.0
 40
295.0
 40
295.0
 40
296.0
 40
296.0
 40
297.0
 40
297.0
 40
298.0
 40
298.0
 40
299.0
 40
299.0
 40
300.0
 40
300.0
 40
301.0
 40
301.0
 40
302.0
 40
302.0
 40
303.0
 40
303.0
 40
304.0
 40
304.0
 40
305.0
 40
305.0
 40
306.0
 40
306.0
 40
307.0
 40
307.0
 40
308.0
 40
308.0
 40
309.0
 40
309.0
 40
310.0
 40
310.0
 40
311.0
 40
311.0
 40
312.0
 40
312.0
 40
313.0
 40
313.0
 40
314.0
 40
314.0
 40
315.0
 40
315.0
 40
316.0
 40
316.0
 40
317.0
 40
317.0
 40
318.0
 40
318.0
 40
319.0
 40
319.0
 40
320.0
 40
320.0
 40
321.0
 40
321.0
 40
322.0
 40
322.0
 40
323.0
 40
323.0
 40
324.0
 40
324.0
 40
325.0
 40
325.0
 40
326.0
 40
326.0
 40
327.0
 40
327.0
 40
328.0
 40
328.0
 40
329.0
 40
329.0
 40
330.0
 40
330.0
 40
331.0
 40
331.0
 40
332.0
 40
332.0
 40
333.0
 40
333.0
 40
334.0
 40
334.0
 40
335.0
 40
335.0
 40
336.0
 40
336.0
 40
337.0
 40
337.0
 40
338.0
 40
338.0
 40
339.0
 40
339.0
 40
340.0
 40
340.0
 40
341.0
 40
341.0
 40
342.0
 40
342.0
 40
343.0
 40
343.0
 40
344.0
 40
344.0
 40
345.0
 40
345.0
 40
346.0
 40
346.0
 40
347.0
 40
347.0
 40
348.0
 40
348.0
 40
349.0
 40
349.0
 40
350.0
 40
350.0
 40
351.0
 40
351.0
 40
352.0
 40
352.0
 40
353.0
 40
353.0
 40
354.0
 40
354.0
 40
355.0
 40
355.0
 40
356.0
 40
356.0
 40
357.0
 40
357.0
 40
358.0
 40
358.0
 40
359.0
 40
359.0
 40
360.0
 40
360.0
 40
361.0
 40
361.0
 40
362.0
 40
362.0
 40
363.0
 40
363.0
 40
364.0
 40
364.0
 40
365.0
 40
365.0
 40
366.0
 40
366.0
 40
367.0
 40
367.0
 40
368.0
 40
368.0
 40
369.0
 40
369.0
 40
370.0
 40
370.0
 40
371.0
 40
371.0
 40
372.0
 40
372.0
 40
373.0
 40
373.0
 40
374.0
 40
374.0
 40
375.0
 40
375.0
 40
376.0
 40
376.0
 40
377.0
 40
377.0
 40
378.0
 40
378.0
 40
379.0
 40
379.0
 40
380.0
 40
380.0
 40
381.0
 40
381.0
 40
382.0
 40
382.0
 40
383.0
 40
383.0
 40
384.0
 40
384.0
 40
385.0
 40
385.0
 40
386.0
 40
386.0
 40
387.0
 40
387.0
 40
388.0
 40
388.0
 40
389.0
 40
389.0
 40
389.0
 10
930.2998716488114
 20
-1331.5193134762401
 30
0.0
 41
1.0
 10
931.11829575753177
 20
-1331.5193134762401
 30
0.0
 41
1.0
 10
931.93671986625213
 20
-1331.5193134762401
 30
0.0
 41
1.0
 10
931.52296613073543
 20
-1332.8619397404898
 30
0.0
 41
1.0
 10
931.10921239521872
 20
-1334.2045660047395
 30
0.0
 41
1.0
 10
931.12755189038171
 20
-1334.1758652318351
 30
0.0
 41
0.9999957264384666
 10
931.14605888720894
 20
-1334.1472721816901
 30
0.0
 41
1.0
 10
931.17648821135049
 20
-1334.1002593033079
 30
0.0
 41
1.0
 10
931.20691753549204
 20
-1334.0532464249256
 30
0.0
 41
1.0
 10
931.28628318059566
 20
-1333.9306276180257
 30
0.0
 41
0.9995394069081577
 10
931.3729415721491
 20
-1333.8130495562821
 30
0.0
 41
1.0
 10
931.40869843441078
 20
-1333.7645346636857
 30
0.0
 41
1.0
 10
931.44445529667234
 20
-1333.7160197710898
 30
0.0
 41
1.0
 10
931.57818196449011
 20
-1333.5345794959637
 30
0.0
 41
0.9994460617143283
 10
931.72368244577569
 20
-1333.3624370983173
 30
0.0
 41
1.0
 10
931.72807062674929
 20
-1333.3572454179364
 30
0.0
 41
1.0
 10
931.73245880772288
 20
-1333.3520537375555
 30
0.0
 41
1.0
 10
931.86918292706127
 20
-1333.1902947006704
 30
0.0
 41
0.99943593949342
 10
932.01645715741495
 20
-1333.0380784995034
 30
0.0
 41
1.0
 10
932.01884051136858
 20
-1333.0356151691301
 30
0.0
 41
1.0
 10
932.0212238653221
 20
-1333.0331518387568
 30
0.0
 41
1.0
 10
932.16373138776407
 20
-1332.885862298341
 30
0.0
 41
0.9995293688567777
 10
932.31500306874864
 20
-1332.7475890861745
 30
0.0
 41
1.0
 10
932.33429682801238
 20
-1332.7299532005229
 30
0.0
 41
1.0
 10
932.35359058727624
 20
-1332.7123173148714
 30
0.0
 41
1.0
 10
932.4662747497332
 20
-1332.609315874008
 30
0.0
 41
0.9997087614803119
 10
932.58379763868584
 20
-1332.5118715932124
 30
0.0
 41
1.0
 10
932.60296371186155
 20
-1332.4959800147042
 30
0.0
 41
1.0
 10
932.62212978503737
 20
-1332.480088436196
 30
0.0
 41
1.0
 10
932.70132052763802
 20
-1332.4144273124168
 30
0.0
 41
0.9999595338699319
 10
932.78167979849604
 20
-1332.3502015817596
 30
0.0
 41
1.0
 10
932.86203906935202
 20
-1332.2859758511042
 30
0.0
 41
0.999974941750879
 10
932.94329960369066
 20
-1332.2228942971617
 30
0.0
 41
1.0
 10
932.96428574986317
 20
-1332.2066030098524
 30
0.0
 41
1.0
 10
932.98527189603556
 20
-1332.1903117225427
 30
0.0
 41
1.0
 10
933.0698397813303
 20
-1332.1246627127073
 30
0.0
 41
0.9999792037115237
 10
933.15524738109707
 20
-1332.0601099310654
 30
0.0
 41
1.0
 10
933.17607220697232
 20
-1332.044370108835
 30
0.0
 41
1.0
 10
933.19689703284757
 20
-1332.0286302866045
 30
0.0
 41
1.0
 10
933.24065498078335
 20
-1331.9955571494841
 30
0.0
 41
0.9999993374032694
 10
933.28433666700971
 20
-1331.9623833539974
 30
0.0
 41
1.0
 10
933.32801835314842
 20
-1331.9292095585763
 30
0.0
 41
0.9999160953813674
 10
933.37254476406383
 20
-1331.8971784933817
 30
0.0
 41
1.0
 10
933.40536665148761
 20
-1331.8735673377935
 30
0.0
 41
1.0
 10
933.4381885389115
 20
-1331.8499561822057
 30
0.0
 41
1.0
 10
933.54835872466913
 20
-1331.7707028058387
 30
0.0
 41
0.9980964527233084
 10
933.66744771816957
 20
-1331.7056153329825
 30
0.0
 41
1.0
 10
933.70448032510058
 20
-1331.6853753533876
 30
0.0
 41
1.0
 10
933.74151293203147
 20
-1331.6651353737927
 30
0.0
 41
1.0
 10
933.92083994530219
 20
-1331.5671251230931
 30
0.0
 41
0.9984572810572808
 10
934.10992851165872
 20
-1331.4896028617479
 30
0.0
 41
1.0
 10
934.11357478105072
 20
-1331.4881079694117
 30
0.0
 41
1.0
 10
934.11722105044271
 20
-1331.4866130770754
 30
0.0
 41
1.0
 10
934.29901707801434
 20
-1331.4120806004028
 30
0.0
 41
0.9987838528033702
 10
934.48726973657688
 20
-1331.3558149602361
 30
0.0
 41
1.0
 10
934.4915076857751
 20
-1331.3545483065461
 30
0.0
 41
1.0
 10
934.49574563497333
 20
-1331.3532816528561
 30
0.0
 41
1.0
 10
934.67552239513577
 20
-1331.2995493200704
 30
0.0
 41
0.9990652816207172
 10
934.85926832685197
 20
-1331.2615456405281
 30
0.0
 41
1.0
 10
934.86445672788818
 20
-1331.2604725374206
 30
0.0
 41
1.0
 10
934.8696451289245
 20
-1331.2593994343131
 30
0.0
 41
1.0
 10
935.04301425857284
 20
-1331.2235419609854
 30
0.0
 41
0.999290993427007
 10
935.21859002502617
 20
-1331.2008315285195
 30
0.0
 41
1.0
 10
935.3941657914836
 20
-1331.1781210960532
 30
0.0
 41
0.9994553539448965
 10
935.57085722457589
 20
-1331.1670417918469
 30
0.0
 41
1.0
 10
935.60629163236911
 20
-1331.1648199037993
 30
0.0
 41
1.0
 10
935.64172604016233
 20
-1331.1625980157517
 30
0.0
 41
1.0
 10
935.80795180673545
 20
-1331.1521749533392
 30
0.0
 41
0.9990928098292455
 10
935.97446159864103
 20
-1331.1559345945736
 30
0.0
 41
1.0
 10
936.01302343392183
 20
-1331.1568052861069
 30
0.0
 41
1.0
 10
936.05158526920263
 20
-1331.1576759776401
 30
0.0
 41
1.0
 10
936.14097139055229
 20
-1331.1596942358085
 30
0.0
 41
0.9998382089207004
 10
936.23022707332984
 20
-1331.1649263623365
 30
0.0
 41
1.0
 10
936.23065697954235
 20
-1331.1649515632382
 30
0.0
 41
1.0
 10
936.23108688575496
 20
-1331.16497676414
 30
0.0
 41
1.0
 10
936.31948275610864
 20
-1331.170158488864
 30
0.0
 41
0.9997558016758833
 10
936.40756333331683
 20
-1331.179241004231
 30
0.0
 41
1.0
 10
936.40803947174913
 20
-1331.1792901017136
 30
0.0
 41
1.0
 10
936.40851561018144
 20
-1331.1793391991966
 30
0.0
 41
1.0
 10
936.49564391052024
 20
-1331.1883235195976
 30
0.0
 41
0.9996565144181183
 10
936.58218176385981
 20
-1331.2018608262863
 30
0.0
 41
1.0
 10
936.58264768924084
 20
-1331.2019337120184
 30
0.0
 41
1.0
 10
936.58311361462188
 20
-1331.2020065977501
 30
0.0
 41
1.0
 10
936.66871961720494
 20
-1331.2153981329759
 30
0.0
 41
0.9995321806867458
 10
936.75334669752976
 20
-1331.2339986214049
 30
0.0
 41
1.0
 10
936.75373589209948
 20
-1331.23408416387
 30
0.0
 41
1.0
 10
936.75412508666921
 20
-1331.2341697063355
 30
0.0
 41
1.0
 10
936.83797377785515
 20
-1331.2525991098335
 30
0.0
 41
0.9993819199220927
 10
936.92032031205395
 20
-1331.2768744930947
 30
0.0
 41
1.0
 10
936.9205587455541
 20
-1331.276944782205
 30
0.0
 41
1.0
 10
936.92079717905426
 20
-1331.2770150713147
 30
0.0
 41
1.0
 10
937.00266684625183
 20
-1331.3011498763556
 30
0.0
 41
0.9992088568504121
 10
937.0823593652384
 20
-1331.3317151121498
 30
0.0
 41
1.0
 10
937.16204035611736
 20
-1331.3622747128832
 30
0.0
 41
0.9990226101774669
 10
937.23871102602459
 20
-1331.3997521444978
 30
0.0
 41
1.0
 10
937.31537016782056
 20
-1331.4372239410498
 30
0.0
 41
0.9988424273970676
 10
937.38807379503021
 20
-1331.4818887163012
 30
0.0
 41
1.0
 10
937.38834150341199
 20
-1331.4820531803746
 30
0.0
 41
1.0
 10
937.38860921179366
 20
-1331.4822176444484
 30
0.0
 41
1.0
 10
937.46184825576654
 20
-1331.527211347847
 30
0.0
 41
0.9986928844490594
 10
937.53011112247805
 20
-1331.5794470821281
 30
0.0
 41
1.0
 10
937.53069241469893
 20
-1331.5798918953544
 30
0.0
 41
1.0
 10
937.53127370691993
 20
-1331.5803367085812
 30
0.0
 41
1.0
 10
937.60069915807378
 20
-1331.6334620693153
 30
0.0
 41
0.9986007262278429
 10
937.66412532784113
 20
-1331.6936228390093
 30
0.0
 41
1.0
 10
937.66501974329867
 20
-1331.6944712068446
 30
0.0
 41
1.0
 10
937.66591415875632
 20
-1331.6953195746803
 30
0.0
 41
1.0
 10
937.7311291594383
 20
-1331.7571770800453
 30
0.0
 41
0.9985581491382212
 10
937.7893367711398
 20
-1331.8256695703164
 30
0.0
 41
1.0
 10
937.79859522473521
 20
-1331.8365639280175
 30
0.0
 41
1.0
 10
937.80785367833073
 20
-1331.8474582857191
 30
0.0
 41
1.0
 10
937.88457819722362
 20
-1331.9377394913938
 30
0.0
 41
0.9970460233520859
 10
937.94657009838306
 20
-1332.0387065755756
 30
0.0
 41
1.0
 10
937.96103946346227
 20
-1332.0622730346561
 30
0.0
 41
1.0
 10
937.97550882854148
 20
-1332.0858394937366
 30
0.0
 41
1.0
 10
938.0152455285546
 20
-1332.1505592177693
 30
0.0
 41
0.9988468816635339
 10
938.0485918993063
 20
-1332.218791670198
 30
0.0
 41
1.0
 10
938.05562792179853
 20
-1332.233188591337
 30
0.0
 41
1.0
 10
938.06266394429088
 20
-1332.247585512476
 30
0.0
 41
1.0
 10
938.08193827005823
 20
-1332.2870241226267
 30
0.0
 41
0.9998431189998452
 10
938.09980359755275
 20
-1332.3271206770662
 30
0.0
 41
1.0
 10
938.11766892503601
 20
-1332.3672172314803
 30
0.0
 41
0.999998999008802
 10
938.13564764844989
 20
-1332.4072630690464
 30
0.0
 41
1.0
 10
938.14181996005414
 20
-1332.4210112858811
 30
0.0
 41
1.0
 10
938.14799227165827
 20
-1332.4347595027159
 30
0.0
 41
1.0
 10
938.17831561826631
 20
-1332.5023017739197
 30
0.0
 41
0.9998790356321585
 10
938.20652349840225
 20
-1332.5707545258513
 30
0.0
 41
1.0
 10
938.21335867969003
 20
-1332.5873416272873
 30
0.0
 41
1.0
 10
938.22019386097782
 20
-1332.6039287287233
 30
0.0
 41
1.0
 10
938.24375152335836
 20
-1332.6610966836104
 30
0.0
 41
0.9998227574562077
 10
938.26514027174494
 20
-1332.7191109918797
 30
0.0
 41
1.0
 10
938.28652902013562
 20
-1332.7771253001617
 30
0.0
 41
0.9996797971042301
 10
938.30495530509495
 20
-1332.83614741928
 30
0.0
 41
1.0
 10
938.30885910781979
 20
-1332.8486518774464
 30
0.0
 41
1.0
 10
938.31276291054462
 20
-1332.8611563356133
 30
0.0
 41
1.0
 10
938.33899680095533
 20
-1332.9451873710702
 30
0.0
 41
0.9979274938733674
 10
938.35422132443409
 20
-1333.0318917297298
 30
0.0
 41
1.0
 10
938.35644501169486
 20
-1333.0445557305486
 30
0.0
 41
1.0
 10
938.35866869895563
 20
-1333.0572197313675
 30
0.0
 41
1.0
 10
938.36959863865377
 20
-1333.1194662386563
 30
0.0
 41
0.9994985982137848
 10
938.37656680383157
 20
-1333.1822797398042
 30
0.0
 41
1.0
 10
938.38353496900868
 20
-1333.2450932409463
 30
0.0
 41
0.9996372611200439
 10
938.38711083477642
 20
-1333.3081908196302
 30
0.0
 41
1.0
 10
938.38727941226568
 20
-1333.3111654367115
 30
0.0
 41
1.0
 10
938.38744798975495
 20
-1333.3141400537927
 30
0.0
 41
1.0
 10
938.39136101050133
 20
-1333.3831868666373
 30
0.0
 41
0.9997730630737157
 10
938.39232932398943
 20
-1333.4523376906743
 30
0.0
 41
1.0
 10
938.39238643040756
 20
-1333.4564158698156
 30
0.0
 41
1.0
 10
938.39244353682568
 20
-1333.4604940489569
 30
0.0
 41
1.0
 10
938.39352606314969
 20
-1333.5378012312792
 30
0.0
 41
0.9998772614070959
 10
938.39218597641832
 20
-1333.6151043778325
 30
0.0
 41
1.0
 10
938.39209671321953
 20
-1333.6202535416708
 30
0.0
 41
1.0
 10
938.39200745002074
 20
-1333.625402705509
 30
0.0
 41
1.0
 10
938.39048883689122
 20
-1333.7130041797457
 30
0.0
 41
0.9999415567331278
 10
938.38707652664584
 20
-1333.800552341412
 30
0.0
 41
1.0
 10
938.38683520597033
 20
-1333.8067438011524
 30
0.0
 41
1.0
 10
938.38659388529493
 20
-1333.8129352608928
 30
0.0
 41
1.0
 10
938.38269893369863
 20
-1333.9128663420386
 30
0.0
 41
0.9999716810428486
 10
938.37730035058019
 20
-1334.0127274802628
 30
0.0
 41
1.0
 10
938.37408755179149
 20
-1334.072156729919
 30
0.0
 41
1.0
 10
938.37087475300279
 20
-1334.1315859795748
 30
0.0
 41
1.0
 10
938.36280084384907
 20
-1334.2809343808715
 30
0.0
 41
0.9999819129906591
 10
938.35293105223286
 20
-1334.4301748585788
 30
0.0
 41
1.0
 10
938.3430612606162
 20
-1334.5794153362901
 30
0.0
 41
1.0
 10
938.34062194005242
 20
-1334.6166083821388
 30
0.0
 41
1.0
 10
938.36332017388122
 20
-1334.5778673848138
 30
0.0
 41
0.9999982128200512
 10
938.38616473264369
 20
-1334.5392124908437
 30
0.0
 41
1.0
 10
938.41307429252618
 20
-1334.4936792767924
 30
0.0
 41
1.0
 10
938.43998385240866
 20
-1334.4481460627414
 30
0.0
 41
1.0
 10
938.5166475309386
 20
-1334.3184247406659
 30
0.0
 41
0.999860919005679
 10
938.59759484379879
 20
-1334.191332358738
 30
0.0
 41
1.0
 10
938.62724316527851
 20
-1334.1447826257838
 30
0.0
 41
1.0
 10
938.65689148675835
 20
-1334.0982328928301
 30
0.0
 41
1.0
 10
938.73916370699442
 20
-1333.9690603228362
 30
0.0
 41
0.9999067609733394
 10
938.82493271646081
 20
-1333.8421826333913
 30
0.0
 41
1.0
 10
938.8273374196624
 20
-1333.8386253673355
 30
0.0
 41
1.0
 10
938.8297421228641
 20
-1333.8350681012791
 30
0.0
 41
1.0
 10
938.91070172592697
 20
-1333.7153049439469
 30
0.0
 41
0.9998784952149437
 10
938.99535533560629
 20
-1333.598123727241
 30
0.0
 41
1.0
 10
939.0800089452855
 20
-1333.4809425105352
 30
0.0
 41
0.9998532968284771
 10
939.16862656610886
 20
-1333.3667296020637
 30
0.0
 41
1.0
 10
939.18858835510105
 20
-1333.3410022810419
 30
0.0
 41
1.0
 10
939.20855014409335
 20
-1333.3152749600201
 30
0.0
 41
1.0
 10
939.32703419385075
 20
-1333.1625693490535
 30
0.0
 41
0.9991551975795081
 10
939.4576586434747
 20
-1333.0201097869697
 30
0.0
 41
1.0
 10
939.46116825945376
 20
-1333.0162821853462
 30
0.0
 41
1.0
 10
939.46467787543281
 20
-1333.0124545837227
 30
0.0
 41
1.0
 10
939.58828309309843
 20
-1332.8776502248863
 30
0.0
 41
0.9997418144181053
 10
939.71788523279884
 20
-1332.7486008142739
 30
0.0
 41
1.0
 10
939.84748737249981
 20
-1332.619551403661
 30
0.0
 41
0.9989238204633248
 10
939.98848992074943
 20
-1332.5030664416233
 30
0.0
 41
1.0
 10
940.03373759888962
 20
-1332.4656864500141
 30
0.0
 41
1.0
 10
940.0789852770298
 20
-1332.4283064584049
 30
0.0
 41
1.0
 10
940.21922533425152
 20
-1332.3124514051135
 30
0.0
 41
0.9990825084095978
 10
940.36886526685498
 20
-1332.2090224072811
 30
0.0
 41
1.0
 10
940.37891063091183
 20
-1332.2020791942016
 30
0.0
 41
1.0
 10
940.38895599496868
 20
-1332.1951359811221
 30
0.0
 41
1.0
 10
940.51850519945788
 20
-1332.1055934094486
 30
0.0
 41
0.9998164899825184
 10
940.65138940283521
 20
-1332.0210791679317
 30
0.0
 41
1.0
 10
940.66323496336031
 20
-1332.0135454014064
 30
0.0
 41
1.0
 10
940.67508052388541
 20
-1332.0060116348816
 30
0.0
 41
1.0
 10
940.78427360621072
 20
-1331.9365649264157
 30
0.0
 41
0.9997473449130786
 10
940.89647756346096
 20
-1331.8720959685995
 30
0.0
 41
1.0
 10
941.00868152070689
 20
-1331.8076270107856
 30
0.0
 41
0.9999327861145605
 10
941.12235013147699
 20
-1331.7457770191006
 30
0.0
 41
1.0
 10
941.12290213403617
 20
-1331.7454766604226
 30
0.0
 41
1.0
 10
941.12345413659523
 20
-1331.7451763017441
 30
0.0
 41
1.0
 10
941.23822675248175
 20
-1331.6827255927035
 30
0.0
 41
0.9996956420483443
 10
941.3559400783214
 20
-1331.6260121257289
 30
0.0
 41
1.0
 10
941.38638048321127
 20
-1331.6113461490006
 30
0.0
 41
1.0
 10
941.41682088810126
 20
-1331.5966801722718
 30
0.0
 41
1.0
 10
941.51979799484764
 20
-1331.5470665138271
 30
0.0
 41
0.9998070570177278
 10
941.62464438379061
 20
-1331.5015359269253
 30
0.0
 41
1.0
 10
941.72949077273518
 20
-1331.4560053400226
 30
0.0
 41
0.999782743614748
 10
941.83614370935072
 20
-1331.414884168709
 30
0.0
 41
1.0
 10
941.85536655897749
 20
-1331.4074725950784
 30
0.0
 41
1.0
 10
941.87458940860415
 20
-1331.4000610214478
 30
0.0
 41
1.0
 10
942.01968804447517
 20
-1331.3441167028716
 30
0.0
 41
0.9988031841977267
 10
942.16955840707817
 20
-1331.3026166387042
 30
0.0
 41
1.0
 10
942.19447565544203
 20
-1331.2957168928972
 30
0.0
 41
1.0
 10
942.2193929038059
 20
-1331.2888171470902
 30
0.0
 41
1.0
 10
942.38666292945391
 20
-1331.2424990046832
 30
0.0
 41
0.9984748040550164
 10
942.55801983810409
 20
-1331.2149047724176
 30
0.0
 41
1.0
 10
942.56275897435421
 20
-1331.2141416119041
 30
0.0
 41
1.0
 10
942.56749811060445
 20
-1331.2133784513906
 30
0.0
 41
1.0
 10
942.72937674675427
 20
-1331.1873105401526
 30
0.0
 41
0.9984436495479058
 10
942.89315149047786
 20
-1331.1794325863341
 30
0.0
 41
1.0
 10
942.91484869861029
 20
-1331.1783888991342
 30
0.0
 41
1.0
 10
942.93654590674282
 20
-1331.1773452119348
 30
0.0
 41
1.0
 10
943.05692623420373
 20
-1331.1715546325156
 30
0.0
 41
0.9987954789335708
 10
943.17729447911233
 20
-1331.1775911602579
 30
0.0
 41
1.0
 10
943.1972592716038
 20
-1331.1785924045964
 30
0.0
 41
1.0
 10
943.21722406409526
 20
-1331.179593648935
 30
0.0
 41
1.0
 10
943.29766272401878
 20
-1331.1836276879997
 30
0.0
 41
0.999794159587566
 10
943.37787150211648
 20
-1331.1909217539212
 30
0.0
 41
1.0
 10
943.45808028020895
 20
-1331.1982158198418
 30
0.0
 41
0.9998589466236461
 10
943.53799882706255
 20
-1331.208199674292
 30
0.0
 41
1.0
 10
943.57040502887253
 20
-1331.2122480312112
 30
0.0
 41
1.0
 10
943.60281123068239
 20
-1331.2162963881308
 30
0.0
 41
1.0
 10
943.74754218115811
 20
-1331.2343769564202
 30
0.0
 41
0.9993495063249738
 10
943.89059342492726
 20
-1331.2628426661624
 30
0.0
 41
1.0
 10
943.92352712207185
 20
-1331.2693961293755
 30
0.0
 41
1.0
 10
943.95646081921632
 20
-1331.2759495925891
 30
0.0
 41
1.0
 10
944.06575464242474
 20
-1331.2976979267248
 30
0.0
 41
0.9996788715560228
 10
944.17380621438451
 20
-1331.324955726089
 30
0.0
 41
1.0
 10
944.1758692169235
 20
-1331.3254761526616
 30
0.0
 41
1.0
 10
944.17793221946238
 20
-1331.3259965792347
 30
0.0
 41
1.0
 10
944.28185778634133
 20
-1331.3522135254523
 30
0.0
 41
0.9995480654493398
 10
944.38402002157045
 20
-1331.3846284820763
 30
0.0
 41
1.0
 10
944.38570966370071
 20
-1331.3851645869906
 30
0.0
 41
1.0
 10
944.38739930583085
 20
-1331.385700691905
 30
0.0
 41
1.0
 10
944.4861822568007
 20
-1331.4170434387008
 30
0.0
 41
0.9993867959455466
 10
944.58252941524256
 20
-1331.4552228079904
 30
0.0
 41
1.0
 10
944.58377236432761
 20
-1331.4557153498865
 30
0.0
 41
1.0
 10
944.58501531341255
 20
-1331.4562078917832
 30
0.0
 41
1.0
 10
944.67887657368522
 20
-1331.4934021772804
 30
0.0
 41
0.9992050256522699
 10
944.76947624871832
 20
-1331.5379560765189
 30
0.0
 41
1.0
 10
944.77021093142889
 20
-1331.5383173689791
 30
0.0
 41
1.0
 10
944.77094561413935
 20
-1331.5386786614388
 30
0.0
 41
1.0
 10
944.86007592374972
 20
-1331.582509975756
 30
0.0
 41
0.9990222350739596
 10
944.94498598514531
 20
-1331.6340432434561
 30
0.0
 41
1.0
 10
944.94516987042789
 20
-1331.6341548463608
 30
0.0
 41
1.0
 10
944.94535375571036
 20
-1331.6342664492656
 30
0.0
 41
1.0
 10
945.02989604653953
 20
-1331.6855765111552
 30
0.0
 41
0.9988642743805897
 10
945.10917058115808
 20
-1331.7447006986797
 30
0.0
 41
1.0
 10
945.18844511577811
 20
-1331.8038248862056
 30
0.0
 41
0.9987681233310206
 10
945.26146890005634
 20
-1331.8705155776081
 30
0.0
 41
1.0
 10
945.26179782802058
 20
-1331.8708159788209
 30
0.0
 41
1.0
 10
945.26212675598481
 20
-1331.8711163800338
 30
0.0
 41
1.0
 10
945.33580839619174
 20
-1331.9384078738619
 30
0.0
 41
0.9987496570897687
 10
945.40240220151782
 20
-1332.0127206879476
 30
0.0
 41
1.0
 10
945.40317437127919
 20
-1332.0135823613066
 30
0.0
 41
1.0
 10
945.40394654104057
 20
-1332.0144440346655
 30
0.0
 41
1.0
 10
945.47208468589054
 20
-1332.0904801954705
 30
0.0
 41
0.998814766982836
 10
945.5325069401166
 20
-1332.1727812023144
 30
0.0
 41
1.0
 10
945.53362626619287
 20
-1332.1743058336649
 30
0.0
 41
1.0
 10
945.53474559226902
 20
-1332.1758304650155
 30
0.0
 41
1.0
 10
945.59740649864909
 20
-1332.2611807345618
 30
0.0
 41
0.998945263621525
 10
945.65197341161149
 20
-1332.3519194237217
 30
0.0
 41
1.0
 10
945.65332213769693
 20
-1332.3541622047471
 30
0.0
 41
1.0
 10
945.65467086378226
 20
-1332.356404985773
 30
0.0
 41
1.0
 10
945.71193522891429
 20
-1332.451629236981
 30
0.0
 41
0.9991046436069303
 10
945.7609444422344
 20
-1332.5513536700043
 30
0.0
 41
1.0
 10
945.76240830382551
 20
-1332.554332350079
 30
0.0
 41
1.0
 10
945.76387216541661
 20
-1332.5573110301536
 30
0.0
 41
1.0
 10
945.8158091019194
 20
-1332.6629928233267
 30
0.0
 41
0.9992763831101159
 10
945.85956223047435
 20
-1332.7723168852824
 30
0.0
 41
1.0
 10
945.86104150013716
 20
-1332.776013072815
 30
0.0
 41
1.0
 10
945.86252076979997
 20
-1332.7797092603471
 30
0.0
 41
1.0
 10
945.90923243768111
 20
-1332.8964256973679
 30
0.0
 41
0.9994163472883119
 10
945.94786546887121
 20
-1333.0160592858331
 30
0.0
 41
1.0
 10
945.94910362111818
 20
-1333.019893429617
 30
0.0
 41
1.0
 10
945.95034177336515
 20
-1333.0237275734005
 30
0.0
 41
1.0
 10
945.99022533438233
 20
-1333.1472336348786
 30
0.0
 41
0.9997268055891282
 10
946.02429339029436
 20
-1333.2724686668291
 30
0.0
 41
1.0
 10
946.02522357056387
 20
-1333.2758880329377
 30
0.0
 41
1.0
 10
946.02615375083349
 20
-1333.2793073990467
 30
0.0
 41
1.0
 10
946.05836144620707
 20
-1333.3977036987833
 30
0.0
 41
0.9996701319000901
 10
946.08444706297689
 20
-1333.5175976520434
 30
0.0
 41
1.0
 10
946.11053267974773
 20
-1333.6374916053085
 30
0.0
 41
0.999578545110963
 10
946.1296162570876
 20
-1333.7586973663413
 30
0.0
 41
1.0
 10
946.13383603926093
 20
-1333.7854985211036
 30
0.0
 41
1.0
 10
946.13805582143425
 20
-1333.8122996758664
 30
0.0
 41
1.0
 10
946.16463079737298
 20
-1333.9810856495703
 30
0.0
 41
0.9979925101216904
 10
946.16965638329941
 20
-1334.1518769776633
 30
0.0
 41
1.0
 10
946.17048119572405
 20
-1334.1799077011476
 30
0.0
 41
1.0
 10
946.1713060081488
 20
-1334.2079384246319
 30
0.0
 41
1.0
 10
946.17468196922573
 20
-1334.3226683057599
 30
0.0
 41
0.9995314902263306
 10
946.17103177708725
 20
-1334.4373897895068
 30
0.0
 41
1.0
 10
946.16738158494843
 20
-1334.5521112732624
 30
0.0
 41
0.9996245486944573
 10
946.15745248981762
 20
-1334.6664605443855
 30
0.0
 41
1.0
 10
946.15728944182342
 20
-1334.6683383005195
 30
0.0
 41
1.0
 10
946.15712639382934
 20
-1334.6702160566531
 30
0.0
 41
1.0
 10
946.14687120271083
 20
-1334.7883208400424
 30
0.0
 41
0.9997286095000758
 10
946.13112587913895
 20
-1334.9058197489401
 30
0.0
 41
1.0
 10
946.13073238648849
 20
-1334.908756173643
 30
0.0
 41
1.0
 10
946.13033889383792
 20
-1334.911692598346
 30
0.0
 41
1.0
 10
946.1138065849666
 20
-1335.035064356641
 30
0.0
 41
0.9998265533968374
 10
946.09269112623326
 20
-1335.1577348314324
 30
0.0
 41
1.0
 10
946.09201458409609
 20
-1335.1616652099403
 30
0.0
 41
1.0
 10
946.09133804195892
 20
-1335.1655955884478
 30
0.0
 41
1.0
 10
946.06886949895079
 20
-1335.2961268202573
 30
0.0
 41
0.9999022530854195
 10
946.04276003434165
 20
-1335.4259787888916
 30
0.0
 41
1.0
 10
946.04178139317651
 20
-1335.4308459312781
 30
0.0
 41
1.0
 10
946.04080275201125
 20
-1335.4357130736646
 30
0.0
 41
1.0
 10
946.0127360050725
 20
-1335.5752993270687
 30
0.0
 41
0.9999524761937327
 10
945.98195303623504
 20
-1335.7143118202455
 30
0.0
 41
1.0
 10
945.98067692905988
 20
-1335.7200745795465
 30
0.0
 41
1.0
 10
945.97940082188484
 20
-1335.725837338847
 30
0.0
 41
1.0
 10
945.94606563870229
 20
-1335.876375350603
 30
0.0
 41
0.9999813588735269
 10
945.91089463790479
 20
-1336.0264950632657
 30
0.0
 41
1.0
 10
945.9093407124476
 20
-1336.0331276536911
 30
0.0
 41
1.0
 10
945.9077867869903
 20
-1336.0397602441165
 30
0.0
 41
1.0
 10
945.86950793528536
 20
-1336.2031451376017
 30
0.0
 41
0.9999955237651774
 10
945.83025205729894
 20
-1336.3662980412316
 30
0.0
 41
1.0
 10
945.81797042166545
 20
-1336.417342231751
 30
0.0
 41
1.0
 10
945.80568878603208
 20
-1336.46838642227
 30
0.0
 41
1.0
 10
945.7418696367813
 20
-1336.7336277069287
 30
0.0
 41
0.9999993604189548
 10
945.67745068960585
 20
-1336.9987239576437
 30
0.0
 41
1.0
 10
945.67273185406339
 20
-1337.0181428656654
 30
0.0
 41
1.0
 10
945.66801301852081
 20
-1337.0375617736875
 30
0.0
 41
1.0
 10
945.59415640025986
 20
-1337.3414958404485
 30
0.0
 41
0.9999659914720046
 10
945.51529680437432
 20
-1337.644170387008
 30
0.0
 41
1.0
 10
945.51034411544401
 20
-1337.6631795241894
 30
0.0
 41
1.0
 10
945.50539142651371
 20
-1337.6821886613704
 30
0.0
 41
1.0
 10
945.41662645276915
 20
-1338.0228814822865
 30
0.0
 41
0.9999441976023157
 10
945.32068341980266
 20
-1338.3616229075963
 30
0.0
 41
1.0
 10
945.30398290137828
 20
-1338.4205866201203
 30
0.0
 41
1.0
 10
945.28728238295378
 20
-1338.4795503326438
 30
0.0
 41
1.0
 10
945.15793831314227
 20
-1338.936219182988
 30
0.0
 41
0.9999625120735359
 10
945.02070554581792
 20
-1339.3905797169871
 30
0.0
 41
1.0
 10
944.98491560273192
 20
-1339.509075743624
 30
0.0
 41
1.0
 10
944.94912565964603
 20
-1339.6275717702613
 30
0.0
 41
1.0
 10
944.87460545560759
 20
-1339.8742988483548
 30
0.0
 41
0.9999793386317216
 10
944.79691943247133
 20
-1340.1200474875866
 30
0.0
 41
1.0
 10
944.71923340933381
 20
-1340.3657961268225
 30
0.0
 41
1.0
 10
944.708453850463
 20
-1340.3998140311976
 30
0.0
 41
1.0
 10
942.85808079719379
 20
-1346.286885953665
 30
0.0
 41
1.0
 10
941.00770774392458
 20
-1352.1739578761324
 30
0.0
 41
1.0
 10
940.04645105390114
 20
-1352.1739578761324
 30
0.0
 41
1.0
 10
939.08519436387769
 20
-1352.1739578761324
 30
0.0
 41
1.0
 10
940.70413914255607
 20
-1347.0259293743431
 30
0.0
 41
1.0
 10
942.32308392123446
 20
-1341.8779008725539
 30
0.0
 41
1.0
 10
942.36824974440606
 20
-1341.7338696502927
 30
0.0
 41
1.0
 10
942.41341556757754
 20
-1341.5898384280315
 30
0.0
 41
1.0
 10
942.58371998493976
 20
-1341.0467473988699
 30
0.0
 41
0.9999911657907468
 10
942.74945279662597
 20
-1340.5022438674876
 30
0.0
 41
1.0
 10
942.7791487401264
 20
-1340.4046799274377
 30
0.0
 41
1.0
 10
942.80884468362672
 20
-1340.3071159873873
 30
0.0
 41
1.0
 10
942.91518560830025
 20
-1339.9577403361434
 30
0.0
 41
0.9999952428125633
 10
943.01936919763125
 20
-1339.6077153117747
 30
0.0
 41
1.0
 10
943.02442866796639
 20
-1339.5907170374905
 30
0.0
 41
1.0
 10
943.02948813830153
 20
-1339.5737187632064
 30
0.0
 41
1.0
 10
943.1235527869602
 20
-1339.2576902874118
 30
0.0
 41
0.999993168753874
 10
943.21527862482981
 20
-1338.9409750741545
 30
0.0
 41
1.0
 10
943.22021388928738
 20
-1338.9239343648899
 30
0.0
 41
1.0
 10
943.22514915374506
 20
-1338.9068936556257
 30
0.0
 41
1.0
 10
943.30700446270509
 20
-1338.6242598608781
 30
0.0
 41
0.9999893840797451
 10
943.38625168916019
 20
-1338.3408837316372
 30
0.0
 41
1.0
 10
943.46549891562142
 20
-1338.0575076023758
 30
0.0
 41
0.9999833980071267
 10
943.5414751563593
 20
-1337.7732370193601
 30
0.0
 41
1.0
 10
943.55047909308155
 20
-1337.7395481408814
 30
0.0
 41
1.0
 10
943.55948302980391
 20
-1337.7058592624032
 30
0.0
 41
1.0
 10
943.62844757866924
 20
-1337.4478234301112
 30
0.0
 41
0.9999233658068883
 10
943.69100254989064
 20
-1337.1881592713842
 30
0.0
 41
1.0
 10
943.75355752111091
 20
-1336.9284951126617
 30
0.0
 41
1.0
 10
943.79304093996848
 20
-1336.7646884482358
 30
0.0
 41
1.0
 10
943.79801954394588
 20
-1336.7440334863652
 30
0.0
 41
1.0
 10
943.80299814792318
 20
-1336.7233785244946
 30
0.0
 41
1.0
 10
943.83252435883185
 20
-1336.6008817837862
 30
0.0
 41
0.99998686708416
 10
943.86079344282223
 20
-1336.4780888381645
 30
0.0
 41
1.0
 10
943.86469092998027
 20
-1336.4611592507461
 30
0.0
 41
1.0
 10
943.86858841713843
 20
-1336.4442296633276
 30
0.0
 41
1.0
 10
943.88906252681613
 20
-1336.3552958925286
 30
0.0
 41
0.9999778173352087
 10
943.90835012493392
 20
-1336.2660972752885
 30
0.0
 41
1.0
 10
943.92763772305159
 20
-1336.1768986580485
 30
0.0
 41
0.9999602692864706
 10
943.94533208168002
 20
-1336.0873703696318
 30
0.0
 41
1.0
 10
943.94853591375772
 20
-1336.071159914746
 30
0.0
 41
1.0
 10
943.95173974583531
 20
-1336.0549494598602
 30
0.0
 41
1.0
 10
943.97584176862085
 20
-1335.9330002616641
 30
0.0
 41
0.9995617985321081
 10
943.99268511584012
 20
-1335.8098385139558
 30
0.0
 41
1.0
 10
943.99514960574629
 20
-1335.7918176965907
 30
0.0
 41
1.0
 10
943.99761409565235
 20
-1335.7737968792255
 30
0.0
 41
1.0
 10
944.0178973567007
 20
-1335.6254818295245
 30
0.0
 41
0.9991121410639695
 10
944.0256227102891
 20
-1335.4759857307174
 30
0.0
 41
1.0
 10
944.02654150031367
 20
-1335.4582058941398
 30
0.0
 41
1.0
 10
944.02746029033835
 20
-1335.4404260575623
 30
0.0
 41
1.0
 10
944.03334806387761
 20
-1335.3264896319085
 30
0.0
 41
0.9989792494904509
 10
944.02892897176002
 20
-1335.2124867960131
 30
0.0
 41
1.0
 10
944.02828099989142
 20
-1335.1957705500856
 30
0.0
 41
1.0
 10
944.02763302802271
 20
-1335.1790543041582
 30
0.0
 41
1.0
 10
944.02450987964289
 20
-1335.0984839601172
 30
0.0
 41
0.9997820295394028
 10
944.01802588226701
 20
-1335.0181142383706
 30
0.0
 41
1.0
 10
944.01154188489147
 20
-1334.9377445166281
 30
0.0
 41
0.9998335105973533
 10
944.00212968937853
 20
-1334.8576649001673
 30
0.0
 41
1.0
 10
944.00053476470271
 20
-1334.8440951696887
 30
0.0
 41
1.0
 10
943.99893984002688
 20
-1334.8305254392105
 30
0.0
 41
1.0
 10
943.98633779516194
 20
-1334.7233063617934
 30
0.0
 41
0.9996876457880429
 10
943.96839388236447
 20
-1334.6168509340798
 30
0.0
 41
1.0
 10
943.96616221921886
 20
-1334.6036111988362
 30
0.0
 41
1.0
 10
943.96393055607314
 20
-1334.5903714635922
 30
0.0
 41
1.0
 10
943.95013473465303
 20
-1334.5085253196387
 30
0.0
 41
0.9995547496494169
 10
943.93148141275992
 20
-1334.4276478224454
 30
0.0
 41
1.0
 10
943.93110745588933
 20
-1334.4260264117431
 30
0.0
 41
1.0
 10
943.93073349901874
 20
-1334.4244050010409
 30
0.0
 41
1.0
 10
943.91282809086806
 20
-1334.3467703252575
 30
0.0
 41
0.9994899427175217
 10
943.89000318218791
 20
-1334.2704370424196
 30
0.0
 41
1.0
 10
943.88954465544703
 20
-1334.2689035926307
 30
0.0
 41
1.0
 10
943.88908612870614
 20
-1334.2673701428414
 30
0.0
 41
1.0
 10
943.86717827350981
 20
-1334.1941037595882
 30
0.0
 41
0.9993784877589745
 10
943.84016263840203
 20
-1334.1225630544261
 30
0.0
 41
1.0
 10
943.83963094742467
 20
-1334.1211550717046
 30
0.0
 41
1.0
 10
943.8390992564473
 20
-1334.1197470889826
 30
0.0
 41
1.0
 10
943.81314700329472
 20
-1334.0510223492654
 30
0.0
 41
0.999243083225449
 10
943.78193046813612
 20
-1333.9845231971988
 30
0.0
 41
1.0
 10
943.78134835208016
 20
-1333.9832831420829
 30
0.0
 41
1.0
 10
943.78076623602419
 20
-1333.9820430869665
 30
0.0
 41
1.0
 10
943.75071393297731
 20
-1333.9180240451312
 30
0.0
 41
0.9990789632798626
 10
943.71528330620004
 20
-1333.8568174333807
 30
0.0
 41
1.0
 10
943.7146876000179
 20
-1333.8557883475212
 30
0.0
 41
1.0
 10
943.71409189383564
 20
-1333.8547592616617
 30
0.0
 41
1.0
 10
943.67985267942163
 20
-1333.7956108216283
 30
0.0
 41
0.9988874801120717
 10
943.64019340339121
 20
-1333.7399511092133
 30
0.0
 41
1.0
 10
943.63963787732769
 20
-1333.7391714575399
 30
0.0
 41
1.0
 10
943.63908235126416
 20
-1333.7383918058661
 30
0.0
 41
1.0
 10
943.60053412735886
 20
-1333.6842913967951
 30
0.0
 41
0.9986762060691694
 10
943.55663165608314
 20
-1333.6344376823565
 30
0.0
 41
1.0
 10
943.55618769574983
 20
-1333.6339335405385
 30
0.0
 41
1.0
 10
943.55574373541651
 20
-1333.6334293987209
 30
0.0
 41
1.0
 10
943.51272918480686
 20
-1333.5845839679171
 30
0.0
 41
0.9984621642486802
 10
943.46457162802915
 20
-1333.5408006674463
 30
0.0
 41
1.0
 10
943.4643249935134
 20
-1333.5405764352838
 30
0.0
 41
1.0
 10
943.46407835899777
 20
-1333.5403522031208
 30
0.0
 41
1.0
 10
943.4164140712528
 20
-1333.4970173669765
 30
0.0
 41
0.99827246938528
 10
943.3639954394099
 20
-1333.4595730164576
 30
0.0
 41
1.0
 10
943.31157680756826
 20
-1333.4221286659397
 30
0.0
 41
0.9981399180159657
 10
943.25499074417553
 20
-1333.3913421464965
 30
0.0
 41
1.0
 10
943.25494508209681
 20
-1333.3913173033391
 30
0.0
 41
1.0
 10
943.25489942001821
 20
-1333.3912924601821
 30
0.0
 41
1.0
 10
943.1982220324677
 20
-1333.360456254424
 30
0.0
 41
0.9980927086834562
 10
943.13817668140155
 20
-1333.3368394455717
 30
0.0
 41
1.0
 10
943.13773651168981
 20
-1333.3366663196969
 30
0.0
 41
1.0
 10
943.13729634197819
 20
-1333.3364931938215
 30
0.0
 41
1.0
 10
943.07637065148879
 20
-1333.3125301332191
 30
0.0
 41
0.9981411356559948
 10
943.01298213008886
 20
-1333.2961574917138
 30
0.0
 41
1.0
 10
943.01210001338745
 20
-1333.2959296495085
 30
0.0
 41
1.0
 10
943.01121789668616
 20
-1333.2957018073027
 30
0.0
 41
1.0
 10
942.94606514188422
 20
-1333.2788734813864
 30
0.0
 41
0.9983031812936145
 10
942.87939771288939
 20
-1333.2697341202104
 30
0.0
 41
1.0
 10
942.87052668748424
 20
-1333.268518001539
 30
0.0
 41
1.0
 10
942.8616556620791
 20
-1333.2673018828675
 30
0.0
 41
1.0
 10
942.80730601957612
 20
-1333.2598511528765
 30
0.0
 41
0.9983887708263289
 10
942.75246217028428
 20
-1333.2586064792429
 30
0.0
 41
1.0
 10
942.74439876506631
 20
-1333.2584234813678
 30
0.0
 41
1.0
 10
942.73633535984834
 20
-1333.2582404834932
 30
0.0
 41
1.0
 10
942.69761832099107
 20
-1333.2573618056092
 30
0.0
 41
0.9998869563079235
 10
942.65889236778878
 20
-1333.2576476749689
 30
0.0
 41
1.0
 10
942.62016641459877
 20
-1333.2579335443286
 30
0.0
 41
0.9999972320020915
 10
942.58144223539909
 20
-1333.2584016438575
 30
0.0
 41
1.0
 10
942.56208921880716
 20
-1333.2586355839469
 30
0.0
 41
1.0
 10
942.54273620221534
 20
-1333.2588695240368
 30
0.0
 41
1.0
 10
942.46530598984475
 20
-1333.2598055037449
 30
0.0
 41
0.9997304945087666
 10
942.38800268360706
 20
-1333.2643345975309
 30
0.0
 41
1.0
 10
942.37895304190283
 20
-1333.2648648035208
 30
0.0
 41
1.0
 10
942.3699034001985
 20
-1333.2653950095107
 30
0.0
 41
1.0
 10
942.27450081055076
 20
-1333.2709845152765
 30
0.0
 41
0.9997888306415215
 10
942.17940847470641
 20
-1333.2804894797657
 30
0.0
 41
1.0
 10
942.17068741313528
 20
-1333.2813611943977
 30
0.0
 41
1.0
 10
942.16196635156427
 20
-1333.2822329090297
 30
0.0
 41
1.0
 10
942.04943189257733
 20
-1333.293481302783
 30
0.0
 41
0.9984170238190345
 10
941.93887274522729
 20
-1333.3172973847184
 30
0.0
 41
1.0
 10
941.90249161423833
 20
-1333.3251344205248
 30
0.0
 41
1.0
 10
941.86611048324937
 20
-1333.3329714563317
 30
0.0
 41
1.0
 10
941.75091941482901
 20
-1333.357785322841
 30
0.0
 41
0.9976592854197258
 10
941.64019124842548
 20
-1333.3980839999879
 30
0.0
 41
1.0
 10
941.52946308201956
 20
-1333.4383826771352
 30
0.0
 41
0.9993255074352043
 10
941.4219912832267
 20
-1333.486699575629
 30
0.0
 41
1.0
 10
941.41736610430485
 20
-1333.4887789518282
 30
0.0
 41
1.0
 10
941.4127409253831
 20
-1333.4908583280269
 30
0.0
 41
1.0
 10
941.29601876874756
 20
-1333.5433339789176
 30
0.0
 41
0.9976475078274867
 10
941.18757142443826
 20
-1333.6112819685752
 30
0.0
 41
1.0
 10
941.16922903030218
 20
-1333.6227744473902
 30
0.0
 41
1.0
 10
941.15088663616621
 20
-1333.6342669262056
 30
0.0
 41
1.0
 10
941.06668444461548
 20
-1333.6870240469732
 30
0.0
 41
0.9995131336406663
 10
940.98593672965615
 20
-1333.7449302589278
 30
0.0
 41
1.0
 10
940.90518901469898
 20
-1333.8028364708809
 30
0.0
 41
0.9995810107606182
 10
940.82792736696604
 20
-1333.8653181533502
 30
0.0
 41
1.0
 10
940.82495733575797
 20
-1333.8677200248133
 30
0.0
 41
1.0
 10
940.82198730454979
 20
-1333.8701218962763
 30
0.0
 41
1.0
 10
940.73878559439959
 20
-1333.9374073216725
 30
0.0
 41
0.9996617837955275
 10
940.65919490726412
 20
-1334.0089277772324
 30
0.0
 41
1.0
 10
940.64706415638898
 20
-1334.0198285102217
 30
0.0
 41
1.0
 10
940.63493340551372
 20
-1334.0307292432105
 30
0.0
 41
1.0
 10
940.56665787811698
 20
-1334.0920818586826
 30
0.0
 41
0.9997267750052352
 10
940.5013243698304
 20
-1334.1565583952108
 30
0.0
 41
1.0
 10
940.43599086154722
 20
-1334.2210349317359
 30
0.0
 41
0.9999667288966166
 10
940.37171791840001
 20
-1334.2865687386309
 30
0.0
 41
1.0
 10
940.3028904706249
 20
-1334.3567463973889
 30
0.0
 41
1.0
 10
940.2340630228498
 20
-1334.4269240561473
 30
0.0
 41
1.0
 10
940.0321351841535
 20
-1334.6328131805578
 30
0.0
 41
0.9988205335175137
 10
939.85112956717398
 20
-1334.8573174126184
 30
0.0
 41
1.0
 10
939.82048960226905
 20
-1334.8953206630488
 30
0.0
 41
1.0
 10
939.78984963736411
 20
-1334.9333239134787
 30
0.0
 41
1.0
 10
939.5475640905737
 20
-1335.233834646401
 30
0.0
 41
0.9997077826755286
 10
939.32008613946971
 20
-1335.545704440616
 30
0.0
 41
1.0
 10
939.31836272433929
 20
-1335.5480672239953
 30
0.0
 41
1.0
 10
939.31663930920899
 20
-1335.5504300073746
 30
0.0
 41
1.0
 10
939.08571452784156
 20
-1335.8670253683515
 30
0.0
 41
0.9989147567078452
 10
938.88525102495896
 20
-1336.2037348295355
 30
0.0
 41
1.0
 10
938.8605098796528
 20
-1336.2452914100866
 30
0.0
 41
1.0
 10
938.83576873434663
 20
-1336.2868479906376
 30
0.0
 41
1.0
 10
938.68055743570824
 20
-1336.5475493750916
 30
0.0
 41
0.9997476598180968
 10
938.53721244819849
 20
-1336.8149591236745
 30
0.0
 41
1.0
 10
938.39386746068669
 20
-1337.082368872261
 30
0.0
 41
0.9996258967110128
 10
938.26535920875631
 20
-1337.3572168088829
 30
0.0
 41
1.0
 10
938.2521592993071
 20
-1337.3854482089776
 30
0.0
 41
1.0
 10
938.23895938985788
 20
-1337.4136796090722
 30
0.0
 41
1.0
 10
938.09875066885832
 20
-1337.7135520070249
 30
0.0
 41
0.9998735413945349
 10
937.96814932213738
 20
-1338.0177316064935
 30
0.0
 41
1.0
 10
937.96470649407684
 20
-1338.025750191958
 30
0.0
 41
1.0
 10
937.96126366601641
 20
-1338.0337687774224
 30
0.0
 41
1.0
 10
937.83754797541587
 20
-1338.3219112059635
 30
0.0
 41
0.9999377418855383
 10
937.72029317324223
 20
-1338.6127426736359
 30
0.0
 41
1.0
 10
937.60303837106858
 20
-1338.9035741413084
 30
0.0
 41
0.9999508299508007
 10
937.49157442768967
 20
-1339.1966738181334
 30
0.0
 41
1.0
 10
937.4884936590272
 20
-1339.2047748440975
 30
0.0
 41
1.0
 10
937.48541289036473
 20
-1339.2128758700612
 30
0.0
 41
1.0
 10
937.3677874096602
 20
-1339.5221775988168
 30
0.0
 41
0.9999609228440179
 10
937.25564880678689
 20
-1339.8335106148304
 30
0.0
 41
1.0
 10
937.25269279643805
 20
-1339.8417174552376
 30
0.0
 41
1.0
 10
937.24973678608922
 20
-1339.8499242956448
 30
0.0
 41
1.0
 10
937.13168616251289
 20
-1340.1776709924882
 30
0.0
 41
0.9999674607401879
 10
937.01893863644489
 20
-1340.5072796124825
 30
0.0
 41
1.0
 10
936.96754024588472
 20
-1340.6575388081676
 30
0.0
 41
1.0
 10
936.91614185532467
 20
-1340.8077980038527
 30
0.0
 41
1.0
 10
936.80013124856305
 20
-1341.1469459863672
 30
0.0
 41
0.9999287532307315
 10
936.69224984459424
 20
-1341.4887667253367
 30
0.0
 41
1.0
 10
936.6457725884668
 20
-1341.6360292696711
 30
0.0
 41
1.0
 10
936.59929533233924
 20
-1341.783291814005
 30
0.0
 41
1.0
 10
936.58436844060589
 20
-1341.8305874643677
 30
0.0
 41
0.9999998224182251
 10
936.56949793189301
 20
-1341.8779008725539
 30
0.0
 41
1.0
 10
934.94884179509756
 20
-1347.0259293743431
 30
0.0
 41
1.0
 10
933.32818565830212
 20
-1352.1739578761324
 30
0.0
 41
1.0
 10
932.42287721441119
 20
-1352.1739578761324
 30
0.0
 41
1.0
 10
931.51756877052026
 20
-1352.1739578761324
 30
0.0
 41
1.0
 10
933.3696531819063
 20
-1346.286885953665
 30
0.0
 41
1.0
 10
935.22173759329235
 20
-1340.3998140311976
 30
0.0
 41
1.0
 10
935.23185935159518
 20
-1340.3677708177481
 30
0.0
 41
1.0
 10
935.30446702044492
 20
-1340.1374712759223
 30
0.0
 41
1.0
 10
935.37707468929602
 20
-1339.9071717340923
 30
0.0
 41
0.9999825681973039
 10
935.44695772850366
 20
-1339.6760308390396
 30
0.0
 41
1.0
 10
935.49524879066803
 20
-1339.5163062555323
 30
0.0
 41
1.0
 10
935.54353985283228
 20
-1339.3565816720245
 30
0.0
 41
1.0
 10
935.64069220614192
 20
-1339.0352464502728
 30
0.0
 41
0.9999672528963425
 10
935.7326310117669
 20
-1338.7123809046814
 30
0.0
 41
1.0
 10
935.73541989543207
 20
-1338.7025870593072
 30
0.0
 41
1.0
 10
935.73820877909725
 20
-1338.6927932139336
 30
0.0
 41
1.0
 10
935.82456981739392
 20
-1338.3895153590827
 30
0.0
 41
0.9999899749159917
 10
935.90821142692494
 20
-1338.0854762706424
 30
0.0
 41
1.0
 10
935.91831734594325
 20
-1338.0487410329608
 30
0.0
 41
1.0
 10
935.92842326496168
 20
-1338.0120057952793
 30
0.0
 41
1.0
 10
935.99185303646118
 20
-1337.7814371821848
 30
0.0
 41
0.9999214200501571
 10
936.04948246483741
 20
-1337.5493508399807
 30
0.0
 41
1.0
 10
936.06224831701968
 20
-1337.4979399545775
 30
0.0
 41
1.0
 10
936.07501416920195
 20
-1337.4465290691749
 30
0.0
 41
1.0
 10
936.10711189321864
 20
-1337.3172644977578
 30
0.0
 41
0.9999828681674853
 10
936.1376941452105
 20
-1337.1876330233042
 30
0.0
 41
1.0
 10
936.16827639720543
 20
-1337.0580015488383
 30
0.0
 41
0.9999389844475185
 10
936.19598738599473
 20
-1336.9277260929387
 30
0.0
 41
1.0
 10
936.20312512971509
 20
-1336.8941699891004
 30
0.0
 41
1.0
 10
936.21026287343557
 20
-1336.8606138852617
 30
0.0
 41
1.0
 10
936.25224934966411
 20
-1336.6632262216906
 30
0.0
 41
0.9998933699441172
 10
936.28845361406718
 20
-1336.4646966139292
 30
0.0
 41
1.0
 10
936.28982643928362
 20
-1336.4571685932317
 30
0.0
 41
1.0
 10
936.29119926450016
 20
-1336.4496405725347
 30
0.0
 41
1.0
 10
936.33014917933474
 20
-1336.2360549233847
 30
0.0
 41
0.9996850305194205
 10
936.35833285559386
 20
-1336.0207839179459
 30
0.0
 41
1.0
 10
936.36032788896318
 20
-1336.0055455638242
 30
0.0
 41
1.0
 10
936.36232292233251
 20
-1335.990307209702
 30
0.0
 41
1.0
 10
936.38973078479171
 20
-1335.780961982545
 30
0.0
 41
0.9994697936706652
 10
936.40345534401104
 20
-1335.5702767872174
 30
0.0
 41
1.0
 10
936.40393241326092
 20
-1335.5629533150038
 30
0.0
 41
1.0
 10
936.40440948251069
 20
-1335.5556298427903
 30
0.0
 41
1.0
 10
936.41717990323059
 20
-1335.3595915918852
 30
0.0
 41
0.9991804893136945
 10
936.41405158695784
 20
-1335.1631627419131
 30
0.0
 41
1.0
 10
936.41396770813571
 20
-1335.1578959405008
 30
0.0
 41
1.0
 10
936.41388382931359
 20
-1335.1526291390885
 30
0.0
 41
1.0
 10
936.41092327068486
 20
-1334.9667338919405
 30
0.0
 41
0.9988448329322149
 10
936.39013172506134
 20
-1334.7819813021063
 30
0.0
 41
1.0
 10
936.38853765135855
 20
-1334.7678164463371
 30
0.0
 41
1.0
 10
936.38694357765576
 20
-1334.7536515905679
 30
0.0
 41
1.0
 10
936.36934017943804
 20
-1334.5972287122747
 30
0.0
 41
0.9985503209458412
 10
936.33502390713807
 20
-1334.4436045281834
 30
0.0
 41
1.0
 10
936.32743791506653
 20
-1334.4096442007815
 30
0.0
 41
1.0
 10
936.31985192299499
 20
-1334.37568387338
 30
0.0
 41
1.0
 10
936.30070763483855
 20
-1334.2899803440935
 30
0.0
 41
0.9991036781370115
 10
936.27438277318731
 20
-1334.206203256769
 30
0.0
 41
1.0
 10
936.27040054773261
 20
-1334.1935300942625
 30
0.0
 41
1.0
 10
936.26641832227779
 20
-1334.1808569317557
 30
0.0
 41
1.0
 10
936.24805791153847
 20
-1334.1224261694508
 30
0.0
 41
0.9998874504368378
 10
936.22795270385757
 20
-1334.0645725672209
 30
0.0
 41
1.0
 10
936.20784749617906
 20
-1334.0067189649983
 30
0.0
 41
0.9994041637545096
 10
936.18379888324318
 20
-1333.9503902611043
 30
0.0
 41
1.0
 10
936.17960209902071
 20
-1333.9405601966257
 30
0.0
 41
1.0
 10
936.17540531479824
 20
-1333.9307301321476
 30
0.0
 41
1.0
 10
936.14752648380215
 20
-1333.8654299661773
 30
0.0
 41
0.9991846840703341
 10
936.11447012710914
 20
-1333.8025919348968
 30
0.0
 41
1.0
 10
936.11333352071415
 20
-1333.8004313184422
 30
0.0
 41
1.0
 10
936.11219691431904
 20
-1333.7982707019871
 30
0.0
 41
1.0
 10
936.08141377041545
 20
-1333.7397539036153
 30
0.0
 41
0.9989253167923775
 10
936.04534434636116
 20
-1333.684338975226
 30
0.0
 41
1.0
 10
936.04429022168688
 20
-1333.6827194804634
 30
0.0
 41
1.0
 10
936.0432360970126
 20
-1333.6810999857009
 30
0.0
 41
1.0
 10
936.00927492230642
 20
-1333.6289240468357
 30
0.0
 41
0.998646717283644
 10
935.97007776966893
 20
-1333.5805580132062
 30
0.0
 41
1.0
 10
935.96920364096866
 20
-1333.5794794109286
 30
0.0
 41
1.0
 10
935.96832951226838
 20
-1333.5784008086509
 30
0.0
 41
1.0
 10
935.93088061703179
 20
-1333.5321919795772
 30
0.0
 41
0.9984001104268842
 10
935.8884538865143
 20
-1333.490506872208
 30
0.0
 41
1.0
 10
935.88786674840435
 20
-1333.489929997326
 30
0.0
 41
1.0
 10
935.88727961029429
 20
-1333.4893531224441
 30
0.0
 41
1.0
 10
935.84602715599726
 20
-1333.4488217648393
 30
0.0
 41
0.9982442159084198
 10
935.80027105466149
 20
-1333.4134532035789
 30
0.0
 41
1.0
 10
935.80005625919898
 20
-1333.4132871709351
 30
0.0
 41
1.0
 10
935.79984146373658
 20
-1333.4131211382912
 30
0.0
 41
1.0
 10
935.75451495332527
 20
-1333.3780846423181
 30
0.0
 41
0.9982450060835155
 10
935.70536397425417
 20
-1333.348652859285
 30
0.0
 41
1.0
 10
935.65621299518341
 20
-1333.319221076252
 30
0.0
 41
0.9983922639634846
 10
935.60404668902129
 20
-1333.2955414415994
 30
0.0
 41
1.0
 10
935.60381981169496
 20
-1333.2954384561174
 30
0.0
 41
1.0
 10
935.60359293436863
 20
-1333.2953354706349
 30
0.0
 41
1.0
 10
935.55097287355557
 20
-1333.2714498650187
 30
0.0
 41
0.9986517147152326
 10
935.49615990068799
 20
-1333.2531487458966
 30
0.0
 41
1.0
 10
935.49548197925958
 20
-1333.252922399465
 30
0.0
 41
1.0
 10
935.49480405783117
 20
-1333.2526960530333
 30
0.0
 41
1.0
 10
935.43863524210747
 20
-1333.2339422410485
 30
0.0
 41
0.99894355989552
 10
935.38098185495642
 20
-1333.2204245388141
 30
0.0
 41
1.0
 10
935.37990173537457
 20
-1333.220171288561
 30
0.0
 41
1.0
 10
935.37882161579273
 20
-1333.2199180383079
 30
0.0
 41
1.0
 10
935.31900798947413
 20
-1333.2058938355665
 30
0.0
 41
0.9992249241239919
 10
935.25827648057293
 20
-1333.1966184928508
 30
0.0
 41
1.0
 10
935.2568627922858
 20
-1333.1964025844438
 30
0.0
 41
1.0
 10
935.25544910399856
 20
-1333.1961866760364
 30
0.0
 41
1.0
 10
935.19189021852355
 20
-1333.1864795165059
 30
0.0
 41
0.9994396597834391
 10
935.12782428199171
 20
-1333.1810465941605
 30
0.0
 41
1.0
 10
935.10868361450912
 20
-1333.1794234264419
 30
0.0
 41
1.0
 10
935.08954294702653
 20
-1333.1778002587228
 30
0.0
 41
1.0
 10
934.98719567553132
 20
-1333.1691210009396
 30
0.0
 41
0.9987693403121524
 10
934.88449205194149
 20
-1333.1706240643928
 30
0.0
 41
1.0
 10
934.87423771771773
 20
-1333.1707741361672
 30
0.0
 41
1.0
 10
934.86398338349386
 20
-1333.1709242079412
 30
0.0
 41
1.0
 10
934.75442761731438
 20
-1333.1725275522283
 30
0.0
 41
0.9989753644965804
 10
934.64546561729708
 20
-1333.1840305591534
 30
0.0
 41
1.0
 10
934.53650361727955
 20
-1333.1955335660784
 30
0.0
 41
0.9983190067304191
 10
934.42960480631325
 20
-1333.2195685578661
 30
0.0
 41
1.0
 10
934.42070385470765
 20
-1333.2215698364282
 30
0.0
 41
1.0
 10
934.41180290310217
 20
-1333.2235711149908
 30
0.0
 41
1.0
 10
934.28710218892547
 20
-1333.2516086639027
 30
0.0
 41
0.9985539388304825
 10
934.16613243525001
 20
-1333.2928723399471
 30
0.0
 41
1.0
 10
934.16378700428754
 20
-1333.2936723837636
 30
0.0
 41
1.0
 10
934.16144157332519
 20
-1333.2944724275801
 30
0.0
 41
1.0
 10
934.03578095772582
 20
-1333.3373361912575
 30
0.0
 41
0.9988468746493101
 10
933.91481061542481
 20
-1333.3920542763201
 30
0.0
 41
1.0
 10
933.91162779343688
 20
-1333.3934939508797
 30
0.0
 41
1.0
 10
933.90844497144894
 20
-1333.3949336254393
 30
0.0
 41
1.0
 10
933.78110898517059
 20
-1333.4525310596216
 30
0.0
 41
0.9991322885918617
 10
933.65900840111249
 20
-1333.5205263918049
 30
0.0
 41
1.0
 10
933.64140639007076
 20
-1333.5303285937937
 30
0.0
 41
1.0
 10
933.62380437902902
 20
-1333.540130795782
 30
0.0
 41
1.0
 10
933.52162769797167
 20
-1333.597030911563
 30
0.0
 41
0.9993860037850491
 10
933.423686693896
 20
-1333.6609469271527
 30
0.0
 41
1.0
 10
933.41806838104389
 20
-1333.6646134218474
 30
0.0
 41
1.0
 10
933.41245006819167
 20
-1333.6682799165426
 30
0.0
 41
1.0
 10
933.32574568982432
 20
-1333.7248629427397
 30
0.0
 41
0.9998821494952719
 10
933.24081931400985
 20
-1333.7840811728177
 30
0.0
 41
1.0
 10
933.15589293819539
 20
-1333.8432994028956
 30
0.0
 41
0.9997976482744573
 10
933.07341730778717
 20
-1333.9058858109408
 30
0.0
 41
1.0
 10
933.0587810429854
 20
-1333.9169925007184
 30
0.0
 41
1.0
 10
933.04414477818364
 20
-1333.9280991904959
 30
0.0
 41
1.0
 10
932.93239661817029
 20
-1334.0128989780976
 30
0.0
 41
0.9998091630799185
 10
932.82404634014608
 20
-1334.1019993287962
 30
0.0
 41
1.0
 10
932.81104058766687
 20
-1334.1126944292439
 30
0.0
 41
1.0
 10
932.79803483518776
 20
-1334.1233895296912
 30
0.0
 41
1.0
 10
932.66367305220649
 20
-1334.2338800812838
 30
0.0
 41
0.9995035112316949
 10
932.53653717444058
 20
-1334.3526138983009
 30
0.0
 41
1.0
 10
932.52688986405542
 20
-1334.3616236444566
 30
0.0
 41
1.0
 10
932.51724255367037
 20
-1334.3706333906123
 30
0.0
 41
1.0
 10
932.39381949090375
 20
-1334.4858997623694
 30
0.0
 41
0.9994630424299654
 10
932.27821108511819
 20
-1334.6090025056062
 30
0.0
 41
1.0
 10
932.27452824634554
 20
-1334.6129240851208
 30
0.0
 41
1.0
 10
932.27084540757289
 20
-1334.6168456646349
 30
0.0
 41
1.0
 10
932.16260267933308
 20
-1334.7321052488426
 30
0.0
 41
0.9995160693749168
 10
932.06173664980236
 20
-1334.8538726667141
 30
0.0
 41
1.0
 10
932.05980292972311
 20
-1334.8562070909204
 30
0.0
 41
1.0
 10
932.05786920964385
 20
-1334.8585415151267
 30
0.0
 41
1.0
 10
931.96087062026947
 20
-1334.9756400845883
 30
0.0
 41
0.9996561470514658
 10
931.87014440160453
 20
-1335.097662847036
 30
0.0
 41
1.0
 10
931.8639867357017
 20
-1335.1059446360794
 30
0.0
 41
1.0
 10
931.85782906979887
 20
-1335.1142264251228
 30
0.0
 41
1.0
 10
931.77941818293743
 20
-1335.2196856094868
 30
0.0
 41
0.9998349055172185
 10
931.70489090100648
 20
-1335.3279241931484
 30
0.0
 41
1.0
 10
931.63036361906984
 20
-1335.4361627768183
 30
0.0
 41
0.9999728109569419
 10
931.55744072316338
 20
-1335.5454887023677
 30
0.0
 41
1.0
 10
931.55612550775197
 20
-1335.5474604718695
 30
0.0
 41
1.0
 10
931.55481029234056
 20
-1335.5494322413717
 30
0.0
 41
1.0
 10
931.47925696561288
 20
-1335.662701705922
 30
0.0
 41
0.9999972147409848
 10
931.40423915524912
 20
-1335.7763265487431
 30
0.0
 41
1.0
 10
931.39926761261859
 20
-1335.7838566372277
 30
0.0
 41
1.0
 10
931.39429606998806
 20
-1335.7913867257123
 30
0.0
 41
1.0
 10
931.30933517436438
 20
-1335.9200717455008
 30
0.0
 41
0.9999371979002214
 10
931.22727982496599
 20
-1336.0506286592688
 30
0.0
 41
1.0
 10
931.22377094060357
 20
-1336.0562115873347
 30
0.0
 41
1.0
 10
931.22026205624104
 20
-1336.0617945154011
 30
0.0
 41
1.0
 10
931.1311889381127
 20
-1336.2035172853095
 30
0.0
 41
0.999827202561197
 10
931.04744554723027
 20
-1336.3484531620522
 30
0.0
 41
1.0
 10
931.03223037520638
 20
-1336.3747862765088
 30
0.0
 41
1.0
 10
931.0170152031825
 20
-1336.4011193909653
 30
0.0
 41
1.0
 10
930.90284146825172
 20
-1336.5987214966224
 30
0.0
 41
0.9995217214838296
 10
930.80110177869585
 20
-1336.8030038244849
 30
0.0
 41
1.0
 10
930.79345821606114
 20
-1336.8183512741873
 30
0.0
 41
1.0
 10
930.78581465342643
 20
-1336.8336987238897
 30
0.0
 41
1.0
 10
930.69890936083812
 20
-1337.0081951819682
 30
0.0
 41
0.9998269762606938
 10
930.6185548945648
 20
-1337.1858034686941
 30
0.0
 41
1.0
 10
930.53820042829182
 20
-1337.3634117554191
 30
0.0
 41
0.999894474738706
 10
930.46303963372941
 20
-1337.5432794810438
 30
0.0
 41
1.0
 10
930.45808596413656
 20
-1337.5551341359653
 30
0.0
 41
1.0
 10
930.45313229454371
 20
-1337.5669887908864
 30
0.0
 41
1.0
 10
930.37248523399376
 20
-1337.7599857308976
 30
0.0
 41
0.9999506734412138
 10
930.29568770508899
 20
-1337.9545465357571
 30
0.0
 41
1.0
 10
930.2810877398216
 20
-1337.9915344575541
 30
0.0
 41
1.0
 10
930.26648777455421
 20
-1338.0285223793514
 30
0.0
 41
1.0
 10
930.21889017618173
 20
-1338.1491073406225
 30
0.0
 41
0.9999912393921612
 10
930.17230373216296
 20
-1338.2700865433092
 30
0.0
 41
1.0
 10
930.12571728812884
 20
-1338.3910657460349
 30
0.0
 41
0.9999927113933345
 10
930.08005599374439
 20
-1338.512397153512
 30
0.0
 41
1.0
 10
930.06608756234755
 20
-1338.5495141355084
 30
0.0
 41
1.0
 10
930.05211913095081
 20
-1338.5866311175048
 30
0.0
 41
1.0
 10
929.97852097376494
 20
-1338.7821964889947
 30
0.0
 41
0.9999487550946131
 10
929.90889734878988
 20
-1338.9792118541857
 30
0.0
 41
1.0
 10
929.88530373885305
 20
-1339.0459751644783
 30
0.0
 41
1.0
 10
929.86171012891623
 20
-1339.1127384747708
 30
0.0
 41
1.0
 10
929.76702449454024
 20
-1339.3806723096111
 30
0.0
 41
0.9999808436943423
 10
929.67566290590366
 20
-1339.649757740862
 30
0.0
 41
1.0
 10
929.58430131725333
 20
-1339.9188431721534
 30
0.0
 41
0.9999873932906068
 10
929.49564660853935
 20
-1340.1888325271545
 30
0.0
 41
1.0
 10
929.47555425167229
 20
-1340.2500218599
 30
0.0
 41
1.0
 10
929.45546189480535
 20
-1340.3112111926459
 30
0.0
 41
1.0
 10
929.32662247235226
 20
-1340.703579213153
 30
0.0
 41
0.9999794883036314
 10
929.20281968739118
 20
-1341.0975654194406
 30
0.0
 41
1.0
 10
929.19166742795392
 20
-1341.1330560296767
 30
0.0
 41
1.0
 10
929.18051516851676
 20
-1341.1685466399124
 30
0.0
 41
1.0
 10
929.03795700463024
 20
-1341.622219391965
 30
0.0
 41
0.9999982761764734
 10
928.89708456460289
 20
-1342.076418414126
 30
0.0
 41
1.0
 10
927.30894423203029
 20
-1347.1251881451292
 30
0.0
 41
1.0
 10
925.72080389945768
 20
-1352.1739578761324
 30
0.0
 41
1.0
 10
924.77205328798129
 20
-1352.1739578761324
 30
0.0
 41
1.0
 10
923.82330267650491
 20
-1352.1739578761324
 30
0.0
 41
1.0
 10
927.06158716265816
 20
-1341.8466356761862
 30
0.0
 41
1.0
 10
930.2998716488114
 20
-1331.5193134762401
 30
0.0
 41
1.0
  0
LWPOLYLINE
  5
17B
100
AcDbEntity
  8
template
370
              15
390
0
  6
Continuous
 62
               7
100
AcDbPolyline
 90
      232
 70
             128
 10
904.59632587498436
 20
-1332.6036563077557
 42
0.0004370800713073
 10
904.54344870104148
 20
-1332.6723229468437
 10
904.50416446978488
 20
-1332.7234300599082
 42
0.0030481992170458
 10
904.37382575265133
 20
-1332.8951517522717
 10
904.33531408091517
 20
-1332.9465385360406
 42
0.0042058245762928
 10
904.13132903024541
 20
-1333.2235442811141
 10
904.07892390774464
 20
-1333.295977127895
 42
0.0120948898735173
 10
903.78287999098245
 20
-1333.7267267324448
 10
903.68668749186065
 20
-1333.8742074676695
 42
0.0141601263948318
 10
903.38304344493918
 20
-1334.3698768044039
 10
903.3435061775125
 20
-1334.4387207718371
 42
0.0071131081306443
 10
903.13823385427486
 20
-1334.808223570674
 42
0.0068458791001501
 10
902.94335432743208
 20
-1335.1833151341496
 10
902.93654246497408
 20
-1335.1968768478739
 42
0.0064120880287556
 10
902.7384002149322
 20
-1335.6043013227875
 10
902.73086552941277
 20
-1335.6203131795139
 42
0.0058857236447198
 10
902.52811013754149
 20
-1336.0646892905481
 10
902.51993521124712
 20
-1336.0831794441831
 42
0.005318974189283
 10
902.31123089857863
 20
-1336.5691429181036
 10
902.30248309289823
 20
-1336.5901247962972
 42
0.0047503650419632
 10
902.08650936674883
 20
-1337.1223242295039
 10
902.07724111839946
 20
-1337.1458006056148
 42
0.0042071762167299
 10
901.85269373466951
 20
-1337.7288941996901
 10
901.84294433232299
 20
-1337.7548603745543
 42
0.0036680086486188
 10
901.60848968900643
 20
-1338.3934957590975
 10
901.59828190916301
 20
-1338.4219442934298
 42
0.0032573142626081
 10
901.35264962319854
 20
-1339.1207969531768
 10
901.28399910235737
 20
-1339.3202600372313
 42
0.0026133366646828
 10
900.93555390359768
 20
-1340.3501233209079
 10
900.87229711609393
 20
-1340.5403541563098
 42
0.0020592950738048
 10
900.65843404712996
 20
-1341.192457808914
 10
900.65538225597231
 20
-1341.201894297307
 42
0.0025609928531787
 10
900.45356175448114
 20
-1341.8370395196896
 10
900.45097038734843
 20
-1341.8453418606493
 42
0.0031362356247022
 10
900.26147960167748
 20
-1342.4661047168095
 10
900.25934855875164
 20
-1342.4732460230155
 42
0.0037229918028874
 10
900.08254817182365
 20
-1343.0822313249948
 10
900.08086958261958
 20
-1343.0881782151607
 42
0.0043077623708523
 10
899.91712878055216
 20
-1343.6879969469385
 42
0.0047654161824447
 10
899.76430005803729
 20
-1344.2906830358363
 10
899.72983544919703
 20
-1344.4322448129908
 42
0.0112969368448262
 10
899.53397109105288
 20
-1345.3239369736177
 10
899.50596470195683
 20
-1345.4667650197127
 42
0.0130056762572353
 10
899.30512745831027
 20
-1346.6537060913577
 10
899.2845877081628
 20
-1346.7977842048374
 42
0.0138721532145817
 10
899.18088470362522
 20
-1347.7046136906604
 10
899.16158921571696
 20
-1347.9281114125899
 42
0.0071254697002408
 10
899.12824256979468
 20
-1348.3912984214323
 10
899.12328159563151
 20
-1348.4773024159902
 42
0.0028881799198128
 10
899.10814330234155
 20
-1348.7690441258353
 42
0.006029729714021
 10
899.09821110256598
 20
-1349.0609930619564
 10
899.09714882089906
 20
-1349.1093854338794
 42
0.0229523164159372
 10
899.10487984868473
 20
-1349.4321402801668
 10
899.10910562220499
 20
-1349.4925438141811
 42
0.0123673300659096
 10
899.12818426872343
 20
-1349.6936645393578
 42
0.0128577674476575
 10
899.1573796591307
 20
-1349.8935623892901
 10
899.16450553251673
 20
-1349.9348912038815
 42
0.0285717853767584
 10
899.22899953421256
 20
-1350.2130073551955
 10
899.24266805787909
 20
-1350.2596621246732
 42
0.0316283099162647
 10
899.35847863779304
 20
-1350.578676626498
 10
899.36152732954702
 20
-1350.58566299882
 42
0.0338984824240424
 10
899.51095904051567
 20
-1350.8732289630127
 10
899.51326776988481
 20
-1350.8770199922876
 42
0.0350228718353639
 10
899.6956280605591
 20
-1351.1340719769653
 10
899.69651331233604
 20
-1351.1351510547318
 42
0.0347476747537202
 10
899.91093799957434
 20
-1351.3623361019493
 42
0.0331337701911331
 10
900.15418132532193
 20
-1351.5584647640278
 10
900.15528142383687
 20
-1351.5592374671994
 42
0.0305233319080526
 10
900.42382611940775
 20
-1351.7243656372896
 10
900.4270561639114
 20
-1351.7260896491537
 42
0.0273744481158926
 10
900.71960987548425
 20
-1351.8622277930433
 10
900.72471441062328
 20
-1351.8642713775137
 42
0.0240964406202442
 10
901.04019148627594
 20
-1351.9732551037966
 10
901.0467748154789
 20
-1351.9751798434697
 42
0.0209636179807208
 10
901.38417496812474
 20
-1352.0586479914002
 10
901.39180742858025
 20
-1352.0601999044031
 42
0.0181388704691123
 10
901.75012982057706
 20
-1352.1196159976168
 10
901.75841066895691
 20
-1352.1206821814342
 42
0.0156086547584613
 10
902.13659803315159
 20
-1352.1574183680116
 10
902.17979328548006
 20
-1352.1602568704905
 42
0.0137148329027769
 10
902.50746643077161
 20
-1352.1727771257417
 10
902.5534026207082
 20
-1352.1732715588571
 42
0.0051057823889642
 10
902.78954820728984
 20
-1352.1734018132659
 42
0.0052256693303133
 10
903.0256454910492
 20
-1352.1686529888018
 10
903.09587227481791
 20
-1352.1665060227872
 42
0.0161507179049794
 10
903.47160935292129
 20
-1352.1428556524604
 10
903.49162231329228
 20
-1352.1409454571733
 42
0.0101216737840565
 10
903.90564953479793
 20
-1352.0929525268059
 10
903.93970282420969
 20
-1352.0883048299982
 42
0.0245291776391154
 10
904.41649247975522
 20
-1351.9992297519232
 10
904.50131579528488
 20
-1351.9790338315759
 42
0.0143509212562385
 10
904.85794689922443
 20
-1351.8832291977972
 42
0.0156557857035859
 10
905.20816296395833
 20
-1351.7662179819761
 10
905.21566417844633
 20
-1351.7634478202242
 42
0.0170137333634257
 10
905.57226017413427
 20
-1351.6177902053503
 10
905.57936409653519
 20
-1351.6146023697895
 42
0.0183105364402782
 10
905.93871376469258
 20
-1351.4372673279702
 10
905.94566052934022
 20
-1351.4335168930932
 42
0.0194899958155116
 10
906.30414127032634
 20
-1351.221537911201
 10
906.31115514966098
 20
-1351.2170125689074
 42
0.0204869852953027
 10
906.66516945175749
 20
-1350.9674925538195
 10
906.67243506034197
 20
-1350.9619124884732
 42
0.021251693855975
 10
907.01842499144652
 20
-1350.6720084915817
 10
907.06494168552797
 20
-1350.6295411814824
 42
0.021524891825056
 10
907.32496785441322
 20
-1350.3707769024902
 10
907.36999758879404
 20
-1350.32193278114
 42
0.0114578554960666
 10
907.52478974247106
 20
-1350.1461098476823
 10
907.53598427845725
 20
-1350.1327910841376
 42
0.0061531305131122
 10
907.66245892445204
 20
-1349.9785015508312
 42
0.0006325587118106
 10
907.78683740860777
 20
-1349.8224981751503
 10
907.80987754365538
 20
-1349.793524654496
 42
0.0041897761565552
 10
907.97833294764132
 20
-1349.5780052784173
 10
908.0367950675203
 20
-1349.5019039314491
 42
0.0092993880038119
 10
908.31340699474356
 20
-1349.1276251675661
 10
908.39580148794153
 20
-1349.0116881639985
 42
0.0159321727090664
 10
908.74240797058542
 20
-1348.4895139432404
 10
908.78676410597632
 20
-1348.4178343789874
 42
0.0085547317022851
 10
909.02127587130019
 20
-1348.0239594297657
 42
0.0084601156891453
 10
909.24225204874381
 20
-1347.6223325807307
 10
909.25036752257256
 20
-1347.6069728984605
 42
0.00814296542775
 10
909.4736167930082
 20
-1347.1672513859237
 10
909.48247695719408
 20
-1347.1490725439005
 42
0.0076574581328369
 10
909.70888446776348
 20
-1346.665889668642
 10
909.71836410848448
 20
-1346.6448251903446
 42
0.0070682724200001
 10
909.94880901629358
 20
-1346.1127878855575
 10
909.95879930027297
 20
-1346.0887986965515
 42
0.0064559514449941
 10
910.1941325084556
 20
-1345.5024864300296
 10
910.20454186661959
 20
-1345.4755515045902
 42
0.005831141390766
 10
910.445588603381
 20
-1344.8295194102104
 10
910.45634368076981
 20
-1344.7996350690462
 42
0.0052312425820317
 10
910.70392495881208
 20
-1344.088432655208
 10
910.71496879519054
 20
-1344.0556059431422
 42
0.0046680544794537
 10
910.96989722292506
 20
-1343.2737796273875
 10
911.0118893729682
 20
-1343.1407963900967
 42
0.0041666856444241
 10
911.21517538536364
 20
-1342.4778276150898
 10
911.2528378260256
 20
-1342.3512465074421
 42
0.0015170975154393
 10
911.37402440444043
 20
-1341.9393781559422
 42
-0.0004887993114047
 10
911.4943641775468
 20
-1341.5272597439573
 10
911.57084143505858
 20
-1341.2663023579591
 42
0.0002583378931342
 10
911.84405600510524
 20
-1340.3322456548406
 10
911.92582885471086
 20
-1340.0521463951579
 42
0.0006636169669643
 10
912.11969661471085
 20
-1339.3847934716098
 10
912.12479326905338
 20
-1339.3671618887454
 42
0.0010589131325621
 10
912.30624196997451
 20
-1338.7344305456811
 10
912.31122404045584
 20
-1338.7169176386581
 42
0.0015655524462813
 10
912.47949424763772
 20
-1338.1183009594599
 10
912.4843244480553
 20
-1338.1009088005146
 42
0.0021640440476036
 10
912.63861442003872
 20
-1337.5358817825061
 10
912.64324863946865
 20
-1337.5186170525124
 42
0.0028763871850362
 10
912.78276435752173
 20
-1336.9866491016653
 10
912.7871502216899
 20
-1336.9695251235073
 42
0.0037310511948951
 10
912.91110691352583
 20
-1336.4700775294866
 10
912.91518213381289
 20
-1336.4531172582494
 42
0.0047652197768507
 10
913.02280603432325
 20
-1335.9856394899359
 10
913.02649663364707
 20
-1335.9688799347834
 42
0.0060276699301931
 10
913.11702673280035
 20
-1335.5328041396417
 10
913.12024542308905
 20
-1335.5163029253347
 42
0.0075824337761686
 10
913.19293473250491
 20
-1335.1110357609066
 10
913.1955801098859
 20
-1335.0948808134515
 42
0.0095130624601474
 10
913.24969534551633
 20
-1334.7197914603846
 10
913.25668156939878
 20
-1334.663857902269
 42
0.0121054653222888
 10
913.28327289997685
 20
-1334.3989620737941
 10
913.28413938973665
 20
-1334.387558630862
 42
0.006905082738263
 10
913.29922820777404
 20
-1334.1446174040204
 10
913.30036350744263
 20
-1334.121091146975
 42
0.0169063976702435
 10
913.30319078642287
 20
-1333.9248984196749
 10
913.30202013489168
 20
-1333.8645626583268
 42
0.0052007732876674
 10
913.29976668629865
 20
-1333.7889692681736
 42
0.0054038123297328
 10
913.27980317445952
 20
-1333.6689509721621
 10
913.2747173185893
 20
-1333.6402924855827
 42
0.0112050460456096
 10
913.23933295653103
 20
-1333.4639660472446
 10
913.22150799449014
 20
-1333.3844244605227
 42
0.0240764468016614
 10
913.13061062834379
 20
-1333.0541874250214
 10
913.1120518655315
 20
-1332.9975672600306
 42
0.0256812331830339
 10
912.96868894534111
 20
-1332.6258430537707
 10
912.96327951951821
 20
-1332.6137117187775
 42
0.026836050122853
 10
912.79385227866987
 20
-1332.2827185847598
 10
912.78831587103537
 20
-1332.2731989144484
 42
0.0274670231723991
 10
912.59611489462145
 20
-1331.9809115395303
 10
912.59073359465867
 20
-1331.973632391989
 42
0.0275035967100313
 10
912.37916071509699
 20
-1331.7181165016848
 10
912.37409121412975
 20
-1331.7126374140537
 42
0.0269557673533003
 10
912.14668767069088
 20
-1331.491995128092
 10
912.14194461290845
 20
-1331.4878651736315
 42
0.0259124802207428
 10
911.9023897814775
 20
-1331.300174646479
 10
911.89785893629914
 20
-1331.2969891441514
 42
0.0245162153004205
 10
911.64994258320075
 20
-1331.1402561350385
 10
911.64541603687576
 20
-1331.1376959378374
 42
0.0229282588837987
 10
911.39299648004908
 20
-1331.0098277453387
 10
911.38821598621007
 20
-1331.0076754455756
 42
0.0212984135701016
 10
911.13517803375066
 20
-1330.9064765283345
 10
911.12987374877935
 20
-1330.9046129655737
 42
0.0197555462336819
 10
910.88009541105816
 20
-1330.8277975476096
 42
0.0183511896790013
 10
910.62516668559431
 20
-1330.7702146406439
 10
910.53880148887208
 20
-1330.7540118502591
 42
0.0338057877147045
 10
910.25329413961174
 20
-1330.7202034451186
 10
910.16228873457442
 20
-1330.7156237898573
 42
0.0091990524503364
 10
910.0564416259358
 20
-1330.7122479339353
 42
0.0028333980769866
 10
909.9505277099347
 20
-1330.7114198264187
 10
909.94961225689349
 20
-1330.7114178565946
 42
-0.0023619827808976
 10
909.84186624178722
 20
-1330.7106770155158
 10
909.80546107161172
 20
-1330.7102547090528
 42
0.0008824598488443
 10
909.62490508168378
 20
-1330.708478930814
 10
909.58104364935593
 20
-1330.708124969289
 42
0.003813266575983
 10
909.3127607534833
 20
-1330.7080060332221
 10
909.29622709868363
 20
-1330.7081247993658
 42
0.0060665569341025
 10
908.99494660710309
 20
-1330.7139450987863
 10
908.98069627506698
 20
-1330.7143934067542
 42
0.0080356953332818
 10
908.65123755873776
 20
-1330.7300611288208
 10
908.6391675436405
 20
-1330.7308297117618
 42
0.0098996399100048
 10
908.28640445899077
 20
-1330.7603149409595
 10
908.27635874961493
 20
-1330.7613552371579
 42
0.011774098137468
 10
907.90520189126187
 20
-1330.8086474846884
 10
907.89697919478363
 20
-1330.8098926012583
 42
0.0137435215132317
 10
907.51239037530331
 20
-1330.8789895748189
 10
907.50573333617513
 20
-1330.8803754710536
 42
0.0158359869385717
 10
907.11273624237015
 20
-1330.9752675595353
 10
907.1073230555055
 20
-1330.976757500405
 42
0.0180554124024552
 10
906.71100801089415
 20
-1331.1013955166434
 10
906.70645122280973
 20
-1331.1030115529099
 42
0.0203657431290327
 10
906.31197370499672
 20
-1331.2612718944267
 10
906.30783016599105
 20
-1331.2631335158678
 42
0.022681968465017
 10
905.92039410978407
 20
-1331.4587760945408
 10
905.91619431876927
 20
-1331.4611416864589
 42
0.0248634984604209
 10
905.54101237758891
 20
-1331.6977683324051
 10
905.49281744880466
 20
-1331.7316253742313
 42
0.0267044190883851
 10
905.21852475188757
 20
-1331.9470657500995
 42
0.0139303002208587
 10
904.96235758594844
 20
-1332.1843045910121
 10
904.95750420022785
 20
-1332.1890572538716
 42
0.0283460963442968
 10
904.71343160600031
 20
-1332.4567879143176
 10
904.6737631008441
 20
-1332.5055894917903
 42
0.0070695364826383
 10
904.59632587498436
 20
-1332.6036563077557
 42
0.0070695364826383
  0
LWPOLYLINE
  5
17C
100
AcDbEntity
  8
template
370
              15
390
0
  6
Continuous
 62
               7
100
AcDbPolyline
 90
      226
 70
             128
 10
901.06750543773796
 20
-1348.3252451139394
 42
-0.0026277636641888
 10
901.06742755393782
 20
-1348.2584731882464
 10
901.06764491216995
 20
-1348.205317970753
 42
-0.0088680296717246
 10
901.07142152846302
 20
-1348.0323021883485
 10
901.0737678875754
 20
-1347.9730221628963
 42
-0.007738170560762
 10
901.08981399833829
 20
-1347.6817616671008
 10
901.09068190951155
 20
-1347.669473433413
 42
-0.0068872530530544
 10
901.11731398926042
 20
-1347.3542516813366
 10
901.11851821344578
 20
-1347.3420107023255
 42
-0.006213002148436
 10
901.15611193027314
 20
-1347.0031410110912
 10
901.15761583380879
 20
-1346.9909671391708
 42
-0.0056726929670525
 10
901.20653769331
 20
-1346.6287719170643
 10
901.20831113895542
 20
-1346.616678116812
 42
-0.005234188449266
 10
901.26892172521593
 20
-1346.2314848612903
 10
901.27093971399199
 20
-1346.2194799313013
 42
-0.0049768450170766
 10
901.34367839541744
 20
-1345.8116353638736
 10
901.36792741014017
 20
-1345.6830873808628
 42
-0.0089029805625687
 10
901.50500826193479
 20
-1345.0213119334414
 10
901.53775363725345
 20
-1344.8762805029171
 42
-0.0080318257098434
 10
901.76730225159406
 20
-1343.9305708710638
 10
901.77928717804241
 20
-1343.8844402358729
 42
-0.0074265721320319
 10
902.06329871689218
 20
-1342.8543756574929
 10
902.08317826000928
 20
-1342.7862415969023
 42
-0.00697119227033
 10
902.41048283851569
 20
-1341.7199738565753
 10
902.4704347856192
 20
-1341.5339524982107
 42
-0.0052070422893878
 10
902.69986001088046
 20
-1340.8466804211737
 10
902.71714120306956
 20
-1340.7966531405075
 42
-0.0009167004447939
 10
902.92023309034221
 20
-1340.2121972924022
 42
-0.002516272694462
 10
903.12733072059984
 20
-1339.6291560282532
 10
903.1645553324131
 20
-1339.5260064823262
 42
-0.0028212681455787
 10
903.41273125137332
 20
-1338.8502758501629
 10
903.42256201412511
 20
-1338.8239684054831
 42
-0.003196491682313
 10
903.65885427178625
 20
-1338.203763643359
 10
903.6684887257851
 20
-1338.1789536532162
 42
-0.0036281836450205
 10
903.89359468688644
 20
-1337.6115129723228
 10
903.90303309704564
 20
-1337.5882155408156
 42
-0.0041269166832446
 10
904.11765079370309
 20
-1337.0707746448418
 10
904.15028375012389
 20
-1336.9938961984806
 42
-0.00474722130575
 10
904.30732855567749
 20
-1336.6334747305975
 10
904.31422263688432
 20
-1336.6180541332685
 42
-0.0025651659996153
 10
904.46258067073586
 20
-1336.2907260775171
 42
-0.0057144634994951
 10
904.61633036450723
 20
-1335.9659164041543
 10
904.64436106990775
 20
-1335.9084080217619
 42
-0.0065388068380112
 10
904.82782809764808
 20
-1335.5441755250956
 10
904.83628655342625
 20
-1335.527915945727
 42
-0.0074510843029398
 10
905.01246879930454
 20
-1335.201227664603
 10
905.02064846983569
 20
-1335.186586887334
 42
-0.0084648979858534
 10
905.19028232293567
 20
-1334.8946778763727
 10
905.19813844942519
 20
-1334.8816708847196
 42
-0.0095638542804179
 10
905.36197389701795
 20
-1334.6217820127433
 10
905.36944884068942
 20
-1334.6104126512885
 42
-0.0107191626817128
 10
905.52825042107725
 20
-1334.3798014167439
 10
905.53526715480893
 20
-1334.3700653243784
 42
-0.0118458573897147
 10
905.68981525332083
 20
-1334.165993129069
 42
-0.0129184518184626
 10
905.85426787691893
 20
-1333.9698326129026
 10
905.88441264928781
 20
-1333.9357065339962
 42
-0.0217742579636971
 10
906.06102497162078
 20
-1333.7524997637486
 10
906.07177051608039
 20
-1333.7422829305463
 42
-0.0097266568647701
 10
906.23782813493699
 20
-1333.5904353561084
 42
-0.0187720905718537
 10
906.41217571082518
 20
-1333.4483665027203
 10
906.44288170149969
 20
-1333.4252074203239
 42
-0.0179428207519798
 10
906.67530242149678
 20
-1333.2626552432114
 10
906.67895474841214
 20
-1333.260291308324
 42
-0.0170047877704412
 10
906.91471838594293
 20
-1333.1188307941723
 10
906.91850137469339
 20
-1333.1167324891337
 42
-0.0160190788360519
 10
907.15540992232479
 20
-1332.9950811871479
 42
-0.0151102861492535
 10
907.39944170477213
 20
-1332.8883984110928
 10
907.45182820698324
 20
-1332.8673582781987
 42
-0.027194544188579
 10
907.81049076603915
 20
-1332.7454934674936
 10
907.87955556652901
 20
-1332.7261439262268
 42
-0.0237596594025127
 10
908.29535241355211
 20
-1332.6306932142445
 10
908.3634152672812
 20
-1332.6184385261179
 42
-0.0213715440558519
 10
908.64929019872784
 20
-1332.579491494608
 10
908.70943736494803
 20
-1332.5739017799071
 42
-0.010146565582361
 10
908.87692989693994
 20
-1332.5617582366433
 10
908.88627028315125
 20
-1332.5612713216453
 42
-0.0100375910866694
 10
909.03542438370073
 20
-1332.556495503721
 10
909.04568365338184
 20
-1332.5563730647066
 42
-0.0103625633382359
 10
909.17439164803602
 20
-1332.5575044982331
 10
909.19665729929147
 20
-1332.5581618566978
 42
-0.0115689250251481
 10
909.2807080368309
 20
-1332.5625913629431
 42
-0.0072438037430255
 10
909.36454631629204
 20
-1332.5701805626948
 10
909.38134682574287
 20
-1332.5719471054165
 42
-0.0217917313143157
 10
909.49791658905235
 20
-1332.5893669981367
 10
909.56351667962645
 20
-1332.6021136065526
 42
-0.0332943556756404
 10
909.7679088446514
 20
-1332.6561538978588
 10
909.79808141319484
 20
-1332.6663219749751
 42
-0.0184824084818085
 10
909.93658646966685
 20
-1332.7187729903637
 42
-0.0198002050698714
 10
910.07066081016671
 20
-1332.7816570505636
 10
910.07254744754312
 20
-1332.7826348374431
 42
-0.0212242342967091
 10
910.2046863899476
 20
-1332.8583975762378
 10
910.20650168548855
 20
-1332.8595433784446
 42
-0.0226090605777537
 10
910.3350055867129
 20
-1332.949023022011
 10
910.33685002844777
 20
-1332.9504352749966
 42
-0.0238457052226984
 10
910.46003210973981
 20
-1333.0544311708579
 10
910.46198483829971
 20
-1333.0562460486251
 42
-0.0248160564140165
 10
910.57818634560044
 20
-1333.175520649834
 10
910.58028997900237
 20
-1333.1779059835383
 42
-0.0254109591462089
 10
910.68789519686641
 20
-1333.3131943695
 10
910.6901432187824
 20
-1333.3163359179032
 42
-0.0255528488281982
 10
910.78758989757932
 20
-1333.4683629721374
 10
910.78992099749564
 20
-1333.4724445837453
 42
-0.0252146793214712
 10
910.87570202350685
 20
-1333.6419468297465
 10
910.87800426266244
 20
-1333.647128911655
 42
-0.0244265635940687
 10
910.95065895642301
 20
-1333.8348754836986
 10
910.95990535789133
 20
-1333.8627409020357
 42
-0.023131961289441
 10
911.00582813688436
 20
-1334.0260419488407
 42
-0.0112130424358178
 10
911.04046415942366
 20
-1334.1922455490346
 10
911.04166668453513
 20
-1334.198742135917
 42
-0.0210527881222716
 10
911.06735315990613
 20
-1334.3797977813595
 10
911.07086375472784
 20
-1334.4152033299058
 42
-0.0190029892420399
 10
911.08630522827241
 20
-1334.6687391761782
 10
911.08711520471638
 20
-1334.704214790547
 42
-0.0137974553660411
 10
911.08556635188097
 20
-1335.0292461972751
 10
911.08472089692509
 20
-1335.0553649418773
 42
-0.0081336634215251
 10
911.06986156170274
 20
-1335.3607124094726
 42
-0.0073526923583372
 10
911.04555302832841
 20
-1335.6654606537547
 10
911.04429160454538
 20
-1335.6787973284238
 42
-0.0066886138688093
 10
911.00855601849867
 20
-1336.0093833719231
 10
911.00689892902903
 20
-1336.0230049909121
 42
-0.0061359187357304
 10
910.95904832697818
 20
-1336.379768971012
 10
910.95701082590529
 20
-1336.3936637738414
 42
-0.005669861006777
 10
910.89636049513933
 20
-1336.7769423426728
 10
910.89395506181506
 20
-1336.7911014619101
 42
-0.005272107727214
 10
910.81982286101675
 20
-1337.2012288015806
 10
910.81705971217366
 20
-1337.215645436974
 42
-0.0049289272175714
 10
910.72876559407405
 20
-1337.652953948095
 10
910.72565309939114
 20
-1337.6676228009126
 42
-0.0047415956716445
 10
910.62241510785884
 20
-1338.1324195583231
 10
910.5876468974991
 20
-1338.2822266537062
 42
-0.0084404470904218
 10
910.39763045392704
 20
-1339.0424506782381
 10
910.39150376594159
 20
-1339.0653148023905
 42
-0.0039635940255594
 10
910.17005008165791
 20
-1339.8663036666369
 10
910.15667328647805
 20
-1339.9132352832296
 42
-0.0072475040834723
 10
909.88922639861596
 20
-1340.8024549996169
 10
909.81901407178816
 20
-1341.0241953495904
 42
-0.0051345458830221
 10
909.5322546997287
 20
-1341.8985205374036
 10
909.51072843295776
 20
-1341.9619468045437
 42
-0.0019150016603591
 10
909.2551950260945
 20
-1342.7054959247596
 10
909.24872742170476
 20
-1342.7240833896624
 42
-0.0021524362752494
 10
909.00024937063438
 20
-1343.4284092113887
 10
908.99103894993698
 20
-1343.4541627896931
 42
-0.0024331286818389
 10
908.75478369090195
 20
-1344.1047620978081
 10
908.7457357383546
 20
-1344.1293054041541
 42
-0.0027449721785492
 10
908.52112116751607
 20
-1344.7284352830873
 10
908.51223116012693
 20
-1344.7517578729314
 42
-0.0031083229771325
 10
908.29868867351388
 20
-1345.3016819105194
 10
908.28995254183815
 20
-1345.3237716263773
 42
-0.0035311343280183
 10
908.08691135624645
 20
-1345.826754752107
 10
908.07832601709845
 20
-1345.8475974756182
 42
-0.0040245640939653
 10
907.88521421330438
 20
-1346.3059067982097
 10
907.87677809969966
 20
-1346.3254861662856
 42
-0.0046015135854116
 10
907.69302180653767
 20
-1346.7413911959241
 10
907.68473562871247
 20
-1346.7596883353692
 42
-0.0052768638270973
 10
907.50975810975376
 20
-1347.1354612196462
 10
907.50162589912736
 20
-1347.1524545581881
 42
-0.0060672675641116
 10
907.33484628636086
 20
-1347.4903701813034
 10
907.32687680587958
 20
-1347.5060354403006
 42
-0.006990464886655
 10
907.16770841187781
 20
-1347.8083712469645
 10
907.15991701226699
 20
-1347.822681796192
 42
-0.0080637022758505
 10
907.00776515192115
 20
-1348.091717099345
 10
907.00017611929093
 20
-1348.1046449649441
 42
-0.0093006455664647
 10
906.85443544275836
 20
-1348.3426593634488
 10
906.84708477601498
 20
-1348.3541773326212
 42
-0.0107060778044552
 10
906.7071362325762
 20
-1348.5634476500011
 10
906.70007446429747
 20
-1348.5735331925655
 42
-0.0122723111423612
 10
906.56528074609855
 20
-1348.7563265220563
 10
906.56495452254546
 20
-1348.7567469098647
 42
-0.0141836319632006
 10
906.42137291957044
 20
-1348.9313166676955
 10
906.41442516392124
 20
-1348.9392916679569
 42
-0.0175957477204086
 10
906.2745189958838
 20
-1349.0889125563647
 42
-0.0080466359672074
 10
906.12705523085549
 20
-1349.2312350845139
 10
906.08102068633616
 20
-1349.2742555226071
 42
-0.0269600260390383
 10
905.82774044035102
 20
-1349.4865787811184
 10
905.761173304061
 20
-1349.5365301957365
 42
-0.0178362839765383
 10
905.52122881440027
 20
-1349.7035481219925
 10
905.51398384339814
 20
-1349.7082166341986
 42
-0.0174650732638585
 10
905.27764764595861
 20
-1349.8490775991565
 42
-0.01692401301638
 10
905.0321814000938
 20
-1349.9733698589373
 10
904.98619524454307
 20
-1349.9947318145012
 42
-0.0318883036839248
 10
904.63584438892428
 20
-1350.1310701240106
 10
904.56747885376126
 20
-1350.1527707444859
 42
-0.0284435909903768
 10
904.19142872746727
 20
-1350.2489881799618
 10
904.1562705669719
 20
-1350.2558817757897
 42
-0.0243909341020294
 10
903.84282710604975
 20
-1350.3016028068203
 10
903.7925463792759
 20
-1350.3064483537221
 42
-0.0196639292925272
 10
903.57695080175142
 20
-1350.3186966392352
 10
903.52512673057515
 20
-1350.319599899972
 42
-0.0100501510670304
 10
903.41270344892371
 20
-1350.3192995016191
 10
903.38104358766077
 20
-1350.3185784297359
 42
-0.0019752031182743
 10
903.33195125089821
 20
-1350.317266269524
 10
903.32919094767817
 20
-1350.3171815776975
 42
0.0065378752024767
 10
903.28561437292137
 20
-1350.3164146864826
 42
-0.0167974694650617
 10
903.2420835499928
 20
-1350.3147547879573
 10
903.23800421072747
 20
-1350.314461777062
 42
-0.0081283276307105
 10
903.1864444129917
 20
-1350.3099147834243
 10
903.17470483911029
 20
-1350.3086868658459
 42
-0.012670344016478
 10
903.09998654330832
 20
-1350.2989520747731
 10
903.07719867564003
 20
-1350.2953938188591
 42
-0.011785208843032
 10
902.95765968980879
 20
-1350.2738308237024
 10
902.90227923804468
 20
-1350.2624872834674
 42
-0.0251774592302815
 10
902.67543519903722
 20
-1350.2039892740343
 10
902.63071600918192
 20
-1350.1900224546973
 42
-0.0146525199873584
 10
902.44432302164728
 20
-1350.1257559275007
 42
-0.0166929435867401
 10
902.26234536552727
 20
-1350.0499487944496
 10
902.25768873424738
 20
-1350.0478238938324
 42
-0.0191684358436807
 10
902.07250510299707
 20
-1349.9545878100419
 10
902.06917251724121
 20
-1349.952746562489
 42
-0.022118178180843
 10
901.88586221333378
 20
-1349.8406130641145
 10
901.88351240933059
 20
-1349.8390287661271
 42
-0.0254984685382828
 10
901.70722225894622
 20
-1349.7066176161582
 10
901.6847401112442
 20
-1349.687865307222
 42
-0.0292492648799744
 10
901.55997117240031
 20
-1349.5707725075783
 42
-0.015904895750898
 10
901.44613117495078
 20
-1349.4427525159797
 10
901.44481238437095
 20
-1349.4411709029589
 42
-0.0343813379553068
 10
901.34217512274574
 20
-1349.2992995771908
 10
901.31068359138374
 20
-1349.248796185095
 42
-0.0369117275707011
 10
901.22479108948664
 20
-1349.085318944147
 42
-0.0191751379896695
 10
901.15759770392935
 20
-1348.9129143381408
 10
901.15583438017006
 20
-1348.9078209934662
 42
-0.0378178042215824
 10
901.10603966138547
 20
-1348.7188802173835
 10
901.10004436565475
 20
-1348.6863195991834
 42
-0.0184846046479769
 10
901.07932716636105
 20
-1348.5445667786428
 42
-0.0179866351307537
 10
901.06899416128726
 20
-1348.4016759655585
 10
901.06893771884165
 20
-1348.4001182789495
 42
-0.008549718613882
 10
901.06750543773796
 20
-1348.3252451139394
 42
-0.008549718613882
  0
MTEXT
  5
17D
100
AcDbEntity
  8
template
390
0
 62
               7
100
AcDbMText
 10
784.00000000049999
 20
-1248.2359752562936
 30
0.0
 40
24.432617187500004
 41
0.0
 71
               1
 72
               1
  1
1:10
  7
ＭＳ ゴシック
 73
               1
 44
0.7828267384257843
  0
MTEXT
  5
17E
100
AcDbEntity
  8
template
390
0
 62
               7
100
AcDbMText
 10
731.00000000049999
 20
-1219.6535143187937
 30
0.0
 40
16.288411458333332
 41
0.0
 71
               1
 72
               1
  1
縮尺
  7
ＭＳ ゴシック
 73
               1
 44
0.7828267384257843
  0
LINE
  5
17F
100
AcDbEntity
  8
template
370
               5
390
0
  6
Continuous
 62
               7
100
AcDbLine
 10
724.00000000049999
 20
-1296.2385924437938
 30
0.0
 11
724.00000000049999
 21
-1211.2385924437938
 31
0.0
  0
MTEXT
  5
180
100
AcDbEntity
  8
template
390
0
 62
               7
100
AcDbMText
 10
480.00000000049999
 20
-1219.6535143187937
 30
0.0
 40
16.288411458333332
 41
0.0
 71
               1
 72
               1
  1
容量
  7
ＭＳ ゴシック
 73
               1
 44
0.7828267384257843
  0
MTEXT
  5
181
100
AcDbEntity
  8
template
390
0
 62
               7
100
AcDbMText
 10
533.00000000049999
 20
-1248.2359752562936
 30
0.0
 40
24.432617187500004
 41
0.0
 71
               1
 72
               1
  1
2.5L
  7
ＭＳ ゴシック
 73
               1
 44
0.7828267384257843
  0
LINE
  5
182
100
AcDbEntity
  8
template
370
               5
390
0
  6
Continuous
 62
               7
100
AcDbLine
 10
473.00000000049999
 20
-1296.2385924437938
 30
0.0
 11
473.00000000049999
 21
-1211.2385924437938
 31
0.0
  0
MTEXT
  5
183
100
AcDbEntity
  8
template
390
0
 62
               7
100
AcDbMText
 10
229.00000000050022
 20
-1134.6535143187937
 30
0.0
 40
16.288411458333332
 41
0.0
 71
               1
 72
               1
  1
品番
  7
ＭＳ ゴシック
 73
               1
 44
0.7828267384257843
  0
MTEXT
  5
184
100
AcDbEntity
  8
template
390
0
 62
               7
100
AcDbMText
 10
229.00000000050022
 20
-1219.6535143187937
 30
0.0
 40
16.288411458333332
 41
0.0
 71
               1
 72
               1
  1
重量
  7
ＭＳ ゴシック
 73
               1
 44
0.7828267384257843
  0
MTEXT
  5
185
100
AcDbEntity
  8
template
390
0
 62
               7
100
AcDbMText
 10
282.00000000050022
 20
-1163.2359752562936
 30
0.0
 40
24.432617187500004
 41
0.0
 71
               1
 72
               1
  1
ARJ70-0804(旧品番:AQI70-0804)
  7
ＭＳ ゴシック
 73
               1
 44
0.7828267384257843
  0
MTEXT
  5
186
100
AcDbEntity
  8
template
390
0
 62
               7
100
AcDbMText
 10
282.00000000050022
 20
-1248.2359752562936
 30
0.0
 40
24.432617187500004
 41
0.0
 71
               1
 72
               1
  1
6.3kg
  7
ＭＳ ゴシック
 73
               1
 44
0.7828267384257843
  0
LINE
  5
187
100
AcDbEntity
  8
template
370
               5
390
0
  6
Continuous
 62
               7
100
AcDbLine
 10
222.00000000050022
 20
-1381.2385924437938
 30
0.0
 11
222.00000000050022
 21
-1126.2385924437938
 31
0.0
  0
MTEXT
  5
188
100
AcDbEntity
  8
template
390
0
 62
               7
100
AcDbMText
 10
-914.99999999975944
 20
-1248.2359752562936
 30
0.0
 40
24.432617187500004
 41
0.0
 71
               1
 72
               1
  1
壁掛け,カウンタ ートップ/オーバーフローなし/壁取付ボルト付属/\P陶器/ホワイト\PR.type
  7
ＭＳ ゴシック
 73
               1
 44
1.3047112307096407
  0
DIMENSION
  5
189
100
AcDbEntity
  8
notes
370
               5
390
0
  6
Continuous
 62
               7
100
AcDbDimension
  2
*D2
 10
-290.0
 20
962.32721291936627
 30
0.0
 11
-490.0142047382451
 21
962.32721291936627
 31
0.0
 71
               5
 72
               1
 41
1.0
 42
0.0
  3
tform線あり
100
AcDbAlignedDimension
 13
-690.0284094764902
 23
812.28097757114119
 33
0.0
 14
-290.0
 24
812.28097757114119
 34
0.0
100
AcDbRotatedDimension
1001
ACAD
1000
DSTYLE
1002
{
1070
             279
1070
               2
1070
             340
1005
39
1070
             147
1040
5.0
1002
}
  0
DIMENSION
  5
18A
100
AcDbEntity
  8
notes
370
               5
390
0
  6
Continuous
 62
               7
100
AcDbDimension
  2
*D3
 10
-790.0284094764902
 20
812.28097757114119
 30
0.0
 11
-790.0284094764902
 21
697.28097757114119
 31
0.0
 71
               5
 72
               1
 41
1.0
 42
0.0
  3
tform線あり
100
AcDbAlignedDimension
 13
-690.0284094764902
 23
582.28097757114119
 33
0.0
 14
-690.0284094764902
 24
812.28097757114119
 34
0.0
 50
90.0
100
AcDbRotatedDimension
1001
ACAD
1000
DSTYLE
1002
{
1070
             279
1070
               2
1070
             340
1005
39
1070
             147
1040
5.0
1002
}
  0
DIMENSION
  5
18B
100
AcDbEntity
  8
notes
370
               5
390
0
  6
Continuous
 62
               7
100
AcDbDimension
  2
*D4
 10
-300.02629526619603
 20
482.23474222291611
 30
0.0
 11
-460.02690328206654
 21
482.23474222291611
 31
0.0
 71
               5
 72
               1
 41
1.0
 42
0.0
  3
tform線あり
100
AcDbAlignedDimension
 13
-620.02751129793705
 23
597.25406321775768
 33
0.0
 14
-300.02629526619603
 24
597.25406321775768
 34
0.0
100
AcDbRotatedDimension
1001
ACAD
1000
DSTYLE
1002
{
1070
             279
1070
               2
1070
             340
1005
39
1070
             147
1040
5.0
1002
}
  0
DIMENSION
  5
18C
100
AcDbEntity
  8
notes
370
               5
390
0
  6
Continuous
 62
               7
100
AcDbDimension
  2
*D5
 10
-187.0
 20
802.31383287750714
 30
0.0
 11
-187.0
 21
697.28872670574344
 31
0.0
 71
               5
 72
               1
 41
1.0
 42
0.0
  3
tform線あり
100
AcDbAlignedDimension
 13
-305.00898881537159
 23
592.26362053397975
 33
0.0
 14
-305.00898881537159
 24
802.31383287750714
 34
0.0
 50
90.0
100
AcDbRotatedDimension
1001
ACAD
1000
DSTYLE
1002
{
1070
             271
1070
               0
1070
             279
1070
               2
1070
             340
1005
39
1070
             147
1040
5.0
1002
}
  0
DIMENSION
  5
18D
100
AcDbEntity
  8
notes
370
               5
390
0
  6
Continuous
 62
               7
100
AcDbDimension
  2
*D6
 10
-663.70106431572458
 20
682.69709097116254
 30
0.0
 11
-520.61819216579852
 21
853.19710479828086
 31
0.0
 70
               3
 71
               5
 72
               1
 41
1.0
 42
0.0
  3
tform線あり
100
AcDbDiametricDimension
 15
-644.35575463725581
 25
711.86486417111985
 35
0.0
 40
169.59225471342759
1001
ACAD
1000
DSTYLE
1002
{
1070
             289
1070
               0
1070
             342
1005
4B
1070
             340
1005
39
1070
              73
1070
               1
1070
              74
1070
               1
1070
              75
1070
               1
1070
              76
1070
               1
1070
               3
1000

1070
             174
1070
               0
1070
             147
1040
5.0
1002
}
  0
DIMENSION
  5
18E
100
AcDbEntity
  8
notes
370
               5
390
0
  6
Continuous
 62
               7
100
AcDbDimension
  2
*D7
 10
-620.02751129793705
 20
482.23474222291611
 30
0.0
 11
-655.02751129793705
 21
482.23474222291611
 31
0.0
 71
               5
 72
               1
 41
1.0
 42
0.0
  3
tform線あり
100
AcDbAlignedDimension
 13
-690.02751129793705
 23
582.28097757114119
 33
0.0
 14
-620.02751129793705
 24
600.25406321775768
 34
0.0
100
AcDbRotatedDimension
1001
ACAD
1000
DSTYLE
1002
{
1070
             279
1070
               2
1070
             340
1005
39
1070
             147
1040
5.0
1002
}
  0
MTEXT
  5
18F
100
AcDbEntity
  8
notes
390
0
 62
               7
100
AcDbMText
 10
121.10300023576838
 20
409.41789440506739
 30
0.0
 40
24.432617187500004
 41
770.0
 71
               1
 72
               1
  1
※陶器製品には寸法公差があります。\P  洗面器の収め方をご確認の上、必ず現物に合わせて\P  カウンター切込を行ってください。
  7
ＭＳ ゴシック
 73
               1
 44
1.0437689845677123
  0
DIMENSION
  5
190
100
AcDbEntity
  8
notes
370
               5
390
0
  6
Continuous
 62
               7
100
AcDbDimension
  2
*D8
 10
226.38770071231056
 20
912.32721291936627
 30
0.0
 11
233.8760888100046
 21
912.32721291936627
 31
0.0
 71
               5
 72
               1
 41
1.0
 42
0.0
  3
tform線あり
100
AcDbAlignedDimension
 13
241.36447690769864
 23
752.31369242681842
 33
0.0
 14
226.38770071231056
 24
812.32721291936627
 34
0.0
100
AcDbRotatedDimension
1001
ACAD
1000
DSTYLE
1002
{
1070
             279
1070
               2
1070
             340
1005
39
1070
             147
1040
5.0
1002
}
  0
DIMENSION
  5
191
100
AcDbEntity
  8
notes
370
               5
390
0
  6
Continuous
 62
               7
100
AcDbDimension
  2
*D9
 10
241.36447690769864
 20
912.32721291936627
 30
0.0
 11
296.36447690769955
 21
912.32721291936627
 31
0.0
 71
               5
 72
               1
 41
1.0
 42
0.0
  3
tform線あり
100
AcDbAlignedDimension
 13
351.36447690770046
 23
752.31369242681842
 33
0.0
 14
241.36447690769864
 24
752.31369242681842
 34
0.0
100
AcDbRotatedDimension
1001
ACAD
1000
DSTYLE
1002
{
1070
             279
1070
               2
1070
             340
1005
39
1070
             147
1040
5.0
1002
}
  0
DIMENSION
  5
192
100
AcDbEntity
  8
notes
370
               5
390
0
  6
Continuous
 62
               7
100
AcDbDimension
  2
*D10
 10
401.36447690770137
 20
912.32721291936627
 30
0.0
 11
456.36447690770183
 21
912.32721291936627
 31
0.0
 71
               5
 72
               1
 41
1.0
 42
0.0
  3
tform線あり
100
AcDbAlignedDimension
 13
511.36447690770228
 23
752.31369242681842
 33
0.0
 14
401.36447690770137
 24
752.31369242681842
 34
0.0
100
AcDbRotatedDimension
1001
ACAD
1000
DSTYLE
1002
{
1070
             279
1070
               2
1070
             340
1005
39
1070
             147
1040
5.0
1002
}
  0
DIMENSION
  5
193
100
AcDbEntity
  8
notes
370
               5
390
0
  6
Continuous
 62
               7
100
AcDbDimension
  2
*D11
 10
726.41611018880712
 20
752.31369242681842
 30
0.0
 11
726.41611018880712
 21
697.31369242681842
 31
0.0
 71
               5
 72
               1
 41
1.0
 42
0.0
  3
tform線あり
100
AcDbAlignedDimension
 13
511.36447690770228
 23
642.31369242681842
 33
0.0
 14
511.36447690770228
 24
752.31369242681842
 34
0.0
 50
90.0
100
AcDbRotatedDimension
1001
ACAD
1000
DSTYLE
1002
{
1070
             279
1070
               2
1070
             340
1005
39
1070
             147
1040
5.0
1002
}
  0
MTEXT
  5
194
100
AcDbEntity
  8
notes
390
0
 62
               7
100
AcDbMText
 10
270.0
 20
1092.1276171874999
 30
0.0
 40
24.432617187500004
 41
0.0
 71
               1
 72
               1
  1
カウンター切込寸法
  7
ＭＳ ゴシック
 73
               1
 44
0.7828267384257843
  0
DIMENSION
  5
195
100
AcDbEntity
  8
notes
370
               5
390
0
  6
Continuous
 62
               7
100
AcDbDimension
  2
*D12
 10
265.04752963237934
 20
-508.6174575047462
 30
0.0
 11
265.04752963237934
 21
-456.1174575047462
 31
0.0
 71
               5
 72
               1
 41
1.0
 42
0.0
  3
tform線あり
100
AcDbAlignedDimension
 13
370.03797231615681
 23
-403.6174575047462
 33
0.0
 14
448.21640827227111
 24
-508.6174575047462
 34
0.0
 50
90.0
100
AcDbRotatedDimension
1001
ACAD
1000
DSTYLE
1002
{
1070
             279
1070
               2
1070
             340
1005
39
1070
             147
1040
5.0
1002
}
  0
DIMENSION
  5
196
100
AcDbEntity
  8
notes
370
               5
390
0
  6
Continuous
 62
               7
100
AcDbDimension
  2
*D13
 10
480.08859889086898
 20
-488.63579727394381
 30
0.0
 11
475.08859889086898
 21
-396.92711988293854
 31
0.0
 70
             128
 71
               5
 72
               1
 41
1.0
 42
0.0
  3
tform線あり
100
AcDbAlignedDimension
 13
480.08859889086943
 23
-403.63579727394381
 33
0.0
 14
480.09893107033804
 24
-488.63579727394381
 34
0.0
 50
90.0
100
AcDbRotatedDimension
1001
ACAD
1000
DSTYLE
1002
{
1070
             279
1070
               2
1070
             340
1005
39
1070
               3
1000
<>(深さ)
1070
             174
1070
               0
1070
             147
1040
5.0
1002
}
  0
DIMENSION
  5
197
100
AcDbEntity
  8
notes
370
               5
390
0
  6
Continuous
 62
               7
100
AcDbDimension
  2
*D14
 10
695.14516641856335
 20
-513.60790018852322
 30
0.0
 11
695.14516641856335
 21
-458.60790018852322
 31
0.0
 71
               5
 72
               1
 41
1.0
 42
0.0
  3
tform線あり
100
AcDbAlignedDimension
 13
590.14697460018351
 23
-403.60790018852322
 33
0.0
 14
595.14516641856335
 24
-513.60790018852322
 34
0.0
 50
90.0
100
AcDbRotatedDimension
1001
ACAD
1000
DSTYLE
1002
{
1070
             279
1070
               2
1070
             340
1005
39
1070
             147
1040
5.0
1002
}
  0
DIMENSION
  5
198
100
AcDbEntity
  8
notes
370
               5
390
0
  6
Continuous
 62
               7
100
AcDbDimension
  2
*D15
 10
595.14516641856335
 20
-613.60790018852322
 30
0.0
 11
537.62075722201735
 21
-613.60790018852322
 31
0.0
 71
               5
 72
               1
 41
1.0
 42
0.0
  3
tform線あり
100
AcDbAlignedDimension
 13
480.09634802547134
 23
-508.61229141501144
 33
0.0
 14
595.14516641856335
 24
-513.60790018852322
 34
0.0
100
AcDbRotatedDimension
1001
ACAD
1000
DSTYLE
1002
{
1070
             279
1070
               2
1070
             340
1005
39
1070
             147
1040
5.0
1002
}
  0
DIMENSION
  5
199
100
AcDbEntity
  8
notes
370
               5
390
0
  6
Continuous
 62
               7
100
AcDbDimension
  2
*D16
 10
265.04752963237934
 20
-508.6174575047462
 30
0.0
 11
265.04752963237934
 21
-511.11267884663471
 31
0.0
 71
               5
 72
               1
 41
1.0
 42
0.0
  3
tform線あり
100
AcDbAlignedDimension
 13
365.04752963237934
 23
-513.60790018852322
 33
0.0
 14
448.21640827227111
 24
-508.6174575047462
 34
0.0
 50
90.0
100
AcDbRotatedDimension
1001
ACAD
1000
DSTYLE
1002
{
1070
             279
1070
               2
1070
             340
1005
39
1070
             147
1040
5.0
1002
}
  0
MTEXT
  5
19A
100
AcDbEntity
  8
notes
390
0
 62
               7
100
AcDbMText
 10
-216.19425745702142
 20
-326.99738281250006
 30
0.0
 40
24.432617187500004
 41
0.0
 71
               1
 72
               1
  1
壁取付ボルト穴(2ヶ所)
  7
ＭＳ ゴシック
 73
               1
 44
0.7828267384257843
  0
DIMENSION
  5
19B
100
AcDbEntity
  8
notes
370
               5
390
0
  6
Continuous
 62
               7
100
AcDbDimension
  2
*D17
 10
-325.03839410374167
 20
-308.88630757318174
 30
0.0
 11
-467.53077269030837
 21
-308.88630757318174
 31
0.0
 71
               5
 72
               1
 41
1.0
 42
0.0
  3
tform線あり
100
AcDbAlignedDimension
 13
-610.02315127687507
 23
-463.59498496418701
 33
0.0
 14
-325.03839410374167
 24
-463.59498496418701
 34
0.0
100
AcDbRotatedDimension
1001
ACAD
1000
DSTYLE
1002
{
1070
             279
1070
               2
1070
             340
1005
39
1070
             147
1040
5.0
1002
}
  0
DIMENSION
  5
19C
100
AcDbEntity
  8
notes
370
               5
390
0
  6
Continuous
 62
               7
100
AcDbDimension
  2
*D18
 10
-610.02315127687507
 20
-308.88630757318174
 30
0.0
 11
-650.50335341562959
 21
-303.88630757318174
 31
0.0
 70
             128
 71
               5
 72
               1
 41
1.0
 42
0.0
  3
tform線あり
100
AcDbAlignedDimension
 13
-690.02315127687507
 23
-503.59498496418701
 33
0.0
 14
-610.02315127687507
 24
-463.59498496418701
 34
0.0
100
AcDbRotatedDimension
1001
ACAD
1000
DSTYLE
1002
{
1070
             279
1070
               2
1070
             340
1005
39
1070
             147
1040
5.0
1002
}
  0
DIMENSION
  5
19D
100
AcDbEntity
  8
notes
370
               5
390
0
  6
Continuous
 62
               7
100
AcDbDimension
  2
*D19
 10
-690.0284094764902
 20
-613.59498496418701
 30
0.0
 11
-575.02840947649156
 21
-613.59498496418701
 31
0.0
 71
               5
 72
               1
 41
1.0
 42
0.0
  3
tform線あり
100
AcDbAlignedDimension
 13
-460.02840947649293
 23
-508.59498496418701
 33
0.0
 14
-690.0284094764902
 24
-513.59498496418701
 34
0.0
100
AcDbRotatedDimension
1001
ACAD
1000
DSTYLE
1002
{
1070
             279
1070
               2
1070
             340
1005
39
1070
             147
1040
5.0
1002
}
  0
LINE
  5
19E
100
AcDbEntity
  8
notes
370
               5
390
0
  6
Continuous
 62
               7
100
AcDbLine
 10
-325.03839410374167
 20
-483.59498496418701
 30
0.0
 11
-222.0
 21
-344.0
 31
0.0
  0
DIMENSION
  5
19F
100
AcDbEntity
  8
notes
370
               5
390
0
  6
Continuous
 62
               7
100
AcDbDimension
  2
*D20
 10
-785.0284094764902
 20
-403.59498496418701
 30
0.0
 11
-785.0284094764902
 21
-443.59498496418701
 31
0.0
 71
               5
 72
               1
 41
1.0
 42
0.0
  3
tform線あり
100
AcDbAlignedDimension
 13
-630.02315127687507
 23
-483.59498496418701
 33
0.0
 14
-685.0284094764902
 24
-403.59498496418701
 34
0.0
 50
90.0
100
AcDbRotatedDimension
1001
ACAD
1000
DSTYLE
1002
{
1070
             279
1070
               2
1070
             340
1005
39
1070
             147
1040
5.0
1002
}
  0
DIMENSION
  5
1A0
100
AcDbEntity
  8
notes
370
               5
390
0
  6
Continuous
 62
               7
100
AcDbDimension
  2
*D21
 10
-654.0284094764902
 20
912.32721291936627
 30
0.0
 11
-672.0284094764902
 21
912.32721291936627
 31
0.0
 71
               5
 72
               1
 41
1.0
 42
0.0
  3
tform線あり
100
AcDbAlignedDimension
 13
-690.0284094764902
 23
812.32721291936627
 33
0.0
 14
-654.0284094764902
 24
712.28097757114119
 34
0.0
100
AcDbRotatedDimension
1001
ACAD
1000
DSTYLE
1002
{
1070
             279
1070
               2
1070
             340
1005
39
1070
             147
1040
5.0
1002
}
  0
LINE
  5
1A1
100
AcDbEntity
  8
notes
370
              15
390
0
  6
Continuous
 62
               7
100
AcDbLine
 10
-740.0142047382451
 20
812.98119156241762
 30
0.0
 11
-240.0142047382451
 21
812.98119156241762
 31
0.0
  0
LINE
  5
1A2
100
AcDbEntity
  8
notes
370
              15
390
0
  6
Continuous
 62
               7
100
AcDbLine
 10
-289.99999999999955
 20
812.98119156241762
 30
0.0
 11
-268.09247069644971
 21
834.88872086596757
 31
0.0
  0
LINE
  5
1A3
100
AcDbEntity
  8
notes
370
              15
390
0
  6
Continuous
 62
               7
100
AcDbLine
 10
-269.99999999999955
 20
812.98119156241762
 30
0.0
 11
-248.09247069644971
 21
834.88872086596757
 31
0.0
  0
LINE
  5
1A4
100
AcDbEntity
  8
notes
370
              15
390
0
  6
Continuous
 62
               7
100
AcDbLine
 10
-249.99999999999955
 20
812.98119156241762
 30
0.0
 11
-228.09247069644971
 21
834.88872086596757
 31
0.0
  0
LINE
  5
1A5
100
AcDbEntity
  8
notes
370
              15
390
0
  6
Continuous
 62
               7
100
AcDbLine
 10
176.40190545055839
 20
812.90674093019811
 30
0.0
 11
676.40190545055839
 21
812.90674093019811
 31
0.0
  0
LINE
  5
1A6
100
AcDbEntity
  8
notes
370
              15
390
0
  6
Continuous
 62
               7
100
AcDbLine
 10
626.41611018880394
 20
812.90674093019811
 30
0.0
 11
648.32363949235378
 21
834.81427023374818
 31
0.0
  0
LINE
  5
1A7
100
AcDbEntity
  8
notes
370
              15
390
0
  6
Continuous
 62
               7
100
AcDbLine
 10
646.41611018880394
 20
812.90674093019811
 30
0.0
 11
668.32363949235378
 21
834.81427023374818
 31
0.0
  0
LINE
  5
1A8
100
AcDbEntity
  8
notes
370
              15
390
0
  6
Continuous
 62
               7
100
AcDbLine
 10
666.41611018880394
 20
812.90674093019811
 30
0.0
 11
688.32363949235378
 21
834.81427023374818
 31
0.0
  0
DIMENSION
  5
1A9
100
AcDbEntity
  8
ARJ70-0804
370
              15
390
0
  6
Continuous
 62
               7
100
AcDbDimension
  2
*D22
 10
1218.6280819039443
 20
1801.4068607905947
 30
0.0
 11
0.0
 21
0.0
 31
0.0
 70
               3
 71
               5
 72
               1
 41
1.0
 42
0.0
  3
JIS
100
AcDbDiametricDimension
 15
1249.2767761953894
 25
0.0
 35
0.0
 40
96.952428298666618
1001
ACAD
1000
DSTYLE
1002
{
1070
             172
1070
               1
1070
             289
1070
               0
1070
             342
1005
54
1070
             340
1005
39
1070
              73
1070
               1
1070
              74
1070
               1
1070
              75
1070
               1
1070
              76
1070
               1
1070
               3
1000

1070
             174
1070
               0
1070
             147
1040
9.9999800000000008
1002
}
  0
DIMENSION
  5
1AA
100
AcDbEntity
  8
ARJ70-0804
370
              15
390
0
  6
Continuous
 62
               7
100
AcDbDimension
  2
*D23
 10
-1179.832809523507
 20
1871.3875397957531
 30
0.0
 11
0.0
 21
0.0
 31
0.0
 70
               3
 71
               5
 72
               1
 41
1.0
 42
0.0
  3
JIS
100
AcDbDiametricDimension
 15
-1149.1841152320621
 25
0.0
 35
0.0
 40
96.952428298666618
1001
ACAD
1000
DSTYLE
1002
{
1070
             172
1070
               1
1070
             289
1070
               0
1070
             342
1005
54
1070
             340
1005
39
1070
              73
1070
               1
1070
              74
1070
               1
1070
              75
1070
               1
1070
              76
1070
               1
1070
               3
1000

1070
             174
1070
               0
1070
             147
1040
9.9999800000000008
1002
}
  0
LWPOLYLINE
  5
1AB
100
AcDbEntity
  8
ARJ70-0804
370
              15
390
0
  6
Continuous
 62
               7
100
AcDbPolyline
 90
        4
 70
             129
 10
-290.0
 20
812.32721291936627
 10
-290.0
 20
582.23474222291611
 10
-690.0284094764902
 20
582.23474222291611
 10
-690.0284094764902
 20
812.32721291936627
  0
LINE
  5
1AC
100
AcDbEntity
  8
ARJ70-0804
370
              15
390
0
  6
Continuous
 62
               7
100
AcDbLine
 10
-620.02751129793705
 20
597.23356061600884
 30
0.0
 11
-620.02751129793705
 21
797.33356061600887
 31
0.0
  0
LINE
  5
1AD
100
AcDbEntity
  8
ARJ70-0804
370
              15
390
0
  6
Continuous
 62
               7
100
AcDbLine
 10
-614.75035063387986
 20
802.31383287750714
 30
0.0
 11
-305.00898881537159
 21
802.31383287750714
 31
0.0
  0
LINE
  5
1AE
100
AcDbEntity
  8
ARJ70-0804
370
              15
390
0
  6
Continuous
 62
               7
100
AcDbLine
 10
-300.02629526619603
 20
797.33356061600898
 30
0.0
 11
-300.02629526619603
 21
597.23356061600896
 31
0.0
  0
LINE
  5
1AF
100
AcDbEntity
  8
ARJ70-0804
370
              15
390
0
  6
Continuous
 62
               7
100
AcDbLine
 10
-305.00898881537159
 20
592.26362053397975
 30
0.0
 11
-614.75035063387986
 21
592.26362053397975
 31
0.0
  0
LWPOLYLINE
  5
1B0
100
AcDbEntity
  8
ARJ70-0804
370
              15
390
0
  6
Continuous
 62
               7
100
AcDbPolyline
 90
        5
 70
             128
 10
-300.02629526619603
 20
597.25406321775768
 10
-300.30526411187293
 20
595.32194565695727
 10
-301.40822427024341
 20
593.92710142857163
 10
-303.0717051648362
 20
592.81639213559902
 10
-305.00898881537159
 20
592.26362053397975
  0
LWPOLYLINE
  5
1B1
100
AcDbEntity
  8
ARJ70-0804
370
              15
390
0
  6
Continuous
 62
               7
100
AcDbPolyline
 90
        5
 70
             128
 10
-305.00898881537159
 20
802.31383287750714
 10
-303.0717051648362
 20
802.02969794209548
 10
-301.40822427024341
 20
800.9086564696529
 10
-300.30526411187293
 20
799.25034166479509
 10
-300.02629526619603
 20
797.31305801426015
  0
LWPOLYLINE
  5
1B2
100
AcDbEntity
  8
ARJ70-0804
370
              15
390
0
  6
Continuous
 62
               7
100
AcDbPolyline
 90
        5
 70
             128
 10
-620.02751129793705
 20
797.31305801426015
 10
-619.46699056171565
 20
799.25034166479509
 10
-618.36403040334517
 20
800.9086564696529
 10
-616.70054950875237
 20
802.02969794209548
 10
-614.75035063387986
 20
802.31383287750714
  0
LWPOLYLINE
  5
1B3
100
AcDbEntity
  8
ARJ70-0804
370
              15
390
0
  6
Continuous
 62
               7
100
AcDbPolyline
 90
        5
 70
             128
 10
-614.75035063387986
 20
592.26362053397975
 10
-616.70054950875237
 20
592.81639213559902
 10
-618.36403040334517
 20
593.92710142857163
 10
-619.46699056171565
 20
595.32194565695727
 10
-620.02751129793705
 20
597.25406321775768
  0
LWPOLYLINE
  5
1B4
100
AcDbEntity
  8
ARJ70-0804
370
              15
390
0
  6
STYLE_13
 62
               7
100
AcDbPolyline
 90
       10
 70
             128
 10
-333.07812125346027
 20
-483.67815931019504
 10
-332.52534965184077
 20
-480.6224172320849
 10
-330.58289991157199
 20
-477.84306095478405
 10
-328.0954277042847
 20
-476.19249528452883
 10
-325.0345195364398
 20
-475.63455759317412
 10
-321.98136050319681
 20
-476.19249528452883
 10
-319.49905438564474
 20
-477.84306095478405
 10
-317.55660464537596
 20
-480.6224172320849
 10
-316.99866695402216
 20
-483.67815931019504
 10
-316.99866695402216
 20
-513.62081541286034
  0
LINE
  5
1B5
100
AcDbEntity
  8
ARJ70-0804
370
              15
390
0
  6
STYLE_13
 62
               7
100
AcDbLine
 10
-333.07812125346027
 20
-483.67815931019504
 30
0.0
 11
-333.07812125346027
 21
-513.62081541286034
 31
0.0
  0
LINE
  5
1B6
100
AcDbEntity
  8
ARJ70-0804
370
              15
390
0
  6
STYLE_13
 62
               7
100
AcDbLine
 10
-618.06287842659367
 20
-483.67815931019504
 30
0.0
 11
-618.06287842659367
 21
-513.62081541286034
 31
0.0
  0
LINE
  5
1B7
100
AcDbEntity
  8
ARJ70-0804
370
              15
390
0
  6
Continuous
 62
               7
100
AcDbLine
 10
595.14516641856335
 20
-408.53221802838425
 30
0.0
 11
595.14516641856335
 21
-513.60790018852322
 31
0.0
  0
LWPOLYLINE
  5
1B8
100
AcDbEntity
  8
ARJ70-0804
370
              15
390
0
  6
Continuous
 62
               7
100
AcDbPolyline
 90
        3
 70
             128
 10
365.04752963237934
 20
-408.53221802838425
 10
365.04752963237934
 20
-513.60790018852322
 10
595.14516641856335
 20
-513.60790018852322
  0
LWPOLYLINE
  5
1B9
100
AcDbEntity
  8
ARJ70-0804
370
              15
390
0
  6
Continuous
 62
               7
100
AcDbPolyline
 90
        3
 70
             128
 10
445.17099837363003
 20
-488.63579727394381
 10
515.02686376704696
 20
-488.63579727394381
 10
503.10094561435471
 20
-496.67939899096427
  0
LWPOLYLINE
  5
1BA
100
AcDbEntity
  8
ARJ70-0804
370
              15
390
0
  6
Continuous
 62
               7
100
AcDbPolyline
 90
        3
 70
             128
 10
445.17099837363003
 20
-488.63579727394381
 10
457.09175043658797
 20
-496.67939899096427
 10
503.10094561435471
 20
-496.67939899096427
  0
LINE
  5
1BB
100
AcDbEntity
  8
ARJ70-0804
370
              15
390
0
  6
Continuous
 62
               7
100
AcDbLine
 10
457.09175043658797
 20
-496.67939899096427
 30
0.0
 11
457.09175043658797
 21
-508.61229141501144
 31
0.0
  0
LWPOLYLINE
  5
1BC
100
AcDbEntity
  8
ARJ70-0804
370
              15
390
0
  6
Continuous
 62
               7
100
AcDbPolyline
 90
        3
 70
             128
 10
503.10094561435471
 20
-496.67939899096427
 10
503.10094561435471
 20
-508.61229141501144
 10
457.09175043658797
 20
-508.61229141501144
  0
LWPOLYLINE
  5
1BD
100
AcDbEntity
  8
ARJ70-0804
370
              15
390
0
  6
Continuous
 62
               7
100
AcDbPolyline
 90
       12
 70
             128
 10
378.35279374425136
 20
-408.25841527244165
 10
379.45833694749035
 20
-417.91283695882476
 10
381.96389046884906
 20
-427.56725864520695
 10
385.28568616829853
 20
-436.9687048074311
 10
389.72335725045741
 20
-445.83987535170854
 10
395.26915458072108
 20
-454.19050010589172
 10
401.64927540314966
 20
-462.03517381175698
 10
409.12719029421351
 20
-469.07713671981492
 10
417.15787678689685
 20
-475.34557831361781
 10
426.04355113068323
 20
-480.56563095634374
 10
435.17978082660557
 20
-485.00729737088932
 10
445.17099837363003
 20
-488.65841527244174
  0
LWPOLYLINE
  5
1BE
100
AcDbEntity
  8
ARJ70-0804
370
              15
390
0
  6
Continuous
 62
               7
100
AcDbPolyline
 90
       12
 70
             128
 10
515.02686376704696
 20
-488.65841527244174
 10
525.0
 20
-485.0
 10
534.14656187539185
 20
-480.56563095634374
 10
543.02190403970872
 20
-475.34557831361781
 10
551.06550575672918
 20
-469.07713671981492
 10
558.54858673752733
 20
-462.03517381175698
 10
564.92095842535309
 20
-454.19050010589172
 10
570.46933880048527
 20
-445.83987535170854
 10
574.90700988264325
 20
-436.96383989350534
 10
578.23397167182884
 20
-427.56725864520695
 10
580.72144387911521
 20
-417.91283695882476
 10
581.84506839642563
 20
-408.25841527244165
  0
LWPOLYLINE
  5
1BF
100
AcDbEntity
  8
ARJ70-0804
370
              15
390
0
  6
Continuous
 62
               7
100
AcDbPolyline
 90
        5
 70
             128
 10
378.35279374425136
 20
-408.25841527244165
 10
377.80002214263277
 20
-406.31079944243811
 10
376.68931284965947
 20
-404.92628739352222
 10
375.03358108966859
 20
-403.81557810054937
 10
373.35718497073958
 20
-403.54177534460678
  0
LWPOLYLINE
  5
1C0
100
AcDbEntity
  8
ARJ70-0804
370
              15
390
0
  6
Continuous
 62
               7
100
AcDbPolyline
 90
        5
 70
             128
 10
586.82259585586598
 20
-403.54177534460678
 10
585.15911496127319
 20
-403.82074419028368
 10
583.4956340666813
 20
-404.93145348325743
 10
582.39783999804513
 20
-406.31079944243811
 10
581.84506839642563
 20
-408.25841527244165
  0
LWPOLYLINE
  5
1C1
100
AcDbEntity
  8
ARJ70-0804
370
              15
390
0
  6
Continuous
 62
               7
100
AcDbPolyline
 90
        5
 70
             128
 10
370.03797231615681
 20
-403.54177534460678
 10
368.10068866562142
 20
-403.82074419028368
 10
366.43204168129432
 20
-404.93145348325743
 10
365.32649847805624
 20
-406.58976828811501
 10
365.04752963237934
 20
-408.53221802838425
  0
LWPOLYLINE
  5
1C2
100
AcDbEntity
  8
ARJ70-0804
370
              15
390
0
  6
Continuous
 62
               7
100
AcDbPolyline
 90
        5
 70
             128
 10
595.14516641856335
 20
-408.53221802838425
 10
594.8636145280193
 20
-406.58976828811501
 10
593.752905235046
 20
-404.93145348325743
 10
592.09717347505602
 20
-403.82074419028368
 10
590.14697460018351
 20
-403.54177534460678
  0
LINE
  5
1C3
100
AcDbEntity
  8
ARJ70-0804
370
              15
390
0
  6
Continuous
 62
               7
100
AcDbLine
 10
376.13654124803998
 20
-505.55913238176845
 30
0.0
 11
448.21640827227111
 21
-505.55913238176845
 31
0.0
  0
LINE
  5
1C4
100
AcDbEntity
  8
ARJ70-0804
370
              15
390
0
  6
Continuous
 62
               7
100
AcDbLine
 10
365.04752963237934
 20
-513.60790018852322
 30
0.0
 11
376.97603082993828
 21
-513.60790018852322
 31
0.0
  0
LINE
  5
1C5
100
AcDbEntity
  8
ARJ70-0804
370
              15
390
0
  6
Continuous
 62
               7
100
AcDbLine
 10
448.21640827227111
 20
-505.55913238176845
 30
0.0
 11
448.21640827227111
 21
-508.61229141501144
 31
0.0
  0
LWPOLYLINE
  5
1C6
100
AcDbEntity
  8
ARJ70-0804
370
              15
390
0
  6
Continuous
 62
               7
100
AcDbPolyline
 90
        7
 70
             128
 10
377.80002214263277
 20
-444.29447421725672
 10
382.79563091614546
 20
-453.39059837207742
 10
388.89678289289623
 20
-462.22510297730514
 10
395.82192618234058
 20
-470.29170575641456
 10
403.59172514341935
 20
-477.57829469321905
 10
411.9013804817796
 20
-484.06791296506026
 10
421.32174511311314
 20
-489.79447421725672
  0
LINE
  5
1C7
100
AcDbEntity
  8
ARJ70-0804
370
              15
390
0
  6
Continuous
 62
               7
100
AcDbLine
 10
373.9280378864305
 20
-445.13396379915503
 30
0.0
 11
373.9280378864305
 21
-494.47528685584211
 31
0.0
  0
LWPOLYLINE
  5
1C8
100
AcDbEntity
  8
ARJ70-0804
370
              15
390
0
  6
Continuous
 62
               7
100
AcDbPolyline
 90
        4
 70
             128
 10
377.80002214263277
 20
-444.29447421725672
 10
376.41551009371688
 20
-443.18376492428297
 10
374.74686310938978
 20
-443.46273376996032
 10
373.9280378864305
 20
-445.13396379915503
  0
LINE
  5
1C9
100
AcDbEntity
  8
ARJ70-0804
370
              15
390
0
  6
Continuous
 62
               7
100
AcDbLine
 10
376.13654124803998
 20
-496.6889563071868
 30
0.0
 11
420.21620190987505
 21
-496.6889563071868
 31
0.0
  0
LWPOLYLINE
  5
1CA
100
AcDbEntity
  8
ARJ70-0804
370
              15
390
0
  6
Continuous
 62
               7
100
AcDbPolyline
 90
        3
 70
             128
 10
373.9280378864305
 20
-494.47528685584211
 10
374.74686310938978
 20
-496.13876775043445
 10
376.13654124803998
 20
-496.6889563071868
  0
LWPOLYLINE
  5
1CB
100
AcDbEntity
  8
ARJ70-0804
370
              15
390
0
  6
Continuous
 62
               7
100
AcDbPolyline
 90
        4
 70
             128
 10
376.13654124803998
 20
-505.56429847150321
 10
374.74686310938978
 20
-506.1170700731227
 10
373.9280378864305
 20
-507.5119143015072
 10
373.9280378864305
 20
-513.61306627825797
  0
LINE
  5
1CC
100
AcDbEntity
  8
ARJ70-0804
370
              15
390
0
  6
Continuous
 62
               7
100
AcDbLine
 10
448.21640827227111
 20
-508.6174575047462
 30
0.0
 11
457.09175043658797
 21
-508.6174575047462
 31
0.0
  0
LINE
  5
1CD
100
AcDbEntity
  8
ARJ70-0804
370
              15
390
0
  6
Continuous
 62
               7
100
AcDbLine
 10
584.04840566829989
 20
-505.56429847150321
 30
0.0
 11
511.97370473380397
 21
-505.56429847150321
 31
0.0
  0
LINE
  5
1CE
100
AcDbEntity
  8
ARJ70-0804
370
              15
390
0
  6
Continuous
 62
               7
100
AcDbLine
 10
584.04840566829989
 20
-496.69670544178871
 30
0.0
 11
539.97391109620003
 21
-496.69670544178871
 31
0.0
  0
LINE
  5
1CF
100
AcDbEntity
  8
ARJ70-0804
370
              15
390
0
  6
Continuous
 62
               7
100
AcDbLine
 10
586.26982425424649
 20
-445.13912988888933
 30
0.0
 11
586.26982425424649
 21
-494.48820208017924
 31
0.0
  0
LWPOLYLINE
  5
1D0
100
AcDbEntity
  8
ARJ70-0804
370
              15
390
0
  6
Continuous
 62
               7
100
AcDbPolyline
 90
        4
 70
             128
 10
586.26982425424649
 20
-513.61306627825797
 10
586.26982425424649
 20
-507.5119143015072
 10
585.44583294155291
 20
-506.1170700731227
 10
584.04840566829989
 20
-505.56429847150321
  0
LWPOLYLINE
  5
1D1
100
AcDbEntity
  8
ARJ70-0804
370
              15
390
0
  6
Continuous
 62
               7
100
AcDbPolyline
 90
        3
 70
             128
 10
584.04840566829989
 20
-496.69670544178871
 10
585.44583294155291
 20
-496.14393384016921
 10
586.26982425424649
 20
-494.48820208017924
  0
LWPOLYLINE
  5
1D2
100
AcDbEntity
  8
ARJ70-0804
370
              15
390
0
  6
Continuous
 62
               7
100
AcDbPolyline
 90
        7
 70
             128
 10
538.86320180322673
 20
-489.80222335185908
 10
548.29648165889739
 20
-484.07535720341866
 10
556.60613699725764
 20
-477.58054834387212
 10
564.3707698686012
 20
-470.30083904773755
 10
571.30107924778167
 20
-462.23865184722717
 10
577.40223122453244
 20
-453.40367687118578
 10
582.39783999804513
 20
-444.30222335185908
  0
LWPOLYLINE
  5
1D3
100
AcDbEntity
  8
ARJ70-0804
370
              15
390
0
  6
Continuous
 62
               7
100
AcDbPolyline
 90
        4
 70
             128
 10
538.86320180322673
 20
-489.80222335185908
 10
536.48142456746064
 20
-492.19237702154533
 10
536.97568834856384
 20
-495.19526263504122
 10
539.97391109620003
 20
-496.69670544178871
  0
LWPOLYLINE
  5
1D4
100
AcDbEntity
  8
ARJ70-0804
370
              15
390
0
  6
Continuous
 62
               7
100
AcDbPolyline
 90
        4
 70
             128
 10
586.26982425424649
 20
-445.13912988888933
 10
585.44583294155291
 20
-443.47564899429744
 10
583.7746029123582
 20
-443.19151405888533
 10
582.39783999804513
 20
-444.30222335185908
  0
LWPOLYLINE
  5
1D5
100
AcDbEntity
  8
ARJ70-0804
370
              15
390
0
  6
Continuous
 62
               7
100
AcDbPolyline
 90
        3
 70
             128
 10
503.10094561435471
 20
-508.6174575047462
 10
511.97370473380397
 20
-508.6174575047462
 10
511.97370473380397
 20
-505.56429847150321
  0
LINE
  5
1D6
100
AcDbEntity
  8
ARJ70-0804
370
              15
390
0
  6
Continuous
 62
               7
100
AcDbLine
 10
370.03797231615681
 20
-403.55469056894344
 30
0.0
 11
373.35718497073958
 21
-403.55469056894344
 31
0.0
  0
LINE
  5
1D7
100
AcDbEntity
  8
ARJ70-0804
370
              15
390
0
  6
Continuous
 62
               7
100
AcDbLine
 10
420.21620190987505
 20
-505.56429847150321
 30
0.0
 11
428.8048260939122
 21
-505.56429847150321
 31
0.0
  0
LINE
  5
1D8
100
AcDbEntity
  8
ARJ70-0804
370
              15
390
0
  6
Continuous
 62
               7
100
AcDbLine
 10
371.70145321074961
 20
-403.54177534460678
 30
0.0
 11
590.14697460018351
 21
-403.54177534460678
 31
0.0
  0
CIRCLE
  5
1D9
100
AcDbEntity
  8
ARJ70-0804
370
              15
390
0
  6
Continuous
 62
               7
100
AcDbCircle
 10
-654.0284094764902
 20
697.28097757114119
 30
0.0
 40
17.5
  0
CIRCLE
  5
1DA
100
AcDbEntity
  8
ARJ70-0804
370
              15
390
0
  6
Continuous
 62
               7
100
AcDbCircle
 10
-460.02840947649293
 20
697.28097757114119
 30
0.0
 40
35.0
  0
CIRCLE
  5
1DB
100
AcDbEntity
  8
ARJ70-0804
370
              15
390
0
  6
Continuous
 62
               7
100
AcDbCircle
 10
-460.02840947649293
 20
697.28097757114119
 30
0.0
 40
23.0
  0
LINE
  5
1DC
100
AcDbEntity
  8
ARJ70-0804
370
              15
390
0
  6
Continuous
 62
               7
100
AcDbLine
 10
-290.0
 20
-513.59498496418701
 30
0.0
 11
-690.0284094764902
 21
-513.59498496418701
 31
0.0
  0
LINE
  5
1DD
100
AcDbEntity
  8
ARJ70-0804
370
              15
390
0
  6
Continuous
 62
               7
100
AcDbLine
 10
-290.0
 20
-513.59498496418701
 30
0.0
 11
-290.0
 21
-408.59498496418701
 31
0.0
  0
LINE
  5
1DE
100
AcDbEntity
  8
ARJ70-0804
370
              15
390
0
  6
Continuous
 62
               7
100
AcDbLine
 10
-690.0284094764902
 20
-513.59498496418701
 30
0.0
 11
-690.0284094764902
 21
-408.59498496418701
 31
0.0
  0
LINE
  5
1DF
100
AcDbEntity
  8
ARJ70-0804
370
              15
390
0
  6
Continuous
 62
               7
100
AcDbLine
 10
-295.0
 20
-403.59498496418701
 30
0.0
 11
-685.0284094764902
 21
-403.59498496418701
 31
0.0
  0
ARC
  5
1E0
100
AcDbEntity
  8
ARJ70-0804
370
              15
390
0
  6
Continuous
 62
               7
100
AcDbCircle
 10
-295.0
 20
-408.59498496418701
 30
0.0
 40
5.0
100
AcDbArc
 50
0.0
 51
90.0
  0
ARC
  5
1E1
100
AcDbEntity
  8
ARJ70-0804
370
              15
390
0
  6
Continuous
 62
               7
100
AcDbCircle
 10
-685.0284094764902
 20
-408.59498496418701
 30
0.0
 40
5.0
100
AcDbArc
 50
90.0
 51
180.0
  0
LINE
  5
1E2
100
AcDbEntity
  8
ARJ70-0804
370
              15
390
0
  6
Continuous
 62
               7
100
AcDbLine
 10
-436.92100901169033
 20
-508.59498496418701
 30
0.0
 11
-482.9405363689275
 21
-508.59498496418701
 31
0.0
  0
LINE
  5
1E3
100
AcDbEntity
  8
ARJ70-0804
370
              15
390
0
  6
Continuous
 62
               7
100
AcDbLine
 10
-436.92100901169033
 20
-501.67939899096427
 30
0.0
 11
-436.92100901169033
 21
-508.59498496418701
 31
0.0
  0
LINE
  5
1E4
100
AcDbEntity
  8
ARJ70-0804
370
              15
390
0
  6
Continuous
 62
               7
100
AcDbLine
 10
-436.92100901169033
 20
-501.67939899096427
 30
0.0
 11
-482.9405363689275
 21
-501.67939899096427
 31
0.0
  0
LINE
  5
1E5
100
AcDbEntity
  8
ARJ70-0804
370
              15
390
0
  6
Continuous
 62
               7
100
AcDbLine
 10
-482.9405363689275
 20
-508.59498496418701
 30
0.0
 11
-482.9405363689275
 21
-501.67939899096427
 31
0.0
  0
LINE
  5
1E6
100
AcDbEntity
  8
ARJ70-0804
370
              15
390
0
  6
Continuous
 62
               7
100
AcDbLine
 10
-482.9405363689275
 20
-501.67939899096427
 30
0.0
 11
-495.12992509809192
 21
-493.64354640854617
 31
0.0
  0
LINE
  5
1E7
100
AcDbEntity
  8
ARJ70-0804
370
              15
390
0
  6
Continuous
 62
               7
100
AcDbLine
 10
-436.92100901169033
 20
-501.67939899096427
 30
0.0
 11
-424.99767390386569
 21
-493.63579727394381
 31
0.0
  0
LINE
  5
1E8
100
AcDbEntity
  8
ARJ70-0804
370
              15
390
0
  6
Continuous
 62
               7
100
AcDbLine
 10
-424.93077269030891
 20
-493.63579727394381
 30
0.0
 11
-494.930772690308
 21
-493.63579727394381
 31
0.0
  0
SPLINE
  5
1E9
100
AcDbEntity
  8
ARJ70-0804
370
              15
390
0
  6
Continuous
 62
               7
100
AcDbSpline
210
0.0
220
0.0
230
1.0
 70
               8
 71
               2
 72
               6
 73
               3
 74
               0
 42
0.000001
 43
0.000001
 40
0.0
 40
0.0
 40
0.0
 40
1.0
 40
1.0
 40
1.0
 10
-303.02629526619603
 20
-403.54177534460678
 30
0.0
 10
-339.12142408890304
 20
-482.07092076289905
 30
0.0
 10
-424.99767390386569
 20
-493.63579727394381
 30
0.0
  0
SPLINE
  5
1EA
100
AcDbEntity
  8
ARJ70-0804
370
              15
390
0
  6
Continuous
 62
               7
100
AcDbSpline
210
0.0
220
0.0
230
1.0
 70
               8
 71
               2
 72
               6
 73
               3
 74
               0
 42
0.000001
 43
0.000001
 40
0.0
 40
0.0
 40
0.0
 40
1.0
 40
1.0
 40
1.0
 10
-616.83525011441907
 20
-403.54177534460678
 30
0.0
 10
-580.74012129171115
 20
-482.07092076289905
 30
0.0
 10
-494.86387147675123
 20
-493.63579727394381
 30
0.0
  0
LINE
  5
1EB
100
AcDbEntity
  8
ARJ70-0804
370
              15
390
0
  6
STYLE_13
 62
               7
100
AcDbLine
 10
-305.03839410374167
 20
-483.59498496418701
 30
0.0
 11
-345.03839410374167
 21
-483.59498496418701
 31
0.0
  0
LINE
  5
1EC
100
AcDbEntity
  8
ARJ70-0804
370
              15
390
0
  6
STYLE_13
 62
               7
100
AcDbLine
 10
-325.03839410374167
 20
-503.59498496418701
 30
0.0
 11
-325.03839410374167
 21
-463.59498496418701
 31
0.0
  0
LWPOLYLINE
  5
1ED
100
AcDbEntity
  8
ARJ70-0804
370
              15
390
0
  6
STYLE_13
 62
               7
100
AcDbPolyline
 90
       10
 70
             128
 10
-618.06287842659367
 20
-483.67815931019504
 10
-617.51010682497417
 20
-480.6224172320849
 10
-615.56765708470539
 20
-477.84306095478405
 10
-613.08018487741811
 20
-476.19249528452883
 10
-610.01927670957321
 20
-475.63455759317412
 10
-606.96611767633021
 20
-476.19249528452883
 10
-604.48381155877814
 20
-477.84306095478405
 10
-602.54136181850936
 20
-480.6224172320849
 10
-601.98342412715556
 20
-483.67815931019504
 10
-601.98342412715556
 20
-513.62081541286034
  0
LINE
  5
1EE
100
AcDbEntity
  8
ARJ70-0804
370
              15
390
0
  6
STYLE_13
 62
               7
100
AcDbLine
 10
-590.02315127687507
 20
-483.59498496418701
 30
0.0
 11
-630.02315127687507
 21
-483.59498496418701
 31
0.0
  0
LINE
  5
1EF
100
AcDbEntity
  8
ARJ70-0804
370
              15
390
0
  6
STYLE_13
 62
               7
100
AcDbLine
 10
-610.02315127687507
 20
-503.59498496418701
 30
0.0
 11
-610.02315127687507
 21
-463.59498496418701
 31
0.0
  0
LINE
  5
1F0
100
AcDbEntity
  8
ARJ70-0804
370
              15
390
0
  6
Continuous
 62
               7
100
AcDbLine
 10
-669.05163328110211
 20
-418.59498496418701
 30
0.0
 11
-669.05163328110211
 21
-403.59498496418701
 31
0.0
  0
LINE
  5
1F1
100
AcDbEntity
  8
ARJ70-0804
370
              15
390
0
  6
Continuous
 62
               7
100
AcDbLine
 10
-639.05163328110211
 20
-418.59498496418701
 30
0.0
 11
-639.05163328110211
 21
-403.59498496418701
 31
0.0
  0
LWPOLYLINE
  5
1F2
100
AcDbEntity
  8
ARJ70-0804
370
               5
390
0
  6
STYLE_13
 62
               7
100
AcDbPolyline
 90
        4
 70
             129
 10
626.41611018880621
 20
812.32721291936627
 10
626.41611018880621
 20
582.23474222291611
 10
226.38770071231056
 20
582.23474222291611
 10
226.38770071231056
 20
812.32721291936627
  0
CIRCLE
  5
1F3
100
AcDbEntity
  8
ARJ70-0804
370
               5
390
0
  6
STYLE_13
 62
               7
100
AcDbCircle
 10
262.38770071231102
 20
697.28097757114119
 30
0.0
 40
15.000000000000455
  0
CIRCLE
  5
1F4
100
AcDbEntity
  8
ARJ70-0804
370
               5
390
0
  6
STYLE_13
 62
               7
100
AcDbCircle
 10
456.38770071231374
 20
697.28097757114119
 30
0.0
 40
23.000000000000455
  0
POLYLINE
  5
1F5
100
AcDbEntity
  8
ARJ70-0804
370
              15
390
0
  6
Continuous
 62
               7
100
AcDb2dPolyline
 66
               1
 10
0.0
 20
0.0
 30
0.0
 70
               1
 75
               5
  0
VERTEX
  5
1F6
100
AcDbEntity
  8
ARJ70-0804
370
              15
390
0
  6
Continuous
 62
               7
100
AcDbVertex
100
AcDb2dVertex
 10
401.36447690770137
 20
752.31369242681842
 30
0.0
  0
VERTEX
  5
1F7
100
AcDbEntity
  8
ARJ70-0804
370
              15
390
0
  6
Continuous
 62
               7
100
AcDbVertex
100
AcDb2dVertex
 10
511.36447690770228
 20
752.31369242681842
 30
0.0
  0
VERTEX
  5
1F8
100
AcDbEntity
  8
ARJ70-0804
370
              15
390
0
  6
Continuous
 62
               7
100
AcDbVertex
100
AcDb2dVertex
 10
511.36447690770228
 20
642.31369242681842
 30
0.0
  0
VERTEX
  5
1F9
100
AcDbEntity
  8
ARJ70-0804
370
              15
390
0
  6
Continuous
 62
               7
100
AcDbVertex
100
AcDb2dVertex
 10
401.36447690770137
 20
642.31369242681842
 30
0.0
  0
SEQEND
  5
1FA
100
AcDbEntity
  8
ARJ70-0804
370
              15
390
0
  6
Continuous
 62
               7
  0
POLYLINE
  5
1FB
100
AcDbEntity
  8
ARJ70-0804
370
              15
390
0
  6
Continuous
 62
               7
100
AcDb2dPolyline
 66
               1
 10
0.0
 20
0.0
 30
0.0
 70
               1
 75
               5
  0
VERTEX
  5
1FC
100
AcDbEntity
  8
ARJ70-0804
370
              15
390
0
  6
Continuous
 62
               7
100
AcDbVertex
100
AcDb2dVertex
 10
241.36447690769864
 20
752.31369242681842
 30
0.0
  0
VERTEX
  5
1FD
100
AcDbEntity
  8
ARJ70-0804
370
              15
390
0
  6
Continuous
 62
               7
100
AcDbVertex
100
AcDb2dVertex
 10
351.36447690770046
 20
752.31369242681842
 30
0.0
  0
VERTEX
  5
1FE
100
AcDbEntity
  8
ARJ70-0804
370
              15
390
0
  6
Continuous
 62
               7
100
AcDbVertex
100
AcDb2dVertex
 10
351.36447690770046
 20
642.31369242681842
 30
0.0
  0
VERTEX
  5
1FF
100
AcDbEntity
  8
ARJ70-0804
370
              15
390
0
  6
Continuous
 62
               7
100
AcDbVertex
100
AcDb2dVertex
 10
241.36447690769864
 20
642.31369242681842
 30
0.0
  0
SEQEND
  5
200
100
AcDbEntity
  8
ARJ70-0804
370
              15
390
0
  6
Continuous
 62
               7
  0
LWPOLYLINE
  5
201
100
AcDbEntity
  8
ARJ70-0804
370
              15
390
0
  6
Continuous
 62
               7
100
AcDbPolyline
 90
        4
 70
             128
 10
421.32949424771596
 20
-489.80222335185908
 10
423.71127148348205
 20
-492.19237702154533
 10
423.2170077023784
 20
-495.19526263504122
 10
420.21878495474266
 20
-496.69670544178871
  0
LINE
  5
202
100
AcDbEntity
  8
ARJ70-0804
370
              15
390
0
  6
Continuous
 62
               7
100
AcDbLine
 10
179.04623534822508
 20
812.90674093019811
 30
0.0
 11
200.95376465177492
 21
834.81427023374818
 31
0.0
  0
LINE
  5
203
100
AcDbEntity
  8
ARJ70-0804
370
              15
390
0
  6
Continuous
 62
               7
100
AcDbLine
 10
199.04623534822508
 20
812.90674093019811
 30
0.0
 11
220.95376465177492
 21
834.81427023374818
 31
0.0
  0
LINE
  5
204
100
AcDbEntity
  8
ARJ70-0804
370
              15
390
0
  6
Continuous
 62
               7
100
AcDbLine
 10
219.04623534822508
 20
812.90674093019811
 30
0.0
 11
240.95376465177492
 21
834.81427023374818
 31
0.0
  0
LINE
  5
205
100
AcDbEntity
  8
ARJ70-0804
370
              15
390
0
  6
Continuous
 62
               7
100
AcDbLine
 10
-728.95376465177469
 20
812.98119156241762
 30
0.0
 11
-707.04623534822531
 21
834.88872086596757
 31
0.0
  0
LINE
  5
206
100
AcDbEntity
  8
ARJ70-0804
370
              15
390
0
  6
Continuous
 62
               7
100
AcDbLine
 10
-708.95376465177469
 20
812.98119156241762
 30
0.0
 11
-687.04623534822531
 21
834.88872086596757
 31
0.0
  0
LINE
  5
207
100
AcDbEntity
  8
ARJ70-0804
370
              15
390
0
  6
Continuous
 62
               7
100
AcDbLine
 10
-688.95376465177469
 20
812.98119156241762
 30
0.0
 11
-667.04623534822531
 21
834.88872086596757
 31
0.0
  0
MTEXT
  5
208
100
AcDbEntity
  8
ARJ70-0804
390
0
 62
               7
100
AcDbMText
 10
-488.02425945679443
 20
-1069.0598828125001
 30
0.0
 40
24.432617187500004
 41
0.0
 71
               1
 72
               1
  1
※こちらの商品は壁に向かって右にシンクがあります(R.type)。左シンク(L.type)はARJ70-0805です。
  7
ＭＳ ゴシック
 73
               1
 44
1.1742401076386764
  0
ENDSEC
  0
SECTION
  2
OBJECTS
  0
DICTIONARY
  5
19
100
AcDbDictionary
280
               0
281
               1
  3
ACAD_GROUP
350
1A
  3
ACAD_MLINESTYLE
350
1B
  3
ACAD_LAYOUT
350
1E
  3
ACAD_PLOTSETTINGS
350
22
  3
ACAD_PLOTSTYLENAME
350
1F
  0
DICTIONARY
  5
1A
102
{ACAD_REACTORS
330
19
102
}
100
AcDbDictionary
280
               0
281
               1
  0
DICTIONARY
  5
1B
102
{ACAD_REACTORS
330
19
102
}
100
AcDbDictionary
280
               0
281
               1
  3
Standard
350
1C
  0
MLINESTYLE
  5
1C
102
{ACAD_REACTORS
330
1B
102
}
100
AcDbMlineStyle
  2
Standard
 70
               0
  3

 62
               0
 51
90.0
 52
90.0
 71
               2
 49
0.5
 62
             256
  6
ByLayer
 49
-0.5
 62
             256
  6
ByLayer
  0
ACDBDICTIONARYWDFLT
  5
1F
102
{ACAD_REACTORS
330
19
102
}
100
AcDbDictionary
281
               1
  3
Normal
350
1D
100
AcDbDictionaryWithDefault
340
1D
  0
ACDBPLACEHOLDER
  5
1D
102
{ACAD_REACTORS
330
1F
102
}
  0
LAYOUT
  5
20
102
{ACAD_REACTORS
330
1E
102
}
100
AcDbPlotSettings
  1

  2

  4

  6

 40
0.0
 41
0.0
 42
0.0
 43
0.0
 44
0.0
 45
0.0
 46
0.0
 47
0.0
 48
0.0
 49
0.0
140
0.0
141
0.0
142
1.0
143
1.0
 70
            1024
 72
               0
 73
               0
 74
               0
  7

 75
               0
147
1.0
148
0.0
149
0.0
100
AcDbLayout
  1
Model
 70
               0
 71
               0
 10
0.0
 20
0.0
 11
0.0
 21
0.0
 12
0.0
 22
0.0
 32
0.0
 14
0.0
 24
0.0
 34
0.0
 15
0.0
 25
0.0
 35
0.0
146
0.0
 13
0.0
 23
0.0
 33
0.0
 16
0.0
 26
0.0
 36
0.0
 17
0.0
 27
0.0
 37
0.0
 76
               0
330
A
331
0
345
0
346
0
  0
LAYOUT
  5
21
102
{ACAD_REACTORS
330
1E
102
}
100
AcDbPlotSettings
  1

  2

  4

  6

 40
0.0
 41
0.0
 42
0.0
 43
0.0
 44
0.0
 45
0.0
 46
0.0
 47
0.0
 48
0.0
 49
0.0
140
0.0
141
0.0
142
1.0
143
1.0
 70
               0
 72
               0
 73
               0
 74
               0
  7

 75
               0
147
1.0
148
0.0
149
0.0
100
AcDbLayout
  1
Layout1
 70
               0
 71
               0
 10
0.0
 20
0.0
 11
0.0
 21
0.0
 12
0.0
 22
0.0
 32
0.0
 14
0.0
 24
0.0
 34
0.0
 15
0.0
 25
0.0
 35
0.0
146
0.0
 13
0.0
 23
0.0
 33
0.0
 16
0.0
 26
0.0
 36
0.0
 17
0.0
 27
0.0
 37
0.0
 76
               0
330
B
331
0
345
0
346
0
  0
DICTIONARY
  5
1E
102
{ACAD_REACTORS
330
19
102
}
100
AcDbDictionary
280
               0
281
               1
  3
Layout1
350
21
  3
Model
350
20
  0
DICTIONARY
  5
22
102
{ACAD_REACTORS
330
19
102
}
100
AcDbDictionary
280
               0
281
               1
  0
ENDSEC
  0
EOF
