  0
SECTION
  2
HEADER
  9
$ACADVER
  1
AC1015
  9
$ACADMAINTVER
 70
               6
  9
$DWGCODEPAGE
  3
ANSI_932
  9
$INSBASE
 10
0.0
 20
0.0
 30
0.0
  9
$EXTMIN
 10
-1050.0
 20
-1485.0000000000002
 30
-14.834305555555554
  9
$EXTMAX
 10
1660.4559298168651
 20
1485.0
 30
14.834305555555554
  9
$LIMMIN
 10
0.0
 20
0.0
  9
$LIMMAX
 10
0.0
 20
0.0
  9
$ORTHOMODE
 70
               0
  9
$REGENMODE
 70
               1
  9
$FILLMODE
 70
               1
  9
$QTEXTMODE
 70
               0
  9
$MIRRTEXT
 70
               1
  9
$LTSCALE
 40
25.399999999999999
  9
$ATTMODE
 70
               1
  9
$TEXTSIZE
 40
0.2
  9
$TRACEWID
 40
1.0
  9
$TEXTSTYLE
  7
Standard
  9
$CLAYER
  8
notes
  9
$CELTYPE
  6
Continuous
  9
$CECOLOR
 62
             256
  9
$CELTSCALE
 40
1.0
  9
$DISPSILH
 70
               0
  9
$DIMSCALE
 40
1.0
  9
$DIMASZ
 40
31.75
  9
$DIMEXO
 40
0.0
  9
$DIMDLI
 40
6.9999999999999396
  9
$DIMRND
 40
0.0
  9
$DIMDLE
 40
0.0
  9
$DIMEXE
 40
19.999999999996199
  9
$DIMTP
 40
0.0
  9
$DIMTM
 40
0.0
  9
$DIMTXT
 40
24.432617187500004
  9
$DIMCEN
 40
0.0
  9
$DIMTSZ
 40
0.0
  9
$DIMTOL
 70
               0
  9
$DIMLIM
 70
               0
  9
$DIMTIH
 70
               0
  9
$DIMTOH
 70
               0
  9
$DIMSE1
 70
               0
  9
$DIMSE2
 70
               0
  9
$DIMTAD
 70
               1
  9
$DIMZIN
 70
              11
  9
$DIMBLK
  1
VW_FILLEDARROW
  9
$DIMASO
 70
               1
  9
$DIMSHO
 70
               1
  9
$DIMPOST
  1
<>
  9
$DIMAPOST
  1
[]
  9
$DIMALT
 70
               0
  9
$DIMALTD
 70
               1
  9
$DIMALTF
 40
1.0
  9
$DIMLFAC
 40
1.0
  9
$DIMTOFL
 70
               0
  9
$DIMTVP
 40
0.0
  9
$DIMTIX
 70
               1
  9
$DIMSOXD
 70
               0
  9
$DIMSAH
 70
               0
  9
$DIMBLK1
  1

  9
$DIMBLK2
  1

  9
$DIMSTYLE
  2
JIS
  9
$DIMCLRD
 70
               0
  9
$DIMCLRE
 70
               0
  9
$DIMCLRT
 70
               0
  9
$DIMTFAC
 40
1.0
  9
$DIMGAP
 40
1.00000000000108
  9
$DIMJUST
 70
               0
  9
$DIMSD1
 70
               0
  9
$DIMSD2
 70
               0
  9
$DIMTOLJ
 70
               1
  9
$DIMTZIN
 70
              11
  9
$DIMALTZ
 70
              11
  9
$DIMALTTZ
 70
              11
  9
$DIMUPT
 70
               0
  9
$DIMDEC
 70
               1
  9
$DIMTDEC
 70
               1
  9
$DIMALTU
 70
               2
  9
$DIMALTTD
 70
               2
  9
$DIMTXSTY
  7
ＭＳ ゴシック
  9
$DIMAUNIT
 70
               0
  9
$DIMADEC
 70
               2
  9
$DIMALTRND
 40
0.0
  9
$DIMAZIN
 70
               0
  9
$DIMDSEP
 70
              46
  9
$DIMATFIT
 70
               0
  9
$DIMFRAC
 70
               2
  9
$DIMLDRBLK
  1

  9
$DIMLUNIT
 70
               2
  9
$DIMLWD
 70
              -2
  9
$DIMLWE
 70
              -2
  9
$DIMTMOVE
 70
               0
  9
$LUNITS
 70
               2
  9
$LUPREC
 70
               4
  9
$SKETCHINC
 40
0.1
  9
$FILLETRAD
 40
0.0
  9
$AUNITS
 70
               0
  9
$AUPREC
 70
               0
  9
$MENU
  1
acad
  9
$ELEVATION
 40
0.0
  9
$PELEVATION
 40
0.0
  9
$THICKNESS
 40
0.0
  9
$LIMCHECK
 70
               0
  9
$CHAMFERA
 40
0.0
  9
$CHAMFERB
 40
0.0
  9
$CHAMFERC
 40
0.0
  9
$CHAMFERD
 40
0.0
  9
$SKPOLY
 70
               0
  9
$TDCREATE
 40
2455922.554247685
  9
$TDUCREATE
 40
0.000000000
  9
$TDUPDATE
 40
2455922.554247685
  9
$TDUUPDATE
 40
0.000000000
  9
$TDINDWG
 40
0.0000000000
  9
$TDUSRTIMER
 40
0.0000000000
  9
$USRTIMER
 70
               1
  9
$ANGBASE
 50
0.0
  9
$ANGDIR
 70
               0
  9
$PDMODE
 70
               1
  9
$PDSIZE
 40
-2.0
  9
$PLINEWID
 40
0.0
  9
$SPLFRAME
 70
               0
  9
$SPLINETYPE
 70
               6
  9
$SPLINESEGS
 70
               8
  9
$HANDSEED
  5
201
  9
$SURFTAB1
 70
               6
  9
$SURFTAB2
 70
               6
  9
$SURFTYPE
 70
               6
  9
$SURFU
 70
               6
  9
$SURFV
 70
               6
  9
$UCSBASE
  2

  9
$UCSNAME
  2

  9
$UCSORG
 10
0.0
 20
0.0
 30
0.0
  9
$UCSXDIR
 10
1.0
 20
0.0
 30
0.0
  9
$UCSYDIR
 10
0.0
 20
1.0
 30
0.0
  9
$UCSORTHOREF
  2

  9
$UCSORTHOVIEW
 70
               0
  9
$UCSORGTOP
 10
0.0
 20
0.0
 30
0.0
  9
$UCSORGBOTTOM
 10
0.0
 20
0.0
 30
0.0
  9
$UCSORGLEFT
 10
0.0
 20
0.0
 30
0.0
  9
$UCSORGRIGHT
 10
0.0
 20
0.0
 30
0.0
  9
$UCSORGFRONT
 10
0.0
 20
0.0
 30
0.0
  9
$UCSORGBACK
 10
0.0
 20
0.0
 30
0.0
  9
$PUCSBASE
  2

  9
$PUCSNAME
  2

  9
$PUCSORG
 10
0.0
 20
0.0
 30
0.0
  9
$PUCSXDIR
 10
1.0
 20
0.0
 30
0.0
  9
$PUCSYDIR
 10
0.0
 20
1.0
 30
0.0
  9
$PUCSORTHOREF
  2

  9
$PUCSORTHOVIEW
 70
               0
  9
$PUCSORGTOP
 10
0.0
 20
0.0
 30
0.0
  9
$PUCSORGBOTTOM
 10
0.0
 20
0.0
 30
0.0
  9
$PUCSORGLEFT
 10
0.0
 20
0.0
 30
0.0
  9
$PUCSORGRIGHT
 10
0.0
 20
0.0
 30
0.0
  9
$PUCSORGFRONT
 10
0.0
 20
0.0
 30
0.0
  9
$PUCSORGBACK
 10
0.0
 20
0.0
 30
0.0
  9
$USERI1
 70
               0
  9
$USERI2
 70
               0
  9
$USERI3
 70
               0
  9
$USERI4
 70
               0
  9
$USERI5
 70
               0
  9
$USERR1
 40
0.0
  9
$USERR2
 40
0.0
  9
$USERR3
 40
0.0
  9
$USERR4
 40
0.0
  9
$USERR5
 40
0.0
  9
$WORLDVIEW
 70
               1
  9
$SHADEDGE
 70
               3
  9
$SHADEDIF
 70
              70
  9
$TILEMODE
 70
               1
  9
$MAXACTVP
 70
              64
  9
$PINSBASE
 10
0.0
 20
0.0
 30
0.0
  9
$PLIMCHECK
 70
               0
  9
$PEXTMIN
 10
1.0000000000000000E+20
 20
1.0000000000000000E+20
 30
1.0000000000000000E+20
  9
$PEXTMAX
 10
-1.0000000000000000E+20
 20
-1.0000000000000000E+20
 30
-1.0000000000000000E+20
  9
$PLIMMIN
 10
0.0
 20
0.0
  9
$PLIMMAX
 10
12.0
 20
9.0
  9
$UNITMODE
 70
               0
  9
$VISRETAIN
 70
               0
  9
$PLINEGEN
 70
               1
  9
$PSLTSCALE
 70
               0
  9
$TREEDEPTH
 70
            3020
  9
$CMLSTYLE
  2
Standard
  9
$CMLJUST
 70
               0
  9
$CMLSCALE
 40
1.0
  9
$PROXYGRAPHICS
 70
               0
  9
$MEASUREMENT
 70
               1
  9
$CELWEIGHT
370
               0
  9
$ENDCAPS
280
               0
  9
$JOINSTYLE
280
               0
  9
$LWDISPLAY
290
               1
  9
$INSUNITS
 70
               4
  9
$HYPERLINKBASE
  1

  9
$STYLESHEET
  1

  9
$XEDIT
290
               1
  9
$CEPSNTYPE
380
               0
  9
$PSTYLEMODE
290
               1
  9
$FINGERPRINTGUID
  2

  9
$VERSIONGUID
  2

  9
$EXTNAMES
290
               1
  9
$PSVPSCALE
 40
0.0
  0
ENDSEC
  0
SECTION
  2
CLASSES
  0
CLASS
  1
LWPOLYLINE
  2
AcDbPolyline
  3
AutoCAD 2000
 90
        0
280
               0
281
               1
  0
CLASS
  1
IMAGE
  2
AcDbRasterImage
  3
ISM
 90
      127
280
               0
281
               1
  0
CLASS
  1
OLE2FRAME
  2
AcDbOle2Frame
  3
AutoCAD 2000
 90
        0
280
               0
281
               1
  0
CLASS
  1
HATCH
  2
AcDbHatch
  3
AutoCAD 2000
 90
        0
280
               0
281
               1
  0
CLASS
  1
DICTIONARYVAR
  2
AcDbDictionaryVar
  3
AutoCAD 2000
 90
        0
280
               0
281
               0
  0
CLASS
  1
RASTERVARIABLES
  2
AcDbRasterVariables
  3
ISM
 90
        0
280
               0
281
               0
  0
CLASS
  1
IMAGEDEF
  2
AcDbRasterImageDef
  3
ISM
 90
        0
280
               0
281
               0
  0
CLASS
  1
IMAGEDEF_REACTOR
  2
AcDbRasterImageDefReactor
  3
ISM
 90
        1
280
               0
281
               0
  0
CLASS
  1
IDBUFFER
  2
AcDbIdBuffer
  3
AutoCAD 2000
 90
        0
280
               0
281
               0
  0
CLASS
  1
SPATIAL_FILTER
  2
AcDbSpatialFilter
  3
AutoCAD 2000
 90
        0
280
               0
281
               0
  0
CLASS
  1
XRECORD
  2
AcDbXrecord
  3
AutoCAD 2000
 90
        0
280
               0
281
               0
  0
CLASS
  1
SORTENTSTABLE
  2
AcDbSortentsTable
  3
AutoCAD 2000
 90
        0
280
               0
281
               0
  0
CLASS
  1
LAYER_INDEX
  2
AcDbLayerIndex
  3
AutoCAD 2000
 90
        0
280
               0
281
               0
  0
CLASS
  1
SPATIAL_INDEX
  2
AcDbSpatialIndex
  3
AutoCAD 2000
 90
        0
280
               0
281
               0
  0
CLASS
  1
OBJECT_PTR
  2
CAseDLPNTableRecord
  3
"ASE-LPNTableRecord"
 90
        1
280
               0
281
               0
  0
CLASS
  1
LAYOUT
  2
AcDbLayout
  3
AutoCAD 2000
 90
        0
280
               0
281
               0
  0
CLASS
  1
PLOTSETTINGS
  2
AcDbPlotSettings
  3
AutoCAD 2000
 90
        0
280
               0
281
               0
  0
CLASS
  1
ACDBDICTIONARYWDFLT
  2
AcDbDictionaryWithDefault
  3
AutoCAD 2000
 90
        0
280
               0
281
               0
  0
CLASS
  1
ACDBPLACEHOLDER
  2
AcDbPlaceHolder
  3
AutoCAD 2000
 90
        0
280
               0
281
               0
  0
ENDSEC
  0
SECTION
  2
TABLES
  0
TABLE
  2
VPORT
  5
7
100
AcDbSymbolTable
 70
               1
  0
VPORT
  5
15
100
AcDbSymbolTableRecord
100
AcDbViewportTableRecord
  2
*ACTIVE
 70
               0
 10
0.0
 20
0.0
 11
1.0
 21
1.0
 12
305.22796490843257
 22
-0.0000000000002274
 13
0.0
 23
0.0
 14
1.0
 24
1.0
 15
0.0
 25
0.0
 16
0.0
 26
0.0
 36
1.0
 17
0.0
 27
0.0
 37
0.0
 40
2970.0
 41
0.688564
 42
50.0
 43
0.0
 44
0.0
 50
0.0
 51
0.0
 71
               0
 72
            2000
 73
               1
 74
               1
 75
               0
 76
               0
 77
               0
 78
               0
281
               0
 65
               0
110
0.0
120
0.0
130
0.0
111
1.0
121
0.0
131
0.0
112
0.0
122
1.0
132
0.0
345
0
346
0
 79
               0
146
0.0
  0
ENDTAB
  0
TABLE
  2
LTYPE
  5
4
100
AcDbSymbolTable
 70
              16
  0
LTYPE
  5
11
100
AcDbSymbolTableRecord
100
AcDbLinetypeTableRecord
  2
ByBlock
 70
              64
  3

 72
              65
 73
               0
 40
0.0
  0
LTYPE
  5
12
100
AcDbSymbolTableRecord
100
AcDbLinetypeTableRecord
  2
ByLayer
 70
              64
  3

 72
              65
 73
               0
 40
0.0
  0
LTYPE
  5
13
100
AcDbSymbolTableRecord
100
AcDbLinetypeTableRecord
  2
Continuous
 70
              64
  3
Solid line
 72
              65
 73
               0
 40
0.0
  0
LTYPE
  5
3A
100
AcDbSymbolTableRecord
100
AcDbLinetypeTableRecord
  2
STYLE_01
 70
               0
  3

 72
              65
 73
               4
 40
0.078740157480315
 49
0.0492125984251968
 74
               0
 49
-0.0098425196850394
 74
               0
 49
0.0098425196850394
 74
               0
 49
-0.0098425196850394
 74
               0
  0
LTYPE
  5
3B
100
AcDbSymbolTableRecord
100
AcDbLinetypeTableRecord
  2
STYLE_02
 70
               0
  3

 72
              65
 73
               2
 40
0.0590551181102362
 49
0.0393700787401574
 74
               0
 49
-0.0196850393700788
 74
               0
  0
LTYPE
  5
3C
100
AcDbSymbolTableRecord
100
AcDbLinetypeTableRecord
  2
STYLE_03
 70
               0
  3

 72
              65
 73
               2
 40
0.7499999999999998
 49
0.5
 74
               0
 49
-0.2499999999999998
 74
               0
  0
LTYPE
  5
3D
100
AcDbSymbolTableRecord
100
AcDbLinetypeTableRecord
  2
STYLE_04
 70
               0
  3

 72
              65
 73
               4
 40
0.078740157480315
 49
0.0492125984251968
 74
               0
 49
-0.0098425196850394
 74
               0
 49
0.0098425196850394
 74
               0
 49
-0.0098425196850394
 74
               0
  0
LTYPE
  5
3E
100
AcDbSymbolTableRecord
100
AcDbLinetypeTableRecord
  2
STYLE_05
 70
               0
  3

 72
              65
 73
               2
 40
0.41656
 49
0.13885
 74
               0
 49
-0.27771
 74
               0
  0
LTYPE
  5
3F
100
AcDbSymbolTableRecord
100
AcDbLinetypeTableRecord
  2
STYLE_06
 70
               0
  3

 72
              65
 73
               4
 40
2.0832800000000002
 49
1.25
 74
               0
 49
-0.41656
 74
               0
 49
0.1388600000000001
 74
               0
 49
-0.2778600000000001
 74
               0
  0
LTYPE
  5
40
100
AcDbSymbolTableRecord
100
AcDbLinetypeTableRecord
  2
STYLE_07
 70
               0
  3

 72
              65
 73
               6
 40
3.75
 49
1.25
 74
               0
 49
-0.41656
 74
               0
 49
1.2500000000000002
 74
               0
 49
-0.4167199999999999
 74
               0
 49
0.1388600000000001
 74
               0
 49
-0.2778599999999998
 74
               0
  0
LTYPE
  5
41
100
AcDbSymbolTableRecord
100
AcDbLinetypeTableRecord
  2
STYLE_08
 70
               0
  3

 72
              65
 73
               6
 40
2.5
 49
1.25
 74
               0
 49
-0.41656
 74
               0
 49
0.1388600000000001
 74
               0
 49
-0.2778600000000001
 74
               0
 49
0.1388599999999998
 74
               0
 49
-0.2778600000000001
 74
               0
  0
LTYPE
  5
42
100
AcDbSymbolTableRecord
100
AcDbLinetypeTableRecord
  2
STYLE_09
 70
               0
  3

 72
              65
 73
               4
 40
10.0
 49
7.5
 74
               0
 49
-0.5555699999999997
 74
               0
 49
1.3888600000000006
 74
               0
 49
-0.5555699999999997
 74
               0
  0
LTYPE
  5
43
100
AcDbSymbolTableRecord
100
AcDbLinetypeTableRecord
  2
STYLE_10
 70
               0
  3

 72
              65
 73
               6
 40
11.875
 49
7.5
 74
               0
 49
-0.5555699999999997
 74
               0
 49
1.3888600000000006
 74
               0
 49
-0.5555699999999997
 74
               0
 49
1.25
 74
               0
 49
-0.625
 74
               0
  0
LTYPE
  5
44
100
AcDbSymbolTableRecord
100
AcDbLinetypeTableRecord
  2
STYLE_11
 70
               0
  3

 72
              65
 73
               2
 40
0.1388889763779528
 49
0.0694444881889764
 74
               0
 49
-0.0694444881889764
 74
               0
  0
LTYPE
  5
45
100
AcDbSymbolTableRecord
100
AcDbLinetypeTableRecord
  2
STYLE_12
 70
               0
  3

 72
              65
 73
               2
 40
0.3472222222222222
 49
0.2083333333333333
 74
               0
 49
-0.1388888888888889
 74
               0
  0
LTYPE
  5
46
100
AcDbSymbolTableRecord
100
AcDbLinetypeTableRecord
  2
STYLE_13
 70
               0
  3

 72
              65
 73
               2
 40
0.7874015748031495
 49
0.3937007874015748
 74
               0
 49
-0.3937007874015748
 74
               0
  0
ENDTAB
  0
TABLE
  2
LAYER
  5
2
100
AcDbSymbolTable
 70
               5
  0
LAYER
  5
14
100
AcDbSymbolTableRecord
100
AcDbLayerTableRecord
  2
0
 70
               0
 62
               7
  6
Continuous
290
               1
370
              -3
390
1D
  0
LAYER
  5
47
100
AcDbSymbolTableRecord
100
AcDbLayerTableRecord
  2
Defpoints
 70
               0
 62
               7
  6
Continuous
290
               0
370
              -3
390
1D
  0
LAYER
  5
48
100
AcDbSymbolTableRecord
100
AcDbLayerTableRecord
  2
template
 70
               0
 62
               7
  6
Continuous
290
               1
370
              -3
390
1D
  0
LAYER
  5
49
100
AcDbSymbolTableRecord
100
AcDbLayerTableRecord
  2
notes
 70
               0
 62
               7
  6
Continuous
290
               1
370
              -3
390
1D
  0
LAYER
  5
4A
100
AcDbSymbolTableRecord
100
AcDbLayerTableRecord
  2
ARJ70-0805
 70
               0
 62
               7
  6
Continuous
290
               1
370
              -3
390
1D
  0
ENDTAB
  0
TABLE
  2
STYLE
  5
3
100
AcDbSymbolTable
 70
               2
  0
STYLE
  5
17
100
AcDbSymbolTableRecord
100
AcDbTextStyleTableRecord
  2
Standard
 70
               0
 40
0.0
 41
1.0
 50
0.0
 71
               0
 42
0.0
  3
txt
  4
BIGFONT.SHX
  0
STYLE
  5
39
100
AcDbSymbolTableRecord
100
AcDbTextStyleTableRecord
  2
ＭＳ ゴシック
 70
               0
 40
0.0
 41
1.0
 50
0.0
 71
               0
 42
0.0
  3

  4
ＭＳ ゴシック
1001
ACAD
1000
ＭＳ ゴシック
1071
        0
  0
ENDTAB
  0
TABLE
  2
VIEW
  5
5
100
AcDbSymbolTable
 70
               0
  0
ENDTAB
  0
TABLE
  2
UCS
  5
6
100
AcDbSymbolTable
 70
               0
  0
ENDTAB
  0
TABLE
  2
APPID
  5
8
100
AcDbSymbolTable
 70
               1
  0
APPID
  5
16
100
AcDbSymbolTableRecord
100
AcDbRegAppTableRecord
  2
ACAD
 70
               0
  0
ENDTAB
  0
TABLE
  2
DIMSTYLE
  5
9
100
AcDbSymbolTable
 70
               3
100
AcDbDimStyleTable
 71
               0
  0
DIMSTYLE
105
18
100
AcDbSymbolTableRecord
100
AcDbDimStyleTableRecord
  2
Standard
 70
               0
  3

  4

 40
1.0
 41
0.18
 42
0.0625
 43
0.38
 44
0.18
 45
0.0
 46
0.0
 47
0.0
 48
0.0
 71
               0
 72
               0
 73
               1
 74
               1
 75
               0
 76
               0
 77
               0
 78
               0
 79
               0
140
0.18
141
0.09
142
0.0
143
25.399999999999999
144
1.0
145
0.0
146
1.0
147
0.09
148
0.0
170
               0
171
               2
172
               0
173
               0
174
               0
175
               0
176
               0
177
               0
178
               0
179
               0
271
               4
272
               4
273
               2
274
               2
275
               0
276
               0
277
               2
278
              46
279
               0
280
               0
281
               0
282
               0
283
               1
284
               0
285
               0
286
               0
288
               0
289
               3
340
17
341
0
342
0
343
0
344
0
371
              -2
372
              -2
  0
DIMSTYLE
105
53
100
AcDbSymbolTableRecord
100
AcDbDimStyleTableRecord
  2
tform線あり
 70
               0
  3
<>
  4
[]
 40
1.0
 41
3.999755859375
 42
24.999999999999996
 43
0.9999999999999999
 44
0.0
 45
0.0
 46
0.0
 47
0.0
 48
0.0
 71
               0
 72
               0
 73
               0
 74
               0
 75
               0
 76
               0
 77
               1
 78
              11
 79
               0
140
24.432617187500004
141
0.0
142
0.0
143
1.0
144
1.0
145
0.0
146
1.0
147
0.4999999999999999
148
0.0
170
               0
171
               1
172
               0
173
               0
174
               1
175
               0
176
               0
177
               0
178
               0
179
               2
271
               1
272
               1
273
               2
274
               2
275
               0
276
               2
277
               2
278
              46
279
               0
280
               0
281
               0
282
               0
283
               1
284
              11
285
              11
286
              11
288
               0
289
               0
340
39
341
4B
342
4B
343
0
344
0
371
              -2
372
              -2
  0
DIMSTYLE
105
58
100
AcDbSymbolTableRecord
100
AcDbDimStyleTableRecord
  2
JIS
 70
               0
  3
<>
  4
[]
 40
1.0
 41
31.75
 42
0.0
 43
6.9999999999999396
 44
19.999999999996199
 45
0.0
 46
0.0
 47
0.0
 48
0.0
 71
               0
 72
               0
 73
               0
 74
               0
 75
               0
 76
               0
 77
               1
 78
              11
 79
               0
140
24.432617187500004
141
0.0
142
0.0
143
1.0
144
1.0
145
0.0
146
1.0
147
1.00000000000108
148
0.0
170
               0
171
               1
172
               0
173
               0
174
               1
175
               0
176
               0
177
               0
178
               0
179
               2
271
               1
272
               1
273
               2
274
               2
275
               0
276
               2
277
               2
278
              46
279
               0
280
               0
281
               0
282
               0
283
               1
284
              11
285
              11
286
              11
288
               0
289
               0
340
39
341
54
342
54
343
0
344
0
371
              -2
372
              -2
  0
ENDTAB
  0
TABLE
  2
BLOCK_RECORD
  5
1
100
AcDbSymbolTable
 70
              24
  0
BLOCK_RECORD
  5
A
100
AcDbSymbolTableRecord
100
AcDbBlockTableRecord
  2
*MODEL_SPACE
340
20
  0
BLOCK_RECORD
  5
B
100
AcDbSymbolTableRecord
100
AcDbBlockTableRecord
  2
*PAPER_SPACE
340
21
  0
BLOCK_RECORD
  5
4B
100
AcDbSymbolTableRecord
100
AcDbBlockTableRecord
  2
_DOT
340
0
  0
BLOCK_RECORD
  5
54
100
AcDbSymbolTableRecord
100
AcDbBlockTableRecord
  2
VW_FILLEDARROW
340
0
  0
BLOCK_RECORD
  5
23
100
AcDbSymbolTableRecord
100
AcDbBlockTableRecord
  2
グループ
340
0
102
{BLKREFS
331
176
102
}
  0
BLOCK_RECORD
  5
24
100
AcDbSymbolTableRecord
100
AcDbBlockTableRecord
  2
*D3
340
0
  0
BLOCK_RECORD
  5
25
100
AcDbSymbolTableRecord
100
AcDbBlockTableRecord
  2
*D4
340
0
  0
BLOCK_RECORD
  5
26
100
AcDbSymbolTableRecord
100
AcDbBlockTableRecord
  2
*D5
340
0
  0
BLOCK_RECORD
  5
27
100
AcDbSymbolTableRecord
100
AcDbBlockTableRecord
  2
*D6
340
0
  0
BLOCK_RECORD
  5
28
100
AcDbSymbolTableRecord
100
AcDbBlockTableRecord
  2
*D7
340
0
  0
BLOCK_RECORD
  5
29
100
AcDbSymbolTableRecord
100
AcDbBlockTableRecord
  2
*D8
340
0
  0
BLOCK_RECORD
  5
2A
100
AcDbSymbolTableRecord
100
AcDbBlockTableRecord
  2
*D9
340
0
  0
BLOCK_RECORD
  5
2B
100
AcDbSymbolTableRecord
100
AcDbBlockTableRecord
  2
*D10
340
0
  0
BLOCK_RECORD
  5
2C
100
AcDbSymbolTableRecord
100
AcDbBlockTableRecord
  2
*D11
340
0
  0
BLOCK_RECORD
  5
2D
100
AcDbSymbolTableRecord
100
AcDbBlockTableRecord
  2
*D12
340
0
  0
BLOCK_RECORD
  5
2E
100
AcDbSymbolTableRecord
100
AcDbBlockTableRecord
  2
*D13
340
0
  0
BLOCK_RECORD
  5
2F
100
AcDbSymbolTableRecord
100
AcDbBlockTableRecord
  2
*D14
340
0
  0
BLOCK_RECORD
  5
30
100
AcDbSymbolTableRecord
100
AcDbBlockTableRecord
  2
*D15
340
0
  0
BLOCK_RECORD
  5
31
100
AcDbSymbolTableRecord
100
AcDbBlockTableRecord
  2
*D16
340
0
  0
BLOCK_RECORD
  5
32
100
AcDbSymbolTableRecord
100
AcDbBlockTableRecord
  2
*D17
340
0
  0
BLOCK_RECORD
  5
33
100
AcDbSymbolTableRecord
100
AcDbBlockTableRecord
  2
*D18
340
0
  0
BLOCK_RECORD
  5
34
100
AcDbSymbolTableRecord
100
AcDbBlockTableRecord
  2
*D19
340
0
  0
BLOCK_RECORD
  5
35
100
AcDbSymbolTableRecord
100
AcDbBlockTableRecord
  2
*D20
340
0
  0
BLOCK_RECORD
  5
36
100
AcDbSymbolTableRecord
100
AcDbBlockTableRecord
  2
*D21
340
0
  0
BLOCK_RECORD
  5
37
100
AcDbSymbolTableRecord
100
AcDbBlockTableRecord
  2
*D22
340
0
  0
BLOCK_RECORD
  5
38
100
AcDbSymbolTableRecord
100
AcDbBlockTableRecord
  2
*D23
340
0
  0
ENDTAB
  0
ENDSEC
  0
SECTION
  2
BLOCKS
  0
BLOCK
  5
D
100
AcDbEntity
  8
0
390
0
100
AcDbBlockBegin
  2
*MODEL_SPACE
 70
               0
 10
0.0
 20
0.0
 30
0.0
  3
*MODEL_SPACE
  1

  0
ENDBLK
  5
E
100
AcDbEntity
  8
0
390
0
100
AcDbBlockEnd
  0
BLOCK
  5
F
100
AcDbEntity
 67
               1
  8
0
390
0
100
AcDbBlockBegin
  2
*PAPER_SPACE
 70
               0
 10
0.0
 20
0.0
 30
0.0
  3
*PAPER_SPACE
  1

  0
ENDBLK
  5
10
100
AcDbEntity
 67
               1
  8
0
390
0
100
AcDbBlockEnd
  0
BLOCK
  5
4C
100
AcDbEntity
  8
0
390
0
100
AcDbBlockBegin
  2
_DOT
 70
               0
 10
0.0
 20
0.0
 30
0.0
  3
_DOT
  1

  0
POLYLINE
  5
4D
100
AcDbEntity
  8
0
370
              -2
390
0
  6
ByBlock
 62
               0
100
AcDb2dPolyline
 66
               1
 10
0.0
 20
0.0
 30
0.0
 70
               1
 40
0.5
 41
0.5
  0
VERTEX
  5
4E
100
AcDbEntity
  8
0
370
              -2
390
0
  6
ByBlock
 62
               0
100
AcDbVertex
100
AcDb2dVertex
 10
-0.25
 20
0.0
 30
0.0
 42
1.0
  0
VERTEX
  5
4F
100
AcDbEntity
  8
0
370
              -2
390
0
  6
ByBlock
 62
               0
100
AcDbVertex
100
AcDb2dVertex
 10
0.25
 20
0.0
 30
0.0
 42
1.0
  0
SEQEND
  5
50
100
AcDbEntity
  8
0
390
0
  0
LINE
  5
51
100
AcDbEntity
  8
0
370
              -2
390
0
  6
ByBlock
 62
               0
100
AcDbLine
 10
-0.5
 20
0.0
 30
0.0
 11
-1.0
 21
0.0
 31
0.0
  0
ENDBLK
  5
52
100
AcDbEntity
  8
0
390
0
100
AcDbBlockEnd
  0
BLOCK
  5
55
100
AcDbEntity
  8
0
370
              -2
390
0
  6
ByBlock
 62
               0
100
AcDbBlockBegin
  2
VW_FILLEDARROW
 70
               0
 10
0.0
 20
0.0
 30
0.0
  3
VW_FILLEDARROW
  1

  0
SOLID
  5
56
100
AcDbEntity
  8
0
370
              -2
390
0
 62
               0
100
AcDbTrace
 10
0.0
 20
0.0
 30
0.0
 11
-0.9921874999999999
 21
-0.2658558393652545
 31
0.0
 12
-0.9921874999999999
 22
0.2658558393652548
 32
0.0
 13
-0.9921874999999999
 23
0.2658558393652548
 33
0.0
  0
ENDBLK
  5
57
100
AcDbEntity
  8
0
390
0
100
AcDbBlockEnd
  0
BLOCK
  5
59
100
AcDbEntity
  8
template
390
0
100
AcDbBlockBegin
  2
グループ
 70
               0
 10
0.0
 20
0.0
 30
0.0
  3
グループ
  1

  0
LWPOLYLINE
  5
5A
100
AcDbEntity
  8
0
370
              15
390
0
  6
Continuous
 62
               7
100
AcDbPolyline
 90
        8
 70
             129
 10
-773.02742201379033
 20
-2433.590602835704
 10
-773.02742201379033
 20
-2439.5879915292799
 10
-782.52861893179363
 20
-2439.5879915292799
 10
-782.52861893179363
 20
-2464.0389547927884
 10
-790.88399619357642
 20
-2464.0389547927884
 10
-790.88399619357642
 20
-2439.5879915292799
 10
-800.21695313988585
 20
-2439.5879915292799
 10
-800.21695313988585
 20
-2433.590602835704
  0
LWPOLYLINE
  5
5B
100
AcDbEntity
  8
0
370
              15
390
0
  6
Continuous
 62
               7
100
AcDbPolyline
 90
      101
 70
             128
 10
-760.29913018323339
 20
-2434.3188513286404
 10
-760.28378015444423
 20
-2434.3144905719541
 42
-0.0222221607817217
 10
-759.99377557777734
 20
-2434.2458661067103
 10
-759.97798181378471
 20
-2434.2428626836136
 42
-0.0146883565593539
 10
-759.71527910855957
 20
-2434.2008594966642
 42
-0.012745884417978
 10
-759.45064014140178
 20
-2434.1733225285916
 10
-759.38818506309372
 20
-2434.1684291060037
 42
-0.0198099018561933
 10
-758.99733595361295
 20
-2434.153343948607
 10
-758.94552448417312
 20
-2434.1533977242721
 42
-0.014761738275745
 10
-758.45090102319057
 20
-2434.1685177495169
 10
-758.37820956832024
 20
-2434.1728903564044
 42
-0.0162624549000961
 10
-757.98805593885936
 20
-2434.209123231677
 10
-757.86652354761225
 20
-2434.2244097906719
 42
-0.0080020874669198
 10
-757.72094451650855
 20
-2434.2450926379415
 10
-757.6826250459452
 20
-2434.2511639157478
 42
-0.0053821929703086
 10
-757.61414094059876
 20
-2434.2627714395744
 10
-758.34054663979737
 20
-2436.4436998952883
 42
0.0108667757384722
 10
-758.40786370992225
 20
-2436.4305127800694
 10
-758.44533173311765
 20
-2436.424015037474
 42
0.0170663203297115
 10
-758.58854852002503
 20
-2436.404185440183
 10
-758.65642385271622
 20
-2436.3971382695945
 42
0.022016237527217
 10
-758.9368032605754
 20
-2436.3804559088244
 10
-759.01465882762113
 20
-2436.3792565415583
 42
0.0282606915784797
 10
-759.35029515120152
 20
-2436.393059818527
 10
-759.39420842497157
 20
-2436.3973598085304
 42
0.0169677213683156
 10
-759.64013291993274
 20
-2436.4298968580824
 42
0.0190576269857013
 10
-759.88304088251198
 20
-2436.4800437301888
 10
-759.88930007062368
 20
-2436.4815867042985
 42
0.0213685642845329
 10
-760.13968455510394
 20
-2436.554786989404
 10
-760.14517445001763
 20
-2436.5566499854622
 42
0.0237595297590247
 10
-760.39866933492124
 20
-2436.65633450736
 10
-760.403771408946
 20
-2436.6586262828359
 42
0.0261857468817042
 10
-760.65594218517799
 20
-2436.788162620212
 10
-760.66636837426233
 20
-2436.7942280946791
 42
0.0272553062018527
 10
-760.90279814950145
 20
-2436.9496003006234
 10
-760.93756116301188
 20
-2436.9752614487161
 42
0.0325996893173288
 10
-761.08771650666245
 20
-2437.1020093216866
 10
-761.11142593578666
 20
-2437.1248273502006
 42
0.013805096063586
 10
-761.20330909199561
 20
-2437.2182770117515
 42
0.0125280103814802
 10
-761.2901516248287
 20
-2437.3164403383507
 10
-761.31383206973749
 20
-2437.3445988365388
 42
0.0205218024728818
 10
-761.43893214525247
 20
-2437.5063921507699
 10
-761.4613984857383
 20
-2437.538051880595
 42
0.0163110129582211
 10
-761.61710886498781
 20
-2437.7733823156618
 10
-761.61983276104058
 20
-2437.7778060776504
 42
0.013189734189345
 10
-761.76663328194695
 20
-2438.0309381700154
 10
-761.76833337731296
 20
-2438.0340564091503
 42
0.0107895576067644
 10
-761.90611007952214
 20
-2438.3002716187821
 10
-761.90684296904874
 20
-2438.3017658514318
 42
0.0091371507221534
 10
-762.03532291769773
 20
-2438.5762910491903
 10
-762.06506854910754
 20
-2438.6429975563506
 42
0.0135418326354842
 10
-762.23678248817976
 20
-2439.0579353416206
 10
-762.2703872966141
 20
-2439.1458014839022
 42
0.0092834542413997
 10
-762.44161635653427
 20
-2439.6196999822059
 10
-762.46723348425155
 20
-2439.6949410519978
 42
0.0054261043570544
 10
-762.57487163254495
 20
-2440.0227050250642
 10
-762.59239761874653
 20
-2440.0780931873705
 42
0.0008225090812965
 10
-762.66106767055237
 20
-2440.2963619454436
 10
-763.64575680248583
 20
-2443.3212532387001
 10
-760.41313296241196
 20
-2443.3212532387001
 10
-760.91732539226541
 20
-2445.2257315370525
 10
-764.17338167424873
 20
-2445.2257315370525
 10
-770.00253070660256
 20
-2464.0389546030574
 10
-771.82762831691286
 20
-2464.0389546030574
 10
-765.99295028141194
 20
-2445.2257315370525
 10
-768.39806665045228
 20
-2445.2257315370525
 10
-767.89387422059883
 20
-2443.3212532387001
 10
-765.46532540964881
 20
-2443.3212532387001
 10
-764.60517049146017
 20
-2440.684840238001
 42
-0.0005863560628014
 10
-764.56843581327632
 20
-2440.5680138177718
 10
-764.49234797959627
 20
-2440.3270215183238
 42
-0.0087522378931911
 10
-764.29287983614108
 20
-2439.7317454311824
 10
-764.20061556072517
 20
-2439.4716052626623
 42
-0.0077400953827792
 10
-763.94268190159482
 20
-2438.7786005851167
 10
-763.9269169300153
 20
-2438.738169701729
 42
-0.0082369946331074
 10
-763.679832459404
 20
-2438.1340906355344
 42
-0.0085725238365242
 10
-763.41258636340126
 20
-2437.5386645962481
 10
-763.31095676239249
 20
-2437.32224349426
 42
-0.0168109410596916
 10
-763.02401233366368
 20
-2436.761035968158
 10
-762.89816894324338
 20
-2436.5340719352307
 42
-0.0007817726877731
 10
-762.843884593148
 20
-2436.4365276901299
 10
-762.84375628713508
 20
-2436.4362979814014
 42
-0.0036626142166294
 10
-762.78886842310953
 20
-2436.3397001014246
 42
-0.0080221150674445
 10
-762.73174416770291
 20
-2436.244420866672
 10
-762.70104421634164
 20
-2436.1950299175496
 42
-0.0202139325571632
 10
-762.57338847653511
 20
-2436.0070483168679
 10
-762.5193210113473
 20
-2435.933969452627
 42
-0.0249323791797922
 10
-762.26015821762769
 20
-2435.6179242104722
 10
-762.23601840350113
 20
-2435.5913099375603
 42
-0.024213212153847
 10
-761.89633766196027
 20
-2435.2514264513575
 10
-761.84842608920837
 20
-2435.2079173151701
 42
-0.0251017527859416
 10
-761.56444438856784
 20
-2434.9749245694056
 10
-761.56299891175354
 20
-2434.9738553118264
 42
-0.013086806904012
 10
-761.26473826179677
 20
-2434.7650748432843
 10
-761.26317644265316
 20
-2434.7640414030088
 42
-0.0290329526391955
 10
-760.95206530126075
 20
-2434.5832159013798
 10
-760.92221973927394
 20
-2434.56811351854
 42
-0.0160250190049513
 10
-760.65631532550992
 20
-2434.4440974083273
 42
-0.0267600374782046
 10
-760.38103924803715
 20
-2434.3433490877769
 10
-760.35430332852036
 20
-2434.3351565289527
 42
-0.004998158768895
 10
-760.29913018323339
 20
-2434.3188513286404
 42
-0.004998158768895
  0
LWPOLYLINE
  5
5C
100
AcDbEntity
  8
0
370
              15
390
0
  6
Continuous
 62
               7
100
AcDbPolyline
 90
      118
 70
             128
 10
-740.48476261878648
 20
-2443.3952365665273
 10
-738.60964069428701
 20
-2443.3952365665273
 10
-739.4476795998869
 20
-2446.0768030929275
 42
-0.001058722922145
 10
-739.41622378432032
 20
-2446.0398985595784
 10
-739.35802969368297
 20
-2445.9719163033965
 42
-0.0071874740410081
 10
-739.20765447558415
 20
-2445.8012756113662
 10
-739.0659317023227
 20
-2445.6450394700541
 42
-0.014811805351384
 10
-738.61580240961064
 20
-2445.1774256240419
 10
-738.52858007470411
 20
-2445.0920283031833
 42
-0.0086273358696274
 10
-738.19303127369972
 20
-2444.7746526691712
 10
-738.1491975574769
 20
-2444.7346030248409
 42
-0.0103138323112327
 10
-737.89117385524037
 20
-2444.5084398875001
 10
-737.84539944890105
 20
-2444.4699578402297
 42
-0.0060206748563155
 10
-737.67255138480107
 20
-2444.3281631894852
 10
-737.67052025390592
 20
-2444.3265374838466
 42
-0.0067069027285532
 10
-737.49822743925256
 20
-2444.1923868500589
 10
-737.4956786733195
 20
-2444.1904566801782
 42
-0.0076184352022486
 10
-737.32477340745527
 20
-2444.0650818049398
 42
-0.0089652861667499
 10
-737.14981244472108
 20
-2443.9454485446072
 10
-737.11346072457843
 20
-2443.9215373311258
 42
-0.0156916245946862
 10
-736.91750122741564
 20
-2443.8012748446499
 42
-0.0023299011072225
 10
-736.71723918345037
 20
-2443.6880969051176
 10
-736.70185505105599
 20
-2443.6794969100447
 42
-0.0107669341484356
 10
-736.46761822595693
 20
-2443.5550967766958
 10
-736.44535342487984
 20
-2443.5438800267448
 42
-0.0078058045890964
 10
-736.16176330693645
 20
-2443.4065185711106
 10
-736.15185621921796
 20
-2443.4019094432379
 42
-0.0181829330469171
 10
-735.84154681460006
 20
-2443.2710457021417
 10
-735.78749137204022
 20
-2443.2505305822006
 42
-0.0208411536028531
 10
-735.43840640458529
 20
-2443.1344401197057
 10
-735.42405030445707
 20
-2443.1303216747519
 42
-0.0222799817132611
 10
-735.09533051054063
 20
-2443.0516801086123
 10
-735.08644154729541
 20
-2443.0499680980256
 42
-0.0215509523882723
 10
-734.76997057902372
 20
-2443.0030524094927
 10
-734.72748861797072
 20
-2442.9986148827015
 42
-0.0182545924882421
 10
-734.49337983866963
 20
-2442.9827710573109
 10
-734.45397882232101
 20
-2442.9815465122319
 42
-0.0072962856528065
 10
-734.29805594263257
 20
-2442.9789771837095
 10
-734.26895627207341
 20
-2442.9789223483058
 42
-0.005922751633877
 10
-734.17120677291564
 20
-2442.9798960600961
 10
-734.14196455535796
 20
-2442.980533826701
 42
-0.0011833111845912
 10
-734.10271327171131
 20
-2442.9814828310095
 10
-734.89809986731848
 20
-2445.5202167761086
 42
0.0143932051524327
 10
-734.92450124967991
 20
-2445.5100178060593
 10
-734.93177322208635
 20
-2445.5074465872058
 42
0.0234388603467872
 10
-734.9736040880191
 20
-2445.4948273514901
 10
-734.98228575093117
 20
-2445.4926463894853
 42
0.0199162742968367
 10
-735.04257458501183
 20
-2445.4800296541503
 10
-735.06338852281738
 20
-2445.476532454722
 42
0.0293643550686322
 10
-735.16646338158068
 20
-2445.4653824090688
 10
-735.1911485622968
 20
-2445.46417079205
 42
0.0214606686848395
 10
-735.34428947824881
 20
-2445.4632322316324
 10
-735.35366138906727
 20
-2445.4635771431767
 42
0.0167564054194315
 10
-735.52518158018131
 20
-2445.4756541855459
 10
-735.53364137293465
 20
-2445.4765355259724
 42
0.0137677553236377
 10
-735.7209946861899
 20
-2445.5012848345141
 10
-735.72834642570729
 20
-2445.5024627544835
 42
0.0118497261486109
 10
-735.92884418981123
 20
-2445.5394801046737
 10
-735.93499419705586
 20
-2445.5407669673932
 42
0.0106421143885791
 10
-736.1458750843301
 20
-2445.5895993429649
 10
-736.15078389272992
 20
-2445.5908466856527
 42
0.0099746379693795
 10
-736.36924236188622
 20
-2445.6510212139656
 10
-736.43079040206271
 20
-2445.6693030925981
 42
0.0191613675857712
 10
-736.76677486457754
 20
-2445.7832804728851
 10
-736.85483463732191
 20
-2445.8169673832085
 42
0.0205274080143027
 10
-737.24014140922441
 20
-2445.9827957910356
 10
-737.29779069120809
 20
-2446.0104637556087
 42
0.018125691219882
 10
-737.55606763187336
 20
-2446.1461475745859
 10
-737.60902301518615
 20
-2446.1764651878002
 42
0.0140709242415971
 10
-737.75397794981563
 20
-2446.2649598612352
 10
-737.78022681843117
 20
-2446.2820166799488
 42
0.0086667884381884
 10
-737.86915297997666
 20
-2446.3420193478332
 42
0.0036408192016443
 10
-737.95658621801965
 20
-2446.4042002056331
 10
-737.99181309247865
 20
-2446.4296411515388
 42
0.0052260781271033
 10
-738.14804178986617
 20
-2446.5449735381699
 10
-738.16424864612941
 20
-2446.5572016487909
 42
0.0050024435887648
 10
-738.35025198918504
 20
-2446.7004842170504
 10
-738.36557014570337
 20
-2446.7125302394988
 42
0.0136138710270027
 10
-738.57601141402677
 20
-2446.8874967444103
 10
-738.60967928982222
 20
-2446.9170757171264
 42
0.0172815186916277
 10
-738.8740828314825
 20
-2447.1660723897476
 10
-738.87664517732742
 20
-2447.1686582068969
 42
0.0189403857985167
 10
-739.12722697590539
 20
-2447.4414634717
 10
-739.15985846944159
 20
-2447.4798074031974
 42
0.0185044199499174
 10
-739.35181490842251
 20
-2447.7230559843215
 42
0.0088565243905918
 10
-739.5302750150513
 20
-2447.9765724044723
 10
-739.53945299469945
 20
-2447.9901137842317
 42
0.0157195347233998
 10
-739.72267360103547
 20
-2448.2796359935505
 10
-739.76875654296305
 20
-2448.3577881905658
 42
0.0095451879785204
 10
-739.93384209310204
 20
-2448.6503828329246
 10
-739.94499001203485
 20
-2448.6710535050624
 42
0.0100351706259657
 10
-740.07703376119093
 20
-2448.9281090655472
 42
0.0086935915435057
 10
-740.1993649129854
 20
-2449.1899422109527
 10
-740.20268565439949
 20
-2449.1973845339235
 42
0.0072580174863695
 10
-740.32303210634609
 20
-2449.4779765255107
 10
-740.32629373965074
 20
-2449.4858965515245
 42
0.0060005122616681
 10
-740.44549440799324
 20
-2449.7855062221288
 10
-740.44870538633506
 20
-2449.7938677500342
 42
0.0049017786979337
 10
-740.56760554519371
 20
-2450.112796730642
 10
-740.57077135158295
 20
-2450.1215496678687
 42
0.0039415167598304
 10
-740.69020762963942
 20
-2450.4600917302819
 10
-740.69333873229175
 20
-2450.4691949311582
 42
0.0031035838768653
 10
-740.81414351798321
 20
-2450.8276347929268
 10
-740.81725356251525
 20
-2450.8370554143066
 42
0.0025070747150189
 10
-740.94015491382606
 20
-2451.2157026312366
 10
-740.97744881025596
 20
-2451.3325942965034
 42
0.0029081910289392
 10
-741.16946710807269
 20
-2451.9467579548136
 10
-741.21027027658386
 20
-2452.079981197071
 42
0.000926645373264
 10
-741.47868765088435
 20
-2452.9622056569478
 10
-741.49957512354763
 20
-2453.0313175362585
 42
-0.0005809993665711
 10
-741.77691180413035
 20
-2453.9451256428697
 10
-741.84319360240693
 20
-2454.1626105750415
 42
-0.0012018708166069
 10
-741.99017791183246
 20
-2454.6407732395501
 10
-742.04249776345375
 20
-2454.8095323805951
 42
-0.0002691059590148
 10
-742.08606724456661
 20
-2454.9498000007579
 10
-744.91902314285585
 20
-2464.0389546030574
 10
-746.73701203483438
 20
-2464.0389546030574
 10
-740.48476261878648
 20
-2443.3952365665273
  0
SPLINE
  5
5D
100
AcDbEntity
  8
0
370
              15
390
0
  6
Continuous
 62
               7
100
AcDbSpline
210
0.0
220
0.0
230
1.0
 70
              13
 71
               2
 72
             782
 73
             779
 74
               0
 42
0.000001
 43
0.000001
 40
0.0
 40
0.0
 40
0.0
 40
1.0
 40
1.0
 40
2.0
 40
2.0
 40
3.0
 40
3.0
 40
4.0
 40
4.0
 40
5.0
 40
5.0
 40
6.0
 40
6.0
 40
7.0
 40
7.0
 40
8.0
 40
8.0
 40
9.0
 40
9.0
 40
10.0
 40
10.0
 40
11.0
 40
11.0
 40
12.0
 40
12.0
 40
13.0
 40
13.0
 40
14.0
 40
14.0
 40
15.0
 40
15.0
 40
16.0
 40
16.0
 40
17.0
 40
17.0
 40
18.0
 40
18.0
 40
19.0
 40
19.0
 40
20.0
 40
20.0
 40
21.0
 40
21.0
 40
22.0
 40
22.0
 40
23.0
 40
23.0
 40
24.0
 40
24.0
 40
25.0
 40
25.0
 40
26.0
 40
26.0
 40
27.0
 40
27.0
 40
28.0
 40
28.0
 40
29.0
 40
29.0
 40
30.0
 40
30.0
 40
31.0
 40
31.0
 40
32.0
 40
32.0
 40
33.0
 40
33.0
 40
34.0
 40
34.0
 40
35.0
 40
35.0
 40
36.0
 40
36.0
 40
37.0
 40
37.0
 40
38.0
 40
38.0
 40
39.0
 40
39.0
 40
40.0
 40
40.0
 40
41.0
 40
41.0
 40
42.0
 40
42.0
 40
43.0
 40
43.0
 40
44.0
 40
44.0
 40
45.0
 40
45.0
 40
46.0
 40
46.0
 40
47.0
 40
47.0
 40
48.0
 40
48.0
 40
49.0
 40
49.0
 40
50.0
 40
50.0
 40
51.0
 40
51.0
 40
52.0
 40
52.0
 40
53.0
 40
53.0
 40
54.0
 40
54.0
 40
55.0
 40
55.0
 40
56.0
 40
56.0
 40
57.0
 40
57.0
 40
58.0
 40
58.0
 40
59.0
 40
59.0
 40
60.0
 40
60.0
 40
61.0
 40
61.0
 40
62.0
 40
62.0
 40
63.0
 40
63.0
 40
64.0
 40
64.0
 40
65.0
 40
65.0
 40
66.0
 40
66.0
 40
67.0
 40
67.0
 40
68.0
 40
68.0
 40
69.0
 40
69.0
 40
70.0
 40
70.0
 40
71.0
 40
71.0
 40
72.0
 40
72.0
 40
73.0
 40
73.0
 40
74.0
 40
74.0
 40
75.0
 40
75.0
 40
76.0
 40
76.0
 40
77.0
 40
77.0
 40
78.0
 40
78.0
 40
79.0
 40
79.0
 40
80.0
 40
80.0
 40
81.0
 40
81.0
 40
82.0
 40
82.0
 40
83.0
 40
83.0
 40
84.0
 40
84.0
 40
85.0
 40
85.0
 40
86.0
 40
86.0
 40
87.0
 40
87.0
 40
88.0
 40
88.0
 40
89.0
 40
89.0
 40
90.0
 40
90.0
 40
91.0
 40
91.0
 40
92.0
 40
92.0
 40
93.0
 40
93.0
 40
94.0
 40
94.0
 40
95.0
 40
95.0
 40
96.0
 40
96.0
 40
97.0
 40
97.0
 40
98.0
 40
98.0
 40
99.0
 40
99.0
 40
100.0
 40
100.0
 40
101.0
 40
101.0
 40
102.0
 40
102.0
 40
103.0
 40
103.0
 40
104.0
 40
104.0
 40
105.0
 40
105.0
 40
106.0
 40
106.0
 40
107.0
 40
107.0
 40
108.0
 40
108.0
 40
109.0
 40
109.0
 40
110.0
 40
110.0
 40
111.0
 40
111.0
 40
112.0
 40
112.0
 40
113.0
 40
113.0
 40
114.0
 40
114.0
 40
115.0
 40
115.0
 40
116.0
 40
116.0
 40
117.0
 40
117.0
 40
118.0
 40
118.0
 40
119.0
 40
119.0
 40
120.0
 40
120.0
 40
121.0
 40
121.0
 40
122.0
 40
122.0
 40
123.0
 40
123.0
 40
124.0
 40
124.0
 40
125.0
 40
125.0
 40
126.0
 40
126.0
 40
127.0
 40
127.0
 40
128.0
 40
128.0
 40
129.0
 40
129.0
 40
130.0
 40
130.0
 40
131.0
 40
131.0
 40
132.0
 40
132.0
 40
133.0
 40
133.0
 40
134.0
 40
134.0
 40
135.0
 40
135.0
 40
136.0
 40
136.0
 40
137.0
 40
137.0
 40
138.0
 40
138.0
 40
139.0
 40
139.0
 40
140.0
 40
140.0
 40
141.0
 40
141.0
 40
142.0
 40
142.0
 40
143.0
 40
143.0
 40
144.0
 40
144.0
 40
145.0
 40
145.0
 40
146.0
 40
146.0
 40
147.0
 40
147.0
 40
148.0
 40
148.0
 40
149.0
 40
149.0
 40
150.0
 40
150.0
 40
151.0
 40
151.0
 40
152.0
 40
152.0
 40
153.0
 40
153.0
 40
154.0
 40
154.0
 40
155.0
 40
155.0
 40
156.0
 40
156.0
 40
157.0
 40
157.0
 40
158.0
 40
158.0
 40
159.0
 40
159.0
 40
160.0
 40
160.0
 40
161.0
 40
161.0
 40
162.0
 40
162.0
 40
163.0
 40
163.0
 40
164.0
 40
164.0
 40
165.0
 40
165.0
 40
166.0
 40
166.0
 40
167.0
 40
167.0
 40
168.0
 40
168.0
 40
169.0
 40
169.0
 40
170.0
 40
170.0
 40
171.0
 40
171.0
 40
172.0
 40
172.0
 40
173.0
 40
173.0
 40
174.0
 40
174.0
 40
175.0
 40
175.0
 40
176.0
 40
176.0
 40
177.0
 40
177.0
 40
178.0
 40
178.0
 40
179.0
 40
179.0
 40
180.0
 40
180.0
 40
181.0
 40
181.0
 40
182.0
 40
182.0
 40
183.0
 40
183.0
 40
184.0
 40
184.0
 40
185.0
 40
185.0
 40
186.0
 40
186.0
 40
187.0
 40
187.0
 40
188.0
 40
188.0
 40
189.0
 40
189.0
 40
190.0
 40
190.0
 40
191.0
 40
191.0
 40
192.0
 40
192.0
 40
193.0
 40
193.0
 40
194.0
 40
194.0
 40
195.0
 40
195.0
 40
196.0
 40
196.0
 40
197.0
 40
197.0
 40
198.0
 40
198.0
 40
199.0
 40
199.0
 40
200.0
 40
200.0
 40
201.0
 40
201.0
 40
202.0
 40
202.0
 40
203.0
 40
203.0
 40
204.0
 40
204.0
 40
205.0
 40
205.0
 40
206.0
 40
206.0
 40
207.0
 40
207.0
 40
208.0
 40
208.0
 40
209.0
 40
209.0
 40
210.0
 40
210.0
 40
211.0
 40
211.0
 40
212.0
 40
212.0
 40
213.0
 40
213.0
 40
214.0
 40
214.0
 40
215.0
 40
215.0
 40
216.0
 40
216.0
 40
217.0
 40
217.0
 40
218.0
 40
218.0
 40
219.0
 40
219.0
 40
220.0
 40
220.0
 40
221.0
 40
221.0
 40
222.0
 40
222.0
 40
223.0
 40
223.0
 40
224.0
 40
224.0
 40
225.0
 40
225.0
 40
226.0
 40
226.0
 40
227.0
 40
227.0
 40
228.0
 40
228.0
 40
229.0
 40
229.0
 40
230.0
 40
230.0
 40
231.0
 40
231.0
 40
232.0
 40
232.0
 40
233.0
 40
233.0
 40
234.0
 40
234.0
 40
235.0
 40
235.0
 40
236.0
 40
236.0
 40
237.0
 40
237.0
 40
238.0
 40
238.0
 40
239.0
 40
239.0
 40
240.0
 40
240.0
 40
241.0
 40
241.0
 40
242.0
 40
242.0
 40
243.0
 40
243.0
 40
244.0
 40
244.0
 40
245.0
 40
245.0
 40
246.0
 40
246.0
 40
247.0
 40
247.0
 40
248.0
 40
248.0
 40
249.0
 40
249.0
 40
250.0
 40
250.0
 40
251.0
 40
251.0
 40
252.0
 40
252.0
 40
253.0
 40
253.0
 40
254.0
 40
254.0
 40
255.0
 40
255.0
 40
256.0
 40
256.0
 40
257.0
 40
257.0
 40
258.0
 40
258.0
 40
259.0
 40
259.0
 40
260.0
 40
260.0
 40
261.0
 40
261.0
 40
262.0
 40
262.0
 40
263.0
 40
263.0
 40
264.0
 40
264.0
 40
265.0
 40
265.0
 40
266.0
 40
266.0
 40
267.0
 40
267.0
 40
268.0
 40
268.0
 40
269.0
 40
269.0
 40
270.0
 40
270.0
 40
271.0
 40
271.0
 40
272.0
 40
272.0
 40
273.0
 40
273.0
 40
274.0
 40
274.0
 40
275.0
 40
275.0
 40
276.0
 40
276.0
 40
277.0
 40
277.0
 40
278.0
 40
278.0
 40
279.0
 40
279.0
 40
280.0
 40
280.0
 40
281.0
 40
281.0
 40
282.0
 40
282.0
 40
283.0
 40
283.0
 40
284.0
 40
284.0
 40
285.0
 40
285.0
 40
286.0
 40
286.0
 40
287.0
 40
287.0
 40
288.0
 40
288.0
 40
289.0
 40
289.0
 40
290.0
 40
290.0
 40
291.0
 40
291.0
 40
292.0
 40
292.0
 40
293.0
 40
293.0
 40
294.0
 40
294.0
 40
295.0
 40
295.0
 40
296.0
 40
296.0
 40
297.0
 40
297.0
 40
298.0
 40
298.0
 40
299.0
 40
299.0
 40
300.0
 40
300.0
 40
301.0
 40
301.0
 40
302.0
 40
302.0
 40
303.0
 40
303.0
 40
304.0
 40
304.0
 40
305.0
 40
305.0
 40
306.0
 40
306.0
 40
307.0
 40
307.0
 40
308.0
 40
308.0
 40
309.0
 40
309.0
 40
310.0
 40
310.0
 40
311.0
 40
311.0
 40
312.0
 40
312.0
 40
313.0
 40
313.0
 40
314.0
 40
314.0
 40
315.0
 40
315.0
 40
316.0
 40
316.0
 40
317.0
 40
317.0
 40
318.0
 40
318.0
 40
319.0
 40
319.0
 40
320.0
 40
320.0
 40
321.0
 40
321.0
 40
322.0
 40
322.0
 40
323.0
 40
323.0
 40
324.0
 40
324.0
 40
325.0
 40
325.0
 40
326.0
 40
326.0
 40
327.0
 40
327.0
 40
328.0
 40
328.0
 40
329.0
 40
329.0
 40
330.0
 40
330.0
 40
331.0
 40
331.0
 40
332.0
 40
332.0
 40
333.0
 40
333.0
 40
334.0
 40
334.0
 40
335.0
 40
335.0
 40
336.0
 40
336.0
 40
337.0
 40
337.0
 40
338.0
 40
338.0
 40
339.0
 40
339.0
 40
340.0
 40
340.0
 40
341.0
 40
341.0
 40
342.0
 40
342.0
 40
343.0
 40
343.0
 40
344.0
 40
344.0
 40
345.0
 40
345.0
 40
346.0
 40
346.0
 40
347.0
 40
347.0
 40
348.0
 40
348.0
 40
349.0
 40
349.0
 40
350.0
 40
350.0
 40
351.0
 40
351.0
 40
352.0
 40
352.0
 40
353.0
 40
353.0
 40
354.0
 40
354.0
 40
355.0
 40
355.0
 40
356.0
 40
356.0
 40
357.0
 40
357.0
 40
358.0
 40
358.0
 40
359.0
 40
359.0
 40
360.0
 40
360.0
 40
361.0
 40
361.0
 40
362.0
 40
362.0
 40
363.0
 40
363.0
 40
364.0
 40
364.0
 40
365.0
 40
365.0
 40
366.0
 40
366.0
 40
367.0
 40
367.0
 40
368.0
 40
368.0
 40
369.0
 40
369.0
 40
370.0
 40
370.0
 40
371.0
 40
371.0
 40
372.0
 40
372.0
 40
373.0
 40
373.0
 40
374.0
 40
374.0
 40
375.0
 40
375.0
 40
376.0
 40
376.0
 40
377.0
 40
377.0
 40
378.0
 40
378.0
 40
379.0
 40
379.0
 40
380.0
 40
380.0
 40
381.0
 40
381.0
 40
382.0
 40
382.0
 40
383.0
 40
383.0
 40
384.0
 40
384.0
 40
385.0
 40
385.0
 40
386.0
 40
386.0
 40
387.0
 40
387.0
 40
388.0
 40
388.0
 40
389.0
 40
389.0
 40
389.0
 10
-730.15605816805385
 20
-2443.3843102031651
 30
0.0
 41
1.0
 10
-729.33763405933337
 20
-2443.3843102031651
 30
0.0
 41
1.0
 10
-728.51920995061289
 20
-2443.3843102031651
 30
0.0
 41
1.0
 10
-728.9329636861296
 20
-2444.7269364674148
 30
0.0
 41
1.0
 10
-729.34671742164642
 20
-2446.0695627316645
 30
0.0
 41
1.0
 10
-729.32837792648297
 20
-2446.0408619587597
 30
0.0
 41
0.9999957264357343
 10
-729.3098709296562
 20
-2446.0122689086152
 30
0.0
 41
1.0
 10
-729.27944160551465
 20
-2445.9652560302329
 30
0.0
 41
1.0
 10
-729.2490122813731
 20
-2445.9182431518507
 30
0.0
 41
1.0
 10
-729.1696466362672
 20
-2445.7956243449476
 30
0.0
 41
0.9995394069081044
 10
-729.0829882447149
 20
-2445.6780462832053
 30
0.0
 41
1.0
 10
-729.04723138245481
 20
-2445.6295313906112
 30
0.0
 41
1.0
 10
-729.01147452019484
 20
-2445.5810164980176
 30
0.0
 41
1.0
 10
-728.87774785237787
 20
-2445.3995762228924
 30
0.0
 41
0.9994460617143349
 10
-728.73224737108944
 20
-2445.2274338252419
 30
0.0
 41
1.0
 10
-728.72785919011517
 20
-2445.22224214486
 30
0.0
 41
1.0
 10
-728.72347100914078
 20
-2445.2170504644782
 30
0.0
 41
1.0
 10
-728.58674688980295
 20
-2445.0552914275945
 30
0.0
 41
0.9994359394934524
 10
-728.43947265945008
 20
-2444.903075226428
 30
0.0
 41
1.0
 10
-728.43708930549667
 20
-2444.9006118960547
 30
0.0
 41
1.0
 10
-728.43470595154326
 20
-2444.8981485656814
 30
0.0
 41
1.0
 10
-728.2921984290989
 20
-2444.7508590252637
 30
0.0
 41
0.9995293688567888
 10
-728.1409267481165
 20
-2444.612585813099
 30
0.0
 41
1.0
 10
-728.12163298885389
 20
-2444.5949499274484
 30
0.0
 41
1.0
 10
-728.10233922959128
 20
-2444.5773140417982
 30
0.0
 41
1.0
 10
-727.98965506713421
 20
-2444.4743126009353
 30
0.0
 41
0.9997087614804004
 10
-727.8721321781793
 20
-2444.3768683201374
 30
0.0
 41
1.0
 10
-727.85296610499972
 20
-2444.3609767416265
 30
0.0
 41
1.0
 10
-727.83380003182026
 20
-2444.3450851631151
 30
0.0
 41
1.0
 10
-727.754609289217
 20
-2444.2794240393337
 30
0.0
 41
0.9999595338699218
 10
-727.67425001836909
 20
-2444.2151983086842
 30
0.0
 41
1.0
 10
-727.59389074750857
 20
-2444.1509725780252
 30
0.0
 41
0.9999749417511665
 10
-727.51263021317322
 20
-2444.0878910240849
 30
0.0
 41
1.0
 10
-727.49164406700663
 20
-2444.0715997367802
 30
0.0
 41
1.0
 10
-727.47065792084004
 20
-2444.0553084494754
 30
0.0
 41
1.0
 10
-727.38609003554006
 20
-2443.9896594396359
 30
0.0
 41
0.9999792037118394
 10
-727.30068243576807
 20
-2443.92510665799
 30
0.0
 41
1.0
 10
-727.27985760988054
 20
-2443.9093668357505
 30
0.0
 41
1.0
 10
-727.25903278399312
 20
-2443.8936270135109
 30
0.0
 41
1.0
 10
-727.21527483605291
 20
-2443.8605538763877
 30
0.0
 41
0.9999993374202459
 10
-727.17159314985543
 20
-2443.8273800809225
 30
0.0
 41
1.0
 10
-727.12791146371785
 20
-2443.7942062855022
 30
0.0
 41
0.9999160953816609
 10
-727.08338505279892
 20
-2443.7621752203049
 30
0.0
 41
1.0
 10
-727.05056316537627
 20
-2443.7385640647176
 30
0.0
 41
1.0
 10
-727.01774127795363
 20
-2443.7149529091303
 30
0.0
 41
1.0
 10
-726.90757109219601
 20
-2443.6356995327633
 30
0.0
 41
0.9980964527233084
 10
-726.78848209869557
 20
-2443.570612059907
 30
0.0
 41
1.0
 10
-726.75144949176661
 20
-2443.5503720803135
 30
0.0
 41
1.0
 10
-726.71441688483776
 20
-2443.53013210072
 30
0.0
 41
1.0
 10
-726.53508987156545
 20
-2443.432121850019
 30
0.0
 41
0.9984572810572977
 10
-726.3460013052063
 20
-2443.3545995886725
 30
0.0
 41
1.0
 10
-726.34235503581044
 20
-2443.3531046963344
 30
0.0
 41
1.0
 10
-726.33870876641458
 20
-2443.3516098039968
 30
0.0
 41
1.0
 10
-726.15691273884806
 20
-2443.2770773273264
 30
0.0
 41
0.9987838528034064
 10
-725.96866008028815
 20
-2443.2208116871607
 30
0.0
 41
1.0
 10
-725.96442213108901
 20
-2443.2195450334702
 30
0.0
 41
1.0
 10
-725.96018418188987
 20
-2443.2182783797798
 30
0.0
 41
1.0
 10
-725.78040742172834
 20
-2443.1645460469949
 30
0.0
 41
0.9990652816207351
 10
-725.59666149001305
 20
-2443.1265423674531
 30
0.0
 41
1.0
 10
-725.59147308898071
 20
-2443.1254692643465
 30
0.0
 41
1.0
 10
-725.58628468794836
 20
-2443.1243961612399
 30
0.0
 41
1.0
 10
-725.41291555829605
 20
-2443.0885386879108
 30
0.0
 41
0.999290993427053
 10
-725.23733979183885
 20
-2443.0658282554441
 30
0.0
 41
1.0
 10
-725.06176402538085
 20
-2443.0431178229778
 30
0.0
 41
0.9994553539448521
 10
-724.88507259228834
 20
-2443.032038518772
 30
0.0
 41
1.0
 10
-724.84963818449557
 20
-2443.0298166307243
 30
0.0
 41
1.0
 10
-724.81420377670281
 20
-2443.0275947426767
 30
0.0
 41
1.0
 10
-724.64797801012969
 20
-2443.0171716802643
 30
0.0
 41
0.9990928098292604
 10
-724.48146821822411
 20
-2443.0209313214987
 30
0.0
 41
1.0
 10
-724.44290638294922
 20
-2443.0218020130314
 30
0.0
 41
1.0
 10
-724.40434454767433
 20
-2443.0226727045647
 30
0.0
 41
1.0
 10
-724.31495842631864
 20
-2443.0246909627331
 30
0.0
 41
0.9998382089204535
 10
-724.22570274353529
 20
-2443.0299230892615
 30
0.0
 41
1.0
 10
-724.2252728373137
 20
-2443.0299482901637
 30
0.0
 41
1.0
 10
-724.2248429310921
 20
-2443.0299734910664
 30
0.0
 41
1.0
 10
-724.13644706074729
 20
-2443.0351552157895
 30
0.0
 41
0.9997558016758844
 10
-724.04836648354831
 20
-2443.0442377311556
 30
0.0
 41
1.0
 10
-724.04789034511884
 20
-2443.0442868286382
 30
0.0
 41
1.0
 10
-724.04741420668938
 20
-2443.0443359261208
 30
0.0
 41
1.0
 10
-723.9602859063483
 20
-2443.0533202465222
 30
0.0
 41
0.9996565144181439
 10
-723.87374805300533
 20
-2443.0668575532113
 30
0.0
 41
1.0
 10
-723.87328212762884
 20
-2443.0669304389426
 30
0.0
 41
1.0
 10
-723.87281620225235
 20
-2443.0670033246738
 30
0.0
 41
1.0
 10
-723.78721019966463
 20
-2443.0803948599
 30
0.0
 41
0.9995321806867856
 10
-723.70258311933537
 20
-2443.0989953483295
 30
0.0
 41
1.0
 10
-723.70219392476565
 20
-2443.0990808907945
 30
0.0
 41
1.0
 10
-723.70180473019593
 20
-2443.0991664332601
 30
0.0
 41
1.0
 10
-723.61795603900998
 20
-2443.117595836758
 30
0.0
 41
0.9993819199220927
 10
-723.53560950481119
 20
-2443.1418712200193
 30
0.0
 41
1.0
 10
-723.53537107131342
 20
-2443.1419415091286
 30
0.0
 41
1.0
 10
-723.53513263781565
 20
-2443.1420117982379
 30
0.0
 41
1.0
 10
-723.45326297061479
 20
-2443.1661466032801
 30
0.0
 41
0.9992088568504883
 10
-723.37357045162673
 20
-2443.1967118390749
 30
0.0
 41
1.0
 10
-723.29388946074755
 20
-2443.2272714398082
 30
0.0
 41
0.9990226101772214
 10
-723.21721879084055
 20
-2443.2647488714229
 30
0.0
 41
1.0
 10
-723.14055964904469
 20
-2443.3022206679748
 30
0.0
 41
0.9988424273970689
 10
-723.06785602183493
 20
-2443.3468854432263
 30
0.0
 41
1.0
 10
-723.06758831345314
 20
-2443.3470499073001
 30
0.0
 41
1.0
 10
-723.06732060507147
 20
-2443.3472143713734
 30
0.0
 41
1.0
 10
-722.99408156110087
 20
-2443.3922080747707
 30
0.0
 41
0.9986928844491635
 10
-722.92581869439118
 20
-2443.44444380905
 30
0.0
 41
1.0
 10
-722.92523740216825
 20
-2443.4448886222781
 30
0.0
 41
1.0
 10
-722.92465610994532
 20
-2443.4453334355062
 30
0.0
 41
1.0
 10
-722.8552306587884
 20
-2443.4984587962431
 30
0.0
 41
0.9986007262278678
 10
-722.79180448902105
 20
-2443.5586195659371
 30
0.0
 41
1.0
 10
-722.79091007356487
 20
-2443.559467933771
 30
0.0
 41
1.0
 10
-722.79001565810881
 20
-2443.5603163016053
 30
0.0
 41
1.0
 10
-722.72480065742741
 20
-2443.6221738069689
 30
0.0
 41
0.9985581491380701
 10
-722.6665930457259
 20
-2443.6906662972406
 30
0.0
 41
1.0
 10
-722.65733459213016
 20
-2443.7015606549421
 30
0.0
 41
1.0
 10
-722.64807613853441
 20
-2443.7124550126441
 30
0.0
 41
1.0
 10
-722.57135161964118
 20
-2443.8027362183193
 30
0.0
 41
0.9970460233521276
 10
-722.50935971848276
 20
-2443.9037033024988
 30
0.0
 41
1.0
 10
-722.49489035340321
 20
-2443.9272697615797
 30
0.0
 41
1.0
 10
-722.48042098832366
 20
-2443.9508362206611
 30
0.0
 41
1.0
 10
-722.44068428831054
 20
-2444.0155559446939
 30
0.0
 41
0.9988468816635339
 10
-722.40733791755883
 20
-2444.0837883971226
 30
0.0
 41
1.0
 10
-722.40030189506615
 20
-2444.0981853182625
 30
0.0
 41
1.0
 10
-722.39326587257347
 20
-2444.1125822394024
 30
0.0
 41
1.0
 10
-722.37399154680418
 20
-2444.1520208495572
 30
0.0
 41
0.9998431189999592
 10
-722.35612621931227
 20
-2444.1921174039908
 30
0.0
 41
1.0
 10
-722.33826089181196
 20
-2444.2322139584439
 30
0.0
 41
0.9999989989689934
 10
-722.32028216840979
 20
-2444.2722597959837
 30
0.0
 41
1.0
 10
-722.31410985680827
 20
-2444.2860080128121
 30
0.0
 41
1.0
 10
-722.30793754520687
 20
-2444.2997562296409
 30
0.0
 41
1.0
 10
-722.2776141985986
 20
-2444.3672985008443
 30
0.0
 41
0.9998790356321498
 10
-722.24940631845766
 20
-2444.435751252789
 30
0.0
 41
1.0
 10
-722.2425711371734
 20
-2444.4523383542164
 30
0.0
 41
1.0
 10
-722.23573595588903
 20
-2444.4689254556438
 30
0.0
 41
1.0
 10
-722.21217829350815
 20
-2444.5260934105308
 30
0.0
 41
0.9998227574560543
 10
-722.1907895451202
 20
-2444.5841077188047
 30
0.0
 41
1.0
 10
-722.16940079673157
 20
-2444.642122027079
 30
0.0
 41
0.9996797971040393
 10
-722.15097451177223
 20
-2444.7011441461987
 30
0.0
 41
1.0
 10
-722.14707070904637
 20
-2444.7136486043682
 30
0.0
 41
1.0
 10
-722.14316690632063
 20
-2444.7261530625383
 30
0.0
 41
1.0
 10
-722.11693301591015
 20
-2444.8101840979953
 30
0.0
 41
0.9979274938734465
 10
-722.10170849243082
 20
-2444.8968884566566
 30
0.0
 41
1.0
 10
-722.09948480516982
 20
-2444.9095524574768
 30
0.0
 41
1.0
 10
-722.09726111790872
 20
-2444.922216458297
 30
0.0
 41
1.0
 10
-722.08633117821034
 20
-2444.9844629655859
 30
0.0
 41
0.9994985982135856
 10
-722.07936301303357
 20
-2445.0472764667293
 30
0.0
 41
1.0
 10
-722.07239484785657
 20
-2445.1100899678736
 30
0.0
 41
0.9996372611202057
 10
-722.06881898208894
 20
-2445.1731875465507
 30
0.0
 41
1.0
 10
-722.06865040459957
 20
-2445.1761621636342
 30
0.0
 41
1.0
 10
-722.06848182711019
 20
-2445.1791367807177
 30
0.0
 41
1.0
 10
-722.06456880636381
 20
-2445.2481835935628
 30
0.0
 41
0.9997730630737196
 10
-722.06360049287571
 20
-2445.3173344176003
 30
0.0
 41
1.0
 10
-722.0635433864577
 20
-2445.3214125967411
 30
0.0
 41
1.0
 10
-722.06348628003957
 20
-2445.3254907758819
 30
0.0
 41
1.0
 10
-722.06240375371522
 20
-2445.4027979581915
 30
0.0
 41
0.9998772614070707
 10
-722.06374384044682
 20
-2445.4801011047548
 30
0.0
 41
1.0
 10
-722.06383310364572
 20
-2445.4852502685944
 30
0.0
 41
1.0
 10
-722.06392236684451
 20
-2445.4903994324341
 30
0.0
 41
1.0
 10
-722.06544097997357
 20
-2445.5780009066707
 30
0.0
 41
0.9999415567322898
 10
-722.06885329021941
 20
-2445.6655490683379
 30
0.0
 41
1.0
 10
-722.06909461089481
 20
-2445.6717405280779
 30
0.0
 41
1.0
 10
-722.06933593157032
 20
-2445.6779319878178
 30
0.0
 41
1.0
 10
-722.07323088316605
 20
-2445.7778630689495
 30
0.0
 41
0.9999716810431287
 10
-722.07862946628427
 20
-2445.8777242071742
 30
0.0
 41
1.0
 10
-722.08184226507342
 20
-2445.9371534568377
 30
0.0
 41
1.0
 10
-722.08505506386246
 20
-2445.9965827065012
 30
0.0
 41
1.0
 10
-722.09312897301675
 20
-2446.1459311078061
 30
0.0
 41
0.999981912991083
 10
-722.10299876463228
 20
-2446.2951715855033
 30
0.0
 41
1.0
 10
-722.11286855624883
 20
-2446.4444120632147
 30
0.0
 41
1.0
 10
-722.11530787681272
 20
-2446.4816051090638
 30
0.0
 41
1.0
 10
-722.09260964295322
 20
-2446.4428641116865
 30
0.0
 41
0.9999982128088332
 10
-722.06976508421394
 20
-2446.4042092177556
 30
0.0
 41
1.0
 10
-722.04285552433521
 20
-2446.3586760037106
 30
0.0
 41
1.0
 10
-722.01594596445659
 20
-2446.313142789666
 30
0.0
 41
1.0
 10
-721.93928228592927
 20
-2446.1834214675937
 30
0.0
 41
0.9998609190057498
 10
-721.85833497306817
 20
-2446.0563290856658
 30
0.0
 41
1.0
 10
-721.8286866515873
 20
-2446.0097793527102
 30
0.0
 41
1.0
 10
-721.79903833010655
 20
-2445.9632296197542
 30
0.0
 41
1.0
 10
-721.7167661098664
 20
-2445.8340570497548
 30
0.0
 41
0.9999067609734181
 10
-721.63099710040433
 20
-2445.7071793603163
 30
0.0
 41
1.0
 10
-721.62859239720353
 20
-2445.7036220942618
 30
0.0
 41
1.0
 10
-721.62618769400274
 20
-2445.7000648282069
 30
0.0
 41
1.0
 10
-721.54522809094283
 20
-2445.5803016708783
 30
0.0
 41
0.9998784952150155
 10
-721.46057448125896
 20
-2445.4631204541661
 30
0.0
 41
1.0
 10
-721.37592087158123
 20
-2445.3459392374621
 30
0.0
 41
0.9998532968283025
 10
-721.28730325075628
 20
-2445.2317263289883
 30
0.0
 41
1.0
 10
-721.26734146176454
 20
-2445.2059990079674
 30
0.0
 41
1.0
 10
-721.24737967277269
 20
-2445.1802716869465
 30
0.0
 41
1.0
 10
-721.12889562301245
 20
-2445.0275660759762
 30
0.0
 41
0.999155197579558
 10
-720.99827117339032
 20
-2444.8851065138947
 30
0.0
 41
1.0
 10
-720.99476155740911
 20
-2444.8812789122685
 30
0.0
 41
1.0
 10
-720.99125194142789
 20
-2444.8774513106428
 30
0.0
 41
1.0
 10
-720.86764672376546
 20
-2444.74264695181
 30
0.0
 41
0.9997418144180589
 10
-720.7380445840663
 20
-2444.6135975411989
 30
0.0
 41
1.0
 10
-720.60844244436555
 20
-2444.4845481305865
 30
0.0
 41
0.9989238204633277
 10
-720.46743989611571
 20
-2444.3680631685484
 30
0.0
 41
1.0
 10
-720.42219221797552
 20
-2444.3306831769391
 30
0.0
 41
1.0
 10
-720.37694453983534
 20
-2444.2933031853299
 30
0.0
 41
1.0
 10
-720.23670448261328
 20
-2444.1774481320385
 30
0.0
 41
0.9990825084096556
 10
-720.08706455001015
 20
-2444.0740191342061
 30
0.0
 41
1.0
 10
-720.0770191859533
 20
-2444.0670759211266
 30
0.0
 41
1.0
 10
-720.06697382189645
 20
-2444.0601327080471
 30
0.0
 41
1.0
 10
-719.93742461740749
 20
-2443.9705901363741
 30
0.0
 41
0.9998164899825081
 10
-719.80454041402993
 20
-2443.8860758948567
 30
0.0
 41
1.0
 10
-719.79269485350369
 20
-2443.878542128331
 30
0.0
 41
1.0
 10
-719.78084929297756
 20
-2443.8710083618048
 30
0.0
 41
1.0
 10
-719.67165621065317
 20
-2443.8015616533403
 30
0.0
 41
0.9997473449130124
 10
-719.55945225340429
 20
-2443.7370926955246
 30
0.0
 41
1.0
 10
-719.44724829615529
 20
-2443.6726237377093
 30
0.0
 41
0.999932786114406
 10
-719.33357968539542
 20
-2443.6107737460297
 30
0.0
 41
1.0
 10
-719.33302768283261
 20
-2443.6104733873494
 30
0.0
 41
1.0
 10
-719.33247568026991
 20
-2443.6101730286691
 30
0.0
 41
1.0
 10
-719.21770306438157
 20
-2443.5477223196276
 30
0.0
 41
0.9996956420483454
 10
-719.09998973854158
 20
-2443.4910088526531
 30
0.0
 41
1.0
 10
-719.06954933365159
 20
-2443.4763428759243
 30
0.0
 41
1.0
 10
-719.03910892876172
 20
-2443.4616768991959
 30
0.0
 41
1.0
 10
-718.93613182201648
 20
-2443.4120632407521
 30
0.0
 41
0.9998070570177505
 10
-718.83128543307464
 20
-2443.3665326538503
 30
0.0
 41
1.0
 10
-718.72643904413292
 20
-2443.3210020669489
 30
0.0
 41
0.9997827436147762
 10
-718.61978610752476
 20
-2443.2798808956377
 30
0.0
 41
1.0
 10
-718.60056325789287
 20
-2443.2724693220052
 30
0.0
 41
1.0
 10
-718.58134040826098
 20
-2443.2650577483728
 30
0.0
 41
1.0
 10
-718.43624177238587
 20
-2443.2091134297953
 30
0.0
 41
0.9988031841976087
 10
-718.28637140977946
 20
-2443.1676133656274
 30
0.0
 41
1.0
 10
-718.26145416141549
 20
-2443.1607136198204
 30
0.0
 41
1.0
 10
-718.23653691305151
 20
-2443.1538138740134
 30
0.0
 41
1.0
 10
-718.06926688740725
 20
-2443.1074957316073
 30
0.0
 41
0.9984748040550292
 10
-717.89790997876105
 20
-2443.0799014993427
 30
0.0
 41
1.0
 10
-717.89317084251343
 20
-2443.0791383388296
 30
0.0
 41
1.0
 10
-717.88843170626592
 20
-2443.078375178316
 30
0.0
 41
1.0
 10
-717.72655307011337
 20
-2443.0523072670776
 30
0.0
 41
0.9984436495479354
 10
-717.56277832638739
 20
-2443.0444293132591
 30
0.0
 41
1.0
 10
-717.5410811182536
 20
-2443.0433856260597
 30
0.0
 41
1.0
 10
-717.51938391011981
 20
-2443.0423419388599
 30
0.0
 41
1.0
 10
-717.39900358266016
 20
-2443.0365513594406
 30
0.0
 41
0.9987954789335625
 10
-717.2786353377528
 20
-2443.0425878871829
 30
0.0
 41
1.0
 10
-717.25867054526486
 20
-2443.043589131521
 30
0.0
 41
1.0
 10
-717.23870575277692
 20
-2443.0445903758596
 30
0.0
 41
1.0
 10
-717.1582670928492
 20
-2443.0486244149247
 30
0.0
 41
0.9997941595876524
 10
-717.07805831474855
 20
-2443.0559184808462
 30
0.0
 41
1.0
 10
-716.99784953665539
 20
-2443.0632125467673
 30
0.0
 41
0.9998589466237432
 10
-716.9179309898027
 20
-2443.073196401217
 30
0.0
 41
1.0
 10
-716.88552478799261
 20
-2443.0772447581367
 30
0.0
 41
1.0
 10
-716.85311858618263
 20
-2443.0812931150558
 30
0.0
 41
1.0
 10
-716.7083876357076
 20
-2443.0993736833452
 30
0.0
 41
0.9993495063249784
 10
-716.56533639193799
 20
-2443.1278393930875
 30
0.0
 41
1.0
 10
-716.53240269479431
 20
-2443.1343928563006
 30
0.0
 41
1.0
 10
-716.49946899765064
 20
-2443.1409463195137
 30
0.0
 41
1.0
 10
-716.39017517444086
 20
-2443.1626946536499
 30
0.0
 41
0.9996788715560946
 10
-716.28212360248051
 20
-2443.1899524530136
 30
0.0
 41
1.0
 10
-716.2800605999405
 20
-2443.1904728795867
 30
0.0
 41
1.0
 10
-716.2779975974006
 20
-2443.1909933061597
 30
0.0
 41
1.0
 10
-716.17407203052403
 20
-2443.2172102523768
 30
0.0
 41
0.9995480654493439
 10
-716.07190979529469
 20
-2443.2496252090014
 30
0.0
 41
1.0
 10
-716.07022015316352
 20
-2443.2501613139157
 30
0.0
 41
1.0
 10
-716.06853051103246
 20
-2443.2506974188304
 30
0.0
 41
1.0
 10
-715.96974756006227
 20
-2443.2820401656263
 30
0.0
 41
0.9993867959455486
 10
-715.87340040162269
 20
-2443.3202195349154
 30
0.0
 41
1.0
 10
-715.87215745253911
 20
-2443.3207120768111
 30
0.0
 41
1.0
 10
-715.87091450345542
 20
-2443.3212046187068
 30
0.0
 41
1.0
 10
-715.77705324318288
 20
-2443.358398904204
 30
0.0
 41
0.9992050256522541
 10
-715.68645356814682
 20
-2443.4029528034439
 30
0.0
 41
1.0
 10
-715.68571888543238
 20
-2443.4033140959054
 30
0.0
 41
1.0
 10
-715.68498420271806
 20
-2443.4036753883674
 30
0.0
 41
1.0
 10
-715.59585389311121
 20
-2443.4475067026838
 30
0.0
 41
0.9990222350741056
 10
-715.51094383171971
 20
-2443.4990399703811
 30
0.0
 41
1.0
 10
-715.51075994643747
 20
-2443.4991515732854
 30
0.0
 41
1.0
 10
-715.51057606115535
 20
-2443.4992631761902
 30
0.0
 41
1.0
 10
-715.42603377032583
 20
-2443.5505732380793
 30
0.0
 41
0.9988642743805339
 10
-715.34675923570717
 20
-2443.6096974256043
 30
0.0
 41
1.0
 10
-715.26748470109032
 20
-2443.6688216131274
 30
0.0
 41
0.9987681233310167
 10
-715.19446091681402
 20
-2443.7355123045286
 30
0.0
 41
1.0
 10
-715.19413198884718
 20
-2443.7358127057437
 30
0.0
 41
1.0
 10
-715.19380306088033
 20
-2443.7361131069588
 30
0.0
 41
1.0
 10
-715.12012142067113
 20
-2443.8034046007892
 30
0.0
 41
0.9987496570898417
 10
-715.05352761534357
 20
-2443.8777174148768
 30
0.0
 41
1.0
 10
-715.05275544558413
 20
-2443.8785790882339
 30
0.0
 41
1.0
 10
-715.05198327582457
 20
-2443.8794407615906
 30
0.0
 41
1.0
 10
-714.98384513097824
 20
-2443.955476922391
 30
0.0
 41
0.9988147669827758
 10
-714.92342287675331
 20
-2444.037777929233
 30
0.0
 41
1.0
 10
-714.92230355067466
 20
-2444.0393025605867
 30
0.0
 41
1.0
 10
-714.921184224596
 20
-2444.0408271919405
 30
0.0
 41
1.0
 10
-714.85852331821582
 20
-2444.1261774614877
 30
0.0
 41
0.9989452636216654
 10
-714.80395640525433
 20
-2444.2169161506454
 30
0.0
 41
1.0
 10
-714.80260767916866
 20
-2444.2191589316717
 30
0.0
 41
1.0
 10
-714.80125895308288
 20
-2444.221401712698
 30
0.0
 41
1.0
 10
-714.74399458794971
 20
-2444.3166259639097
 30
0.0
 41
0.9991046436071238
 10
-714.69498537462755
 20
-2444.4163503969357
 30
0.0
 41
1.0
 10
-714.69352151303804
 20
-2444.4193290770072
 30
0.0
 41
1.0
 10
-714.69205765144852
 20
-2444.4223077570787
 30
0.0
 41
1.0
 10
-714.64012071494687
 20
-2444.5279895502495
 30
0.0
 41
0.9992763831101678
 10
-714.59636758639135
 20
-2444.6373136122056
 30
0.0
 41
1.0
 10
-714.5948883167282
 20
-2444.6410097997386
 30
0.0
 41
1.0
 10
-714.59340904706505
 20
-2444.6447059872721
 30
0.0
 41
1.0
 10
-714.54669737918084
 20
-2444.761422424303
 30
0.0
 41
0.9994163472884361
 10
-714.50806434799074
 20
-2444.8810560127686
 30
0.0
 41
1.0
 10
-714.50682619574707
 20
-2444.8848901565416
 30
0.0
 41
1.0
 10
-714.50558804350339
 20
-2444.8887243003146
 30
0.0
 41
1.0
 10
-714.46570448248303
 20
-2445.0122303618027
 30
0.0
 41
0.9997268055891369
 10
-714.43163642657078
 20
-2445.1374653937542
 30
0.0
 41
1.0
 10
-714.43070624630047
 20
-2445.1408847598659
 30
0.0
 41
1.0
 10
-714.42977606603017
 20
-2445.1443041259772
 30
0.0
 41
1.0
 10
-714.39756837065852
 20
-2445.2627004257065
 30
0.0
 41
0.9996701319001319
 10
-714.37148275388836
 20
-2445.382594378968
 30
0.0
 41
1.0
 10
-714.34539713711752
 20
-2445.5024883322321
 30
0.0
 41
0.9995785451109009
 10
-714.32631355977844
 20
-2445.6236940932613
 30
0.0
 41
1.0
 10
-714.32209377760444
 20
-2445.6504952480282
 30
0.0
 41
1.0
 10
-714.31787399543043
 20
-2445.6772964027946
 30
0.0
 41
1.0
 10
-714.29129901949216
 20
-2445.8460823764972
 30
0.0
 41
0.9979925101217162
 10
-714.28627343356573
 20
-2446.0168737045879
 30
0.0
 41
1.0
 10
-714.28544862114097
 20
-2446.0449044280749
 30
0.0
 41
1.0
 10
-714.28462380871622
 20
-2446.072935151562
 30
0.0
 41
1.0
 10
-714.28124784763941
 20
-2446.1876650326849
 30
0.0
 41
0.9995314902263741
 10
-714.28489803977789
 20
-2446.3023865164314
 30
0.0
 41
1.0
 10
-714.28854823191648
 20
-2446.417108000182
 30
0.0
 41
0.9996245486944692
 10
-714.29847732704729
 20
-2446.5314572713082
 30
0.0
 41
1.0
 10
-714.29864037504149
 20
-2446.5333350274432
 30
0.0
 41
1.0
 10
-714.29880342303568
 20
-2446.5352127835781
 30
0.0
 41
1.0
 10
-714.30905861415522
 20
-2446.6533175669738
 30
0.0
 41
0.9997286095001203
 10
-714.32480393772619
 20
-2446.7708164758651
 30
0.0
 41
1.0
 10
-714.32519743037665
 20
-2446.7737529005681
 30
0.0
 41
1.0
 10
-714.32559092302722
 20
-2446.776689325271
 30
0.0
 41
1.0
 10
-714.34212323189877
 20
-2446.9000610835665
 30
0.0
 41
0.999826553396875
 10
-714.3632386906329
 20
-2447.0227315583629
 30
0.0
 41
1.0
 10
-714.36391523276961
 20
-2447.0266619368676
 30
0.0
 41
1.0
 10
-714.36459177490633
 20
-2447.0305923153728
 30
0.0
 41
1.0
 10
-714.3870603179123
 20
-2447.1611235471723
 30
0.0
 41
0.9999022530852205
 10
-714.41316978252291
 20
-2447.290975515813
 30
0.0
 41
1.0
 10
-714.4141484236884
 20
-2447.2958426582009
 30
0.0
 41
1.0
 10
-714.41512706485389
 20
-2447.3007098005892
 30
0.0
 41
1.0
 10
-714.44319381179264
 20
-2447.4402960539933
 30
0.0
 41
0.9999524761937327
 10
-714.4739767806301
 20
-2447.5793085471701
 30
0.0
 41
1.0
 10
-714.47525288780525
 20
-2447.585071306471
 30
0.0
 41
1.0
 10
-714.4765289949803
 20
-2447.5908340657716
 30
0.0
 41
1.0
 10
-714.50986417816512
 20
-2447.741372077538
 30
0.0
 41
0.9999813588716697
 10
-714.54503517896114
 20
-2447.8914917901939
 30
0.0
 41
1.0
 10
-714.54658910441799
 20
-2447.8981243806174
 30
0.0
 41
1.0
 10
-714.54814302987484
 20
-2447.9047569710415
 30
0.0
 41
1.0
 10
-714.58642188157967
 20
-2448.0681418645254
 30
0.0
 41
0.9999955237635957
 10
-714.6256777595662
 20
-2448.2312947681567
 30
0.0
 41
1.0
 10
-714.63795939519969
 20
-2448.2823389586756
 30
0.0
 41
1.0
 10
-714.65024103083306
 20
-2448.333383149195
 30
0.0
 41
1.0
 10
-714.71406018008383
 20
-2448.5986244338537
 30
0.0
 41
0.9999993604550956
 10
-714.77847912725929
 20
-2448.8637206845688
 30
0.0
 41
1.0
 10
-714.78319796280175
 20
-2448.8831395925909
 30
0.0
 41
1.0
 10
-714.78791679834433
 20
-2448.9025585006125
 30
0.0
 41
1.0
 10
-714.86177341660414
 20
-2449.2064925673685
 30
0.0
 41
0.9999659914728223
 10
-714.94063301249184
 20
-2449.5091671139376
 30
0.0
 41
1.0
 10
-714.94558570142158
 20
-2449.5281762511167
 30
0.0
 41
1.0
 10
-714.95053839035131
 20
-2449.5471853882955
 30
0.0
 41
1.0
 10
-715.0393033640986
 20
-2449.887878209222
 30
0.0
 41
0.9999441976024464
 10
-715.13524639706259
 20
-2450.2266196345222
 30
0.0
 41
1.0
 10
-715.15194691548686
 20
-2450.2855833470458
 30
0.0
 41
1.0
 10
-715.16864743391125
 20
-2450.3445470595689
 30
0.0
 41
1.0
 10
-715.29799150372389
 20
-2450.8012159099167
 30
0.0
 41
0.9999625120733477
 10
-715.43522427104892
 20
-2451.255576443918
 30
0.0
 41
1.0
 10
-715.47101421413277
 20
-2451.3740724705481
 30
0.0
 41
1.0
 10
-715.50680415721672
 20
-2451.4925684971781
 30
0.0
 41
1.0
 10
-715.58132436125152
 20
-2451.7392955752612
 30
0.0
 41
0.9999793386306082
 10
-715.65901038439392
 20
-2451.9850442145116
 30
0.0
 41
1.0
 10
-715.73669640753144
 20
-2452.2307928537475
 30
0.0
 41
1.0
 10
-715.74747596640213
 20
-2452.2648107581226
 30
0.0
 41
1.0
 10
-717.59784901967123
 20
-2458.15188268059
 30
0.0
 41
1.0
 10
-719.44822207294044
 20
-2464.0389546030574
 30
0.0
 41
1.0
 10
-720.409478762964
 20
-2464.0389546030574
 30
0.0
 41
1.0
 10
-721.37073545298756
 20
-2464.0389546030574
 30
0.0
 41
1.0
 10
-719.75179067430918
 20
-2458.8909261012677
 30
0.0
 41
1.0
 10
-718.13284589563068
 20
-2453.7428975994785
 30
0.0
 41
1.0
 10
-718.0876800724584
 20
-2453.598866377215
 30
0.0
 41
1.0
 10
-718.042514249286
 20
-2453.4548351549511
 30
0.0
 41
1.0
 10
-717.87220983191673
 20
-2452.9117441257667
 30
0.0
 41
0.9999911657925941
 10
-717.70647702023916
 20
-2452.3672405944126
 30
0.0
 41
1.0
 10
-717.67678107673873
 20
-2452.2696766543622
 30
0.0
 41
1.0
 10
-717.64708513323842
 20
-2452.1721127143123
 30
0.0
 41
1.0
 10
-717.54074420856489
 20
-2451.8227370630684
 30
0.0
 41
0.9999952428125633
 10
-717.43656061923389
 20
-2451.4727120386997
 30
0.0
 41
1.0
 10
-717.43150114889772
 20
-2451.4557137644124
 30
0.0
 41
1.0
 10
-717.42644167856156
 20
-2451.4387154901247
 30
0.0
 41
1.0
 10
-717.33237702991255
 20
-2451.1226870143619
 30
0.0
 41
0.999993168753743
 10
-717.24065119203533
 20
-2450.8059718010791
 30
0.0
 41
1.0
 10
-717.2357159275748
 20
-2450.7889310918049
 30
0.0
 41
1.0
 10
-717.23078066311439
 20
-2450.7718903825307
 30
0.0
 41
1.0
 10
-717.14892535416038
 20
-2450.4892565878054
 30
0.0
 41
0.9999893840797397
 10
-717.06967812770483
 20
-2450.2058804585622
 30
0.0
 41
1.0
 10
-716.99043090125497
 20
-2449.92250432934
 30
0.0
 41
0.9999833980069891
 10
-716.91445466051107
 20
-2449.6382337463056
 30
0.0
 41
1.0
 10
-716.90545072378518
 20
-2449.6045448678133
 30
0.0
 41
1.0
 10
-716.89644678705918
 20
-2449.570855989321
 30
0.0
 41
1.0
 10
-716.82748223819237
 20
-2449.3128201570235
 30
0.0
 41
0.9999233658064407
 10
-716.7649272669745
 20
-2449.0531559983092
 30
0.0
 41
1.0
 10
-716.70237229575423
 20
-2448.7934918395867
 30
0.0
 41
1.0
 10
-716.66288887689666
 20
-2448.6296851751604
 30
0.0
 41
1.0
 10
-716.65791027291925
 20
-2448.6090302132898
 30
0.0
 41
1.0
 10
-716.65293166894196
 20
-2448.5883752514192
 30
0.0
 41
1.0
 10
-716.62340545803329
 20
-2448.4658785107108
 30
0.0
 41
0.99998686708416
 10
-716.59513637404291
 20
-2448.343085565089
 30
0.0
 41
1.0
 10
-716.59123888688566
 20
-2448.3261559776743
 30
0.0
 41
1.0
 10
-716.58734139972842
 20
-2448.3092263902595
 30
0.0
 41
1.0
 10
-716.56686729004582
 20
-2448.2202926194404
 30
0.0
 41
0.9999778173360934
 10
-716.54757969193133
 20
-2448.1310940022131
 30
0.0
 41
1.0
 10
-716.52829209381764
 20
-2448.0418953849917
 30
0.0
 41
0.9999602692860102
 10
-716.51059773518512
 20
-2447.9523670965564
 30
0.0
 41
1.0
 10
-716.50739390310741
 20
-2447.9361566416706
 30
0.0
 41
1.0
 10
-716.50419007102983
 20
-2447.9199461867847
 30
0.0
 41
1.0
 10
-716.4800880482436
 20
-2447.7979969885855
 30
0.0
 41
0.9995617985320648
 10
-716.46324470102525
 20
-2447.6748352408817
 30
0.0
 41
1.0
 10
-716.46078021111907
 20
-2447.6568144235162
 30
0.0
 41
1.0
 10
-716.45831572121278
 20
-2447.6387936061506
 30
0.0
 41
1.0
 10
-716.43803246016444
 20
-2447.4904785564495
 30
0.0
 41
0.9991121410639695
 10
-716.43030710657604
 20
-2447.3409824576424
 30
0.0
 41
1.0
 10
-716.42938831655135
 20
-2447.3232026210635
 30
0.0
 41
1.0
 10
-716.42846952652667
 20
-2447.3054227844846
 30
0.0
 41
1.0
 10
-716.42258175298787
 20
-2447.1914863588336
 30
0.0
 41
0.9989792494905589
 10
-716.42700084510511
 20
-2447.0774835229381
 30
0.0
 41
1.0
 10
-716.42764881697383
 20
-2447.0607672770093
 30
0.0
 41
1.0
 10
-716.42829678884254
 20
-2447.0440510310805
 30
0.0
 41
1.0
 10
-716.43141993722259
 20
-2446.9634806870376
 30
0.0
 41
0.999782029539353
 10
-716.43790393459813
 20
-2446.8831109652956
 30
0.0
 41
1.0
 10
-716.44438793197332
 20
-2446.8027412435572
 30
0.0
 41
0.9998335105973216
 10
-716.45380012748569
 20
-2446.7226616271005
 30
0.0
 41
1.0
 10
-716.45539505216198
 20
-2446.7090918966178
 30
0.0
 41
1.0
 10
-716.45698997683826
 20
-2446.6955221661356
 30
0.0
 41
1.0
 10
-716.46959202170206
 20
-2446.588303088723
 30
0.0
 41
0.9996876457879088
 10
-716.48753593450044
 20
-2446.4818476610058
 30
0.0
 41
1.0
 10
-716.48976759764639
 20
-2446.4686079257604
 30
0.0
 41
1.0
 10
-716.49199926079234
 20
-2446.4553681905149
 30
0.0
 41
1.0
 10
-716.50579508221347
 20
-2446.3735220465574
 30
0.0
 41
0.9995547496495091
 10
-716.52444840410521
 20
-2446.2926445493704
 30
0.0
 41
1.0
 10
-716.5248223609774
 20
-2446.2910231386613
 30
0.0
 41
1.0
 10
-716.52519631784946
 20
-2446.2894017279523
 30
0.0
 41
1.0
 10
-716.5431017259981
 20
-2446.211767052177
 30
0.0
 41
0.9994899427174109
 10
-716.56592663467723
 20
-2446.1354337693447
 30
0.0
 41
1.0
 10
-716.56638516141822
 20
-2446.1339003195553
 30
0.0
 41
1.0
 10
-716.56684368815922
 20
-2446.1323668697655
 30
0.0
 41
1.0
 10
-716.58875154335669
 20
-2446.0591004865096
 30
0.0
 41
0.9993784877590616
 10
-716.6157671784631
 20
-2445.9875597813511
 30
0.0
 41
1.0
 10
-716.61629886943888
 20
-2445.9861517986337
 30
0.0
 41
1.0
 10
-716.61683056041477
 20
-2445.9847438159159
 30
0.0
 41
1.0
 10
-716.64278281356951
 20
-2445.9160190761932
 30
0.0
 41
0.99924308322559
 10
-716.67399934872901
 20
-2445.8495199241238
 30
0.0
 41
1.0
 10
-716.67458146478441
 20
-2445.8482798690093
 30
0.0
 41
1.0
 10
-716.67516358083981
 20
-2445.8470398138943
 30
0.0
 41
1.0
 10
-716.7052158838884
 20
-2445.7830207720558
 30
0.0
 41
0.9990789632799059
 10
-716.7406465106651
 20
-2445.7218141603057
 30
0.0
 41
1.0
 10
-716.74124221684724
 20
-2445.7207850744462
 30
0.0
 41
1.0
 10
-716.74183792302938
 20
-2445.7197559885867
 30
0.0
 41
1.0
 10
-716.77607713744328
 20
-2445.6606075485538
 30
0.0
 41
0.9988874801120742
 10
-716.81573641347381
 20
-2445.6049478361383
 30
0.0
 41
1.0
 10
-716.8162919395379
 20
-2445.6041681844636
 30
0.0
 41
1.0
 10
-716.81684746560211
 20
-2445.6033885327893
 30
0.0
 41
1.0
 10
-716.85539568950537
 20
-2445.5492881237215
 30
0.0
 41
0.9986762060693741
 10
-716.89929816078211
 20
-2445.4994344092815
 30
0.0
 41
1.0
 10
-716.89974212111338
 20
-2445.4989302674658
 30
0.0
 41
1.0
 10
-716.90018608144453
 20
-2445.4984261256504
 30
0.0
 41
1.0
 10
-716.94320063205771
 20
-2445.449580694843
 30
0.0
 41
0.9984621642487188
 10
-716.9913581888361
 20
-2445.4057973943713
 30
0.0
 41
1.0
 10
-716.9916048233539
 20
-2445.4055731622066
 30
0.0
 41
1.0
 10
-716.99185145787169
 20
-2445.4053489300422
 30
0.0
 41
1.0
 10
-717.03951574561518
 20
-2445.3620140938988
 30
0.0
 41
0.9982724693849767
 10
-717.09193437745535
 20
-2445.3245697433822
 30
0.0
 41
1.0
 10
-717.14435300929597
 20
-2445.2871253928652
 30
0.0
 41
0.9981399180160918
 10
-717.20093907268949
 20
-2445.2563388734211
 30
0.0
 41
1.0
 10
-717.20098473476833
 20
-2445.2563140302636
 30
0.0
 41
1.0
 10
-717.20103039684705
 20
-2445.2562891871066
 30
0.0
 41
1.0
 10
-717.25770778439778
 20
-2445.225452981349
 30
0.0
 41
0.9980927086836731
 10
-717.31775313546473
 20
-2445.2018361724963
 30
0.0
 41
1.0
 10
-717.3181933051759
 20
-2445.2016630466214
 30
0.0
 41
1.0
 10
-717.31863347488706
 20
-2445.2014899207466
 30
0.0
 41
1.0
 10
-717.37955916537692
 20
-2445.1775268601441
 30
0.0
 41
0.9981411356560004
 10
-717.44294768677617
 20
-2445.1611542186388
 30
0.0
 41
1.0
 10
-717.44382980347768
 20
-2445.1609263764331
 30
0.0
 41
1.0
 10
-717.44471192017909
 20
-2445.1606985342278
 30
0.0
 41
1.0
 10
-717.50986467498126
 20
-2445.143870208311
 30
0.0
 41
0.9983031812935339
 10
-717.57653210397689
 20
-2445.1347308471345
 30
0.0
 41
1.0
 10
-717.58540312938021
 20
-2445.1335147284635
 30
0.0
 41
1.0
 10
-717.59427415478353
 20
-2445.1322986097921
 30
0.0
 41
1.0
 10
-717.64862379728777
 20
-2445.1248478798011
 30
0.0
 41
0.9983887708263868
 10
-717.70346764658086
 20
-2445.1236032061679
 30
0.0
 41
1.0
 10
-717.71153105179883
 20
-2445.1234202082933
 30
0.0
 41
1.0
 10
-717.7195944570168
 20
-2445.1232372104182
 30
0.0
 41
1.0
 10
-717.75831149587418
 20
-2445.1223585325342
 30
0.0
 41
0.9998869563076912
 10
-717.79703744907636
 20
-2445.1226444018939
 30
0.0
 41
1.0
 10
-717.83576340224204
 20
-2445.1229302712532
 30
0.0
 41
0.9999972320144277
 10
-717.8744875814167
 20
-2445.1233983707816
 30
0.0
 41
1.0
 10
-717.89384059803319
 20
-2445.1236323108715
 30
0.0
 41
1.0
 10
-717.9131936146498
 20
-2445.1238662509613
 30
0.0
 41
1.0
 10
-717.99062382702152
 20
-2445.1248022306695
 30
0.0
 41
0.9997304945086959
 10
-718.0679271332599
 20
-2445.129331324456
 30
0.0
 41
1.0
 10
-718.07697677496321
 20
-2445.1298615304459
 30
0.0
 41
1.0
 10
-718.08602641666664
 20
-2445.1303917364357
 30
0.0
 41
1.0
 10
-718.18142900631437
 20
-2445.1359812422015
 30
0.0
 41
0.9997888306415169
 10
-718.27652134215873
 20
-2445.1454862066907
 30
0.0
 41
1.0
 10
-718.28524240372985
 20
-2445.1463579213228
 30
0.0
 41
1.0
 10
-718.29396346530086
 20
-2445.1472296359548
 30
0.0
 41
1.0
 10
-718.40649792428792
 20
-2445.158478029708
 30
0.0
 41
0.9984170238190309
 10
-718.51705707163785
 20
-2445.1822941116434
 30
0.0
 41
1.0
 10
-718.55343820262328
 20
-2445.1901311474494
 30
0.0
 41
1.0
 10
-718.58981933360883
 20
-2445.1979681832549
 30
0.0
 41
1.0
 10
-718.70501040203271
 20
-2445.2227820497651
 30
0.0
 41
0.9976592854199549
 10
-718.81573856843966
 20
-2445.2630807269129
 30
0.0
 41
1.0
 10
-718.92646673484739
 20
-2445.3033794040612
 30
0.0
 41
0.9993255074352225
 10
-719.03393853363912
 20
-2445.351696302554
 30
0.0
 41
1.0
 10
-719.03856371256052
 20
-2445.3537756787528
 30
0.0
 41
1.0
 10
-719.04318889148203
 20
-2445.3558550549519
 30
0.0
 41
1.0
 10
-719.15991104811906
 20
-2445.4083307058436
 30
0.0
 41
0.9976475078275392
 10
-719.26835839242926
 20
-2445.4762786955016
 30
0.0
 41
1.0
 10
-719.28670078656501
 20
-2445.4877711743165
 30
0.0
 41
1.0
 10
-719.30504318070075
 20
-2445.4992636531319
 30
0.0
 41
1.0
 10
-719.38924537225068
 20
-2445.5520207738987
 30
0.0
 41
0.9995131336406073
 10
-719.46999308720899
 20
-2445.6099269858528
 30
0.0
 41
1.0
 10
-719.55074080217094
 20
-2445.6678331978096
 30
0.0
 41
0.999581010760573
 10
-719.62800244990217
 20
-2445.7303148802775
 30
0.0
 41
1.0
 10
-719.63097248110876
 20
-2445.7327167517392
 30
0.0
 41
1.0
 10
-719.63394251231534
 20
-2445.7351186232008
 30
0.0
 41
1.0
 10
-719.71714422246305
 20
-2445.8024040485952
 30
0.0
 41
0.9996617837955045
 10
-719.79673490959942
 20
-2445.8739245041561
 30
0.0
 41
1.0
 10
-719.80886566047604
 20
-2445.8848252371463
 30
0.0
 41
1.0
 10
-719.82099641135267
 20
-2445.8957259701365
 30
0.0
 41
1.0
 10
-719.88927193874986
 20
-2445.9570785856095
 30
0.0
 41
0.9997267750052742
 10
-719.95460544703474
 20
-2446.0215551221359
 30
0.0
 41
1.0
 10
-720.01993895531348
 20
-2446.0860316586563
 30
0.0
 41
0.9999667288956357
 10
-720.08421189846945
 20
-2446.15156546556
 30
0.0
 41
1.0
 10
-720.15303934624239
 20
-2446.2217431243162
 30
0.0
 41
1.0
 10
-720.22186679401534
 20
-2446.2919207830719
 30
0.0
 41
1.0
 10
-720.42379463271118
 20
-2446.4978099074815
 30
0.0
 41
0.9988205335175039
 10
-720.60480024969183
 20
-2446.7223141395439
 30
0.0
 41
1.0
 10
-720.63544021459643
 20
-2446.7603173899734
 30
0.0
 41
1.0
 10
-720.66608017950102
 20
-2446.7983206404033
 30
0.0
 41
1.0
 10
-720.90836572629144
 20
-2447.0988313733255
 30
0.0
 41
0.9997077826755286
 10
-721.13584367739543
 20
-2447.4107011675405
 30
0.0
 41
1.0
 10
-721.13756709252584
 20
-2447.4130639509199
 30
0.0
 41
1.0
 10
-721.13929050765614
 20
-2447.4154267342992
 30
0.0
 41
1.0
 10
-721.37021528902358
 20
-2447.7320220952761
 30
0.0
 41
0.9989147567078452
 10
-721.57067879190618
 20
-2448.0687315564601
 30
0.0
 41
1.0
 10
-721.59541993721268
 20
-2448.1102881370116
 30
0.0
 41
1.0
 10
-721.62016108251908
 20
-2448.1518447175631
 30
0.0
 41
1.0
 10
-721.77537238115576
 20
-2448.4125461020149
 30
0.0
 41
0.9997476598181745
 10
-721.91871736866665
 20
-2448.6799558505995
 30
0.0
 41
1.0
 10
-722.06206235617515
 20
-2448.9473655991796
 30
0.0
 41
0.9996258967110586
 10
-722.19057060810928
 20
-2449.2222135358088
 30
0.0
 41
1.0
 10
-722.20377051755804
 20
-2449.2504449359021
 30
0.0
 41
1.0
 10
-722.21697042700669
 20
-2449.2786763359954
 30
0.0
 41
1.0
 10
-722.35717914800784
 20
-2449.5785487339522
 30
0.0
 41
0.9998735413943106
 10
-722.48778049472776
 20
-2449.8827283334185
 30
0.0
 41
1.0
 10
-722.4912233227883
 20
-2449.8907469188835
 30
0.0
 41
1.0
 10
-722.49466615084896
 20
-2449.8987655043484
 30
0.0
 41
1.0
 10
-722.61838184144631
 20
-2450.1869079328812
 30
0.0
 41
0.9999377418863743
 10
-722.73563664362291
 20
-2450.4777394005609
 30
0.0
 41
1.0
 10
-722.85289144579474
 20
-2450.7685708682288
 30
0.0
 41
0.9999508299505892
 10
-722.96435538917535
 20
-2451.0616705450589
 30
0.0
 41
1.0
 10
-722.96743615783782
 20
-2451.0697715710226
 30
0.0
 41
1.0
 10
-722.9705169265003
 20
-2451.0778725969863
 30
0.0
 41
1.0
 10
-723.08814240720619
 20
-2451.3871743257441
 30
0.0
 41
0.9999609228429941
 10
-723.20028101007995
 20
-2451.69850734176
 30
0.0
 41
1.0
 10
-723.20323702042788
 20
-2451.7067141821649
 30
0.0
 41
1.0
 10
-723.20619303077592
 20
-2451.7149210225698
 30
0.0
 41
1.0
 10
-723.32424365435259
 20
-2452.0426677194132
 30
0.0
 41
0.9999674607403569
 10
-723.43699118042025
 20
-2452.3722763394076
 30
0.0
 41
1.0
 10
-723.48838957098042
 20
-2452.5225355350926
 30
0.0
 41
1.0
 10
-723.53978796154047
 20
-2452.6727947307777
 30
0.0
 41
1.0
 10
-723.65579856830254
 20
-2453.0119427132922
 30
0.0
 41
0.9999287532307649
 10
-723.76367997227089
 20
-2453.3537634522618
 30
0.0
 41
1.0
 10
-723.8101572284113
 20
-2453.5010259966366
 30
0.0
 41
1.0
 10
-723.85663448455171
 20
-2453.6482885410114
 30
0.0
 41
1.0
 10
-723.8715613761924
 20
-2453.6955841910817
 30
0.0
 41
0.9999998223886008
 10
-723.88643188497213
 20
-2453.7428975994785
 30
0.0
 41
1.0
 10
-725.50708802176757
 20
-2458.8909261012677
 30
0.0
 41
1.0
 10
-727.12774415856302
 20
-2464.0389546030574
 30
0.0
 41
1.0
 10
-728.03305260245395
 20
-2464.0389546030574
 30
0.0
 41
1.0
 10
-728.93836104634488
 20
-2464.0389546030574
 30
0.0
 41
1.0
 10
-727.08627663495884
 20
-2458.15188268059
 30
0.0
 41
1.0
 10
-725.23419222357279
 20
-2452.2648107581226
 30
0.0
 41
1.0
 10
-725.22407046527007
 20
-2452.2327675446727
 30
0.0
 41
1.0
 10
-725.15146279642033
 20
-2452.0024680028469
 30
0.0
 41
1.0
 10
-725.07885512756877
 20
-2451.7721684610151
 30
0.0
 41
0.9999825681972889
 10
-725.00897208835534
 20
-2451.5410275659442
 30
0.0
 41
1.0
 10
-724.96068102619824
 20
-2451.3813029824605
 30
0.0
 41
1.0
 10
-724.91238996404127
 20
-2451.2215783989768
 30
0.0
 41
1.0
 10
-724.81523761072344
 20
-2450.9002431771992
 30
0.0
 41
0.9999672528962031
 10
-724.72329880509824
 20
-2450.5773776316064
 30
0.0
 41
1.0
 10
-724.72050992142977
 20
-2450.5675837862209
 30
0.0
 41
1.0
 10
-724.71772103776129
 20
-2450.5577899408354
 30
0.0
 41
1.0
 10
-724.63135999947554
 20
-2450.2545120860218
 30
0.0
 41
0.9999899749164537
 10
-724.5477183899402
 20
-2449.950472997567
 30
0.0
 41
1.0
 10
-724.53761247092189
 20
-2449.9137377598859
 30
0.0
 41
1.0
 10
-724.52750655190368
 20
-2449.8770025222047
 30
0.0
 41
1.0
 10
-724.46407678040646
 20
-2449.6464339091181
 30
0.0
 41
0.9999214200502606
 10
-724.40644735202773
 20
-2449.4143475669052
 30
0.0
 41
1.0
 10
-724.39368149984546
 20
-2449.3629366815021
 30
0.0
 41
1.0
 10
-724.38091564766319
 20
-2449.3115257960994
 30
0.0
 41
1.0
 10
-724.34881792364649
 20
-2449.1822612246824
 30
0.0
 41
0.9999828681674853
 10
-724.31823567165463
 20
-2449.0526297502288
 30
0.0
 41
1.0
 10
-724.2876534196597
 20
-2448.9229982757629
 30
0.0
 41
0.9999389844475185
 10
-724.25994243087041
 20
-2448.7927228198632
 30
0.0
 41
1.0
 10
-724.25280468715005
 20
-2448.759166716025
 30
0.0
 41
1.0
 10
-724.24566694342957
 20
-2448.7256106121868
 30
0.0
 41
1.0
 10
-724.20368046720068
 20
-2448.5282229486165
 30
0.0
 41
0.9998933699440362
 10
-724.16747620279796
 20
-2448.3296933408542
 30
0.0
 41
1.0
 10
-724.16610337758152
 20
-2448.3221653201572
 30
0.0
 41
1.0
 10
-724.16473055236497
 20
-2448.3146372994597
 30
0.0
 41
1.0
 10
-724.12578063753051
 20
-2448.1010516503102
 30
0.0
 41
0.9996850305193378
 10
-724.09759696127128
 20
-2447.8857806448709
 30
0.0
 41
1.0
 10
-724.09560192790218
 20
-2447.870542290751
 30
0.0
 41
1.0
 10
-724.0936068945332
 20
-2447.8553039366311
 30
0.0
 41
1.0
 10
-724.06619903207456
 20
-2447.6459587094778
 30
0.0
 41
0.999469793670715
 10
-724.0524744728541
 20
-2447.435273514142
 30
0.0
 41
1.0
 10
-724.05199740360433
 20
-2447.4279500419289
 30
0.0
 41
1.0
 10
-724.05152033435456
 20
-2447.4206265697162
 30
0.0
 41
1.0
 10
-724.03874991363421
 20
-2447.2245883188098
 30
0.0
 41
0.9991804893136422
 10
-724.0418782299073
 20
-2447.0281594688381
 30
0.0
 41
1.0
 10
-724.04196210872942
 20
-2447.0228926674281
 30
0.0
 41
1.0
 10
-724.04204598755143
 20
-2447.0176258660181
 30
0.0
 41
1.0
 10
-724.04500654618005
 20
-2446.8317306188687
 30
0.0
 41
0.9988448329322561
 10
-724.0657980918038
 20
-2446.6469780290313
 30
0.0
 41
1.0
 10
-724.06739216550682
 20
-2446.6328131732607
 30
0.0
 41
1.0
 10
-724.06898623920972
 20
-2446.6186483174902
 30
0.0
 41
1.0
 10
-724.08658963742755
 20
-2446.4622254391993
 30
0.0
 41
0.998550320945945
 10
-724.12090590972707
 20
-2446.3086012551084
 30
0.0
 41
1.0
 10
-724.12849190179827
 20
-2446.2746409277088
 30
0.0
 41
1.0
 10
-724.13607789386936
 20
-2446.2406806003087
 30
0.0
 41
1.0
 10
-724.15522218202636
 20
-2446.1549770710203
 30
0.0
 41
0.9991036781370566
 10
-724.18154704367794
 20
-2446.071199983694
 30
0.0
 41
1.0
 10
-724.18552926913208
 20
-2446.0585268211889
 30
0.0
 41
1.0
 10
-724.18951149458621
 20
-2446.0458536586843
 30
0.0
 41
1.0
 10
-724.2078719053294
 20
-2445.9874228963677
 30
0.0
 41
0.9998874504367796
 10
-724.22797711300746
 20
-2445.9295692941459
 30
0.0
 41
1.0
 10
-724.2480823206846
 20
-2445.871715691927
 30
0.0
 41
0.9994041637545182
 10
-724.27213093361809
 20
-2445.8153869880384
 30
0.0
 41
1.0
 10
-724.27632771784215
 20
-2445.8055569235567
 30
0.0
 41
1.0
 10
-724.2805245020661
 20
-2445.7957268590744
 30
0.0
 41
1.0
 10
-724.30840333306105
 20
-2445.7304266931055
 30
0.0
 41
0.9991846840702072
 10
-724.34145968975588
 20
-2445.6675886618214
 30
0.0
 41
1.0
 10
-724.34259629615087
 20
-2445.6654280453668
 30
0.0
 41
1.0
 10
-724.34373290254587
 20
-2445.6632674289121
 30
0.0
 41
1.0
 10
-724.37451604644866
 20
-2445.6047506305422
 30
0.0
 41
0.9989253167923909
 10
-724.41058547050397
 20
-2445.549335702151
 30
0.0
 41
1.0
 10
-724.41163959517826
 20
-2445.5477162073885
 30
0.0
 41
1.0
 10
-724.41269371985254
 20
-2445.546096712626
 30
0.0
 41
1.0
 10
-724.44665489455883
 20
-2445.4939207737607
 30
0.0
 41
0.9986467172836276
 10
-724.4858520471962
 20
-2445.4455547401312
 30
0.0
 41
1.0
 10
-724.48672617589614
 20
-2445.4444761378541
 30
0.0
 41
1.0
 10
-724.48760030459596
 20
-2445.4433975355769
 30
0.0
 41
1.0
 10
-724.52504919983323
 20
-2445.3971887065022
 30
0.0
 41
0.9984001104266446
 10
-724.56747593035084
 20
-2445.355503599133
 30
0.0
 41
1.0
 10
-724.56806306846067
 20
-2445.3549267242515
 30
0.0
 41
1.0
 10
-724.56865020657051
 20
-2445.3543498493696
 30
0.0
 41
1.0
 10
-724.60990266086867
 20
-2445.3138184917639
 30
0.0
 41
0.9982442159084403
 10
-724.65565876220353
 20
-2445.2784499305039
 30
0.0
 41
1.0
 10
-724.65587355766525
 20
-2445.278283897861
 30
0.0
 41
1.0
 10
-724.65608835312707
 20
-2445.2781178652176
 30
0.0
 41
1.0
 10
-724.70141486353828
 20
-2445.243081369244
 30
0.0
 41
0.9982450060834484
 10
-724.75056584261097
 20
-2445.2136495862101
 30
0.0
 41
1.0
 10
-724.79971682168014
 20
-2445.1842178031784
 30
0.0
 41
0.9983922639635969
 10
-724.85188312784385
 20
-2445.1605381685245
 30
0.0
 41
1.0
 10
-724.85211000517018
 20
-2445.160435183042
 30
0.0
 41
1.0
 10
-724.8523368824965
 20
-2445.1603321975599
 30
0.0
 41
1.0
 10
-724.90495694330991
 20
-2445.1364465919428
 30
0.0
 41
0.9986517147150783
 10
-724.95976991617806
 20
-2445.1181454728207
 30
0.0
 41
1.0
 10
-724.9604478376059
 20
-2445.1179191263891
 30
0.0
 41
1.0
 10
-724.96112575903385
 20
-2445.1176927799579
 30
0.0
 41
1.0
 10
-725.01729457475835
 20
-2445.098938967973
 30
0.0
 41
0.9989435598957214
 10
-725.07494796191168
 20
-2445.0854212657382
 30
0.0
 41
1.0
 10
-725.07602808149204
 20
-2445.0851680154856
 30
0.0
 41
1.0
 10
-725.07710820107241
 20
-2445.084914765233
 30
0.0
 41
1.0
 10
-725.13692182739101
 20
-2445.0708905624915
 30
0.0
 41
0.9992249241239919
 10
-725.19765333629221
 20
-2445.0616152197758
 30
0.0
 41
1.0
 10
-725.19906702457934
 20
-2445.0613993113684
 30
0.0
 41
1.0
 10
-725.20048071286658
 20
-2445.0611834029614
 30
0.0
 41
1.0
 10
-725.26403959834363
 20
-2445.0514762434309
 30
0.0
 41
0.9994396597833756
 10
-725.32810553487752
 20
-2445.0460433210851
 30
0.0
 41
1.0
 10
-725.34724620235806
 20
-2445.0444201533664
 30
0.0
 41
1.0
 10
-725.36638686983861
 20
-2445.0427969856473
 30
0.0
 41
1.0
 10
-725.4687341413312
 20
-2445.0341177278647
 30
0.0
 41
0.9987693403120966
 10
-725.57143776491796
 20
-2445.0356207913178
 30
0.0
 41
1.0
 10
-725.5816920991457
 20
-2445.0357708630918
 30
0.0
 41
1.0
 10
-725.59194643337344
 20
-2445.0359209348662
 30
0.0
 41
1.0
 10
-725.7015021995519
 20
-2445.0375242791533
 30
0.0
 41
0.99897536449659
 10
-725.81046419956806
 20
-2445.0490272860784
 30
0.0
 41
1.0
 10
-725.91942619958354
 20
-2445.0605302930035
 30
0.0
 41
0.9983190067305933
 10
-726.02632501054711
 20
-2445.0845652847897
 30
0.0
 41
1.0
 10
-726.03522596215498
 20
-2445.0865665633528
 30
0.0
 41
1.0
 10
-726.04412691376297
 20
-2445.0885678419154
 30
0.0
 41
1.0
 10
-726.16882762794353
 20
-2445.1166053908282
 30
0.0
 41
0.9985539388302309
 10
-726.28979738162275
 20
-2445.1578690668748
 30
0.0
 41
1.0
 10
-726.29214281258135
 20
-2445.15866911069
 30
0.0
 41
1.0
 10
-726.29448824353994
 20
-2445.1594691545051
 30
0.0
 41
1.0
 10
-726.42014885913909
 20
-2445.2023329181825
 30
0.0
 41
0.9988468746493212
 10
-726.54111920144032
 20
-2445.2570510032451
 30
0.0
 41
1.0
 10
-726.54430202342826
 20
-2445.2584906778047
 30
0.0
 41
1.0
 10
-726.54748484541619
 20
-2445.2599303523643
 30
0.0
 41
1.0
 10
-726.67482083169421
 20
-2445.3175277865466
 30
0.0
 41
0.999132288591972
 10
-726.79692141575299
 20
-2445.3855231187295
 30
0.0
 41
1.0
 10
-726.81452342679449
 20
-2445.3953253207183
 30
0.0
 41
1.0
 10
-726.83212543783611
 20
-2445.4051275227066
 30
0.0
 41
1.0
 10
-726.93430211889347
 20
-2445.4620276384876
 30
0.0
 41
0.9993860037850491
 10
-727.03224312296913
 20
-2445.5259436540773
 30
0.0
 41
1.0
 10
-727.03786143581874
 20
-2445.5296101487702
 30
0.0
 41
1.0
 10
-727.04347974866846
 20
-2445.5332766434635
 30
0.0
 41
1.0
 10
-727.13018412704002
 20
-2445.5898596696643
 30
0.0
 41
0.9998821494954128
 10
-727.2151105028554
 20
-2445.6490778997427
 30
0.0
 41
1.0
 10
-727.30003687866906
 20
-2445.7082961298197
 30
0.0
 41
0.9997976482743872
 10
-727.38251250907058
 20
-2445.7708825378604
 30
0.0
 41
1.0
 10
-727.3971487738761
 20
-2445.7819892276407
 30
0.0
 41
1.0
 10
-727.41178503868161
 20
-2445.7930959174209
 30
0.0
 41
1.0
 10
-727.52353319869508
 20
-2445.8778957050226
 30
0.0
 41
0.9998091630800091
 10
-727.63188347672008
 20
-2445.9669960557217
 30
0.0
 41
1.0
 10
-727.64488922919872
 20
-2445.9776911561685
 30
0.0
 41
1.0
 10
-727.65789498167737
 20
-2445.9883862566157
 30
0.0
 41
1.0
 10
-727.79225676465842
 20
-2446.0988768082084
 30
0.0
 41
0.9995035112317852
 10
-727.91939264242114
 20
-2446.2176106252223
 30
0.0
 41
1.0
 10
-727.92903995280972
 20
-2446.2266203713816
 30
0.0
 41
1.0
 10
-727.93868726319829
 20
-2446.2356301175405
 30
0.0
 41
1.0
 10
-728.06211032596286
 20
-2446.3508964892962
 30
0.0
 41
0.9994630424299927
 10
-728.17771873174684
 20
-2446.4739992325312
 30
0.0
 41
1.0
 10
-728.18140157052005
 20
-2446.4779208120462
 30
0.0
 41
1.0
 10
-728.18508440929327
 20
-2446.4818423915613
 30
0.0
 41
1.0
 10
-728.29332713753138
 20
-2446.5971019757671
 30
0.0
 41
0.9995160693750494
 10
-728.39419316706278
 20
-2446.7188693936387
 30
0.0
 41
1.0
 10
-728.39612688714203
 20
-2446.721203817845
 30
0.0
 41
1.0
 10
-728.39806060722128
 20
-2446.7235382420513
 30
0.0
 41
1.0
 10
-728.49505919659566
 20
-2446.8406368115129
 30
0.0
 41
0.9996561470514658
 10
-728.5857854152606
 20
-2446.9626595739605
 30
0.0
 41
1.0
 10
-728.59194308116253
 20
-2446.9709413630026
 30
0.0
 41
1.0
 10
-728.59810074706456
 20
-2446.9792231520451
 30
0.0
 41
1.0
 10
-728.67651163392702
 20
-2447.08468233641
 30
0.0
 41
0.9998349055172519
 10
-728.75103891585877
 20
-2447.1929209200734
 30
0.0
 41
1.0
 10
-728.82556619779416
 20
-2447.3011595037415
 30
0.0
 41
0.9999728109554975
 10
-728.89848909369869
 20
-2447.4104854292882
 30
0.0
 41
1.0
 10
-728.89980430911169
 20
-2447.4124571987923
 30
0.0
 41
1.0
 10
-728.90111952452457
 20
-2447.4144289682968
 30
0.0
 41
1.0
 10
-728.97667285125169
 20
-2447.5276984328475
 30
0.0
 41
0.9999972147426711
 10
-729.05169066164046
 20
-2447.641323275705
 30
0.0
 41
1.0
 10
-729.05666220425871
 20
-2447.6488533641714
 30
0.0
 41
1.0
 10
-729.06163374687696
 20
-2447.6563834526373
 30
0.0
 41
1.0
 10
-729.14659464249371
 20
-2447.7850684724144
 30
0.0
 41
0.9999371979005163
 10
-729.22864999189915
 20
-2447.9156253861938
 30
0.0
 41
1.0
 10
-729.23215887626156
 20
-2447.9212083142602
 30
0.0
 41
1.0
 10
-729.23566776062398
 20
-2447.9267912423261
 30
0.0
 41
1.0
 10
-729.32474087875437
 20
-2448.0685140122373
 30
0.0
 41
0.9998272025608666
 10
-729.40848426963316
 20
-2448.2134498889745
 30
0.0
 41
1.0
 10
-729.42369944165796
 20
-2448.2397830034324
 30
0.0
 41
1.0
 10
-729.43891461368275
 20
-2448.2661161178903
 30
0.0
 41
1.0
 10
-729.55308834861512
 20
-2448.4637182235501
 30
0.0
 41
0.9995217214837951
 10
-729.65482803816917
 20
-2448.6680005514099
 30
0.0
 41
1.0
 10
-729.66247160080388
 20
-2448.6833480011123
 30
0.0
 41
1.0
 10
-729.67011516343871
 20
-2448.6986954508147
 30
0.0
 41
1.0
 10
-729.75702045602691
 20
-2448.8731919088932
 30
0.0
 41
0.9998269762607405
 10
-729.83737492230034
 20
-2449.0508001956191
 30
0.0
 41
1.0
 10
-729.91772938857139
 20
-2449.2284084823395
 30
0.0
 41
0.9998944747388492
 10
-729.99289018313777
 20
-2449.4082762079734
 30
0.0
 41
1.0
 10
-729.99784385272881
 20
-2449.4201308628903
 30
0.0
 41
1.0
 10
-730.00279752231984
 20
-2449.4319855178073
 30
0.0
 41
1.0
 10
-730.08344458287434
 20
-2449.6249824578299
 30
0.0
 41
0.9999506734410018
 10
-730.16024211177614
 20
-2449.8195432626817
 30
0.0
 41
1.0
 10
-730.17484207704524
 20
-2449.8565311844832
 30
0.0
 41
1.0
 10
-730.18944204231445
 20
-2449.8935191062851
 30
0.0
 41
1.0
 10
-730.23703964067602
 20
-2450.0141040675285
 30
0.0
 41
0.9999912393941323
 10
-730.28362608470229
 20
-2450.1350832702337
 30
0.0
 41
1.0
 10
-730.33021252873118
 20
-2450.2560624729463
 30
0.0
 41
0.9999927113996207
 10
-730.37587382311176
 20
-2450.3773938804129
 30
0.0
 41
1.0
 10
-730.38984225451304
 20
-2450.4145108624216
 30
0.0
 41
1.0
 10
-730.40381068591432
 20
-2450.4516278444298
 30
0.0
 41
1.0
 10
-730.47740884310429
 20
-2450.6471932159297
 30
0.0
 41
0.9999487550950775
 10
-730.54703246807549
 20
-2450.8442085811112
 30
0.0
 41
1.0
 10
-730.57062607801663
 20
-2450.910971891416
 30
0.0
 41
1.0
 10
-730.59421968795778
 20
-2450.9777352017209
 30
0.0
 41
1.0
 10
-730.68890532232388
 20
-2451.2456690365325
 30
0.0
 41
0.999980843692703
 10
-730.78026691096147
 20
-2451.5147544677866
 30
0.0
 41
1.0
 10
-730.87162849959827
 20
-2451.783839899038
 30
0.0
 41
0.9999873932913209
 10
-730.96028320831817
 20
-2452.0538292540564
 30
0.0
 41
1.0
 10
-730.98037556518898
 20
-2452.1150185868137
 30
0.0
 41
1.0
 10
-731.00046792205967
 20
-2452.1762079195705
 30
0.0
 41
1.0
 10
-731.12930734451515
 20
-2452.5685759400849
 30
0.0
 41
0.9999794883033596
 10
-731.25311012947304
 20
-2452.9625621463624
 30
0.0
 41
1.0
 10
-731.26426238890849
 20
-2452.9980527565926
 30
0.0
 41
1.0
 10
-731.27541464834383
 20
-2453.0335433668229
 30
0.0
 41
1.0
 10
-731.41797281223262
 20
-2453.4872161188823
 30
0.0
 41
0.999998276178058
 10
-731.55884525226224
 20
-2453.941415141051
 30
0.0
 41
1.0
 10
-733.14698558483485
 20
-2458.9901848720542
 30
0.0
 41
1.0
 10
-734.73512591740746
 20
-2464.0389546030574
 30
0.0
 41
1.0
 10
-735.68387652888384
 20
-2464.0389546030574
 30
0.0
 41
1.0
 10
-736.63262714036023
 20
-2464.0389546030574
 30
0.0
 41
1.0
 10
-733.39434265420709
 20
-2453.7116324031113
 30
0.0
 41
1.0
 10
-730.15605816805385
 20
-2443.3843102031651
 30
0.0
 41
1.0
  0
LWPOLYLINE
  5
5E
100
AcDbEntity
  8
0
370
              15
390
0
  6
Continuous
 62
               7
100
AcDbPolyline
 90
      232
 70
             128
 10
-755.85960394188089
 20
-2444.4686530346803
 42
0.000437080068672
 10
-755.91248111591131
 20
-2444.5373196738824
 10
-755.95176534708037
 20
-2444.5884267868332
 42
0.0030481992180747
 10
-756.08210406420346
 20
-2444.760148479183
 10
-756.12061573594997
 20
-2444.8115352629657
 42
0.0042058245754018
 10
-756.32460078662427
 20
-2445.0885410080455
 10
-756.3770059091205
 20
-2445.16097385482
 42
0.0120948898743296
 10
-756.67304982588223
 20
-2445.5917234593694
 10
-756.76924232500483
 20
-2445.739204194595
 42
0.0141601263947391
 10
-757.07288637192585
 20
-2446.234873531329
 10
-757.11242363935423
 20
-2446.3037174987649
 42
0.0071131081304345
 10
-757.31769596259028
 20
-2446.6732202975991
 42
0.0068458791001481
 10
-757.51257548943306
 20
-2447.0483118610746
 10
-757.51938735189106
 20
-2447.0618735747989
 42
0.0064120880287567
 10
-757.7175296019326
 20
-2447.4692980497116
 10
-757.72506428745237
 20
-2447.4853099064389
 42
0.0058857236447623
 10
-757.92781967932331
 20
-2447.9296860174722
 10
-757.93599460561802
 20
-2447.9481761711077
 42
0.0053189741892778
 10
-758.14469891828378
 20
-2448.4341396450218
 10
-758.15344672396691
 20
-2448.4551215232223
 42
0.0047503650417411
 10
-758.36942045011585
 20
-2448.9873209564271
 10
-758.37868869846579
 20
-2449.0107973325394
 42
0.0042071762169906
 10
-758.60323608219801
 20
-2449.5938909266215
 10
-758.61298548454215
 20
-2449.6198571014793
 42
0.0036680086486491
 10
-758.84744012785427
 20
-2450.2584924860103
 10
-758.85764790770202
 20
-2450.2869410203548
 42
0.0032573142631002
 10
-759.10328019366682
 20
-2450.9857936801027
 10
-759.17193071451231
 20
-2451.1852567641699
 42
0.0026133366647864
 10
-759.52037591326734
 20
-2452.2151200478329
 10
-759.58363270077041
 20
-2452.405350883233
 42
0.0020592950743204
 10
-759.79749576973518
 20
-2453.057454535839
 10
-759.80054756089726
 20
-2453.0668910242457
 42
0.0025609928534578
 10
-760.00236806238411
 20
-2453.7020362466146
 10
-760.00495942951659
 20
-2453.7103385875735
 42
0.0031362356241491
 10
-760.19445021518777
 20
-2454.3311014437345
 10
-760.19658125811418
 20
-2454.3382427499423
 42
0.0037229918029675
 10
-760.37338164504149
 20
-2454.9472280519199
 10
-760.37506023424555
 20
-2454.9531749420858
 42
0.0043077623708475
 10
-760.53880103631298
 20
-2455.5529936738635
 42
0.004765416182101
 10
-760.69162975882966
 20
-2456.1556797627686
 10
-760.72609436766811
 20
-2456.2972415399154
 42
0.0112969368443395
 10
-760.92195872581226
 20
-2457.1889337005423
 10
-760.94996511490831
 20
-2457.3317617466373
 42
0.013005676257199
 10
-761.15080235855498
 20
-2458.5187028182827
 10
-761.17134210870233
 20
-2458.6627809317611
 42
0.0138721532145136
 10
-761.27504511323991
 20
-2459.569610417585
 10
-761.29434060114841
 20
-2459.7931081395177
 42
0.0071254697010336
 10
-761.32768724707034
 20
-2460.2562951483574
 10
-761.33264822123374
 20
-2460.3422991429197
 42
0.0028881799210694
 10
-761.34778651452348
 20
-2460.6340408527603
 42
0.0060297297137137
 10
-761.35771871429904
 20
-2460.9259897888751
 10
-761.35878099596607
 20
-2460.9743821608017
 42
0.0229523164142052
 10
-761.3510499681804
 20
-2461.2971370070918
 10
-761.34682419466003
 20
-2461.3575405411075
 42
0.0123673300677673
 10
-761.32774554814171
 20
-2461.5586612662828
 42
0.0128577674472466
 10
-761.29855015773569
 20
-2461.7585591162069
 10
-761.29142428434841
 20
-2461.7998879308061
 42
0.0285717853766183
 10
-761.22693028265314
 20
-2462.0780040821182
 10
-761.21326175898628
 20
-2462.1246588515974
 42
0.0316283099152691
 10
-761.0974511790721
 20
-2462.443673353423
 10
-761.09440248731653
 20
-2462.4506597257487
 42
0.033898482424189
 10
-760.94497077634935
 20
-2462.7382256899377
 10
-760.94266204698022
 20
-2462.7420167192122
 42
0.0350228718357052
 10
-760.76030175630592
 20
-2462.9990687038903
 10
-760.7594165045291
 20
-2463.0001477816568
 42
0.0347476747526624
 10
-760.54499181729079
 20
-2463.2273328288743
 42
0.033133770190916
 10
-760.30174849154434
 20
-2463.4234614909519
 10
-760.30064839302827
 20
-2463.4242341941244
 42
0.0305233319087234
 10
-760.032103697455
 20
-2463.5893623642155
 10
-760.02887365295373
 20
-2463.5910863760782
 42
0.0273744481158926
 10
-759.73631994138088
 20
-2463.7272245199679
 10
-759.73121540624186
 20
-2463.7292681044382
 42
0.0240964406207856
 10
-759.41573833059329
 20
-2463.8382518307203
 10
-759.40915500138613
 20
-2463.8401765703948
 42
0.0209636179805567
 10
-759.07175484873733
 20
-2463.9236447183262
 10
-759.06412238828489
 20
-2463.9251966313282
 42
0.0181388704689189
 10
-758.70579999628615
 20
-2463.9846127245423
 10
-758.69751914790822
 20
-2463.9856789083592
 42
0.0156086547578556
 10
-758.31933178372776
 20
-2464.0224150949357
 10
-758.27613653138508
 20
-2464.0252535974155
 42
0.0137148329027815
 10
-757.94846338609352
 20
-2464.0377738526668
 10
-757.90252719613056
 20
-2464.0382682857821
 42
0.0051057823891749
 10
-757.6663816095753
 20
-2464.0383985401904
 42
0.0052256693305098
 10
-757.43028432582025
 20
-2464.0336497157273
 10
-757.36005754204723
 20
-2464.0315027497122
 42
0.0161507179049855
 10
-756.98432046394385
 20
-2464.0078523793854
 10
-756.96430750357285
 20
-2464.0059421840983
 42
0.0101216737841087
 10
-756.55028028207573
 20
-2463.9579492537318
 10
-756.51622699265545
 20
-2463.9533015569232
 42
0.0245291776395926
 10
-756.03943733710048
 20
-2463.8642264788459
 10
-755.95461402158026
 20
-2463.8440305585009
 42
0.014350921256239
 10
-755.59798291764071
 20
-2463.7482259247222
 42
0.0156557857036094
 10
-755.24776685290681
 20
-2463.6312147089011
 10
-755.2402656384188
 20
-2463.6284445471492
 42
0.0170137333626128
 10
-754.88366964274189
 20
-2463.4827869322803
 10
-754.87656572032995
 20
-2463.4795990967145
 42
0.0183105364411395
 10
-754.51721605215755
 20
-2463.302264054887
 10
-754.51026928752492
 20
-2463.2985136200182
 42
0.0194899958151179
 10
-754.15178854654209
 20
-2463.0865346381283
 10
-754.14477466720427
 20
-2463.0820092958324
 42
0.0204869852948487
 10
-753.79076036511117
 20
-2462.8324892807473
 10
-753.78349475652328
 20
-2462.8269092153982
 42
0.0212516938554428
 10
-753.43750482541554
 20
-2462.537005218504
 10
-753.39098813134001
 20
-2462.4945379084102
 42
0.0215248918246058
 10
-753.13096196245192
 20
-2462.2357736294152
 10
-753.0859322280711
 20
-2462.1869295080651
 42
0.0114578554961011
 10
-752.93114007439408
 20
-2462.0111065746073
 10
-752.91994553841391
 20
-2461.9977878110694
 42
0.0061531305140314
 10
-752.79347089241298
 20
-2461.8434982777562
 42
0.0006325587121068
 10
-752.66909240822406
 20
-2461.6874949020334
 10
-752.64605227320976
 20
-2461.658521381421
 42
0.0041897761556028
 10
-752.47759686922348
 20
-2461.4430020053414
 10
-752.41913474934483
 20
-2461.3669006583741
 42
0.0092993880042007
 10
-752.14252282212044
 20
-2460.9926218944893
 10
-752.06012832892156
 20
-2460.8766848909208
 42
0.015932172708947
 10
-751.71352184627983
 20
-2460.3545106701654
 10
-751.66916571089223
 20
-2460.2828311059179
 42
0.0085547317020052
 10
-751.43465394556506
 20
-2459.8889561566907
 42
0.0084601156897254
 10
-751.21367776812212
 20
-2459.4873293076571
 10
-751.20556229429258
 20
-2459.4719696253856
 42
0.0081429654285666
 10
-750.98231302385727
 20
-2459.0322481128496
 10
-750.97345285967106
 20
-2459.0140692708255
 42
0.0076574581325287
 10
-750.7470453491029
 20
-2458.5308863955697
 10
-750.73756570838066
 20
-2458.5098219172696
 42
0.0070682724200532
 10
-750.50712080057178
 20
-2457.9777846124834
 10
-750.49713051659216
 20
-2457.9537954234765
 42
0.006455951444721
 10
-750.26179730840977
 20
-2457.3674831569556
 10
-750.25138795024554
 20
-2457.3405482315152
 42
0.005831141390528
 10
-750.01034121348175
 20
-2456.6945161371291
 10
-749.99958613609522
 20
-2456.6646317959712
 42
0.0052312425819349
 10
-749.7520048580526
 20
-2455.9534293821312
 10
-749.74096102167459
 20
-2455.9206026700667
 42
0.0046680544796217
 10
-749.48603259393906
 20
-2455.1387763543094
 10
-749.44404044389751
 20
-2455.0057931170231
 42
0.0041666856443292
 10
-749.2407544315015
 20
-2454.3428243420144
 10
-749.20309199083977
 20
-2454.216243234368
 42
0.0015170975154759
 10
-749.0819054124247
 20
-2453.8043748828668
 42
-0.0004887993119299
 10
-748.96156563928673
 20
-2453.3922564707746
 10
-748.88508838180655
 20
-2453.1312990848837
 42
0.0002583378931342
 10
-748.61187381175989
 20
-2452.1972423817651
 10
-748.53010096214859
 20
-2451.917143122063
 42
0.0006636169675289
 10
-748.33623320215429
 20
-2451.2497901985348
 10
-748.33113654781175
 20
-2451.2321586156704
 42
0.0010589131325425
 10
-748.14968784689063
 20
-2450.5994272726061
 10
-748.14470577640407
 20
-2450.5819143655649
 42
0.0015655524464541
 10
-747.97643556922731
 20
-2449.983297686385
 10
-747.97160536881142
 20
-2449.965905527446
 42
0.0021640440480044
 10
-747.81731539682642
 20
-2449.4008785094311
 10
-747.81268117739364
 20
-2449.3836137794265
 42
0.0028763871850531
 10
-747.67316545934341
 20
-2448.8516458285903
 10
-747.66877959517387
 20
-2448.8345218504269
 42
0.0037310511945324
 10
-747.54482290333931
 20
-2448.3350742564116
 10
-747.54074768305225
 20
-2448.3181139851745
 42
0.004765219776858
 10
-747.43312378254188
 20
-2447.8506362168609
 10
-747.42943318321841
 20
-2447.8338766617103
 42
0.0060276699297302
 10
-747.3389030840649
 20
-2447.3978008665667
 10
-747.33568439377484
 20
-2447.3812996522529
 42
0.0075824337751516
 10
-747.26299508436023
 20
-2446.9760324878316
 10
-747.26034970698015
 20
-2446.959877540382
 42
0.0095130624611938
 10
-747.20623447134881
 20
-2446.5847881873096
 10
-747.19924824746681
 20
-2446.5288546291981
 42
0.0121054653235167
 10
-747.17265691688829
 20
-2446.2639588007187
 10
-747.17179042712905
 20
-2446.2525553577934
 42
0.0069050827380238
 10
-747.15670160909099
 20
-2446.0096141309455
 10
-747.15556630942217
 20
-2445.9860878738937
 42
0.0169063976704063
 10
-747.15273903044226
 20
-2445.7898951466
 10
-747.15390968197357
 20
-2445.7295593852491
 42
0.0052007732935092
 10
-747.15616313056648
 20
-2445.6539659950986
 42
0.0054038123291203
 10
-747.17612664240482
 20
-2445.5339476990916
 10
-747.18121249827573
 20
-2445.5052892125077
 42
0.0112050460460582
 10
-747.21659686033479
 20
-2445.328962774166
 10
-747.234421822375
 20
-2445.2494211874478
 42
0.0240764468008702
 10
-747.32531918852237
 20
-2444.9191841519428
 10
-747.34387795133466
 20
-2444.862563986952
 42
0.0256812331831916
 10
-747.48724087152414
 20
-2444.4908397806958
 10
-747.49265029734408
 20
-2444.4787084457093
 42
0.0268360501215632
 10
-747.66207753819538
 20
-2444.1477153116848
 10
-747.66761394583204
 20
-2444.1381956413697
 42
0.0274670231729727
 10
-747.85981492224369
 20
-2443.8459082664554
 10
-747.86519622220646
 20
-2443.838629118914
 42
0.0275035967100346
 10
-748.07676910176815
 20
-2443.5831132286098
 10
-748.08183860273618
 20
-2443.5776341409778
 42
0.0269557673534405
 10
-748.30924214617426
 20
-2443.356991855017
 10
-748.31398520395669
 20
-2443.3528619005565
 42
0.0259124802206955
 10
-748.55354003538764
 20
-2443.1651713734041
 10
-748.55807088057315
 20
-2443.1619858710715
 42
0.0245162153004077
 10
-748.80598723366438
 20
-2443.0052528619635
 10
-748.8105137799904
 20
-2443.0026926647615
 42
0.0229282588854639
 10
-749.06293333681595
 20
-2442.8748244722638
 10
-749.06771383066121
 20
-2442.8726721724979
 42
0.0212984135708768
 10
-749.32075178311447
 20
-2442.7714732552595
 10
-749.32605606808261
 20
-2442.7696096925001
 42
0.0197555462352413
 10
-749.57583440580697
 20
-2442.6927942745342
 42
0.0183511896782664
 10
-749.8307631312731
 20
-2442.6352113675684
 10
-749.91712832799533
 20
-2442.6190085771836
 42
0.0338057877149199
 10
-750.2026356772534
 20
-2442.5852001720436
 10
-750.29364108230595
 20
-2442.5806205167814
 42
0.0091990524488054
 10
-750.39948819092933
 20
-2442.5772446608598
 42
0.0028333980769866
 10
-750.50540210693043
 20
-2442.5764165533433
 10
-750.50631755997165
 20
-2442.5764145835192
 42
-0.0023619827827573
 10
-750.6140635750811
 20
-2442.5756737424408
 10
-750.65046874525342
 20
-2442.5752514359779
 42
0.0008824598488286
 10
-750.83102473518136
 20
-2442.573475657739
 10
-750.8748861675092
 20
-2442.573121696214
 42
0.003813266575963
 10
-751.14316906338183
 20
-2442.5730027601471
 10
-751.15970271818151
 20
-2442.5731215262908
 42
0.0060665569341105
 10
-751.46098320976205
 20
-2442.5789418257114
 10
-751.47523354179816
 20
-2442.5793901336792
 42
0.0080356953333371
 10
-751.80469225812737
 20
-2442.5950578557458
 10
-751.81676227322464
 20
-2442.5958264386868
 42
0.0098996399100763
 10
-752.16952535787436
 20
-2442.6253116678845
 10
-752.17957106725021
 20
-2442.6263519640829
 42
0.0117740981375965
 10
-752.55072792560327
 20
-2442.6736442116135
 10
-752.55895062208151
 20
-2442.6748893281833
 42
0.0137435215132746
 10
-752.94353944156182
 20
-2442.7439863017439
 10
-752.95019648069001
 20
-2442.7453721979787
 42
0.0158359869390651
 10
-753.34319357450318
 20
-2442.8402642864626
 10
-753.34860676135963
 20
-2442.8417542273301
 42
0.0180554124029262
 10
-753.74492180597099
 20
-2442.9663922435684
 10
-753.7494785940554
 20
-2442.968008279835
 42
0.0203657431285221
 10
-754.14395611187513
 20
-2443.126268621354
 10
-754.14809965087409
 20
-2443.1281302427924
 42
0.0226819684657258
 10
-754.53553570708243
 20
-2443.3237728214667
 10
-754.53973549809587
 20
-2443.3261384133839
 42
0.024863498460567
 10
-754.91491743927656
 20
-2443.5627650593306
 10
-754.96311236806048
 20
-2443.5966221011563
 42
0.0267044190884685
 10
-755.23740506497757
 20
-2443.8120624770245
 42
0.0139303002199868
 10
-755.4935722309167
 20
-2444.0493013179371
 10
-755.49842561663729
 20
-2444.0540539807967
 42
0.0283460963439729
 10
-755.74249821086448
 20
-2444.3217846412417
 10
-755.78216671602104
 20
-2444.3705862187148
 42
0.0070695364826422
 10
-755.85960394188089
 20
-2444.4686530346803
 42
0.0070695364826422
  0
LWPOLYLINE
  5
5F
100
AcDbEntity
  8
0
370
              15
390
0
  6
Continuous
 62
               7
100
AcDbPolyline
 90
      226
 70
             128
 10
-759.38842437912729
 20
-2460.1902418408645
 42
-0.0026277636718362
 10
-759.38850226292732
 20
-2460.1234699151833
 10
-759.3882849046953
 20
-2460.070314697678
 42
-0.0088680296727202
 10
-759.38450828840189
 20
-2459.8972989152635
 10
-759.38216192928985
 20
-2459.8380188898213
 42
-0.0077381705608957
 10
-759.36611581852696
 20
-2459.5467583940267
 10
-759.36524790735359
 20
-2459.5344701603381
 42
-0.0068872530532147
 10
-759.33861582760471
 20
-2459.2192484082625
 10
-759.33741160341935
 20
-2459.2070074292506
 42
-0.0062130021483567
 10
-759.29981788659154
 20
-2458.8681377380117
 10
-759.29831398305646
 20
-2458.8559638660954
 42
-0.0056726929672115
 10
-759.24939212355434
 20
-2458.4937686439839
 10
-759.24761867790971
 20
-2458.481674843737
 42
-0.0052341884488577
 10
-759.18700809164886
 20
-2458.0964815882135
 10
-759.18499010287314
 20
-2458.0844766582263
 42
-0.0049768450170766
 10
-759.1122514214477
 20
-2457.6766320907986
 10
-759.08800240672497
 20
-2457.5480841077879
 42
-0.0089029805622358
 10
-758.95092155493023
 20
-2456.8863086603656
 10
-758.91817617961169
 20
-2456.7412772298421
 42
-0.0080318257098365
 10
-758.68862756527108
 20
-2455.7955675979888
 10
-758.67664263882273
 20
-2455.749436962798
 42
-0.0074265721316272
 10
-758.39263109997296
 20
-2454.719372384418
 10
-758.37275155685518
 20
-2454.6512383238251
 42
-0.0069711922701598
 10
-758.04544697834945
 20
-2453.5849705834999
 10
-757.98549503124673
 20
-2453.398949225138
 42
-0.0052070422893891
 10
-757.75606980598468
 20
-2452.7116771480983
 10
-757.73878861380228
 20
-2452.6616498674516
 42
-0.0009167004448923
 10
-757.53569672652293
 20
-2452.0771940193272
 42
-0.0025162726944593
 10
-757.32859909626052
 20
-2451.4941527551646
 10
-757.29137448445408
 20
-2451.3910032092567
 42
-0.0028212681456992
 10
-757.04319856549182
 20
-2450.7152725770879
 10
-757.03336780274026
 20
-2450.6889651324086
 42
-0.0031964916824367
 10
-756.79707554507888
 20
-2450.0687603702841
 10
-756.78744109108038
 20
-2450.0439503801417
 42
-0.003628183645491
 10
-756.56233512997869
 20
-2449.4765096992478
 10
-756.5528967198195
 20
-2449.4532122677406
 42
-0.0041269166832446
 10
-756.33827902316204
 20
-2448.9357713717668
 10
-756.30564606674182
 20
-2448.858892925407
 42
-0.004747221305674
 10
-756.14860126118765
 20
-2448.4984714575221
 10
-756.14170717998149
 20
-2448.4830508601945
 42
-0.0025651659995098
 10
-755.99334914612928
 20
-2448.1557228044421
 42
-0.0057144634995036
 10
-755.83959945235858
 20
-2447.8309131310803
 10
-755.81156874695603
 20
-2447.7734047486833
 42
-0.0065388068377628
 10
-755.62810171921694
 20
-2447.4091722520202
 10
-755.61964326343821
 20
-2447.3929126726503
 42
-0.0074510843020884
 10
-755.44346101756059
 20
-2447.0662243915276
 10
-755.43528134702808
 20
-2447.0515836142563
 42
-0.0084648979855583
 10
-755.26564749392946
 20
-2446.7596746032978
 10
-755.25779136743995
 20
-2446.7466676116446
 42
-0.0095638542804426
 10
-755.09395591984719
 20
-2446.4867787396684
 10
-755.08648097617572
 20
-2446.4754093782135
 42
-0.0107191626803735
 10
-754.92767939578789
 20
-2446.244798143669
 10
-754.920662662057
 20
-2446.2350620513043
 42
-0.0118458573887863
 10
-754.76611456354431
 20
-2446.0309898559935
 42
-0.0129184518180374
 10
-754.60166193994394
 20
-2445.8348293398244
 10
-754.57151716757676
 20
-2445.8007032609203
 42
-0.0217742579631086
 10
-754.39490484524435
 20
-2445.6174964906736
 10
-754.38415930078475
 20
-2445.6072796574713
 42
-0.0097266568647965
 10
-754.21810168192815
 20
-2445.4554320830334
 42
-0.018772090572802
 10
-754.04375410603939
 20
-2445.3133632296449
 10
-754.01304811536545
 20
-2445.2902041472489
 42
-0.0179428207520441
 10
-753.78062739536836
 20
-2445.1276519701364
 10
-753.776975068453
 20
-2445.125288035249
 42
-0.0170047877696201
 10
-753.5412114309222
 20
-2444.9838275210973
 10
-753.53742844217174
 20
-2444.9817292160587
 42
-0.0160190788360528
 10
-753.30051989454034
 20
-2444.8600779140729
 42
-0.0151102861489534
 10
-753.05648811209335
 20
-2444.7533951380178
 10
-753.0041016098819
 20
-2444.7323550051233
 42
-0.0271945441890112
 10
-752.64543905082462
 20
-2444.6104901944182
 10
-752.57637425033613
 20
-2444.5911406531518
 42
-0.0237596594027372
 10
-752.16057740331303
 20
-2444.4956899411695
 10
-752.09251454957803
 20
-2444.483435253042
 42
-0.0213715440557247
 10
-751.8066396181373
 20
-2444.444488221533
 10
-751.74649245192393
 20
-2444.4388985068326
 42
-0.0101465655808907
 10
-751.5789999199252
 20
-2444.4267549635679
 10
-751.56965953371389
 20
-2444.4262680485699
 42
-0.0100375910866819
 10
-751.42050543316441
 20
-2444.4214922306455
 10
-751.41024616350114
 20
-2444.4213697916312
 42
-0.0103625633389145
 10
-751.28153816882923
 20
-2444.4225012251577
 10
-751.25927251757355
 20
-2444.4231585836224
 42
-0.0115689250250005
 10
-751.17522178003435
 20
-2444.4275880898676
 42
-0.0072438037444953
 10
-751.09138350060903
 20
-2444.4351772896161
 10
-751.07458299112238
 20
-2444.4369438323415
 42
-0.0217917313106415
 10
-750.95801322779971
 20
-2444.454363725064
 10
-750.89241313723869
 20
-2444.4671103334776
 42
-0.0332943556750099
 10
-750.68802097221374
 20
-2444.5211506247838
 10
-750.65784840367144
 20
-2444.5313187018996
 42
-0.0184824084814607
 10
-750.51934334719817
 20
-2444.5837697172888
 42
-0.0198002050682336
 10
-750.38526900670047
 20
-2444.6466537774872
 10
-750.38338236932191
 20
-2444.6476315643681
 42
-0.0212242342956453
 10
-750.25124342691436
 20
-2444.7233943031647
 10
-750.24942813137659
 20
-2444.7245401053697
 42
-0.0226090605795279
 10
-750.12092423015883
 20
-2444.8140197489311
 10
-750.11907978841737
 20
-2444.8154320019216
 42
-0.0238457052245606
 10
-749.99589770712464
 20
-2444.9194278977839
 10
-749.99394497856542
 20
-2444.9212427755501
 42
-0.0248160564155994
 10
-749.87774347126606
 20
-2445.0405173767576
 10
-749.87563983786276
 20
-2445.0429027104633
 42
-0.0254109591455305
 10
-749.76803461999543
 20
-2445.1781910964296
 10
-749.76578659808274
 20
-2445.1813326448282
 42
-0.0255528488303801
 10
-749.66833991928684
 20
-2445.3333596990606
 10
-749.66600881936938
 20
-2445.3374413106703
 42
-0.0252146793222048
 10
-749.58022779336159
 20
-2445.5069435566643
 10
-749.57792555420269
 20
-2445.5121256385801
 42
-0.0244265635953347
 10
-749.5052708604419
 20
-2445.6998722106241
 10
-749.49602445897233
 20
-2445.7277376289653
 42
-0.0231319612892405
 10
-749.45010167998078
 20
-2445.8910386757657
 42
-0.0112130424354098
 10
-749.41546565744159
 20
-2446.0572422759587
 10
-749.41426313233001
 20
-2446.063738862842
 42
-0.0210527881233807
 10
-749.38857665695934
 20
-2446.2447945082818
 10
-749.38506606213741
 20
-2446.2802000568304
 42
-0.0190029892411133
 10
-749.36962458859261
 20
-2446.5337359031064
 10
-749.36881461214875
 20
-2446.5692115174716
 42
-0.0137974553662716
 10
-749.37036346498405
 20
-2446.8942429241979
 10
-749.37120891993993
 20
-2446.9203616688001
 42
-0.0081336634216642
 10
-749.3860682551624
 20
-2447.2257091363972
 42
-0.0073526923572876
 10
-749.41037678853684
 20
-2447.5304573806811
 10
-749.41163821231976
 20
-2447.5437940553484
 42
-0.0066886138698594
 10
-749.44737379836636
 20
-2447.8743800988459
 10
-749.44903088783622
 20
-2447.8880017178371
 42
-0.00613591873489
 10
-749.49688148988685
 20
-2448.2447656979352
 10
-749.49891899095996
 20
-2448.2586605007664
 42
-0.0056698610061515
 10
-749.55956932172774
 20
-2448.6419390696096
 10
-749.56197475504996
 20
-2448.6560981888351
 42
-0.0052721077273101
 10
-749.63610695584862
 20
-2449.0662255285074
 10
-749.63887010469136
 20
-2449.080642163899
 42
-0.004928927217242
 10
-749.72716422279211
 20
-2449.5179506750246
 10
-749.730276717474
 20
-2449.5326195278371
 42
-0.0047415956716445
 10
-749.83351470900629
 20
-2449.9974162852477
 10
-749.86828291936604
 20
-2450.1472233806307
 42
-0.0084404470905378
 10
-750.05829936293844
 20
-2450.9074474051645
 10
-750.06442605092354
 20
-2450.9303115293155
 42
-0.0039635940258202
 10
-750.28587973520723
 20
-2451.7313003935619
 10
-750.29925653038708
 20
-2451.7782320101546
 42
-0.0072475040834714
 10
-750.566703418251
 20
-2452.6674517265474
 10
-750.63691574507698
 20
-2452.889192076515
 42
-0.0051345458830221
 10
-750.92367511713644
 20
-2453.7635172643281
 10
-750.94520138390737
 20
-2453.8269435314683
 42
-0.0019150016603591
 10
-751.20073479077064
 20
-2454.5704926516842
 10
-751.20720239516129
 20
-2454.5890801165892
 42
-0.0021524362753171
 10
-751.45568044623064
 20
-2455.2934059383133
 10
-751.46489086692657
 20
-2455.3191595166131
 42
-0.0024331286818332
 10
-751.70114612596308
 20
-2455.9697588247332
 10
-751.71019407851122
 20
-2455.994302131081
 42
-0.0027449721787186
 10
-751.93480864934907
 20
-2456.5934320100123
 10
-751.94369865673843
 20
-2456.6167545998569
 42
-0.003108322976849
 10
-752.15724114335126
 20
-2457.166678637444
 10
-752.16597727502824
 20
-2457.1887683533055
 42
-0.003531134328545
 10
-752.36901846061869
 20
-2457.6917514790321
 10
-752.37760379976714
 20
-2457.7125942025441
 42
-0.0040245640948722
 10
-752.57071560356076
 20
-2458.1709035251347
 10
-752.57915171716616
 20
-2458.1904828932124
 42
-0.0046015135850633
 10
-752.76290801032758
 20
-2458.6063879228491
 10
-752.77119418815278
 20
-2458.6246850622942
 42
-0.0052768638270881
 10
-752.94617170711149
 20
-2459.0004579465713
 10
-752.95430391773823
 20
-2459.017451285114
 42
-0.006067267564099
 10
-753.12108353050439
 20
-2459.3553669082285
 10
-753.1290530109826
 20
-2459.3710321672193
 42
-0.0069904648874602
 10
-753.28822140498733
 20
-2459.6733679738895
 10
-753.29601280459815
 20
-2459.687678523117
 42
-0.0080637022771338
 10
-753.44816466494399
 20
-2459.9567138262701
 10
-753.45575369757273
 20
-2459.9696416918664
 42
-0.0093006455669454
 10
-753.60149437410678
 20
-2460.2076560903738
 10
-753.608845040853
 20
-2460.2191740595508
 42
-0.0107060778054039
 10
-753.74879358428893
 20
-2460.4284443769261
 10
-753.75585535256846
 20
-2460.4385299194919
 42
-0.0122723111428257
 10
-753.89064907076659
 20
-2460.6213232489808
 10
-753.89097529432092
 20
-2460.6217436367911
 42
-0.0141836319622772
 10
-754.03455689729481
 20
-2460.7963133946205
 10
-754.04150465294413
 20
-2460.804288394882
 42
-0.0175957477227042
 10
-754.18141082098145
 20
-2460.9539092832897
 42
-0.0080466359672273
 10
-754.32887458600965
 20
-2461.0962318114389
 10
-754.37490913052909
 20
-2461.1392522495321
 42
-0.0269600260396692
 10
-754.62818937651139
 20
-2461.3515755080412
 10
-754.69475651280811
 20
-2461.4015269226647
 42
-0.0178362839752271
 10
-754.93470100246486
 20
-2461.5685448489176
 10
-754.94194597346552
 20
-2461.5732133611227
 42
-0.0174650732643748
 10
-755.17828217090664
 20
-2461.7140743260816
 42
-0.0169240130171566
 10
-755.42374841676519
 20
-2461.8383665858596
 10
-755.46973457232207
 20
-2461.8597285414262
 42
-0.031888303682681
 10
-755.82008542794688
 20
-2461.996066850938
 10
-755.88845096310388
 20
-2462.0177674714109
 42
-0.0284435909903802
 10
-756.26450108939787
 20
-2462.1139849068868
 10
-756.29965924989324
 20
-2462.1208785027147
 42
-0.0243909341005357
 10
-756.61310271081538
 20
-2462.1665995337453
 10
-756.66338343758343
 20
-2462.1714450806467
 42
-0.0196639292927452
 10
-756.87897901511383
 20
-2462.1836933661602
 10
-756.93080308627964
 20
-2462.184596626897
 42
-0.0100501510691627
 10
-757.04322636794154
 20
-2462.1842962285436
 10
-757.07488622930123
 20
-2462.1835751566578
 42
-0.0019752031150633
 10
-757.12397856596692
 20
-2462.182262996449
 10
-757.12673886918697
 20
-2462.1821783046225
 42
0.0065378752029555
 10
-757.17031544394376
 20
-2462.1814114134077
 42
-0.0167974694693668
 10
-757.21384626687325
 20
-2462.1797515148819
 10
-757.21792560613767
 20
-2462.179458503987
 42
-0.0081283276303552
 10
-757.2694854038557
 20
-2462.1749115103507
 10
-757.28122497775485
 20
-2462.1736835927704
 42
-0.0126703440186717
 10
-757.35594327354499
 20
-2462.1639488016995
 10
-757.37873114122499
 20
-2462.1603905457837
 42
-0.0117852088435327
 10
-757.49827012706419
 20
-2462.1388275506251
 10
-757.55365057882045
 20
-2462.127484010392
 42
-0.0251774592288992
 10
-757.78049461782678
 20
-2462.0689860009597
 10
-757.82521380768321
 20
-2462.0550191816224
 42
-0.0146525199873352
 10
-758.01160679521786
 20
-2461.9907526544257
 42
-0.016692943584721
 10
-758.19358445135265
 20
-2461.9149455213674
 10
-758.19824108261764
 20
-2461.912820620757
 42
-0.0191684358438946
 10
-758.38342471386466
 20
-2461.8195845369683
 10
-758.38675729962392
 20
-2461.8177432894136
 42
-0.0221181781816596
 10
-758.57006760352158
 20
-2461.7056097910463
 10
-758.57241740753454
 20
-2461.7040254930521
 42
-0.025498468538491
 10
-758.74870755792085
 20
-2461.5716143430814
 10
-758.77118970562094
 20
-2461.5528620341465
 42
-0.0292492648799744
 10
-758.89595864446483
 20
-2461.4357692345029
 42
-0.0159048957489839
 10
-759.00979864191288
 20
-2461.3077492429065
 10
-759.0111174324943
 20
-2461.3061676298839
 42
-0.0343813379543882
 10
-759.11375469412133
 20
-2461.1642963041131
 10
-759.14524622548197
 20
-2461.1137929120196
 42
-0.0369117275695784
 10
-759.23113872737861
 20
-2460.9503156710716
 42
-0.0191751379907302
 10
-759.2983321129359
 20
-2460.7779110650649
 10
-759.30009543669507
 20
-2460.7728177203908
 42
-0.0378178042222017
 10
-759.34989015547933
 20
-2460.5838769443098
 10
-759.35588545120993
 20
-2460.5513163261112
 42
-0.018484604648128
 10
-759.37660265050408
 20
-2460.4095635055678
 42
-0.0179866351308256
 10
-759.38693565557776
 20
-2460.2666726924845
 10
-759.38699209802348
 20
-2460.2651150058741
 42
-0.0085497186139932
 10
-759.38842437912729
 20
-2460.1902418408645
 42
-0.0085497186139932
  0
ENDBLK
  5
60
100
AcDbEntity
  8
template
390
0
100
AcDbBlockEnd
  0
BLOCK
  5
61
100
AcDbEntity
  8
notes
390
0
100
AcDbBlockBegin
  2
*D3
 70
               1
 10
0.0
 20
0.0
 30
0.0
  3
*D3
  1

  0
LINE
  5
62
100
AcDbEntity
  8
0
370
              -2
390
0
  6
Continuous
 62
               0
100
AcDbLine
 10
-686.56661987048574
 20
865.04623534822497
 30
0.0
 11
-686.56661987048574
 21
990.04623534822497
 31
0.0
  0
LINE
  5
63
100
AcDbEntity
  8
0
370
              -2
390
0
  6
Continuous
 62
               0
100
AcDbLine
 10
-286.53821039399509
 20
865.04623534822497
 30
0.0
 11
-286.53821039399509
 21
990.04623534822497
 31
0.0
  0
LINE
  5
64
100
AcDbEntity
  8
0
370
              -2
390
0
  6
Continuous
 62
               0
100
AcDbLine
 10
-686.56661987048574
 20
990.04623534822497
 30
0.0
 11
-286.53821039399509
 21
990.04623534822497
 31
0.0
  0
CIRCLE
  5
65
102
{ACAD_REACTORS
330
66
102
}
100
AcDbEntity
  8
0
370
              -2
390
0
  6
Continuous
 62
               0
100
AcDbCircle
 10
-686.56661987048574
 20
990.04623534822497
 30
0.0
 40
1.9998779296875
  0
HATCH
  5
66
100
AcDbEntity
  8
0
370
              -2
390
0
  6
Continuous
 62
               0
100
AcDbHatch
 10
0.0
 20
0.0
 30
0.0
210
0.0
220
0.0
230
1.0
  2
SOLID
 70
               1
 71
               1
 91
        1
 92
        1
 93
        1
 72
               2
 10
-686.56661987048574
 20
990.04623534822497
 40
1.9998779296875
 50
0.0
 51
360.0
 73
               0
 97
        1
330
65
 75
               0
 76
               1
 98
        1
 10
0.0
 20
0.0
  0
CIRCLE
  5
67
102
{ACAD_REACTORS
330
68
102
}
100
AcDbEntity
  8
0
370
              -2
390
0
  6
Continuous
 62
               0
100
AcDbCircle
 10
-286.53821039399509
 20
990.04623534822497
 30
0.0
 40
1.9998779296875
  0
HATCH
  5
68
100
AcDbEntity
  8
0
370
              -2
390
0
  6
Continuous
 62
               0
100
AcDbHatch
 10
0.0
 20
0.0
 30
0.0
210
0.0
220
0.0
230
1.0
  2
SOLID
 70
               1
 71
               1
 91
        1
 92
        1
 93
        1
 72
               2
 10
-286.53821039399509
 20
990.04623534822497
 40
1.9998779296875
 50
0.0
 51
360.0
 73
               0
 97
        1
330
67
 75
               0
 76
               1
 98
        1
 10
0.0
 20
0.0
  0
MTEXT
  5
69
100
AcDbEntity
  8
0
390
0
 62
               0
100
AcDbMText
 10
-510.36491681441612
 20
1023.923852535725
 30
0.0
 40
24.432617187500004
 41
0.0
 71
               1
 72
               1
  1
400
  7
ＭＳ ゴシック
 73
               1
 44
0.7828267384257843
  0
POINT
  5
6A
100
AcDbEntity
  8
Defpoints
370
               0
390
0
 62
               0
100
AcDbPoint
 10
-286.53821039399509
 20
840.04623534822497
 30
0.0
  0
POINT
  5
6B
100
AcDbEntity
  8
Defpoints
370
               0
390
0
 62
               0
100
AcDbPoint
 10
-686.56661987048574
 20
840.04623534822497
 30
0.0
  0
POINT
  5
6C
100
AcDbEntity
  8
Defpoints
370
               0
390
0
 62
               0
100
AcDbPoint
 10
-686.56661987048574
 20
990.04623534822497
 30
0.0
  0
ENDBLK
  5
6D
100
AcDbEntity
  8
notes
390
0
100
AcDbBlockEnd
  0
BLOCK
  5
6E
100
AcDbEntity
  8
notes
390
0
100
AcDbBlockBegin
  2
*D4
 70
               1
 10
0.0
 20
0.0
 30
0.0
  3
*D4
  1

  0
LINE
  5
6F
100
AcDbEntity
  8
0
370
              -2
390
0
  6
Continuous
 62
               0
100
AcDbLine
 10
-261.53821039399509
 20
840.09247069645005
 30
0.0
 11
-186.53821039399509
 21
840.09247069645005
 31
0.0
  0
LINE
  5
70
100
AcDbEntity
  8
0
370
              -2
390
0
  6
Continuous
 62
               0
100
AcDbLine
 10
-261.53821039399509
 20
610.09247069645005
 30
0.0
 11
-186.53821039399509
 21
610.09247069645005
 31
0.0
  0
LINE
  5
71
100
AcDbEntity
  8
0
370
              -2
390
0
  6
Continuous
 62
               0
100
AcDbLine
 10
-186.53821039399509
 20
840.09247069645005
 30
0.0
 11
-186.53821039399509
 21
610.09247069645005
 31
0.0
  0
CIRCLE
  5
72
102
{ACAD_REACTORS
330
73
102
}
100
AcDbEntity
  8
0
370
              -2
390
0
  6
Continuous
 62
               0
100
AcDbCircle
 10
-186.53821039399509
 20
840.09247069645005
 30
0.0
 40
1.9998779296875
  0
HATCH
  5
73
100
AcDbEntity
  8
0
370
              -2
390
0
  6
Continuous
 62
               0
100
AcDbHatch
 10
0.0
 20
0.0
 30
0.0
210
0.0
220
0.0
230
1.0
  2
SOLID
 70
               1
 71
               1
 91
        1
 92
        1
 93
        1
 72
               2
 10
-186.53821039399509
 20
840.09247069645005
 40
1.9998779296875
 50
0.0
 51
360.0
 73
               0
 97
        1
330
72
 75
               0
 76
               1
 98
        1
 10
0.0
 20
0.0
  0
CIRCLE
  5
74
102
{ACAD_REACTORS
330
75
102
}
100
AcDbEntity
  8
0
370
              -2
390
0
  6
Continuous
 62
               0
100
AcDbCircle
 10
-186.53821039399509
 20
610.09247069645005
 30
0.0
 40
1.9998779296875
  0
HATCH
  5
75
100
AcDbEntity
  8
0
370
              -2
390
0
  6
Continuous
 62
               0
100
AcDbHatch
 10
0.0
 20
0.0
 30
0.0
210
0.0
220
0.0
230
1.0
  2
SOLID
 70
               1
 71
               1
 91
        1
 92
        1
 93
        1
 72
               2
 10
-186.53821039399509
 20
610.09247069645005
 40
1.9998779296875
 50
0.0
 51
360.0
 73
               0
 97
        1
330
74
 75
               0
 76
               1
 98
        1
 10
0.0
 20
0.0
  0
MTEXT
  5
76
100
AcDbEntity
  8
0
390
0
 62
               0
100
AcDbMText
 10
-220.41582758149502
 20
701.27996901427446
 30
0.0
 40
24.432617187500004
 41
0.0
 71
               1
 72
               1
  1
230
  7
ＭＳ ゴシック
 11
0.0
 21
1.0
 31
0.0
 73
               1
 44
0.7828267384257843
  0
POINT
  5
77
100
AcDbEntity
  8
Defpoints
370
               0
390
0
 62
               0
100
AcDbPoint
 10
-286.53821039399509
 20
610.09247069645005
 30
0.0
  0
POINT
  5
78
100
AcDbEntity
  8
Defpoints
370
               0
390
0
 62
               0
100
AcDbPoint
 10
-286.53821039399509
 20
840.09247069645005
 30
0.0
  0
POINT
  5
79
100
AcDbEntity
  8
Defpoints
370
               0
390
0
 62
               0
100
AcDbPoint
 10
-186.53821039399509
 20
840.09247069645005
 30
0.0
  0
ENDBLK
  5
7A
100
AcDbEntity
  8
notes
390
0
100
AcDbBlockEnd
  0
BLOCK
  5
7B
100
AcDbEntity
  8
notes
390
0
100
AcDbBlockBegin
  2
*D5
 70
               1
 10
0.0
 20
0.0
 30
0.0
  3
*D5
  1

  0
LINE
  5
7C
100
AcDbEntity
  8
0
370
              -2
390
0
  6
Continuous
 62
               0
100
AcDbLine
 10
-676.54032460428971
 20
600.01932099484145
 30
0.0
 11
-676.54032460428971
 21
509.99999999999989
 31
0.0
  0
LINE
  5
7D
100
AcDbEntity
  8
0
370
              -2
390
0
  6
Continuous
 62
               0
100
AcDbLine
 10
-356.53910857254868
 20
600.01932099484145
 30
0.0
 11
-356.53910857254868
 21
509.99999999999989
 31
0.0
  0
LINE
  5
7E
100
AcDbEntity
  8
0
370
              -2
390
0
  6
Continuous
 62
               0
100
AcDbLine
 10
-676.54032460428971
 20
509.99999999999989
 30
0.0
 11
-356.53910857254868
 21
509.99999999999989
 31
0.0
  0
CIRCLE
  5
7F
102
{ACAD_REACTORS
330
80
102
}
100
AcDbEntity
  8
0
370
              -2
390
0
  6
Continuous
 62
               0
100
AcDbCircle
 10
-676.54032460428971
 20
509.99999999999989
 30
0.0
 40
1.9998779296875
  0
HATCH
  5
80
100
AcDbEntity
  8
0
370
              -2
390
0
  6
Continuous
 62
               0
100
AcDbHatch
 10
0.0
 20
0.0
 30
0.0
210
0.0
220
0.0
230
1.0
  2
SOLID
 70
               1
 71
               1
 91
        1
 92
        1
 93
        1
 72
               2
 10
-676.54032460428971
 20
509.99999999999989
 40
1.9998779296875
 50
0.0
 51
360.0
 73
               0
 97
        1
330
7F
 75
               0
 76
               1
 98
        1
 10
0.0
 20
0.0
  0
CIRCLE
  5
81
102
{ACAD_REACTORS
330
82
102
}
100
AcDbEntity
  8
0
370
              -2
390
0
  6
Continuous
 62
               0
100
AcDbCircle
 10
-356.53910857254868
 20
509.99999999999989
 30
0.0
 40
1.9998779296875
  0
HATCH
  5
82
100
AcDbEntity
  8
0
370
              -2
390
0
  6
Continuous
 62
               0
100
AcDbHatch
 10
0.0
 20
0.0
 30
0.0
210
0.0
220
0.0
230
1.0
  2
SOLID
 70
               1
 71
               1
 91
        1
 92
        1
 93
        1
 72
               2
 10
-356.53910857254868
 20
509.99999999999989
 40
1.9998779296875
 50
0.0
 51
360.0
 73
               0
 97
        1
330
81
 75
               0
 76
               1
 98
        1
 10
0.0
 20
0.0
  0
MTEXT
  5
83
100
AcDbEntity
  8
0
390
0
 62
               0
100
AcDbMText
 10
-540.35221827059468
 20
543.87761718749994
 30
0.0
 40
24.432617187500004
 41
0.0
 71
               1
 72
               1
  1
320
  7
ＭＳ ゴシック
 73
               1
 44
0.7828267384257843
  0
POINT
  5
84
100
AcDbEntity
  8
Defpoints
370
               0
390
0
 62
               0
100
AcDbPoint
 10
-356.53910857254868
 20
625.01932099484145
 30
0.0
  0
POINT
  5
85
100
AcDbEntity
  8
Defpoints
370
               0
390
0
 62
               0
100
AcDbPoint
 10
-676.54032460428971
 20
625.01932099484145
 30
0.0
  0
POINT
  5
86
100
AcDbEntity
  8
Defpoints
370
               0
390
0
 62
               0
100
AcDbPoint
 10
-676.54032460428971
 20
509.99999999999989
 30
0.0
  0
ENDBLK
  5
87
100
AcDbEntity
  8
notes
390
0
100
AcDbBlockEnd
  0
BLOCK
  5
88
100
AcDbEntity
  8
notes
390
0
100
AcDbBlockBegin
  2
*D6
 70
               1
 10
0.0
 20
0.0
 30
0.0
  3
*D6
  1

  0
LINE
  5
89
100
AcDbEntity
  8
0
370
              -2
390
0
  6
Continuous
 62
               0
100
AcDbLine
 10
-696.55763105511414
 20
830.07909065459091
 30
0.0
 11
-789.56661987048574
 21
830.07909065459091
 31
0.0
  0
LINE
  5
8A
100
AcDbEntity
  8
0
370
              -2
390
0
  6
Continuous
 62
               0
100
AcDbLine
 10
-696.55763105511414
 20
620.02887831106352
 30
0.0
 11
-789.56661987048574
 21
620.02887831106352
 31
0.0
  0
LINE
  5
8B
100
AcDbEntity
  8
0
370
              -2
390
0
  6
Continuous
 62
               0
100
AcDbLine
 10
-789.56661987048574
 20
830.07909065459091
 30
0.0
 11
-789.56661987048574
 21
620.02887831106352
 31
0.0
  0
CIRCLE
  5
8C
102
{ACAD_REACTORS
330
8D
102
}
100
AcDbEntity
  8
0
370
              -2
390
0
  6
Continuous
 62
               0
100
AcDbCircle
 10
-789.56661987048574
 20
830.07909065459091
 30
0.0
 40
1.9998779296875
  0
HATCH
  5
8D
100
AcDbEntity
  8
0
370
              -2
390
0
  6
Continuous
 62
               0
100
AcDbHatch
 10
0.0
 20
0.0
 30
0.0
210
0.0
220
0.0
230
1.0
  2
SOLID
 70
               1
 71
               1
 91
        1
 92
        1
 93
        1
 72
               2
 10
-789.56661987048574
 20
830.07909065459091
 40
1.9998779296875
 50
0.0
 51
360.0
 73
               0
 97
        1
330
8C
 75
               0
 76
               1
 98
        1
 10
0.0
 20
0.0
  0
CIRCLE
  5
8E
102
{ACAD_REACTORS
330
8F
102
}
100
AcDbEntity
  8
0
370
              -2
390
0
  6
Continuous
 62
               0
100
AcDbCircle
 10
-789.56661987048574
 20
620.02887831106352
 30
0.0
 40
1.9998779296875
  0
HATCH
  5
8F
100
AcDbEntity
  8
0
370
              -2
390
0
  6
Continuous
 62
               0
100
AcDbHatch
 10
0.0
 20
0.0
 30
0.0
210
0.0
220
0.0
230
1.0
  2
SOLID
 70
               1
 71
               1
 91
        1
 92
        1
 93
        1
 72
               2
 10
-789.56661987048574
 20
620.02887831106352
 40
1.9998779296875
 50
0.0
 51
360.0
 73
               0
 97
        1
330
8E
 75
               0
 76
               1
 98
        1
 10
0.0
 20
0.0
  0
MTEXT
  5
90
100
AcDbEntity
  8
0
390
0
 62
               0
100
AcDbMText
 10
-823.4442370579859
 20
701.24148280065174
 30
0.0
 40
24.432617187500004
 41
0.0
 71
               1
 72
               1
  1
210
  7
ＭＳ ゴシック
 11
0.0
 21
1.0
 31
0.0
 73
               1
 44
0.7828267384257843
  0
POINT
  5
91
100
AcDbEntity
  8
Defpoints
370
               0
390
0
 62
               0
100
AcDbPoint
 10
-671.55763105511414
 20
620.02887831106352
 30
0.0
  0
POINT
  5
92
100
AcDbEntity
  8
Defpoints
370
               0
390
0
 62
               0
100
AcDbPoint
 10
-671.55763105511414
 20
830.07909065459091
 30
0.0
  0
POINT
  5
93
100
AcDbEntity
  8
Defpoints
370
               0
390
0
 62
               0
100
AcDbPoint
 10
-789.56661987048574
 20
830.07909065459091
 30
0.0
  0
ENDBLK
  5
94
100
AcDbEntity
  8
notes
390
0
100
AcDbBlockEnd
  0
BLOCK
  5
95
100
AcDbEntity
  8
notes
390
0
100
AcDbBlockBegin
  2
*D7
 70
               1
 10
0.0
 20
0.0
 30
0.0
  3
*D7
  1

  0
LINE
  5
96
100
AcDbEntity
  8
0
370
              -2
390
0
  6
Continuous
 62
               0
100
AcDbLine
 10
-310.5634507948705
 20
737.80770597441733
 30
0.0
 11
-162.28932005729621
 21
895.82306723228317
 31
0.0
  0
CIRCLE
  5
97
102
{ACAD_REACTORS
330
98
102
}
100
AcDbEntity
  8
0
370
              -2
390
0
  6
Continuous
 62
               0
100
AcDbCircle
 10
-310.5634507948705
 20
737.80770597441733
 30
0.0
 40
1.9998779296875
  0
HATCH
  5
98
100
AcDbEntity
  8
0
370
              -2
390
0
  6
Continuous
 62
               0
100
AcDbHatch
 10
0.0
 20
0.0
 30
0.0
210
0.0
220
0.0
230
1.0
  2
SOLID
 70
               1
 71
               1
 91
        1
 92
        1
 93
        1
 72
               2
 10
-310.5634507948705
 20
737.80770597441733
 40
1.9998779296875
 50
0.0
 51
360.0
 73
               0
 97
        1
330
97
 75
               0
 76
               1
 98
        1
 10
0.0
 20
0.0
  0
LINE
  5
99
100
AcDbEntity
  8
0
370
              -2
390
0
  6
Continuous
 62
               0
100
AcDbLine
 10
-162.28932005729621
 20
895.82306723228317
 30
0.0
 11
-68.789320057296209
 21
895.82306723228317
 31
0.0
  0
MTEXT
  5
9A
100
AcDbEntity
  8
0
390
0
 62
               0
100
AcDbMText
 10
-132.28932005729621
 20
929.7006844197831
 30
0.0
 40
24.432617187500004
 41
0.0
 71
               1
 72
               1
  1
φ35
  7
ＭＳ ゴシック
 73
               1
 44
0.7828267384257843
  0
POINT
  5
9B
100
AcDbEntity
  8
Defpoints
370
               0
390
0
 62
               0
100
AcDbPoint
 10
-334.51296999311967
 20
712.28476472203261
 30
0.0
  0
POINT
  5
9C
100
AcDbEntity
  8
Defpoints
370
               0
390
0
 62
               0
100
AcDbPoint
 10
-310.5634507948705
 20
737.80770597441733
 30
0.0
  0
ENDBLK
  5
9D
100
AcDbEntity
  8
notes
390
0
100
AcDbBlockEnd
  0
BLOCK
  5
9E
100
AcDbEntity
  8
notes
390
0
100
AcDbBlockBegin
  2
*D8
 70
               1
 10
0.0
 20
0.0
 30
0.0
  3
*D8
  1

  0
LINE
  5
9F
100
AcDbEntity
  8
0
370
              -2
390
0
  6
Continuous
 62
               0
100
AcDbLine
 10
653.49063260830178
 20
865.09247069645005
 30
0.0
 11
653.49063260830178
 21
940.09247069645005
 31
0.0
  0
LINE
  5
A0
100
AcDbEntity
  8
0
370
              -2
390
0
  6
Continuous
 62
               0
100
AcDbLine
 10
638.5138564129137
 20
805.0789502039022
 30
0.0
 11
638.5138564129137
 21
940.09247069645005
 31
0.0
  0
LINE
  5
A1
100
AcDbEntity
  8
0
370
              -2
390
0
  6
Continuous
 62
               0
100
AcDbLine
 10
653.49063260830178
 20
940.09247069645005
 30
0.0
 11
638.5138564129137
 21
940.09247069645005
 31
0.0
  0
CIRCLE
  5
A2
102
{ACAD_REACTORS
330
A3
102
}
100
AcDbEntity
  8
0
370
              -2
390
0
  6
Continuous
 62
               0
100
AcDbCircle
 10
653.49063260830178
 20
940.09247069645005
 30
0.0
 40
1.9998779296875
  0
HATCH
  5
A3
100
AcDbEntity
  8
0
370
              -2
390
0
  6
Continuous
 62
               0
100
AcDbHatch
 10
0.0
 20
0.0
 30
0.0
210
0.0
220
0.0
230
1.0
  2
SOLID
 70
               1
 71
               1
 91
        1
 92
        1
 93
        1
 72
               2
 10
653.49063260830178
 20
940.09247069645005
 40
1.9998779296875
 50
0.0
 51
360.0
 73
               0
 97
        1
330
A2
 75
               0
 76
               1
 98
        1
 10
0.0
 20
0.0
  0
CIRCLE
  5
A4
102
{ACAD_REACTORS
330
A5
102
}
100
AcDbEntity
  8
0
370
              -2
390
0
  6
Continuous
 62
               0
100
AcDbCircle
 10
638.5138564129137
 20
940.09247069645005
 30
0.0
 40
1.9998779296875
  0
HATCH
  5
A5
100
AcDbEntity
  8
0
370
              -2
390
0
  6
Continuous
 62
               0
100
AcDbHatch
 10
0.0
 20
0.0
 30
0.0
210
0.0
220
0.0
230
1.0
  2
SOLID
 70
               1
 71
               1
 91
        1
 92
        1
 93
        1
 72
               2
 10
638.5138564129137
 20
940.09247069645005
 40
1.9998779296875
 50
0.0
 51
360.0
 73
               0
 97
        1
330
A4
 75
               0
 76
               1
 98
        1
 10
0.0
 20
0.0
  0
MTEXT
  5
A6
100
AcDbEntity
  8
0
390
0
 62
               0
100
AcDbMText
 10
630.12724451060785
 20
973.9700878839501
 30
0.0
 40
24.432617187500004
 41
0.0
 71
               1
 72
               1
  1
15
  7
ＭＳ ゴシック
 73
               1
 44
0.7828267384257843
  0
POINT
  5
A7
100
AcDbEntity
  8
Defpoints
370
               0
390
0
 62
               0
100
AcDbPoint
 10
638.5138564129137
 20
780.0789502039022
 30
0.0
  0
POINT
  5
A8
100
AcDbEntity
  8
Defpoints
370
               0
390
0
 62
               0
100
AcDbPoint
 10
653.49063260830178
 20
840.09247069645005
 30
0.0
  0
POINT
  5
A9
100
AcDbEntity
  8
Defpoints
370
               0
390
0
 62
               0
100
AcDbPoint
 10
653.49063260830178
 20
940.09247069645005
 30
0.0
  0
ENDBLK
  5
AA
100
AcDbEntity
  8
notes
390
0
100
AcDbBlockEnd
  0
BLOCK
  5
AB
100
AcDbEntity
  8
notes
390
0
100
AcDbBlockBegin
  2
*D9
 70
               1
 10
0.0
 20
0.0
 30
0.0
  3
*D9
  1

  0
LINE
  5
AC
100
AcDbEntity
  8
0
370
              -2
390
0
  6
Continuous
 62
               0
100
AcDbLine
 10
638.5138564129137
 20
805.0789502039022
 30
0.0
 11
638.5138564129137
 21
940.09247069645005
 31
0.0
  0
LINE
  5
AD
100
AcDbEntity
  8
0
370
              -2
390
0
  6
Continuous
 62
               0
100
AcDbLine
 10
528.51385641291199
 20
805.0789502039022
 30
0.0
 11
528.51385641291199
 21
940.09247069645005
 31
0.0
  0
LINE
  5
AE
100
AcDbEntity
  8
0
370
              -2
390
0
  6
Continuous
 62
               0
100
AcDbLine
 10
638.5138564129137
 20
940.09247069645005
 30
0.0
 11
528.51385641291199
 21
940.09247069645005
 31
0.0
  0
CIRCLE
  5
AF
102
{ACAD_REACTORS
330
B0
102
}
100
AcDbEntity
  8
0
370
              -2
390
0
  6
Continuous
 62
               0
100
AcDbCircle
 10
638.5138564129137
 20
940.09247069645005
 30
0.0
 40
1.9998779296875
  0
HATCH
  5
B0
100
AcDbEntity
  8
0
370
              -2
390
0
  6
Continuous
 62
               0
100
AcDbHatch
 10
0.0
 20
0.0
 30
0.0
210
0.0
220
0.0
230
1.0
  2
SOLID
 70
               1
 71
               1
 91
        1
 92
        1
 93
        1
 72
               2
 10
638.5138564129137
 20
940.09247069645005
 40
1.9998779296875
 50
0.0
 51
360.0
 73
               0
 97
        1
330
AF
 75
               0
 76
               1
 98
        1
 10
0.0
 20
0.0
  0
CIRCLE
  5
B1
102
{ACAD_REACTORS
330
B2
102
}
100
AcDbEntity
  8
0
370
              -2
390
0
  6
Continuous
 62
               0
100
AcDbCircle
 10
528.51385641291199
 20
940.09247069645005
 30
0.0
 40
1.9998779296875
  0
HATCH
  5
B2
100
AcDbEntity
  8
0
370
              -2
390
0
  6
Continuous
 62
               0
100
AcDbHatch
 10
0.0
 20
0.0
 30
0.0
210
0.0
220
0.0
230
1.0
  2
SOLID
 70
               1
 71
               1
 91
        1
 92
        1
 93
        1
 72
               2
 10
528.51385641291199
 20
940.09247069645005
 40
1.9998779296875
 50
0.0
 51
360.0
 73
               0
 97
        1
330
B1
 75
               0
 76
               1
 98
        1
 10
0.0
 20
0.0
  0
MTEXT
  5
B3
100
AcDbEntity
  8
0
390
0
 62
               0
100
AcDbMText
 10
559.70135473073742
 20
973.9700878839501
 30
0.0
 40
24.432617187500004
 41
0.0
 71
               1
 72
               1
  1
110
  7
ＭＳ ゴシック
 73
               1
 44
0.7828267384257843
  0
POINT
  5
B4
100
AcDbEntity
  8
Defpoints
370
               0
390
0
 62
               0
100
AcDbPoint
 10
528.51385641291199
 20
780.0789502039022
 30
0.0
  0
POINT
  5
B5
100
AcDbEntity
  8
Defpoints
370
               0
390
0
 62
               0
100
AcDbPoint
 10
638.5138564129137
 20
780.0789502039022
 30
0.0
  0
POINT
  5
B6
100
AcDbEntity
  8
Defpoints
370
               0
390
0
 62
               0
100
AcDbPoint
 10
638.5138564129137
 20
940.09247069645005
 30
0.0
  0
ENDBLK
  5
B7
100
AcDbEntity
  8
notes
390
0
100
AcDbBlockEnd
  0
BLOCK
  5
B8
100
AcDbEntity
  8
notes
390
0
100
AcDbBlockBegin
  2
*D10
 70
               1
 10
0.0
 20
0.0
 30
0.0
  3
*D10
  1

  0
LINE
  5
B9
100
AcDbEntity
  8
0
370
              -2
390
0
  6
Continuous
 62
               0
100
AcDbLine
 10
478.51385641291108
 20
805.0789502039022
 30
0.0
 11
478.51385641291108
 21
940.09247069645005
 31
0.0
  0
LINE
  5
BA
100
AcDbEntity
  8
0
370
              -2
390
0
  6
Continuous
 62
               0
100
AcDbLine
 10
368.5138564129104
 20
805.0789502039022
 30
0.0
 11
368.5138564129104
 21
940.09247069645005
 31
0.0
  0
LINE
  5
BB
100
AcDbEntity
  8
0
370
              -2
390
0
  6
Continuous
 62
               0
100
AcDbLine
 10
478.51385641291108
 20
940.09247069645005
 30
0.0
 11
368.5138564129104
 21
940.09247069645005
 31
0.0
  0
CIRCLE
  5
BC
102
{ACAD_REACTORS
330
BD
102
}
100
AcDbEntity
  8
0
370
              -2
390
0
  6
Continuous
 62
               0
100
AcDbCircle
 10
478.51385641291108
 20
940.09247069645005
 30
0.0
 40
1.9998779296875
  0
HATCH
  5
BD
100
AcDbEntity
  8
0
370
              -2
390
0
  6
Continuous
 62
               0
100
AcDbHatch
 10
0.0
 20
0.0
 30
0.0
210
0.0
220
0.0
230
1.0
  2
SOLID
 70
               1
 71
               1
 91
        1
 92
        1
 93
        1
 72
               2
 10
478.51385641291108
 20
940.09247069645005
 40
1.9998779296875
 50
0.0
 51
360.0
 73
               0
 97
        1
330
BC
 75
               0
 76
               1
 98
        1
 10
0.0
 20
0.0
  0
CIRCLE
  5
BE
102
{ACAD_REACTORS
330
BF
102
}
100
AcDbEntity
  8
0
370
              -2
390
0
  6
Continuous
 62
               0
100
AcDbCircle
 10
368.5138564129104
 20
940.09247069645005
 30
0.0
 40
1.9998779296875
  0
HATCH
  5
BF
100
AcDbEntity
  8
0
370
              -2
390
0
  6
Continuous
 62
               0
100
AcDbHatch
 10
0.0
 20
0.0
 30
0.0
210
0.0
220
0.0
230
1.0
  2
SOLID
 70
               1
 71
               1
 91
        1
 92
        1
 93
        1
 72
               2
 10
368.5138564129104
 20
940.09247069645005
 40
1.9998779296875
 50
0.0
 51
360.0
 73
               0
 97
        1
330
BE
 75
               0
 76
               1
 98
        1
 10
0.0
 20
0.0
  0
MTEXT
  5
C0
100
AcDbEntity
  8
0
390
0
 62
               0
100
AcDbMText
 10
399.70135473073515
 20
973.9700878839501
 30
0.0
 40
24.432617187500004
 41
0.0
 71
               1
 72
               1
  1
110
  7
ＭＳ ゴシック
 73
               1
 44
0.7828267384257843
  0
POINT
  5
C1
100
AcDbEntity
  8
Defpoints
370
               0
390
0
 62
               0
100
AcDbPoint
 10
368.5138564129104
 20
780.0789502039022
 30
0.0
  0
POINT
  5
C2
100
AcDbEntity
  8
Defpoints
370
               0
390
0
 62
               0
100
AcDbPoint
 10
478.51385641291108
 20
780.0789502039022
 30
0.0
  0
POINT
  5
C3
100
AcDbEntity
  8
Defpoints
370
               0
390
0
 62
               0
100
AcDbPoint
 10
478.51385641291108
 20
940.09247069645005
 30
0.0
  0
ENDBLK
  5
C4
100
AcDbEntity
  8
notes
390
0
100
AcDbBlockEnd
  0
BLOCK
  5
C5
100
AcDbEntity
  8
notes
390
0
100
AcDbBlockBegin
  2
*D11
 70
               1
 10
0.0
 20
0.0
 30
0.0
  3
*D11
  1

  0
LINE
  5
C6
100
AcDbEntity
  8
0
370
              -2
390
0
  6
Continuous
 62
               0
100
AcDbLine
 10
420.31282279202037
 20
-480.85219972766231
 30
0.0
 11
262.1439441521286
 21
-480.85219972766231
 31
0.0
  0
LINE
  5
C7
100
AcDbEntity
  8
0
370
              -2
390
0
  6
Continuous
 62
               0
100
AcDbLine
 10
342.13438683590607
 20
-375.85219972766231
 30
0.0
 11
262.1439441521286
 21
-375.85219972766231
 31
0.0
  0
LINE
  5
C8
100
AcDbEntity
  8
0
370
              -2
390
0
  6
Continuous
 62
               0
100
AcDbLine
 10
262.1439441521286
 20
-480.85219972766231
 30
0.0
 11
262.1439441521286
 21
-375.85219972766231
 31
0.0
  0
CIRCLE
  5
C9
102
{ACAD_REACTORS
330
CA
102
}
100
AcDbEntity
  8
0
370
              -2
390
0
  6
Continuous
 62
               0
100
AcDbCircle
 10
262.1439441521286
 20
-480.85219972766231
 30
0.0
 40
1.9998779296875
  0
HATCH
  5
CA
100
AcDbEntity
  8
0
370
              -2
390
0
  6
Continuous
 62
               0
100
AcDbHatch
 10
0.0
 20
0.0
 30
0.0
210
0.0
220
0.0
230
1.0
  2
SOLID
 70
               1
 71
               1
 91
        1
 92
        1
 93
        1
 72
               2
 10
262.1439441521286
 20
-480.85219972766231
 40
1.9998779296875
 50
0.0
 51
360.0
 73
               0
 97
        1
330
C9
 75
               0
 76
               1
 98
        1
 10
0.0
 20
0.0
  0
CIRCLE
  5
CB
102
{ACAD_REACTORS
330
CC
102
}
100
AcDbEntity
  8
0
370
              -2
390
0
  6
Continuous
 62
               0
100
AcDbCircle
 10
262.1439441521286
 20
-375.85219972766231
 30
0.0
 40
1.9998779296875
  0
HATCH
  5
CC
100
AcDbEntity
  8
0
370
              -2
390
0
  6
Continuous
 62
               0
100
AcDbHatch
 10
0.0
 20
0.0
 30
0.0
210
0.0
220
0.0
230
1.0
  2
SOLID
 70
               1
 71
               1
 91
        1
 92
        1
 93
        1
 72
               2
 10
262.1439441521286
 20
-375.85219972766231
 40
1.9998779296875
 50
0.0
 51
360.0
 73
               0
 97
        1
330
CB
 75
               0
 76
               1
 98
        1
 10
0.0
 20
0.0
  0
MTEXT
  5
CD
100
AcDbEntity
  8
0
390
0
 62
               0
100
AcDbMText
 10
228.26632696462866
 20
-452.16470140983779
 30
0.0
 40
24.432617187500004
 41
0.0
 71
               1
 72
               1
  1
105
  7
ＭＳ ゴシック
 11
0.0
 21
1.0
 31
0.0
 73
               1
 44
0.7828267384257843
  0
POINT
  5
CE
100
AcDbEntity
  8
Defpoints
370
               0
390
0
 62
               0
100
AcDbPoint
 10
367.13438683590607
 20
-375.85219972766231
 30
0.0
  0
POINT
  5
CF
100
AcDbEntity
  8
Defpoints
370
               0
390
0
 62
               0
100
AcDbPoint
 10
445.31282279202037
 20
-480.85219972766231
 30
0.0
  0
POINT
  5
D0
100
AcDbEntity
  8
Defpoints
370
               0
390
0
 62
               0
100
AcDbPoint
 10
262.1439441521286
 20
-480.85219972766231
 30
0.0
  0
ENDBLK
  5
D1
100
AcDbEntity
  8
notes
390
0
100
AcDbBlockEnd
  0
BLOCK
  5
D2
100
AcDbEntity
  8
notes
390
0
100
AcDbBlockBegin
  2
*D12
 70
               1
 10
0.0
 20
0.0
 30
0.0
  3
*D12
  1

  0
LINE
  5
D3
100
AcDbEntity
  8
0
370
              -2
390
0
  6
Continuous
 62
               0
100
AcDbLine
 10
343.5138564129104
 20
780.0789502039022
 30
0.0
 11
153.46222313180579
 21
780.0789502039022
 31
0.0
  0
LINE
  5
D4
100
AcDbEntity
  8
0
370
              -2
390
0
  6
Continuous
 62
               0
100
AcDbLine
 10
343.5138564129104
 20
670.0789502039022
 30
0.0
 11
153.46222313180579
 21
670.0789502039022
 31
0.0
  0
LINE
  5
D5
100
AcDbEntity
  8
0
370
              -2
390
0
  6
Continuous
 62
               0
100
AcDbLine
 10
153.46222313180579
 20
780.0789502039022
 30
0.0
 11
153.46222313180579
 21
670.0789502039022
 31
0.0
  0
CIRCLE
  5
D6
102
{ACAD_REACTORS
330
D7
102
}
100
AcDbEntity
  8
0
370
              -2
390
0
  6
Continuous
 62
               0
100
AcDbCircle
 10
153.46222313180579
 20
780.0789502039022
 30
0.0
 40
1.9998779296875
  0
HATCH
  5
D7
100
AcDbEntity
  8
0
370
              -2
390
0
  6
Continuous
 62
               0
100
AcDbHatch
 10
0.0
 20
0.0
 30
0.0
210
0.0
220
0.0
230
1.0
  2
SOLID
 70
               1
 71
               1
 91
        1
 92
        1
 93
        1
 72
               2
 10
153.46222313180579
 20
780.0789502039022
 40
1.9998779296875
 50
0.0
 51
360.0
 73
               0
 97
        1
330
D6
 75
               0
 76
               1
 98
        1
 10
0.0
 20
0.0
  0
CIRCLE
  5
D8
102
{ACAD_REACTORS
330
D9
102
}
100
AcDbEntity
  8
0
370
              -2
390
0
  6
Continuous
 62
               0
100
AcDbCircle
 10
153.46222313180579
 20
670.0789502039022
 30
0.0
 40
1.9998779296875
  0
HATCH
  5
D9
100
AcDbEntity
  8
0
370
              -2
390
0
  6
Continuous
 62
               0
100
AcDbHatch
 10
0.0
 20
0.0
 30
0.0
210
0.0
220
0.0
230
1.0
  2
SOLID
 70
               1
 71
               1
 91
        1
 92
        1
 93
        1
 72
               2
 10
153.46222313180579
 20
670.0789502039022
 40
1.9998779296875
 50
0.0
 51
360.0
 73
               0
 97
        1
330
D8
 75
               0
 76
               1
 98
        1
 10
0.0
 20
0.0
  0
MTEXT
  5
DA
100
AcDbEntity
  8
0
390
0
 62
               0
100
AcDbMText
 10
119.58460594430585
 20
701.26644852172672
 30
0.0
 40
24.432617187500004
 41
0.0
 71
               1
 72
               1
  1
110
  7
ＭＳ ゴシック
 11
0.0
 21
1.0
 31
0.0
 73
               1
 44
0.7828267384257843
  0
POINT
  5
DB
100
AcDbEntity
  8
Defpoints
370
               0
390
0
 62
               0
100
AcDbPoint
 10
368.5138564129104
 20
670.0789502039022
 30
0.0
  0
POINT
  5
DC
100
AcDbEntity
  8
Defpoints
370
               0
390
0
 62
               0
100
AcDbPoint
 10
368.5138564129104
 20
780.0789502039022
 30
0.0
  0
POINT
  5
DD
100
AcDbEntity
  8
Defpoints
370
               0
390
0
 62
               0
100
AcDbPoint
 10
153.46222313180579
 20
780.0789502039022
 30
0.0
  0
ENDBLK
  5
DE
100
AcDbEntity
  8
notes
390
0
100
AcDbBlockEnd
  0
BLOCK
  5
DF
100
AcDbEntity
  8
notes
390
0
100
AcDbBlockBegin
  2
*D13
 70
               1
 10
0.0
 20
0.0
 30
0.0
  3
*D13
  1

  0
LINE
  5
E0
100
AcDbEntity
  8
0
370
              -2
390
0
  6
Continuous
 62
               0
100
AcDbLine
 10
-651.52822576674453
 20
-410.82972718710312
 30
0.0
 11
-651.52822576674453
 21
-281.12104979609785
 31
0.0
  0
LINE
  5
E1
100
AcDbEntity
  8
0
370
              -2
390
0
  6
Continuous
 62
               0
100
AcDbLine
 10
-366.54346859361112
 20
-410.82972718710312
 30
0.0
 11
-366.54346859361112
 21
-281.12104979609785
 31
0.0
  0
LINE
  5
E2
100
AcDbEntity
  8
0
370
              -2
390
0
  6
Continuous
 62
               0
100
AcDbLine
 10
-651.52822576674453
 20
-281.12104979609785
 30
0.0
 11
-366.54346859361112
 21
-281.12104979609785
 31
0.0
  0
CIRCLE
  5
E3
102
{ACAD_REACTORS
330
E4
102
}
100
AcDbEntity
  8
0
370
              -2
390
0
  6
Continuous
 62
               0
100
AcDbCircle
 10
-651.52822576674453
 20
-281.12104979609785
 30
0.0
 40
1.9998779296875
  0
HATCH
  5
E4
100
AcDbEntity
  8
0
370
              -2
390
0
  6
Continuous
 62
               0
100
AcDbHatch
 10
0.0
 20
0.0
 30
0.0
210
0.0
220
0.0
230
1.0
  2
SOLID
 70
               1
 71
               1
 91
        1
 92
        1
 93
        1
 72
               2
 10
-651.52822576674453
 20
-281.12104979609785
 40
1.9998779296875
 50
0.0
 51
360.0
 73
               0
 97
        1
330
E3
 75
               0
 76
               1
 98
        1
 10
0.0
 20
0.0
  0
CIRCLE
  5
E5
102
{ACAD_REACTORS
330
E6
102
}
100
AcDbEntity
  8
0
370
              -2
390
0
  6
Continuous
 62
               0
100
AcDbCircle
 10
-366.54346859361112
 20
-281.12104979609785
 30
0.0
 40
1.9998779296875
  0
HATCH
  5
E6
100
AcDbEntity
  8
0
370
              -2
390
0
  6
Continuous
 62
               0
100
AcDbHatch
 10
0.0
 20
0.0
 30
0.0
210
0.0
220
0.0
230
1.0
  2
SOLID
 70
               1
 71
               1
 91
        1
 92
        1
 93
        1
 72
               2
 10
-366.54346859361112
 20
-281.12104979609785
 40
1.9998779296875
 50
0.0
 51
360.0
 73
               0
 97
        1
330
E5
 75
               0
 76
               1
 98
        1
 10
0.0
 20
0.0
  0
MTEXT
  5
E7
100
AcDbEntity
  8
0
390
0
 62
               0
100
AcDbMText
 10
-532.8483488623533
 20
-247.24343260859791
 30
0.0
 40
24.432617187500004
 41
0.0
 71
               1
 72
               1
  1
285
  7
ＭＳ ゴシック
 73
               1
 44
0.7828267384257843
  0
POINT
  5
E8
100
AcDbEntity
  8
Defpoints
370
               0
390
0
 62
               0
100
AcDbPoint
 10
-366.54346859361112
 20
-435.82972718710312
 30
0.0
  0
POINT
  5
E9
100
AcDbEntity
  8
Defpoints
370
               0
390
0
 62
               0
100
AcDbPoint
 10
-651.52822576674453
 20
-435.82972718710312
 30
0.0
  0
POINT
  5
EA
100
AcDbEntity
  8
Defpoints
370
               0
390
0
 62
               0
100
AcDbPoint
 10
-651.52822576674453
 20
-281.12104979609785
 30
0.0
  0
ENDBLK
  5
EB
100
AcDbEntity
  8
notes
390
0
100
AcDbBlockEnd
  0
BLOCK
  5
EC
100
AcDbEntity
  8
notes
390
0
100
AcDbBlockBegin
  2
*D14
 70
               1
 10
0.0
 20
0.0
 30
0.0
  3
*D14
  1

  0
LINE
  5
ED
100
AcDbEntity
  8
0
370
              -2
390
0
  6
Continuous
 62
               0
100
AcDbLine
 10
-366.54346859361112
 20
-410.82972718710312
 30
0.0
 11
-366.54346859361112
 21
-281.12104979609785
 31
0.0
  0
LINE
  5
EE
100
AcDbEntity
  8
0
370
              -2
390
0
  6
Continuous
 62
               0
100
AcDbLine
 10
-286.54346859361112
 20
-450.82972718710312
 30
0.0
 11
-286.54346859361112
 21
-281.12104979609785
 31
0.0
  0
LINE
  5
EF
100
AcDbEntity
  8
0
370
              -2
390
0
  6
Continuous
 62
               0
100
AcDbLine
 10
-366.54346859361112
 20
-281.12104979609785
 30
0.0
 11
-286.54346859361112
 21
-281.12104979609785
 31
0.0
  0
CIRCLE
  5
F0
102
{ACAD_REACTORS
330
F1
102
}
100
AcDbEntity
  8
0
370
              -2
390
0
  6
Continuous
 62
               0
100
AcDbCircle
 10
-366.54346859361112
 20
-281.12104979609785
 30
0.0
 40
1.9998779296875
  0
HATCH
  5
F1
100
AcDbEntity
  8
0
370
              -2
390
0
  6
Continuous
 62
               0
100
AcDbHatch
 10
0.0
 20
0.0
 30
0.0
210
0.0
220
0.0
230
1.0
  2
SOLID
 70
               1
 71
               1
 91
        1
 92
        1
 93
        1
 72
               2
 10
-366.54346859361112
 20
-281.12104979609785
 40
1.9998779296875
 50
0.0
 51
360.0
 73
               0
 97
        1
330
F0
 75
               0
 76
               1
 98
        1
 10
0.0
 20
0.0
  0
CIRCLE
  5
F2
102
{ACAD_REACTORS
330
F3
102
}
100
AcDbEntity
  8
0
370
              -2
390
0
  6
Continuous
 62
               0
100
AcDbCircle
 10
-286.54346859361112
 20
-281.12104979609785
 30
0.0
 40
1.9998779296875
  0
HATCH
  5
F3
100
AcDbEntity
  8
0
370
              -2
390
0
  6
Continuous
 62
               0
100
AcDbHatch
 10
0.0
 20
0.0
 30
0.0
210
0.0
220
0.0
230
1.0
  2
SOLID
 70
               1
 71
               1
 91
        1
 92
        1
 93
        1
 72
               2
 10
-286.54346859361112
 20
-281.12104979609785
 40
1.9998779296875
 50
0.0
 51
360.0
 73
               0
 97
        1
330
F2
 75
               0
 76
               1
 98
        1
 10
0.0
 20
0.0
  0
MTEXT
  5
F4
100
AcDbEntity
  8
0
390
0
 62
               0
100
AcDbMText
 10
-341.93826645485683
 20
-247.24343260859791
 30
0.0
 40
24.432617187500004
 41
0.0
 71
               1
 72
               1
  1
80
  7
ＭＳ ゴシック
 73
               1
 44
0.7828267384257843
  0
POINT
  5
F5
100
AcDbEntity
  8
Defpoints
370
               0
390
0
 62
               0
100
AcDbPoint
 10
-286.54346859361112
 20
-475.82972718710312
 30
0.0
  0
POINT
  5
F6
100
AcDbEntity
  8
Defpoints
370
               0
390
0
 62
               0
100
AcDbPoint
 10
-366.54346859361112
 20
-435.82972718710312
 30
0.0
  0
POINT
  5
F7
100
AcDbEntity
  8
Defpoints
370
               0
390
0
 62
               0
100
AcDbPoint
 10
-366.54346859361112
 20
-281.12104979609785
 30
0.0
  0
ENDBLK
  5
F8
100
AcDbEntity
  8
notes
390
0
100
AcDbBlockEnd
  0
BLOCK
  5
F9
100
AcDbEntity
  8
notes
390
0
100
AcDbBlockBegin
  2
*D15
 70
               1
 10
0.0
 20
0.0
 30
0.0
  3
*D15
  1

  0
LINE
  5
FA
100
AcDbEntity
  8
0
370
              -2
390
0
  6
Continuous
 62
               0
100
AcDbLine
 10
452.19534559008775
 20
-460.87053949686015
 30
0.0
 11
477.18501341061869
 21
-460.87053949686015
 31
0.0
  0
LINE
  5
FB
100
AcDbEntity
  8
0
370
              -2
390
0
  6
Continuous
 62
               0
100
AcDbLine
 10
452.18501341061869
 20
-375.87053949686015
 30
0.0
 11
477.18501341061869
 21
-375.87053949686015
 31
0.0
  0
LINE
  5
FC
100
AcDbEntity
  8
0
370
              -2
390
0
  6
Continuous
 62
               0
100
AcDbLine
 10
477.18501341061869
 20
-375.87053949686015
 30
0.0
 11
477.18501341061869
 21
-242.16186210585488
 31
0.0
  0
LINE
  5
FD
100
AcDbEntity
  8
0
370
              -2
390
0
  6
Continuous
 62
               0
100
AcDbLine
 10
477.18501341061869
 20
-460.87053949686015
 30
0.0
 11
477.18501341061869
 21
-375.87053949686015
 31
0.0
  0
CIRCLE
  5
FE
102
{ACAD_REACTORS
330
FF
102
}
100
AcDbEntity
  8
0
370
              -2
390
0
  6
Continuous
 62
               0
100
AcDbCircle
 10
477.18501341061869
 20
-460.87053949686015
 30
0.0
 40
1.9998779296875
  0
HATCH
  5
FF
100
AcDbEntity
  8
0
370
              -2
390
0
  6
Continuous
 62
               0
100
AcDbHatch
 10
0.0
 20
0.0
 30
0.0
210
0.0
220
0.0
230
1.0
  2
SOLID
 70
               1
 71
               1
 91
        1
 92
        1
 93
        1
 72
               2
 10
477.18501341061869
 20
-460.87053949686015
 40
1.9998779296875
 50
0.0
 51
360.0
 73
               0
 97
        1
330
FE
 75
               0
 76
               1
 98
        1
 10
0.0
 20
0.0
  0
CIRCLE
  5
100
102
{ACAD_REACTORS
330
101
102
}
100
AcDbEntity
  8
0
370
              -2
390
0
  6
Continuous
 62
               0
100
AcDbCircle
 10
477.18501341061869
 20
-375.87053949686015
 30
0.0
 40
1.9998779296875
  0
HATCH
  5
101
100
AcDbEntity
  8
0
370
              -2
390
0
  6
Continuous
 62
               0
100
AcDbHatch
 10
0.0
 20
0.0
 30
0.0
210
0.0
220
0.0
230
1.0
  2
SOLID
 70
               1
 71
               1
 91
        1
 92
        1
 93
        1
 72
               2
 10
477.18501341061869
 20
-375.87053949686015
 40
1.9998779296875
 50
0.0
 51
360.0
 73
               0
 97
        1
330
100
 75
               0
 76
               1
 98
        1
 10
0.0
 20
0.0
  0
MTEXT
  5
102
100
AcDbEntity
  8
0
390
0
 62
               0
100
AcDbMText
 10
443.30739622311876
 20
-369.16186210585488
 30
0.0
 40
24.432617187500004
 41
0.0
 71
               1
 72
               1
  1
85(深さ)
  7
ＭＳ ゴシック
 11
0.0
 21
1.0
 31
0.0
 73
               1
 44
0.7828267384257843
  0
POINT
  5
103
100
AcDbEntity
  8
Defpoints
370
               0
390
0
 62
               0
100
AcDbPoint
 10
477.18501341061869
 20
-375.87053949686015
 30
0.0
  0
POINT
  5
104
100
AcDbEntity
  8
Defpoints
370
               0
390
0
 62
               0
100
AcDbPoint
 10
477.19534559008775
 20
-460.87053949686015
 30
0.0
  0
POINT
  5
105
100
AcDbEntity
  8
Defpoints
370
               0
390
0
 62
               0
100
AcDbPoint
 10
477.18501341061869
 20
-460.87053949686015
 30
0.0
  0
ENDBLK
  5
106
100
AcDbEntity
  8
notes
390
0
100
AcDbBlockEnd
  0
BLOCK
  5
107
100
AcDbEntity
  8
notes
390
0
100
AcDbBlockBegin
  2
*D16
 70
               1
 10
0.0
 20
0.0
 30
0.0
  3
*D16
  1

  0
LINE
  5
108
100
AcDbEntity
  8
0
370
              -2
390
0
  6
Continuous
 62
               0
100
AcDbLine
 10
-286.53821039399509
 20
-510.82972718710312
 30
0.0
 11
-286.53821039399509
 21
-585.82972718710312
 31
0.0
  0
LINE
  5
109
100
AcDbEntity
  8
0
370
              -2
390
0
  6
Continuous
 62
               0
100
AcDbLine
 10
-516.53821039399281
 20
-505.82972718710312
 30
0.0
 11
-516.53821039399281
 21
-585.82972718710312
 31
0.0
  0
LINE
  5
10A
100
AcDbEntity
  8
0
370
              -2
390
0
  6
Continuous
 62
               0
100
AcDbLine
 10
-286.53821039399509
 20
-585.82972718710312
 30
0.0
 11
-516.53821039399281
 21
-585.82972718710312
 31
0.0
  0
CIRCLE
  5
10B
102
{ACAD_REACTORS
330
10C
102
}
100
AcDbEntity
  8
0
370
              -2
390
0
  6
Continuous
 62
               0
100
AcDbCircle
 10
-286.53821039399509
 20
-585.82972718710312
 30
0.0
 40
1.9998779296875
  0
HATCH
  5
10C
100
AcDbEntity
  8
0
370
              -2
390
0
  6
Continuous
 62
               0
100
AcDbHatch
 10
0.0
 20
0.0
 30
0.0
210
0.0
220
0.0
230
1.0
  2
SOLID
 70
               1
 71
               1
 91
        1
 92
        1
 93
        1
 72
               2
 10
-286.53821039399509
 20
-585.82972718710312
 40
1.9998779296875
 50
0.0
 51
360.0
 73
               0
 97
        1
330
10B
 75
               0
 76
               1
 98
        1
 10
0.0
 20
0.0
  0
CIRCLE
  5
10D
102
{ACAD_REACTORS
330
10E
102
}
100
AcDbEntity
  8
0
370
              -2
390
0
  6
Continuous
 62
               0
100
AcDbCircle
 10
-516.53821039399281
 20
-585.82972718710312
 30
0.0
 40
1.9998779296875
  0
HATCH
  5
10E
100
AcDbEntity
  8
0
370
              -2
390
0
  6
Continuous
 62
               0
100
AcDbHatch
 10
0.0
 20
0.0
 30
0.0
210
0.0
220
0.0
230
1.0
  2
SOLID
 70
               1
 71
               1
 91
        1
 92
        1
 93
        1
 72
               2
 10
-516.53821039399281
 20
-585.82972718710312
 40
1.9998779296875
 50
0.0
 51
360.0
 73
               0
 97
        1
330
10D
 75
               0
 76
               1
 98
        1
 10
0.0
 20
0.0
  0
MTEXT
  5
10F
100
AcDbEntity
  8
0
390
0
 62
               0
100
AcDbMText
 10
-425.3507120761692
 20
-551.95210999960318
 30
0.0
 40
24.432617187500004
 41
0.0
 71
               1
 72
               1
  1
230
  7
ＭＳ ゴシック
 73
               1
 44
0.7828267384257843
  0
POINT
  5
110
100
AcDbEntity
  8
Defpoints
370
               0
390
0
 62
               0
100
AcDbPoint
 10
-516.53821039399281
 20
-480.82972718710312
 30
0.0
  0
POINT
  5
111
100
AcDbEntity
  8
Defpoints
370
               0
390
0
 62
               0
100
AcDbPoint
 10
-286.53821039399509
 20
-485.82972718710312
 30
0.0
  0
POINT
  5
112
100
AcDbEntity
  8
Defpoints
370
               0
390
0
 62
               0
100
AcDbPoint
 10
-286.53821039399509
 20
-585.82972718710312
 30
0.0
  0
ENDBLK
  5
113
100
AcDbEntity
  8
notes
390
0
100
AcDbBlockEnd
  0
BLOCK
  5
114
100
AcDbEntity
  8
notes
390
0
100
AcDbBlockBegin
  2
*D17
 70
               1
 10
0.0
 20
0.0
 30
0.0
  3
*D17
  1

  0
LINE
  5
115
100
AcDbEntity
  8
0
370
              -2
390
0
  6
Continuous
 62
               0
100
AcDbLine
 10
-356.53910857254868
 20
603.01932099484145
 30
0.0
 11
-356.53910857254868
 21
509.99999999999989
 31
0.0
  0
LINE
  5
116
100
AcDbEntity
  8
0
370
              -2
390
0
  6
Continuous
 62
               0
100
AcDbLine
 10
-286.53910857254868
 20
585.04623534822497
 30
0.0
 11
-286.53910857254868
 21
509.99999999999989
 31
0.0
  0
LINE
  5
117
100
AcDbEntity
  8
0
370
              -2
390
0
  6
Continuous
 62
               0
100
AcDbLine
 10
-356.53910857254868
 20
509.99999999999989
 30
0.0
 11
-286.53910857254868
 21
509.99999999999989
 31
0.0
  0
CIRCLE
  5
118
102
{ACAD_REACTORS
330
119
102
}
100
AcDbEntity
  8
0
370
              -2
390
0
  6
Continuous
 62
               0
100
AcDbCircle
 10
-356.53910857254868
 20
509.99999999999989
 30
0.0
 40
1.9998779296875
  0
HATCH
  5
119
100
AcDbEntity
  8
0
370
              -2
390
0
  6
Continuous
 62
               0
100
AcDbHatch
 10
0.0
 20
0.0
 30
0.0
210
0.0
220
0.0
230
1.0
  2
SOLID
 70
               1
 71
               1
 91
        1
 92
        1
 93
        1
 72
               2
 10
-356.53910857254868
 20
509.99999999999989
 40
1.9998779296875
 50
0.0
 51
360.0
 73
               0
 97
        1
330
118
 75
               0
 76
               1
 98
        1
 10
0.0
 20
0.0
  0
CIRCLE
  5
11A
102
{ACAD_REACTORS
330
11B
102
}
100
AcDbEntity
  8
0
370
              -2
390
0
  6
Continuous
 62
               0
100
AcDbCircle
 10
-286.53910857254868
 20
509.99999999999989
 30
0.0
 40
1.9998779296875
  0
HATCH
  5
11B
100
AcDbEntity
  8
0
370
              -2
390
0
  6
Continuous
 62
               0
100
AcDbHatch
 10
0.0
 20
0.0
 30
0.0
210
0.0
220
0.0
230
1.0
  2
SOLID
 70
               1
 71
               1
 91
        1
 92
        1
 93
        1
 72
               2
 10
-286.53910857254868
 20
509.99999999999989
 40
1.9998779296875
 50
0.0
 51
360.0
 73
               0
 97
        1
330
11A
 75
               0
 76
               1
 98
        1
 10
0.0
 20
0.0
  0
MTEXT
  5
11C
100
AcDbEntity
  8
0
390
0
 62
               0
100
AcDbMText
 10
-337.41410857254868
 20
543.87761718749994
 30
0.0
 40
24.432617187500004
 41
0.0
 71
               1
 72
               1
  1
70
  7
ＭＳ ゴシック
 73
               1
 44
0.7828267384257843
  0
POINT
  5
11D
100
AcDbEntity
  8
Defpoints
370
               0
390
0
 62
               0
100
AcDbPoint
 10
-286.53910857254868
 20
610.04623534822497
 30
0.0
  0
POINT
  5
11E
100
AcDbEntity
  8
Defpoints
370
               0
390
0
 62
               0
100
AcDbPoint
 10
-356.53910857254868
 20
628.01932099484145
 30
0.0
  0
POINT
  5
11F
100
AcDbEntity
  8
Defpoints
370
               0
390
0
 62
               0
100
AcDbPoint
 10
-356.53910857254868
 20
509.99999999999989
 30
0.0
  0
ENDBLK
  5
120
100
AcDbEntity
  8
notes
390
0
100
AcDbBlockEnd
  0
BLOCK
  5
121
100
AcDbEntity
  8
notes
390
0
100
AcDbBlockBegin
  2
*D18
 70
               1
 10
0.0
 20
0.0
 30
0.0
  3
*D18
  1

  0
LINE
  5
122
100
AcDbEntity
  8
0
370
              -2
390
0
  6
Continuous
 62
               0
100
AcDbLine
 10
617.24158093831284
 20
-485.84264241143933
 30
0.0
 11
692.24158093831284
 21
-485.84264241143933
 31
0.0
  0
LINE
  5
123
100
AcDbEntity
  8
0
370
              -2
390
0
  6
Continuous
 62
               0
100
AcDbLine
 10
612.243389119933
 20
-375.84264241143933
 30
0.0
 11
692.24158093831284
 21
-375.84264241143933
 31
0.0
  0
LINE
  5
124
100
AcDbEntity
  8
0
370
              -2
390
0
  6
Continuous
 62
               0
100
AcDbLine
 10
692.24158093831284
 20
-485.84264241143933
 30
0.0
 11
692.24158093831284
 21
-375.84264241143933
 31
0.0
  0
CIRCLE
  5
125
102
{ACAD_REACTORS
330
126
102
}
100
AcDbEntity
  8
0
370
              -2
390
0
  6
Continuous
 62
               0
100
AcDbCircle
 10
692.24158093831284
 20
-485.84264241143933
 30
0.0
 40
1.9998779296875
  0
HATCH
  5
126
100
AcDbEntity
  8
0
370
              -2
390
0
  6
Continuous
 62
               0
100
AcDbHatch
 10
0.0
 20
0.0
 30
0.0
210
0.0
220
0.0
230
1.0
  2
SOLID
 70
               1
 71
               1
 91
        1
 92
        1
 93
        1
 72
               2
 10
692.24158093831284
 20
-485.84264241143933
 40
1.9998779296875
 50
0.0
 51
360.0
 73
               0
 97
        1
330
125
 75
               0
 76
               1
 98
        1
 10
0.0
 20
0.0
  0
CIRCLE
  5
127
102
{ACAD_REACTORS
330
128
102
}
100
AcDbEntity
  8
0
370
              -2
390
0
  6
Continuous
 62
               0
100
AcDbCircle
 10
692.24158093831284
 20
-375.84264241143933
 30
0.0
 40
1.9998779296875
  0
HATCH
  5
128
100
AcDbEntity
  8
0
370
              -2
390
0
  6
Continuous
 62
               0
100
AcDbHatch
 10
0.0
 20
0.0
 30
0.0
210
0.0
220
0.0
230
1.0
  2
SOLID
 70
               1
 71
               1
 91
        1
 92
        1
 93
        1
 72
               2
 10
692.24158093831284
 20
-375.84264241143933
 40
1.9998779296875
 50
0.0
 51
360.0
 73
               0
 97
        1
330
127
 75
               0
 76
               1
 98
        1
 10
0.0
 20
0.0
  0
MTEXT
  5
129
100
AcDbEntity
  8
0
390
0
 62
               0
100
AcDbMText
 10
658.36396375081279
 20
-454.65514409361481
 30
0.0
 40
24.432617187500004
 41
0.0
 71
               1
 72
               1
  1
110
  7
ＭＳ ゴシック
 11
0.0
 21
1.0
 31
0.0
 73
               1
 44
0.7828267384257843
  0
POINT
  5
12A
100
AcDbEntity
  8
Defpoints
370
               0
390
0
 62
               0
100
AcDbPoint
 10
587.243389119933
 20
-375.84264241143933
 30
0.0
  0
POINT
  5
12B
100
AcDbEntity
  8
Defpoints
370
               0
390
0
 62
               0
100
AcDbPoint
 10
592.24158093831284
 20
-485.84264241143933
 30
0.0
  0
POINT
  5
12C
100
AcDbEntity
  8
Defpoints
370
               0
390
0
 62
               0
100
AcDbPoint
 10
692.24158093831284
 20
-485.84264241143933
 30
0.0
  0
ENDBLK
  5
12D
100
AcDbEntity
  8
notes
390
0
100
AcDbBlockEnd
  0
BLOCK
  5
12E
100
AcDbEntity
  8
notes
390
0
100
AcDbBlockBegin
  2
*D19
 70
               1
 10
0.0
 20
0.0
 30
0.0
  3
*D19
  1

  0
LINE
  5
12F
100
AcDbEntity
  8
0
370
              -2
390
0
  6
Continuous
 62
               0
100
AcDbLine
 10
592.24158093831284
 20
-510.84264241143933
 30
0.0
 11
592.24158093831284
 21
-585.84264241143933
 31
0.0
  0
LINE
  5
130
100
AcDbEntity
  8
0
370
              -2
390
0
  6
Continuous
 62
               0
100
AcDbLine
 10
477.19276254522083
 20
-505.84703363792778
 30
0.0
 11
477.19276254522083
 21
-585.84264241143933
 31
0.0
  0
LINE
  5
131
100
AcDbEntity
  8
0
370
              -2
390
0
  6
Continuous
 62
               0
100
AcDbLine
 10
592.24158093831284
 20
-585.84264241143933
 30
0.0
 11
477.19276254522083
 21
-585.84264241143933
 31
0.0
  0
CIRCLE
  5
132
102
{ACAD_REACTORS
330
133
102
}
100
AcDbEntity
  8
0
370
              -2
390
0
  6
Continuous
 62
               0
100
AcDbCircle
 10
592.24158093831284
 20
-585.84264241143933
 30
0.0
 40
1.9998779296875
  0
HATCH
  5
133
100
AcDbEntity
  8
0
370
              -2
390
0
  6
Continuous
 62
               0
100
AcDbHatch
 10
0.0
 20
0.0
 30
0.0
210
0.0
220
0.0
230
1.0
  2
SOLID
 70
               1
 71
               1
 91
        1
 92
        1
 93
        1
 72
               2
 10
592.24158093831284
 20
-585.84264241143933
 40
1.9998779296875
 50
0.0
 51
360.0
 73
               0
 97
        1
330
132
 75
               0
 76
               1
 98
        1
 10
0.0
 20
0.0
  0
CIRCLE
  5
134
102
{ACAD_REACTORS
330
135
102
}
100
AcDbEntity
  8
0
370
              -2
390
0
  6
Continuous
 62
               0
100
AcDbCircle
 10
477.19276254522083
 20
-585.84264241143933
 30
0.0
 40
1.9998779296875
  0
HATCH
  5
135
100
AcDbEntity
  8
0
370
              -2
390
0
  6
Continuous
 62
               0
100
AcDbHatch
 10
0.0
 20
0.0
 30
0.0
210
0.0
220
0.0
230
1.0
  2
SOLID
 70
               1
 71
               1
 91
        1
 92
        1
 93
        1
 72
               2
 10
477.19276254522083
 20
-585.84264241143933
 40
1.9998779296875
 50
0.0
 51
360.0
 73
               0
 97
        1
330
134
 75
               0
 76
               1
 98
        1
 10
0.0
 20
0.0
  0
MTEXT
  5
136
100
AcDbEntity
  8
0
390
0
 62
               0
100
AcDbMText
 10
510.90467005959135
 20
-551.96502522393939
 30
0.0
 40
24.432617187500004
 41
0.0
 71
               1
 72
               1
  1
115
  7
ＭＳ ゴシック
 73
               1
 44
0.7828267384257843
  0
POINT
  5
137
100
AcDbEntity
  8
Defpoints
370
               0
390
0
 62
               0
100
AcDbPoint
 10
477.19276254522083
 20
-480.84703363792778
 30
0.0
  0
POINT
  5
138
100
AcDbEntity
  8
Defpoints
370
               0
390
0
 62
               0
100
AcDbPoint
 10
592.24158093831284
 20
-485.84264241143933
 30
0.0
  0
POINT
  5
139
100
AcDbEntity
  8
Defpoints
370
               0
390
0
 62
               0
100
AcDbPoint
 10
592.24158093831284
 20
-585.84264241143933
 30
0.0
  0
ENDBLK
  5
13A
100
AcDbEntity
  8
notes
390
0
100
AcDbBlockEnd
  0
BLOCK
  5
13B
100
AcDbEntity
  8
notes
390
0
100
AcDbBlockBegin
  2
*D20
 70
               1
 10
0.0
 20
0.0
 30
0.0
  3
*D20
  1

  0
LINE
  5
13C
100
AcDbEntity
  8
0
370
              -2
390
0
  6
Continuous
 62
               0
100
AcDbLine
 10
420.31282279202037
 20
-480.85219972766231
 30
0.0
 11
262.1439441521286
 21
-480.85219972766231
 31
0.0
  0
LINE
  5
13D
100
AcDbEntity
  8
0
370
              -2
390
0
  6
Continuous
 62
               0
100
AcDbLine
 10
337.1439441521286
 20
-485.84264241143933
 30
0.0
 11
262.1439441521286
 21
-485.84264241143933
 31
0.0
  0
LINE
  5
13E
100
AcDbEntity
  8
0
370
              -2
390
0
  6
Continuous
 62
               0
100
AcDbLine
 10
262.1439441521286
 20
-480.85219972766231
 30
0.0
 11
262.1439441521286
 21
-485.84264241143933
 31
0.0
  0
CIRCLE
  5
13F
102
{ACAD_REACTORS
330
140
102
}
100
AcDbEntity
  8
0
370
              -2
390
0
  6
Continuous
 62
               0
100
AcDbCircle
 10
262.1439441521286
 20
-480.85219972766231
 30
0.0
 40
1.9998779296875
  0
HATCH
  5
140
100
AcDbEntity
  8
0
370
              -2
390
0
  6
Continuous
 62
               0
100
AcDbHatch
 10
0.0
 20
0.0
 30
0.0
210
0.0
220
0.0
230
1.0
  2
SOLID
 70
               1
 71
               1
 91
        1
 92
        1
 93
        1
 72
               2
 10
262.1439441521286
 20
-480.85219972766231
 40
1.9998779296875
 50
0.0
 51
360.0
 73
               0
 97
        1
330
13F
 75
               0
 76
               1
 98
        1
 10
0.0
 20
0.0
  0
CIRCLE
  5
141
102
{ACAD_REACTORS
330
142
102
}
100
AcDbEntity
  8
0
370
              -2
390
0
  6
Continuous
 62
               0
100
AcDbCircle
 10
262.1439441521286
 20
-485.84264241143933
 30
0.0
 40
1.9998779296875
  0
HATCH
  5
142
100
AcDbEntity
  8
0
370
              -2
390
0
  6
Continuous
 62
               0
100
AcDbHatch
 10
0.0
 20
0.0
 30
0.0
210
0.0
220
0.0
230
1.0
  2
SOLID
 70
               1
 71
               1
 91
        1
 92
        1
 93
        1
 72
               2
 10
262.1439441521286
 20
-485.84264241143933
 40
1.9998779296875
 50
0.0
 51
360.0
 73
               0
 97
        1
330
141
 75
               0
 76
               1
 98
        1
 10
0.0
 20
0.0
  0
MTEXT
  5
143
100
AcDbEntity
  8
0
390
0
 62
               0
100
AcDbMText
 10
228.26632696462866
 20
-491.28492106955082
 30
0.0
 40
24.432617187500004
 41
0.0
 71
               1
 72
               1
  1
5
  7
ＭＳ ゴシック
 11
0.0
 21
1.0
 31
0.0
 73
               1
 44
0.7828267384257843
  0
POINT
  5
144
100
AcDbEntity
  8
Defpoints
370
               0
390
0
 62
               0
100
AcDbPoint
 10
362.1439441521286
 20
-485.84264241143933
 30
0.0
  0
POINT
  5
145
100
AcDbEntity
  8
Defpoints
370
               0
390
0
 62
               0
100
AcDbPoint
 10
445.31282279202037
 20
-480.85219972766231
 30
0.0
  0
POINT
  5
146
100
AcDbEntity
  8
Defpoints
370
               0
390
0
 62
               0
100
AcDbPoint
 10
262.1439441521286
 20
-480.85219972766231
 30
0.0
  0
ENDBLK
  5
147
100
AcDbEntity
  8
notes
390
0
100
AcDbBlockEnd
  0
BLOCK
  5
148
100
AcDbEntity
  8
notes
390
0
100
AcDbBlockBegin
  2
*D21
 70
               1
 10
0.0
 20
0.0
 30
0.0
  3
*D21
  1

  0
LINE
  5
149
100
AcDbEntity
  8
0
370
              -2
390
0
  6
Continuous
 62
               0
100
AcDbLine
 10
-696.52822576674453
 20
-455.82972718710312
 30
0.0
 11
-786.56661987048574
 21
-455.82972718710312
 31
0.0
  0
LINE
  5
14A
100
AcDbEntity
  8
0
370
              -2
390
0
  6
Continuous
 62
               0
100
AcDbLine
 10
-707.22993105604792
 20
-375.87392067036421
 30
0.0
 11
-786.56661987048574
 21
-375.87392067036421
 31
0.0
  0
LINE
  5
14B
100
AcDbEntity
  8
0
370
              -2
390
0
  6
Continuous
 62
               0
100
AcDbLine
 10
-786.56661987048574
 20
-455.82972718710312
 30
0.0
 11
-786.56661987048574
 21
-375.87392067036421
 31
0.0
  0
CIRCLE
  5
14C
102
{ACAD_REACTORS
330
14D
102
}
100
AcDbEntity
  8
0
370
              -2
390
0
  6
Continuous
 62
               0
100
AcDbCircle
 10
-786.56661987048574
 20
-455.82972718710312
 30
0.0
 40
1.9998779296875
  0
HATCH
  5
14D
100
AcDbEntity
  8
0
370
              -2
390
0
  6
Continuous
 62
               0
100
AcDbHatch
 10
0.0
 20
0.0
 30
0.0
210
0.0
220
0.0
230
1.0
  2
SOLID
 70
               1
 71
               1
 91
        1
 92
        1
 93
        1
 72
               2
 10
-786.56661987048574
 20
-455.82972718710312
 40
1.9998779296875
 50
0.0
 51
360.0
 73
               0
 97
        1
330
14C
 75
               0
 76
               1
 98
        1
 10
0.0
 20
0.0
  0
CIRCLE
  5
14E
102
{ACAD_REACTORS
330
14F
102
}
100
AcDbEntity
  8
0
370
              -2
390
0
  6
Continuous
 62
               0
100
AcDbCircle
 10
-786.56661987048574
 20
-375.87392067036421
 30
0.0
 40
1.9998779296875
  0
HATCH
  5
14F
100
AcDbEntity
  8
0
370
              -2
390
0
  6
Continuous
 62
               0
100
AcDbHatch
 10
0.0
 20
0.0
 30
0.0
210
0.0
220
0.0
230
1.0
  2
SOLID
 70
               1
 71
               1
 91
        1
 92
        1
 93
        1
 72
               2
 10
-786.56661987048574
 20
-375.87392067036421
 40
1.9998779296875
 50
0.0
 51
360.0
 73
               0
 97
        1
330
14E
 75
               0
 76
               1
 98
        1
 10
0.0
 20
0.0
  0
MTEXT
  5
150
100
AcDbEntity
  8
0
390
0
 62
               0
100
AcDbMText
 10
-820.4442370579859
 20
-431.72682392873367
 30
0.0
 40
24.432617187500004
 41
0.0
 71
               1
 72
               1
  1
80
  7
ＭＳ ゴシック
 11
0.0
 21
1.0
 31
0.0
 73
               1
 44
0.7828267384257843
  0
POINT
  5
151
100
AcDbEntity
  8
Defpoints
370
               0
390
0
 62
               0
100
AcDbPoint
 10
-682.22993105604792
 20
-375.87392067036421
 30
0.0
  0
POINT
  5
152
100
AcDbEntity
  8
Defpoints
370
               0
390
0
 62
               0
100
AcDbPoint
 10
-671.52822576674453
 20
-455.82972718710312
 30
0.0
  0
POINT
  5
153
100
AcDbEntity
  8
Defpoints
370
               0
390
0
 62
               0
100
AcDbPoint
 10
-786.56661987048574
 20
-455.82972718710312
 30
0.0
  0
ENDBLK
  5
154
100
AcDbEntity
  8
notes
390
0
100
AcDbBlockEnd
  0
BLOCK
  5
155
100
AcDbEntity
  8
notes
390
0
100
AcDbBlockBegin
  2
*D22
 70
               1
 10
0.0
 20
0.0
 30
0.0
  3
*D22
  1

  0
LINE
  5
156
100
AcDbEntity
  8
0
370
              -2
390
0
  6
Continuous
 62
               0
100
AcDbLine
 10
-286.53821039399509
 20
865.09247069645005
 30
0.0
 11
-286.53821039399509
 21
940.09247069645005
 31
0.0
  0
LINE
  5
157
100
AcDbEntity
  8
0
370
              -2
390
0
  6
Continuous
 62
               0
100
AcDbLine
 10
-322.53821039399509
 20
765.04623534822497
 30
0.0
 11
-322.53821039399509
 21
940.09247069645005
 31
0.0
  0
LINE
  5
158
100
AcDbEntity
  8
0
370
              -2
390
0
  6
Continuous
 62
               0
100
AcDbLine
 10
-286.53821039399509
 20
940.09247069645005
 30
0.0
 11
-322.53821039399509
 21
940.09247069645005
 31
0.0
  0
CIRCLE
  5
159
102
{ACAD_REACTORS
330
15A
102
}
100
AcDbEntity
  8
0
370
              -2
390
0
  6
Continuous
 62
               0
100
AcDbCircle
 10
-286.53821039399509
 20
940.09247069645005
 30
0.0
 40
1.9998779296875
  0
HATCH
  5
15A
100
AcDbEntity
  8
0
370
              -2
390
0
  6
Continuous
 62
               0
100
AcDbHatch
 10
0.0
 20
0.0
 30
0.0
210
0.0
220
0.0
230
1.0
  2
SOLID
 70
               1
 71
               1
 91
        1
 92
        1
 93
        1
 72
               2
 10
-286.53821039399509
 20
940.09247069645005
 40
1.9998779296875
 50
0.0
 51
360.0
 73
               0
 97
        1
330
159
 75
               0
 76
               1
 98
        1
 10
0.0
 20
0.0
  0
CIRCLE
  5
15B
102
{ACAD_REACTORS
330
15C
102
}
100
AcDbEntity
  8
0
370
              -2
390
0
  6
Continuous
 62
               0
100
AcDbCircle
 10
-322.53821039399509
 20
940.09247069645005
 30
0.0
 40
1.9998779296875
  0
HATCH
  5
15C
100
AcDbEntity
  8
0
370
              -2
390
0
  6
Continuous
 62
               0
100
AcDbHatch
 10
0.0
 20
0.0
 30
0.0
210
0.0
220
0.0
230
1.0
  2
SOLID
 70
               1
 71
               1
 91
        1
 92
        1
 93
        1
 72
               2
 10
-322.53821039399509
 20
940.09247069645005
 40
1.9998779296875
 50
0.0
 51
360.0
 73
               0
 97
        1
330
15B
 75
               0
 76
               1
 98
        1
 10
0.0
 20
0.0
  0
MTEXT
  5
15D
100
AcDbEntity
  8
0
390
0
 62
               0
100
AcDbMText
 10
-320.41321039399509
 20
973.9700878839501
 30
0.0
 40
24.432617187500004
 41
0.0
 71
               1
 72
               1
  1
36
  7
ＭＳ ゴシック
 73
               1
 44
0.7828267384257843
  0
POINT
  5
15E
100
AcDbEntity
  8
Defpoints
370
               0
390
0
 62
               0
100
AcDbPoint
 10
-322.53821039399509
 20
740.04623534822497
 30
0.0
  0
POINT
  5
15F
100
AcDbEntity
  8
Defpoints
370
               0
390
0
 62
               0
100
AcDbPoint
 10
-286.53821039399509
 20
840.09247069645005
 30
0.0
  0
POINT
  5
160
100
AcDbEntity
  8
Defpoints
370
               0
390
0
 62
               0
100
AcDbPoint
 10
-286.53821039399509
 20
940.09247069645005
 30
0.0
  0
ENDBLK
  5
161
100
AcDbEntity
  8
notes
390
0
100
AcDbBlockEnd
  0
BLOCK
  5
162
100
AcDbEntity
  8
ARJ70-0805
390
0
100
AcDbBlockBegin
  2
*D23
 70
               1
 10
0.0
 20
0.0
 30
0.0
  3
*D23
  1

  0
LINE
  5
163
100
AcDbEntity
  8
0
370
              -2
390
0
  6
Continuous
 62
               0
100
AcDbLine
 10
1249.2767761953894
 20
0.0
 30
0.0
 11
1317.4057554377721
 21
0.0
 31
0.0
  0
LINE
  5
164
100
AcDbEntity
  8
0
370
              -2
390
0
  6
Continuous
 62
               0
100
AcDbLine
 10
1317.4057554377721
 20
0.0
 30
0.0
 11
1440.9057554377607
 21
0.0
 31
0.0
  0
LINE
  5
165
100
AcDbEntity
  8
0
370
              -2
390
0
  6
Continuous
 62
               0
100
AcDbLine
 10
1218.6280819039443
 20
1801.4068607905947
 30
0.0
 11
1249.2767761953894
 21
0.0
 31
0.0
  0
SOLID
  5
166
100
AcDbEntity
  8
0
370
              -2
390
0
 62
               0
100
AcDbTrace
 10
1218.6280819039443
 20
1801.4068607905947
 30
0.0
 11
1250.3780819039443
 21
1809.9142476502827
 31
0.0
 12
1250.3780819039443
 22
1792.8994739309064
 32
0.0
 13
1250.3780819039443
 23
1792.8994739309064
 33
0.0
  0
SOLID
  5
167
100
AcDbEntity
  8
0
370
              -2
390
0
 62
               0
100
AcDbTrace
 10
1249.2767761953894
 20
0.0
 30
0.0
 11
1281.0267761953894
 21
0.0
 31
0.0
 12
1281.0267761953894
 22
0.0
 32
0.0
 13
1281.0267761953894
 23
0.0
 33
0.0
  0
MTEXT
  5
168
100
AcDbEntity
  8
0
390
0
 62
               0
100
AcDbMText
 10
1377.4057554377607
 20
0.0
 30
0.0
 40
24.432617187500004
 41
0.0
 71
               1
 72
               1
  1
φ36
  7
ＭＳ ゴシック
 73
               1
 44
0.7828267384257843
  0
POINT
  5
169
100
AcDbEntity
  8
Defpoints
370
               0
390
0
 62
               0
100
AcDbPoint
 10
1218.6280819039443
 20
1801.4068607905947
 30
0.0
  0
POINT
  5
16A
100
AcDbEntity
  8
Defpoints
370
               0
390
0
 62
               0
100
AcDbPoint
 10
1249.2767761953894
 20
0.0
 30
0.0
  0
ENDBLK
  5
16B
100
AcDbEntity
  8
ARJ70-0805
390
0
100
AcDbBlockEnd
  0
ENDSEC
  0
SECTION
  2
ENTITIES
  0
MTEXT
  5
16C
100
AcDbEntity
  8
template
390
0
 62
               7
100
AcDbMText
 10
-967.99999999975898
 20
-1147.4176292337004
 30
0.0
 40
16.288411458333332
 41
0.0
 71
               1
 72
               1
  1
品名
  7
ＭＳ ゴシック
 73
               1
 44
0.7828267384257843
  0
MTEXT
  5
16D
100
AcDbEntity
  8
template
390
0
 62
               7
100
AcDbMText
 10
-967.99999999975898
 20
-1232.4176292337004
 30
0.0
 40
16.288411458333332
 41
0.0
 71
               1
 72
               1
  1
仕様
  7
ＭＳ ゴシック
 73
               1
 44
0.7828267384257843
  0
MTEXT
  5
16E
100
AcDbEntity
  8
template
390
0
 62
               7
100
AcDbMText
 10
-914.99999999975898
 20
-1176.0000901712003
 30
0.0
 40
24.432617187500004
 41
0.0
 71
               1
 72
               1
  1
手洗器 -POZZI GINORI,Rettangolo-
  7
ＭＳ ゴシック
 73
               1
 44
0.7828267384257843
  0
LINE
  5
16F
100
AcDbEntity
  8
template
370
               5
390
0
  6
Continuous
 62
               7
100
AcDbLine
 10
974.99999999975876
 20
-1224.0027073587005
 30
0.0
 11
-975.00000000024102
 21
-1224.0027073587005
 31
0.0
  0
LWPOLYLINE
  5
170
100
AcDbEntity
  8
template
370
               5
390
0
  6
Continuous
 62
               7
100
AcDbPolyline
 90
        5
 70
             128
 10
975.00000000024124
 20
1405.9972926412995
 10
-974.99999999975898
 20
1405.9972926412995
 10
-974.99999999975898
 20
-1394.0027073587005
 10
975.00000000024124
 20
-1394.0027073587005
 10
975.00000000024124
 20
1405.9972926412995
  0
LINE
  5
171
100
AcDbEntity
  8
template
370
               5
390
0
  6
Continuous
 62
               7
100
AcDbLine
 10
974.99999999975876
 20
-1139.0027073587005
 30
0.0
 11
-975.00000000024102
 21
-1139.0027073587005
 31
0.0
  0
LINE
  5
172
100
AcDbEntity
  8
template
370
               5
390
0
  6
Continuous
 62
               7
100
AcDbLine
 10
975.00000000024124
 20
-1309.0027073587005
 30
0.0
 11
222.00000000024124
 21
-1309.0027073587005
 31
0.0
  0
MTEXT
  5
173
100
AcDbEntity
  8
template
390
0
 62
               7
100
AcDbMText
 10
-914.99999999975898
 20
-1261.0000901712003
 30
0.0
 40
24.432617187500004
 41
0.0
 71
               1
 72
               1
  1
壁掛け,カウンタ ートップ/オーバーフローなし/壁取付ボルト付属/\P陶器/ホワイト\PL.type
  7
ＭＳ ゴシック
 73
               1
 44
1.1307497332816883
  0
MTEXT
  5
174
100
AcDbEntity
  8
template
390
0
 62
               7
100
AcDbMText
 10
-974.99999999955617
 20
-1405.8565294155576
 30
0.0
 40
21.717881944444446
 41
0.0
 71
               1
 72
               1
  1
100713SH
  7
ＭＳ ゴシック
 73
               1
 44
0.7828267384257843
  0
MTEXT
  5
175
100
AcDbEntity
  8
template
390
0
 62
               7
100
AcDbMText
 10
251.87140625250095
 20
-1338.9131018320079
 30
0.0
 40
24.432617187500004
 41
0.0
 71
               1
 72
               1
  1
大洋金物株式会社 ティーフォルム事業部
  7
ＭＳ ゴシック
 73
               1
 44
0.7828267384257843
  0
INSERT
  5
176
100
AcDbEntity
  8
template
390
0
 62
               7
100
AcDbBlockReference
  2
グループ
 10
1660.4559298168651
 20
1099.1008818120179
 30
0.0
  0
MTEXT
  5
177
100
AcDbEntity
  8
template
390
0
 62
               7
100
AcDbMText
 10
784.00000000049999
 20
-1261.0000901712003
 30
0.0
 40
24.432617187500004
 41
0.0
 71
               1
 72
               1
  1
1:10
  7
ＭＳ ゴシック
 73
               1
 44
0.7828267384257843
  0
MTEXT
  5
178
100
AcDbEntity
  8
template
390
0
 62
               7
100
AcDbMText
 10
731.00000000049999
 20
-1232.4176292337004
 30
0.0
 40
16.288411458333332
 41
0.0
 71
               1
 72
               1
  1
縮尺
  7
ＭＳ ゴシック
 73
               1
 44
0.7828267384257843
  0
LINE
  5
179
100
AcDbEntity
  8
template
370
               5
390
0
  6
Continuous
 62
               7
100
AcDbLine
 10
724.00000000049999
 20
-1309.0027073587005
 30
0.0
 11
724.00000000049999
 21
-1224.0027073587005
 31
0.0
  0
MTEXT
  5
17A
100
AcDbEntity
  8
template
390
0
 62
               7
100
AcDbMText
 10
480.00000000049999
 20
-1232.4176292337004
 30
0.0
 40
16.288411458333332
 41
0.0
 71
               1
 72
               1
  1
容量
  7
ＭＳ ゴシック
 73
               1
 44
0.7828267384257843
  0
MTEXT
  5
17B
100
AcDbEntity
  8
template
390
0
 62
               7
100
AcDbMText
 10
533.00000000049999
 20
-1261.0000901712003
 30
0.0
 40
24.432617187500004
 41
0.0
 71
               1
 72
               1
  1
2.5L
  7
ＭＳ ゴシック
 73
               1
 44
0.7828267384257843
  0
LINE
  5
17C
100
AcDbEntity
  8
template
370
               5
390
0
  6
Continuous
 62
               7
100
AcDbLine
 10
473.00000000049999
 20
-1309.0027073587005
 30
0.0
 11
473.00000000049999
 21
-1224.0027073587005
 31
0.0
  0
MTEXT
  5
17D
100
AcDbEntity
  8
template
390
0
 62
               7
100
AcDbMText
 10
229.00000000049999
 20
-1147.4176292337004
 30
0.0
 40
16.288411458333332
 41
0.0
 71
               1
 72
               1
  1
品番
  7
ＭＳ ゴシック
 73
               1
 44
0.7828267384257843
  0
MTEXT
  5
17E
100
AcDbEntity
  8
template
390
0
 62
               7
100
AcDbMText
 10
229.00000000049999
 20
-1232.4176292337004
 30
0.0
 40
16.288411458333332
 41
0.0
 71
               1
 72
               1
  1
重量
  7
ＭＳ ゴシック
 73
               1
 44
0.7828267384257843
  0
MTEXT
  5
17F
100
AcDbEntity
  8
template
390
0
 62
               7
100
AcDbMText
 10
282.00000000049999
 20
-1176.0000901712003
 30
0.0
 40
24.432617187500004
 41
0.0
 71
               1
 72
               1
  1
ARJ70-0805(旧品番:AQI70-0805)
  7
ＭＳ ゴシック
 73
               1
 44
0.7828267384257843
  0
MTEXT
  5
180
100
AcDbEntity
  8
template
390
0
 62
               7
100
AcDbMText
 10
282.00000000049999
 20
-1261.0000901712003
 30
0.0
 40
24.432617187500004
 41
0.0
 71
               1
 72
               1
  1
6.3kg
  7
ＭＳ ゴシック
 73
               1
 44
0.7828267384257843
  0
LINE
  5
181
100
AcDbEntity
  8
template
370
               5
390
0
  6
Continuous
 62
               7
100
AcDbLine
 10
222.00000000049999
 20
-1394.0027073587005
 30
0.0
 11
222.00000000049999
 21
-1139.0027073587005
 31
0.0
  0
MTEXT
  5
182
100
AcDbEntity
  8
notes
390
0
 62
               7
100
AcDbMText
 10
-253.02042918295638
 20
-310.50519180490755
 30
0.0
 40
24.432617187500004
 41
0.0
 71
               1
 72
               1
  1
壁取付ボルト穴(2ヶ所)
  7
ＭＳ ゴシック
 73
               1
 44
0.7828267384257843
  0
LINE
  5
183
100
AcDbEntity
  8
notes
370
               5
390
0
  6
Continuous
 62
               7
100
AcDbLine
 10
-366.54346859361112
 20
-455.48633534939631
 30
0.0
 11
-230.29739330658595
 21
-360.04027834327258
 31
0.0
  0
DIMENSION
  5
184
100
AcDbEntity
  8
notes
370
               5
390
0
  6
Continuous
 62
               7
100
AcDbDimension
  2
*D3
 10
-686.56661987048574
 20
990.04623534822497
 30
0.0
 11
-486.55241513224064
 21
990.04623534822497
 31
0.0
 71
               5
 72
               1
 41
1.0
 42
0.0
  3
tform線あり
100
AcDbAlignedDimension
 13
-286.53821039399509
 23
840.04623534822497
 33
0.0
 14
-686.56661987048574
 24
840.04623534822497
 34
0.0
100
AcDbRotatedDimension
1001
ACAD
1000
DSTYLE
1002
{
1070
             279
1070
               2
1070
             340
1005
39
1070
             147
1040
5.0
1002
}
  0
DIMENSION
  5
185
100
AcDbEntity
  8
notes
370
               5
390
0
  6
Continuous
 62
               7
100
AcDbDimension
  2
*D4
 10
-186.53821039399509
 20
840.09247069645005
 30
0.0
 11
-186.53821039399509
 21
725.09247069645005
 31
0.0
 71
               5
 72
               1
 41
1.0
 42
0.0
  3
tform線あり
100
AcDbAlignedDimension
 13
-286.53821039399509
 23
610.09247069645005
 33
0.0
 14
-286.53821039399509
 24
840.09247069645005
 34
0.0
 50
90.0
100
AcDbRotatedDimension
1001
ACAD
1000
DSTYLE
1002
{
1070
             279
1070
               2
1070
             340
1005
39
1070
             147
1040
5.0
1002
}
  0
DIMENSION
  5
186
100
AcDbEntity
  8
notes
370
               5
390
0
  6
Continuous
 62
               7
100
AcDbDimension
  2
*D5
 10
-676.54032460428971
 20
509.99999999999989
 30
0.0
 11
-516.5397165884192
 21
509.99999999999989
 31
0.0
 71
               5
 72
               1
 41
1.0
 42
0.0
  3
tform線あり
100
AcDbAlignedDimension
 13
-356.53910857254868
 23
625.01932099484145
 33
0.0
 14
-676.54032460428971
 24
625.01932099484145
 34
0.0
100
AcDbRotatedDimension
1001
ACAD
1000
DSTYLE
1002
{
1070
             279
1070
               2
1070
             340
1005
39
1070
             147
1040
5.0
1002
}
  0
DIMENSION
  5
187
100
AcDbEntity
  8
notes
370
               5
390
0
  6
Continuous
 62
               7
100
AcDbDimension
  2
*D6
 10
-789.56661987048574
 20
830.07909065459091
 30
0.0
 11
-789.56661987048574
 21
725.05398448282722
 31
0.0
 71
               5
 72
               1
 41
1.0
 42
0.0
  3
tform線あり
100
AcDbAlignedDimension
 13
-671.55763105511414
 23
620.02887831106352
 33
0.0
 14
-671.55763105511414
 24
830.07909065459091
 34
0.0
 50
90.0
100
AcDbRotatedDimension
1001
ACAD
1000
DSTYLE
1002
{
1070
             271
1070
               0
1070
             279
1070
               2
1070
             340
1005
39
1070
             147
1040
5.0
1002
}
  0
DIMENSION
  5
188
100
AcDbEntity
  8
notes
370
               5
390
0
  6
Continuous
 62
               7
100
AcDbDimension
  2
*D7
 10
-334.51296999311967
 20
712.28476472203261
 30
0.0
 11
-132.28932005729621
 21
895.82306723228328
 31
0.0
 70
               3
 71
               5
 72
               1
 41
1.0
 42
0.0
  3
tform線あり
100
AcDbDiametricDimension
 15
-310.5634507948705
 25
737.80770597441733
 35
0.0
 40
216.68888351606117
1001
ACAD
1000
DSTYLE
1002
{
1070
             289
1070
               0
1070
             342
1005
4B
1070
             340
1005
39
1070
              73
1070
               1
1070
              74
1070
               1
1070
              75
1070
               1
1070
              76
1070
               1
1070
               3
1000

1070
             174
1070
               0
1070
             147
1040
5.0
1002
}
  0
MTEXT
  5
189
100
AcDbEntity
  8
notes
390
0
 62
               7
100
AcDbMText
 10
118.19941475551764
 20
437.18315218215116
 30
0.0
 40
24.432617187500004
 41
770.0
 71
               1
 72
               1
  1
※陶器製品には寸法公差があります。\P  洗面器の収め方をご確認の上、必ず現物に合わせて\P  カウンター切込を行ってください。
  7
ＭＳ ゴシック
 73
               1
 44
1.0437689845677123
  0
DIMENSION
  5
18A
100
AcDbEntity
  8
notes
370
               5
390
0
  6
Continuous
 62
               7
100
AcDbDimension
  2
*D8
 10
653.49063260830178
 20
940.09247069645005
 30
0.0
 11
646.00224451060774
 21
940.09247069645005
 31
0.0
 71
               5
 72
               1
 41
1.0
 42
0.0
  3
tform線あり
100
AcDbAlignedDimension
 13
638.5138564129137
 23
780.0789502039022
 33
0.0
 14
653.49063260830178
 24
840.09247069645005
 34
0.0
100
AcDbRotatedDimension
1001
ACAD
1000
DSTYLE
1002
{
1070
             279
1070
               2
1070
             340
1005
39
1070
             147
1040
5.0
1002
}
  0
DIMENSION
  5
18B
100
AcDbEntity
  8
notes
370
               5
390
0
  6
Continuous
 62
               7
100
AcDbDimension
  2
*D9
 10
638.5138564129137
 20
940.09247069645005
 30
0.0
 11
583.5138564129129
 21
940.09247069645005
 31
0.0
 71
               5
 72
               1
 41
1.0
 42
0.0
  3
tform線あり
100
AcDbAlignedDimension
 13
528.51385641291199
 23
780.0789502039022
 33
0.0
 14
638.5138564129137
 24
780.0789502039022
 34
0.0
100
AcDbRotatedDimension
1001
ACAD
1000
DSTYLE
1002
{
1070
             279
1070
               2
1070
             340
1005
39
1070
             147
1040
5.0
1002
}
  0
DIMENSION
  5
18C
100
AcDbEntity
  8
notes
370
               5
390
0
  6
Continuous
 62
               7
100
AcDbDimension
  2
*D10
 10
478.51385641291108
 20
940.09247069645005
 30
0.0
 11
423.51385641291063
 21
940.09247069645005
 31
0.0
 71
               5
 72
               1
 41
1.0
 42
0.0
  3
tform線あり
100
AcDbAlignedDimension
 13
368.5138564129104
 23
780.0789502039022
 33
0.0
 14
478.51385641291108
 24
780.0789502039022
 34
0.0
100
AcDbRotatedDimension
1001
ACAD
1000
DSTYLE
1002
{
1070
             279
1070
               2
1070
             340
1005
39
1070
             147
1040
5.0
1002
}
  0
DIMENSION
  5
18D
100
AcDbEntity
  8
notes
370
               5
390
0
  6
Continuous
 62
               7
100
AcDbDimension
  2
*D11
 10
262.1439441521286
 20
-480.85219972766231
 30
0.0
 11
262.1439441521286
 21
-428.35219972766231
 31
0.0
 71
               5
 72
               1
 41
1.0
 42
0.0
  3
tform線あり
100
AcDbAlignedDimension
 13
367.13438683590607
 23
-375.85219972766231
 33
0.0
 14
445.31282279202037
 24
-480.85219972766231
 34
0.0
 50
90.0
100
AcDbRotatedDimension
1001
ACAD
1000
DSTYLE
1002
{
1070
             279
1070
               2
1070
             340
1005
39
1070
             147
1040
5.0
1002
}
  0
DIMENSION
  5
18E
100
AcDbEntity
  8
notes
370
               5
390
0
  6
Continuous
 62
               7
100
AcDbDimension
  2
*D12
 10
153.46222313180579
 20
780.0789502039022
 30
0.0
 11
153.46222313180579
 21
725.0789502039022
 31
0.0
 71
               5
 72
               1
 41
1.0
 42
0.0
  3
tform線あり
100
AcDbAlignedDimension
 13
368.5138564129104
 23
670.0789502039022
 33
0.0
 14
368.5138564129104
 24
780.0789502039022
 34
0.0
 50
90.0
100
AcDbRotatedDimension
1001
ACAD
1000
DSTYLE
1002
{
1070
             279
1070
               2
1070
             340
1005
39
1070
             147
1040
5.0
1002
}
  0
DIMENSION
  5
18F
100
AcDbEntity
  8
notes
370
               5
390
0
  6
Continuous
 62
               7
100
AcDbDimension
  2
*D13
 10
-651.52822576674453
 20
-281.12104979609785
 30
0.0
 11
-509.03584718017783
 21
-281.12104979609785
 31
0.0
 71
               5
 72
               1
 41
1.0
 42
0.0
  3
tform線あり
100
AcDbAlignedDimension
 13
-366.54346859361112
 23
-435.82972718710312
 33
0.0
 14
-651.52822576674453
 24
-435.82972718710312
 34
0.0
100
AcDbRotatedDimension
1001
ACAD
1000
DSTYLE
1002
{
1070
             279
1070
               2
1070
             340
1005
39
1070
             147
1040
5.0
1002
}
  0
DIMENSION
  5
190
100
AcDbEntity
  8
notes
370
               5
390
0
  6
Continuous
 62
               7
100
AcDbDimension
  2
*D14
 10
-366.54346859361112
 20
-281.12104979609785
 30
0.0
 11
-326.06326645485683
 21
-276.12104979609785
 31
0.0
 70
             128
 71
               5
 72
               1
 41
1.0
 42
0.0
  3
tform線あり
100
AcDbAlignedDimension
 13
-286.54346859361112
 23
-475.82972718710312
 33
0.0
 14
-366.54346859361112
 24
-435.82972718710312
 34
0.0
100
AcDbRotatedDimension
1001
ACAD
1000
DSTYLE
1002
{
1070
             279
1070
               2
1070
             340
1005
39
1070
             147
1040
5.0
1002
}
  0
DIMENSION
  5
191
100
AcDbEntity
  8
notes
370
               5
390
0
  6
Continuous
 62
               7
100
AcDbDimension
  2
*D15
 10
477.18501341061869
 20
-460.87053949686015
 30
0.0
 11
472.18501341061869
 21
-369.16186210585488
 31
0.0
 70
             128
 71
               5
 72
               1
 41
1.0
 42
0.0
  3
tform線あり
100
AcDbAlignedDimension
 13
477.18501341061869
 23
-375.87053949686015
 33
0.0
 14
477.19534559008775
 24
-460.87053949686015
 34
0.0
 50
90.0
100
AcDbRotatedDimension
1001
ACAD
1000
DSTYLE
1002
{
1070
             279
1070
               2
1070
             340
1005
39
1070
               3
1000
<>(深さ)
1070
             174
1070
               0
1070
             147
1040
5.0
1002
}
  0
DIMENSION
  5
192
100
AcDbEntity
  8
notes
370
               5
390
0
  6
Continuous
 62
               7
100
AcDbDimension
  2
*D16
 10
-286.53821039399509
 20
-585.82972718710312
 30
0.0
 11
-401.53821039399372
 21
-585.82972718710312
 31
0.0
 71
               5
 72
               1
 41
1.0
 42
0.0
  3
tform線あり
100
AcDbAlignedDimension
 13
-516.53821039399281
 23
-480.82972718710312
 33
0.0
 14
-286.53821039399509
 24
-485.82972718710312
 34
0.0
100
AcDbRotatedDimension
1001
ACAD
1000
DSTYLE
1002
{
1070
             279
1070
               2
1070
             340
1005
39
1070
             147
1040
5.0
1002
}
  0
DIMENSION
  5
193
100
AcDbEntity
  8
notes
370
               5
390
0
  6
Continuous
 62
               7
100
AcDbDimension
  2
*D17
 10
-356.53910857254868
 20
509.99999999999989
 30
0.0
 11
-321.53910857254868
 21
509.99999999999989
 31
0.0
 71
               5
 72
               1
 41
1.0
 42
0.0
  3
tform線あり
100
AcDbAlignedDimension
 13
-286.53910857254868
 23
610.04623534822497
 33
0.0
 14
-356.53910857254868
 24
628.01932099484145
 34
0.0
100
AcDbRotatedDimension
1001
ACAD
1000
DSTYLE
1002
{
1070
             279
1070
               2
1070
             340
1005
39
1070
             147
1040
5.0
1002
}
  0
DIMENSION
  5
194
100
AcDbEntity
  8
notes
370
               5
390
0
  6
Continuous
 62
               7
100
AcDbDimension
  2
*D18
 10
692.24158093831284
 20
-485.84264241143933
 30
0.0
 11
692.24158093831284
 21
-430.84264241143933
 31
0.0
 71
               5
 72
               1
 41
1.0
 42
0.0
  3
tform線あり
100
AcDbAlignedDimension
 13
587.243389119933
 23
-375.84264241143933
 33
0.0
 14
592.24158093831284
 24
-485.84264241143933
 34
0.0
 50
90.0
100
AcDbRotatedDimension
1001
ACAD
1000
DSTYLE
1002
{
1070
             279
1070
               2
1070
             340
1005
39
1070
             147
1040
5.0
1002
}
  0
DIMENSION
  5
195
100
AcDbEntity
  8
notes
370
               5
390
0
  6
Continuous
 62
               7
100
AcDbDimension
  2
*D19
 10
592.24158093831284
 20
-585.84264241143933
 30
0.0
 11
534.71717174176683
 21
-585.84264241143933
 31
0.0
 71
               5
 72
               1
 41
1.0
 42
0.0
  3
tform線あり
100
AcDbAlignedDimension
 13
477.19276254522083
 23
-480.84703363792778
 33
0.0
 14
592.24158093831284
 24
-485.84264241143933
 34
0.0
100
AcDbRotatedDimension
1001
ACAD
1000
DSTYLE
1002
{
1070
             279
1070
               2
1070
             340
1005
39
1070
             147
1040
5.0
1002
}
  0
DIMENSION
  5
196
100
AcDbEntity
  8
notes
370
               5
390
0
  6
Continuous
 62
               7
100
AcDbDimension
  2
*D20
 10
262.1439441521286
 20
-480.85219972766231
 30
0.0
 11
262.1439441521286
 21
-483.34742106955082
 31
0.0
 71
               5
 72
               1
 41
1.0
 42
0.0
  3
tform線あり
100
AcDbAlignedDimension
 13
362.1439441521286
 23
-485.84264241143933
 33
0.0
 14
445.31282279202037
 24
-480.85219972766231
 34
0.0
 50
90.0
100
AcDbRotatedDimension
1001
ACAD
1000
DSTYLE
1002
{
1070
             279
1070
               2
1070
             340
1005
39
1070
             147
1040
5.0
1002
}
  0
MTEXT
  5
197
100
AcDbEntity
  8
notes
390
0
 62
               7
100
AcDbMText
 10
315.0
 20
1097.1276171874999
 30
0.0
 40
24.432617187500004
 41
0.0
 71
               1
 72
               1
  1
カウンター切込寸法
  7
ＭＳ ゴシック
 73
               1
 44
0.7828267384257843
  0
DIMENSION
  5
198
100
AcDbEntity
  8
notes
370
               5
390
0
  6
Continuous
 62
               7
100
AcDbDimension
  2
*D21
 10
-786.56661987048574
 20
-455.82972718710312
 30
0.0
 11
-786.56661987048574
 21
-415.85182392873367
 31
0.0
 71
               5
 72
               1
 41
1.0
 42
0.0
  3
tform線あり
100
AcDbAlignedDimension
 13
-682.22993105604792
 23
-375.87392067036421
 33
0.0
 14
-671.52822576674453
 24
-455.82972718710312
 34
0.0
 50
90.0
100
AcDbRotatedDimension
1001
ACAD
1000
DSTYLE
1002
{
1070
             279
1070
               2
1070
             340
1005
39
1070
             147
1040
5.0
1002
}
  0
DIMENSION
  5
199
100
AcDbEntity
  8
notes
370
               5
390
0
  6
Continuous
 62
               7
100
AcDbDimension
  2
*D22
 10
-286.53821039399509
 20
940.09247069645005
 30
0.0
 11
-304.53821039399509
 21
940.09247069645005
 31
0.0
 71
               5
 72
               1
 41
1.0
 42
0.0
  3
tform線あり
100
AcDbAlignedDimension
 13
-322.53821039399509
 23
740.04623534822497
 33
0.0
 14
-286.53821039399509
 24
840.09247069645005
 34
0.0
100
AcDbRotatedDimension
1001
ACAD
1000
DSTYLE
1002
{
1070
             279
1070
               2
1070
             340
1005
39
1070
             147
1040
5.0
1002
}
  0
LINE
  5
19A
100
AcDbEntity
  8
notes
370
              15
390
0
  6
Continuous
 62
               7
100
AcDbLine
 10
-736.55241513224064
 20
840.87085908616814
 30
0.0
 11
-236.55241513224064
 21
840.87085908616814
 31
0.0
  0
LINE
  5
19B
100
AcDbEntity
  8
notes
370
              15
390
0
  6
Continuous
 62
               7
100
AcDbLine
 10
-286.53821039399509
 20
840.87085908616814
 30
0.0
 11
-264.63068109044525
 21
862.77838838971797
 31
0.0
  0
LINE
  5
19C
100
AcDbEntity
  8
notes
370
              15
390
0
  6
Continuous
 62
               7
100
AcDbLine
 10
-266.53821039399509
 20
840.87085908616814
 30
0.0
 11
-244.63068109044525
 21
862.77838838971797
 31
0.0
  0
LINE
  5
19D
100
AcDbEntity
  8
notes
370
              15
390
0
  6
Continuous
 62
               7
100
AcDbLine
 10
-246.53821039399509
 20
840.87085908616814
 30
0.0
 11
-224.63068109044525
 21
862.77838838971797
 31
0.0
  0
LINE
  5
19E
100
AcDbEntity
  8
notes
370
              15
390
0
  6
Continuous
 62
               7
100
AcDbLine
 10
203.47642787005384
 20
840.89999999999998
 30
0.0
 11
703.47642787005384
 21
840.89999999999998
 31
0.0
  0
LINE
  5
19F
100
AcDbEntity
  8
notes
370
              15
390
0
  6
Continuous
 62
               7
100
AcDbLine
 10
653.49063260829939
 20
840.89999999999998
 30
0.0
 11
675.39816191184923
 21
862.80752930354993
 31
0.0
  0
LINE
  5
1A0
100
AcDbEntity
  8
notes
370
              15
390
0
  6
Continuous
 62
               7
100
AcDbLine
 10
673.49063260829939
 20
840.89999999999998
 30
0.0
 11
695.39816191184923
 21
862.80752930354993
 31
0.0
  0
LINE
  5
1A1
100
AcDbEntity
  8
notes
370
              15
390
0
  6
Continuous
 62
               7
100
AcDbLine
 10
693.49063260829939
 20
840.89999999999998
 30
0.0
 11
715.39816191184923
 21
862.80752930354993
 31
0.0
  0
LINE
  5
1A2
100
AcDbEntity
  8
notes
370
              15
390
0
  6
Continuous
 62
               7
100
AcDbLine
 10
-732.39149236487447
 20
840.87085908616814
 30
0.0
 11
-710.48396306132508
 21
862.77838838971797
 31
0.0
  0
LINE
  5
1A3
100
AcDbEntity
  8
notes
370
              15
390
0
  6
Continuous
 62
               7
100
AcDbLine
 10
-712.39149236487447
 20
840.87085908616814
 30
0.0
 11
-690.48396306132508
 21
862.77838838971797
 31
0.0
  0
LINE
  5
1A4
100
AcDbEntity
  8
notes
370
              15
390
0
  6
Continuous
 62
               7
100
AcDbLine
 10
-692.39149236487447
 20
840.87085908616814
 30
0.0
 11
-670.48396306132508
 21
862.77838838971797
 31
0.0
  0
LINE
  5
1A5
100
AcDbEntity
  8
notes
370
              15
390
0
  6
Continuous
 62
               7
100
AcDbLine
 10
203.90000000000009
 20
840.89999999999998
 30
0.0
 11
225.80752930354993
 21
862.80752930354993
 31
0.0
  0
LINE
  5
1A6
100
AcDbEntity
  8
notes
370
              15
390
0
  6
Continuous
 62
               7
100
AcDbLine
 10
223.90000000000009
 20
840.89999999999998
 30
0.0
 11
245.80752930354993
 21
862.80752930354993
 31
0.0
  0
LINE
  5
1A7
100
AcDbEntity
  8
notes
370
              15
390
0
  6
Continuous
 62
               7
100
AcDbLine
 10
243.90000000000009
 20
840.89999999999998
 30
0.0
 11
265.80752930354993
 21
862.80752930354993
 31
0.0
  0
MTEXT
  5
1A8
100
AcDbEntity
  8
notes
390
0
 62
               7
100
AcDbMText
 10
-493.691571926915
 20
-1082.1147716155631
 30
0.0
 40
24.432617187500004
 41
0.0
 71
               1
 72
               1
  1
※こちらの商品は壁に向かって左にシンクがあります(L.type)。右シンク(R.type)はARJ70-0804です。
  7
ＭＳ ゴシック
 73
               1
 44
1.1742401076386764
  0
DIMENSION
  5
1A9
100
AcDbEntity
  8
ARJ70-0805
370
              15
390
0
  6
Continuous
 62
               7
100
AcDbDimension
  2
*D23
 10
1218.6280819039443
 20
1801.4068607905947
 30
0.0
 11
0.0
 21
0.0
 31
0.0
 70
               3
 71
               5
 72
               1
 41
1.0
 42
0.0
  3
JIS
100
AcDbDiametricDimension
 15
1249.2767761953894
 25
0.0
 35
0.0
 40
96.952428298666618
1001
ACAD
1000
DSTYLE
1002
{
1070
             172
1070
               1
1070
             289
1070
               0
1070
             342
1005
54
1070
             340
1005
39
1070
              73
1070
               1
1070
              74
1070
               1
1070
              75
1070
               1
1070
              76
1070
               1
1070
               3
1000

1070
             174
1070
               0
1070
             147
1040
9.9999800000000008
1002
}
  0
LWPOLYLINE
  5
1AA
100
AcDbEntity
  8
ARJ70-0805
370
               5
390
0
  6
Continuous
 62
               7
100
AcDbPolyline
 90
        4
 70
             129
 10
-686.56661987048574
 20
840.09247069645005
 10
-686.56661987048574
 20
609.99999999999989
 10
-286.53821039399509
 20
609.99999999999989
 10
-286.53821039399509
 20
840.09247069645005
  0
LINE
  5
1AB
100
AcDbEntity
  8
ARJ70-0805
370
               5
390
0
  6
Continuous
 62
               7
100
AcDbLine
 10
-356.53910857254868
 20
624.99881839309262
 30
0.0
 11
-356.53910857254868
 21
825.09881839309264
 31
0.0
  0
LINE
  5
1AC
100
AcDbEntity
  8
ARJ70-0805
370
               5
390
0
  6
Continuous
 62
               7
100
AcDbLine
 10
-361.81626923660542
 20
830.07909065459091
 30
0.0
 11
-671.55763105511414
 21
830.07909065459091
 31
0.0
  0
LINE
  5
1AD
100
AcDbEntity
  8
ARJ70-0805
370
               5
390
0
  6
Continuous
 62
               7
100
AcDbLine
 10
-676.54032460428971
 20
825.09881839309276
 30
0.0
 11
-676.54032460428971
 21
624.99881839309273
 31
0.0
  0
LINE
  5
1AE
100
AcDbEntity
  8
ARJ70-0805
370
               5
390
0
  6
Continuous
 62
               7
100
AcDbLine
 10
-671.55763105511414
 20
620.02887831106352
 30
0.0
 11
-361.81626923660542
 21
620.02887831106352
 31
0.0
  0
LWPOLYLINE
  5
1AF
100
AcDbEntity
  8
ARJ70-0805
370
               5
390
0
  6
Continuous
 62
               7
100
AcDbPolyline
 90
        5
 70
             128
 10
-676.54032460428971
 20
625.01932099484145
 10
-676.26135575861281
 20
623.08720343404104
 10
-675.15839560024233
 20
621.69235920565541
 10
-673.49491470564953
 20
620.58164991268279
 10
-671.55763105511414
 20
620.02887831106352
  0
LWPOLYLINE
  5
1B0
100
AcDbEntity
  8
ARJ70-0805
370
               5
390
0
  6
Continuous
 62
               7
100
AcDbPolyline
 90
        5
 70
             128
 10
-671.55763105511414
 20
830.07909065459091
 10
-673.49491470564953
 20
829.79495571917926
 10
-675.15839560024233
 20
828.67391424673667
 10
-676.26135575861281
 20
827.01559944187886
 10
-676.54032460428971
 20
825.07831579134393
  0
LWPOLYLINE
  5
1B1
100
AcDbEntity
  8
ARJ70-0805
370
               5
390
0
  6
Continuous
 62
               7
100
AcDbPolyline
 90
        5
 70
             128
 10
-356.53910857254868
 20
825.07831579134393
 10
-357.09962930877009
 20
827.01559944187886
 10
-358.20258946714102
 20
828.67391424673667
 10
-359.86607036173382
 20
829.79495571917926
 10
-361.81626923660542
 20
830.07909065459091
  0
LWPOLYLINE
  5
1B2
100
AcDbEntity
  8
ARJ70-0805
370
               5
390
0
  6
Continuous
 62
               7
100
AcDbPolyline
 90
        5
 70
             128
 10
-361.81626923660542
 20
620.02887831106352
 10
-359.86607036173382
 20
620.58164991268279
 10
-358.20258946714102
 20
621.69235920565541
 10
-357.09962930877009
 20
623.08720343404104
 10
-356.53910857254868
 20
625.01932099484145
  0
LWPOLYLINE
  5
1B3
100
AcDbEntity
  8
ARJ70-0805
370
               5
390
0
  6
STYLE_13
 62
               7
100
AcDbPolyline
 90
       10
 70
             128
 10
-643.48849861702547
 20
-455.91290153311115
 10
-644.04127021864497
 20
-452.85715945500101
 10
-645.98371995891375
 20
-450.07780317770016
 10
-648.47119216620104
 20
-448.42723750744517
 10
-651.53210033404594
 20
-447.86929981609046
 10
-654.58525936728893
 20
-448.42723750744517
 10
-657.067565484841
 20
-450.07780317770016
 10
-659.01001522510978
 20
-452.85715945500101
 10
-659.56795291646358
 20
-455.91290153311115
 10
-659.56795291646358
 20
-485.85555763577645
  0
LINE
  5
1B4
100
AcDbEntity
  8
ARJ70-0805
370
               5
390
0
  6
STYLE_13
 62
               7
100
AcDbLine
 10
-643.48849861702547
 20
-455.91290153311115
 30
0.0
 11
-643.48849861702547
 21
-485.85555763577645
 31
0.0
  0
LINE
  5
1B5
100
AcDbEntity
  8
ARJ70-0805
370
               5
390
0
  6
STYLE_13
 62
               7
100
AcDbLine
 10
-358.50374144389207
 20
-455.91290153311115
 30
0.0
 11
-358.50374144389207
 21
-485.85555763577645
 31
0.0
  0
LINE
  5
1B6
100
AcDbEntity
  8
ARJ70-0805
370
               5
390
0
  6
Continuous
 62
               7
100
AcDbLine
 10
592.24158093831284
 20
-380.76696025130059
 30
0.0
 11
592.24158093831284
 21
-485.84264241143933
 31
0.0
  0
LWPOLYLINE
  5
1B7
100
AcDbEntity
  8
ARJ70-0805
370
               5
390
0
  6
Continuous
 62
               7
100
AcDbPolyline
 90
        3
 70
             128
 10
362.1439441521286
 20
-380.76696025130059
 10
362.1439441521286
 20
-485.84264241143933
 10
592.24158093831284
 20
-485.84264241143933
  0
LWPOLYLINE
  5
1B8
100
AcDbEntity
  8
ARJ70-0805
370
               5
390
0
  6
Continuous
 62
               7
100
AcDbPolyline
 90
        3
 70
             128
 10
442.26741289337929
 20
-460.87053949686015
 10
512.12327828679622
 20
-460.87053949686015
 10
500.19736013410443
 20
-468.91414121388061
  0
LWPOLYLINE
  5
1B9
100
AcDbEntity
  8
ARJ70-0805
370
               5
390
0
  6
Continuous
 62
               7
100
AcDbPolyline
 90
        3
 70
             128
 10
442.26741289337929
 20
-460.87053949686015
 10
454.18816495633723
 20
-468.91414121388061
 10
500.19736013410443
 20
-468.91414121388061
  0
LINE
  5
1BA
100
AcDbEntity
  8
ARJ70-0805
370
               5
390
0
  6
Continuous
 62
               7
100
AcDbLine
 10
454.18816495633723
 20
-468.91414121388061
 30
0.0
 11
454.18816495633723
 21
-480.84703363792778
 31
0.0
  0
LWPOLYLINE
  5
1BB
100
AcDbEntity
  8
ARJ70-0805
370
               5
390
0
  6
Continuous
 62
               7
100
AcDbPolyline
 90
        3
 70
             128
 10
500.19736013410443
 20
-468.91414121388061
 10
500.19736013410443
 20
-480.84703363792778
 10
454.18816495633723
 20
-480.84703363792778
  0
LWPOLYLINE
  5
1BC
100
AcDbEntity
  8
ARJ70-0805
370
               5
390
0
  6
Continuous
 62
               7
100
AcDbPolyline
 90
       12
 70
             128
 10
375.44920826400107
 20
-380.49315749535799
 10
376.55475146724007
 20
-390.14757918174109
 10
379.06030498859832
 20
-399.80200086812306
 10
382.38210068804824
 20
-409.20344703034721
 10
386.81977177020667
 20
-418.07461757462465
 10
392.36556910047079
 20
-426.42524232880783
 10
398.74568992289892
 20
-434.26991603467332
 10
406.22360481396322
 20
-441.31187894273103
 10
414.25429130664656
 20
-447.58032053653415
 10
423.13996565043294
 20
-452.80037317925985
 10
432.27619534635483
 20
-457.24203959380566
 10
442.26741289337929
 20
-460.89315749535785
  0
LWPOLYLINE
  5
1BD
100
AcDbEntity
  8
ARJ70-0805
370
               5
390
0
  6
Continuous
 62
               7
100
AcDbPolyline
 90
       12
 70
             128
 10
512.12327828679622
 20
-460.89315749535785
 10
522.09641451974971
 20
-457.23474222291611
 10
531.24297639514111
 20
-452.80037317925985
 10
540.11831855945798
 20
-447.58032053653415
 10
548.16192027647844
 20
-441.31187894273103
 10
555.64500125727704
 20
-434.26991603467332
 10
562.01737294510281
 20
-426.42524232880783
 10
567.56575332023453
 20
-418.07461757462465
 10
572.00342440239297
 20
-409.19858211642145
 10
575.33038619157855
 20
-399.80200086812306
 10
577.81785839886493
 20
-390.14757918174109
 10
578.94148291617535
 20
-380.49315749535799
  0
LWPOLYLINE
  5
1BE
100
AcDbEntity
  8
ARJ70-0805
370
               5
390
0
  6
Continuous
 62
               7
100
AcDbPolyline
 90
        5
 70
             128
 10
375.44920826400107
 20
-380.49315749535799
 10
374.89643666238203
 20
-378.54554166535422
 10
373.78572736940873
 20
-377.16102961643855
 10
372.1299956094183
 20
-376.05032032346548
 10
370.45359949048884
 20
-375.77651756752311
  0
LWPOLYLINE
  5
1BF
100
AcDbEntity
  8
ARJ70-0805
370
               5
390
0
  6
Continuous
 62
               7
100
AcDbPolyline
 90
        5
 70
             128
 10
583.9190103756157
 20
-375.77651756752311
 10
582.2555294810229
 20
-376.05548641320001
 10
580.59204858643056
 20
-377.16619570617377
 10
579.49425451779439
 20
-378.54554166535422
 10
578.94148291617535
 20
-380.49315749535799
  0
LWPOLYLINE
  5
1C0
100
AcDbEntity
  8
ARJ70-0805
370
               5
390
0
  6
Continuous
 62
               7
100
AcDbPolyline
 90
        5
 70
             128
 10
367.13438683590607
 20
-375.77651756752311
 10
365.19710318537113
 20
-376.05548641320001
 10
363.52845620104404
 20
-377.16619570617377
 10
362.4229129978055
 20
-378.82451051103112
 10
362.1439441521286
 20
-380.76696025130059
  0
LWPOLYLINE
  5
1C1
100
AcDbEntity
  8
ARJ70-0805
370
               5
390
0
  6
Continuous
 62
               7
100
AcDbPolyline
 90
        5
 70
             128
 10
592.24158093831284
 20
-380.76696025130059
 10
591.96002904776878
 20
-378.82451051103112
 10
590.84931975479549
 20
-377.16619570617377
 10
589.19358799480551
 20
-376.05548641320001
 10
587.243389119933
 20
-375.77651756752311
  0
LINE
  5
1C2
100
AcDbEntity
  8
ARJ70-0805
370
               5
390
0
  6
Continuous
 62
               7
100
AcDbLine
 10
373.23295576778924
 20
-477.79387460468456
 30
0.0
 11
445.31282279202037
 21
-477.79387460468456
 31
0.0
  0
LINE
  5
1C3
100
AcDbEntity
  8
ARJ70-0805
370
               5
390
0
  6
Continuous
 62
               7
100
AcDbLine
 10
362.1439441521286
 20
-485.84264241143933
 30
0.0
 11
374.072445349688
 21
-485.84264241143933
 31
0.0
  0
LINE
  5
1C4
100
AcDbEntity
  8
ARJ70-0805
370
               5
390
0
  6
Continuous
 62
               7
100
AcDbLine
 10
445.31282279202037
 20
-477.79387460468456
 30
0.0
 11
445.31282279202037
 21
-480.84703363792778
 31
0.0
  0
LWPOLYLINE
  5
1C5
100
AcDbEntity
  8
ARJ70-0805
370
               5
390
0
  6
Continuous
 62
               7
100
AcDbPolyline
 90
        7
 70
             128
 10
374.89643666238203
 20
-416.52921644017306
 10
379.89204543589472
 20
-425.62534059499353
 10
385.99319741264549
 20
-434.45984520022148
 10
392.91834070209029
 20
-442.52644797933067
 10
400.68813966316861
 20
-449.81303691613516
 10
408.99779500152886
 20
-456.3026551879766
 10
418.41815963286285
 20
-462.02921644017306
  0
LINE
  5
1C6
100
AcDbEntity
  8
ARJ70-0805
370
               5
390
0
  6
Continuous
 62
               7
100
AcDbLine
 10
371.02445240617976
 20
-417.36870602207136
 30
0.0
 11
371.02445240617976
 21
-466.71002907875845
 31
0.0
  0
LWPOLYLINE
  5
1C7
100
AcDbEntity
  8
ARJ70-0805
370
               5
390
0
  6
Continuous
 62
               7
100
AcDbPolyline
 90
        4
 70
             128
 10
374.89643666238203
 20
-416.52921644017306
 10
373.51192461346659
 20
-415.41850714719931
 10
371.84327762913949
 20
-415.69747599287666
 10
371.02445240617976
 20
-417.36870602207136
  0
LINE
  5
1C8
100
AcDbEntity
  8
ARJ70-0805
370
               5
390
0
  6
Continuous
 62
               7
100
AcDbLine
 10
373.23295576778924
 20
-468.92369853010291
 30
0.0
 11
417.31261642962431
 21
-468.92369853010291
 31
0.0
  0
LWPOLYLINE
  5
1C9
100
AcDbEntity
  8
ARJ70-0805
370
               5
390
0
  6
Continuous
 62
               7
100
AcDbPolyline
 90
        3
 70
             128
 10
371.02445240617976
 20
-466.71002907875845
 10
371.84327762913949
 20
-468.37350997335079
 10
373.23295576778924
 20
-468.92369853010291
  0
LWPOLYLINE
  5
1CA
100
AcDbEntity
  8
ARJ70-0805
370
               5
390
0
  6
Continuous
 62
               7
100
AcDbPolyline
 90
        4
 70
             128
 10
373.23295576778924
 20
-477.79904069441955
 10
371.84327762913949
 20
-478.35181229603882
 10
371.02445240617976
 20
-479.74665652442354
 10
371.02445240617976
 20
-485.84780850117431
  0
LINE
  5
1CB
100
AcDbEntity
  8
ARJ70-0805
370
               5
390
0
  6
Continuous
 62
               7
100
AcDbLine
 10
445.31282279202037
 20
-480.85219972766231
 30
0.0
 11
454.18816495633723
 21
-480.85219972766231
 31
0.0
  0
LINE
  5
1CC
100
AcDbEntity
  8
ARJ70-0805
370
               5
390
0
  6
Continuous
 62
               7
100
AcDbLine
 10
581.14482018804961
 20
-477.79904069441955
 30
0.0
 11
509.07011925355368
 21
-477.79904069441955
 31
0.0
  0
LINE
  5
1CD
100
AcDbEntity
  8
ARJ70-0805
370
               5
390
0
  6
Continuous
 62
               7
100
AcDbLine
 10
581.14482018804961
 20
-468.93144766470505
 30
0.0
 11
537.07032561594974
 21
-468.93144766470505
 31
0.0
  0
LINE
  5
1CE
100
AcDbEntity
  8
ARJ70-0805
370
               5
390
0
  6
Continuous
 62
               7
100
AcDbLine
 10
583.3662387739962
 20
-417.37387211180544
 30
0.0
 11
583.3662387739962
 21
-466.72294430309535
 31
0.0
  0
LWPOLYLINE
  5
1CF
100
AcDbEntity
  8
ARJ70-0805
370
               5
390
0
  6
Continuous
 62
               7
100
AcDbPolyline
 90
        4
 70
             128
 10
583.3662387739962
 20
-485.84780850117431
 10
583.3662387739962
 20
-479.74665652442354
 10
582.54224746130217
 20
-478.35181229603882
 10
581.14482018804961
 20
-477.79904069441955
  0
LWPOLYLINE
  5
1D0
100
AcDbEntity
  8
ARJ70-0805
370
               5
390
0
  6
Continuous
 62
               7
100
AcDbPolyline
 90
        3
 70
             128
 10
581.14482018804961
 20
-468.93144766470505
 10
582.54224746130217
 20
-468.37867606308555
 10
583.3662387739962
 20
-466.72294430309535
  0
LWPOLYLINE
  5
1D1
100
AcDbEntity
  8
ARJ70-0805
370
               5
390
0
  6
Continuous
 62
               7
100
AcDbPolyline
 90
        7
 70
             128
 10
535.95961632297644
 20
-462.03696557477519
 10
545.39289617864711
 20
-456.31009942633477
 10
553.70255151700735
 20
-449.81529056678846
 10
561.46718438835092
 20
-442.53558127065389
 10
568.39749376753093
 20
-434.47339407014329
 10
574.4986457442817
 20
-425.63841909410212
 10
579.49425451779439
 20
-416.53696557477519
  0
LWPOLYLINE
  5
1D2
100
AcDbEntity
  8
ARJ70-0805
370
               5
390
0
  6
Continuous
 62
               7
100
AcDbPolyline
 90
        4
 70
             128
 10
535.95961632297644
 20
-462.03696557477519
 10
533.57783908721035
 20
-464.42711924446144
 10
534.07210286831332
 20
-467.43000485795733
 10
537.07032561594974
 20
-468.93144766470505
  0
LWPOLYLINE
  5
1D3
100
AcDbEntity
  8
ARJ70-0805
370
               5
390
0
  6
Continuous
 62
               7
100
AcDbPolyline
 90
        4
 70
             128
 10
583.3662387739962
 20
-417.37387211180544
 10
582.54224746130217
 20
-415.71039121721356
 10
580.87101743210746
 20
-415.42625628180144
 10
579.49425451779439
 20
-416.53696557477519
  0
LWPOLYLINE
  5
1D4
100
AcDbEntity
  8
ARJ70-0805
370
               5
390
0
  6
Continuous
 62
               7
100
AcDbPolyline
 90
        3
 70
             128
 10
500.19736013410443
 20
-480.85219972766231
 10
509.07011925355368
 20
-480.85219972766231
 10
509.07011925355368
 20
-477.79904069441955
  0
LINE
  5
1D5
100
AcDbEntity
  8
ARJ70-0805
370
               5
390
0
  6
Continuous
 62
               7
100
AcDbLine
 10
367.13438683590607
 20
-375.78943279185978
 30
0.0
 11
370.45359949048884
 21
-375.78943279185978
 31
0.0
  0
LINE
  5
1D6
100
AcDbEntity
  8
ARJ70-0805
370
               5
390
0
  6
Continuous
 62
               7
100
AcDbLine
 10
417.31261642962431
 20
-477.79904069441955
 30
0.0
 11
425.90124061366191
 21
-477.79904069441955
 31
0.0
  0
LINE
  5
1D7
100
AcDbEntity
  8
ARJ70-0805
370
               5
390
0
  6
Continuous
 62
               7
100
AcDbLine
 10
368.79786773049887
 20
-375.77651756752311
 30
0.0
 11
587.243389119933
 21
-375.77651756752311
 31
0.0
  0
CIRCLE
  5
1D8
100
AcDbEntity
  8
ARJ70-0805
370
               5
390
0
  6
Continuous
 62
               7
100
AcDbCircle
 10
-322.53821039399509
 20
725.04623534822497
 30
0.0
 40
17.5
  0
CIRCLE
  5
1D9
100
AcDbEntity
  8
ARJ70-0805
370
               5
390
0
  6
Continuous
 62
               7
100
AcDbCircle
 10
-516.53821039399281
 20
725.04623534822497
 30
0.0
 40
35.0
  0
CIRCLE
  5
1DA
100
AcDbEntity
  8
ARJ70-0805
370
               5
390
0
  6
Continuous
 62
               7
100
AcDbCircle
 10
-516.53821039399281
 20
725.04623534822497
 30
0.0
 40
23.0
  0
LINE
  5
1DB
100
AcDbEntity
  8
ARJ70-0805
370
               5
390
0
  6
Continuous
 62
               7
100
AcDbLine
 10
-686.56661987048574
 20
-485.82972718710312
 30
0.0
 11
-286.53821039399509
 21
-485.82972718710312
 31
0.0
  0
LINE
  5
1DC
100
AcDbEntity
  8
ARJ70-0805
370
               5
390
0
  6
Continuous
 62
               7
100
AcDbLine
 10
-686.56661987048574
 20
-485.82972718710312
 30
0.0
 11
-686.56661987048574
 21
-380.82972718710312
 31
0.0
  0
LINE
  5
1DD
100
AcDbEntity
  8
ARJ70-0805
370
               5
390
0
  6
Continuous
 62
               7
100
AcDbLine
 10
-286.53821039399509
 20
-485.82972718710312
 30
0.0
 11
-286.53821039399509
 21
-380.82972718710312
 31
0.0
  0
LINE
  5
1DE
100
AcDbEntity
  8
ARJ70-0805
370
               5
390
0
  6
Continuous
 62
               7
100
AcDbLine
 10
-681.56661987048574
 20
-375.82972718710312
 30
0.0
 11
-291.53821039399509
 21
-375.82972718710312
 31
0.0
  0
ARC
  5
1DF
100
AcDbEntity
  8
ARJ70-0805
370
               5
390
0
  6
Continuous
 62
               7
100
AcDbCircle
 10
-681.56661987048574
 20
-380.82972718710312
 30
0.0
 40
5.0
100
AcDbArc
 50
90.0
 51
180.0
  0
ARC
  5
1E0
100
AcDbEntity
  8
ARJ70-0805
370
               5
390
0
  6
Continuous
 62
               7
100
AcDbCircle
 10
-291.53821039399509
 20
-380.82972718710312
 30
0.0
 40
5.0
100
AcDbArc
 50
0.0
 51
90.0
  0
LINE
  5
1E1
100
AcDbEntity
  8
ARJ70-0805
370
               5
390
0
  6
Continuous
 62
               7
100
AcDbLine
 10
-539.64561085879586
 20
-480.82972718710312
 30
0.0
 11
-493.62608350155824
 21
-480.82972718710312
 31
0.0
  0
LINE
  5
1E2
100
AcDbEntity
  8
ARJ70-0805
370
               5
390
0
  6
Continuous
 62
               7
100
AcDbLine
 10
-539.64561085879586
 20
-473.91414121388061
 30
0.0
 11
-539.64561085879586
 21
-480.82972718710312
 31
0.0
  0
LINE
  5
1E3
100
AcDbEntity
  8
ARJ70-0805
370
               5
390
0
  6
Continuous
 62
               7
100
AcDbLine
 10
-539.64561085879586
 20
-473.91414121388061
 30
0.0
 11
-493.62608350155824
 21
-473.91414121388061
 31
0.0
  0
LINE
  5
1E4
100
AcDbEntity
  8
ARJ70-0805
370
               5
390
0
  6
Continuous
 62
               7
100
AcDbLine
 10
-493.62608350155824
 20
-480.82972718710312
 30
0.0
 11
-493.62608350155824
 21
-473.91414121388061
 31
0.0
  0
LINE
  5
1E5
100
AcDbEntity
  8
ARJ70-0805
370
               5
390
0
  6
Continuous
 62
               7
100
AcDbLine
 10
-493.62608350155824
 20
-473.91414121388061
 30
0.0
 11
-481.43669477239382
 21
-465.87828863146228
 31
0.0
  0
LINE
  5
1E6
100
AcDbEntity
  8
ARJ70-0805
370
               5
390
0
  6
Continuous
 62
               7
100
AcDbLine
 10
-539.64561085879586
 20
-473.91414121388061
 30
0.0
 11
-551.56894596662005
 21
-465.87053949686015
 31
0.0
  0
LINE
  5
1E7
100
AcDbEntity
  8
ARJ70-0805
370
               5
390
0
  6
Continuous
 62
               7
100
AcDbLine
 10
-551.63584718017682
 20
-465.87053949686015
 30
0.0
 11
-481.63584718017728
 21
-465.87053949686015
 31
0.0
  0
SPLINE
  5
1E8
100
AcDbEntity
  8
ARJ70-0805
370
               5
390
0
  6
Continuous
 62
               7
100
AcDbSpline
210
0.0
220
0.0
230
1.0
 70
               8
 71
               2
 72
               6
 73
               3
 74
               0
 42
0.000001
 43
0.000001
 40
0.0
 40
0.0
 40
0.0
 40
1.0
 40
1.0
 40
1.0
 10
-673.54032460428971
 20
-375.77651756752311
 30
0.0
 10
-637.4451957815827
 20
-454.30566298581539
 30
0.0
 10
-551.56894596662005
 20
-465.87053949686015
 30
0.0
  0
SPLINE
  5
1E9
100
AcDbEntity
  8
ARJ70-0805
370
               5
390
0
  6
Continuous
 62
               7
100
AcDbSpline
210
0.0
220
0.0
230
1.0
 70
               8
 71
               2
 72
               6
 73
               3
 74
               0
 42
0.000001
 43
0.000001
 40
0.0
 40
0.0
 40
0.0
 40
1.0
 40
1.0
 40
1.0
 10
-359.73136975606667
 20
-375.77651756752311
 30
0.0
 10
-395.82649857877414
 20
-454.30566298581539
 30
0.0
 10
-481.70274839373405
 20
-465.87053949686015
 30
0.0
  0
LINE
  5
1EA
100
AcDbEntity
  8
ARJ70-0805
370
               5
390
0
  6
STYLE_13
 62
               7
100
AcDbLine
 10
-671.52822576674453
 20
-455.82972718710312
 30
0.0
 11
-631.52822576674453
 21
-455.82972718710312
 31
0.0
  0
LINE
  5
1EB
100
AcDbEntity
  8
ARJ70-0805
370
               5
390
0
  6
STYLE_13
 62
               7
100
AcDbLine
 10
-651.52822576674453
 20
-475.82972718710312
 30
0.0
 11
-651.52822576674453
 21
-435.82972718710312
 31
0.0
  0
LWPOLYLINE
  5
1EC
100
AcDbEntity
  8
ARJ70-0805
370
               5
390
0
  6
STYLE_13
 62
               7
100
AcDbPolyline
 90
       10
 70
             128
 10
-358.50374144389207
 20
-455.91290153311115
 10
-359.05651304551156
 20
-452.85715945500101
 10
-360.99896278578035
 20
-450.07780317770016
 10
-363.48643499306763
 20
-448.42723750744517
 10
-366.54734316091253
 20
-447.86929981609046
 10
-369.60050219415552
 20
-448.42723750744517
 10
-372.08280831170759
 20
-450.07780317770016
 10
-374.02525805197615
 20
-452.85715945500101
 10
-374.58319574332995
 20
-455.91290153311115
 10
-374.58319574332995
 20
-485.85555763577645
  0
LINE
  5
1ED
100
AcDbEntity
  8
ARJ70-0805
370
               5
390
0
  6
STYLE_13
 62
               7
100
AcDbLine
 10
-386.5434685936109
 20
-455.82972718710312
 30
0.0
 11
-346.54346859361112
 21
-455.82972718710312
 31
0.0
  0
LINE
  5
1EE
100
AcDbEntity
  8
ARJ70-0805
370
               5
390
0
  6
STYLE_13
 62
               7
100
AcDbLine
 10
-366.54346859361112
 20
-475.82972718710312
 30
0.0
 11
-366.54346859361112
 21
-435.82972718710312
 31
0.0
  0
LINE
  5
1EF
100
AcDbEntity
  8
ARJ70-0805
370
               5
390
0
  6
Continuous
 62
               7
100
AcDbLine
 10
-307.5149865893834
 20
-390.82972718710312
 30
0.0
 11
-307.5149865893834
 21
-375.82972718710312
 31
0.0
  0
LINE
  5
1F0
100
AcDbEntity
  8
ARJ70-0805
370
               5
390
0
  6
Continuous
 62
               7
100
AcDbLine
 10
-337.5149865893834
 20
-390.82972718710312
 30
0.0
 11
-337.5149865893834
 21
-375.82972718710312
 31
0.0
  0
LWPOLYLINE
  5
1F1
100
AcDbEntity
  8
ARJ70-0805
370
               5
390
0
  6
STYLE_13
 62
               7
100
AcDbPolyline
 90
        4
 70
             129
 10
253.46222313180601
 20
840.09247069645005
 10
253.46222313180601
 20
609.99999999999989
 10
653.49063260830178
 20
609.99999999999989
 10
653.49063260830178
 20
840.09247069645005
  0
CIRCLE
  5
1F2
100
AcDbEntity
  8
ARJ70-0805
370
               5
390
0
  6
STYLE_13
 62
               7
100
AcDbCircle
 10
617.49063260830144
 20
725.04623534822497
 30
0.0
 40
15.000000000000227
  0
CIRCLE
  5
1F3
100
AcDbEntity
  8
ARJ70-0805
370
               5
390
0
  6
STYLE_13
 62
               7
100
AcDbCircle
 10
423.49063260829871
 20
725.04623534822497
 30
0.0
 40
23.000000000000227
  0
POLYLINE
  5
1F4
100
AcDbEntity
  8
ARJ70-0805
370
              15
390
0
  6
Continuous
 62
               7
100
AcDb2dPolyline
 66
               1
 10
0.0
 20
0.0
 30
0.0
 70
               1
 75
               5
  0
VERTEX
  5
1F5
100
AcDbEntity
  8
ARJ70-0805
370
              15
390
0
  6
Continuous
 62
               7
100
AcDbVertex
100
AcDb2dVertex
 10
368.5138564129104
 20
780.0789502039022
 30
0.0
  0
VERTEX
  5
1F6
100
AcDbEntity
  8
ARJ70-0805
370
              15
390
0
  6
Continuous
 62
               7
100
AcDbVertex
100
AcDb2dVertex
 10
478.51385641291108
 20
780.0789502039022
 30
0.0
  0
VERTEX
  5
1F7
100
AcDbEntity
  8
ARJ70-0805
370
              15
390
0
  6
Continuous
 62
               7
100
AcDbVertex
100
AcDb2dVertex
 10
478.51385641291108
 20
670.0789502039022
 30
0.0
  0
VERTEX
  5
1F8
100
AcDbEntity
  8
ARJ70-0805
370
              15
390
0
  6
Continuous
 62
               7
100
AcDbVertex
100
AcDb2dVertex
 10
368.5138564129104
 20
670.0789502039022
 30
0.0
  0
SEQEND
  5
1F9
100
AcDbEntity
  8
ARJ70-0805
370
              15
390
0
  6
Continuous
 62
               7
  0
POLYLINE
  5
1FA
100
AcDbEntity
  8
ARJ70-0805
370
              15
390
0
  6
Continuous
 62
               7
100
AcDb2dPolyline
 66
               1
 10
0.0
 20
0.0
 30
0.0
 70
               1
 75
               5
  0
VERTEX
  5
1FB
100
AcDbEntity
  8
ARJ70-0805
370
              15
390
0
  6
Continuous
 62
               7
100
AcDbVertex
100
AcDb2dVertex
 10
528.51385641291199
 20
780.0789502039022
 30
0.0
  0
VERTEX
  5
1FC
100
AcDbEntity
  8
ARJ70-0805
370
              15
390
0
  6
Continuous
 62
               7
100
AcDbVertex
100
AcDb2dVertex
 10
638.5138564129137
 20
780.0789502039022
 30
0.0
  0
VERTEX
  5
1FD
100
AcDbEntity
  8
ARJ70-0805
370
              15
390
0
  6
Continuous
 62
               7
100
AcDbVertex
100
AcDb2dVertex
 10
638.5138564129137
 20
670.0789502039022
 30
0.0
  0
VERTEX
  5
1FE
100
AcDbEntity
  8
ARJ70-0805
370
              15
390
0
  6
Continuous
 62
               7
100
AcDbVertex
100
AcDb2dVertex
 10
528.51385641291199
 20
670.0789502039022
 30
0.0
  0
SEQEND
  5
1FF
100
AcDbEntity
  8
ARJ70-0805
370
              15
390
0
  6
Continuous
 62
               7
  0
LWPOLYLINE
  5
200
100
AcDbEntity
  8
ARJ70-0805
370
               5
390
0
  6
Continuous
 62
               7
100
AcDbPolyline
 90
        4
 70
             128
 10
418.42590876746522
 20
-462.03696557477519
 10
420.80768600323131
 20
-464.42711924446144
 10
420.31342222212811
 20
-467.43000485795733
 10
417.31519947449192
 20
-468.93144766470505
  0
ENDSEC
  0
SECTION
  2
OBJECTS
  0
DICTIONARY
  5
19
100
AcDbDictionary
280
               0
281
               1
  3
ACAD_GROUP
350
1A
  3
ACAD_MLINESTYLE
350
1B
  3
ACAD_LAYOUT
350
1E
  3
ACAD_PLOTSETTINGS
350
22
  3
ACAD_PLOTSTYLENAME
350
1F
  0
DICTIONARY
  5
1A
102
{ACAD_REACTORS
330
19
102
}
100
AcDbDictionary
280
               0
281
               1
  0
DICTIONARY
  5
1B
102
{ACAD_REACTORS
330
19
102
}
100
AcDbDictionary
280
               0
281
               1
  3
Standard
350
1C
  0
MLINESTYLE
  5
1C
102
{ACAD_REACTORS
330
1B
102
}
100
AcDbMlineStyle
  2
Standard
 70
               0
  3

 62
               0
 51
90.0
 52
90.0
 71
               2
 49
0.5
 62
             256
  6
ByLayer
 49
-0.5
 62
             256
  6
ByLayer
  0
ACDBDICTIONARYWDFLT
  5
1F
102
{ACAD_REACTORS
330
19
102
}
100
AcDbDictionary
281
               1
  3
Normal
350
1D
100
AcDbDictionaryWithDefault
340
1D
  0
ACDBPLACEHOLDER
  5
1D
102
{ACAD_REACTORS
330
1F
102
}
  0
LAYOUT
  5
20
102
{ACAD_REACTORS
330
1E
102
}
100
AcDbPlotSettings
  1

  2

  4

  6

 40
0.0
 41
0.0
 42
0.0
 43
0.0
 44
0.0
 45
0.0
 46
0.0
 47
0.0
 48
0.0
 49
0.0
140
0.0
141
0.0
142
1.0
143
1.0
 70
            1024
 72
               0
 73
               0
 74
               0
  7

 75
               0
147
1.0
148
0.0
149
0.0
100
AcDbLayout
  1
Model
 70
               0
 71
               0
 10
0.0
 20
0.0
 11
0.0
 21
0.0
 12
0.0
 22
0.0
 32
0.0
 14
0.0
 24
0.0
 34
0.0
 15
0.0
 25
0.0
 35
0.0
146
0.0
 13
0.0
 23
0.0
 33
0.0
 16
0.0
 26
0.0
 36
0.0
 17
0.0
 27
0.0
 37
0.0
 76
               0
330
A
331
0
345
0
346
0
  0
LAYOUT
  5
21
102
{ACAD_REACTORS
330
1E
102
}
100
AcDbPlotSettings
  1

  2

  4

  6

 40
0.0
 41
0.0
 42
0.0
 43
0.0
 44
0.0
 45
0.0
 46
0.0
 47
0.0
 48
0.0
 49
0.0
140
0.0
141
0.0
142
1.0
143
1.0
 70
               0
 72
               0
 73
               0
 74
               0
  7

 75
               0
147
1.0
148
0.0
149
0.0
100
AcDbLayout
  1
Layout1
 70
               0
 71
               0
 10
0.0
 20
0.0
 11
0.0
 21
0.0
 12
0.0
 22
0.0
 32
0.0
 14
0.0
 24
0.0
 34
0.0
 15
0.0
 25
0.0
 35
0.0
146
0.0
 13
0.0
 23
0.0
 33
0.0
 16
0.0
 26
0.0
 36
0.0
 17
0.0
 27
0.0
 37
0.0
 76
               0
330
B
331
0
345
0
346
0
  0
DICTIONARY
  5
1E
102
{ACAD_REACTORS
330
19
102
}
100
AcDbDictionary
280
               0
281
               1
  3
Layout1
350
21
  3
Model
350
20
  0
DICTIONARY
  5
22
102
{ACAD_REACTORS
330
19
102
}
100
AcDbDictionary
280
               0
281
               1
  0
ENDSEC
  0
EOF
