  0
SECTION
  2
HEADER
  9
$ACADVER
  1
AC1015
  9
$ACADMAINTVER
 70
               6
  9
$DWGCODEPAGE
  3
ANSI_932
  9
$INSBASE
 10
0.0
 20
0.0
 30
0.0
  9
$EXTMIN
 10
-975.00000000024374
 20
-1431.5255224711127
 30
-14.834305555555552
  9
$EXTMAX
 10
975.00000000024011
 20
1405.9972926412997
 30
14.834305555555552
  9
$LIMMIN
 10
0.0
 20
0.0
  9
$LIMMAX
 10
0.0
 20
0.0
  9
$ORTHOMODE
 70
               0
  9
$REGENMODE
 70
               1
  9
$FILLMODE
 70
               1
  9
$QTEXTMODE
 70
               0
  9
$MIRRTEXT
 70
               1
  9
$LTSCALE
 40
25.399999999999999
  9
$ATTMODE
 70
               1
  9
$TEXTSIZE
 40
0.2
  9
$TRACEWID
 40
1.0
  9
$TEXTSTYLE
  7
Standard
  9
$CLAYER
  8
ARJ70-0905
  9
$CELTYPE
  6
Continuous
  9
$CECOLOR
 62
             256
  9
$CELTSCALE
 40
1.0
  9
$DISPSILH
 70
               0
  9
$DIMSCALE
 40
1.0
  9
$DIMASZ
 40
31.75
  9
$DIMEXO
 40
0.0
  9
$DIMDLI
 40
6.9999999999999396
  9
$DIMRND
 40
0.0
  9
$DIMDLE
 40
0.0
  9
$DIMEXE
 40
19.999999999996199
  9
$DIMTP
 40
0.0
  9
$DIMTM
 40
0.0
  9
$DIMTXT
 40
24.432617187500004
  9
$DIMCEN
 40
0.0
  9
$DIMTSZ
 40
0.0
  9
$DIMTOL
 70
               0
  9
$DIMLIM
 70
               0
  9
$DIMTIH
 70
               0
  9
$DIMTOH
 70
               0
  9
$DIMSE1
 70
               0
  9
$DIMSE2
 70
               0
  9
$DIMTAD
 70
               1
  9
$DIMZIN
 70
              11
  9
$DIMBLK
  1
VW_FILLEDARROW
  9
$DIMASO
 70
               1
  9
$DIMSHO
 70
               1
  9
$DIMPOST
  1
<>
  9
$DIMAPOST
  1
[]
  9
$DIMALT
 70
               0
  9
$DIMALTD
 70
               1
  9
$DIMALTF
 40
1.0
  9
$DIMLFAC
 40
1.0
  9
$DIMTOFL
 70
               0
  9
$DIMTVP
 40
0.0
  9
$DIMTIX
 70
               1
  9
$DIMSOXD
 70
               0
  9
$DIMSAH
 70
               0
  9
$DIMBLK1
  1

  9
$DIMBLK2
  1

  9
$DIMSTYLE
  2
JIS
  9
$DIMCLRD
 70
               0
  9
$DIMCLRE
 70
               0
  9
$DIMCLRT
 70
               0
  9
$DIMTFAC
 40
1.0
  9
$DIMGAP
 40
1.00000000000108
  9
$DIMJUST
 70
               0
  9
$DIMSD1
 70
               0
  9
$DIMSD2
 70
               0
  9
$DIMTOLJ
 70
               1
  9
$DIMTZIN
 70
              11
  9
$DIMALTZ
 70
              11
  9
$DIMALTTZ
 70
              11
  9
$DIMUPT
 70
               0
  9
$DIMDEC
 70
               1
  9
$DIMTDEC
 70
               1
  9
$DIMALTU
 70
               2
  9
$DIMALTTD
 70
               2
  9
$DIMTXSTY
  7
ＭＳ ゴシック
  9
$DIMAUNIT
 70
               0
  9
$DIMADEC
 70
               2
  9
$DIMALTRND
 40
0.0
  9
$DIMAZIN
 70
               0
  9
$DIMDSEP
 70
              46
  9
$DIMATFIT
 70
               0
  9
$DIMFRAC
 70
               2
  9
$DIMLDRBLK
  1

  9
$DIMLUNIT
 70
               2
  9
$DIMLWD
 70
              -2
  9
$DIMLWE
 70
              -2
  9
$DIMTMOVE
 70
               0
  9
$LUNITS
 70
               2
  9
$LUPREC
 70
               4
  9
$SKETCHINC
 40
0.1
  9
$FILLETRAD
 40
0.0
  9
$AUNITS
 70
               0
  9
$AUPREC
 70
               0
  9
$MENU
  1
acad
  9
$ELEVATION
 40
0.0
  9
$PELEVATION
 40
0.0
  9
$THICKNESS
 40
0.0
  9
$LIMCHECK
 70
               0
  9
$CHAMFERA
 40
0.0
  9
$CHAMFERB
 40
0.0
  9
$CHAMFERC
 40
0.0
  9
$CHAMFERD
 40
0.0
  9
$SKPOLY
 70
               0
  9
$TDCREATE
 40
2455569.424236111
  9
$TDUCREATE
 40
0.000000000
  9
$TDUPDATE
 40
2455569.424236111
  9
$TDUUPDATE
 40
0.000000000
  9
$TDINDWG
 40
0.0000000000
  9
$TDUSRTIMER
 40
0.0000000000
  9
$USRTIMER
 70
               1
  9
$ANGBASE
 50
0.0
  9
$ANGDIR
 70
               0
  9
$PDMODE
 70
               1
  9
$PDSIZE
 40
-2.0
  9
$PLINEWID
 40
0.0
  9
$SPLFRAME
 70
               0
  9
$SPLINETYPE
 70
               6
  9
$SPLINESEGS
 70
               8
  9
$HANDSEED
  5
22B
  9
$SURFTAB1
 70
               6
  9
$SURFTAB2
 70
               6
  9
$SURFTYPE
 70
               6
  9
$SURFU
 70
               6
  9
$SURFV
 70
               6
  9
$UCSBASE
  2

  9
$UCSNAME
  2

  9
$UCSORG
 10
0.0
 20
0.0
 30
0.0
  9
$UCSXDIR
 10
1.0
 20
0.0
 30
0.0
  9
$UCSYDIR
 10
0.0
 20
1.0
 30
0.0
  9
$UCSORTHOREF
  2

  9
$UCSORTHOVIEW
 70
               0
  9
$UCSORGTOP
 10
0.0
 20
0.0
 30
0.0
  9
$UCSORGBOTTOM
 10
0.0
 20
0.0
 30
0.0
  9
$UCSORGLEFT
 10
0.0
 20
0.0
 30
0.0
  9
$UCSORGRIGHT
 10
0.0
 20
0.0
 30
0.0
  9
$UCSORGFRONT
 10
0.0
 20
0.0
 30
0.0
  9
$UCSORGBACK
 10
0.0
 20
0.0
 30
0.0
  9
$PUCSBASE
  2

  9
$PUCSNAME
  2

  9
$PUCSORG
 10
0.0
 20
0.0
 30
0.0
  9
$PUCSXDIR
 10
1.0
 20
0.0
 30
0.0
  9
$PUCSYDIR
 10
0.0
 20
1.0
 30
0.0
  9
$PUCSORTHOREF
  2

  9
$PUCSORTHOVIEW
 70
               0
  9
$PUCSORGTOP
 10
0.0
 20
0.0
 30
0.0
  9
$PUCSORGBOTTOM
 10
0.0
 20
0.0
 30
0.0
  9
$PUCSORGLEFT
 10
0.0
 20
0.0
 30
0.0
  9
$PUCSORGRIGHT
 10
0.0
 20
0.0
 30
0.0
  9
$PUCSORGFRONT
 10
0.0
 20
0.0
 30
0.0
  9
$PUCSORGBACK
 10
0.0
 20
0.0
 30
0.0
  9
$USERI1
 70
               0
  9
$USERI2
 70
               0
  9
$USERI3
 70
               0
  9
$USERI4
 70
               0
  9
$USERI5
 70
               0
  9
$USERR1
 40
0.0
  9
$USERR2
 40
0.0
  9
$USERR3
 40
0.0
  9
$USERR4
 40
0.0
  9
$USERR5
 40
0.0
  9
$WORLDVIEW
 70
               1
  9
$SHADEDGE
 70
               3
  9
$SHADEDIF
 70
              70
  9
$TILEMODE
 70
               1
  9
$MAXACTVP
 70
              64
  9
$PINSBASE
 10
0.0
 20
0.0
 30
0.0
  9
$PLIMCHECK
 70
               0
  9
$PEXTMIN
 10
1.0000000000000000E+20
 20
1.0000000000000000E+20
 30
1.0000000000000000E+20
  9
$PEXTMAX
 10
-1.0000000000000000E+20
 20
-1.0000000000000000E+20
 30
-1.0000000000000000E+20
  9
$PLIMMIN
 10
0.0
 20
0.0
  9
$PLIMMAX
 10
12.0
 20
9.0
  9
$UNITMODE
 70
               0
  9
$VISRETAIN
 70
               0
  9
$PLINEGEN
 70
               1
  9
$PSLTSCALE
 70
               0
  9
$TREEDEPTH
 70
            3020
  9
$CMLSTYLE
  2
Standard
  9
$CMLJUST
 70
               0
  9
$CMLSCALE
 40
1.0
  9
$PROXYGRAPHICS
 70
               0
  9
$MEASUREMENT
 70
               1
  9
$CELWEIGHT
370
               0
  9
$ENDCAPS
280
               0
  9
$JOINSTYLE
280
               0
  9
$LWDISPLAY
290
               1
  9
$INSUNITS
 70
               4
  9
$HYPERLINKBASE
  1

  9
$STYLESHEET
  1

  9
$XEDIT
290
               1
  9
$CEPSNTYPE
380
               0
  9
$PSTYLEMODE
290
               1
  9
$FINGERPRINTGUID
  2

  9
$VERSIONGUID
  2

  9
$EXTNAMES
290
               1
  9
$PSVPSCALE
 40
0.0
  0
ENDSEC
  0
SECTION
  2
CLASSES
  0
CLASS
  1
LWPOLYLINE
  2
AcDbPolyline
  3
AutoCAD 2000
 90
        0
280
               0
281
               1
  0
CLASS
  1
IMAGE
  2
AcDbRasterImage
  3
ISM
 90
      127
280
               0
281
               1
  0
CLASS
  1
OLE2FRAME
  2
AcDbOle2Frame
  3
AutoCAD 2000
 90
        0
280
               0
281
               1
  0
CLASS
  1
HATCH
  2
AcDbHatch
  3
AutoCAD 2000
 90
        0
280
               0
281
               1
  0
CLASS
  1
DICTIONARYVAR
  2
AcDbDictionaryVar
  3
AutoCAD 2000
 90
        0
280
               0
281
               0
  0
CLASS
  1
RASTERVARIABLES
  2
AcDbRasterVariables
  3
ISM
 90
        0
280
               0
281
               0
  0
CLASS
  1
IMAGEDEF
  2
AcDbRasterImageDef
  3
ISM
 90
        0
280
               0
281
               0
  0
CLASS
  1
IMAGEDEF_REACTOR
  2
AcDbRasterImageDefReactor
  3
ISM
 90
        1
280
               0
281
               0
  0
CLASS
  1
IDBUFFER
  2
AcDbIdBuffer
  3
AutoCAD 2000
 90
        0
280
               0
281
               0
  0
CLASS
  1
SPATIAL_FILTER
  2
AcDbSpatialFilter
  3
AutoCAD 2000
 90
        0
280
               0
281
               0
  0
CLASS
  1
XRECORD
  2
AcDbXrecord
  3
AutoCAD 2000
 90
        0
280
               0
281
               0
  0
CLASS
  1
SORTENTSTABLE
  2
AcDbSortentsTable
  3
AutoCAD 2000
 90
        0
280
               0
281
               0
  0
CLASS
  1
LAYER_INDEX
  2
AcDbLayerIndex
  3
AutoCAD 2000
 90
        0
280
               0
281
               0
  0
CLASS
  1
SPATIAL_INDEX
  2
AcDbSpatialIndex
  3
AutoCAD 2000
 90
        0
280
               0
281
               0
  0
CLASS
  1
OBJECT_PTR
  2
CAseDLPNTableRecord
  3
"ASE-LPNTableRecord"
 90
        1
280
               0
281
               0
  0
CLASS
  1
LAYOUT
  2
AcDbLayout
  3
AutoCAD 2000
 90
        0
280
               0
281
               0
  0
CLASS
  1
PLOTSETTINGS
  2
AcDbPlotSettings
  3
AutoCAD 2000
 90
        0
280
               0
281
               0
  0
CLASS
  1
ACDBDICTIONARYWDFLT
  2
AcDbDictionaryWithDefault
  3
AutoCAD 2000
 90
        0
280
               0
281
               0
  0
CLASS
  1
ACDBPLACEHOLDER
  2
AcDbPlaceHolder
  3
AutoCAD 2000
 90
        0
280
               0
281
               0
  0
ENDSEC
  0
SECTION
  2
TABLES
  0
TABLE
  2
VPORT
  5
7
100
AcDbSymbolTable
 70
               1
  0
VPORT
  5
15
100
AcDbSymbolTableRecord
100
AcDbViewportTableRecord
  2
*ACTIVE
 70
               0
 10
0.0
 20
0.0
 11
1.0
 21
1.0
 12
-0.000000000001819
 22
-12.764114914906486
 13
0.0
 23
0.0
 14
1.0
 24
1.0
 15
0.0
 25
0.0
 16
0.0
 26
0.0
 36
1.0
 17
0.0
 27
0.0
 37
0.0
 40
2837.5228151124124
 41
0.688564
 42
50.0
 43
0.0
 44
0.0
 50
0.0
 51
0.0
 71
               0
 72
            2000
 73
               1
 74
               1
 75
               0
 76
               0
 77
               0
 78
               0
281
               0
 65
               0
110
0.0
120
0.0
130
0.0
111
1.0
121
0.0
131
0.0
112
0.0
122
1.0
132
0.0
345
0
346
0
 79
               0
146
0.0
  0
ENDTAB
  0
TABLE
  2
LTYPE
  5
4
100
AcDbSymbolTable
 70
              16
  0
LTYPE
  5
11
100
AcDbSymbolTableRecord
100
AcDbLinetypeTableRecord
  2
ByBlock
 70
              64
  3

 72
              65
 73
               0
 40
0.0
  0
LTYPE
  5
12
100
AcDbSymbolTableRecord
100
AcDbLinetypeTableRecord
  2
ByLayer
 70
              64
  3

 72
              65
 73
               0
 40
0.0
  0
LTYPE
  5
13
100
AcDbSymbolTableRecord
100
AcDbLinetypeTableRecord
  2
Continuous
 70
              64
  3
Solid line
 72
              65
 73
               0
 40
0.0
  0
LTYPE
  5
39
100
AcDbSymbolTableRecord
100
AcDbLinetypeTableRecord
  2
STYLE_01
 70
               0
  3

 72
              65
 73
               2
 40
0.7499999999999998
 49
0.5
 74
               0
 49
-0.2499999999999998
 74
               0
  0
LTYPE
  5
3A
100
AcDbSymbolTableRecord
100
AcDbLinetypeTableRecord
  2
STYLE_02
 70
               0
  3

 72
              65
 73
               2
 40
0.0590551181102362
 49
0.0393700787401574
 74
               0
 49
-0.0196850393700788
 74
               0
  0
LTYPE
  5
3B
100
AcDbSymbolTableRecord
100
AcDbLinetypeTableRecord
  2
STYLE_03
 70
               0
  3

 72
              65
 73
               2
 40
0.7499999999999998
 49
0.5
 74
               0
 49
-0.2499999999999998
 74
               0
  0
LTYPE
  5
3C
100
AcDbSymbolTableRecord
100
AcDbLinetypeTableRecord
  2
STYLE_04
 70
               0
  3

 72
              65
 73
               4
 40
0.078740157480315
 49
0.0492125984251968
 74
               0
 49
-0.0098425196850394
 74
               0
 49
0.0098425196850394
 74
               0
 49
-0.0098425196850394
 74
               0
  0
LTYPE
  5
3D
100
AcDbSymbolTableRecord
100
AcDbLinetypeTableRecord
  2
STYLE_05
 70
               0
  3

 72
              65
 73
               2
 40
0.41656
 49
0.13885
 74
               0
 49
-0.27771
 74
               0
  0
LTYPE
  5
3E
100
AcDbSymbolTableRecord
100
AcDbLinetypeTableRecord
  2
STYLE_06
 70
               0
  3

 72
              65
 73
               4
 40
2.0832800000000002
 49
1.25
 74
               0
 49
-0.41656
 74
               0
 49
0.1388600000000001
 74
               0
 49
-0.2778600000000001
 74
               0
  0
LTYPE
  5
3F
100
AcDbSymbolTableRecord
100
AcDbLinetypeTableRecord
  2
STYLE_07
 70
               0
  3

 72
              65
 73
               6
 40
3.75
 49
1.25
 74
               0
 49
-0.41656
 74
               0
 49
1.2500000000000002
 74
               0
 49
-0.4167199999999999
 74
               0
 49
0.1388600000000001
 74
               0
 49
-0.2778599999999998
 74
               0
  0
LTYPE
  5
40
100
AcDbSymbolTableRecord
100
AcDbLinetypeTableRecord
  2
STYLE_08
 70
               0
  3

 72
              65
 73
               6
 40
2.5
 49
1.25
 74
               0
 49
-0.41656
 74
               0
 49
0.1388600000000001
 74
               0
 49
-0.2778600000000001
 74
               0
 49
0.1388599999999998
 74
               0
 49
-0.2778600000000001
 74
               0
  0
LTYPE
  5
41
100
AcDbSymbolTableRecord
100
AcDbLinetypeTableRecord
  2
STYLE_09
 70
               0
  3

 72
              65
 73
               4
 40
10.0
 49
7.5
 74
               0
 49
-0.5555699999999997
 74
               0
 49
1.3888600000000006
 74
               0
 49
-0.5555699999999997
 74
               0
  0
LTYPE
  5
42
100
AcDbSymbolTableRecord
100
AcDbLinetypeTableRecord
  2
STYLE_10
 70
               0
  3

 72
              65
 73
               6
 40
11.875
 49
7.5
 74
               0
 49
-0.5555699999999997
 74
               0
 49
1.3888600000000006
 74
               0
 49
-0.5555699999999997
 74
               0
 49
1.25
 74
               0
 49
-0.625
 74
               0
  0
LTYPE
  5
43
100
AcDbSymbolTableRecord
100
AcDbLinetypeTableRecord
  2
STYLE_11
 70
               0
  3

 72
              65
 73
               2
 40
0.1388889763779528
 49
0.0694444881889764
 74
               0
 49
-0.0694444881889764
 74
               0
  0
LTYPE
  5
44
100
AcDbSymbolTableRecord
100
AcDbLinetypeTableRecord
  2
STYLE_12
 70
               0
  3

 72
              65
 73
               2
 40
0.3472222222222222
 49
0.2083333333333333
 74
               0
 49
-0.1388888888888889
 74
               0
  0
LTYPE
  5
45
100
AcDbSymbolTableRecord
100
AcDbLinetypeTableRecord
  2
STYLE_13
 70
               0
  3

 72
              65
 73
               2
 40
0.7874015748031495
 49
0.3937007874015748
 74
               0
 49
-0.3937007874015748
 74
               0
  0
ENDTAB
  0
TABLE
  2
LAYER
  5
2
100
AcDbSymbolTable
 70
               5
  0
LAYER
  5
14
100
AcDbSymbolTableRecord
100
AcDbLayerTableRecord
  2
0
 70
               0
 62
               7
  6
Continuous
290
               1
370
              -3
390
1D
  0
LAYER
  5
46
100
AcDbSymbolTableRecord
100
AcDbLayerTableRecord
  2
Defpoints
 70
               0
 62
               7
  6
Continuous
290
               0
370
              -3
390
1D
  0
LAYER
  5
47
100
AcDbSymbolTableRecord
100
AcDbLayerTableRecord
  2
template
 70
               0
 62
               7
  6
Continuous
290
               1
370
              -3
390
1D
  0
LAYER
  5
48
100
AcDbSymbolTableRecord
100
AcDbLayerTableRecord
  2
notes
 70
               0
 62
               7
  6
Continuous
290
               1
370
              -3
390
1D
  0
LAYER
  5
49
100
AcDbSymbolTableRecord
100
AcDbLayerTableRecord
  2
ARJ70-0905
 70
               0
 62
               7
  6
Continuous
290
               1
370
              -3
390
1D
  0
ENDTAB
  0
TABLE
  2
STYLE
  5
3
100
AcDbSymbolTable
 70
               2
  0
STYLE
  5
17
100
AcDbSymbolTableRecord
100
AcDbTextStyleTableRecord
  2
Standard
 70
               0
 40
0.0
 41
1.0
 50
0.0
 71
               0
 42
0.0
  3
txt
  4
BIGFONT.SHX
  0
STYLE
  5
38
100
AcDbSymbolTableRecord
100
AcDbTextStyleTableRecord
  2
ＭＳ ゴシック
 70
               0
 40
0.0
 41
1.0
 50
0.0
 71
               0
 42
0.0
  3

  4
ＭＳ ゴシック
1001
ACAD
1000
ＭＳ ゴシック
1071
        0
  0
ENDTAB
  0
TABLE
  2
VIEW
  5
5
100
AcDbSymbolTable
 70
               0
  0
ENDTAB
  0
TABLE
  2
UCS
  5
6
100
AcDbSymbolTable
 70
               0
  0
ENDTAB
  0
TABLE
  2
APPID
  5
8
100
AcDbSymbolTable
 70
               1
  0
APPID
  5
16
100
AcDbSymbolTableRecord
100
AcDbRegAppTableRecord
  2
ACAD
 70
               0
  0
ENDTAB
  0
TABLE
  2
DIMSTYLE
  5
9
100
AcDbSymbolTable
 70
               3
100
AcDbDimStyleTable
 71
               0
  0
DIMSTYLE
105
18
100
AcDbSymbolTableRecord
100
AcDbDimStyleTableRecord
  2
Standard
 70
               0
  3

  4

 40
1.0
 41
0.18
 42
0.0625
 43
0.38
 44
0.18
 45
0.0
 46
0.0
 47
0.0
 48
0.0
 71
               0
 72
               0
 73
               1
 74
               1
 75
               0
 76
               0
 77
               0
 78
               0
 79
               0
140
0.18
141
0.09
142
0.0
143
25.399999999999999
144
1.0
145
0.0
146
1.0
147
0.09
148
0.0
170
               0
171
               2
172
               0
173
               0
174
               0
175
               0
176
               0
177
               0
178
               0
179
               0
271
               4
272
               4
273
               2
274
               2
275
               0
276
               0
277
               2
278
              46
279
               0
280
               0
281
               0
282
               0
283
               1
284
               0
285
               0
286
               0
288
               0
289
               3
340
17
341
0
342
0
343
0
344
0
371
              -2
372
              -2
  0
DIMSTYLE
105
52
100
AcDbSymbolTableRecord
100
AcDbDimStyleTableRecord
  2
tform線あり
 70
               0
  3
<>
  4
[]
 40
1.0
 41
3.999755859375
 42
24.999999999999996
 43
0.9999999999999999
 44
0.0
 45
0.0
 46
0.0
 47
0.0
 48
0.0
 71
               0
 72
               0
 73
               0
 74
               0
 75
               0
 76
               0
 77
               1
 78
              11
 79
               0
140
24.432617187500004
141
0.0
142
0.0
143
1.0
144
1.0
145
0.0
146
1.0
147
0.4999999999999999
148
0.0
170
               0
171
               1
172
               0
173
               0
174
               1
175
               0
176
               0
177
               0
178
               0
179
               2
271
               1
272
               1
273
               2
274
               2
275
               0
276
               2
277
               2
278
              46
279
               0
280
               0
281
               0
282
               0
283
               1
284
              11
285
              11
286
              11
288
               0
289
               0
340
38
341
4A
342
4A
343
0
344
0
371
              -2
372
              -2
  0
DIMSTYLE
105
57
100
AcDbSymbolTableRecord
100
AcDbDimStyleTableRecord
  2
JIS
 70
               0
  3
<>
  4
[]
 40
1.0
 41
31.75
 42
0.0
 43
6.9999999999999396
 44
19.999999999996199
 45
0.0
 46
0.0
 47
0.0
 48
0.0
 71
               0
 72
               0
 73
               0
 74
               0
 75
               0
 76
               0
 77
               1
 78
              11
 79
               0
140
24.432617187500004
141
0.0
142
0.0
143
1.0
144
1.0
145
0.0
146
1.0
147
1.00000000000108
148
0.0
170
               0
171
               1
172
               0
173
               0
174
               1
175
               0
176
               0
177
               0
178
               0
179
               2
271
               1
272
               1
273
               2
274
               2
275
               0
276
               2
277
               2
278
              46
279
               0
280
               0
281
               0
282
               0
283
               1
284
              11
285
              11
286
              11
288
               0
289
               0
340
38
341
53
342
53
343
0
344
0
371
              -2
372
              -2
  0
ENDTAB
  0
TABLE
  2
BLOCK_RECORD
  5
1
100
AcDbSymbolTable
 70
              23
  0
BLOCK_RECORD
  5
A
100
AcDbSymbolTableRecord
100
AcDbBlockTableRecord
  2
*MODEL_SPACE
340
20
  0
BLOCK_RECORD
  5
B
100
AcDbSymbolTableRecord
100
AcDbBlockTableRecord
  2
*PAPER_SPACE
340
21
  0
BLOCK_RECORD
  5
4A
100
AcDbSymbolTableRecord
100
AcDbBlockTableRecord
  2
_DOT
340
0
  0
BLOCK_RECORD
  5
53
100
AcDbSymbolTableRecord
100
AcDbBlockTableRecord
  2
VW_FILLEDARROW
340
0
  0
BLOCK_RECORD
  5
23
100
AcDbSymbolTableRecord
100
AcDbBlockTableRecord
  2
グループ
340
0
102
{BLKREFS
331
169
102
}
  0
BLOCK_RECORD
  5
24
100
AcDbSymbolTableRecord
100
AcDbBlockTableRecord
  2
*D3
340
0
  0
BLOCK_RECORD
  5
25
100
AcDbSymbolTableRecord
100
AcDbBlockTableRecord
  2
*D4
340
0
  0
BLOCK_RECORD
  5
26
100
AcDbSymbolTableRecord
100
AcDbBlockTableRecord
  2
*D5
340
0
  0
BLOCK_RECORD
  5
27
100
AcDbSymbolTableRecord
100
AcDbBlockTableRecord
  2
*D6
340
0
  0
BLOCK_RECORD
  5
28
100
AcDbSymbolTableRecord
100
AcDbBlockTableRecord
  2
*D7
340
0
  0
BLOCK_RECORD
  5
29
100
AcDbSymbolTableRecord
100
AcDbBlockTableRecord
  2
*D8
340
0
  0
BLOCK_RECORD
  5
2A
100
AcDbSymbolTableRecord
100
AcDbBlockTableRecord
  2
*D9
340
0
  0
BLOCK_RECORD
  5
2B
100
AcDbSymbolTableRecord
100
AcDbBlockTableRecord
  2
*D10
340
0
  0
BLOCK_RECORD
  5
2C
100
AcDbSymbolTableRecord
100
AcDbBlockTableRecord
  2
*D11
340
0
  0
BLOCK_RECORD
  5
2D
100
AcDbSymbolTableRecord
100
AcDbBlockTableRecord
  2
*D12
340
0
  0
BLOCK_RECORD
  5
2E
100
AcDbSymbolTableRecord
100
AcDbBlockTableRecord
  2
*D13
340
0
  0
BLOCK_RECORD
  5
2F
100
AcDbSymbolTableRecord
100
AcDbBlockTableRecord
  2
*D14
340
0
  0
BLOCK_RECORD
  5
30
100
AcDbSymbolTableRecord
100
AcDbBlockTableRecord
  2
*D15
340
0
  0
BLOCK_RECORD
  5
31
100
AcDbSymbolTableRecord
100
AcDbBlockTableRecord
  2
*D16
340
0
  0
BLOCK_RECORD
  5
32
100
AcDbSymbolTableRecord
100
AcDbBlockTableRecord
  2
*D17
340
0
  0
BLOCK_RECORD
  5
33
100
AcDbSymbolTableRecord
100
AcDbBlockTableRecord
  2
*D18
340
0
  0
BLOCK_RECORD
  5
34
100
AcDbSymbolTableRecord
100
AcDbBlockTableRecord
  2
*D19
340
0
  0
BLOCK_RECORD
  5
35
100
AcDbSymbolTableRecord
100
AcDbBlockTableRecord
  2
*D20
340
0
  0
BLOCK_RECORD
  5
36
100
AcDbSymbolTableRecord
100
AcDbBlockTableRecord
  2
*D21
340
0
  0
BLOCK_RECORD
  5
37
100
AcDbSymbolTableRecord
100
AcDbBlockTableRecord
  2
*D22
340
0
  0
ENDTAB
  0
ENDSEC
  0
SECTION
  2
BLOCKS
  0
BLOCK
  5
D
100
AcDbEntity
  8
0
390
0
100
AcDbBlockBegin
  2
*MODEL_SPACE
 70
               0
 10
0.0
 20
0.0
 30
0.0
  3
*MODEL_SPACE
  1

  0
ENDBLK
  5
E
100
AcDbEntity
  8
0
390
0
100
AcDbBlockEnd
  0
BLOCK
  5
F
100
AcDbEntity
 67
               1
  8
0
390
0
100
AcDbBlockBegin
  2
*PAPER_SPACE
 70
               0
 10
0.0
 20
0.0
 30
0.0
  3
*PAPER_SPACE
  1

  0
ENDBLK
  5
10
100
AcDbEntity
 67
               1
  8
0
390
0
100
AcDbBlockEnd
  0
BLOCK
  5
4B
100
AcDbEntity
  8
0
390
0
100
AcDbBlockBegin
  2
_DOT
 70
               0
 10
0.0
 20
0.0
 30
0.0
  3
_DOT
  1

  0
POLYLINE
  5
4C
100
AcDbEntity
  8
0
370
              -2
390
0
  6
ByBlock
 62
               0
100
AcDb2dPolyline
 66
               1
 10
0.0
 20
0.0
 30
0.0
 70
               1
 40
0.5
 41
0.5
  0
VERTEX
  5
4D
100
AcDbEntity
  8
0
370
              -2
390
0
  6
ByBlock
 62
               0
100
AcDbVertex
100
AcDb2dVertex
 10
-0.25
 20
0.0
 30
0.0
 42
1.0
  0
VERTEX
  5
4E
100
AcDbEntity
  8
0
370
              -2
390
0
  6
ByBlock
 62
               0
100
AcDbVertex
100
AcDb2dVertex
 10
0.25
 20
0.0
 30
0.0
 42
1.0
  0
SEQEND
  5
4F
100
AcDbEntity
  8
0
390
0
  0
LINE
  5
50
100
AcDbEntity
  8
0
370
              -2
390
0
  6
ByBlock
 62
               0
100
AcDbLine
 10
-0.5
 20
0.0
 30
0.0
 11
-1.0
 21
0.0
 31
0.0
  0
ENDBLK
  5
51
100
AcDbEntity
  8
0
390
0
100
AcDbBlockEnd
  0
BLOCK
  5
54
100
AcDbEntity
  8
0
370
              -2
390
0
  6
ByBlock
 62
               0
100
AcDbBlockBegin
  2
VW_FILLEDARROW
 70
               0
 10
0.0
 20
0.0
 30
0.0
  3
VW_FILLEDARROW
  1

  0
SOLID
  5
55
100
AcDbEntity
  8
0
370
              -2
390
0
 62
               0
100
AcDbTrace
 10
0.0
 20
0.0
 30
0.0
 11
-0.9921874999999999
 21
-0.2658558393652545
 31
0.0
 12
-0.9921874999999999
 22
0.2658558393652548
 32
0.0
 13
-0.9921874999999999
 23
0.2658558393652548
 33
0.0
  0
ENDBLK
  5
56
100
AcDbEntity
  8
0
390
0
100
AcDbBlockEnd
  0
BLOCK
  5
58
100
AcDbEntity
  8
template
390
0
100
AcDbBlockBegin
  2
グループ
 70
               0
 10
0.0
 20
0.0
 30
0.0
  3
グループ
  1

  0
LWPOLYLINE
  5
59
100
AcDbEntity
  8
0
370
              15
390
0
  6
Continuous
 62
               7
100
AcDbPolyline
 90
        8
 70
             129
 10
-4286.0706434019612
 20
-2384.2600773090094
 10
-4286.0706434019612
 20
-2390.2574660025853
 10
-4295.5718403199626
 20
-2390.2574660025853
 10
-4295.5718403199626
 20
-2414.7084292660938
 10
-4303.9272175817459
 20
-2414.7084292660938
 10
-4303.9272175817459
 20
-2390.2574660025853
 10
-4313.2601745280554
 20
-2390.2574660025853
 10
-4313.2601745280554
 20
-2384.2600773090094
  0
LWPOLYLINE
  5
5A
100
AcDbEntity
  8
0
370
              15
390
0
  6
Continuous
 62
               7
100
AcDbPolyline
 90
      101
 70
             128
 10
-4273.3423515714039
 20
-2384.9883258019458
 10
-4273.3270015426151
 20
-2384.9839650452595
 42
-0.0222221607808429
 10
-4273.0369969659469
 20
-2384.9153405800162
 10
-4273.0212032019563
 20
-2384.9123371569199
 42
-0.0146883565593104
 10
-4272.7585004967295
 20
-2384.8703339699696
 42
-0.012745884417893
 10
-4272.4938615295841
 20
-2384.8427970018979
 10
-4272.4314064512637
 20
-2384.8379035793091
 42
-0.0198099018544427
 10
-4272.0405573417802
 20
-2384.8228184219124
 10
-4271.9887458723424
 20
-2384.8228721975775
 42
-0.0147617382762258
 10
-4271.4941224113654
 20
-2384.8379922228228
 10
-4271.4214309564913
 20
-2384.8423648297103
 42
-0.016262454902559
 10
-4271.0312773270298
 20
-2384.8785977049824
 10
-4270.909744935776
 20
-2384.8938842639786
 42
-0.0080020874644201
 10
-4270.7641659046785
 20
-2384.9145671112474
 10
-4270.725846434053
 20
-2384.9206383890632
 42
-0.0053821929667499
 10
-4270.6573623287677
 20
-2384.9322459128798
 10
-4271.3837680279667
 20
-2387.1131743685937
 42
0.0108667757369358
 10
-4271.4510850980878
 20
-2387.0999872533757
 10
-4271.4885531212876
 20
-2387.0934895107794
 42
0.0170663203315144
 10
-4271.631769908201
 20
-2387.073659913488
 10
-4271.6996452408857
 20
-2387.0666127429004
 42
0.0220162375273509
 10
-4271.9800246487384
 20
-2387.0499303821307
 10
-4272.0578802157952
 20
-2387.0487310148637
 42
0.028260691578427
 10
-4272.3935165393714
 20
-2387.0625342918329
 10
-4272.4374298131479
 20
-2387.0668342818367
 42
0.0169677213715848
 10
-4272.683354308102
 20
-2387.0993713313883
 42
0.019057626987037
 10
-4272.9262622706783
 20
-2387.1495182034937
 10
-4272.9325214587934
 20
-2387.1510611776039
 42
0.0213685642870076
 10
-4273.1829059432775
 20
-2387.2242614627107
 10
-4273.1883958381877
 20
-2387.226124458768
 42
0.0237595297576253
 10
-4273.4418907230847
 20
-2387.3258089806636
 10
-4273.4469927971149
 20
-2387.3281007561418
 42
0.0261857468818277
 10
-4273.6991635733457
 20
-2387.4576370935165
 10
-4273.7095897624313
 20
-2387.463702567984
 42
0.0272553062032831
 10
-4273.9460195376714
 20
-2387.6190747739292
 10
-4273.9807825511834
 20
-2387.6447359220233
 42
0.0325996893185379
 10
-4274.1309378948326
 20
-2387.7714837949925
 10
-4274.1546473239605
 20
-2387.7943018235105
 42
0.0138050960682479
 10
-4274.2465304801653
 20
-2387.8877514850569
 42
0.0125280103793432
 10
-4274.3333730130007
 20
-2387.9859148116598
 10
-4274.3570534579067
 20
-2388.0140733098442
 42
0.0205218024704543
 10
-4274.4821535334167
 20
-2388.1758666240694
 10
-4274.5046198739074
 20
-2388.2075263539004
 42
0.0163110129585738
 10
-4274.6603302531612
 20
-2388.4428567889731
 10
-4274.6630541492104
 20
-2388.4472805509558
 42
0.0131897341898557
 10
-4274.8098546701149
 20
-2388.7004126433171
 10
-4274.8115547654834
 20
-2388.7035308824561
 42
0.0107895576079817
 10
-4274.9493314677011
 20
-2388.9697460921047
 10
-4274.9500643572192
 20
-2388.9712403247377
 42
0.0091371507201843
 10
-4275.0785443058612
 20
-2389.2457655224812
 10
-4275.1082899372777
 20
-2389.3124720296564
 42
0.0135418326348765
 10
-4275.2800038763444
 20
-2389.7274098149123
 10
-4275.3136086847917
 20
-2389.8152759572276
 42
0.0092834542415477
 10
-4275.4848377447042
 20
-2390.2891744555118
 10
-4275.5104548724285
 20
-2390.3644155253246
 42
0.0054261043590943
 10
-4275.6180930207147
 20
-2390.69217949837
 10
-4275.6356190069264
 20
-2390.7475676607087
 42
0.0008225090840214
 10
-4275.7042890587218
 20
-2390.9658364187489
 10
-4276.6889781906557
 20
-2393.9907277120055
 10
-4273.456354350581
 20
-2393.9907277120055
 10
-4273.960546780434
 20
-2395.8952060103584
 10
-4277.2166030624194
 20
-2395.8952060103584
 10
-4283.045752094773
 20
-2414.7084290763632
 10
-4284.8708497050829
 20
-2414.7084290763632
 10
-4279.0361716695825
 20
-2395.8952060103584
 10
-4281.4412880386208
 20
-2395.8952060103584
 10
-4280.9370956087678
 20
-2393.9907277120055
 10
-4278.5085467978188
 20
-2393.9907277120055
 10
-4277.6483918796312
 20
-2391.3543147113069
 42
-0.0005863560621387
 10
-4277.6116572015626
 20
-2391.2374882914501
 10
-4277.5355693677657
 20
-2390.9964959916297
 42
-0.0087522378924361
 10
-4277.3361012243022
 20
-2390.4012199044637
 10
-4277.2438369489055
 20
-2390.1410797359999
 42
-0.0077400953831961
 10
-4276.9859032897639
 20
-2389.4480750584216
 10
-4276.9701383181782
 20
-2389.4076441750176
 42
-0.0082369946328765
 10
-4276.7230538475733
 20
-2388.8035651088403
 42
-0.0085725238359396
 10
-4276.4558077515658
 20
-2388.2081390695416
 10
-4276.3541781505628
 20
-2387.9917179675667
 42
-0.0168109410591751
 10
-4276.0672337218339
 20
-2387.4305104414634
 10
-4275.9413903315253
 20
-2387.2035464087376
 42
-0.000781772689282
 10
-4275.8871059813182
 20
-2387.1060021634348
 10
-4275.8869776753063
 20
-2387.1057724547072
 42
-0.0036626142130277
 10
-4275.8320898112788
 20
-2387.00917457473
 42
-0.0080221150647044
 10
-4275.774965555881
 20
-2386.9138953399915
 10
-4275.7442656045114
 20
-2386.864504390855
 42
-0.0202139325610713
 10
-4275.6166098647145
 20
-2386.6765227901869
 10
-4275.562542399517
 20
-2386.6034439259329
 42
-0.0249323791795953
 10
-4275.3033796057935
 20
-2386.2873986837744
 10
-4275.279239791671
 20
-2386.2607844108661
 42
-0.0242132121558262
 10
-4274.9395590501326
 20
-2385.9209009246647
 10
-4274.8916474773832
 20
-2385.8773917884796
 42
-0.0251017527850964
 10
-4274.6076657767371
 20
-2385.644399042711
 10
-4274.6062202999137
 20
-2385.6433297851249
 42
-0.0130868069035706
 10
-4274.3079596499665
 20
-2385.4345493165897
 10
-4274.3063978308273
 20
-2385.433515876317
 42
-0.0290329526402799
 10
-4273.9952866894309
 20
-2385.2526903746857
 10
-4273.9654411274432
 20
-2385.2375879918454
 42
-0.0160250190031322
 10
-4273.6995367136797
 20
-2385.1135718816322
 42
-0.0267600374785216
 10
-4273.4242606362095
 20
-2385.0128235610832
 10
-4273.3975247166909
 20
-2385.0046310022581
 42
-0.0049981587553592
 10
-4273.3423515714039
 20
-2384.9883258019458
 42
-0.0049981587553592
  0
LWPOLYLINE
  5
5B
100
AcDbEntity
  8
0
370
              15
390
0
  6
Continuous
 62
               7
100
AcDbPolyline
 90
      118
 70
             128
 10
-4253.5279840069561
 20
-2394.0647110398331
 10
-4251.6528620824556
 20
-2394.0647110398331
 10
-4252.4909009880557
 20
-2396.7462775662334
 42
-0.0010587229265624
 10
-4252.4594451724388
 20
-2396.7093730328247
 10
-4252.401251081852
 20
-2396.6413907767019
 42
-0.0071874740392362
 10
-4252.2508758637559
 20
-2396.4707500846753
 10
-4252.1091530904923
 20
-2396.31451394336
 42
-0.0148118053516316
 10
-4251.6590237977762
 20
-2395.8469000973428
 10
-4251.5718014628765
 20
-2395.7615027764909
 42
-0.0086273358699822
 10
-4251.2362526618699
 20
-2395.4441271424766
 10
-4251.1924189456349
 20
-2395.4040774981358
 42
-0.0103138323113336
 10
-4250.9343952434101
 20
-2395.1779143608055
 10
-4250.8886208370841
 20
-2395.139432313546
 42
-0.006020674859671
 10
-4250.7157727729709
 20
-2394.997637662791
 10
-4250.7137416420728
 20
-2394.9960119571501
 42
-0.0067069027297091
 10
-4250.5414488274218
 20
-2394.8618613233648
 10
-4250.5389000614923
 20
-2394.8599311534867
 42
-0.0076184352067736
 10
-4250.3679947956243
 20
-2394.7345562782457
 42
-0.0089652861685569
 10
-4250.1930338329039
 20
-2394.6149230179217
 10
-4250.1566821127399
 20
-2394.5910118044262
 42
-0.0156916245935132
 10
-4249.9607226155858
 20
-2394.4707493179558
 42
-0.0023299011070557
 10
-4249.7604605716815
 20
-2394.3575713784576
 10
-4249.7450764392252
 20
-2394.3489713833501
 42
-0.0107669341458237
 10
-4249.5108396141168
 20
-2394.2245712499966
 10
-4249.4885748130491
 20
-2394.2133545000506
 42
-0.0078058045890875
 10
-4249.2049846950895
 20
-2394.0759930444083
 10
-4249.1950776073882
 20
-2394.0713839165437
 42
-0.0181829330472293
 10
-4248.8847682027736
 20
-2393.9405201754485
 10
-4248.8307127602038
 20
-2393.9200050555041
 42
-0.0208411536024282
 10
-4248.4816277927548
 20
-2393.8039145930115
 10
-4248.4672716926316
 20
-2393.7997961480592
 42
-0.0222799817120341
 10
-4248.1385518987108
 20
-2393.7211545819173
 10
-4248.1296629354747
 20
-2393.7194425713324
 42
-0.0215509523891503
 10
-4247.8131919671932
 20
-2393.6725268827981
 10
-4247.7707100061471
 20
-2393.6680893560078
 42
-0.0182545924882573
 10
-4247.5366012268387
 20
-2393.6522455306167
 10
-4247.4972002105105
 20
-2393.6510209855378
 42
-0.0072962856517668
 10
-4247.3412773308028
 20
-2393.6484516570154
 10
-4247.3121776602065
 20
-2393.6483968216116
 42
-0.0059227516340634
 10
-4247.2144281610854
 20
-2393.6493705334019
 10
-4247.1851859437093
 20
-2393.6500083000033
 42
-0.0011833111830958
 10
-4247.1459346598804
 20
-2393.6509573043149
 10
-4247.9413212554882
 20
-2396.189691249414
 42
0.0143932051453839
 10
-4247.9677226378371
 20
-2396.1794922793692
 10
-4247.9749946102556
 20
-2396.1769210605116
 42
0.0234388603615459
 10
-4248.0168254761866
 20
-2396.1643018247964
 10
-4248.0255071391002
 20
-2396.1621208627912
 42
0.0199162742913249
 10
-4248.0857959731802
 20
-2396.1495041274561
 10
-4248.1066099109867
 20
-2396.1460069280279
 42
0.0293643550720879
 10
-4248.2096847697503
 20
-2396.1348568823746
 10
-4248.2343699504663
 20
-2396.1336452653559
 42
0.0214606686861748
 10
-4248.3875108664206
 20
-2396.1327067049383
 10
-4248.3968827772369
 20
-2396.1330516164826
 42
0.0167564054169404
 10
-4248.568402968338
 20
-2396.1451286588499
 10
-4248.5768627611042
 20
-2396.1460099992778
 42
0.0137677553229795
 10
-4248.7642160743744
 20
-2396.1707593078222
 10
-4248.7715678138766
 20
-2396.1719372277894
 42
0.011849726147919
 10
-4248.9720655779756
 20
-2396.2089545779777
 10
-4248.9782155852254
 20
-2396.2102414406986
 42
0.010642114386553
 10
-4249.1890964725189
 20
-2396.2590738162753
 10
-4249.1940052808995
 20
-2396.2603211589585
 42
0.0099746379706711
 10
-4249.4124637500636
 20
-2396.3204956872737
 10
-4249.474011790232
 20
-2396.3387775659039
 42
0.0191613675854786
 10
-4249.809996252744
 20
-2396.4527549461891
 10
-4249.898056025495
 20
-2396.4864418565153
 42
0.0205274080153995
 10
-4250.2833627973941
 20
-2396.6522702643415
 10
-4250.3410120793696
 20
-2396.6799382289109
 42
0.0181256912177768
 10
-4250.5992890200432
 20
-2396.8156220478918
 10
-4250.6522444033662
 20
-2396.8459396611115
 42
0.0140709242426286
 10
-4250.7971993379861
 20
-2396.934434334541
 10
-4250.8234482066073
 20
-2396.9514911532583
 42
0.0086667884372498
 10
-4250.9123743681466
 20
-2397.0114938211391
 42
0.0036408192022961
 10
-4250.9998076061793
 20
-2397.0736746789307
 10
-4251.0350344806484
 20
-2397.0991156248442
 42
0.0052260781256851
 10
-4251.1912631780369
 20
-2397.2144480114766
 10
-4251.2074700342991
 20
-2397.2266761220967
 42
0.0050024435873609
 10
-4251.3934733773403
 20
-2397.3699586903449
 10
-4251.4087915338732
 20
-2397.3820047128047
 42
0.0136138710271542
 10
-4251.6192328021971
 20
-2397.5569712177166
 10
-4251.652900677992
 20
-2397.5865501904323
 42
0.0172815186922741
 10
-4251.9173042196626
 20
-2397.8355468630634
 10
-4251.9198665654976
 20
-2397.8381326802028
 42
0.0189403857998382
 10
-4252.1704483640706
 20
-2398.1109379449999
 10
-4252.2030798576052
 20
-2398.1492818764955
 42
0.0185044199487015
 10
-4252.3950362965916
 20
-2398.3925304576269
 42
0.0088565243889437
 10
-4252.5734964032226
 20
-2398.6460468777796
 10
-4252.5826743828693
 20
-2398.6595882575371
 42
0.0157195347244399
 10
-4252.7658949892048
 20
-2398.9491104668537
 10
-4252.8119779311337
 20
-2399.027262663873
 42
0.0095451879790214
 10
-4252.9770634812712
 20
-2399.31985730623
 10
-4252.9882114002066
 20
-2399.3405279783738
 42
0.0100351706233344
 10
-4253.1202551493607
 20
-2399.5975835388526
 42
0.0086935915445445
 10
-4253.2425863011495
 20
-2399.8594166842445
 10
-4253.2459070425703
 20
-2399.8668590072293
 42
0.0072580174869968
 10
-4253.3662534945033
 20
-2400.1474509987838
 10
-4253.3695151278207
 20
-2400.1553710248299
 42
0.0060005122599587
 10
-4253.4887157961803
 20
-2400.4549806954806
 10
-4253.4919267745045
 20
-2400.4633422233401
 42
0.0049017786987166
 10
-4253.6108269333645
 20
-2400.7822712039506
 10
-4253.6139927397526
 20
-2400.7910241411746
 42
0.0039415167606966
 10
-4253.7334290178369
 20
-2401.1295662036678
 10
-4253.7365601204619
 20
-2401.1386694044641
 42
0.0031035838779095
 10
-4253.8573649061327
 20
-2401.4971092661722
 10
-4253.8604749506849
 20
-2401.5065298876125
 42
0.0025070747140862
 10
-4253.9833763020124
 20
-2401.8851771045975
 10
-4254.0206701984253
 20
-2402.0020687698093
 42
0.002908191028746
 10
-4254.2126884962354
 20
-2402.6162324280945
 10
-4254.2534916647537
 20
-2402.7494556703768
 42
0.0009266453736833
 10
-4254.5219090390719
 20
-2403.6316801303146
 10
-4254.5427965116696
 20
-2403.700792009407
 42
-0.0005809993671682
 10
-4254.8201331922992
 20
-2404.6146001161751
 10
-4254.886414990593
 20
-2404.8320850484015
 42
-0.0012018708180965
 10
-4255.0333993000022
 20
-2405.3102477128559
 10
-4255.0857191515852
 20
-2405.4790068537777
 42
-0.0002691059583186
 10
-4255.1292886327374
 20
-2405.6192744740633
 10
-4257.9622445310251
 20
-2414.7084290763632
 10
-4259.7802334230037
 20
-2414.7084290763632
 10
-4253.5279840069561
 20
-2394.0647110398331
  0
SPLINE
  5
5C
100
AcDbEntity
  8
0
370
              15
390
0
  6
Continuous
 62
               7
100
AcDbSpline
210
0.0
220
0.0
230
1.0
 70
              13
 71
               2
 72
             782
 73
             779
 74
               0
 42
0.000001
 43
0.000001
 40
0.0
 40
0.0
 40
0.0
 40
1.0
 40
1.0
 40
2.0
 40
2.0
 40
3.0
 40
3.0
 40
4.0
 40
4.0
 40
5.0
 40
5.0
 40
6.0
 40
6.0
 40
7.0
 40
7.0
 40
8.0
 40
8.0
 40
9.0
 40
9.0
 40
10.0
 40
10.0
 40
11.0
 40
11.0
 40
12.0
 40
12.0
 40
13.0
 40
13.0
 40
14.0
 40
14.0
 40
15.0
 40
15.0
 40
16.0
 40
16.0
 40
17.0
 40
17.0
 40
18.0
 40
18.0
 40
19.0
 40
19.0
 40
20.0
 40
20.0
 40
21.0
 40
21.0
 40
22.0
 40
22.0
 40
23.0
 40
23.0
 40
24.0
 40
24.0
 40
25.0
 40
25.0
 40
26.0
 40
26.0
 40
27.0
 40
27.0
 40
28.0
 40
28.0
 40
29.0
 40
29.0
 40
30.0
 40
30.0
 40
31.0
 40
31.0
 40
32.0
 40
32.0
 40
33.0
 40
33.0
 40
34.0
 40
34.0
 40
35.0
 40
35.0
 40
36.0
 40
36.0
 40
37.0
 40
37.0
 40
38.0
 40
38.0
 40
39.0
 40
39.0
 40
40.0
 40
40.0
 40
41.0
 40
41.0
 40
42.0
 40
42.0
 40
43.0
 40
43.0
 40
44.0
 40
44.0
 40
45.0
 40
45.0
 40
46.0
 40
46.0
 40
47.0
 40
47.0
 40
48.0
 40
48.0
 40
49.0
 40
49.0
 40
50.0
 40
50.0
 40
51.0
 40
51.0
 40
52.0
 40
52.0
 40
53.0
 40
53.0
 40
54.0
 40
54.0
 40
55.0
 40
55.0
 40
56.0
 40
56.0
 40
57.0
 40
57.0
 40
58.0
 40
58.0
 40
59.0
 40
59.0
 40
60.0
 40
60.0
 40
61.0
 40
61.0
 40
62.0
 40
62.0
 40
63.0
 40
63.0
 40
64.0
 40
64.0
 40
65.0
 40
65.0
 40
66.0
 40
66.0
 40
67.0
 40
67.0
 40
68.0
 40
68.0
 40
69.0
 40
69.0
 40
70.0
 40
70.0
 40
71.0
 40
71.0
 40
72.0
 40
72.0
 40
73.0
 40
73.0
 40
74.0
 40
74.0
 40
75.0
 40
75.0
 40
76.0
 40
76.0
 40
77.0
 40
77.0
 40
78.0
 40
78.0
 40
79.0
 40
79.0
 40
80.0
 40
80.0
 40
81.0
 40
81.0
 40
82.0
 40
82.0
 40
83.0
 40
83.0
 40
84.0
 40
84.0
 40
85.0
 40
85.0
 40
86.0
 40
86.0
 40
87.0
 40
87.0
 40
88.0
 40
88.0
 40
89.0
 40
89.0
 40
90.0
 40
90.0
 40
91.0
 40
91.0
 40
92.0
 40
92.0
 40
93.0
 40
93.0
 40
94.0
 40
94.0
 40
95.0
 40
95.0
 40
96.0
 40
96.0
 40
97.0
 40
97.0
 40
98.0
 40
98.0
 40
99.0
 40
99.0
 40
100.0
 40
100.0
 40
101.0
 40
101.0
 40
102.0
 40
102.0
 40
103.0
 40
103.0
 40
104.0
 40
104.0
 40
105.0
 40
105.0
 40
106.0
 40
106.0
 40
107.0
 40
107.0
 40
108.0
 40
108.0
 40
109.0
 40
109.0
 40
110.0
 40
110.0
 40
111.0
 40
111.0
 40
112.0
 40
112.0
 40
113.0
 40
113.0
 40
114.0
 40
114.0
 40
115.0
 40
115.0
 40
116.0
 40
116.0
 40
117.0
 40
117.0
 40
118.0
 40
118.0
 40
119.0
 40
119.0
 40
120.0
 40
120.0
 40
121.0
 40
121.0
 40
122.0
 40
122.0
 40
123.0
 40
123.0
 40
124.0
 40
124.0
 40
125.0
 40
125.0
 40
126.0
 40
126.0
 40
127.0
 40
127.0
 40
128.0
 40
128.0
 40
129.0
 40
129.0
 40
130.0
 40
130.0
 40
131.0
 40
131.0
 40
132.0
 40
132.0
 40
133.0
 40
133.0
 40
134.0
 40
134.0
 40
135.0
 40
135.0
 40
136.0
 40
136.0
 40
137.0
 40
137.0
 40
138.0
 40
138.0
 40
139.0
 40
139.0
 40
140.0
 40
140.0
 40
141.0
 40
141.0
 40
142.0
 40
142.0
 40
143.0
 40
143.0
 40
144.0
 40
144.0
 40
145.0
 40
145.0
 40
146.0
 40
146.0
 40
147.0
 40
147.0
 40
148.0
 40
148.0
 40
149.0
 40
149.0
 40
150.0
 40
150.0
 40
151.0
 40
151.0
 40
152.0
 40
152.0
 40
153.0
 40
153.0
 40
154.0
 40
154.0
 40
155.0
 40
155.0
 40
156.0
 40
156.0
 40
157.0
 40
157.0
 40
158.0
 40
158.0
 40
159.0
 40
159.0
 40
160.0
 40
160.0
 40
161.0
 40
161.0
 40
162.0
 40
162.0
 40
163.0
 40
163.0
 40
164.0
 40
164.0
 40
165.0
 40
165.0
 40
166.0
 40
166.0
 40
167.0
 40
167.0
 40
168.0
 40
168.0
 40
169.0
 40
169.0
 40
170.0
 40
170.0
 40
171.0
 40
171.0
 40
172.0
 40
172.0
 40
173.0
 40
173.0
 40
174.0
 40
174.0
 40
175.0
 40
175.0
 40
176.0
 40
176.0
 40
177.0
 40
177.0
 40
178.0
 40
178.0
 40
179.0
 40
179.0
 40
180.0
 40
180.0
 40
181.0
 40
181.0
 40
182.0
 40
182.0
 40
183.0
 40
183.0
 40
184.0
 40
184.0
 40
185.0
 40
185.0
 40
186.0
 40
186.0
 40
187.0
 40
187.0
 40
188.0
 40
188.0
 40
189.0
 40
189.0
 40
190.0
 40
190.0
 40
191.0
 40
191.0
 40
192.0
 40
192.0
 40
193.0
 40
193.0
 40
194.0
 40
194.0
 40
195.0
 40
195.0
 40
196.0
 40
196.0
 40
197.0
 40
197.0
 40
198.0
 40
198.0
 40
199.0
 40
199.0
 40
200.0
 40
200.0
 40
201.0
 40
201.0
 40
202.0
 40
202.0
 40
203.0
 40
203.0
 40
204.0
 40
204.0
 40
205.0
 40
205.0
 40
206.0
 40
206.0
 40
207.0
 40
207.0
 40
208.0
 40
208.0
 40
209.0
 40
209.0
 40
210.0
 40
210.0
 40
211.0
 40
211.0
 40
212.0
 40
212.0
 40
213.0
 40
213.0
 40
214.0
 40
214.0
 40
215.0
 40
215.0
 40
216.0
 40
216.0
 40
217.0
 40
217.0
 40
218.0
 40
218.0
 40
219.0
 40
219.0
 40
220.0
 40
220.0
 40
221.0
 40
221.0
 40
222.0
 40
222.0
 40
223.0
 40
223.0
 40
224.0
 40
224.0
 40
225.0
 40
225.0
 40
226.0
 40
226.0
 40
227.0
 40
227.0
 40
228.0
 40
228.0
 40
229.0
 40
229.0
 40
230.0
 40
230.0
 40
231.0
 40
231.0
 40
232.0
 40
232.0
 40
233.0
 40
233.0
 40
234.0
 40
234.0
 40
235.0
 40
235.0
 40
236.0
 40
236.0
 40
237.0
 40
237.0
 40
238.0
 40
238.0
 40
239.0
 40
239.0
 40
240.0
 40
240.0
 40
241.0
 40
241.0
 40
242.0
 40
242.0
 40
243.0
 40
243.0
 40
244.0
 40
244.0
 40
245.0
 40
245.0
 40
246.0
 40
246.0
 40
247.0
 40
247.0
 40
248.0
 40
248.0
 40
249.0
 40
249.0
 40
250.0
 40
250.0
 40
251.0
 40
251.0
 40
252.0
 40
252.0
 40
253.0
 40
253.0
 40
254.0
 40
254.0
 40
255.0
 40
255.0
 40
256.0
 40
256.0
 40
257.0
 40
257.0
 40
258.0
 40
258.0
 40
259.0
 40
259.0
 40
260.0
 40
260.0
 40
261.0
 40
261.0
 40
262.0
 40
262.0
 40
263.0
 40
263.0
 40
264.0
 40
264.0
 40
265.0
 40
265.0
 40
266.0
 40
266.0
 40
267.0
 40
267.0
 40
268.0
 40
268.0
 40
269.0
 40
269.0
 40
270.0
 40
270.0
 40
271.0
 40
271.0
 40
272.0
 40
272.0
 40
273.0
 40
273.0
 40
274.0
 40
274.0
 40
275.0
 40
275.0
 40
276.0
 40
276.0
 40
277.0
 40
277.0
 40
278.0
 40
278.0
 40
279.0
 40
279.0
 40
280.0
 40
280.0
 40
281.0
 40
281.0
 40
282.0
 40
282.0
 40
283.0
 40
283.0
 40
284.0
 40
284.0
 40
285.0
 40
285.0
 40
286.0
 40
286.0
 40
287.0
 40
287.0
 40
288.0
 40
288.0
 40
289.0
 40
289.0
 40
290.0
 40
290.0
 40
291.0
 40
291.0
 40
292.0
 40
292.0
 40
293.0
 40
293.0
 40
294.0
 40
294.0
 40
295.0
 40
295.0
 40
296.0
 40
296.0
 40
297.0
 40
297.0
 40
298.0
 40
298.0
 40
299.0
 40
299.0
 40
300.0
 40
300.0
 40
301.0
 40
301.0
 40
302.0
 40
302.0
 40
303.0
 40
303.0
 40
304.0
 40
304.0
 40
305.0
 40
305.0
 40
306.0
 40
306.0
 40
307.0
 40
307.0
 40
308.0
 40
308.0
 40
309.0
 40
309.0
 40
310.0
 40
310.0
 40
311.0
 40
311.0
 40
312.0
 40
312.0
 40
313.0
 40
313.0
 40
314.0
 40
314.0
 40
315.0
 40
315.0
 40
316.0
 40
316.0
 40
317.0
 40
317.0
 40
318.0
 40
318.0
 40
319.0
 40
319.0
 40
320.0
 40
320.0
 40
321.0
 40
321.0
 40
322.0
 40
322.0
 40
323.0
 40
323.0
 40
324.0
 40
324.0
 40
325.0
 40
325.0
 40
326.0
 40
326.0
 40
327.0
 40
327.0
 40
328.0
 40
328.0
 40
329.0
 40
329.0
 40
330.0
 40
330.0
 40
331.0
 40
331.0
 40
332.0
 40
332.0
 40
333.0
 40
333.0
 40
334.0
 40
334.0
 40
335.0
 40
335.0
 40
336.0
 40
336.0
 40
337.0
 40
337.0
 40
338.0
 40
338.0
 40
339.0
 40
339.0
 40
340.0
 40
340.0
 40
341.0
 40
341.0
 40
342.0
 40
342.0
 40
343.0
 40
343.0
 40
344.0
 40
344.0
 40
345.0
 40
345.0
 40
346.0
 40
346.0
 40
347.0
 40
347.0
 40
348.0
 40
348.0
 40
349.0
 40
349.0
 40
350.0
 40
350.0
 40
351.0
 40
351.0
 40
352.0
 40
352.0
 40
353.0
 40
353.0
 40
354.0
 40
354.0
 40
355.0
 40
355.0
 40
356.0
 40
356.0
 40
357.0
 40
357.0
 40
358.0
 40
358.0
 40
359.0
 40
359.0
 40
360.0
 40
360.0
 40
361.0
 40
361.0
 40
362.0
 40
362.0
 40
363.0
 40
363.0
 40
364.0
 40
364.0
 40
365.0
 40
365.0
 40
366.0
 40
366.0
 40
367.0
 40
367.0
 40
368.0
 40
368.0
 40
369.0
 40
369.0
 40
370.0
 40
370.0
 40
371.0
 40
371.0
 40
372.0
 40
372.0
 40
373.0
 40
373.0
 40
374.0
 40
374.0
 40
375.0
 40
375.0
 40
376.0
 40
376.0
 40
377.0
 40
377.0
 40
378.0
 40
378.0
 40
379.0
 40
379.0
 40
380.0
 40
380.0
 40
381.0
 40
381.0
 40
382.0
 40
382.0
 40
383.0
 40
383.0
 40
384.0
 40
384.0
 40
385.0
 40
385.0
 40
386.0
 40
386.0
 40
387.0
 40
387.0
 40
388.0
 40
388.0
 40
389.0
 40
389.0
 40
389.0
 10
-4243.1992795562237
 20
-2394.053784676471
 30
0.0
 41
1.0
 10
-4242.3808554475036
 20
-2394.053784676471
 30
0.0
 41
1.0
 10
-4241.5624313387834
 20
-2394.053784676471
 30
0.0
 41
1.0
 10
-4241.9761850742998
 20
-2395.3964109407207
 30
0.0
 41
1.0
 10
-4242.3899388098162
 20
-2396.7390372049704
 30
0.0
 41
1.0
 10
-4242.3715993147107
 20
-2396.7103364321547
 30
0.0
 41
0.9999957264327788
 10
-4242.353092317896
 20
-2396.6817433820293
 30
0.0
 41
1.0
 10
-4242.3226629937199
 20
-2396.6347305035924
 30
0.0
 41
1.0
 10
-4242.2922336695428
 20
-2396.5877176251561
 30
0.0
 41
1.0
 10
-4242.2128680244386
 20
-2396.4650988182566
 30
0.0
 41
0.9995394069082714
 10
-4242.1262096328892
 20
-2396.347520756517
 30
0.0
 41
1.0
 10
-4242.0904527706289
 20
-2396.2990058639234
 30
0.0
 41
1.0
 10
-4242.0546959083686
 20
-2396.2504909713293
 30
0.0
 41
1.0
 10
-4241.9209692405466
 20
-2396.069050696196
 30
0.0
 41
0.9994460617142728
 10
-4241.7754687592596
 20
-2395.8969082985477
 30
0.0
 41
1.0
 10
-4241.7710805782808
 20
-2395.89171661816
 30
0.0
 41
1.0
 10
-4241.7666923973011
 20
-2395.8865249377727
 30
0.0
 41
1.0
 10
-4241.6299682779672
 20
-2395.7247659008935
 30
0.0
 41
0.9994359394935263
 10
-4241.4826940476205
 20
-2395.5725496997334
 30
0.0
 41
1.0
 10
-4241.4803106936661
 20
-2395.5700863693592
 30
0.0
 41
1.0
 10
-4241.4779273397116
 20
-2395.5676230389845
 30
0.0
 41
1.0
 10
-4241.3354198172692
 20
-2395.4203334985682
 30
0.0
 41
0.9995293688567316
 10
-4241.1841481362862
 20
-2395.2820602864049
 30
0.0
 41
1.0
 10
-4241.1648543770225
 20
-2395.2644244007533
 30
0.0
 41
1.0
 10
-4241.1455606177587
 20
-2395.2467885151018
 30
0.0
 41
1.0
 10
-4241.0328764553014
 20
-2395.1437870742402
 30
0.0
 41
0.999708761480484
 10
-4240.9153535663481
 20
-2395.0463427934428
 30
0.0
 41
1.0
 10
-4240.8961874931738
 20
-2395.0304512149351
 30
0.0
 41
1.0
 10
-4240.8770214199985
 20
-2395.0145596364277
 30
0.0
 41
1.0
 10
-4240.7978306774085
 20
-2394.9488985126577
 30
0.0
 41
0.9999595338696371
 10
-4240.7174714065386
 20
-2394.88467278199
 30
0.0
 41
1.0
 10
-4240.6371121356933
 20
-2394.8204470513415
 30
0.0
 41
0.9999749417511531
 10
-4240.5558516013552
 20
-2394.7573654974003
 30
0.0
 41
1.0
 10
-4240.5348654551681
 20
-2394.7410742100792
 30
0.0
 41
1.0
 10
-4240.5138793089809
 20
-2394.7247829227585
 30
0.0
 41
1.0
 10
-4240.429311423718
 20
-2394.6591339129477
 30
0.0
 41
0.9999792037124519
 10
-4240.3439038239376
 20
-2394.5945811312959
 30
0.0
 41
1.0
 10
-4240.3230789979534
 20
-2394.5788413089831
 30
0.0
 41
1.0
 10
-4240.3022541719693
 20
-2394.5631014866703
 30
0.0
 41
1.0
 10
-4240.2584962239735
 20
-2394.5300283495048
 30
0.0
 41
0.9999993373979094
 10
-4240.2148145380252
 20
-2394.4968545542283
 30
0.0
 41
1.0
 10
-4240.1711328518641
 20
-2394.4636807587917
 30
0.0
 41
0.9999160953819445
 10
-4240.1266064409501
 20
-2394.4316496935971
 30
0.0
 41
1.0
 10
-4240.0937845535373
 20
-2394.4080385380166
 30
0.0
 41
1.0
 10
-4240.0609626661235
 20
-2394.3844273824361
 30
0.0
 41
1.0
 10
-4239.9507924803647
 20
-2394.3051740060682
 30
0.0
 41
0.9980964527232338
 10
-4239.8317034868696
 20
-2394.2400865332152
 30
0.0
 41
1.0
 10
-4239.7946708799382
 20
-2394.2198465536203
 30
0.0
 41
1.0
 10
-4239.7576382730067
 20
-2394.199606574025
 30
0.0
 41
1.0
 10
-4239.5783112597337
 20
-2394.1015963233244
 30
0.0
 41
0.9984572810573739
 10
-4239.3892226933758
 20
-2394.0240740619784
 30
0.0
 41
1.0
 10
-4239.3855764239797
 20
-2394.0225791696403
 30
0.0
 41
1.0
 10
-4239.3819301545846
 20
-2394.0210842773026
 30
0.0
 41
1.0
 10
-4239.2001341270179
 20
-2393.9465518006314
 30
0.0
 41
0.9987838528032529
 10
-4239.0118814684574
 20
-2393.8902861604661
 30
0.0
 41
1.0
 10
-4239.0076435192586
 20
-2393.8890195067761
 30
0.0
 41
1.0
 10
-4239.0034055700598
 20
-2393.8877528530857
 30
0.0
 41
1.0
 10
-4238.8236288099033
 20
-2393.8340205203008
 30
0.0
 41
0.9990652816205651
 10
-4238.6398828781821
 20
-2393.7960168407585
 30
0.0
 41
1.0
 10
-4238.6346944771485
 20
-2393.7949437376515
 30
0.0
 41
1.0
 10
-4238.629506076114
 20
-2393.7938706345444
 30
0.0
 41
1.0
 10
-4238.45613694647
 20
-2393.7580131612171
 30
0.0
 41
0.9992909934270543
 10
-4238.2805611800086
 20
-2393.73530272875
 30
0.0
 41
1.0
 10
-4238.1049854135535
 20
-2393.7125922962832
 30
0.0
 41
0.9994553539448137
 10
-4237.9282939804616
 20
-2393.7015129920774
 30
0.0
 41
1.0
 10
-4237.8928595726611
 20
-2393.6992911040293
 30
0.0
 41
1.0
 10
-4237.8574251648615
 20
-2393.6970692159812
 30
0.0
 41
1.0
 10
-4237.6911993982894
 20
-2393.6866461535706
 30
0.0
 41
0.999092809829549
 10
-4237.5246896063936
 20
-2393.6904057948045
 30
0.0
 41
1.0
 10
-4237.4861277711298
 20
-2393.6912764863373
 30
0.0
 41
1.0
 10
-4237.4475659358668
 20
-2393.6921471778701
 30
0.0
 41
1.0
 10
-4237.3581798144996
 20
-2393.6941654360389
 30
0.0
 41
0.9998382089205884
 10
-4237.2689241317048
 20
-2393.6993975625669
 30
0.0
 41
1.0
 10
-4237.2684942254837
 20
-2393.6994227634696
 30
0.0
 41
1.0
 10
-4237.2680643192625
 20
-2393.6994479643718
 30
0.0
 41
1.0
 10
-4237.1796684489173
 20
-2393.7046296890949
 30
0.0
 41
0.9997558016757746
 10
-4237.0915878717178
 20
-2393.7137122044614
 30
0.0
 41
1.0
 10
-4237.0911117332871
 20
-2393.713761301944
 30
0.0
 41
1.0
 10
-4237.0906355948555
 20
-2393.7138103994271
 30
0.0
 41
1.0
 10
-4237.0035072945157
 20
-2393.7227947198289
 30
0.0
 41
0.9996565144183018
 10
-4236.9169694411748
 20
-2393.7363320265172
 30
0.0
 41
1.0
 10
-4236.9165035157994
 20
-2393.736404912248
 30
0.0
 41
1.0
 10
-4236.9160375904239
 20
-2393.7364777979792
 30
0.0
 41
1.0
 10
-4236.8304315878349
 20
-2393.7498693332059
 30
0.0
 41
0.9995321806867183
 10
-4236.7458045075045
 20
-2393.7684698216353
 30
0.0
 41
1.0
 10
-4236.7454153129347
 20
-2393.7685553641008
 30
0.0
 41
1.0
 10
-4236.7450261183649
 20
-2393.7686409065664
 30
0.0
 41
1.0
 10
-4236.6611774271787
 20
-2393.7870703100639
 30
0.0
 41
0.9993819199218302
 10
-4236.5788308929805
 20
-2393.8113456933252
 30
0.0
 41
1.0
 10
-4236.5785924594775
 20
-2393.8114159824363
 30
0.0
 41
1.0
 10
-4236.5783540259745
 20
-2393.811486271547
 30
0.0
 41
1.0
 10
-4236.4964843587795
 20
-2393.8356210765874
 30
0.0
 41
0.9992088568504468
 10
-4236.4167918397961
 20
-2393.8661863123803
 30
0.0
 41
1.0
 10
-4236.3371108489127
 20
-2393.8967459131154
 30
0.0
 41
0.9990226101773967
 10
-4236.2604401790104
 20
-2393.9342233447278
 30
0.0
 41
1.0
 10
-4236.1837810372144
 20
-2393.9716951412797
 30
0.0
 41
0.9988424273969486
 10
-4236.1110774100043
 20
-2394.0163599165326
 30
0.0
 41
1.0
 10
-4236.1108097016231
 20
-2394.0165243806059
 30
0.0
 41
1.0
 10
-4236.1105419932419
 20
-2394.0166888446793
 30
0.0
 41
1.0
 10
-4236.037302949273
 20
-2394.0616825480752
 30
0.0
 41
0.9986928844492661
 10
-4235.9690400825648
 20
-2394.1139182823526
 30
0.0
 41
1.0
 10
-4235.9684587903394
 20
-2394.1143630955821
 30
0.0
 41
1.0
 10
-4235.9678774981148
 20
-2394.1148079088116
 30
0.0
 41
1.0
 10
-4235.8984520469558
 20
-2394.1679332695494
 30
0.0
 41
0.9986007262276427
 10
-4235.8350258771861
 20
-2394.2280940392457
 30
0.0
 41
1.0
 10
-4235.8341314617319
 20
-2394.2289424070782
 30
0.0
 41
1.0
 10
-4235.8332370462776
 20
-2394.2297907749107
 30
0.0
 41
1.0
 10
-4235.7680220455977
 20
-2394.2916482802734
 30
0.0
 41
0.998558149138143
 10
-4235.709814433897
 20
-2394.3601407705446
 30
0.0
 41
1.0
 10
-4235.7005559803001
 20
-2394.3710351282471
 30
0.0
 41
1.0
 10
-4235.6912975267041
 20
-2394.3819294859495
 30
0.0
 41
1.0
 10
-4235.6145730078133
 20
-2394.4722106916224
 30
0.0
 41
0.9970460233524547
 10
-4235.5525811066545
 20
-2394.573177775801
 30
0.0
 41
1.0
 10
-4235.53811174157
 20
-2394.5967442348906
 30
0.0
 41
1.0
 10
-4235.5236423764854
 20
-2394.6203106939802
 30
0.0
 41
1.0
 10
-4235.4839056764777
 20
-2394.6850304180043
 30
0.0
 41
0.9988468816636628
 10
-4235.4505593057283
 20
-2394.753262870428
 30
0.0
 41
1.0
 10
-4235.4435232832457
 20
-2394.7676597915461
 30
0.0
 41
1.0
 10
-4235.4364872607639
 20
-2394.7820567126646
 30
0.0
 41
1.0
 10
-4235.4172129349863
 20
-2394.8214953228357
 30
0.0
 41
0.9998431189996706
 10
-4235.399347607482
 20
-2394.8615918772966
 30
0.0
 41
1.0
 10
-4235.3814822800496
 20
-2394.901688431597
 30
0.0
 41
0.9999989989722047
 10
-4235.3635035566349
 20
-2394.9417342691654
 30
0.0
 41
1.0
 10
-4235.3573312450062
 20
-2394.9554824860561
 30
0.0
 41
1.0
 10
-4235.3511589333766
 20
-2394.9692307029463
 30
0.0
 41
1.0
 10
-4235.3208355867764
 20
-2395.036772974132
 30
0.0
 41
0.999879035631844
 10
-4235.2926277066481
 20
-2395.1052257260462
 30
0.0
 41
1.0
 10
-4235.2857925253493
 20
-2395.1218128275095
 30
0.0
 41
1.0
 10
-4235.2789573440505
 20
-2395.1383999289728
 30
0.0
 41
1.0
 10
-4235.255399681675
 20
-2395.1955678838494
 30
0.0
 41
0.9998227574563328
 10
-4235.2340109332908
 20
-2395.2535821921106
 30
0.0
 41
1.0
 10
-4235.2126221848976
 20
-2395.3115965003981
 30
0.0
 41
0.9996797971042899
 10
-4235.194195899935
 20
-2395.3706186195263
 30
0.0
 41
1.0
 10
-4235.1902920972134
 20
-2395.383123077685
 30
0.0
 41
1.0
 10
-4235.1863882944908
 20
-2395.3956275358441
 30
0.0
 41
1.0
 10
-4235.1601544040814
 20
-2395.4796585712961
 30
0.0
 41
0.9979274938735512
 10
-4235.1449298806019
 20
-2395.5663629299515
 30
0.0
 41
1.0
 10
-4235.1427061933409
 20
-2395.5790269307727
 30
0.0
 41
1.0
 10
-4235.1404825060799
 20
-2395.5916909315938
 30
0.0
 41
1.0
 10
-4235.1295525663791
 20
-2395.6539374388885
 30
0.0
 41
0.9994985982133501
 10
-4235.1225844012024
 20
-2395.7167509400351
 30
0.0
 41
1.0
 10
-4235.1156162360267
 20
-2395.7795644411676
 30
0.0
 41
0.9996372611199954
 10
-4235.1120403702598
 20
-2395.8426620198402
 30
0.0
 41
1.0
 10
-4235.1118717927693
 20
-2395.8456366369319
 30
0.0
 41
1.0
 10
-4235.1117032152797
 20
-2395.8486112540236
 30
0.0
 41
1.0
 10
-4235.1077901945337
 20
-2395.9176580668864
 30
0.0
 41
0.999773063073754
 10
-4235.1068218810451
 20
-2395.9868088909366
 30
0.0
 41
1.0
 10
-4235.1067647746277
 20
-2395.9908870700619
 30
0.0
 41
1.0
 10
-4235.1067076682093
 20
-2395.9949652491873
 30
0.0
 41
1.0
 10
-4235.105625141884
 20
-2396.0722724314542
 30
0.0
 41
0.9998772614069147
 10
-4235.1069652286142
 20
-2396.1495755779683
 30
0.0
 41
1.0
 10
-4235.1070544918139
 20
-2396.1547247418539
 30
0.0
 41
1.0
 10
-4235.1071437550136
 20
-2396.1598739057395
 30
0.0
 41
1.0
 10
-4235.1086623681413
 20
-2396.2474753799615
 30
0.0
 41
0.9999415567325252
 10
-4235.1120746783881
 20
-2396.3350235416242
 30
0.0
 41
1.0
 10
-4235.1123159990639
 20
-2396.3412150013737
 30
0.0
 41
1.0
 10
-4235.1125573197396
 20
-2396.3474064611237
 30
0.0
 41
1.0
 10
-4235.1164522713379
 20
-2396.4473375422835
 30
0.0
 41
0.9999716810431422
 10
-4235.1218508544562
 20
-2396.5471986805182
 30
0.0
 41
1.0
 10
-4235.1250636532441
 20
-2396.6066279301513
 30
0.0
 41
1.0
 10
-4235.1282764520311
 20
-2396.6660571797838
 30
0.0
 41
1.0
 10
-4235.1363503611838
 20
-2396.8154055810783
 30
0.0
 41
0.9999819129889528
 10
-4235.1462201528011
 20
-2396.9646460588087
 30
0.0
 41
1.0
 10
-4235.1560899444175
 20
-2397.1138865365201
 30
0.0
 41
1.0
 10
-4235.1585292649816
 20
-2397.1510795823697
 30
0.0
 41
1.0
 10
-4235.1358310312035
 20
-2397.1123385851261
 30
0.0
 41
0.9999982128130373
 10
-4235.112986472489
 20
-2397.0736836912383
 30
0.0
 41
1.0
 10
-4235.0860769125575
 20
-2397.0281504771046
 30
0.0
 41
1.0
 10
-4235.0591673526269
 20
-2396.9826172629714
 30
0.0
 41
1.0
 10
-4234.9825036741067
 20
-2396.8528959409109
 30
0.0
 41
0.9998609190057906
 10
-4234.901556361242
 20
-2396.7258035589775
 30
0.0
 41
1.0
 10
-4234.8719080397568
 20
-2396.6792538260142
 30
0.0
 41
1.0
 10
-4234.8422597182707
 20
-2396.6327040930505
 30
0.0
 41
1.0
 10
-4234.7599874980306
 20
-2396.5035315230502
 30
0.0
 41
0.9999067609732172
 10
-4234.6742184885743
 20
-2396.3766538336222
 30
0.0
 41
1.0
 10
-4234.6718137853677
 20
-2396.3730965675591
 30
0.0
 41
1.0
 10
-4234.6694090821611
 20
-2396.3695393014959
 30
0.0
 41
1.0
 10
-4234.5884494791098
 20
-2396.2497761441809
 30
0.0
 41
0.9998784952148753
 10
-4234.5037958694284
 20
-2396.1325949274719
 30
0.0
 41
1.0
 10
-4234.4191422597432
 20
-2396.0154137107579
 30
0.0
 41
0.9998532968283067
 10
-4234.3305246389073
 20
-2395.901200802271
 30
0.0
 41
1.0
 10
-4234.310562849927
 20
-2395.8754734812646
 30
0.0
 41
1.0
 10
-4234.2906010609468
 20
-2395.8497461602583
 30
0.0
 41
1.0
 10
-4234.1721170111859
 20
-2395.6970405492866
 30
0.0
 41
0.9991551975796
 10
-4234.0414925615605
 20
-2395.5545809872001
 30
0.0
 41
1.0
 10
-4234.0379829455833
 20
-2395.5507533855789
 30
0.0
 41
1.0
 10
-4234.034473329606
 20
-2395.5469257839572
 30
0.0
 41
1.0
 10
-4233.9108681119405
 20
-2395.412121425119
 30
0.0
 41
0.9997418144180289
 10
-4233.7812659722367
 20
-2395.2830720145043
 30
0.0
 41
1.0
 10
-4233.6516638325356
 20
-2395.1540226038919
 30
0.0
 41
0.998923820463394
 10
-4233.5106612842847
 20
-2395.0375376418529
 30
0.0
 41
1.0
 10
-4233.4654136061454
 20
-2395.0001576502445
 30
0.0
 41
1.0
 10
-4233.4201659280052
 20
-2394.9627776586358
 30
0.0
 41
1.0
 10
-4233.2799258707837
 20
-2394.8469226053448
 30
0.0
 41
0.9990825084096614
 10
-4233.1302859381794
 20
-2394.7434936075115
 30
0.0
 41
1.0
 10
-4233.120240574116
 20
-2394.7365503944275
 30
0.0
 41
1.0
 10
-4233.1101952100526
 20
-2394.7296071813439
 30
0.0
 41
1.0
 10
-4232.9806460055606
 20
-2394.6400646096695
 30
0.0
 41
0.9998164899826639
 10
-4232.8477618021989
 20
-2394.5555503681626
 30
0.0
 41
1.0
 10
-4232.8359162416673
 20
-2394.5480166016337
 30
0.0
 41
1.0
 10
-4232.8240706811366
 20
-2394.5404828351047
 30
0.0
 41
1.0
 10
-4232.7148775988171
 20
-2394.471036126643
 30
0.0
 41
0.9997473449130448
 10
-4232.6026736415733
 20
-2394.4065671688304
 30
0.0
 41
1.0
 10
-4232.4904696843241
 20
-2394.3420982110147
 30
0.0
 41
0.9999327861145001
 10
-4232.3768010735594
 20
-2394.2802482193329
 30
0.0
 41
1.0
 10
-4232.3762490709996
 20
-2394.2799478606539
 30
0.0
 41
1.0
 10
-4232.375697068439
 20
-2394.279647501975
 30
0.0
 41
1.0
 10
-4232.260924452562
 20
-2394.2171967929385
 30
0.0
 41
0.9996956420483023
 10
-4232.1432111267131
 20
-2394.1604833259603
 30
0.0
 41
1.0
 10
-4232.1127707218202
 20
-2394.1458173492301
 30
0.0
 41
1.0
 10
-4232.0823303169282
 20
-2394.1311513725
 30
0.0
 41
1.0
 10
-4231.9793532101949
 20
-2394.0815377140607
 30
0.0
 41
0.9998070570175371
 10
-4231.8745068212447
 20
-2394.0360071271562
 30
0.0
 41
1.0
 10
-4231.7696604323146
 20
-2393.9904765402584
 30
0.0
 41
0.9997827436145873
 10
-4231.6630074956956
 20
-2393.949355368944
 30
0.0
 41
1.0
 10
-4231.6437846460631
 20
-2393.9419437953111
 30
0.0
 41
1.0
 10
-4231.6245617964305
 20
-2393.9345322216782
 30
0.0
 41
1.0
 10
-4231.4794631605564
 20
-2393.8785879031007
 30
0.0
 41
0.9988031841976034
 10
-4231.3295927979507
 20
-2393.8370878389328
 30
0.0
 41
1.0
 10
-4231.304675549587
 20
-2393.8301880931258
 30
0.0
 41
1.0
 10
-4231.2797583012243
 20
-2393.8232883473192
 30
0.0
 41
1.0
 10
-4231.1124882755785
 20
-2393.7769702049136
 30
0.0
 41
0.9984748040551404
 10
-4230.9411313669307
 20
-2393.7493759726485
 30
0.0
 41
1.0
 10
-4230.9363922306839
 20
-2393.7486128121354
 30
0.0
 41
1.0
 10
-4230.931653094437
 20
-2393.7478496516223
 30
0.0
 41
1.0
 10
-4230.7697744582838
 20
-2393.7217817403834
 30
0.0
 41
0.9984436495479392
 10
-4230.6059997145567
 20
-2393.7139037865645
 30
0.0
 41
1.0
 10
-4230.5843025064278
 20
-2393.7128600993647
 30
0.0
 41
1.0
 10
-4230.562605298298
 20
-2393.7118164121653
 30
0.0
 41
1.0
 10
-4230.4422249708341
 20
-2393.706025832746
 30
0.0
 41
0.9987954789335366
 10
-4230.3218567259228
 20
-2393.7120623604883
 30
0.0
 41
1.0
 10
-4230.3018919334245
 20
-2393.7130636048269
 30
0.0
 41
1.0
 10
-4230.2819271409253
 20
-2393.7140648491659
 30
0.0
 41
1.0
 10
-4230.2014884810205
 20
-2393.7180988882301
 30
0.0
 41
0.999794159587715
 10
-4230.1212797029184
 20
-2393.7253929541516
 30
0.0
 41
1.0
 10
-4230.0410709248099
 20
-2393.7326870200745
 30
0.0
 41
0.9998589466238027
 10
-4229.9611523779686
 20
-2393.7426708745224
 30
0.0
 41
1.0
 10
-4229.9287461761596
 20
-2393.7467192314416
 30
0.0
 41
1.0
 10
-4229.8963399743516
 20
-2393.7507675883612
 30
0.0
 41
1.0
 10
-4229.7516090238832
 20
-2393.7688481566493
 30
0.0
 41
0.9993495063249038
 10
-4229.6085577801205
 20
-2393.7973138663906
 30
0.0
 41
1.0
 10
-4229.5756240829687
 20
-2393.8038673296051
 30
0.0
 41
1.0
 10
-4229.5426903858179
 20
-2393.81042079282
 30
0.0
 41
1.0
 10
-4229.4333965626101
 20
-2393.8321691269557
 30
0.0
 41
0.9996788715560081
 10
-4229.3253449906506
 20
-2393.8594269263194
 30
0.0
 41
1.0
 10
-4229.3232819881096
 20
-2393.859947352893
 30
0.0
 41
1.0
 10
-4229.3212189855685
 20
-2393.8604677794665
 30
0.0
 41
1.0
 10
-4229.2172934186992
 20
-2393.8866847256804
 30
0.0
 41
0.9995480654490352
 10
-4229.1151311834647
 20
-2393.9190996823068
 30
0.0
 41
1.0
 10
-4229.113441541338
 20
-2393.9196357872197
 30
0.0
 41
1.0
 10
-4229.1117518992114
 20
-2393.9201718921331
 30
0.0
 41
1.0
 10
-4229.0129689482374
 20
-2393.9515146389303
 30
0.0
 41
0.9993867959455943
 10
-4228.9166217897919
 20
-2393.9896940082208
 30
0.0
 41
1.0
 10
-4228.9153788407111
 20
-2393.9901865501151
 30
0.0
 41
1.0
 10
-4228.9141358916304
 20
-2393.9906790920099
 30
0.0
 41
1.0
 10
-4228.8202746313582
 20
-2394.0278733775058
 30
0.0
 41
0.9992050256519723
 10
-4228.7296749563156
 20
-2394.0724272767493
 30
0.0
 41
1.0
 10
-4228.7289402736042
 20
-2394.0727885692099
 30
0.0
 41
1.0
 10
-4228.7282055908918
 20
-2394.0731498616706
 30
0.0
 41
1.0
 10
-4228.6390752812795
 20
-2394.1169811759905
 30
0.0
 41
0.999022235074416
 10
-4228.554165219889
 20
-2394.1685144436865
 30
0.0
 41
1.0
 10
-4228.5539813346059
 20
-2394.1686260465917
 30
0.0
 41
1.0
 10
-4228.5537974493227
 20
-2394.168737649497
 30
0.0
 41
1.0
 10
-4228.4692551584976
 20
-2394.2200477113829
 30
0.0
 41
0.9988642743803946
 10
-4228.3899806238769
 20
-2394.2791718989101
 30
0.0
 41
1.0
 10
-4228.310706089258
 20
-2394.3382960864355
 30
0.0
 41
0.9987681233310812
 10
-4228.2376823049817
 20
-2394.4049867778367
 30
0.0
 41
1.0
 10
-4228.237353377016
 20
-2394.4052871790509
 30
0.0
 41
1.0
 10
-4228.2370244490503
 20
-2394.4055875802646
 30
0.0
 41
1.0
 10
-4228.1633428088444
 20
-2394.4728790740924
 30
0.0
 41
0.9987496570897914
 10
-4228.0967490035191
 20
-2394.5471918881772
 30
0.0
 41
1.0
 10
-4228.095976833757
 20
-2394.548053561537
 30
0.0
 41
1.0
 10
-4228.095204663995
 20
-2394.5489152348964
 30
0.0
 41
1.0
 10
-4228.0270665191483
 20
-2394.6249513956973
 30
0.0
 41
0.9988147669829692
 10
-4227.9666442649241
 20
-2394.707252402538
 30
0.0
 41
1.0
 10
-4227.9655249388452
 20
-2394.7087770338921
 30
0.0
 41
1.0
 10
-4227.9644056127663
 20
-2394.7103016652463
 30
0.0
 41
1.0
 10
-4227.9017447063834
 20
-2394.7956519347958
 30
0.0
 41
0.9989452636213938
 10
-4227.8471777934237
 20
-2394.8863906239517
 30
0.0
 41
1.0
 10
-4227.8458290673379
 20
-2394.8886334049776
 30
0.0
 41
1.0
 10
-4227.8444803412522
 20
-2394.8908761860039
 30
0.0
 41
1.0
 10
-4227.7872159761228
 20
-2394.9861004372078
 30
0.0
 41
0.9991046436069492
 10
-4227.7382067628023
 20
-2395.0858248702302
 30
0.0
 41
1.0
 10
-4227.7367429012102
 20
-2395.0888035503076
 30
0.0
 41
1.0
 10
-4227.735279039618
 20
-2395.0917822303845
 30
0.0
 41
1.0
 10
-4227.6833421031197
 20
-2395.1974640235476
 30
0.0
 41
0.9992763831101565
 10
-4227.6395889745672
 20
-2395.306788085496
 30
0.0
 41
1.0
 10
-4227.6381097049016
 20
-2395.3104842730372
 30
0.0
 41
1.0
 10
-4227.636630435235
 20
-2395.314180460578
 30
0.0
 41
1.0
 10
-4227.5899187673522
 20
-2395.4308968976034
 30
0.0
 41
0.9994163472883777
 10
-4227.55128573616
 20
-2395.5505304860744
 30
0.0
 41
1.0
 10
-4227.5500475839162
 20
-2395.5543646298493
 30
0.0
 41
1.0
 10
-4227.5488094316715
 20
-2395.5581987736246
 30
0.0
 41
1.0
 10
-4227.5089258706521
 20
-2395.6817048351086
 30
0.0
 41
0.9997268055889621
 10
-4227.4748578147401
 20
-2395.8069398670596
 30
0.0
 41
1.0
 10
-4227.4739276344717
 20
-2395.8103592331627
 30
0.0
 41
1.0
 10
-4227.4729974542042
 20
-2395.8137785992658
 30
0.0
 41
1.0
 10
-4227.4407897588299
 20
-2395.9321748990037
 30
0.0
 41
0.9996701319000474
 10
-4227.4147041420574
 20
-2396.0520688522738
 30
0.0
 41
1.0
 10
-4227.388618525285
 20
-2396.1719628055471
 30
0.0
 41
0.9995785451109609
 10
-4227.369534947944
 20
-2396.293168566589
 30
0.0
 41
1.0
 10
-4227.3653151657727
 20
-2396.3199697213431
 30
0.0
 41
1.0
 10
-4227.3610953836005
 20
-2396.3467708760968
 30
0.0
 41
1.0
 10
-4227.3345204076613
 20
-2396.5155568498003
 30
0.0
 41
0.997992510121505
 10
-4227.3294948217354
 20
-2396.6863481778937
 30
0.0
 41
1.0
 10
-4227.3286700093104
 20
-2396.7143789013744
 30
0.0
 41
1.0
 10
-4227.3278451968863
 20
-2396.7424096248551
 30
0.0
 41
1.0
 10
-4227.3244692358094
 20
-2396.8571395059848
 30
0.0
 41
0.999531490226336
 10
-4227.328119427948
 20
-2396.9718609897373
 30
0.0
 41
1.0
 10
-4227.3317696200866
 20
-2397.0865824734869
 30
0.0
 41
0.9996245486944143
 10
-4227.3416987152168
 20
-2397.2009317446086
 30
0.0
 41
1.0
 10
-4227.3418617632115
 20
-2397.2028095007463
 30
0.0
 41
1.0
 10
-4227.3420248112061
 20
-2397.2046872568835
 30
0.0
 41
1.0
 10
-4227.3522800023247
 20
-2397.3227920402724
 30
0.0
 41
0.9997286095001624
 10
-4227.3680253258945
 20
-2397.4402909491587
 30
0.0
 41
1.0
 10
-4227.3684188185453
 20
-2397.4432273738676
 30
0.0
 41
1.0
 10
-4227.368812311197
 20
-2397.4461637985769
 30
0.0
 41
1.0
 10
-4227.3853446200701
 20
-2397.569535556886
 30
0.0
 41
0.999826553396868
 10
-4227.4064600788051
 20
-2397.6922060316847
 30
0.0
 41
1.0
 10
-4227.4071366209409
 20
-2397.6961364101817
 30
0.0
 41
1.0
 10
-4227.4078131630758
 20
-2397.7000667886787
 30
0.0
 41
1.0
 10
-4227.4302817060825
 20
-2397.8305980204773
 30
0.0
 41
0.9999022530852456
 10
-4227.45639117069
 20
-2397.9604499891043
 30
0.0
 41
1.0
 10
-4227.4573698118566
 20
-2397.9653171314994
 30
0.0
 41
1.0
 10
-4227.458348453024
 20
-2397.970184273895
 30
0.0
 41
1.0
 10
-4227.4864151999727
 20
-2398.1097705273455
 30
0.0
 41
0.9999524761938574
 10
-4227.5171981688154
 20
-2398.2487830205464
 30
0.0
 41
1.0
 10
-4227.518474275983
 20
-2398.2545457798119
 30
0.0
 41
1.0
 10
-4227.5197503831505
 20
-2398.2603085390774
 30
0.0
 41
1.0
 10
-4227.5530855663346
 20
-2398.4108465508402
 30
0.0
 41
0.9999813588718164
 10
-4227.58825656713
 20
-2398.5609662634906
 30
0.0
 41
1.0
 10
-4227.5898104925873
 20
-2398.5675988539188
 30
0.0
 41
1.0
 10
-4227.5913644180455
 20
-2398.5742314443473
 30
0.0
 41
1.0
 10
-4227.6296432697236
 20
-2398.7376163377176
 30
0.0
 41
0.9999955237735601
 10
-4227.6688991476722
 20
-2398.9007692411938
 30
0.0
 41
1.0
 10
-4227.6811807833383
 20
-2398.9518134318469
 30
0.0
 41
1.0
 10
-4227.6934624190035
 20
-2399.0028576225004
 30
0.0
 41
1.0
 10
-4227.7572815682306
 20
-2399.2680989070645
 30
0.0
 41
0.9999993604464679
 10
-4227.8217005153529
 20
-2399.5331951575586
 30
0.0
 41
1.0
 10
-4227.8264193509331
 20
-2399.5526140657385
 30
0.0
 41
1.0
 10
-4227.8311381865142
 20
-2399.5720329739179
 30
0.0
 41
1.0
 10
-4227.9049948047732
 20
-2399.8759670406712
 30
0.0
 41
0.9999659914727924
 10
-4227.9838544006561
 20
-2400.178641587223
 30
0.0
 41
1.0
 10
-4227.9888070895886
 20
-2400.1976507244121
 30
0.0
 41
1.0
 10
-4227.9937597785211
 20
-2400.2166598616013
 30
0.0
 41
1.0
 10
-4228.0825247522635
 20
-2400.5573526825119
 30
0.0
 41
0.9999441976023675
 10
-4228.1784677852229
 20
-2400.8960941077944
 30
0.0
 41
1.0
 10
-4228.1951683036514
 20
-2400.9550578203343
 30
0.0
 41
1.0
 10
-4228.2118688220808
 20
-2401.0140215328747
 30
0.0
 41
1.0
 10
-4228.3412128919135
 20
-2401.4706903832894
 30
0.0
 41
0.9999625120736202
 10
-4228.4784456592515
 20
-2401.9250509173321
 30
0.0
 41
1.0
 10
-4228.5142356023207
 20
-2402.043546943913
 30
0.0
 41
1.0
 10
-4228.5500255453899
 20
-2402.162042970494
 30
0.0
 41
1.0
 10
-4228.6245457494315
 20
-2402.4087700485966
 30
0.0
 41
0.9999793386316596
 10
-4228.7022317725632
 20
-2402.6545186878175
 30
0.0
 41
1.0
 10
-4228.7799177957004
 20
-2402.9002673270534
 30
0.0
 41
1.0
 10
-4228.7906973545723
 20
-2402.934285231428
 30
0.0
 41
1.0
 10
-4230.6410704078417
 20
-2408.8213571538954
 30
0.0
 41
1.0
 10
-4232.491443461111
 20
-2414.7084290763632
 30
0.0
 41
1.0
 10
-4233.4527001511342
 20
-2414.7084290763632
 30
0.0
 41
1.0
 10
-4234.4139568411574
 20
-2414.7084290763632
 30
0.0
 41
1.0
 10
-4232.7950120624791
 20
-2409.5604005745736
 30
0.0
 41
1.0
 10
-4231.1760672838009
 20
-2404.4123720727839
 30
0.0
 41
1.0
 10
-4231.130901460625
 20
-2404.2683408505104
 30
0.0
 41
1.0
 10
-4231.0857356374499
 20
-2404.1243096282369
 30
0.0
 41
1.0
 10
-4230.9154312200862
 20
-2403.5812185990749
 30
0.0
 41
0.999991165790992
 10
-4230.7496984084091
 20
-2403.0367150677184
 30
0.0
 41
1.0
 10
-4230.7200024649037
 20
-2402.9391511276517
 30
0.0
 41
1.0
 10
-4230.6903065213983
 20
-2402.8415871875845
 30
0.0
 41
1.0
 10
-4230.5839655967302
 20
-2402.4922115363584
 30
0.0
 41
0.9999952428194904
 10
-4230.4797820074036
 20
-2402.1421865120046
 30
0.0
 41
1.0
 10
-4230.474722537072
 20
-2402.1251882377314
 30
0.0
 41
1.0
 10
-4230.4696630667395
 20
-2402.1081899634582
 30
0.0
 41
1.0
 10
-4230.3755984180771
 20
-2401.7921614876523
 30
0.0
 41
0.9999931687551704
 10
-4230.2838725802048
 20
-2401.4754462743849
 30
0.0
 41
1.0
 10
-4230.2789373157375
 20
-2401.4584055650857
 30
0.0
 41
1.0
 10
-4230.2740020512692
 20
-2401.4413648557861
 30
0.0
 41
1.0
 10
-4230.1921467423272
 20
-2401.1587310610976
 30
0.0
 41
0.9999893840820006
 10
-4230.1128995158742
 20
-2400.8753549318681
 30
0.0
 41
1.0
 10
-4230.0336522894168
 20
-2400.5919788026204
 30
0.0
 41
0.9999833980059157
 10
-4229.9576760486825
 20
-2400.3077082196201
 30
0.0
 41
1.0
 10
-4229.9486721119574
 20
-2400.2740193411328
 30
0.0
 41
1.0
 10
-4229.9396681752332
 20
-2400.240330462645
 30
0.0
 41
1.0
 10
-4229.8707036263659
 20
-2399.9822946303429
 30
0.0
 41
0.9999233658063078
 10
-4229.8081486551437
 20
-2399.722630471615
 30
0.0
 41
1.0
 10
-4229.7455936839233
 20
-2399.4629663128926
 30
0.0
 41
1.0
 10
-4229.7061102650659
 20
-2399.2991596484662
 30
0.0
 41
1.0
 10
-4229.7011316610933
 20
-2399.2785046866165
 30
0.0
 41
1.0
 10
-4229.6961530571216
 20
-2399.2578497247669
 30
0.0
 41
1.0
 10
-4229.6666268462131
 20
-2399.1353529840576
 30
0.0
 41
0.9999868670858122
 10
-4229.6383577622128
 20
-2399.0125600383944
 30
0.0
 41
1.0
 10
-4229.6344602750614
 20
-2398.9956304510019
 30
0.0
 41
1.0
 10
-4229.6305627879092
 20
-2398.9787008636094
 30
0.0
 41
1.0
 10
-4229.6100886782215
 20
-2398.889767092769
 30
0.0
 41
0.9999778173355205
 10
-4229.5908010801013
 20
-2398.8005684755185
 30
0.0
 41
1.0
 10
-4229.5715134819884
 20
-2398.7113698583016
 30
0.0
 41
0.9999602692859343
 10
-4229.5538191233591
 20
-2398.6218415698836
 30
0.0
 41
1.0
 10
-4229.5506152912794
 20
-2398.6056311149869
 30
0.0
 41
1.0
 10
-4229.5474114591998
 20
-2398.5894206600906
 30
0.0
 41
1.0
 10
-4229.5233094364148
 20
-2398.4674714618964
 30
0.0
 41
0.9995617985321094
 10
-4229.5064660891958
 20
-2398.3443097141935
 30
0.0
 41
1.0
 10
-4229.504001599289
 20
-2398.3262888968266
 30
0.0
 41
1.0
 10
-4229.5015371093823
 20
-2398.30826807946
 30
0.0
 41
1.0
 10
-4229.4812538483329
 20
-2398.1599530297572
 30
0.0
 41
0.9991121410637897
 10
-4229.4735284947456
 20
-2398.0104569309483
 30
0.0
 41
1.0
 10
-4229.4726097047205
 20
-2397.9926770943721
 30
0.0
 41
1.0
 10
-4229.4716909146964
 20
-2397.9748972577963
 30
0.0
 41
1.0
 10
-4229.4658031411582
 20
-2397.8609608321422
 30
0.0
 41
0.9989792494907727
 10
-4229.4702222332753
 20
-2397.7469579962435
 30
0.0
 41
1.0
 10
-4229.4708702051439
 20
-2397.7302417503197
 30
0.0
 41
1.0
 10
-4229.4715181770125
 20
-2397.7135255043954
 30
0.0
 41
1.0
 10
-4229.4746413253924
 20
-2397.6329551603476
 30
0.0
 41
0.9997820295393871
 10
-4229.4811253227681
 20
-2397.5525854386015
 30
0.0
 41
1.0
 10
-4229.4876093201428
 20
-2397.472215716864
 30
0.0
 41
0.9998335105974594
 10
-4229.4970215156536
 20
-2397.3921361004227
 30
0.0
 41
1.0
 10
-4229.4986164403308
 20
-2397.3785663699318
 30
0.0
 41
1.0
 10
-4229.500211365008
 20
-2397.364996639441
 30
0.0
 41
1.0
 10
-4229.5128134098713
 20
-2397.2577775620325
 30
0.0
 41
0.9996876457880074
 10
-4229.5307573226673
 20
-2397.1513221343266
 30
0.0
 41
1.0
 10
-4229.5329889858167
 20
-2397.1380823990617
 30
0.0
 41
1.0
 10
-4229.5352206489661
 20
-2397.1248426637967
 30
0.0
 41
1.0
 10
-4229.5490164703851
 20
-2397.0429965198505
 30
0.0
 41
0.9995547496493231
 10
-4229.5676697922754
 20
-2396.9621190226758
 30
0.0
 41
1.0
 10
-4229.5680437491465
 20
-2396.960497611969
 30
0.0
 41
1.0
 10
-4229.5684177060184
 20
-2396.9588762012622
 30
0.0
 41
1.0
 10
-4229.5863231141684
 20
-2396.8812415254838
 30
0.0
 41
0.9994899427175353
 10
-4229.6091480228479
 20
-2396.8049082426501
 30
0.0
 41
1.0
 10
-4229.6096065495876
 20
-2396.803374792863
 30
0.0
 41
1.0
 10
-4229.6100650763283
 20
-2396.8018413430764
 30
0.0
 41
1.0
 10
-4229.6319729315264
 20
-2396.7285749598177
 30
0.0
 41
0.999378487759259
 10
-4229.6589885666335
 20
-2396.6570342546565
 30
0.0
 41
1.0
 10
-4229.6595202576082
 20
-2396.65562627194
 30
0.0
 41
1.0
 10
-4229.6600519485837
 20
-2396.6542182892235
 30
0.0
 41
1.0
 10
-4229.6860042017388
 20
-2396.5854935495008
 30
0.0
 41
0.9992430832256055
 10
-4229.7172207368994
 20
-2396.5189943974292
 30
0.0
 41
1.0
 10
-4229.7178028529552
 20
-2396.5177543423133
 30
0.0
 41
1.0
 10
-4229.7183849690109
 20
-2396.5165142871979
 30
0.0
 41
1.0
 10
-4229.7484372720583
 20
-2396.452495245363
 30
0.0
 41
0.9990789632800553
 10
-4229.7838678988355
 20
-2396.3912886336116
 30
0.0
 41
1.0
 10
-4229.7844636050158
 20
-2396.3902595477543
 30
0.0
 41
1.0
 10
-4229.7850593111971
 20
-2396.3892304618971
 30
0.0
 41
1.0
 10
-4229.8192985256101
 20
-2396.330082021866
 30
0.0
 41
0.998887480112419
 10
-4229.8589578016436
 20
-2396.2744223094442
 30
0.0
 41
1.0
 10
-4229.8595133277104
 20
-2396.2736426577658
 30
0.0
 41
1.0
 10
-4229.8600688537772
 20
-2396.2728630060878
 30
0.0
 41
1.0
 10
-4229.8986170776761
 20
-2396.218762597025
 30
0.0
 41
0.9986762060693994
 10
-4229.9425195489512
 20
-2396.1689088825869
 30
0.0
 41
1.0
 10
-4229.942963509282
 20
-2396.1684047407716
 30
0.0
 41
1.0
 10
-4229.9434074696137
 20
-2396.1679005989563
 30
0.0
 41
1.0
 10
-4229.9864220202262
 20
-2396.1190551681489
 30
0.0
 41
0.9984621642488467
 10
-4230.0345795770054
 20
-2396.0752718676767
 30
0.0
 41
1.0
 10
-4230.0348262115222
 20
-2396.0750476355138
 30
0.0
 41
1.0
 10
-4230.035072846038
 20
-2396.0748234033508
 30
0.0
 41
1.0
 10
-4230.0827371337828
 20
-2396.0314885672065
 30
0.0
 41
0.9982724693849512
 10
-4230.1351557656244
 20
-2395.9940442166881
 30
0.0
 41
1.0
 10
-4230.1875743974679
 20
-2395.9565998661683
 30
0.0
 41
0.9981399180153564
 10
-4230.2441604608639
 20
-2395.9258133467238
 30
0.0
 41
1.0
 10
-4230.2442061229394
 20
-2395.9257885035681
 30
0.0
 41
1.0
 10
-4230.2442517850159
 20
-2395.9257636604125
 30
0.0
 41
1.0
 10
-4230.3009291725639
 20
-2395.8949274546567
 30
0.0
 41
0.9980927086840791
 10
-4230.3609745236336
 20
-2395.8713106458022
 30
0.0
 41
1.0
 10
-4230.3614146933451
 20
-2395.8711375199273
 30
0.0
 41
1.0
 10
-4230.3618548630566
 20
-2395.8709643940524
 30
0.0
 41
1.0
 10
-4230.4227805535475
 20
-2395.847001333449
 30
0.0
 41
0.9981411356557494
 10
-4230.4861690749485
 20
-2395.8306286919437
 30
0.0
 41
1.0
 10
-4230.4870511916488
 20
-2395.8304008497385
 30
0.0
 41
1.0
 10
-4230.4879333083491
 20
-2395.8301730075332
 30
0.0
 41
1.0
 10
-4230.5530860631488
 20
-2395.8133446816173
 30
0.0
 41
0.9983031812940618
 10
-4230.619753492143
 20
-2395.8042053204404
 30
0.0
 41
1.0
 10
-4230.6286245175452
 20
-2395.8029892017694
 30
0.0
 41
1.0
 10
-4230.6374955429483
 20
-2395.8017730830984
 30
0.0
 41
1.0
 10
-4230.6918451854535
 20
-2395.7943223531074
 30
0.0
 41
0.998388770826775
 10
-4230.7466890347496
 20
-2395.7930776794733
 30
0.0
 41
1.0
 10
-4230.7547524399688
 20
-2395.7928946815982
 30
0.0
 41
1.0
 10
-4230.7628158451871
 20
-2395.7927116837236
 30
0.0
 41
1.0
 10
-4230.8015328840429
 20
-2395.7918330058401
 30
0.0
 41
0.9998869563077939
 10
-4230.8402588372455
 20
-2395.7921188751998
 30
0.0
 41
1.0
 10
-4230.8789847904482
 20
-2395.7924047445595
 30
0.0
 41
0.9999972320192809
 10
-4230.9177089696577
 20
-2395.7928728440884
 30
0.0
 41
1.0
 10
-4230.9370619862384
 20
-2395.7931067841778
 30
0.0
 41
1.0
 10
-4230.9564150028191
 20
-2395.7933407242672
 30
0.0
 41
1.0
 10
-4231.0338452151918
 20
-2395.7942767039749
 30
0.0
 41
0.9997304945086531
 10
-4231.1111485214296
 20
-2395.7988057977609
 30
0.0
 41
1.0
 10
-4231.120198163133
 20
-2395.7993360037508
 30
0.0
 41
1.0
 10
-4231.1292478048363
 20
-2395.7998662097407
 30
0.0
 41
1.0
 10
-4231.224650394478
 20
-2395.8054557155069
 30
0.0
 41
0.9997888306416114
 10
-4231.3197427303157
 20
-2395.8149606799952
 30
0.0
 41
1.0
 10
-4231.3284637918932
 20
-2395.8158323946277
 30
0.0
 41
1.0
 10
-4231.3371848534707
 20
-2395.8167041092602
 30
0.0
 41
1.0
 10
-4231.4497193124598
 20
-2395.8279525030139
 30
0.0
 41
0.9984170238191601
 10
-4231.5602784598068
 20
-2395.8517685849488
 30
0.0
 41
1.0
 10
-4231.5966595907958
 20
-2395.8596056207557
 30
0.0
 41
1.0
 10
-4231.6330407217856
 20
-2395.8674426565626
 30
0.0
 41
1.0
 10
-4231.7482317902095
 20
-2395.8922565230728
 30
0.0
 41
0.9976592854198911
 10
-4231.8589599566094
 20
-2395.9325552002183
 30
0.0
 41
1.0
 10
-4231.969688123012
 20
-2395.9728538773657
 30
0.0
 41
0.9993255074354425
 10
-4232.0771599218006
 20
-2396.0211707758563
 30
0.0
 41
1.0
 10
-4232.0817851007259
 20
-2396.0232501520568
 30
0.0
 41
1.0
 10
-4232.0864102796513
 20
-2396.0253295282573
 30
0.0
 41
1.0
 10
-4232.203132436287
 20
-2396.0778051791485
 30
0.0
 41
0.9976475078276335
 10
-4232.3115797805995
 20
-2396.1457531688079
 30
0.0
 41
1.0
 10
-4232.3299221747366
 20
-2396.1572456476238
 30
0.0
 41
1.0
 10
-4232.3482645688737
 20
-2396.1687381264396
 30
0.0
 41
1.0
 10
-4232.4324667604187
 20
-2396.2214952472027
 30
0.0
 41
0.9995131336405638
 10
-4232.5132144753788
 20
-2396.2794014591582
 30
0.0
 41
1.0
 10
-4232.593962190339
 20
-2396.3373076711141
 30
0.0
 41
0.9995810107607632
 10
-4232.6712238380724
 20
-2396.3997893535834
 30
0.0
 41
1.0
 10
-4232.6741938692794
 20
-2396.402191225045
 30
0.0
 41
1.0
 10
-4232.6771639004855
 20
-2396.4045930965067
 30
0.0
 41
1.0
 10
-4232.7603656106367
 20
-2396.4718785219029
 30
0.0
 41
0.9996617837952631
 10
-4232.8399562977647
 20
-2396.5433989774569
 30
0.0
 41
1.0
 10
-4232.8520870486482
 20
-2396.5542997104531
 30
0.0
 41
1.0
 10
-4232.8642177995316
 20
-2396.5652004434492
 30
0.0
 41
1.0
 10
-4232.9324933269199
 20
-2396.6265530589144
 30
0.0
 41
0.9997267750052441
 10
-4232.9978268352052
 20
-2396.6910295954413
 30
0.0
 41
1.0
 10
-4233.063160343474
 20
-2396.7555061319526
 30
0.0
 41
0.9999667288962233
 10
-4233.1274332866342
 20
-2396.8210399388604
 30
0.0
 41
1.0
 10
-4233.1962607344103
 20
-2396.8912175976193
 30
0.0
 41
1.0
 10
-4233.2650881821855
 20
-2396.9613952563777
 30
0.0
 41
1.0
 10
-4233.4670160208834
 20
-2397.1672843807896
 30
0.0
 41
0.9988205335174872
 10
-4233.6480216378604
 20
-2397.391788612847
 30
0.0
 41
1.0
 10
-4233.6786616027657
 20
-2397.4297918632778
 30
0.0
 41
1.0
 10
-4233.709301567671
 20
-2397.4677951137087
 30
0.0
 41
1.0
 10
-4233.951587114464
 20
-2397.7683058466355
 30
0.0
 41
0.9997077826755654
 10
-4234.179065065573
 20
-2398.0801756408569
 30
0.0
 41
1.0
 10
-4234.1807884806994
 20
-2398.0825384242307
 30
0.0
 41
1.0
 10
-4234.1825118958259
 20
-2398.0849012076046
 30
0.0
 41
1.0
 10
-4234.413436677195
 20
-2398.4014965685838
 30
0.0
 41
0.9989147567077902
 10
-4234.6139001800775
 20
-2398.7382060297687
 30
0.0
 41
1.0
 10
-4234.6386413253813
 20
-2398.7797626103156
 30
0.0
 41
1.0
 10
-4234.6633824706851
 20
-2398.8213191908631
 30
0.0
 41
1.0
 10
-4234.8185937693252
 20
-2399.0820205753193
 30
0.0
 41
0.9997476598182091
 10
-4234.9619387568364
 20
-2399.3494303239054
 30
0.0
 41
1.0
 10
-4235.1052837443403
 20
-2399.6168400724791
 30
0.0
 41
0.9996258967111634
 10
-4235.2337919962692
 20
-2399.8916880090942
 30
0.0
 41
1.0
 10
-4235.2469919057166
 20
-2399.9199194091862
 30
0.0
 41
1.0
 10
-4235.2601918151649
 20
-2399.9481508092781
 30
0.0
 41
1.0
 10
-4235.4004005361703
 20
-2400.2480232072421
 30
0.0
 41
0.9998735413943228
 10
-4235.5310018828968
 20
-2400.5522028067239
 30
0.0
 41
1.0
 10
-4235.5344447109564
 20
-2400.5602213921875
 30
0.0
 41
1.0
 10
-4235.537887539017
 20
-2400.5682399776506
 30
0.0
 41
1.0
 10
-4235.6616032296133
 20
-2400.8563824061825
 30
0.0
 41
0.9999377418856968
 10
-4235.778858031792
 20
-2401.1472138738668
 30
0.0
 41
1.0
 10
-4235.8961128339652
 20
-2401.4380453415365
 30
0.0
 41
0.9999508299505847
 10
-4236.007576777346
 20
-2401.7311450183652
 30
0.0
 41
1.0
 10
-4236.0106575460086
 20
-2401.7392460443284
 30
0.0
 41
1.0
 10
-4236.0137383146703
 20
-2401.7473470702917
 30
0.0
 41
1.0
 10
-4236.1313637953708
 20
-2402.0566487990345
 30
0.0
 41
0.999960922842802
 10
-4236.2435023982434
 20
-2402.3679818150467
 30
0.0
 41
1.0
 10
-4236.2464584085947
 20
-2402.3761886554612
 30
0.0
 41
1.0
 10
-4236.2494144189459
 20
-2402.3843954958757
 30
0.0
 41
1.0
 10
-4236.3674650425146
 20
-2402.7121421927004
 30
0.0
 41
0.9999674607405427
 10
-4236.4802125685874
 20
-2403.0417508127071
 30
0.0
 41
1.0
 10
-4236.5316109591422
 20
-2403.1920100083776
 30
0.0
 41
1.0
 10
-4236.5830093496979
 20
-2403.3422692040481
 30
0.0
 41
1.0
 10
-4236.6990199564607
 20
-2403.6814171865658
 30
0.0
 41
0.9999287532309684
 10
-4236.8069013604409
 20
-2404.0232379255676
 30
0.0
 41
1.0
 10
-4236.8533786167682
 20
-2404.1705004705354
 30
0.0
 41
1.0
 10
-4236.8998558730955
 20
-2404.3177630155037
 30
0.0
 41
1.0
 10
-4236.914782764572
 20
-2404.3650586650501
 30
0.0
 41
0.9999998224097455
 10
-4236.9296532731423
 20
-2404.4123720727839
 30
0.0
 41
1.0
 10
-4238.5503094099377
 20
-2409.5604005745736
 30
0.0
 41
1.0
 10
-4240.170965546733
 20
-2414.7084290763632
 30
0.0
 41
1.0
 10
-4241.076273990624
 20
-2414.7084290763632
 30
0.0
 41
1.0
 10
-4241.9815824345151
 20
-2414.7084290763632
 30
0.0
 41
1.0
 10
-4240.1294980231287
 20
-2408.8213571538954
 30
0.0
 41
1.0
 10
-4238.2774136117423
 20
-2402.934285231428
 30
0.0
 41
1.0
 10
-4238.267291853439
 20
-2402.9022420179781
 30
0.0
 41
1.0
 10
-4238.1946841845893
 20
-2402.6719424761523
 30
0.0
 41
1.0
 10
-4238.1220765157359
 20
-2402.4416429343146
 30
0.0
 41
0.9999825681976496
 10
-4238.0521934765211
 20
-2402.2105020392373
 30
0.0
 41
1.0
 10
-4238.0039024143625
 20
-2402.0507774557504
 30
0.0
 41
1.0
 10
-4237.9556113522049
 20
-2401.8910528722636
 30
0.0
 41
1.0
 10
-4237.8584589988905
 20
-2401.5697176504946
 30
0.0
 41
0.9999672528961699
 10
-4237.7665201932687
 20
-2401.2468521049113
 30
0.0
 41
1.0
 10
-4237.7637313096002
 20
-2401.2370582595267
 30
0.0
 41
1.0
 10
-4237.7609424259326
 20
-2401.2272644141426
 30
0.0
 41
1.0
 10
-4237.6745813876505
 20
-2400.9239865593422
 30
0.0
 41
0.9999899749147503
 10
-4237.5909397781106
 20
-2400.6199474708728
 30
0.0
 41
1.0
 10
-4237.5808338590887
 20
-2400.5832122331785
 30
0.0
 41
1.0
 10
-4237.5707279400667
 20
-2400.5464769954842
 30
0.0
 41
1.0
 10
-4237.5072981685717
 20
-2400.3159083824066
 30
0.0
 41
0.999921420050386
 10
-4237.449668740197
 20
-2400.0838220402111
 30
0.0
 41
1.0
 10
-4237.4369028880228
 20
-2400.0324111548416
 30
0.0
 41
1.0
 10
-4237.4241370358486
 20
-2399.9810002694721
 30
0.0
 41
1.0
 10
-4237.392039311826
 20
-2399.851735698031
 30
0.0
 41
0.9999828681653681
 10
-4237.3614570598238
 20
-2399.7221042235342
 30
0.0
 41
1.0
 10
-4237.3308748078271
 20
-2399.5924727490574
 30
0.0
 41
0.9999389844473432
 10
-4237.3031638190378
 20
-2399.4621972931568
 30
0.0
 41
1.0
 10
-4237.2960260753189
 20
-2399.4286411893245
 30
0.0
 41
1.0
 10
-4237.2888883315991
 20
-2399.3950850854917
 30
0.0
 41
1.0
 10
-4237.2469018553711
 20
-2399.1976974219247
 30
0.0
 41
0.9998933699440635
 10
-4237.2106975909683
 20
-2398.9991678141673
 30
0.0
 41
1.0
 10
-4237.2093247657513
 20
-2398.9916397934667
 30
0.0
 41
1.0
 10
-4237.2079519405343
 20
-2398.9841117727656
 30
0.0
 41
1.0
 10
-4237.1690020257001
 20
-2398.7705261236197
 30
0.0
 41
0.9996850305193427
 10
-4237.1408183494423
 20
-2398.5552551181868
 30
0.0
 41
1.0
 10
-4237.1388233160724
 20
-2398.540016764061
 30
0.0
 41
1.0
 10
-4237.1368282827025
 20
-2398.5247784099352
 30
0.0
 41
1.0
 10
-4237.1094204202436
 20
-2398.3154331827786
 30
0.0
 41
0.9994697936706897
 10
-4237.0956958610241
 20
-2398.1047479874478
 30
0.0
 41
1.0
 10
-4237.0952187917746
 20
-2398.0974245152379
 30
0.0
 41
1.0
 10
-4237.0947417225252
 20
-2398.090101043028
 30
0.0
 41
1.0
 10
-4237.0819713018045
 20
-2397.8940627921179
 30
0.0
 41
0.9991804893136931
 10
-4237.085099618077
 20
-2397.6976339421435
 30
0.0
 41
1.0
 10
-4237.0851834968989
 20
-2397.6923671407476
 30
0.0
 41
1.0
 10
-4237.0852673757208
 20
-2397.6871003393517
 30
0.0
 41
1.0
 10
-4237.0882279343496
 20
-2397.5012050921869
 30
0.0
 41
0.9988448329322978
 10
-4237.1090194799735
 20
-2397.3164525023367
 30
0.0
 41
1.0
 10
-4237.1106135536766
 20
-2397.3022876465666
 30
0.0
 41
1.0
 10
-4237.1122076273796
 20
-2397.2881227907965
 30
0.0
 41
1.0
 10
-4237.1298110255975
 20
-2397.1316999125047
 30
0.0
 41
0.9985503209459284
 10
-4237.1641272978968
 20
-2396.9780757284143
 30
0.0
 41
1.0
 10
-4237.1717132899666
 20
-2396.9441154010183
 30
0.0
 41
1.0
 10
-4237.1792992820374
 20
-2396.9101550736227
 30
0.0
 41
1.0
 10
-4237.1984435701952
 20
-2396.8244515443303
 30
0.0
 41
0.9991036781371062
 10
-4237.2247684318472
 20
-2396.7406744569998
 30
0.0
 41
1.0
 10
-4237.228750657303
 20
-2396.7280012944889
 30
0.0
 41
1.0
 10
-4237.2327328827596
 20
-2396.7153281319779
 30
0.0
 41
1.0
 10
-4237.2510932934983
 20
-2396.656897369674
 30
0.0
 41
0.9998874504368573
 10
-4237.2711985011774
 20
-2396.5990437674518
 30
0.0
 41
1.0
 10
-4237.2913037088565
 20
-2396.5411901652265
 30
0.0
 41
0.9994041637544838
 10
-4237.3153523217943
 20
-2396.4848614613297
 30
0.0
 41
1.0
 10
-4237.3195491060178
 20
-2396.4750313968484
 30
0.0
 41
1.0
 10
-4237.3237458902422
 20
-2396.4652013323671
 30
0.0
 41
1.0
 10
-4237.3516247212347
 20
-2396.3999011664055
 30
0.0
 41
0.9991846840702597
 10
-4237.3846810779269
 20
-2396.3370631351272
 30
0.0
 41
1.0
 10
-4237.3858176843187
 20
-2396.334902518679
 30
0.0
 41
1.0
 10
-4237.3869542907105
 20
-2396.3327419022307
 30
0.0
 41
1.0
 10
-4237.4177374346182
 20
-2396.2742251038512
 30
0.0
 41
0.9989253167925501
 10
-4237.4538068586744
 20
-2396.2188101754568
 30
0.0
 41
1.0
 10
-4237.4548609833455
 20
-2396.2171906806998
 30
0.0
 41
1.0
 10
-4237.4559151080166
 20
-2396.2155711859423
 30
0.0
 41
1.0
 10
-4237.4898762827252
 20
-2396.1633952470715
 30
0.0
 41
0.9986467172834231
 10
-4237.5290734353666
 20
-2396.1150292134371
 30
0.0
 41
1.0
 10
-4237.5299475640695
 20
-2396.1139506111558
 30
0.0
 41
1.0
 10
-4237.5308216927733
 20
-2396.1128720088745
 30
0.0
 41
1.0
 10
-4237.5682705880072
 20
-2396.0666631798044
 30
0.0
 41
0.9984001104266296
 10
-4237.6106973185215
 20
-2396.0249780724389
 30
0.0
 41
1.0
 10
-4237.6112844566323
 20
-2396.0244011975565
 30
0.0
 41
1.0
 10
-4237.6118715947423
 20
-2396.0238243226745
 30
0.0
 41
1.0
 10
-4237.6531240490367
 20
-2395.9832929650711
 30
0.0
 41
0.9982442159082587
 10
-4237.698880150374
 20
-2395.9479244038093
 30
0.0
 41
1.0
 10
-4237.6990949458414
 20
-2395.9477583711623
 30
0.0
 41
1.0
 10
-4237.6993097413078
 20
-2395.9475923385148
 30
0.0
 41
1.0
 10
-4237.7446362517148
 20
-2395.9125558425449
 30
0.0
 41
0.9982450060828666
 10
-4237.7937872307812
 20
-2395.8831240595159
 30
0.0
 41
1.0
 10
-4237.8429382098502
 20
-2395.8536922764838
 30
0.0
 41
0.9983922639634054
 10
-4237.8951045160129
 20
-2395.8300126418303
 30
0.0
 41
1.0
 10
-4237.8953313933398
 20
-2395.8299096563478
 30
0.0
 41
1.0
 10
-4237.8955582706667
 20
-2395.8298066708653
 30
0.0
 41
1.0
 10
-4237.9481783314814
 20
-2395.8059210652473
 30
0.0
 41
0.9986517147142378
 10
-4238.0029913043454
 20
-2395.787619946128
 30
0.0
 41
1.0
 10
-4238.0036692257745
 20
-2395.7873935996959
 30
0.0
 41
1.0
 10
-4238.0043471472045
 20
-2395.7871672532638
 30
0.0
 41
1.0
 10
-4238.0605159629267
 20
-2395.7684134412802
 30
0.0
 41
0.9989435598959149
 10
-4238.1181693500766
 20
-2395.7548957390454
 30
0.0
 41
1.0
 10
-4238.1192494696597
 20
-2395.7546424887923
 30
0.0
 41
1.0
 10
-4238.1203295892428
 20
-2395.7543892385388
 30
0.0
 41
1.0
 10
-4238.1801432155598
 20
-2395.7403650357974
 30
0.0
 41
0.9992249241236018
 10
-4238.2408747244581
 20
-2395.7310896930826
 30
0.0
 41
1.0
 10
-4238.2422884127473
 20
-2395.7308737846752
 30
0.0
 41
1.0
 10
-4238.2437021010364
 20
-2395.7306578762673
 30
0.0
 41
1.0
 10
-4238.3072609865203
 20
-2395.7209507167354
 30
0.0
 41
0.9994396597832288
 10
-4238.3713269230484
 20
-2395.715517794391
 30
0.0
 41
1.0
 10
-4238.3904675905287
 20
-2395.7138946266723
 30
0.0
 41
1.0
 10
-4238.4096082580081
 20
-2395.7122714589532
 30
0.0
 41
1.0
 10
-4238.5119555294968
 20
-2395.7035922011705
 30
0.0
 41
0.9987693403121898
 10
-4238.6146591530905
 20
-2395.7050952646227
 30
0.0
 41
1.0
 10
-4238.6249134873169
 20
-2395.7052453363967
 30
0.0
 41
1.0
 10
-4238.6351678215433
 20
-2395.7053954081712
 30
0.0
 41
1.0
 10
-4238.7447235877216
 20
-2395.7069987524592
 30
0.0
 41
0.9989753644968529
 10
-4238.8536855877373
 20
-2395.7185017593838
 30
0.0
 41
1.0
 10
-4238.9626475877494
 20
-2395.7300047663089
 30
0.0
 41
0.9983190067308866
 10
-4239.0695463987176
 20
-2395.7540397580956
 30
0.0
 41
1.0
 10
-4239.0784473503254
 20
-2395.7560410366586
 30
0.0
 41
1.0
 10
-4239.0873483019332
 20
-2395.7580423152212
 30
0.0
 41
1.0
 10
-4239.2120490161124
 20
-2395.7860798641332
 30
0.0
 41
0.9985539388302114
 10
-4239.3330187697902
 20
-2395.8273435401788
 30
0.0
 41
1.0
 10
-4239.3353642007505
 20
-2395.8281435839945
 30
0.0
 41
1.0
 10
-4239.3377096317108
 20
-2395.8289436278105
 30
0.0
 41
1.0
 10
-4239.4633702473038
 20
-2395.8718073914865
 30
0.0
 41
0.9988468746495983
 10
-4239.5843405896076
 20
-2395.9265254765496
 30
0.0
 41
1.0
 10
-4239.5875234115974
 20
-2395.9279651511097
 30
0.0
 41
1.0
 10
-4239.5907062335864
 20
-2395.9294048256702
 30
0.0
 41
1.0
 10
-4239.7180422198635
 20
-2395.9870022598529
 30
0.0
 41
0.9991322885920906
 10
-4239.8401428039206
 20
-2396.0549975920344
 30
0.0
 41
1.0
 10
-4239.8577448149645
 20
-2396.0647997940241
 30
0.0
 41
1.0
 10
-4239.8753468260074
 20
-2396.0746019960138
 30
0.0
 41
1.0
 10
-4239.9775235070701
 20
-2396.1315021117971
 30
0.0
 41
0.9993860037847132
 10
-4240.0754645111383
 20
-2396.1954181273832
 30
0.0
 41
1.0
 10
-4240.0810828239919
 20
-2396.1990846220788
 30
0.0
 41
1.0
 10
-4240.0867011368446
 20
-2396.2027511167744
 30
0.0
 41
1.0
 10
-4240.1734055152037
 20
-2396.2593341429665
 30
0.0
 41
0.9998821494953898
 10
-4240.2583318910247
 20
-2396.3185523730485
 30
0.0
 41
1.0
 10
-4240.3432582668347
 20
-2396.3777706031233
 30
0.0
 41
0.999797648274276
 10
-4240.4257338972357
 20
-2396.4403570111631
 30
0.0
 41
1.0
 10
-4240.4403701620431
 20
-2396.4514637009452
 30
0.0
 41
1.0
 10
-4240.4550064268515
 20
-2396.4625703907268
 30
0.0
 41
1.0
 10
-4240.5667545868555
 20
-2396.5473701783199
 30
0.0
 41
0.9998091630799948
 10
-4240.6751048648875
 20
-2396.6364705290248
 30
0.0
 41
1.0
 10
-4240.6881106173678
 20
-2396.6471656294734
 30
0.0
 41
1.0
 10
-4240.701116369848
 20
-2396.6578607299216
 30
0.0
 41
1.0
 10
-4240.8354781528324
 20
-2396.7683512815165
 30
0.0
 41
0.9995035112316012
 10
-4240.9626140305963
 20
-2396.8870850985331
 30
0.0
 41
1.0
 10
-4240.9722613409831
 20
-2396.8960948446902
 30
0.0
 41
1.0
 10
-4240.9819086513698
 20
-2396.9051045908477
 30
0.0
 41
1.0
 10
-4241.1053317141332
 20
-2397.0203709626026
 30
0.0
 41
0.9994630424299468
 10
-4241.2209401199161
 20
-2397.1434737058366
 30
0.0
 41
1.0
 10
-4241.2246229586872
 20
-2397.1473952853489
 30
0.0
 41
1.0
 10
-4241.2283057974573
 20
-2397.1513168648612
 30
0.0
 41
1.0
 10
-4241.3365485257027
 20
-2397.2665764490748
 30
0.0
 41
0.999516069374901
 10
-4241.437414555232
 20
-2397.3883438669445
 30
0.0
 41
1.0
 10
-4241.4393482753076
 20
-2397.3906782911463
 30
0.0
 41
1.0
 10
-4241.4412819953832
 20
-2397.393012715348
 30
0.0
 41
1.0
 10
-4241.5382805847594
 20
-2397.5101112848115
 30
0.0
 41
0.9996561470515163
 10
-4241.6290068034305
 20
-2397.6321340472659
 30
0.0
 41
1.0
 10
-4241.6351644693332
 20
-2397.6404158363093
 30
0.0
 41
1.0
 10
-4241.6413221352368
 20
-2397.6486976253532
 30
0.0
 41
1.0
 10
-4241.7197330221024
 20
-2397.7541568097217
 30
0.0
 41
0.9998349055172664
 10
-4241.7942603040283
 20
-2397.8623953933784
 30
0.0
 41
1.0
 10
-4241.868787585976
 20
-2397.970633977066
 30
0.0
 41
0.9999728109561871
 10
-4241.9417104818822
 20
-2398.0799599026136
 30
0.0
 41
1.0
 10
-4241.9430256972882
 20
-2398.0819316721081
 30
0.0
 41
1.0
 10
-4241.9443409126943
 20
-2398.0839034416022
 30
0.0
 41
1.0
 10
-4242.0198942394945
 20
-2398.1971729062607
 30
0.0
 41
0.9999972147290309
 10
-4242.0949120498726
 20
-2398.3107977491049
 30
0.0
 41
1.0
 10
-4242.0998835924602
 20
-2398.3183278375241
 30
0.0
 41
1.0
 10
-4242.1048551350468
 20
-2398.3258579259432
 30
0.0
 41
1.0
 10
-4242.1898160306591
 20
-2398.4545429457157
 30
0.0
 41
0.9999371979005746
 10
-4242.2718713800687
 20
-2398.5850998594997
 30
0.0
 41
1.0
 10
-4242.2753802644311
 20
-2398.590682787566
 30
0.0
 41
1.0
 10
-4242.2788891487935
 20
-2398.5962657156319
 30
0.0
 41
1.0
 10
-4242.3679622669133
 20
-2398.7379884855259
 30
0.0
 41
0.9998272025610784
 10
-4242.4517056577943
 20
-2398.882924362264
 30
0.0
 41
1.0
 10
-4242.4669208298237
 20
-2398.9092574767301
 30
0.0
 41
1.0
 10
-4242.4821360018532
 20
-2398.9355905911962
 30
0.0
 41
1.0
 10
-4242.5963097367858
 20
-2399.133192696856
 30
0.0
 41
0.9995217214837873
 10
-4242.6980494263435
 20
-2399.3374750247222
 30
0.0
 41
1.0
 10
-4242.7056929889714
 20
-2399.3528224744105
 30
0.0
 41
1.0
 10
-4242.7133365515992
 20
-2399.3681699240988
 30
0.0
 41
1.0
 10
-4242.8002418441938
 20
-2399.54266638219
 30
0.0
 41
0.9998269762608435
 10
-4242.8805963104705
 20
-2399.7202746689245
 30
0.0
 41
1.0
 10
-4242.9609507767382
 20
-2399.897882955639
 30
0.0
 41
0.9998944747389164
 10
-4243.0361115712994
 20
-2400.0777506812592
 30
0.0
 41
1.0
 10
-4243.0410652408827
 20
-2400.0896053361598
 30
0.0
 41
1.0
 10
-4243.046018910467
 20
-2400.1014599910604
 30
0.0
 41
1.0
 10
-4243.1266659710309
 20
-2400.2944569311044
 30
0.0
 41
0.9999506734414635
 10
-4243.2034634999463
 20
-2400.4890177359875
 30
0.0
 41
1.0
 10
-4243.2180634652113
 20
-2400.5260056577781
 30
0.0
 41
1.0
 10
-4243.2326634304764
 20
-2400.5629935795691
 30
0.0
 41
1.0
 10
-4243.2802610288545
 20
-2400.683578540853
 30
0.0
 41
0.9999912393933689
 10
-4243.326847472872
 20
-2400.8045577435396
 30
0.0
 41
1.0
 10
-4243.3734339169332
 20
-2400.9255369463381
 30
0.0
 41
0.9999927113949195
 10
-4243.419095211364
 20
-2401.0468683539384
 30
0.0
 41
1.0
 10
-4243.4330636427239
 20
-2401.0839853358366
 30
0.0
 41
1.0
 10
-4243.4470320740838
 20
-2401.1211023177352
 30
0.0
 41
1.0
 10
-4243.520630231269
 20
-2401.3166676892229
 30
0.0
 41
0.9999487550948883
 10
-4243.5902538562368
 20
-2401.5136830543929
 30
0.0
 41
1.0
 10
-4243.6138474661821
 20
-2401.5804463647073
 30
0.0
 41
1.0
 10
-4243.6374410761264
 20
-2401.6472096750222
 30
0.0
 41
1.0
 10
-4243.7321267104935
 20
-2401.9151435098356
 30
0.0
 41
0.9999808436924156
 10
-4243.8234882991319
 20
-2402.1842289410924
 30
0.0
 41
1.0
 10
-4243.9148498877767
 20
-2402.4533143723675
 30
0.0
 41
0.9999873932907388
 10
-4244.0035045964887
 20
-2402.723303727365
 30
0.0
 41
1.0
 10
-4244.0235969533587
 20
-2402.7844930601204
 30
0.0
 41
1.0
 10
-4244.0436893102296
 20
-2402.8456823928759
 30
0.0
 41
1.0
 10
-4244.1725287326863
 20
-2403.2380504133962
 30
0.0
 41
0.9999794883037375
 10
-4244.2963315176466
 20
-2403.6320366196801
 30
0.0
 41
1.0
 10
-4244.307483777111
 20
-2403.6675272300035
 30
0.0
 41
1.0
 10
-4244.3186360365762
 20
-2403.703017840327
 30
0.0
 41
1.0
 10
-4244.4611942004412
 20
-2404.15669059231
 30
0.0
 41
0.9999982761722439
 10
-4244.6020666404311
 20
-2404.6108896143564
 30
0.0
 41
1.0
 10
-4246.190206973004
 20
-2409.6596593453596
 30
0.0
 41
1.0
 10
-4247.778347305577
 20
-2414.7084290763632
 30
0.0
 41
1.0
 10
-4248.7270979170535
 20
-2414.7084290763632
 30
0.0
 41
1.0
 10
-4249.67584852853
 20
-2414.7084290763632
 30
0.0
 41
1.0
 10
-4246.4375640423768
 20
-2404.3811068764171
 30
0.0
 41
1.0
 10
-4243.1992795562237
 20
-2394.053784676471
 30
0.0
 41
1.0
  0
LWPOLYLINE
  5
5D
100
AcDbEntity
  8
0
370
              15
390
0
  6
Continuous
 62
               7
100
AcDbPolyline
 90
      232
 70
             128
 10
-4268.9028253300512
 20
-2395.1381275079857
 42
0.0004370800650206
 10
-4268.9557025041468
 20
-2395.2067941472733
 10
-4268.9949867352498
 20
-2395.2579012601391
 42
0.0030481992181795
 10
-4269.1253254523945
 20
-2395.4296229525171
 10
-4269.1638371241188
 20
-2395.4810097362711
 42
0.0042058245745999
 10
-4269.3678221747805
 20
-2395.7580154813331
 10
-4269.4202272972898
 20
-2395.8304483281254
 42
0.0120948898742951
 10
-4269.7162712140525
 20
-2396.2611979326757
 10
-4269.8124637131677
 20
-2396.4086786678899
 42
0.0141601263941829
 10
-4270.1161077600955
 20
-2396.9043480046348
 10
-4270.1556450275266
 20
-2396.9731919720757
 42
0.0071131081310316
 10
-4270.3609173507602
 20
-2397.3426947709049
 42
0.0068458791015927
 10
-4270.5557968776275
 20
-2397.7177863344286
 10
-4270.5626087400615
 20
-2397.7313480481043
 42
0.0064120880299494
 10
-4270.7607509901072
 20
-2398.1387725230293
 10
-4270.7682856756219
 20
-2398.1547843797448
 42
0.0058857236431163
 10
-4270.971041067497
 20
-2398.5991604907886
 10
-4270.979215993787
 20
-2398.6176506444135
 42
0.0053189741898753
 10
-4271.1879203064627
 20
-2399.1036141183495
 10
-4271.1966681121366
 20
-2399.1245959965272
 42
0.0047503650419164
 10
-4271.4126418382648
 20
-2399.6567954296788
 10
-4271.4219100866358
 20
-2399.6802718058452
 42
0.0042071762161048
 10
-4271.6464574703368
 20
-2400.2633653998414
 10
-4271.6562068727126
 20
-2400.2893315747842
 42
0.0036680086497615
 10
-4271.8906615160331
 20
-2400.9279669593407
 10
-4271.9008692958723
 20
-2400.9564154936606
 42
0.0032573142628403
 10
-4272.1465015818776
 20
-2401.6552681535277
 10
-4272.2151521026608
 20
-2401.8547312374126
 42
0.0026133366648501
 10
-4272.5635973014378
 20
-2402.8845945211388
 10
-4272.6268540889178
 20
-2403.0748253564684
 42
0.0020592950739362
 10
-4272.8407171579056
 20
-2403.7269290091444
 10
-4272.8437689490829
 20
-2403.7363654975979
 42
0.0025609928536502
 10
-4273.045589450554
 20
-2404.3715107199205
 10
-4273.0481808176746
 20
-2404.3798130608407
 42
0.0031362356233238
 10
-4273.2376716033577
 20
-2405.0005759170404
 10
-4273.2398026462706
 20
-2405.0077172232022
 42
0.0037229918034205
 10
-4273.4166030332117
 20
-2405.6167025252257
 10
-4273.4182816224165
 20
-2405.6226494153939
 42
0.0043077623699147
 10
-4273.5820224244826
 20
-2406.2224681471689
 42
0.004765416182867
 10
-4273.7348511470027
 20
-2406.8251542360895
 10
-4273.7693157558379
 20
-2406.9667160132212
 42
0.0112969368446081
 10
-4273.9651801139789
 20
-2407.8584081738309
 10
-4273.9931865030785
 20
-2408.0012362199432
 42
0.0130056762572022
 10
-4274.1940237467252
 20
-2409.1881772915881
 10
-4274.2145634968701
 20
-2409.3322554050524
 42
0.0138721532144255
 10
-4274.3182665014101
 20
-2410.2390848908908
 10
-4274.3375619893231
 20
-2410.4625826128745
 42
0.0071254697022131
 10
-4274.3709086352401
 20
-2410.9257696216632
 10
-4274.3758696094137
 20
-2411.0117736164134
 42
0.0028881799220712
 10
-4274.3910079026928
 20
-2411.3035153260657
 42
0.006029729713449
 10
-4274.4009401024678
 20
-2411.5954642621614
 10
-4274.4020023841358
 20
-2411.6438566341099
 42
0.0229523164145033
 10
-4274.3942713563501
 20
-2411.9666114803972
 10
-4274.3900455828316
 20
-2412.0270150143933
 42
0.0123673300656048
 10
-4274.3709669363116
 20
-2412.2281357395882
 42
0.0128577674438925
 10
-4274.34177154591
 20
-2412.42803358949
 10
-4274.3346456725185
 20
-2412.469362404112
 42
0.0285717853799833
 10
-4274.2701516708184
 20
-2412.7474785554391
 10
-4274.2564831471573
 20
-2412.7941333248982
 42
0.0316283099135298
 10
-4274.1406725672423
 20
-2413.1131478267284
 10
-4274.1376238754865
 20
-2413.1201341990541
 42
0.0338984824270017
 10
-4273.9881921645192
 20
-2413.4077001632431
 10
-4273.9858834351508
 20
-2413.4114911925167
 42
0.0350228718331153
 10
-4273.8035231444755
 20
-2413.6685431771957
 10
-4273.8026378927025
 20
-2413.6696222549572
 42
0.0347476747546533
 10
-4273.5882132054612
 20
-2413.8968073021802
 42
0.0331337701899884
 10
-4273.3449698797131
 20
-2414.0929359642587
 10
-4273.343869781198
 20
-2414.0937086674303
 42
0.0305233319066155
 10
-4273.0753250856242
 20
-2414.2588368375214
 10
-4273.0720950411232
 20
-2414.2605608493841
 42
0.0273744481161046
 10
-4272.7795413295462
 20
-2414.3966989932755
 10
-4272.7744367944115
 20
-2414.3987425777441
 42
0.0240964406207412
 10
-4272.4589597187633
 20
-2414.5077263040262
 10
-4272.4523763895559
 20
-2414.5096510437006
 42
0.0209636179815299
 10
-4272.1149762369068
 20
-2414.5931191916316
 10
-4272.1073437764544
 20
-2414.594671104634
 42
0.0181388704669998
 10
-4271.7490213844576
 20
-2414.6540871978477
 10
-4271.7407405360773
 20
-2414.6551533816651
 42
0.0156086547584252
 10
-4271.3625531718826
 20
-2414.691889568242
 10
-4271.3193579195631
 20
-2414.6947280707204
 42
0.0137148329022336
 10
-4270.9916847742625
 20
-2414.7072483259717
 10
-4270.9457485843095
 20
-2414.7077427590871
 42
0.0051057823877518
 10
-4270.7096029977447
 20
-2414.7078730134963
 42
0.0052256693312176
 10
-4270.4735057139851
 20
-2414.7031241890327
 10
-4270.4032789302173
 20
-2414.7009772230181
 42
0.0161507179060336
 10
-4270.0275418521051
 20
-2414.6773268526904
 10
-4270.0075288917433
 20
-2414.6754166574037
 42
0.0101216737827013
 10
-4269.5935016702524
 20
-2414.6274237270386
 10
-4269.5594483808254
 20
-2414.622776030229
 42
0.024529177640424
 10
-4269.0826587252686
 20
-2414.5337009521513
 10
-4268.9978354097484
 20
-2414.5135050318063
 42
0.0143509212572949
 10
-4268.6412043058108
 20
-2414.417700398028
 42
0.0156557857026258
 10
-4268.2909882410831
 20
-2414.3006891822092
 10
-4268.2834870265888
 20
-2414.2979190204551
 42
0.0170137333633159
 10
-4267.9268910309102
 20
-2414.1522614055853
 10
-4267.9197871084998
 20
-2414.1490735700204
 42
0.0183105364425686
 10
-4267.5604374403374
 20
-2413.9717385281979
 10
-4267.5534906756948
 20
-2413.9679880933236
 42
0.0194899958154887
 10
-4267.1950099347087
 20
-2413.7560091114315
 10
-4267.1879960553742
 20
-2413.7514837691378
 42
0.0204869852956066
 10
-4266.833981753286
 20
-2413.5019637540563
 10
-4266.8267161446929
 20
-2413.4963836887036
 42
0.021251693856446
 10
-4266.4807262135846
 20
-2413.2064796918089
 10
-4266.4342095195025
 20
-2413.1640123817097
 42
0.0215248918260973
 10
-4266.1741833506212
 20
-2412.9052481027211
 10
-4266.1291536162453
 20
-2412.8564039813768
 42
0.0114578554934841
 10
-4265.9743614625631
 20
-2412.6805810479127
 10
-4265.9631669265673
 20
-2412.6672622843566
 42
0.0061531305144566
 10
-4265.8366922805817
 20
-2412.5129727510621
 42
0.0006325587139058
 10
-4265.7123137965027
 20
-2412.3569693754766
 10
-4265.689273661379
 20
-2412.3279958547269
 42
0.0041897761533917
 10
-4265.5208182573997
 20
-2412.1124764786559
 10
-4265.4623561375147
 20
-2412.03637513168
 42
0.0092993880034692
 10
-4265.1857442102782
 20
-2411.6620963677792
 10
-4265.1033497170929
 20
-2411.5461593642299
 42
0.0159321727097465
 10
-4264.7567432344495
 20
-2411.0239851434708
 10
-4264.7123870990663
 20
-2410.9523055792301
 42
0.0085547317002973
 10
-4264.477875333735
 20
-2410.5584306299961
 42
0.0084601156905343
 10
-4264.2568991562903
 20
-2410.1568037809602
 10
-4264.2487836824621
 20
-2410.141444098691
 42
0.008142965428154
 10
-4264.0255344120142
 20
-2409.70172258613
 10
-4264.0166742478405
 20
-2409.6835437441309
 42
0.0076574581336246
 10
-4263.7902667372646
 20
-2409.2003608688592
 10
-4263.7807870965498
 20
-2409.1792963905746
 42
0.0070682724201769
 10
-4263.5503421887452
 20
-2408.6472590857993
 10
-4263.5403519047613
 20
-2408.6232698967824
 42
0.0064559514449403
 10
-4263.3050186965775
 20
-2408.0369576302578
 10
-4263.2946093384144
 20
-2408.010022704821
 42
0.005831141391398
 10
-4263.0535626016353
 20
-2407.3639906103926
 10
-4263.0428075242644
 20
-2407.3341062692766
 42
0.0052312425820874
 10
-4262.7952262462104
 20
-2406.6229038554015
 10
-4262.7841824098441
 20
-2406.5900771433726
 42
0.0046680544799399
 10
-4262.5292539821139
 20
-2405.8082508276284
 10
-4262.4872618320596
 20
-2405.6752675903044
 42
0.0041666856437662
 10
-4262.2839758196715
 20
-2405.0122988153198
 10
-4262.2463133790297
 20
-2404.8857177077425
 42
0.0015170975154805
 10
-4262.1251268005944
 20
-2404.4738493561727
 42
-0.0004887993120009
 10
-4262.0047870275221
 20
-2404.0617309443032
 10
-4261.9283097699763
 20
-2403.8007735581896
 42
0.0002583378934028
 10
-4261.6550951995669
 20
-2402.8667168538277
 10
-4261.5733223504194
 20
-2402.5866175957167
 42
0.0006636169666506
 10
-4261.3794545903238
 20
-2401.9192646718402
 10
-4261.3743579359934
 20
-2401.9016330890177
 42
0.0010589131327128
 10
-4261.1929092350601
 20
-2401.2689017459115
 10
-4261.1879271645548
 20
-2401.2513888388039
 42
0.0015655524462724
 10
-4261.0196569573973
 20
-2400.6527721596904
 10
-4261.0148267570275
 20
-2400.6353800009178
 42
0.0021640440467891
 10
-4260.8605367849959
 20
-2400.0703529827365
 10
-4260.855902565585
 20
-2400.0530882528137
 42
0.002876387185386
 10
-4260.7163868475127
 20
-2399.5211203018957
 10
-4260.7120009833425
 20
-2399.5039963237286
 42
0.0037310511955516
 10
-4260.5880442915095
 20
-2399.0045487297175
 10
-4260.5839690712337
 20
-2398.9875884585276
 42
0.0047652197753202
 10
-4260.4763451707122
 20
-2398.5201106901668
 10
-4260.4726545713793
 20
-2398.5033511349748
 42
0.0060276699302276
 10
-4260.382124472234
 20
-2398.0672753398726
 10
-4260.3789057819449
 20
-2398.0507741255637
 42
0.0075824337764798
 10
-4260.3062164725288
 20
-2397.6455069611375
 10
-4260.3035710951444
 20
-2397.6293520136596
 42
0.0095130624623671
 10
-4260.2494558595181
 20
-2397.2542626606146
 10
-4260.2424696356366
 20
-2397.198329102504
 42
0.0121054653212983
 10
-4260.2158783050581
 20
-2396.9334332740245
 10
-4260.2150118152986
 20
-2396.9220298310938
 42
0.0069050827389816
 10
-4260.1999229972607
 20
-2396.6790886042513
 10
-4260.1987876975927
 20
-2396.6555623472191
 42
0.0169063976672719
 10
-4260.1959604186113
 20
-2396.4593696199058
 10
-4260.1971310701419
 20
-2396.3990338585495
 42
0.0052007733022412
 10
-4260.1993845187371
 20
-2396.3234404684044
 42
0.0054038123386672
 10
-4260.2193480305741
 20
-2396.2034221723979
 10
-4260.2244338864457
 20
-2396.1747636858136
 42
0.0112050460413965
 10
-4260.259818248498
 20
-2395.998437247506
 10
-4260.2776432105456
 20
-2395.9188956607536
 42
0.0240764468006431
 10
-4260.3685405766919
 20
-2395.5886586252504
 10
-4260.3870993395012
 20
-2395.5320384602669
 42
0.0256812331826809
 10
-4260.5304622596932
 20
-2395.1603142540012
 10
-4260.5358716855108
 20
-2395.1481829190188
 42
0.026836050120938
 10
-4260.7052989263648
 20
-2394.8171897849907
 10
-4260.7108353340027
 20
-2394.8076701146729
 42
0.0274670231725371
 10
-4260.9030363104139
 20
-2394.5153827397608
 10
-4260.9084176103815
 20
-2394.5081035922126
 42
0.0275035967097925
 10
-4261.1199904899386
 20
-2394.2525877019152
 10
-4261.1250599909054
 20
-2394.2471086142846
 42
0.0269557673527032
 10
-4261.3524635343438
 20
-2394.0264663283228
 10
-4261.3572065921262
 20
-2394.0223363738619
 42
0.0259124802232369
 10
-4261.5967614235569
 20
-2393.8346458467095
 10
-4261.6012922687387
 20
-2393.8314603443791
 42
0.0245162152987914
 10
-4261.8492086218348
 20
-2393.6747273352685
 10
-4261.8537351681662
 20
-2393.6721671380633
 42
0.0229282588807717
 10
-4262.1061547249865
 20
-2393.5442989455687
 10
-4262.1109352188223
 20
-2393.542146645807
 42
0.0212984135692863
 10
-4262.3639731712847
 20
-2393.4409477285644
 10
-4262.3692774562523
 20
-2393.4390841658051
 42
0.0197555462343056
 10
-4262.6190557939772
 20
-2393.3622687478401
 42
0.0183511896802651
 10
-4262.8739845194359
 20
-2393.3046858408752
 10
-4262.9603497161634
 20
-2393.2884830504895
 42
0.0338057877156754
 10
-4263.2458570654226
 20
-2393.254674645349
 10
-4263.3368624704699
 20
-2393.2500949900877
 42
0.0091990524493909
 10
-4263.4427095790979
 20
-2393.2467191341657
 42
0.0028333980843753
 10
-4263.548623495124
 20
-2393.2458910266491
 10
-4263.5495389481403
 20
-2393.245889056825
 42
-0.0023619827770462
 10
-4263.6572849633258
 20
-2393.2451482157453
 10
-4263.6936901334229
 20
-2393.2447259092833
 42
0.0008824598458878
 10
-4263.8742461230604
 20
-2393.2429501310471
 10
-4263.9181075556789
 20
-2393.2425961695199
 42
0.0038132665785489
 10
-4264.1863904515703
 20
-2393.242477233453
 10
-4264.202924106351
 20
-2393.2425959995962
 42
0.0060665569333532
 10
-4264.5042045979553
 20
-2393.2484162990177
 10
-4264.5184549299674
 20
-2393.2488646069851
 42
0.0080356953334528
 10
-4264.8479136463129
 20
-2393.2645323290521
 10
-4264.8599836613939
 20
-2393.2653009119922
 42
0.0098996399122725
 10
-4265.2127467460532
 20
-2393.2947861411908
 10
-4265.2227924554199
 20
-2393.2958264373883
 42
0.011774098136577
 10
-4265.5939493137676
 20
-2393.3431186849184
 10
-4265.6021720102517
 20
-2393.3443638014892
 42
0.0137435215151153
 10
-4265.9867608297354
 20
-2393.4134607750507
 10
-4265.99341786886
 20
-2393.4148466712845
 42
0.0158359869364181
 10
-4266.3864149626615
 20
-2393.5097387597652
 10
-4266.3918281495289
 20
-2393.5112287006359
 42
0.0180554124027692
 10
-4266.7881431941432
 20
-2393.6358667168752
 10
-4266.7926999822248
 20
-2393.6374827531408
 42
0.0203657431279396
 10
-4267.1871775000391
 20
-2393.7957430946572
 10
-4267.1913210390439
 20
-2393.7976047160982
 42
0.0226819684661883
 10
-4267.5787570952461
 20
-2393.993247294768
 10
-4267.5829568862664
 20
-2393.9956128866888
 42
0.0248634984590786
 10
-4267.9581388274482
 20
-2394.2322395326364
 10
-4268.0063337562306
 20
-2394.2660965744617
 42
0.0267044190882535
 10
-4268.2806264531473
 20
-2394.4815369503303
 42
0.0139303002199694
 10
-4268.536793619086
 20
-2394.718775791242
 10
-4268.5416470048067
 20
-2394.7235284541021
 42
0.0283460963441369
 10
-4268.7857195990364
 20
-2394.9912591145494
 10
-4268.825388104191
 20
-2395.0400606920202
 42
0.0070695364811579
 10
-4268.9028253300512
 20
-2395.1381275079857
 42
0.0070695364811579
  0
LWPOLYLINE
  5
5E
100
AcDbEntity
  8
0
370
              15
390
0
  6
Continuous
 62
               7
100
AcDbPolyline
 90
      226
 70
             128
 10
-4272.4316457672958
 20
-2410.8597163141699
 42
-0.0026277636732252
 10
-4272.4317236510979
 20
-2410.7929443884113
 10
-4272.4315062928654
 20
-2410.7397891709838
 42
-0.0088680296697944
 10
-4272.4277296765695
 20
-2410.5667733885207
 10
-4272.4253833174598
 20
-2410.5074933631272
 42
-0.0077381705625281
 10
-4272.4093372066964
 20
-2410.2162328673271
 10
-4272.408469295523
 20
-2410.2039446336439
 42
-0.006887253051551
 10
-4272.3818372157757
 20
-2409.8887228815861
 10
-4272.3806329915888
 20
-2409.876481902556
 42
-0.0062130021515859
 10
-4272.3430392747641
 20
-2409.5376122113425
 10
-4272.3415353712262
 20
-2409.5254383394008
 42
-0.0056726929663662
 10
-4272.2926135117259
 20
-2409.1632431173034
 10
-4272.290840066079
 20
-2409.1511493170419
 42
-0.0052341884486508
 10
-4272.2302294798246
 20
-2408.7659560615548
 10
-4272.2282114910431
 20
-2408.7539511315317
 42
-0.0049768450187345
 10
-4272.1554728096144
 20
-2408.3461065640868
 10
-4272.131223794895
 20
-2408.2175585810933
 42
-0.0089029805615902
 10
-4271.9941429430928
 20
-2407.5557831336409
 10
-4271.9613975677812
 20
-2407.4107517031475
 42
-0.0080318257097363
 10
-4271.7318489534337
 20
-2406.465042071266
 10
-4271.7198640269926
 20
-2406.4189114361038
 42
-0.0074265721319861
 10
-4271.4358524881554
 20
-2405.3888468577657
 10
-4271.4159729450239
 20
-2405.3207127971282
 42
-0.0069711922703888
 10
-4271.0886683665194
 20
-2404.2544450568057
 10
-4271.0287164194042
 20
-2404.0684236984048
 42
-0.0052070422891812
 10
-4270.7992911941546
 20
-2403.3811516214037
 10
-4270.7820100021099
 20
-2403.3311243411549
 42
-0.0009167004454978
 10
-4270.5789181146929
 20
-2402.7466684926326
 42
-0.00251627269436
 10
-4270.3718204844472
 20
-2402.1636272285173
 10
-4270.3345958726641
 20
-2402.0604776826731
 42
-0.0028212681465527
 10
-4270.0864199536618
 20
-2401.3847470503938
 10
-4270.0765891909332
 20
-2401.3584396057749
 42
-0.0031964916821415
 10
-4269.8402969332483
 20
-2400.7382348435899
 10
-4269.8306624792676
 20
-2400.7134248534931
 42
-0.0036281836446935
 10
-4269.6055565181487
 20
-2400.1459841725537
 10
-4269.5961181079783
 20
-2400.1226867410182
 42
-0.004126916683401
 10
-4269.3815004113321
 20
-2399.6052458450727
 10
-4269.3488674548989
 20
-2399.5283673986833
 42
-0.0047472213049869
 10
-4269.1918226493572
 20
-2399.167945930828
 10
-4269.1849285681055
 20
-2399.1525253333989
 42
-0.0025651659980545
 10
-4269.0365705342992
 20
-2398.8251972777475
 42
-0.0057144635009123
 10
-4268.8828208405275
 20
-2398.5003876043843
 10
-4268.8547901351249
 20
-2398.4428792219869
 42
-0.0065388068362695
 10
-4268.6713231073863
 20
-2398.0786467253256
 10
-4268.6628646515983
 20
-2398.0623871459384
 42
-0.0074510843032248
 10
-4268.4866824057299
 20
-2397.7356988648335
 10
-4268.4785027351945
 20
-2397.7210580875576
 42
-0.0084648979847506
 10
-4268.308868882099
 20
-2397.4291490766036
 10
-4268.3010127556145
 20
-2397.4161420849578
 42
-0.0095638542816561
 10
-4268.1371773080173
 20
-2397.1562532129742
 10
-4268.1297023643556
 20
-2397.1448838515335
 42
-0.0107191626819382
 10
-4267.9709007839574
 20
-2396.9142726169748
 10
-4267.9638840502212
 20
-2396.9045365246029
 42
-0.0118458573880343
 10
-4267.8093359517134
 20
-2396.7004643292994
 42
-0.012918451822053
 10
-4267.6448833281156
 20
-2396.504303813133
 10
-4267.6147385557451
 20
-2396.4701777342243
 42
-0.0217742579624637
 10
-4267.4381262334146
 20
-2396.2869709639795
 10
-4267.4273806889523
 20
-2396.2767541307749
 42
-0.0097266568650927
 10
-4267.2613230700981
 20
-2396.1249065563393
 42
-0.0187720905696749
 10
-4267.0869754942096
 20
-2395.9828377029512
 10
-4267.0562695035351
 20
-2395.9596786205548
 42
-0.0179428207539771
 10
-4266.8238487835379
 20
-2395.7971264434423
 10
-4266.8201964566269
 20
-2395.7947625085581
 42
-0.0170047877702631
 10
-4266.5844328190915
 20
-2395.6533019944027
 10
-4266.5806498303455
 20
-2395.6512036893669
 42
-0.0160190788368814
 10
-4266.3437412827097
 20
-2395.5295523873783
 42
-0.0151102861483076
 10
-4266.0997095002622
 20
-2395.4228696113232
 10
-4266.0473229980516
 20
-2395.4018294784291
 42
-0.0271945441893723
 10
-4265.6886604389929
 20
-2395.2799646677231
 10
-4265.6195956385081
 20
-2395.2606151264577
 42
-0.023759659401283
 10
-4265.2037987914828
 20
-2395.1651644144754
 10
-4265.1357359377516
 20
-2395.1529097263483
 42
-0.0213715440554102
 10
-4264.849861006307
 20
-2395.1139626948388
 10
-4264.7897138400849
 20
-2395.1083729801371
 42
-0.0101465655856195
 10
-4264.6222213080955
 20
-2395.0962294368737
 10
-4264.6128809219035
 20
-2395.0957425218767
 42
-0.0100375910876432
 10
-4264.4637268213346
 20
-2395.0909667039509
 10
-4264.4534675516406
 20
-2395.0908442649365
 42
-0.0103625633396152
 10
-4264.3247595569992
 20
-2395.0919756984631
 10
-4264.3024939057395
 20
-2395.0926330569278
 42
-0.0115689250285543
 10
-4264.2184431682035
 20
-2395.0970625631735
 42
-0.0072438037456891
 10
-4264.1346048887563
 20
-2395.1046517629234
 10
-4264.1178043792916
 20
-2395.1064183056469
 42
-0.0217917313166459
 10
-4264.0012346159838
 20
-2395.1238381983671
 10
-4263.9356345254073
 20
-2395.1365848067835
 42
-0.0332943556755454
 10
-4263.7312423603835
 20
-2395.1906250980896
 10
-4263.7010697918431
 20
-2395.200793175205
 42
-0.0184824084812754
 10
-4263.5625647353681
 20
-2395.2532441905946
 42
-0.0198002050661989
 10
-4263.4284903948492
 20
-2395.3161282508036
 10
-4263.4266037574907
 20
-2395.317106037674
 42
-0.0212242343000076
 10
-4263.2944648151006
 20
-2395.3928687764601
 10
-4263.2926495195461
 20
-2395.3940145786755
 42
-0.0226090605788494
 10
-4263.1641456183243
 20
-2395.4834942222401
 10
-4263.1623011765878
 20
-2395.484906475227
 42
-0.0238457052236133
 10
-4263.0391190952969
 20
-2395.5889023710874
 10
-4263.0371663667356
 20
-2395.590717248856
 42
-0.024816056419578
 10
-4262.9209648594369
 20
-2395.7099918500626
 10
-4262.9188612260332
 20
-2395.7123771837687
 42
-0.0254109591428511
 10
-4262.8112560081645
 20
-2395.8476655697373
 10
-4262.8090079862532
 20
-2395.8508071181341
 42
-0.0255528488248325
 10
-4262.7115613074511
 20
-2396.0028341723737
 10
-4262.7092302075389
 20
-2396.0069157839753
 42
-0.0252146793281779
 10
-4262.6234491815349
 20
-2396.1764180299624
 10
-4262.6211469423724
 20
-2396.1816001118855
 42
-0.0244265635886977
 10
-4262.5484922486075
 20
-2396.3693466839427
 10
-4262.5392458471424
 20
-2396.3972121022698
 42
-0.0231319612930174
 10
-4262.4933230681499
 20
-2396.5605131490715
 42
-0.0112130424345498
 10
-4262.4586870456105
 20
-2396.7267167492691
 10
-4262.4574845204997
 20
-2396.7332133361474
 42
-0.0210527881202724
 10
-4262.4317980451269
 20
-2396.9142689816063
 10
-4262.4282874503069
 20
-2396.9496745301358
 42
-0.019002989241411
 10
-4262.4128459767617
 20
-2397.2032103764295
 10
-4262.412036000318
 20
-2397.2386859907774
 42
-0.0137974553661342
 10
-4262.4135848531541
 20
-2397.5637173975201
 10
-4262.4144303081093
 20
-2397.5898361421046
 42
-0.0081336634201547
 10
-4262.4292896433326
 20
-2397.8951836097026
 42
-0.0073526923552497
 10
-4262.4535981767094
 20
-2398.1999318540184
 10
-4262.4548596004897
 20
-2398.2132685286538
 42
-0.0066886138704954
 10
-4262.4905951865267
 20
-2398.5438545720772
 10
-4262.4922522760053
 20
-2398.5574761911425
 42
-0.0061359187365425
 10
-4262.5401028780607
 20
-2398.9142401712743
 10
-4262.5421403791288
 20
-2398.9281349740718
 42
-0.0056698610056166
 10
-4262.6027907098996
 20
-2399.3114135429296
 10
-4262.6051961432195
 20
-2399.3255726621405
 42
-0.0052721077264189
 10
-4262.6793283440275
 20
-2399.7357000018619
 10
-4262.6820914928612
 20
-2399.7501166372044
 42
-0.0049289272162536
 10
-4262.7703856109683
 20
-2400.1874251483619
 10
-4262.7734981056437
 20
-2400.2020940011425
 42
-0.0047415956721231
 10
-4262.8767360971806
 20
-2400.6668907585704
 10
-4262.9115043075362
 20
-2400.8166978539366
 42
-0.0084404470894539
 10
-4263.1015207511036
 20
-2401.5769218784526
 10
-4263.1076474390939
 20
-2401.5997860026214
 42
-0.0039635940261546
 10
-4263.3291011233778
 20
-2402.4007748668701
 10
-4263.3424779185571
 20
-2402.4477064834605
 42
-0.0072475040830921
 10
-4263.6099248064293
 20
-2403.3369261998805
 10
-4263.6801371332176
 20
-2403.5586665497285
 42
-0.0051345458830897
 10
-4263.9668965053061
 20
-2404.4329917376335
 10
-4263.988422772135
 20
-2404.4964180049446
 42
-0.0019150016603011
 10
-4264.2439561789406
 20
-2405.2399671249896
 10
-4264.2504237833518
 20
-2405.2585545899551
 42
-0.002152436273702
 10
-4264.4989018344004
 20
-2405.9628804116192
 10
-4264.5081122550564
 20
-2405.9886339898076
 42
-0.0024331286832506
 10
-4264.7443675141321
 20
-2406.639233298039
 10
-4264.7534154666891
 20
-2406.6637766044109
 42
-0.0027449721786276
 10
-4264.9780300375187
 20
-2407.2629064833177
 10
-4264.9869200449366
 20
-2407.2862290732373
 42
-0.00310832297611
 10
-4265.2004625315212
 20
-2407.8361531107494
 10
-4265.209198663214
 20
-2407.85824282665
 42
-0.0035311343284271
 10
-4265.4122398487889
 20
-2408.3612259523375
 10
-4265.4208251879309
 20
-2408.3820686758345
 42
-0.0040245640943584
 10
-4265.613936991731
 20
-2408.8403779984401
 10
-4265.6223731053396
 20
-2408.8599573665247
 42
-0.0046015135850663
 10
-4265.8061293984974
 20
-2409.2758623961545
 10
-4265.8144155763439
 20
-2409.2941595356465
 42
-0.0052768638266225
 10
-4265.9893930952812
 20
-2409.6699324198771
 10
-4265.9975253059129
 20
-2409.6869257584299
 42
-0.0060672675639423
 10
-4266.1643049186741
 20
-2410.0248413815343
 10
-4266.1722743991586
 20
-2410.0405066405378
 42
-0.0069904648857952
 10
-4266.3314427931573
 20
-2410.3428424471954
 10
-4266.3392341927565
 20
-2410.3571529964011
 42
-0.0080637022766062
 10
-4266.4913860531133
 20
-2410.6261882995759
 10
-4266.4989750857412
 20
-2410.6391161651718
 42
-0.0093006455682604
 10
-4266.6447157622761
 20
-2410.8771305636797
 10
-4266.6520664290065
 20
-2410.8886485328317
 42
-0.0107060778045084
 10
-4266.7920149724587
 20
-2411.0979188502315
 10
-4266.7990767407291
 20
-2411.1080043927846
 42
-0.0122723111409072
 10
-4266.9338704589363
 20
-2411.2907977222867
 10
-4266.9341966824968
 20
-2411.2912181101051
 42
-0.0141836319615491
 10
-4267.0777782854648
 20
-2411.4657878679254
 10
-4267.0847260411156
 20
-2411.4737628681883
 42
-0.0175957477242993
 10
-4267.2246322091514
 20
-2411.6233837565951
 42
-0.0080466359648061
 10
-4267.3720959741886
 20
-2411.7657062847534
 10
-4267.4181305186985
 20
-2411.8087267228375
 42
-0.0269600260397683
 10
-4267.6714107646758
 20
-2412.0210499813434
 10
-4267.7379779009798
 20
-2412.071001395972
 42
-0.0178362839752084
 10
-4267.9779223906344
 20
-2412.2380193222234
 10
-4267.9851673616404
 20
-2412.2426878344322
 42
-0.0174650732630168
 10
-4268.2215035590771
 20
-2412.3835487993874
 42
-0.0169240130164539
 10
-4268.4669698049302
 20
-2412.5078410591627
 10
-4268.512955960492
 20
-2412.529203014732
 42
-0.0318883036843364
 10
-4268.8633068161098
 20
-2412.6655413242415
 10
-4268.9316723512793
 20
-2412.6872419447182
 42
-0.0284435909888746
 10
-4269.3077224775679
 20
-2412.7834593801917
 10
-4269.3428806380653
 20
-2412.7903529760201
 42
-0.0243909341026639
 10
-4269.6563240989854
 20
-2412.8360740070507
 10
-4269.7066048257557
 20
-2412.8409195539525
 42
-0.0196639292899034
 10
-4269.9222004032836
 20
-2412.8531678394661
 10
-4269.9740244744571
 20
-2412.8540711002029
 42
-0.0100501510712189
 10
-4270.0864477561108
 20
-2412.8537707018495
 10
-4270.1181076174635
 20
-2412.8530496299641
 42
-0.0019752030986714
 10
-4270.1671999541368
 20
-2412.8517374697544
 10
-4270.169960257379
 20
-2412.8516527779275
 42
0.0065378752033196
 10
-4270.2135368321142
 20
-2412.8508858867135
 42
-0.0167974694590916
 10
-4270.257067655044
 20
-2412.8492259881868
 10
-4270.2611469943076
 20
-2412.848932977292
 42
-0.0081283276130929
 10
-4270.3127067920423
 20
-2412.8443859836548
 10
-4270.3244463659248
 20
-2412.8431580660758
 42
-0.0126703440196383
 10
-4270.3991646617233
 20
-2412.833423275004
 10
-4270.4219525293956
 20
-2412.8298650190891
 42
-0.011785208846285
 10
-4270.5414915152205
 20
-2412.8083020239333
 10
-4270.5968719669909
 20
-2412.7969584836974
 42
-0.0251774592295842
 10
-4270.823716005998
 20
-2412.7384604742647
 10
-4270.8684351958427
 20
-2412.7244936549314
 42
-0.0146525199901966
 10
-4271.0548281833871
 20
-2412.6602271277311
 42
-0.0166929435852166
 10
-4271.2368058395195
 20
-2412.5844199946741
 10
-4271.2414624707872
 20
-2412.5822950940624
 42
-0.0191684358404278
 10
-4271.4266461020416
 20
-2412.48905901027
 10
-4271.4299786877937
 20
-2412.4872177627194
 42
-0.0221181781814094
 10
-4271.6132889916898
 20
-2412.3750842643526
 10
-4271.6156387957044
 20
-2412.3734999663575
 42
-0.0254984685386934
 10
-4271.7919289460915
 20
-2412.2410888163863
 10
-4271.814411093791
 20
-2412.2223365074524
 42
-0.0292492648817008
 10
-4271.9391800326348
 20
-2412.1052437078083
 42
-0.0159048957514535
 10
-4272.0530200300918
 20
-2411.9772237162006
 10
-4272.0543388206643
 20
-2411.9756421031893
 42
-0.0343813379574777
 10
-4272.1569760822858
 20
-2411.8337707774281
 10
-4272.1884676136506
 20
-2411.7832673853277
 42
-0.0369117275693141
 10
-4272.2743601155489
 20
-2411.6197901443775
 42
-0.0191751379924317
 10
-4272.3415535011072
 20
-2411.4473855383662
 10
-4272.3433168248648
 20
-2411.4422921936966
 42
-0.0378178042189755
 10
-4272.3931115436499
 20
-2411.2533514176093
 10
-4272.3991068393825
 20
-2411.2207907994011
 42
-0.0184846046463985
 10
-4272.4198240386731
 20
-2411.0790379788737
 42
-0.0179866351261894
 10
-4272.4301570437474
 20
-2410.9361471658035
 10
-4272.4302134861937
 20
-2410.9345894791795
 42
-0.0085497186138633
 10
-4272.4316457672958
 20
-2410.8597163141699
 42
-0.0085497186138633
  0
ENDBLK
  5
5F
100
AcDbEntity
  8
template
390
0
100
AcDbBlockEnd
  0
BLOCK
  5
60
100
AcDbEntity
  8
notes
390
0
100
AcDbBlockBegin
  2
*D3
 70
               1
 10
0.0
 20
0.0
 30
0.0
  3
*D3
  1

  0
LINE
  5
61
100
AcDbEntity
  8
0
370
              -2
390
0
  6
Continuous
 62
               0
100
AcDbLine
 10
-37.430002416438583
 20
860.92698478999682
 30
0.0
 11
-37.430002416438583
 21
985.92698478999682
 31
0.0
  0
LINE
  5
62
100
AcDbEntity
  8
0
370
              -2
390
0
  6
Continuous
 62
               0
100
AcDbLine
 10
-687.43000241643131
 20
860.92698478999682
 30
0.0
 11
-687.43000241643131
 21
985.92698478999682
 31
0.0
  0
LINE
  5
63
100
AcDbEntity
  8
0
370
              -2
390
0
  6
Continuous
 62
               0
100
AcDbLine
 10
-37.430002416438583
 20
985.92698478999682
 30
0.0
 11
-687.43000241643131
 21
985.92698478999682
 31
0.0
  0
CIRCLE
  5
64
102
{ACAD_REACTORS
330
65
102
}
100
AcDbEntity
  8
0
370
              -2
390
0
  6
Continuous
 62
               0
100
AcDbCircle
 10
-37.430002416438583
 20
985.92698478999682
 30
0.0
 40
1.9998779296875
  0
HATCH
  5
65
100
AcDbEntity
  8
0
370
              -2
390
0
  6
Continuous
 62
               0
100
AcDbHatch
 10
0.0
 20
0.0
 30
0.0
210
0.0
220
0.0
230
1.0
  2
SOLID
 70
               1
 71
               1
 91
        1
 92
        1
 93
        1
 72
               2
 10
-37.430002416438583
 20
985.92698478999682
 40
1.9998779296875
 50
0.0
 51
360.0
 73
               0
 97
        1
330
64
 75
               0
 76
               1
 98
        1
 10
0.0
 20
0.0
  0
CIRCLE
  5
66
102
{ACAD_REACTORS
330
67
102
}
100
AcDbEntity
  8
0
370
              -2
390
0
  6
Continuous
 62
               0
100
AcDbCircle
 10
-687.43000241643131
 20
985.92698478999682
 30
0.0
 40
1.9998779296875
  0
HATCH
  5
67
100
AcDbEntity
  8
0
370
              -2
390
0
  6
Continuous
 62
               0
100
AcDbHatch
 10
0.0
 20
0.0
 30
0.0
210
0.0
220
0.0
230
1.0
  2
SOLID
 70
               1
 71
               1
 91
        1
 92
        1
 93
        1
 72
               2
 10
-687.43000241643131
 20
985.92698478999682
 40
1.9998779296875
 50
0.0
 51
360.0
 73
               0
 97
        1
330
66
 75
               0
 76
               1
 98
        1
 10
0.0
 20
0.0
  0
MTEXT
  5
68
100
AcDbEntity
  8
0
390
0
 62
               0
100
AcDbMText
 10
-386.24250409861088
 20
1019.8046019774968
 30
0.0
 40
24.432617187500004
 41
0.0
 71
               1
 72
               1
  1
650
  7
ＭＳ ゴシック
 73
               1
 44
0.7828267384257843
  0
POINT
  5
69
100
AcDbEntity
  8
Defpoints
370
               0
390
0
 62
               0
100
AcDbPoint
 10
-687.43000241643131
 20
835.92698478999682
 30
0.0
  0
POINT
  5
6A
100
AcDbEntity
  8
Defpoints
370
               0
390
0
 62
               0
100
AcDbPoint
 10
-37.430002416438583
 20
835.92698478999682
 30
0.0
  0
POINT
  5
6B
100
AcDbEntity
  8
Defpoints
370
               0
390
0
 62
               0
100
AcDbPoint
 10
-37.430002416438583
 20
985.92698478999682
 30
0.0
  0
ENDBLK
  5
6C
100
AcDbEntity
  8
notes
390
0
100
AcDbBlockEnd
  0
BLOCK
  5
6D
100
AcDbEntity
  8
notes
390
0
100
AcDbBlockBegin
  2
*D4
 70
               1
 10
0.0
 20
0.0
 30
0.0
  3
*D4
  1

  0
LINE
  5
6E
100
AcDbEntity
  8
0
370
              -2
390
0
  6
Continuous
 62
               0
100
AcDbLine
 10
-192.4300024164304
 20
803.46147656071219
 30
0.0
 11
-192.4300024164304
 21
935.92698478999694
 31
0.0
  0
LINE
  5
6F
100
AcDbEntity
  8
0
370
              -2
390
0
  6
Continuous
 62
               0
100
AcDbLine
 10
-292.4300024164304
 20
813.46147656071219
 30
0.0
 11
-292.4300024164304
 21
935.92698478999694
 31
0.0
  0
LINE
  5
70
100
AcDbEntity
  8
0
370
              -2
390
0
  6
Continuous
 62
               0
100
AcDbLine
 10
-192.4300024164304
 20
935.92698478999694
 30
0.0
 11
-292.4300024164304
 21
935.92698478999694
 31
0.0
  0
CIRCLE
  5
71
102
{ACAD_REACTORS
330
72
102
}
100
AcDbEntity
  8
0
370
              -2
390
0
  6
Continuous
 62
               0
100
AcDbCircle
 10
-192.4300024164304
 20
935.92698478999694
 30
0.0
 40
1.9998779296875
  0
HATCH
  5
72
100
AcDbEntity
  8
0
370
              -2
390
0
  6
Continuous
 62
               0
100
AcDbHatch
 10
0.0
 20
0.0
 30
0.0
210
0.0
220
0.0
230
1.0
  2
SOLID
 70
               1
 71
               1
 91
        1
 92
        1
 93
        1
 72
               2
 10
-192.4300024164304
 20
935.92698478999694
 40
1.9998779296875
 50
0.0
 51
360.0
 73
               0
 97
        1
330
71
 75
               0
 76
               1
 98
        1
 10
0.0
 20
0.0
  0
CIRCLE
  5
73
102
{ACAD_REACTORS
330
74
102
}
100
AcDbEntity
  8
0
370
              -2
390
0
  6
Continuous
 62
               0
100
AcDbCircle
 10
-292.4300024164304
 20
935.92698478999694
 30
0.0
 40
1.9998779296875
  0
HATCH
  5
74
100
AcDbEntity
  8
0
370
              -2
390
0
  6
Continuous
 62
               0
100
AcDbHatch
 10
0.0
 20
0.0
 30
0.0
210
0.0
220
0.0
230
1.0
  2
SOLID
 70
               1
 71
               1
 91
        1
 92
        1
 93
        1
 72
               2
 10
-292.4300024164304
 20
935.92698478999694
 40
1.9998779296875
 50
0.0
 51
360.0
 73
               0
 97
        1
330
73
 75
               0
 76
               1
 98
        1
 10
0.0
 20
0.0
  0
MTEXT
  5
75
100
AcDbEntity
  8
0
390
0
 62
               0
100
AcDbMText
 10
-266.24250409860633
 20
969.80460197749699
 30
0.0
 40
24.432617187500004
 41
0.0
 71
               1
 72
               1
  1
100
  7
ＭＳ ゴシック
 73
               1
 44
0.7828267384257843
  0
POINT
  5
76
100
AcDbEntity
  8
Defpoints
370
               0
390
0
 62
               0
100
AcDbPoint
 10
-292.4300024164304
 20
788.46147656071219
 30
0.0
  0
POINT
  5
77
100
AcDbEntity
  8
Defpoints
370
               0
390
0
 62
               0
100
AcDbPoint
 10
-192.4300024164304
 20
778.46147656071219
 30
0.0
  0
POINT
  5
78
100
AcDbEntity
  8
Defpoints
370
               0
390
0
 62
               0
100
AcDbPoint
 10
-192.4300024164304
 20
935.92698478999694
 30
0.0
  0
ENDBLK
  5
79
100
AcDbEntity
  8
notes
390
0
100
AcDbBlockEnd
  0
BLOCK
  5
7A
100
AcDbEntity
  8
notes
390
0
100
AcDbBlockBegin
  2
*D5
 70
               1
 10
0.0
 20
0.0
 30
0.0
  3
*D5
  1

  0
LINE
  5
7B
100
AcDbEntity
  8
0
370
              -2
390
0
  6
Continuous
 62
               0
100
AcDbLine
 10
-292.4300024164304
 20
813.46147656071219
 30
0.0
 11
-292.4300024164304
 21
935.92698478999694
 31
0.0
  0
LINE
  5
7C
100
AcDbEntity
  8
0
370
              -2
390
0
  6
Continuous
 62
               0
100
AcDbLine
 10
-392.4300024164304
 20
803.46147656071219
 30
0.0
 11
-392.4300024164304
 21
935.92698478999694
 31
0.0
  0
LINE
  5
7D
100
AcDbEntity
  8
0
370
              -2
390
0
  6
Continuous
 62
               0
100
AcDbLine
 10
-292.4300024164304
 20
935.92698478999694
 30
0.0
 11
-392.4300024164304
 21
935.92698478999694
 31
0.0
  0
CIRCLE
  5
7E
102
{ACAD_REACTORS
330
7F
102
}
100
AcDbEntity
  8
0
370
              -2
390
0
  6
Continuous
 62
               0
100
AcDbCircle
 10
-292.4300024164304
 20
935.92698478999694
 30
0.0
 40
1.9998779296875
  0
HATCH
  5
7F
100
AcDbEntity
  8
0
370
              -2
390
0
  6
Continuous
 62
               0
100
AcDbHatch
 10
0.0
 20
0.0
 30
0.0
210
0.0
220
0.0
230
1.0
  2
SOLID
 70
               1
 71
               1
 91
        1
 92
        1
 93
        1
 72
               2
 10
-292.4300024164304
 20
935.92698478999694
 40
1.9998779296875
 50
0.0
 51
360.0
 73
               0
 97
        1
330
7E
 75
               0
 76
               1
 98
        1
 10
0.0
 20
0.0
  0
CIRCLE
  5
80
102
{ACAD_REACTORS
330
81
102
}
100
AcDbEntity
  8
0
370
              -2
390
0
  6
Continuous
 62
               0
100
AcDbCircle
 10
-392.4300024164304
 20
935.92698478999694
 30
0.0
 40
1.9998779296875
  0
HATCH
  5
81
100
AcDbEntity
  8
0
370
              -2
390
0
  6
Continuous
 62
               0
100
AcDbHatch
 10
0.0
 20
0.0
 30
0.0
210
0.0
220
0.0
230
1.0
  2
SOLID
 70
               1
 71
               1
 91
        1
 92
        1
 93
        1
 72
               2
 10
-392.4300024164304
 20
935.92698478999694
 40
1.9998779296875
 50
0.0
 51
360.0
 73
               0
 97
        1
330
80
 75
               0
 76
               1
 98
        1
 10
0.0
 20
0.0
  0
MTEXT
  5
82
100
AcDbEntity
  8
0
390
0
 62
               0
100
AcDbMText
 10
-366.24250409860633
 20
969.80460197749699
 30
0.0
 40
24.432617187500004
 41
0.0
 71
               1
 72
               1
  1
100
  7
ＭＳ ゴシック
 73
               1
 44
0.7828267384257843
  0
POINT
  5
83
100
AcDbEntity
  8
Defpoints
370
               0
390
0
 62
               0
100
AcDbPoint
 10
-392.4300024164304
 20
778.46147656071219
 30
0.0
  0
POINT
  5
84
100
AcDbEntity
  8
Defpoints
370
               0
390
0
 62
               0
100
AcDbPoint
 10
-292.4300024164304
 20
788.46147656071219
 30
0.0
  0
POINT
  5
85
100
AcDbEntity
  8
Defpoints
370
               0
390
0
 62
               0
100
AcDbPoint
 10
-292.4300024164304
 20
935.92698478999694
 30
0.0
  0
ENDBLK
  5
86
100
AcDbEntity
  8
notes
390
0
100
AcDbBlockEnd
  0
BLOCK
  5
87
100
AcDbEntity
  8
notes
390
0
100
AcDbBlockBegin
  2
*D6
 70
               1
 10
0.0
 20
0.0
 30
0.0
  3
*D6
  1

  0
LINE
  5
88
100
AcDbEntity
  8
0
370
              -2
390
0
  6
Continuous
 62
               0
100
AcDbLine
 10
382.43203775443453
 20
-380.10648064316433
 30
0.0
 11
298.76166425021256
 21
-380.10648064316433
 31
0.0
  0
LINE
  5
89
100
AcDbEntity
  8
0
370
              -2
390
0
  6
Continuous
 62
               0
100
AcDbLine
 10
396.50253126700682
 20
-490.10669520857027
 30
0.0
 11
298.76166425021256
 21
-490.10669520857027
 31
0.0
  0
LINE
  5
8A
100
AcDbEntity
  8
0
370
              -2
390
0
  6
Continuous
 62
               0
100
AcDbLine
 10
298.76166425021256
 20
-380.10648064316433
 30
0.0
 11
298.76166425021256
 21
-490.10669520857027
 31
0.0
  0
CIRCLE
  5
8B
102
{ACAD_REACTORS
330
8C
102
}
100
AcDbEntity
  8
0
370
              -2
390
0
  6
Continuous
 62
               0
100
AcDbCircle
 10
298.76166425021256
 20
-380.10648064316433
 30
0.0
 40
1.9998779296875
  0
HATCH
  5
8C
100
AcDbEntity
  8
0
370
              -2
390
0
  6
Continuous
 62
               0
100
AcDbHatch
 10
0.0
 20
0.0
 30
0.0
210
0.0
220
0.0
230
1.0
  2
SOLID
 70
               1
 71
               1
 91
        1
 92
        1
 93
        1
 72
               2
 10
298.76166425021256
 20
-380.10648064316433
 40
1.9998779296875
 50
0.0
 51
360.0
 73
               0
 97
        1
330
8B
 75
               0
 76
               1
 98
        1
 10
0.0
 20
0.0
  0
CIRCLE
  5
8D
102
{ACAD_REACTORS
330
8E
102
}
100
AcDbEntity
  8
0
370
              -2
390
0
  6
Continuous
 62
               0
100
AcDbCircle
 10
298.76166425021256
 20
-490.10669520857027
 30
0.0
 40
1.9998779296875
  0
HATCH
  5
8E
100
AcDbEntity
  8
0
370
              -2
390
0
  6
Continuous
 62
               0
100
AcDbHatch
 10
0.0
 20
0.0
 30
0.0
210
0.0
220
0.0
230
1.0
  2
SOLID
 70
               1
 71
               1
 91
        1
 92
        1
 93
        1
 72
               2
 10
298.76166425021256
 20
-490.10669520857027
 40
1.9998779296875
 50
0.0
 51
360.0
 73
               0
 97
        1
330
8D
 75
               0
 76
               1
 98
        1
 10
0.0
 20
0.0
  0
MTEXT
  5
8F
100
AcDbEntity
  8
0
390
0
 62
               0
100
AcDbMText
 10
264.88404706271285
 20
-458.91908960804267
 30
0.0
 40
24.432617187500004
 41
0.0
 71
               1
 72
               1
  1
110
  7
ＭＳ ゴシック
 11
0.0
 21
1.0
 31
0.0
 73
               1
 44
0.7828267384257843
  0
POINT
  5
90
100
AcDbEntity
  8
Defpoints
370
               0
390
0
 62
               0
100
AcDbPoint
 10
421.50253126700682
 20
-490.10669520857027
 30
0.0
  0
POINT
  5
91
100
AcDbEntity
  8
Defpoints
370
               0
390
0
 62
               0
100
AcDbPoint
 10
407.43203775443453
 20
-380.10648064316433
 30
0.0
  0
POINT
  5
92
100
AcDbEntity
  8
Defpoints
370
               0
390
0
 62
               0
100
AcDbPoint
 10
298.76166425021256
 20
-380.10648064316433
 30
0.0
  0
ENDBLK
  5
93
100
AcDbEntity
  8
notes
390
0
100
AcDbBlockEnd
  0
BLOCK
  5
94
100
AcDbEntity
  8
notes
390
0
100
AcDbBlockBegin
  2
*D7
 70
               1
 10
0.0
 20
0.0
 30
0.0
  3
*D7
  1

  0
LINE
  5
95
100
AcDbEntity
  8
0
370
              -2
390
0
  6
Continuous
 62
               0
100
AcDbLine
 10
396.29780679235228
 20
-490.10669520857027
 30
0.0
 11
298.76166425021165
 21
-490.10669520857027
 31
0.0
  0
LINE
  5
96
100
AcDbEntity
  8
0
370
              -2
390
0
  6
Continuous
 62
               0
100
AcDbLine
 10
468.95398733223374
 20
-540.10669520857027
 30
0.0
 11
298.76166425021165
 21
-540.10669520857027
 31
0.0
  0
LINE
  5
97
100
AcDbEntity
  8
0
370
              -2
390
0
  6
Continuous
 62
               0
100
AcDbLine
 10
298.76166425021165
 20
-490.10669520857027
 30
0.0
 11
298.76166425021165
 21
-540.10669520857027
 31
0.0
  0
CIRCLE
  5
98
102
{ACAD_REACTORS
330
99
102
}
100
AcDbEntity
  8
0
370
              -2
390
0
  6
Continuous
 62
               0
100
AcDbCircle
 10
298.76166425021165
 20
-490.10669520857027
 30
0.0
 40
1.9998779296875
  0
HATCH
  5
99
100
AcDbEntity
  8
0
370
              -2
390
0
  6
Continuous
 62
               0
100
AcDbHatch
 10
0.0
 20
0.0
 30
0.0
210
0.0
220
0.0
230
1.0
  2
SOLID
 70
               1
 71
               1
 91
        1
 92
        1
 93
        1
 72
               2
 10
298.76166425021165
 20
-490.10669520857027
 40
1.9998779296875
 50
0.0
 51
360.0
 73
               0
 97
        1
330
98
 75
               0
 76
               1
 98
        1
 10
0.0
 20
0.0
  0
CIRCLE
  5
9A
102
{ACAD_REACTORS
330
9B
102
}
100
AcDbEntity
  8
0
370
              -2
390
0
  6
Continuous
 62
               0
100
AcDbCircle
 10
298.76166425021165
 20
-540.10669520857027
 30
0.0
 40
1.9998779296875
  0
HATCH
  5
9B
100
AcDbEntity
  8
0
370
              -2
390
0
  6
Continuous
 62
               0
100
AcDbHatch
 10
0.0
 20
0.0
 30
0.0
210
0.0
220
0.0
230
1.0
  2
SOLID
 70
               1
 71
               1
 91
        1
 92
        1
 93
        1
 72
               2
 10
298.76166425021165
 20
-540.10669520857027
 40
1.9998779296875
 50
0.0
 51
360.0
 73
               0
 97
        1
330
9A
 75
               0
 76
               1
 98
        1
 10
0.0
 20
0.0
  0
MTEXT
  5
9C
100
AcDbEntity
  8
0
390
0
 62
               0
100
AcDbMText
 10
264.88404706271194
 20
-530.98169520857027
 30
0.0
 40
24.432617187500004
 41
0.0
 71
               1
 72
               1
  1
50
  7
ＭＳ ゴシック
 11
0.0
 21
1.0
 31
0.0
 73
               1
 44
0.7828267384257843
  0
POINT
  5
9D
100
AcDbEntity
  8
Defpoints
370
               0
390
0
 62
               0
100
AcDbPoint
 10
493.95398733223374
 20
-540.10669520857027
 30
0.0
  0
POINT
  5
9E
100
AcDbEntity
  8
Defpoints
370
               0
390
0
 62
               0
100
AcDbPoint
 10
421.29780679235228
 20
-490.10669520857027
 30
0.0
  0
POINT
  5
9F
100
AcDbEntity
  8
Defpoints
370
               0
390
0
 62
               0
100
AcDbPoint
 10
298.76166425021165
 20
-490.10669520857027
 30
0.0
  0
ENDBLK
  5
A0
100
AcDbEntity
  8
notes
390
0
100
AcDbBlockEnd
  0
BLOCK
  5
A1
100
AcDbEntity
  8
notes
390
0
100
AcDbBlockBegin
  2
*D8
 70
               1
 10
0.0
 20
0.0
 30
0.0
  3
*D8
  1

  0
LINE
  5
A2
100
AcDbEntity
  8
0
370
              -2
390
0
  6
Continuous
 62
               0
100
AcDbLine
 10
-101.93000241643949
 20
-430.11225876178946
 30
0.0
 11
62.53871241287834
 21
-430.11225876178946
 31
0.0
  0
LINE
  5
A3
100
AcDbEntity
  8
0
370
              -2
390
0
  6
Continuous
 62
               0
100
AcDbLine
 10
-20.429717547416658
 20
-380.11221812770418
 30
0.0
 11
62.53871241287834
 21
-380.11221812770418
 31
0.0
  0
LINE
  5
A4
100
AcDbEntity
  8
0
370
              -2
390
0
  6
Continuous
 62
               0
100
AcDbLine
 10
62.53871241287834
 20
-430.11225876178946
 30
0.0
 11
62.53871241287834
 21
-380.11221812770418
 31
0.0
  0
CIRCLE
  5
A5
102
{ACAD_REACTORS
330
A6
102
}
100
AcDbEntity
  8
0
370
              -2
390
0
  6
Continuous
 62
               0
100
AcDbCircle
 10
62.53871241287834
 20
-430.11225876178946
 30
0.0
 40
1.9998779296875
  0
HATCH
  5
A6
100
AcDbEntity
  8
0
370
              -2
390
0
  6
Continuous
 62
               0
100
AcDbHatch
 10
0.0
 20
0.0
 30
0.0
210
0.0
220
0.0
230
1.0
  2
SOLID
 70
               1
 71
               1
 91
        1
 92
        1
 93
        1
 72
               2
 10
62.53871241287834
 20
-430.11225876178946
 40
1.9998779296875
 50
0.0
 51
360.0
 73
               0
 97
        1
330
A5
 75
               0
 76
               1
 98
        1
 10
0.0
 20
0.0
  0
CIRCLE
  5
A7
102
{ACAD_REACTORS
330
A8
102
}
100
AcDbEntity
  8
0
370
              -2
390
0
  6
Continuous
 62
               0
100
AcDbCircle
 10
62.53871241287834
 20
-380.11221812770418
 30
0.0
 40
1.9998779296875
  0
HATCH
  5
A8
100
AcDbEntity
  8
0
370
              -2
390
0
  6
Continuous
 62
               0
100
AcDbHatch
 10
0.0
 20
0.0
 30
0.0
210
0.0
220
0.0
230
1.0
  2
SOLID
 70
               1
 71
               1
 91
        1
 92
        1
 93
        1
 72
               2
 10
62.53871241287834
 20
-380.11221812770418
 40
1.9998779296875
 50
0.0
 51
360.0
 73
               0
 97
        1
330
A7
 75
               0
 76
               1
 98
        1
 10
0.0
 20
0.0
  0
MTEXT
  5
A9
100
AcDbEntity
  8
0
390
0
 62
               0
100
AcDbMText
 10
28.661095225378631
 20
-420.98723844474671
 30
0.0
 40
24.432617187500004
 41
0.0
 71
               1
 72
               1
  1
50
  7
ＭＳ ゴシック
 11
0.0
 21
1.0
 31
0.0
 73
               1
 44
0.7828267384257843
  0
POINT
  5
AA
100
AcDbEntity
  8
Defpoints
370
               0
390
0
 62
               0
100
AcDbPoint
 10
-45.429717547416658
 20
-380.11221812770418
 30
0.0
  0
POINT
  5
AB
100
AcDbEntity
  8
Defpoints
370
               0
390
0
 62
               0
100
AcDbPoint
 10
-126.93000241643949
 20
-430.11225876178946
 30
0.0
  0
POINT
  5
AC
100
AcDbEntity
  8
Defpoints
370
               0
390
0
 62
               0
100
AcDbPoint
 10
62.53871241287834
 20
-430.11225876178946
 30
0.0
  0
ENDBLK
  5
AD
100
AcDbEntity
  8
notes
390
0
100
AcDbBlockEnd
  0
BLOCK
  5
AE
100
AcDbEntity
  8
notes
390
0
100
AcDbBlockBegin
  2
*D9
 70
               1
 10
0.0
 20
0.0
 30
0.0
  3
*D9
  1

  0
LINE
  5
AF
100
AcDbEntity
  8
0
370
              -2
390
0
  6
Continuous
 62
               0
100
AcDbLine
 10
-12.430002416438583
 20
835.92698478999682
 30
0.0
 11
62.569997583561417
 21
835.92698478999682
 31
0.0
  0
LINE
  5
B0
100
AcDbEntity
  8
0
370
              -2
390
0
  6
Continuous
 62
               0
100
AcDbLine
 10
-12.430002416438583
 20
705.92695449297628
 30
0.0
 11
62.569997583561417
 21
705.92695449297628
 31
0.0
  0
LINE
  5
B1
100
AcDbEntity
  8
0
370
              -2
390
0
  6
Continuous
 62
               0
100
AcDbLine
 10
62.569997583561417
 20
835.92698478999682
 30
0.0
 11
62.569997583561417
 21
705.92695449297628
 31
0.0
  0
CIRCLE
  5
B2
102
{ACAD_REACTORS
330
B3
102
}
100
AcDbEntity
  8
0
370
              -2
390
0
  6
Continuous
 62
               0
100
AcDbCircle
 10
62.569997583561417
 20
835.92698478999682
 30
0.0
 40
1.9998779296875
  0
HATCH
  5
B3
100
AcDbEntity
  8
0
370
              -2
390
0
  6
Continuous
 62
               0
100
AcDbHatch
 10
0.0
 20
0.0
 30
0.0
210
0.0
220
0.0
230
1.0
  2
SOLID
 70
               1
 71
               1
 91
        1
 92
        1
 93
        1
 72
               2
 10
62.569997583561417
 20
835.92698478999682
 40
1.9998779296875
 50
0.0
 51
360.0
 73
               0
 97
        1
330
B2
 75
               0
 76
               1
 98
        1
 10
0.0
 20
0.0
  0
CIRCLE
  5
B4
102
{ACAD_REACTORS
330
B5
102
}
100
AcDbEntity
  8
0
370
              -2
390
0
  6
Continuous
 62
               0
100
AcDbCircle
 10
62.569997583561417
 20
705.92695449297628
 30
0.0
 40
1.9998779296875
  0
HATCH
  5
B5
100
AcDbEntity
  8
0
370
              -2
390
0
  6
Continuous
 62
               0
100
AcDbHatch
 10
0.0
 20
0.0
 30
0.0
210
0.0
220
0.0
230
1.0
  2
SOLID
 70
               1
 71
               1
 91
        1
 92
        1
 93
        1
 72
               2
 10
62.569997583561417
 20
705.92695449297628
 40
1.9998779296875
 50
0.0
 51
360.0
 73
               0
 97
        1
330
B4
 75
               0
 76
               1
 98
        1
 10
0.0
 20
0.0
  0
MTEXT
  5
B6
100
AcDbEntity
  8
0
390
0
 62
               0
100
AcDbMText
 10
28.692380396061708
 20
747.11446795931101
 30
0.0
 40
24.432617187500004
 41
0.0
 71
               1
 72
               1
  1
130
  7
ＭＳ ゴシック
 11
0.0
 21
1.0
 31
0.0
 73
               1
 44
0.7828267384257843
  0
POINT
  5
B7
100
AcDbEntity
  8
Defpoints
370
               0
390
0
 62
               0
100
AcDbPoint
 10
-37.430002416438583
 20
705.92695449297628
 30
0.0
  0
POINT
  5
B8
100
AcDbEntity
  8
Defpoints
370
               0
390
0
 62
               0
100
AcDbPoint
 10
-37.430002416438583
 20
835.92698478999682
 30
0.0
  0
POINT
  5
B9
100
AcDbEntity
  8
Defpoints
370
               0
390
0
 62
               0
100
AcDbPoint
 10
62.569997583561417
 20
835.92698478999682
 30
0.0
  0
ENDBLK
  5
BA
100
AcDbEntity
  8
notes
390
0
100
AcDbBlockEnd
  0
BLOCK
  5
BB
100
AcDbEntity
  8
notes
390
0
100
AcDbBlockBegin
  2
*D10
 70
               1
 10
0.0
 20
0.0
 30
0.0
  3
*D10
  1

  0
LINE
  5
BC
100
AcDbEntity
  8
0
370
              -2
390
0
  6
Continuous
 62
               0
100
AcDbLine
 10
-12.430002416438583
 20
705.92695449297628
 30
0.0
 11
62.569997583561417
 21
705.92695449297628
 31
0.0
  0
LINE
  5
BD
100
AcDbEntity
  8
0
370
              -2
390
0
  6
Continuous
 62
               0
100
AcDbLine
 10
-57.579735713716218
 20
470.92695449297628
 30
0.0
 11
62.569997583561417
 21
470.92695449297628
 31
0.0
  0
LINE
  5
BE
100
AcDbEntity
  8
0
370
              -2
390
0
  6
Continuous
 62
               0
100
AcDbLine
 10
62.569997583561417
 20
705.92695449297628
 30
0.0
 11
62.569997583561417
 21
470.92695449297628
 31
0.0
  0
CIRCLE
  5
BF
102
{ACAD_REACTORS
330
C0
102
}
100
AcDbEntity
  8
0
370
              -2
390
0
  6
Continuous
 62
               0
100
AcDbCircle
 10
62.569997583561417
 20
705.92695449297628
 30
0.0
 40
1.9998779296875
  0
HATCH
  5
C0
100
AcDbEntity
  8
0
370
              -2
390
0
  6
Continuous
 62
               0
100
AcDbHatch
 10
0.0
 20
0.0
 30
0.0
210
0.0
220
0.0
230
1.0
  2
SOLID
 70
               1
 71
               1
 91
        1
 92
        1
 93
        1
 72
               2
 10
62.569997583561417
 20
705.92695449297628
 40
1.9998779296875
 50
0.0
 51
360.0
 73
               0
 97
        1
330
BF
 75
               0
 76
               1
 98
        1
 10
0.0
 20
0.0
  0
CIRCLE
  5
C1
102
{ACAD_REACTORS
330
C2
102
}
100
AcDbEntity
  8
0
370
              -2
390
0
  6
Continuous
 62
               0
100
AcDbCircle
 10
62.569997583561417
 20
470.92695449297628
 30
0.0
 40
1.9998779296875
  0
HATCH
  5
C2
100
AcDbEntity
  8
0
370
              -2
390
0
  6
Continuous
 62
               0
100
AcDbHatch
 10
0.0
 20
0.0
 30
0.0
210
0.0
220
0.0
230
1.0
  2
SOLID
 70
               1
 71
               1
 91
        1
 92
        1
 93
        1
 72
               2
 10
62.569997583561417
 20
470.92695449297628
 40
1.9998779296875
 50
0.0
 51
360.0
 73
               0
 97
        1
330
C1
 75
               0
 76
               1
 98
        1
 10
0.0
 20
0.0
  0
MTEXT
  5
C3
100
AcDbEntity
  8
0
390
0
 62
               0
100
AcDbMText
 10
28.692380396061708
 20
564.61445281080069
 30
0.0
 40
24.432617187500004
 41
0.0
 71
               1
 72
               1
  1
235
  7
ＭＳ ゴシック
 11
0.0
 21
1.0
 31
0.0
 73
               1
 44
0.7828267384257843
  0
POINT
  5
C4
100
AcDbEntity
  8
Defpoints
370
               0
390
0
 62
               0
100
AcDbPoint
 10
-82.579735713716218
 20
470.92695449297628
 30
0.0
  0
POINT
  5
C5
100
AcDbEntity
  8
Defpoints
370
               0
390
0
 62
               0
100
AcDbPoint
 10
-37.430002416438583
 20
705.92695449297628
 30
0.0
  0
POINT
  5
C6
100
AcDbEntity
  8
Defpoints
370
               0
390
0
 62
               0
100
AcDbPoint
 10
62.569997583561417
 20
705.92695449297628
 30
0.0
  0
ENDBLK
  5
C7
100
AcDbEntity
  8
notes
390
0
100
AcDbBlockEnd
  0
BLOCK
  5
C8
100
AcDbEntity
  8
notes
390
0
100
AcDbBlockBegin
  2
*D11
 70
               1
 10
0.0
 20
0.0
 30
0.0
  3
*D11
  1

  0
LINE
  5
C9
100
AcDbEntity
  8
0
370
              -2
390
0
  6
Continuous
 62
               0
100
AcDbLine
 10
799.45567263161593
 20
-358.10648064316842
 30
0.0
 11
799.45567263161593
 21
-280.10648064316433
 31
0.0
  0
LINE
  5
CA
100
AcDbEntity
  8
0
370
              -2
390
0
  6
Continuous
 62
               0
100
AcDbLine
 10
734.49016440234118
 20
-355.10648064316433
 30
0.0
 11
734.49016440234118
 21
-280.10648064316433
 31
0.0
  0
LINE
  5
CB
100
AcDbEntity
  8
0
370
              -2
390
0
  6
Continuous
 62
               0
100
AcDbLine
 10
799.45567263161593
 20
-280.10648064316433
 30
0.0
 11
734.49016440234118
 21
-280.10648064316433
 31
0.0
  0
CIRCLE
  5
CC
102
{ACAD_REACTORS
330
CD
102
}
100
AcDbEntity
  8
0
370
              -2
390
0
  6
Continuous
 62
               0
100
AcDbCircle
 10
799.45567263161593
 20
-280.10648064316433
 30
0.0
 40
1.9998779296875
  0
HATCH
  5
CD
100
AcDbEntity
  8
0
370
              -2
390
0
  6
Continuous
 62
               0
100
AcDbHatch
 10
0.0
 20
0.0
 30
0.0
210
0.0
220
0.0
230
1.0
  2
SOLID
 70
               1
 71
               1
 91
        1
 92
        1
 93
        1
 72
               2
 10
799.45567263161593
 20
-280.10648064316433
 40
1.9998779296875
 50
0.0
 51
360.0
 73
               0
 97
        1
330
CC
 75
               0
 76
               1
 98
        1
 10
0.0
 20
0.0
  0
CIRCLE
  5
CE
102
{ACAD_REACTORS
330
CF
102
}
100
AcDbEntity
  8
0
370
              -2
390
0
  6
Continuous
 62
               0
100
AcDbCircle
 10
734.49016440234118
 20
-280.10648064316433
 30
0.0
 40
1.9998779296875
  0
HATCH
  5
CF
100
AcDbEntity
  8
0
370
              -2
390
0
  6
Continuous
 62
               0
100
AcDbHatch
 10
0.0
 20
0.0
 30
0.0
210
0.0
220
0.0
230
1.0
  2
SOLID
 70
               1
 71
               1
 91
        1
 92
        1
 93
        1
 72
               2
 10
734.49016440234118
 20
-280.10648064316433
 40
1.9998779296875
 50
0.0
 51
360.0
 73
               0
 97
        1
330
CE
 75
               0
 76
               1
 98
        1
 10
0.0
 20
0.0
  0
MTEXT
  5
D0
100
AcDbEntity
  8
0
390
0
 62
               0
100
AcDbMText
 10
751.0979185169781
 20
-246.2288634556644
 30
0.0
 40
24.432617187500004
 41
0.0
 71
               1
 72
               1
  1
65
  7
ＭＳ ゴシック
 73
               1
 44
0.7828267384257843
  0
POINT
  5
D1
100
AcDbEntity
  8
Defpoints
370
               0
390
0
 62
               0
100
AcDbPoint
 10
734.49016440234118
 20
-380.10648064316433
 30
0.0
  0
POINT
  5
D2
100
AcDbEntity
  8
Defpoints
370
               0
390
0
 62
               0
100
AcDbPoint
 10
799.45567263161593
 20
-383.10648064316842
 30
0.0
  0
POINT
  5
D3
100
AcDbEntity
  8
Defpoints
370
               0
390
0
 62
               0
100
AcDbPoint
 10
799.45567263161593
 20
-280.10648064316433
 30
0.0
  0
ENDBLK
  5
D4
100
AcDbEntity
  8
notes
390
0
100
AcDbBlockEnd
  0
BLOCK
  5
D5
100
AcDbEntity
  8
notes
390
0
100
AcDbBlockBegin
  2
*D12
 70
               1
 10
0.0
 20
0.0
 30
0.0
  3
*D12
  1

  0
LINE
  5
D6
100
AcDbEntity
  8
0
370
              -2
390
0
  6
Continuous
 62
               0
100
AcDbLine
 10
-432.4300024164213
 20
-379.61225876178946
 30
0.0
 11
-432.4300024164213
 21
-280.11223812770322
 31
0.0
  0
LINE
  5
D7
100
AcDbEntity
  8
0
370
              -2
390
0
  6
Continuous
 62
               0
100
AcDbLine
 10
-687.42512903258194
 20
-363.39141409883678
 30
0.0
 11
-687.42512903258194
 21
-280.11223812770322
 31
0.0
  0
LINE
  5
D8
100
AcDbEntity
  8
0
370
              -2
390
0
  6
Continuous
 62
               0
100
AcDbLine
 10
-432.4300024164213
 20
-280.11223812770322
 30
0.0
 11
-687.42512903258194
 21
-280.11223812770322
 31
0.0
  0
CIRCLE
  5
D9
102
{ACAD_REACTORS
330
DA
102
}
100
AcDbEntity
  8
0
370
              -2
390
0
  6
Continuous
 62
               0
100
AcDbCircle
 10
-432.4300024164213
 20
-280.11223812770322
 30
0.0
 40
1.9998779296875
  0
HATCH
  5
DA
100
AcDbEntity
  8
0
370
              -2
390
0
  6
Continuous
 62
               0
100
AcDbHatch
 10
0.0
 20
0.0
 30
0.0
210
0.0
220
0.0
230
1.0
  2
SOLID
 70
               1
 71
               1
 91
        1
 92
        1
 93
        1
 72
               2
 10
-432.4300024164213
 20
-280.11223812770322
 40
1.9998779296875
 50
0.0
 51
360.0
 73
               0
 97
        1
330
D9
 75
               0
 76
               1
 98
        1
 10
0.0
 20
0.0
  0
CIRCLE
  5
DB
102
{ACAD_REACTORS
330
DC
102
}
100
AcDbEntity
  8
0
370
              -2
390
0
  6
Continuous
 62
               0
100
AcDbCircle
 10
-687.42512903258194
 20
-280.11223812770322
 30
0.0
 40
1.9998779296875
  0
HATCH
  5
DC
100
AcDbEntity
  8
0
370
              -2
390
0
  6
Continuous
 62
               0
100
AcDbHatch
 10
0.0
 20
0.0
 30
0.0
210
0.0
220
0.0
230
1.0
  2
SOLID
 70
               1
 71
               1
 91
        1
 92
        1
 93
        1
 72
               2
 10
-687.42512903258194
 20
-280.11223812770322
 40
1.9998779296875
 50
0.0
 51
360.0
 73
               0
 97
        1
330
DB
 75
               0
 76
               1
 98
        1
 10
0.0
 20
0.0
  0
MTEXT
  5
DD
100
AcDbEntity
  8
0
390
0
 62
               0
100
AcDbMText
 10
-583.74006740667755
 20
-246.23462094020329
 30
0.0
 40
24.432617187500004
 41
0.0
 71
               1
 72
               1
  1
255
  7
ＭＳ ゴシック
 73
               1
 44
0.7828267384257843
  0
POINT
  5
DE
100
AcDbEntity
  8
Defpoints
370
               0
390
0
 62
               0
100
AcDbPoint
 10
-687.42512903258194
 20
-388.39141409883678
 30
0.0
  0
POINT
  5
DF
100
AcDbEntity
  8
Defpoints
370
               0
390
0
 62
               0
100
AcDbPoint
 10
-432.4300024164213
 20
-404.61225876178946
 30
0.0
  0
POINT
  5
E0
100
AcDbEntity
  8
Defpoints
370
               0
390
0
 62
               0
100
AcDbPoint
 10
-432.4300024164213
 20
-280.11223812770322
 30
0.0
  0
ENDBLK
  5
E1
100
AcDbEntity
  8
notes
390
0
100
AcDbBlockEnd
  0
BLOCK
  5
E2
100
AcDbEntity
  8
notes
390
0
100
AcDbBlockBegin
  2
*D13
 70
               1
 10
0.0
 20
0.0
 30
0.0
  3
*D13
  1

  0
LINE
  5
E3
100
AcDbEntity
  8
0
370
              -2
390
0
  6
Continuous
 62
               0
100
AcDbLine
 10
554.95398733223374
 20
-380.10902385722284
 30
0.0
 11
562.0
 21
-380.10902385722284
 31
0.0
  0
LINE
  5
E4
100
AcDbEntity
  8
0
370
              -2
390
0
  6
Continuous
 62
               0
100
AcDbLine
 10
554.45567263161593
 20
-495.10902385722284
 30
0.0
 11
562.0
 21
-495.10902385722284
 31
0.0
  0
LINE
  5
E5
100
AcDbEntity
  8
0
370
              -2
390
0
  6
Continuous
 62
               0
100
AcDbLine
 10
562.0
 20
-380.10902385722284
 30
0.0
 11
562.0
 21
-224.19801521000363
 31
0.0
  0
LINE
  5
E6
100
AcDbEntity
  8
0
370
              -2
390
0
  6
Continuous
 62
               0
100
AcDbLine
 10
562.0
 20
-380.10902385722284
 30
0.0
 11
562.0
 21
-495.10902385722284
 31
0.0
  0
CIRCLE
  5
E7
102
{ACAD_REACTORS
330
E8
102
}
100
AcDbEntity
  8
0
370
              -2
390
0
  6
Continuous
 62
               0
100
AcDbCircle
 10
562.0
 20
-380.10902385722284
 30
0.0
 40
1.9998779296875
  0
HATCH
  5
E8
100
AcDbEntity
  8
0
370
              -2
390
0
  6
Continuous
 62
               0
100
AcDbHatch
 10
0.0
 20
0.0
 30
0.0
210
0.0
220
0.0
230
1.0
  2
SOLID
 70
               1
 71
               1
 91
        1
 92
        1
 93
        1
 72
               2
 10
562.0
 20
-380.10902385722284
 40
1.9998779296875
 50
0.0
 51
360.0
 73
               0
 97
        1
330
E7
 75
               0
 76
               1
 98
        1
 10
0.0
 20
0.0
  0
CIRCLE
  5
E9
102
{ACAD_REACTORS
330
EA
102
}
100
AcDbEntity
  8
0
370
              -2
390
0
  6
Continuous
 62
               0
100
AcDbCircle
 10
562.0
 20
-495.10902385722284
 30
0.0
 40
1.9998779296875
  0
HATCH
  5
EA
100
AcDbEntity
  8
0
370
              -2
390
0
  6
Continuous
 62
               0
100
AcDbHatch
 10
0.0
 20
0.0
 30
0.0
210
0.0
220
0.0
230
1.0
  2
SOLID
 70
               1
 71
               1
 91
        1
 92
        1
 93
        1
 72
               2
 10
562.0
 20
-495.10902385722284
 40
1.9998779296875
 50
0.0
 51
360.0
 73
               0
 97
        1
330
E9
 75
               0
 76
               1
 98
        1
 10
0.0
 20
0.0
  0
MTEXT
  5
EB
100
AcDbEntity
  8
0
390
0
 62
               0
100
AcDbMText
 10
528.12238281250029
 20
-367.07301521000363
 30
0.0
 40
24.432617187500004
 41
0.0
 71
               1
 72
               1
  1
115(深さ)
  7
ＭＳ ゴシック
 11
0.0
 21
1.0
 31
0.0
 73
               1
 44
0.7828267384257843
  0
POINT
  5
EC
100
AcDbEntity
  8
Defpoints
370
               0
390
0
 62
               0
100
AcDbPoint
 10
579.45567263161593
 20
-495.10902385722284
 30
0.0
  0
POINT
  5
ED
100
AcDbEntity
  8
Defpoints
370
               0
390
0
 62
               0
100
AcDbPoint
 10
579.95398733223374
 20
-380.10902385722284
 30
0.0
  0
POINT
  5
EE
100
AcDbEntity
  8
Defpoints
370
               0
390
0
 62
               0
100
AcDbPoint
 10
562.0
 20
-380.10902385722284
 30
0.0
  0
ENDBLK
  5
EF
100
AcDbEntity
  8
notes
390
0
100
AcDbBlockEnd
  0
BLOCK
  5
F0
100
AcDbEntity
  8
notes
390
0
100
AcDbBlockBegin
  2
*D14
 70
               1
 10
0.0
 20
0.0
 30
0.0
  3
*D14
  1

  0
LINE
  5
F1
100
AcDbEntity
  8
0
370
              -2
390
0
  6
Continuous
 62
               0
100
AcDbLine
 10
-687.43000241642767
 20
410.92695449297673
 30
0.0
 11
-687.43000241642767
 21
335.92695449297673
 31
0.0
  0
LINE
  5
F2
100
AcDbEntity
  8
0
370
              -2
390
0
  6
Continuous
 62
               0
100
AcDbLine
 10
-512.43000241642767
 20
410.92695449297673
 30
0.0
 11
-512.43000241642767
 21
335.92695449297673
 31
0.0
  0
LINE
  5
F3
100
AcDbEntity
  8
0
370
              -2
390
0
  6
Continuous
 62
               0
100
AcDbLine
 10
-687.43000241642767
 20
335.92695449297673
 30
0.0
 11
-512.43000241642767
 21
335.92695449297673
 31
0.0
  0
CIRCLE
  5
F4
102
{ACAD_REACTORS
330
F5
102
}
100
AcDbEntity
  8
0
370
              -2
390
0
  6
Continuous
 62
               0
100
AcDbCircle
 10
-687.43000241642767
 20
335.92695449297673
 30
0.0
 40
1.9998779296875
  0
HATCH
  5
F5
100
AcDbEntity
  8
0
370
              -2
390
0
  6
Continuous
 62
               0
100
AcDbHatch
 10
0.0
 20
0.0
 30
0.0
210
0.0
220
0.0
230
1.0
  2
SOLID
 70
               1
 71
               1
 91
        1
 92
        1
 93
        1
 72
               2
 10
-687.43000241642767
 20
335.92695449297673
 40
1.9998779296875
 50
0.0
 51
360.0
 73
               0
 97
        1
330
F4
 75
               0
 76
               1
 98
        1
 10
0.0
 20
0.0
  0
CIRCLE
  5
F6
102
{ACAD_REACTORS
330
F7
102
}
100
AcDbEntity
  8
0
370
              -2
390
0
  6
Continuous
 62
               0
100
AcDbCircle
 10
-512.43000241642767
 20
335.92695449297673
 30
0.0
 40
1.9998779296875
  0
HATCH
  5
F7
100
AcDbEntity
  8
0
370
              -2
390
0
  6
Continuous
 62
               0
100
AcDbHatch
 10
0.0
 20
0.0
 30
0.0
210
0.0
220
0.0
230
1.0
  2
SOLID
 70
               1
 71
               1
 91
        1
 92
        1
 93
        1
 72
               2
 10
-512.43000241642767
 20
335.92695449297673
 40
1.9998779296875
 50
0.0
 51
360.0
 73
               0
 97
        1
330
F6
 75
               0
 76
               1
 98
        1
 10
0.0
 20
0.0
  0
MTEXT
  5
F8
100
AcDbEntity
  8
0
390
0
 62
               0
100
AcDbMText
 10
-637.81250168217593
 20
369.80457168047678
 30
0.0
 40
24.432617187500004
 41
0.0
 71
               1
 72
               1
  1
175
  7
ＭＳ ゴシック
 73
               1
 44
0.7828267384257843
  0
POINT
  5
F9
100
AcDbEntity
  8
Defpoints
370
               0
390
0
 62
               0
100
AcDbPoint
 10
-512.43000241642767
 20
435.92695449297673
 30
0.0
  0
POINT
  5
FA
100
AcDbEntity
  8
Defpoints
370
               0
390
0
 62
               0
100
AcDbPoint
 10
-687.43000241642767
 20
435.92695449297673
 30
0.0
  0
POINT
  5
FB
100
AcDbEntity
  8
Defpoints
370
               0
390
0
 62
               0
100
AcDbPoint
 10
-687.43000241642767
 20
335.92695449297673
 30
0.0
  0
ENDBLK
  5
FC
100
AcDbEntity
  8
notes
390
0
100
AcDbBlockEnd
  0
BLOCK
  5
FD
100
AcDbEntity
  8
notes
390
0
100
AcDbBlockBegin
  2
*D15
 70
               1
 10
0.0
 20
0.0
 30
0.0
  3
*D15
  1

  0
LINE
  5
FE
100
AcDbEntity
  8
0
370
              -2
390
0
  6
Continuous
 62
               0
100
AcDbLine
 10
-512.42991264140255
 20
410.92695449297673
 30
0.0
 11
-512.42991264140255
 21
335.92695449297673
 31
0.0
  0
LINE
  5
FF
100
AcDbEntity
  8
0
370
              -2
390
0
  6
Continuous
 62
               0
100
AcDbLine
 10
-72.429912641402552
 20
455.57428030107803
 30
0.0
 11
-72.429912641402552
 21
335.92695449297673
 31
0.0
  0
LINE
  5
100
100
AcDbEntity
  8
0
370
              -2
390
0
  6
Continuous
 62
               0
100
AcDbLine
 10
-512.42991264140255
 20
335.92695449297673
 30
0.0
 11
-72.429912641402552
 21
335.92695449297673
 31
0.0
  0
CIRCLE
  5
101
102
{ACAD_REACTORS
330
102
102
}
100
AcDbEntity
  8
0
370
              -2
390
0
  6
Continuous
 62
               0
100
AcDbCircle
 10
-512.42991264140255
 20
335.92695449297673
 30
0.0
 40
1.9998779296875
  0
HATCH
  5
102
100
AcDbEntity
  8
0
370
              -2
390
0
  6
Continuous
 62
               0
100
AcDbHatch
 10
0.0
 20
0.0
 30
0.0
210
0.0
220
0.0
230
1.0
  2
SOLID
 70
               1
 71
               1
 91
        1
 92
        1
 93
        1
 72
               2
 10
-512.42991264140255
 20
335.92695449297673
 40
1.9998779296875
 50
0.0
 51
360.0
 73
               0
 97
        1
330
101
 75
               0
 76
               1
 98
        1
 10
0.0
 20
0.0
  0
CIRCLE
  5
103
102
{ACAD_REACTORS
330
104
102
}
100
AcDbEntity
  8
0
370
              -2
390
0
  6
Continuous
 62
               0
100
AcDbCircle
 10
-72.429912641402552
 20
335.92695449297673
 30
0.0
 40
1.9998779296875
  0
HATCH
  5
104
100
AcDbEntity
  8
0
370
              -2
390
0
  6
Continuous
 62
               0
100
AcDbHatch
 10
0.0
 20
0.0
 30
0.0
210
0.0
220
0.0
230
1.0
  2
SOLID
 70
               1
 71
               1
 91
        1
 92
        1
 93
        1
 72
               2
 10
-72.429912641402552
 20
335.92695449297673
 40
1.9998779296875
 50
0.0
 51
360.0
 73
               0
 97
        1
330
103
 75
               0
 76
               1
 98
        1
 10
0.0
 20
0.0
  0
MTEXT
  5
105
100
AcDbEntity
  8
0
390
0
 62
               0
100
AcDbMText
 10
-316.24241432357849
 20
369.80457168047678
 30
0.0
 40
24.432617187500004
 41
0.0
 71
               1
 72
               1
  1
440
  7
ＭＳ ゴシック
 73
               1
 44
0.7828267384257843
  0
POINT
  5
106
100
AcDbEntity
  8
Defpoints
370
               0
390
0
 62
               0
100
AcDbPoint
 10
-72.429912641402552
 20
480.57428030107803
 30
0.0
  0
POINT
  5
107
100
AcDbEntity
  8
Defpoints
370
               0
390
0
 62
               0
100
AcDbPoint
 10
-512.42991264140255
 20
435.92695449297673
 30
0.0
  0
POINT
  5
108
100
AcDbEntity
  8
Defpoints
370
               0
390
0
 62
               0
100
AcDbPoint
 10
-512.42991264140255
 20
335.92695449297673
 30
0.0
  0
ENDBLK
  5
109
100
AcDbEntity
  8
notes
390
0
100
AcDbBlockEnd
  0
BLOCK
  5
10A
100
AcDbEntity
  8
notes
390
0
100
AcDbBlockBegin
  2
*D16
 70
               1
 10
0.0
 20
0.0
 30
0.0
  3
*D16
  1

  0
LINE
  5
10B
100
AcDbEntity
  8
0
370
              -2
390
0
  6
Continuous
 62
               0
100
AcDbLine
 10
-432.4300024164213
 20
-385.11225876178946
 30
0.0
 11
-432.4300024164213
 21
-280.11223812770322
 31
0.0
  0
LINE
  5
10C
100
AcDbEntity
  8
0
370
              -2
390
0
  6
Continuous
 62
               0
100
AcDbLine
 10
-152.4300024164213
 20
-385.11225876178946
 30
0.0
 11
-152.4300024164213
 21
-280.11223812770322
 31
0.0
  0
LINE
  5
10D
100
AcDbEntity
  8
0
370
              -2
390
0
  6
Continuous
 62
               0
100
AcDbLine
 10
-432.4300024164213
 20
-280.11223812770322
 30
0.0
 11
-152.4300024164213
 21
-280.11223812770322
 31
0.0
  0
CIRCLE
  5
10E
102
{ACAD_REACTORS
330
10F
102
}
100
AcDbEntity
  8
0
370
              -2
390
0
  6
Continuous
 62
               0
100
AcDbCircle
 10
-432.4300024164213
 20
-280.11223812770322
 30
0.0
 40
1.9998779296875
  0
HATCH
  5
10F
100
AcDbEntity
  8
0
370
              -2
390
0
  6
Continuous
 62
               0
100
AcDbHatch
 10
0.0
 20
0.0
 30
0.0
210
0.0
220
0.0
230
1.0
  2
SOLID
 70
               1
 71
               1
 91
        1
 92
        1
 93
        1
 72
               2
 10
-432.4300024164213
 20
-280.11223812770322
 40
1.9998779296875
 50
0.0
 51
360.0
 73
               0
 97
        1
330
10E
 75
               0
 76
               1
 98
        1
 10
0.0
 20
0.0
  0
CIRCLE
  5
110
102
{ACAD_REACTORS
330
111
102
}
100
AcDbEntity
  8
0
370
              -2
390
0
  6
Continuous
 62
               0
100
AcDbCircle
 10
-152.4300024164213
 20
-280.11223812770322
 30
0.0
 40
1.9998779296875
  0
HATCH
  5
111
100
AcDbEntity
  8
0
370
              -2
390
0
  6
Continuous
 62
               0
100
AcDbHatch
 10
0.0
 20
0.0
 30
0.0
210
0.0
220
0.0
230
1.0
  2
SOLID
 70
               1
 71
               1
 91
        1
 92
        1
 93
        1
 72
               2
 10
-152.4300024164213
 20
-280.11223812770322
 40
1.9998779296875
 50
0.0
 51
360.0
 73
               0
 97
        1
330
110
 75
               0
 76
               1
 98
        1
 10
0.0
 20
0.0
  0
MTEXT
  5
112
100
AcDbEntity
  8
0
390
0
 62
               0
100
AcDbMText
 10
-316.24250409859724
 20
-246.23462094020329
 30
0.0
 40
24.432617187500004
 41
0.0
 71
               1
 72
               1
  1
280
  7
ＭＳ ゴシック
 73
               1
 44
0.7828267384257843
  0
POINT
  5
113
100
AcDbEntity
  8
Defpoints
370
               0
390
0
 62
               0
100
AcDbPoint
 10
-152.4300024164213
 20
-410.11225876178946
 30
0.0
  0
POINT
  5
114
100
AcDbEntity
  8
Defpoints
370
               0
390
0
 62
               0
100
AcDbPoint
 10
-432.4300024164213
 20
-410.11225876178946
 30
0.0
  0
POINT
  5
115
100
AcDbEntity
  8
Defpoints
370
               0
390
0
 62
               0
100
AcDbPoint
 10
-432.4300024164213
 20
-280.11223812770322
 30
0.0
  0
ENDBLK
  5
116
100
AcDbEntity
  8
notes
390
0
100
AcDbBlockEnd
  0
BLOCK
  5
117
100
AcDbEntity
  8
notes
390
0
100
AcDbBlockBegin
  2
*D17
 70
               1
 10
0.0
 20
0.0
 30
0.0
  3
*D17
  1

  0
LINE
  5
118
100
AcDbEntity
  8
0
370
              -2
390
0
  6
Continuous
 62
               0
100
AcDbLine
 10
-712.43000241643131
 20
835.92698478999682
 30
0.0
 11
-787.43000241643131
 21
835.92698478999682
 31
0.0
  0
LINE
  5
119
100
AcDbEntity
  8
0
370
              -2
390
0
  6
Continuous
 62
               0
100
AcDbLine
 10
-712.43000241642767
 20
435.92695449297673
 30
0.0
 11
-787.43000241643131
 21
435.92695449297673
 31
0.0
  0
LINE
  5
11A
100
AcDbEntity
  8
0
370
              -2
390
0
  6
Continuous
 62
               0
100
AcDbLine
 10
-787.43000241643131
 20
835.92698478999682
 30
0.0
 11
-787.43000241643131
 21
435.92695449297673
 31
0.0
  0
CIRCLE
  5
11B
102
{ACAD_REACTORS
330
11C
102
}
100
AcDbEntity
  8
0
370
              -2
390
0
  6
Continuous
 62
               0
100
AcDbCircle
 10
-787.43000241643131
 20
835.92698478999682
 30
0.0
 40
1.9998779296875
  0
HATCH
  5
11C
100
AcDbEntity
  8
0
370
              -2
390
0
  6
Continuous
 62
               0
100
AcDbHatch
 10
0.0
 20
0.0
 30
0.0
210
0.0
220
0.0
230
1.0
  2
SOLID
 70
               1
 71
               1
 91
        1
 92
        1
 93
        1
 72
               2
 10
-787.43000241643131
 20
835.92698478999682
 40
1.9998779296875
 50
0.0
 51
360.0
 73
               0
 97
        1
330
11B
 75
               0
 76
               1
 98
        1
 10
0.0
 20
0.0
  0
CIRCLE
  5
11D
102
{ACAD_REACTORS
330
11E
102
}
100
AcDbEntity
  8
0
370
              -2
390
0
  6
Continuous
 62
               0
100
AcDbCircle
 10
-787.43000241643131
 20
435.92695449297673
 30
0.0
 40
1.9998779296875
  0
HATCH
  5
11E
100
AcDbEntity
  8
0
370
              -2
390
0
  6
Continuous
 62
               0
100
AcDbHatch
 10
0.0
 20
0.0
 30
0.0
210
0.0
220
0.0
230
1.0
  2
SOLID
 70
               1
 71
               1
 91
        1
 92
        1
 93
        1
 72
               2
 10
-787.43000241643131
 20
435.92695449297673
 40
1.9998779296875
 50
0.0
 51
360.0
 73
               0
 97
        1
330
11D
 75
               0
 76
               1
 98
        1
 10
0.0
 20
0.0
  0
MTEXT
  5
11F
100
AcDbEntity
  8
0
390
0
 62
               0
100
AcDbMText
 10
-821.30761960393102
 20
612.11446795931124
 30
0.0
 40
24.432617187500004
 41
0.0
 71
               1
 72
               1
  1
400
  7
ＭＳ ゴシック
 11
0.0
 21
1.0
 31
0.0
 73
               1
 44
0.7828267384257843
  0
POINT
  5
120
100
AcDbEntity
  8
Defpoints
370
               0
390
0
 62
               0
100
AcDbPoint
 10
-687.43000241642767
 20
435.92695449297673
 30
0.0
  0
POINT
  5
121
100
AcDbEntity
  8
Defpoints
370
               0
390
0
 62
               0
100
AcDbPoint
 10
-687.43000241643131
 20
835.92698478999682
 30
0.0
  0
POINT
  5
122
100
AcDbEntity
  8
Defpoints
370
               0
390
0
 62
               0
100
AcDbPoint
 10
-787.43000241643131
 20
835.92698478999682
 30
0.0
  0
ENDBLK
  5
123
100
AcDbEntity
  8
notes
390
0
100
AcDbBlockEnd
  0
BLOCK
  5
124
100
AcDbEntity
  8
notes
390
0
100
AcDbBlockBegin
  2
*D18
 70
               1
 10
0.0
 20
0.0
 30
0.0
  3
*D18
  1

  0
LINE
  5
125
100
AcDbEntity
  8
0
370
              -2
390
0
  6
Continuous
 62
               0
100
AcDbLine
 10
799.45555061180494
 20
-554.94604473767026
 30
0.0
 11
799.45555061180494
 21
-640.3427433233544
 31
0.0
  0
LINE
  5
126
100
AcDbEntity
  8
0
370
              -2
390
0
  6
Continuous
 62
               0
100
AcDbLine
 10
579.4556726316132
 20
-561.6892281550854
 30
0.0
 11
579.4556726316132
 21
-640.3427433233544
 31
0.0
  0
LINE
  5
127
100
AcDbEntity
  8
0
370
              -2
390
0
  6
Continuous
 62
               0
100
AcDbLine
 10
799.45555061180494
 20
-640.3427433233544
 30
0.0
 11
579.4556726316132
 21
-640.3427433233544
 31
0.0
  0
CIRCLE
  5
128
102
{ACAD_REACTORS
330
129
102
}
100
AcDbEntity
  8
0
370
              -2
390
0
  6
Continuous
 62
               0
100
AcDbCircle
 10
799.45555061180494
 20
-640.3427433233544
 30
0.0
 40
1.9998779296875
  0
HATCH
  5
129
100
AcDbEntity
  8
0
370
              -2
390
0
  6
Continuous
 62
               0
100
AcDbHatch
 10
0.0
 20
0.0
 30
0.0
210
0.0
220
0.0
230
1.0
  2
SOLID
 70
               1
 71
               1
 91
        1
 92
        1
 93
        1
 72
               2
 10
799.45555061180494
 20
-640.3427433233544
 40
1.9998779296875
 50
0.0
 51
360.0
 73
               0
 97
        1
330
128
 75
               0
 76
               1
 98
        1
 10
0.0
 20
0.0
  0
CIRCLE
  5
12A
102
{ACAD_REACTORS
330
12B
102
}
100
AcDbEntity
  8
0
370
              -2
390
0
  6
Continuous
 62
               0
100
AcDbCircle
 10
579.4556726316132
 20
-640.3427433233544
 30
0.0
 40
1.9998779296875
  0
HATCH
  5
12B
100
AcDbEntity
  8
0
370
              -2
390
0
  6
Continuous
 62
               0
100
AcDbHatch
 10
0.0
 20
0.0
 30
0.0
210
0.0
220
0.0
230
1.0
  2
SOLID
 70
               1
 71
               1
 91
        1
 92
        1
 93
        1
 72
               2
 10
579.4556726316132
 20
-640.3427433233544
 40
1.9998779296875
 50
0.0
 51
360.0
 73
               0
 97
        1
330
12A
 75
               0
 76
               1
 98
        1
 10
0.0
 20
0.0
  0
MTEXT
  5
12C
100
AcDbEntity
  8
0
390
0
 62
               0
100
AcDbMText
 10
665.64310993953313
 20
-606.46512613585446
 30
0.0
 40
24.432617187500004
 41
0.0
 71
               1
 72
               1
  1
220
  7
ＭＳ ゴシック
 73
               1
 44
0.7828267384257843
  0
POINT
  5
12D
100
AcDbEntity
  8
Defpoints
370
               0
390
0
 62
               0
100
AcDbPoint
 10
579.4556726316132
 20
-536.6892281550854
 30
0.0
  0
POINT
  5
12E
100
AcDbEntity
  8
Defpoints
370
               0
390
0
 62
               0
100
AcDbPoint
 10
799.45555061180494
 20
-529.94604473767026
 30
0.0
  0
POINT
  5
12F
100
AcDbEntity
  8
Defpoints
370
               0
390
0
 62
               0
100
AcDbPoint
 10
799.45555061180494
 20
-640.3427433233544
 30
0.0
  0
ENDBLK
  5
130
100
AcDbEntity
  8
notes
390
0
100
AcDbBlockEnd
  0
BLOCK
  5
131
100
AcDbEntity
  8
notes
390
0
100
AcDbBlockBegin
  2
*D19
 70
               1
 10
0.0
 20
0.0
 30
0.0
  3
*D19
  1

  0
LINE
  5
132
100
AcDbEntity
  8
0
370
              -2
390
0
  6
Continuous
 62
               0
100
AcDbLine
 10
-704.43020191152755
 20
-380.11221812770327
 30
0.0
 11
-787.42512903258194
 21
-380.11221812770327
 31
0.0
  0
LINE
  5
133
100
AcDbEntity
  8
0
370
              -2
390
0
  6
Continuous
 62
               0
100
AcDbLine
 10
-438.01456174876512
 20
-540.11221812770327
 30
0.0
 11
-787.42512903258194
 21
-540.11221812770327
 31
0.0
  0
LINE
  5
134
100
AcDbEntity
  8
0
370
              -2
390
0
  6
Continuous
 62
               0
100
AcDbLine
 10
-787.42512903258194
 20
-380.11221812770327
 30
0.0
 11
-787.42512903258194
 21
-540.11221812770327
 31
0.0
  0
CIRCLE
  5
135
102
{ACAD_REACTORS
330
136
102
}
100
AcDbEntity
  8
0
370
              -2
390
0
  6
Continuous
 62
               0
100
AcDbCircle
 10
-787.42512903258194
 20
-380.11221812770327
 30
0.0
 40
1.9998779296875
  0
HATCH
  5
136
100
AcDbEntity
  8
0
370
              -2
390
0
  6
Continuous
 62
               0
100
AcDbHatch
 10
0.0
 20
0.0
 30
0.0
210
0.0
220
0.0
230
1.0
  2
SOLID
 70
               1
 71
               1
 91
        1
 92
        1
 93
        1
 72
               2
 10
-787.42512903258194
 20
-380.11221812770327
 40
1.9998779296875
 50
0.0
 51
360.0
 73
               0
 97
        1
330
135
 75
               0
 76
               1
 98
        1
 10
0.0
 20
0.0
  0
CIRCLE
  5
137
102
{ACAD_REACTORS
330
138
102
}
100
AcDbEntity
  8
0
370
              -2
390
0
  6
Continuous
 62
               0
100
AcDbCircle
 10
-787.42512903258194
 20
-540.11221812770327
 30
0.0
 40
1.9998779296875
  0
HATCH
  5
138
100
AcDbEntity
  8
0
370
              -2
390
0
  6
Continuous
 62
               0
100
AcDbHatch
 10
0.0
 20
0.0
 30
0.0
210
0.0
220
0.0
230
1.0
  2
SOLID
 70
               1
 71
               1
 91
        1
 92
        1
 93
        1
 72
               2
 10
-787.42512903258194
 20
-540.11221812770327
 40
1.9998779296875
 50
0.0
 51
360.0
 73
               0
 97
        1
330
137
 75
               0
 76
               1
 98
        1
 10
0.0
 20
0.0
  0
MTEXT
  5
139
100
AcDbEntity
  8
0
390
0
 62
               0
100
AcDbMText
 10
-821.30274622008164
 20
-483.92471980987875
 30
0.0
 40
24.432617187500004
 41
0.0
 71
               1
 72
               1
  1
160
  7
ＭＳ ゴシック
 11
0.0
 21
1.0
 31
0.0
 73
               1
 44
0.7828267384257843
  0
POINT
  5
13A
100
AcDbEntity
  8
Defpoints
370
               0
390
0
 62
               0
100
AcDbPoint
 10
-413.01456174876512
 20
-540.11221812770327
 30
0.0
  0
POINT
  5
13B
100
AcDbEntity
  8
Defpoints
370
               0
390
0
 62
               0
100
AcDbPoint
 10
-679.43020191152755
 20
-380.11221812770327
 30
0.0
  0
POINT
  5
13C
100
AcDbEntity
  8
Defpoints
370
               0
390
0
 62
               0
100
AcDbPoint
 10
-787.42512903258194
 20
-380.11221812770327
 30
0.0
  0
ENDBLK
  5
13D
100
AcDbEntity
  8
notes
390
0
100
AcDbBlockEnd
  0
BLOCK
  5
13E
100
AcDbEntity
  8
notes
390
0
100
AcDbBlockBegin
  2
*D20
 70
               1
 10
0.0
 20
0.0
 30
0.0
  3
*D20
  1

  0
LINE
  5
13F
100
AcDbEntity
  8
0
370
              -2
390
0
  6
Continuous
 62
               0
100
AcDbLine
 10
-434.9300024164304
 20
760.96147656071219
 30
0.0
 11
-509.9300024164304
 21
760.96147656071219
 31
0.0
  0
LINE
  5
140
100
AcDbEntity
  8
0
370
              -2
390
0
  6
Continuous
 62
               0
100
AcDbLine
 10
-434.9300024164304
 20
835.92698478999682
 30
0.0
 11
-509.9300024164304
 21
835.92698478999682
 31
0.0
  0
LINE
  5
141
100
AcDbEntity
  8
0
370
              -2
390
0
  6
Continuous
 62
               0
100
AcDbLine
 10
-509.9300024164304
 20
760.96147656071219
 30
0.0
 11
-509.9300024164304
 21
835.92698478999682
 31
0.0
  0
CIRCLE
  5
142
102
{ACAD_REACTORS
330
143
102
}
100
AcDbEntity
  8
0
370
              -2
390
0
  6
Continuous
 62
               0
100
AcDbCircle
 10
-509.9300024164304
 20
760.96147656071219
 30
0.0
 40
1.9998779296875
  0
HATCH
  5
143
100
AcDbEntity
  8
0
370
              -2
390
0
  6
Continuous
 62
               0
100
AcDbHatch
 10
0.0
 20
0.0
 30
0.0
210
0.0
220
0.0
230
1.0
  2
SOLID
 70
               1
 71
               1
 91
        1
 92
        1
 93
        1
 72
               2
 10
-509.9300024164304
 20
760.96147656071219
 40
1.9998779296875
 50
0.0
 51
360.0
 73
               0
 97
        1
330
142
 75
               0
 76
               1
 98
        1
 10
0.0
 20
0.0
  0
CIRCLE
  5
144
102
{ACAD_REACTORS
330
145
102
}
100
AcDbEntity
  8
0
370
              -2
390
0
  6
Continuous
 62
               0
100
AcDbCircle
 10
-509.9300024164304
 20
835.92698478999682
 30
0.0
 40
1.9998779296875
  0
HATCH
  5
145
100
AcDbEntity
  8
0
370
              -2
390
0
  6
Continuous
 62
               0
100
AcDbHatch
 10
0.0
 20
0.0
 30
0.0
210
0.0
220
0.0
230
1.0
  2
SOLID
 70
               1
 71
               1
 91
        1
 92
        1
 93
        1
 72
               2
 10
-509.9300024164304
 20
835.92698478999682
 40
1.9998779296875
 50
0.0
 51
360.0
 73
               0
 97
        1
330
144
 75
               0
 76
               1
 98
        1
 10
0.0
 20
0.0
  0
MTEXT
  5
146
100
AcDbEntity
  8
0
390
0
 62
               0
100
AcDbMText
 10
-543.80761960393011
 20
782.56923067535445
 30
0.0
 40
24.432617187500004
 41
0.0
 71
               1
 72
               1
  1
75
  7
ＭＳ ゴシック
 11
0.0
 21
1.0
 31
0.0
 73
               1
 44
0.7828267384257843
  0
POINT
  5
147
100
AcDbEntity
  8
Defpoints
370
               0
390
0
 62
               0
100
AcDbPoint
 10
-409.9300024164304
 20
835.92698478999682
 30
0.0
  0
POINT
  5
148
100
AcDbEntity
  8
Defpoints
370
               0
390
0
 62
               0
100
AcDbPoint
 10
-409.9300024164304
 20
760.96147656071219
 30
0.0
  0
POINT
  5
149
100
AcDbEntity
  8
Defpoints
370
               0
390
0
 62
               0
100
AcDbPoint
 10
-509.9300024164304
 20
760.96147656071219
 30
0.0
  0
ENDBLK
  5
14A
100
AcDbEntity
  8
notes
390
0
100
AcDbBlockEnd
  0
BLOCK
  5
14B
100
AcDbEntity
  8
notes
390
0
100
AcDbBlockBegin
  2
*D21
 70
               1
 10
0.0
 20
0.0
 30
0.0
  3
*D21
  1

  0
LINE
  5
14C
100
AcDbEntity
  8
0
370
              -2
390
0
  6
Continuous
 62
               0
100
AcDbLine
 10
-285.52844286840354
 20
754.87985736969154
 30
0.0
 11
-223.74987999999939
 21
610.92698478999694
 31
0.0
  0
CIRCLE
  5
14D
102
{ACAD_REACTORS
330
14E
102
}
100
AcDbEntity
  8
0
370
              -2
390
0
  6
Continuous
 62
               0
100
AcDbCircle
 10
-285.52844286840354
 20
754.87985736969154
 30
0.0
 40
1.9998779296875
  0
HATCH
  5
14E
100
AcDbEntity
  8
0
370
              -2
390
0
  6
Continuous
 62
               0
100
AcDbHatch
 10
0.0
 20
0.0
 30
0.0
210
0.0
220
0.0
230
1.0
  2
SOLID
 70
               1
 71
               1
 91
        1
 92
        1
 93
        1
 72
               2
 10
-285.52844286840354
 20
754.87985736969154
 40
1.9998779296875
 50
0.0
 51
360.0
 73
               0
 97
        1
330
14D
 75
               0
 76
               1
 98
        1
 10
0.0
 20
0.0
  0
LINE
  5
14F
100
AcDbEntity
  8
0
370
              -2
390
0
  6
Continuous
 62
               0
100
AcDbLine
 10
-223.74987999999939
 20
610.92698478999694
 30
0.0
 11
-100.24987999999939
 21
610.92698478999694
 31
0.0
  0
MTEXT
  5
150
100
AcDbEntity
  8
0
390
0
 62
               0
100
AcDbMText
 10
-163.74987999999939
 20
644.80460197749699
 30
0.0
 40
24.432617187500004
 41
0.0
 71
               1
 72
               1
  1
φ35
  7
ＭＳ ゴシック
 73
               1
 44
0.7828267384257843
  0
POINT
  5
151
100
AcDbEntity
  8
Defpoints
370
               0
390
0
 62
               0
100
AcDbPoint
 10
-299.33156196445634
 20
787.04309575173306
 30
0.0
  0
POINT
  5
152
100
AcDbEntity
  8
Defpoints
370
               0
390
0
 62
               0
100
AcDbPoint
 10
-285.52844286840354
 20
754.87985736969154
 30
0.0
  0
ENDBLK
  5
153
100
AcDbEntity
  8
notes
390
0
100
AcDbBlockEnd
  0
BLOCK
  5
154
100
AcDbEntity
  8
notes
390
0
100
AcDbBlockBegin
  2
*D22
 70
               1
 10
0.0
 20
0.0
 30
0.0
  3
*D22
  1

  0
LINE
  5
155
100
AcDbEntity
  8
0
370
              -2
390
0
  6
Continuous
 62
               0
100
AcDbLine
 10
-292.43000241642858
 20
-561.68922815507676
 30
0.0
 11
-292.43000241642858
 21
-640.34274332335417
 31
0.0
  0
LINE
  5
156
100
AcDbEntity
  8
0
370
              -2
390
0
  6
Continuous
 62
               0
100
AcDbLine
 10
-687.43000241642858
 20
-515.11233460055928
 30
0.0
 11
-687.43000241642858
 21
-640.34274332335417
 31
0.0
  0
LINE
  5
157
100
AcDbEntity
  8
0
370
              -2
390
0
  6
Continuous
 62
               0
100
AcDbLine
 10
-292.43000241642858
 20
-640.34274332335417
 30
0.0
 11
-687.43000241642858
 21
-640.34274332335417
 31
0.0
  0
CIRCLE
  5
158
102
{ACAD_REACTORS
330
159
102
}
100
AcDbEntity
  8
0
370
              -2
390
0
  6
Continuous
 62
               0
100
AcDbCircle
 10
-292.43000241642858
 20
-640.34274332335417
 30
0.0
 40
1.9998779296875
  0
HATCH
  5
159
100
AcDbEntity
  8
0
370
              -2
390
0
  6
Continuous
 62
               0
100
AcDbHatch
 10
0.0
 20
0.0
 30
0.0
210
0.0
220
0.0
230
1.0
  2
SOLID
 70
               1
 71
               1
 91
        1
 92
        1
 93
        1
 72
               2
 10
-292.43000241642858
 20
-640.34274332335417
 40
1.9998779296875
 50
0.0
 51
360.0
 73
               0
 97
        1
330
158
 75
               0
 76
               1
 98
        1
 10
0.0
 20
0.0
  0
CIRCLE
  5
15A
102
{ACAD_REACTORS
330
15B
102
}
100
AcDbEntity
  8
0
370
              -2
390
0
  6
Continuous
 62
               0
100
AcDbCircle
 10
-687.43000241642858
 20
-640.34274332335417
 30
0.0
 40
1.9998779296875
  0
HATCH
  5
15B
100
AcDbEntity
  8
0
370
              -2
390
0
  6
Continuous
 62
               0
100
AcDbHatch
 10
0.0
 20
0.0
 30
0.0
210
0.0
220
0.0
230
1.0
  2
SOLID
 70
               1
 71
               1
 91
        1
 92
        1
 93
        1
 72
               2
 10
-687.43000241642858
 20
-640.34274332335417
 40
1.9998779296875
 50
0.0
 51
360.0
 73
               0
 97
        1
330
15A
 75
               0
 76
               1
 98
        1
 10
0.0
 20
0.0
  0
MTEXT
  5
15C
100
AcDbEntity
  8
0
390
0
 62
               0
100
AcDbMText
 10
-513.74250409860451
 20
-606.46512613585423
 30
0.0
 40
24.432617187500004
 41
0.0
 71
               1
 72
               1
  1
395
  7
ＭＳ ゴシック
 73
               1
 44
0.7828267384257843
  0
POINT
  5
15D
100
AcDbEntity
  8
Defpoints
370
               0
390
0
 62
               0
100
AcDbPoint
 10
-687.43000241642858
 20
-490.11233460055928
 30
0.0
  0
POINT
  5
15E
100
AcDbEntity
  8
Defpoints
370
               0
390
0
 62
               0
100
AcDbPoint
 10
-292.43000241642858
 20
-536.68922815507676
 30
0.0
  0
POINT
  5
15F
100
AcDbEntity
  8
Defpoints
370
               0
390
0
 62
               0
100
AcDbPoint
 10
-292.43000241642858
 20
-640.34274332335417
 30
0.0
  0
ENDBLK
  5
160
100
AcDbEntity
  8
notes
390
0
100
AcDbBlockEnd
  0
ENDSEC
  0
SECTION
  2
ENTITIES
  0
MTEXT
  5
161
100
AcDbEntity
  8
template
390
0
 62
               7
100
AcDbMText
 10
-967.99999999975989
 20
-1147.4176292337002
 30
0.0
 40
16.288411458333332
 41
0.0
 71
               1
 72
               1
  1
品名
  7
ＭＳ ゴシック
 73
               1
 44
0.7828267384257843
  0
MTEXT
  5
162
100
AcDbEntity
  8
template
390
0
 62
               7
100
AcDbMText
 10
-967.99999999975989
 20
-1232.4176292337002
 30
0.0
 40
16.288411458333332
 41
0.0
 71
               1
 72
               1
  1
仕様
  7
ＭＳ ゴシック
 73
               1
 44
0.7828267384257843
  0
LINE
  5
163
100
AcDbEntity
  8
template
370
               5
390
0
  6
Continuous
 62
               7
100
AcDbLine
 10
974.99999999975807
 20
-1224.0027073587003
 30
0.0
 11
-975.00000000024374
 21
-1224.0027073587003
 31
0.0
  0
LWPOLYLINE
  5
164
100
AcDbEntity
  8
template
370
               5
390
0
  6
Continuous
 62
               7
100
AcDbPolyline
 90
        5
 70
             128
 10
975.00000000024011
 20
1405.9972926412997
 10
-974.99999999975989
 20
1405.9972926412997
 10
-974.99999999975989
 20
-1394.0027073587003
 10
975.00000000024011
 20
-1394.0027073587003
 10
975.00000000024011
 20
1405.9972926412997
  0
LINE
  5
165
100
AcDbEntity
  8
template
370
               5
390
0
  6
Continuous
 62
               7
100
AcDbLine
 10
974.99999999975807
 20
-1139.0027073587003
 30
0.0
 11
-975.00000000024374
 21
-1139.0027073587003
 31
0.0
  0
LINE
  5
166
100
AcDbEntity
  8
template
370
               5
390
0
  6
Continuous
 62
               7
100
AcDbLine
 10
975.00000000024011
 20
-1309.0027073587003
 30
0.0
 11
222.00000000024011
 21
-1309.0027073587003
 31
0.0
  0
MTEXT
  5
167
100
AcDbEntity
  8
template
390
0
 62
               7
100
AcDbMText
 10
-974.99999999955617
 20
-1405.8565294155574
 30
0.0
 40
21.717881944444446
 41
0.0
 71
               1
 72
               1
  1
100709SH
  7
ＭＳ ゴシック
 73
               1
 44
0.7828267384257843
  0
MTEXT
  5
168
100
AcDbEntity
  8
template
390
0
 62
               7
100
AcDbMText
 10
251.87140625249958
 20
-1338.9131018320077
 30
0.0
 40
24.432617187500004
 41
0.0
 71
               1
 72
               1
  1
大洋金物株式会社 ティーフォルム事業部
  7
ＭＳ ゴシック
 73
               1
 44
0.7828267384257843
  0
INSERT
  5
169
100
AcDbEntity
  8
template
390
0
 62
               7
100
AcDbBlockReference
  2
グループ
 10
5173.4991512050347
 20
1049.7703562853235
 30
0.0
  0
MTEXT
  5
16A
100
AcDbEntity
  8
template
390
0
 62
               7
100
AcDbMText
 10
784.00000000050022
 20
-1261.0000901712001
 30
0.0
 40
24.432617187500004
 41
0.0
 71
               1
 72
               1
  1
1:10
  7
ＭＳ ゴシック
 73
               1
 44
0.7828267384257843
  0
MTEXT
  5
16B
100
AcDbEntity
  8
template
390
0
 62
               7
100
AcDbMText
 10
731.00000000050022
 20
-1232.4176292337002
 30
0.0
 40
16.288411458333332
 41
0.0
 71
               1
 72
               1
  1
縮尺
  7
ＭＳ ゴシック
 73
               1
 44
0.7828267384257843
  0
LINE
  5
16C
100
AcDbEntity
  8
template
370
               5
390
0
  6
Continuous
 62
               7
100
AcDbLine
 10
724.00000000050022
 20
-1309.0027073587003
 30
0.0
 11
724.00000000050022
 21
-1224.0027073587003
 31
0.0
  0
MTEXT
  5
16D
100
AcDbEntity
  8
template
390
0
 62
               7
100
AcDbMText
 10
480.00000000050022
 20
-1232.4176292337002
 30
0.0
 40
16.288411458333332
 41
0.0
 71
               1
 72
               1
  1
容量
  7
ＭＳ ゴシック
 73
               1
 44
0.7828267384257843
  0
MTEXT
  5
16E
100
AcDbEntity
  8
template
390
0
 62
               7
100
AcDbMText
 10
533.00000000050022
 20
-1260.9383459142705
 30
0.0
 40
23.9074177654294
 41
0.0
 71
               1
 72
               1
  1
3.2L
  7
ＭＳ ゴシック
 73
               1
 44
0.7828267384257843
  0
LINE
  5
16F
100
AcDbEntity
  8
template
370
               5
390
0
  6
Continuous
 62
               7
100
AcDbLine
 10
473.00000000050022
 20
-1309.0027073587003
 30
0.0
 11
473.00000000050022
 21
-1224.0027073587003
 31
0.0
  0
MTEXT
  5
170
100
AcDbEntity
  8
template
390
0
 62
               7
100
AcDbMText
 10
229.00000000050022
 20
-1147.4176292337002
 30
0.0
 40
16.288411458333332
 41
0.0
 71
               1
 72
               1
  1
品番
  7
ＭＳ ゴシック
 73
               1
 44
0.7828267384257843
  0
MTEXT
  5
171
100
AcDbEntity
  8
template
390
0
 62
               7
100
AcDbMText
 10
229.00000000050022
 20
-1232.4176292337002
 30
0.0
 40
16.288411458333332
 41
0.0
 71
               1
 72
               1
  1
重量
  7
ＭＳ ゴシック
 73
               1
 44
0.7828267384257843
  0
MTEXT
  5
172
100
AcDbEntity
  8
template
390
0
 62
               7
100
AcDbMText
 10
282.00000000050022
 20
-1176.0000901712001
 30
0.0
 40
24.432617187500004
 41
0.0
 71
               1
 72
               1
  1
ARJ70-0905(旧品番:AQI70-0905)
  7
ＭＳ ゴシック
 73
               1
 44
0.7828267384257843
  0
MTEXT
  5
173
100
AcDbEntity
  8
template
390
0
 62
               7
100
AcDbMText
 10
282.00000000050022
 20
-1261.0000901712001
 30
0.0
 40
24.432617187500004
 41
0.0
 71
               1
 72
               1
  1
21kg
  7
ＭＳ ゴシック
 73
               1
 44
0.7828267384257843
  0
LINE
  5
174
100
AcDbEntity
  8
template
370
               5
390
0
  6
Continuous
 62
               7
100
AcDbLine
 10
222.00000000050022
 20
-1394.0027073587003
 30
0.0
 11
222.00000000050022
 21
-1139.0027073587003
 31
0.0
  0
MTEXT
  5
175
100
AcDbEntity
  8
template
390
0
 62
               7
100
AcDbMText
 10
-914.99999999975989
 20
-1176.0000901712001
 30
0.0
 40
24.432617187500004
 41
0.0
 71
               1
 72
               1
  1
洗面器 -POZZI GINORI,Quinta-
  7
ＭＳ ゴシック
 73
               1
 44
0.7828267384257843
  0
MTEXT
  5
176
100
AcDbEntity
  8
template
390
0
 62
               7
100
AcDbMText
 10
-914.99999999975989
 20
-1261.0000901712001
 30
0.0
 40
24.432617187500004
 41
0.0
 71
               1
 72
               1
  1
壁掛け/オーバーフロー付き/壁取付ボルト付属/陶器/ホワイト
  7
ＭＳ ゴシック
 73
               1
 44
1.3047112307096407
  0
DIMENSION
  5
177
100
AcDbEntity
  8
notes
370
               5
390
0
  6
Continuous
 62
               7
100
AcDbDimension
  2
*D3
 10
-37.430002416438583
 20
985.92698478999682
 30
0.0
 11
-362.43000241643495
 21
985.92698478999682
 31
0.0
 70
               1
 71
               5
 72
               1
 41
1.0
 42
0.0
  3
tform線あり
100
AcDbAlignedDimension
 13
-687.43000241643131
 23
835.92698478999682
 33
0.0
 14
-37.430002416438583
 24
835.92698478999682
 34
0.0
1001
ACAD
1000
DSTYLE
1002
{
1070
             279
1070
               2
1070
             340
1005
38
1070
             147
1040
5.0
1002
}
  0
DIMENSION
  5
178
100
AcDbEntity
  8
notes
370
               5
390
0
  6
Continuous
 62
               7
100
AcDbDimension
  2
*D4
 10
-192.4300024164304
 20
935.92698478999694
 30
0.0
 11
-242.4300024164304
 21
935.92698478999694
 31
0.0
 71
               5
 72
               1
 41
1.0
 42
0.0
  3
tform線あり
100
AcDbAlignedDimension
 13
-292.4300024164304
 23
788.46147656071219
 33
0.0
 14
-192.4300024164304
 24
778.46147656071219
 34
0.0
100
AcDbRotatedDimension
1001
ACAD
1000
DSTYLE
1002
{
1070
             279
1070
               2
1070
             340
1005
38
1070
             147
1040
5.0
1002
}
  0
DIMENSION
  5
179
100
AcDbEntity
  8
notes
370
               5
390
0
  6
Continuous
 62
               7
100
AcDbDimension
  2
*D5
 10
-292.4300024164304
 20
935.92698478999694
 30
0.0
 11
-342.4300024164304
 21
935.92698478999694
 31
0.0
 71
               5
 72
               1
 41
1.0
 42
0.0
  3
tform線あり
100
AcDbAlignedDimension
 13
-392.4300024164304
 23
778.46147656071219
 33
0.0
 14
-292.4300024164304
 24
788.46147656071219
 34
0.0
100
AcDbRotatedDimension
1001
ACAD
1000
DSTYLE
1002
{
1070
             279
1070
               2
1070
             340
1005
38
1070
             147
1040
5.0
1002
}
  0
DIMENSION
  5
17A
100
AcDbEntity
  8
notes
370
               5
390
0
  6
Continuous
 62
               7
100
AcDbDimension
  2
*D6
 10
298.76166425021256
 20
-380.10648064316433
 30
0.0
 11
298.76166425021256
 21
-435.10658792586719
 31
0.0
 71
               5
 72
               1
 41
1.0
 42
0.0
  3
tform線あり
100
AcDbAlignedDimension
 13
421.50253126700682
 23
-490.10669520857027
 33
0.0
 14
407.43203775443453
 24
-380.10648064316433
 34
0.0
 50
90.0
100
AcDbRotatedDimension
1001
ACAD
1000
DSTYLE
1002
{
1070
             279
1070
               2
1070
             340
1005
38
1070
             147
1040
5.0
1002
}
  0
DIMENSION
  5
17B
100
AcDbEntity
  8
notes
370
               5
390
0
  6
Continuous
 62
               7
100
AcDbDimension
  2
*D7
 10
298.76166425021165
 20
-490.10669520857027
 30
0.0
 11
298.76166425021165
 21
-515.10669520857027
 31
0.0
 71
               5
 72
               1
 41
1.0
 42
0.0
  3
tform線あり
100
AcDbAlignedDimension
 13
493.95398733223374
 23
-540.10669520857027
 33
0.0
 14
421.29780679235228
 24
-490.10669520857027
 34
0.0
 50
90.0
100
AcDbRotatedDimension
1001
ACAD
1000
DSTYLE
1002
{
1070
             279
1070
               2
1070
             340
1005
38
1070
             147
1040
5.0
1002
}
  0
DIMENSION
  5
17C
100
AcDbEntity
  8
notes
370
               5
390
0
  6
Continuous
 62
               7
100
AcDbDimension
  2
*D8
 10
62.53871241287834
 20
-430.11225876178946
 30
0.0
 11
62.53871241287834
 21
-405.11223844474671
 31
0.0
 71
               5
 72
               1
 41
1.0
 42
0.0
  3
tform線あり
100
AcDbAlignedDimension
 13
-45.429717547416658
 23
-380.11221812770418
 33
0.0
 14
-126.93000241643949
 24
-430.11225876178946
 34
0.0
 50
-90.0
100
AcDbRotatedDimension
1001
ACAD
1000
DSTYLE
1002
{
1070
             279
1070
               2
1070
             340
1005
38
1070
             147
1040
5.0
1002
}
  0
DIMENSION
  5
17D
100
AcDbEntity
  8
notes
370
               5
390
0
  6
Continuous
 62
               7
100
AcDbDimension
  2
*D9
 10
62.569997583561417
 20
835.92698478999682
 30
0.0
 11
62.569997583561417
 21
770.92696964148649
 31
0.0
 70
               1
 71
               5
 72
               1
 41
1.0
 42
0.0
  3
tform線あり
100
AcDbAlignedDimension
 13
-37.430002416438583
 23
705.92695449297628
 33
0.0
 14
-37.430002416438583
 24
835.92698478999682
 34
0.0
 50
90.0
1001
ACAD
1000
DSTYLE
1002
{
1070
             279
1070
               2
1070
             340
1005
38
1070
             147
1040
5.0
1002
}
  0
DIMENSION
  5
17E
100
AcDbEntity
  8
notes
370
               5
390
0
  6
Continuous
 62
               7
100
AcDbDimension
  2
*D10
 10
62.569997583561417
 20
705.92695449297628
 30
0.0
 11
62.569997583561417
 21
588.42695449297628
 31
0.0
 71
               5
 72
               1
 41
1.0
 42
0.0
  3
tform線あり
100
AcDbAlignedDimension
 13
-82.579735713716218
 23
470.92695449297628
 33
0.0
 14
-37.430002416438583
 24
705.92695449297628
 34
0.0
 50
90.0
100
AcDbRotatedDimension
1001
ACAD
1000
DSTYLE
1002
{
1070
             279
1070
               2
1070
             340
1005
38
1070
             147
1040
5.0
1002
}
  0
DIMENSION
  5
17F
100
AcDbEntity
  8
notes
370
               5
390
0
  6
Continuous
 62
               7
100
AcDbDimension
  2
*D11
 10
799.45567263161593
 20
-280.10648064316433
 30
0.0
 11
766.9729185169781
 21
-280.10648064316433
 31
0.0
 71
               5
 72
               1
 41
1.0
 42
0.0
  3
tform線あり
100
AcDbAlignedDimension
 13
734.49016440234118
 23
-380.10648064316433
 33
0.0
 14
799.45567263161593
 24
-383.10648064316842
 34
0.0
100
AcDbRotatedDimension
1001
ACAD
1000
DSTYLE
1002
{
1070
             279
1070
               2
1070
             340
1005
38
1070
             147
1040
5.0
1002
}
  0
DIMENSION
  5
180
100
AcDbEntity
  8
notes
370
               5
390
0
  6
Continuous
 62
               7
100
AcDbDimension
  2
*D12
 10
-432.4300024164213
 20
-280.11223812770322
 30
0.0
 11
-559.92756572450162
 21
-280.11223812770322
 31
0.0
 71
               5
 72
               1
 41
1.0
 42
0.0
  3
tform線あり
100
AcDbAlignedDimension
 13
-687.42512903258194
 23
-388.39141409883678
 33
0.0
 14
-432.4300024164213
 24
-404.61225876178946
 34
0.0
100
AcDbRotatedDimension
1001
ACAD
1000
DSTYLE
1002
{
1070
             279
1070
               2
1070
             340
1005
38
1070
             147
1040
5.0
1002
}
  0
DIMENSION
  5
181
100
AcDbEntity
  8
notes
370
               5
390
0
  6
Continuous
 62
               7
100
AcDbDimension
  2
*D13
 10
562.0
 20
-380.10902385722284
 30
0.0
 11
557.0
 21
-367.07301521000363
 31
0.0
 70
             128
 71
               5
 72
               1
 41
1.0
 42
0.0
  3
tform線あり
100
AcDbAlignedDimension
 13
579.45567263161593
 23
-495.10902385722284
 33
0.0
 14
579.95398733223374
 24
-380.10902385722284
 34
0.0
 50
90.0
100
AcDbRotatedDimension
1001
ACAD
1000
DSTYLE
1002
{
1070
             271
1070
               0
1070
             279
1070
               2
1070
             340
1005
38
1070
               3
1000
<>(深さ)
1070
             174
1070
               0
1070
             147
1040
5.0
1002
}
  0
DIMENSION
  5
182
100
AcDbEntity
  8
notes
370
               5
390
0
  6
Continuous
 62
               7
100
AcDbDimension
  2
*D14
 10
-687.43000241642767
 20
335.92695449297673
 30
0.0
 11
-614.0
 21
340.92695449297673
 31
0.0
 70
             128
 71
               5
 72
               1
 41
1.0
 42
0.0
  3
tform線あり
100
AcDbAlignedDimension
 13
-512.43000241642767
 23
435.92695449297673
 33
0.0
 14
-687.43000241642767
 24
435.92695449297673
 34
0.0
100
AcDbRotatedDimension
1001
ACAD
1000
DSTYLE
1002
{
1070
             279
1070
               2
1070
             340
1005
38
1070
             147
1040
5.0
1002
}
  0
DIMENSION
  5
183
100
AcDbEntity
  8
notes
370
               5
390
0
  6
Continuous
 62
               7
100
AcDbDimension
  2
*D15
 10
-512.42991264140255
 20
335.92695449297673
 30
0.0
 11
-292.42991264140255
 21
335.92695449297673
 31
0.0
 71
               5
 72
               1
 41
1.0
 42
0.0
  3
tform線あり
100
AcDbAlignedDimension
 13
-72.429912641402552
 23
480.57428030107803
 33
0.0
 14
-512.42991264140255
 24
435.92695449297673
 34
0.0
100
AcDbRotatedDimension
1001
ACAD
1000
DSTYLE
1002
{
1070
             279
1070
               2
1070
             340
1005
38
1070
             147
1040
5.0
1002
}
  0
DIMENSION
  5
184
100
AcDbEntity
  8
notes
370
               5
390
0
  6
Continuous
 62
               7
100
AcDbDimension
  2
*D16
 10
-432.4300024164213
 20
-280.11223812770322
 30
0.0
 11
-292.4300024164213
 21
-280.11223812770322
 31
0.0
 71
               5
 72
               1
 41
1.0
 42
0.0
  3
tform線あり
100
AcDbAlignedDimension
 13
-152.4300024164213
 23
-410.11225876178946
 33
0.0
 14
-432.4300024164213
 24
-410.11225876178946
 34
0.0
100
AcDbRotatedDimension
1001
ACAD
1000
DSTYLE
1002
{
1070
             279
1070
               2
1070
             340
1005
38
1070
             147
1040
5.0
1002
}
  0
DIMENSION
  5
185
100
AcDbEntity
  8
notes
370
               5
390
0
  6
Continuous
 62
               7
100
AcDbDimension
  2
*D17
 10
-787.43000241643131
 20
835.92698478999682
 30
0.0
 11
-787.43000241643131
 21
635.92696964148672
 31
0.0
 70
               1
 71
               5
 72
               1
 41
1.0
 42
0.0
  3
tform線あり
100
AcDbAlignedDimension
 13
-687.43000241642767
 23
435.92695449297673
 33
0.0
 14
-687.43000241643131
 24
835.92698478999682
 34
0.0
 50
90.0
1001
ACAD
1000
DSTYLE
1002
{
1070
             279
1070
               2
1070
             340
1005
38
1070
             147
1040
5.0
1002
}
  0
DIMENSION
  5
186
100
AcDbEntity
  8
notes
370
               5
390
0
  6
Continuous
 62
               7
100
AcDbDimension
  2
*D18
 10
799.45555061180494
 20
-640.3427433233544
 30
0.0
 11
689.45561162170907
 21
-635.3427433233544
 31
0.0
 70
             128
 71
               5
 72
               1
 41
1.0
 42
0.0
  3
tform線あり
100
AcDbAlignedDimension
 13
579.4556726316132
 23
-536.6892281550854
 33
0.0
 14
799.45555061180494
 24
-529.94604473767026
 34
0.0
100
AcDbRotatedDimension
1001
ACAD
1000
DSTYLE
1002
{
1070
             279
1070
               2
1070
             340
1005
38
1070
             147
1040
5.0
1002
}
  0
DIMENSION
  5
187
100
AcDbEntity
  8
notes
370
               5
390
0
  6
Continuous
 62
               7
100
AcDbDimension
  2
*D19
 10
-787.42512903258194
 20
-380.11221812770327
 30
0.0
 11
-787.42512903258194
 21
-460.11221812770327
 31
0.0
 71
               5
 72
               1
 41
1.0
 42
0.0
  3
tform線あり
100
AcDbAlignedDimension
 13
-413.01456174876512
 23
-540.11221812770327
 33
0.0
 14
-679.43020191152755
 24
-380.11221812770327
 34
0.0
 50
-90.0
100
AcDbRotatedDimension
1001
ACAD
1000
DSTYLE
1002
{
1070
             279
1070
               2
1070
             340
1005
38
1070
             147
1040
5.0
1002
}
  0
DIMENSION
  5
188
100
AcDbEntity
  8
notes
370
               5
390
0
  6
Continuous
 62
               7
100
AcDbDimension
  2
*D20
 10
-509.9300024164304
 20
760.96147656071219
 30
0.0
 11
-509.9300024164304
 21
798.44423067535445
 31
0.0
 70
               1
 71
               5
 72
               1
 41
1.0
 42
0.0
  3
tform線あり
100
AcDbAlignedDimension
 13
-409.9300024164304
 23
835.92698478999682
 33
0.0
 14
-409.9300024164304
 24
760.96147656071219
 34
0.0
 50
90.0
1001
ACAD
1000
DSTYLE
1002
{
1070
             279
1070
               2
1070
             340
1005
38
1070
             147
1040
5.0
1002
}
  0
DIMENSION
  5
189
100
AcDbEntity
  8
notes
370
               5
390
0
  6
Continuous
 62
               7
100
AcDbDimension
  2
*D21
 10
-299.33156196445634
 20
787.04309575173306
 30
0.0
 11
-163.74988000000212
 21
610.92698478999569
 31
0.0
 70
               3
 71
               5
 72
               1
 41
1.0
 42
0.0
  3
tform線あり
100
AcDbDiametricDimension
 15
-285.52844286840354
 25
754.87985736969154
 35
0.0
 40
156.64935478332208
1001
ACAD
1000
DSTYLE
1002
{
1070
             289
1070
               0
1070
             342
1005
4A
1070
             340
1005
38
1070
              73
1070
               1
1070
              74
1070
               1
1070
               3
1000

1070
             174
1070
               0
1070
             147
1040
5.0
1002
}
  0
MTEXT
  5
18A
100
AcDbEntity
  8
notes
390
0
 62
               7
100
AcDbMText
 10
-711.17114214878893
 20
218.54085953337562
 30
0.0
 40
24.432617187500004
 41
866.17114214878939
 71
               1
 72
               1
  1
＝φ30もしくはφ35の水栓取付用穴あけ加工を承ります。\P   必要な場合、ご注文の際にご指示ください。
  7
ＭＳ ゴシック
 73
               1
 44
1.0437689845677123
  0
MTEXT
  5
18B
100
AcDbEntity
  8
notes
390
0
 62
               7
100
AcDbMText
 10
-166.59222807191054
 20
-611.353926015767
 30
0.0
 40
24.432617187500004
 41
0.0
 71
               1
 72
               1
  1
壁取付ボルト穴(2ヶ所)
  7
ＭＳ ゴシック
 73
               1
 44
0.7828267384257843
  0
CIRCLE
  5
18C
100
AcDbEntity
  8
notes
370
              15
390
0
  6
STYLE_13
 62
               7
100
AcDbCircle
 10
-743.5
 20
202.47082284504165
 30
0.0
 40
17.5
  0
DIMENSION
  5
18D
100
AcDbEntity
  8
notes
370
               5
390
0
  6
Continuous
 62
               7
100
AcDbDimension
  2
*D22
 10
-292.43000241642858
 20
-640.34274332335417
 30
0.0
 11
-489.93000241642858
 21
-640.34274332335417
 31
0.0
 71
               5
 72
               1
 41
1.0
 42
0.0
  3
tform線あり
100
AcDbAlignedDimension
 13
-687.43000241642858
 23
-490.11233460055928
 33
0.0
 14
-292.43000241642858
 24
-536.68922815507676
 34
0.0
100
AcDbRotatedDimension
1001
ACAD
1000
DSTYLE
1002
{
1070
             279
1070
               2
1070
             340
1005
38
1070
             147
1040
5.0
1002
}
  0
LINE
  5
18E
100
AcDbEntity
  8
notes
370
               5
390
0
  6
Continuous
 62
               7
100
AcDbLine
 10
-152.4300024164213
 20
-430.11225876178946
 30
0.0
 11
-152.4300024164213
 21
-599.07301521000363
 31
0.0
  0
LINE
  5
18F
100
AcDbEntity
  8
ARJ70-0905
370
              15
390
0
  6
Continuous
 62
               7
100
AcDbLine
 10
432.58020480200594
 20
-485.10848325301845
 30
0.0
 11
464.96814373719099
 21
-485.11176585429439
 31
0.0
  0
ARC
  5
190
100
AcDbEntity
  8
ARJ70-0905
370
              15
390
0
  6
STYLE_01
 62
               7
100
AcDbCircle
 10
421.40016902968
 20
-482.1073501121034
 30
0.0
 40
8.0000000000004956
100
AcDbArc
 50
191.91298453985755
 51
318.18387802905488
  0
ARC
  5
191
100
AcDbEntity
  8
ARJ70-0905
370
              15
390
0
  6
STYLE_01
 62
               7
100
AcDbCircle
 10
432.5794953339273
 20
-492.10848321706635
 30
0.0
 40
6.9999999999999769
100
AcDbArc
 50
89.994192924716074
 51
138.18387802905619
  0
ARC
  5
192
100
AcDbEntity
  8
ARJ70-0905
370
              15
390
0
  6
Continuous
 62
               7
100
AcDbCircle
 10
464.96783967944066
 20
-488.11176583888528
 30
0.0
 40
3.0000000000001408
100
AcDbArc
 50
13.751033027065764
 51
89.99419292471606
  0
ARC
  5
193
100
AcDbEntity
  8
ARJ70-0905
370
              15
390
0
  6
STYLE_13
 62
               7
100
AcDbCircle
 10
-223.80053471034535
 20
-332.55174851622814
 30
0.0
 40
158.66619449957847
100
AcDbArc
 50
270.14655328204202
 51
340.52693015834262
  0
LINE
  5
194
100
AcDbEntity
  8
ARJ70-0905
370
              15
390
0
  6
Continuous
 62
               7
100
AcDbLine
 10
-412.43000241642585
 20
-540.34274332334144
 30
0.0
 11
-172.43000241645041
 21
-540.34274332335031
 31
0.0
  0
ARC
  5
195
100
AcDbEntity
  8
ARJ70-0905
370
              15
390
0
  6
Continuous
 62
               7
100
AcDbCircle
 10
-849.24919279270762
 20
-316.81471317216028
 30
0.0
 40
814.974984140998
100
AcDbArc
 50
347.72279551514617
 51
354.93121892933198
  0
LINE
  5
196
100
AcDbEntity
  8
ARJ70-0905
370
              15
390
0
  6
Continuous
 62
               7
100
AcDbLine
 10
-52.91248060189173
 20
-490.11233460055928
 30
0.0
 11
-683.87309216496942
 21
-490.11233460055928
 31
0.0
  0
LINE
  5
197
100
AcDbEntity
  8
ARJ70-0905
370
              15
390
0
  6
Continuous
 62
               7
100
AcDbLine
 10
-687.42512903258103
 20
-388.39141409883746
 30
0.0
 11
-683.87309216497397
 21
-490.11233460055928
 31
0.0
  0
LINE
  5
198
100
AcDbEntity
  8
ARJ70-0905
370
              15
390
0
  6
STYLE_13
 62
               7
100
AcDbLine
 10
-257.40294277870635
 20
-491.68922815508336
 30
0.0
 11
-223.39114178703676
 21
-491.2173743761914
 31
0.0
  0
LINE
  5
199
100
AcDbEntity
  8
ARJ70-0905
370
              15
390
0
  6
Continuous
 62
               7
100
AcDbLine
 10
407.43203775443453
 20
-380.10648064316433
 30
0.0
 11
796.64112340266365
 21
-380.11221812770327
 31
0.0
  0
ARC
  5
19A
100
AcDbEntity
  8
ARJ70-0905
370
              15
390
0
  6
Continuous
 62
               7
100
AcDbCircle
 10
796.45567263161502
 20
-383.10648064316842
 30
0.0
 40
3.0
100
AcDbArc
 50
0.0
 51
90.0
  0
ARC
  5
19B
100
AcDbEntity
  8
ARJ70-0905
370
              15
390
0
  6
Continuous
 62
               7
100
AcDbCircle
 10
1211.2748414110756
 20
-316.80907378016946
 30
0.0
 40
814.974984140998
100
AcDbArc
 50
185.06877407900635
 51
191.84870072794968
  0
LINE
  5
19C
100
AcDbEntity
  8
ARJ70-0905
370
              15
390
0
  6
Continuous
 62
               7
100
AcDbLine
 10
414.93812922025973
 20
-490.10669520857027
 30
0.0
 11
799.45567263161593
 21
-490.10669520856845
 31
0.0
  0
ARC
  5
19D
100
AcDbEntity
  8
ARJ70-0905
370
              15
390
0
  6
Continuous
 62
               7
100
AcDbCircle
 10
-212.39053993188554
 20
-438.15551470262039
 30
0.0
 40
109.7227152950032
100
AcDbArc
 50
291.35809108153984
 51
309.83285861387537
  0
ARC
  5
19E
100
AcDbEntity
  8
ARJ70-0905
370
              15
390
0
  6
Continuous
 62
               7
100
AcDbCircle
 10
-45.430002416436764
 20
-388.11221812263238
 30
0.0
 40
8.0000000000005027
100
AcDbArc
 50
354.93121892933283
 51
89.997959775928862
  0
ARC
  5
19F
100
AcDbEntity
  8
ARJ70-0905
370
              15
390
0
  6
Continuous
 62
               7
100
AcDbCircle
 10
-679.43000241642949
 20
-388.11221812521626
 30
0.0
 40
7.9999999999996794
100
AcDbArc
 50
90.001428381236238
 51
182.00000000000369
  0
ARC
  5
1A0
100
AcDbEntity
  8
ARJ70-0905
370
              15
390
0
  6
STYLE_13
 62
               7
100
AcDbCircle
 10
-360.24171164048403
 20
-331.43640008327657
 30
0.0
 40
159.78289669205438
100
AcDbArc
 50
199.76002176902566
 51
269.72259234550961
  0
LINE
  5
1A1
100
AcDbEntity
  8
ARJ70-0905
370
              15
390
0
  6
STYLE_13
 62
               7
100
AcDbLine
 10
-327.45706205414444
 20
-491.68922815508336
 30
0.0
 11
-361.00811834213891
 21
-491.2173743761914
 31
0.0
  0
LINE
  5
1A2
100
AcDbEntity
  8
ARJ70-0905
370
              15
390
0
  6
STYLE_13
 62
               7
100
AcDbLine
 10
-257.40294277870635
 20
-491.68922815508336
 30
0.0
 11
-292.4300024164213
 21
-491.68922815507631
 31
0.0
  0
LINE
  5
1A3
100
AcDbEntity
  8
ARJ70-0905
370
              15
390
0
  6
STYLE_13
 62
               7
100
AcDbLine
 10
-257.40294277870635
 20
-491.68922815508336
 30
0.0
 11
-269.93000241642949
 21
-504.29084724639029
 31
0.0
  0
LINE
  5
1A4
100
AcDbEntity
  8
ARJ70-0905
370
              15
390
0
  6
STYLE_13
 62
               7
100
AcDbLine
 10
-327.45706205414444
 20
-491.68922815508336
 30
0.0
 11
-292.43000241642858
 21
-491.68922815507631
 31
0.0
  0
LINE
  5
1A5
100
AcDbEntity
  8
ARJ70-0905
370
              15
390
0
  6
STYLE_13
 62
               7
100
AcDbLine
 10
-327.45706205414444
 20
-491.68922815508336
 30
0.0
 11
-314.93000241643222
 21
-504.29084724639029
 31
0.0
  0
LINE
  5
1A6
100
AcDbEntity
  8
ARJ70-0905
370
              15
390
0
  6
STYLE_13
 62
               7
100
AcDbLine
 10
-269.93000241642949
 20
-504.29084724639029
 30
0.0
 11
-269.93000241642949
 21
-536.68922815507244
 31
0.0
  0
LINE
  5
1A7
100
AcDbEntity
  8
ARJ70-0905
370
              15
390
0
  6
STYLE_13
 62
               7
100
AcDbLine
 10
-314.93000241643222
 20
-504.29084724639029
 30
0.0
 11
-269.93000241642949
 21
-504.29084724639029
 31
0.0
  0
LINE
  5
1A8
100
AcDbEntity
  8
ARJ70-0905
370
              15
390
0
  6
STYLE_13
 62
               7
100
AcDbLine
 10
-314.93000241642858
 20
-536.68922815508131
 30
0.0
 11
-269.93000241642949
 21
-536.68922815507244
 31
0.0
  0
LINE
  5
1A9
100
AcDbEntity
  8
ARJ70-0905
370
              15
390
0
  6
STYLE_13
 62
               7
100
AcDbLine
 10
-314.93000241642858
 20
-504.29084724639029
 30
0.0
 11
-314.93000241642858
 21
-536.68922815508131
 31
0.0
  0
LINE
  5
1AA
100
AcDbEntity
  8
ARJ70-0905
370
              15
390
0
  6
STYLE_01
 62
               7
100
AcDbLine
 10
614.48273226933907
 20
-491.6892281550854
 30
0.0
 11
579.45567263162229
 21
-491.68922815507835
 31
0.0
  0
LINE
  5
1AB
100
AcDbEntity
  8
ARJ70-0905
370
              15
390
0
  6
STYLE_01
 62
               7
100
AcDbLine
 10
614.48273226933907
 20
-491.6892281550854
 30
0.0
 11
601.95567263161502
 21
-504.29084724639233
 31
0.0
  0
LINE
  5
1AC
100
AcDbEntity
  8
ARJ70-0905
370
              15
390
0
  6
STYLE_01
 62
               7
100
AcDbLine
 10
544.42861299389915
 20
-491.6892281550854
 30
0.0
 11
579.45567263161593
 21
-491.68922815507835
 31
0.0
  0
LINE
  5
1AD
100
AcDbEntity
  8
ARJ70-0905
370
              15
390
0
  6
STYLE_01
 62
               7
100
AcDbLine
 10
544.42861299389915
 20
-491.6892281550854
 30
0.0
 11
556.95567263161138
 21
-504.29084724639233
 31
0.0
  0
LINE
  5
1AE
100
AcDbEntity
  8
ARJ70-0905
370
              15
390
0
  6
STYLE_01
 62
               7
100
AcDbLine
 10
601.95567263161502
 20
-504.29084724639233
 30
0.0
 11
601.95567263161502
 21
-536.68922815507426
 31
0.0
  0
LINE
  5
1AF
100
AcDbEntity
  8
ARJ70-0905
370
              15
390
0
  6
STYLE_01
 62
               7
100
AcDbLine
 10
556.95567263161138
 20
-504.29084724639233
 30
0.0
 11
601.95567263161502
 21
-504.29084724639233
 31
0.0
  0
LINE
  5
1B0
100
AcDbEntity
  8
ARJ70-0905
370
              15
390
0
  6
STYLE_01
 62
               7
100
AcDbLine
 10
545.95567263161865
 20
-536.6892281550854
 30
0.0
 11
601.95567263161502
 21
-536.68922815507426
 31
0.0
  0
LINE
  5
1B1
100
AcDbEntity
  8
ARJ70-0905
370
              15
390
0
  6
STYLE_01
 62
               7
100
AcDbLine
 10
556.95567263161593
 20
-504.29084724639233
 30
0.0
 11
556.95567263161593
 21
-536.68922815508336
 31
0.0
  0
ARC
  5
1B2
100
AcDbEntity
  8
ARJ70-0905
370
              15
390
0
  6
Continuous
 62
               7
100
AcDbCircle
 10
-306.69839067926932
 20
-319.36710741853221
 30
0.0
 40
261.37694012486816
100
AcDbArc
 50
309.0284718423971
 51
319.2126969477967
  0
ARC
  5
1B3
100
AcDbEntity
  8
ARJ70-0905
370
              15
390
0
  6
Continuous
 62
               7
100
AcDbCircle
 10
407.45564233460755
 20
-388.10648064316638
 30
0.0
 40
8.0
100
AcDbArc
 50
90.0
 51
185.06877407900623
  0
ARC
  5
1B4
100
AcDbEntity
  8
ARJ70-0905
370
              15
390
0
  6
Continuous
 62
               7
100
AcDbCircle
 10
-372.46946490095797
 20
-438.15551470262039
 30
0.0
 40
109.72271529500355
100
AcDbArc
 50
230.1671413861248
 51
248.6419089184607
  0
ARC
  5
1B5
100
AcDbEntity
  8
ARJ70-0905
370
              15
390
0
  6
Continuous
 62
               7
100
AcDbCircle
 10
-278.16161415357328
 20
-319.36710741853221
 30
0.0
 40
261.3769401248681
100
AcDbArc
 50
220.78730305220358
 51
230.9715281576031
  0
LINE
  5
1B6
100
AcDbEntity
  8
ARJ70-0905
370
              15
390
0
  6
STYLE_13
 62
               7
100
AcDbLine
 10
-314.93000241642858
 20
-536.68922815508131
 30
0.0
 11
-325.93000241642858
 21
-536.68922815508131
 31
0.0
  0
LINE
  5
1B7
100
AcDbEntity
  8
ARJ70-0905
370
              15
390
0
  6
STYLE_13
 62
               7
100
AcDbLine
 10
-325.93000241642858
 20
-536.68922815508131
 30
0.0
 11
-326.86991940545704
 21
-509.77352719230339
 31
0.0
  0
LINE
  5
1B8
100
AcDbEntity
  8
ARJ70-0905
370
              15
390
0
  6
STYLE_13
 62
               7
100
AcDbLine
 10
-269.93000241642949
 20
-536.68922815507244
 30
0.0
 11
-258.93000241642858
 21
-536.68922815507244
 31
0.0
  0
LINE
  5
1B9
100
AcDbEntity
  8
ARJ70-0905
370
              15
390
0
  6
STYLE_01
 62
               7
100
AcDbLine
 10
545.95567263161593
 20
-536.68922815508336
 30
0.0
 11
544.93398501459706
 21
-507.4319227778833
 31
0.0
  0
LINE
  5
1BA
100
AcDbEntity
  8
ARJ70-0905
370
              15
390
0
  6
STYLE_01
 62
               7
100
AcDbLine
 10
502.40614579326939
 20
-540.34274332335235
 30
0.0
 11
504.87742974540106
 21
-503.51037381118044
 31
0.0
  0
ARC
  5
1BB
100
AcDbEntity
  8
ARJ70-0905
370
              15
390
0
  6
Continuous
 62
               7
100
AcDbCircle
 10
551.82849226958569
 20
-478.45869666720728
 30
0.0
 40
84.421330867182519
100
AcDbArc
 50
186.07884443200788
 51
227.14169174595324
  0
ARC
  5
1BC
100
AcDbEntity
  8
ARJ70-0905
370
              15
390
0
  6
STYLE_01
 62
               7
100
AcDbCircle
 10
554.83600977421975
 20
-372.2399298995233
 30
0.0
 40
120.63712316488706
100
AcDbArc
 50
187.0851040320488
 51
228.09887553407168
  0
ARC
  5
1BD
100
AcDbEntity
  8
ARJ70-0905
370
              15
390
0
  6
STYLE_01
 62
               7
100
AcDbCircle
 10
547.4375734256746
 20
-383.76423841238534
 30
0.0
 40
107.96692666665034
100
AcDbArc
 50
235.28616873992127
 51
268.40300114330722
  0
LINE
  5
1BE
100
AcDbEntity
  8
ARJ70-0905
370
              15
390
0
  6
STYLE_01
 62
               7
100
AcDbLine
 10
485.95278684857112
 20
-472.51376389510438
 30
0.0
 11
474.26884932468965
 21
-462.02995241093436
 31
0.0
  0
ARC
  5
1BF
100
AcDbEntity
  8
ARJ70-0905
370
              15
390
0
  6
STYLE_01
 62
               7
100
AcDbCircle
 10
536.03773046963761
 20
-416.6953859092564
 30
0.0
 40
85.994619130284249
100
AcDbArc
 50
253.28471096805811
 51
272.45599015263468
  0
ARC
  5
1C0
100
AcDbEntity
  8
ARJ70-0905
370
              15
390
0
  6
STYLE_01
 62
               7
100
AcDbCircle
 10
539.93703087949871
 20
-507.60642026139544
 30
0.0
 40
5.0000000000000737
100
AcDbArc
 50
1.9999999999775502
 51
92.455990152634698
  0
ARC
  5
1C1
100
AcDbEntity
  8
ARJ70-0905
370
              15
390
0
  6
STYLE_01
 62
               7
100
AcDbCircle
 10
509.86621310811915
 20
-503.84509841424642
 30
0.0
 40
4.9999999999998259
100
AcDbArc
 50
73.284710968056345
 51
176.16146779789213
  0
LINE
  5
1C2
100
AcDbEntity
  8
ARJ70-0905
370
              15
390
0
  6
STYLE_01
 62
               7
100
AcDbLine
 10
479.9421623822127
 20
-479.21244985015733
 30
0.0
 11
468.25822485833032
 21
-468.72863836598731
 31
0.0
  0
ARC
  5
1C3
100
AcDbEntity
  8
ARJ70-0905
370
              15
390
0
  6
STYLE_01
 62
               7
100
AcDbCircle
 10
554.83600977421975
 20
-372.2399298995233
 30
0.0
 40
129.63712316488702
100
AcDbArc
 50
188.24014615715089
 51
228.09887553407177
  0
ARC
  5
1C4
100
AcDbEntity
  8
ARJ70-0905
370
              15
390
0
  6
STYLE_01
 62
               7
100
AcDbCircle
 10
536.03773046963761
 20
-416.6953859092564
 30
0.0
 40
83.994619130284349
100
AcDbArc
 50
228.09887553407208
 51
243.42825531569832
  0
LINE
  5
1C5
100
AcDbEntity
  8
ARJ70-0905
370
              15
390
0
  6
STYLE_01
 62
               7
100
AcDbLine
 10
494.61593502770575
 20
-522.01028110074435
 30
0.0
 11
495.89761969251776
 21
-502.90786952565827
 31
0.0
  0
ARC
  5
1C6
100
AcDbEntity
  8
ARJ70-0905
370
              15
390
0
  6
STYLE_01
 62
               7
100
AcDbCircle
 10
509.86621310811915
 20
-503.84509841424642
 30
0.0
 40
14.000000000000547
100
AcDbArc
 50
140.21619509108703
 51
176.16146779789239
  0
ARC
  5
1C7
100
AcDbEntity
  8
ARJ70-0905
370
              15
390
0
  6
STYLE_01
 62
               7
100
AcDbCircle
 10
552.90484433563688
 20
-477.86918269772332
 30
0.0
 40
76.638095786377917
100
AcDbArc
 50
185.5335786399273
 51
216.13241123104211
  0
ARC
  5
1C8
100
AcDbEntity
  8
ARJ70-0905
370
              15
390
0
  6
Continuous
 62
               7
100
AcDbCircle
 10
464.96783967944066
 20
-488.11176583888528
 30
0.0
 40
11.99999999999968
100
AcDbArc
 50
13.751033027066798
 51
89.994192924716074
  0
LINE
  5
1C9
100
AcDbEntity
  8
ARJ70-0905
370
              15
390
0
  6
Continuous
 62
               7
100
AcDbLine
 10
432.58111697524873
 20
-476.10848329924443
 30
0.0
 11
464.96905591044288
 21
-476.11176590052037
 31
0.0
  0
ARC
  5
1CA
100
AcDbEntity
  8
ARJ70-0905
370
              15
390
0
  6
STYLE_01
 62
               7
100
AcDbCircle
 10
432.5794953339273
 20
-492.10848321706635
 30
0.0
 40
16.000000000000011
100
AcDbArc
 50
89.994192924716074
 51
120.84624819257488
  0
ARC
  5
1CB
100
AcDbEntity
  8
ARJ70-0905
370
              15
390
0
  6
STYLE_01
 62
               7
100
AcDbCircle
 10
1211.2748414110756
 20
-316.80907378016946
 30
0.0
 40
805.97498414099869
100
AcDbArc
 50
185.30241664069496
 51
191.46791121638307
  0
LINE
  5
1CC
100
AcDbEntity
  8
ARJ70-0905
370
              15
390
0
  6
STYLE_01
 62
               7
100
AcDbLine
 10
410.74022600835451
 20
-389.10648064316547
 30
0.0
 11
424.55790164364589
 21
-389.10648064316547
 31
0.0
  0
ARC
  5
1CD
100
AcDbEntity
  8
ARJ70-0905
370
              15
390
0
  6
STYLE_01
 62
               7
100
AcDbCircle
 10
492.62042168261178
 20
-521.87639125951932
 30
0.0
 40
1.999999999999863
100
AcDbArc
 50
216.25285781881658
 51
356.16146779799612
  0
ARC
  5
1CE
100
AcDbEntity
  8
ARJ70-0905
370
              15
390
0
  6
STYLE_01
 62
               7
100
AcDbCircle
 10
497.57078231112973
 20
-493.60681821118033
 30
0.0
 40
1.9999999999999367
100
AcDbArc
 50
320.21619509108615
 51
63.428255315698436
  0
ARC
  5
1CF
100
AcDbEntity
  8
ARJ70-0905
370
              15
390
0
  6
STYLE_01
 62
               7
100
AcDbCircle
 10
423.35024668567348
 20
-476.65464973185544
 30
0.0
 40
2.0000000000001954
100
AcDbArc
 50
191.46791121649673
 51
300.84624819257493
  0
ARC
  5
1D0
100
AcDbEntity
  8
ARJ70-0905
370
              15
390
0
  6
STYLE_01
 62
               7
100
AcDbCircle
 10
424.55790164364589
 20
-391.10648064316547
 30
0.0
 40
1.9999999999999658
100
AcDbArc
 50
8.2401461571482244
 51
90.0
  0
ARC
  5
1D1
100
AcDbEntity
  8
ARJ70-0905
370
              15
390
0
  6
STYLE_01
 62
               7
100
AcDbCircle
 10
410.74022600835451
 20
-391.10648064316547
 30
0.0
 40
2.0
100
AcDbArc
 50
90.0
 51
185.30241664069479
  0
LINE
  5
1D2
100
AcDbEntity
  8
ARJ70-0905
370
              15
390
0
  6
STYLE_01
 62
               7
100
AcDbLine
 10
669.05832259028011
 20
-387.68779299322136
 30
0.0
 11
666.18898431502657
 21
-442.43802882664841
 31
0.0
  0
ARC
  5
1D3
100
AcDbEntity
  8
ARJ70-0905
370
              15
390
0
  6
STYLE_01
 62
               7
100
AcDbCircle
 10
613.46040217811606
 20
-438.84849613622646
 30
0.0
 40
52.850620801502799
100
AcDbArc
 50
271.10838533548855
 51
356.10556093924959
  0
LINE
  5
1D4
100
AcDbEntity
  8
ARJ70-0905
370
              15
390
0
  6
STYLE_01
 62
               7
100
AcDbLine
 10
698.67200230222443
 20
-395.8448008619514
 30
0.0
 11
693.67627452147008
 21
-491.16896550127535
 31
0.0
  0
LINE
  5
1D5
100
AcDbEntity
  8
ARJ70-0905
370
              15
390
0
  6
STYLE_01
 62
               7
100
AcDbLine
 10
601.95567263161502
 20
-536.68922815507426
 30
0.0
 11
612.95567263161502
 21
-536.68922815507426
 31
0.0
  0
LINE
  5
1D6
100
AcDbEntity
  8
ARJ70-0905
370
              15
390
0
  6
STYLE_01
 62
               7
100
AcDbLine
 10
612.95567263161502
 20
-536.68922815507426
 30
0.0
 11
612.95567263161502
 21
-531.26737032919527
 31
0.0
  0
LINE
  5
1D7
100
AcDbEntity
  8
ARJ70-0905
370
              15
390
0
  6
STYLE_01
 62
               7
100
AcDbLine
 10
612.95567263161502
 20
-531.26737032919527
 30
0.0
 11
655.82453138100391
 21
-529.02070864174243
 31
0.0
  0
ARC
  5
1D8
100
AcDbEntity
  8
ARJ70-0905
370
              15
390
0
  6
STYLE_01
 62
               7
100
AcDbCircle
 10
653.7310931312868
 20
-489.07552725155938
 30
0.0
 40
39.999999999999616
100
AcDbArc
 50
273.00000000000563
 51
356.99999999999375
  0
LINE
  5
1D9
100
AcDbEntity
  8
ARJ70-0905
370
              15
390
0
  6
STYLE_01
 62
               7
100
AcDbLine
 10
703.66514997599643
 20
-391.10648064316638
 30
0.0
 11
765.64520440715296
 21
-391.10648064316547
 31
0.0
  0
ARC
  5
1DA
100
AcDbEntity
  8
ARJ70-0905
370
              15
390
0
  6
STYLE_01
 62
               7
100
AcDbCircle
 10
703.66514997599643
 20
-396.10648064316638
 30
0.0
 40
5.0
100
AcDbArc
 50
90.0
 51
176.99999999999443
  0
LINE
  5
1DB
100
AcDbEntity
  8
ARJ70-0905
370
              15
390
0
  6
STYLE_13
 62
               7
100
AcDbLine
 10
-330.65906492745125
 20
-504.07087993600635
 30
0.0
 11
-328.32086493972747
 21
-506.42299659041328
 31
0.0
  0
ARC
  5
1DC
100
AcDbEntity
  8
ARJ70-0905
370
              15
390
0
  6
STYLE_13
 62
               7
100
AcDbCircle
 10
-334.20507352827553
 20
-507.59590802140838
 30
0.0
 40
4.9999999999999227
100
AcDbArc
 50
44.829997847377491
 51
89.194259410710472
  0
ARC
  5
1DD
100
AcDbEntity
  8
ARJ70-0905
370
              15
390
0
  6
STYLE_13
 62
               7
100
AcDbCircle
 10
-331.86687354055175
 20
-509.94802467581644
 30
0.0
 40
5.0000000000001528
100
AcDbArc
 50
2.0000000000035896
 51
44.829997847370144
  0
LINE
  5
1DE
100
AcDbEntity
  8
ARJ70-0905
370
              15
390
0
  6
STYLE_13
 62
               7
100
AcDbLine
 10
-258.93000241642858
 20
-536.68922815508131
 30
0.0
 11
-257.99008542740194
 21
-509.77352719230339
 31
0.0
  0
LINE
  5
1DF
100
AcDbEntity
  8
ARJ70-0905
370
              15
390
0
  6
STYLE_13
 62
               7
100
AcDbLine
 10
-254.20093990540772
 20
-504.07087993600635
 30
0.0
 11
-256.53913989313151
 21
-506.42299659041328
 31
0.0
  0
ARC
  5
1E0
100
AcDbEntity
  8
ARJ70-0905
370
              15
390
0
  6
STYLE_13
 62
               7
100
AcDbCircle
 10
-250.65493130458344
 20
-507.59590802140838
 30
0.0
 40
4.9999999999998206
100
AcDbArc
 50
90.80574058928957
 51
135.17000215262436
  0
ARC
  5
1E1
100
AcDbEntity
  8
ARJ70-0905
370
              15
390
0
  6
STYLE_13
 62
               7
100
AcDbCircle
 10
-252.99313129230632
 20
-509.94802467581644
 30
0.0
 40
4.9999999999999227
100
AcDbArc
 50
135.17000215262254
 51
177.99999999999608
  0
LINE
  5
1E2
100
AcDbEntity
  8
ARJ70-0905
370
              15
390
0
  6
STYLE_01
 62
               7
100
AcDbLine
 10
790.45567263162866
 20
-392.10648064315933
 30
0.0
 11
790.45567263162593
 21
-470.11270371154137
 31
0.0
  0
LINE
  5
1E3
100
AcDbEntity
  8
ARJ70-0905
370
              15
390
0
  6
STYLE_01
 62
               7
100
AcDbLine
 10
787.45567263162866
 20
-389.10648064315933
 30
0.0
 11
782.49049586934052
 21
-389.10648064315933
 31
0.0
  0
ARC
  5
1E4
100
AcDbEntity
  8
ARJ70-0905
370
              15
390
0
  6
STYLE_01
 62
               7
100
AcDbCircle
 10
787.45567263162866
 20
-392.10648064315933
 30
0.0
 40
3.0
100
AcDbArc
 50
0.0
 51
90.0
  0
LINE
  5
1E5
100
AcDbEntity
  8
ARJ70-0905
370
              15
390
0
  6
STYLE_01
 62
               7
100
AcDbLine
 10
799.45567263162593
 20
-482.11270371154046
 30
0.0
 11
774.45567263162593
 21
-482.11270371154046
 31
0.0
  0
LINE
  5
1E6
100
AcDbEntity
  8
ARJ70-0905
370
              15
390
0
  6
STYLE_01
 62
               7
100
AcDbLine
 10
787.45567263162593
 20
-473.11270371154137
 30
0.0
 11
785.10242115484652
 21
-473.11270371154137
 31
0.0
  0
ARC
  5
1E7
100
AcDbEntity
  8
ARJ70-0905
370
              15
390
0
  6
STYLE_01
 62
               7
100
AcDbCircle
 10
787.45567263162593
 20
-470.11270371154137
 30
0.0
 40
3.0
100
AcDbArc
 50
270.0
 51
0.0
  0
ARC
  5
1E8
100
AcDbEntity
  8
ARJ70-0905
370
              15
390
0
  6
STYLE_01
 62
               7
100
AcDbCircle
 10
748.42702796071444
 20
-401.11268466770844
 30
0.0
 40
9.9999999999995079
100
AcDbArc
 50
3.0610297993416884
 51
90.0
  0
LINE
  5
1E9
100
AcDbEntity
  8
ARJ70-0905
370
              15
390
0
  6
STYLE_01
 62
               7
100
AcDbLine
 10
770.64254204587269
 20
-395.94333492726628
 30
0.0
 11
774.45567263162593
 21
-482.11270371154046
 31
0.0
  0
ARC
  5
1EA
100
AcDbEntity
  8
ARJ70-0905
370
              15
390
0
  6
STYLE_01
 62
               7
100
AcDbCircle
 10
765.64520440715296
 20
-396.10648064316547
 30
0.0
 40
4.9999999999998419
100
AcDbArc
 50
1.8698440851167917
 51
90.000000000000014
  0
LINE
  5
1EB
100
AcDbEntity
  8
ARJ70-0905
370
              15
390
0
  6
STYLE_01
 62
               7
100
AcDbLine
 10
780.49156081385081
 20
-391.17173892951746
 30
0.0
 11
783.10348609935681
 21
-471.17796199789927
 31
0.0
  0
ARC
  5
1EC
100
AcDbEntity
  8
ARJ70-0905
370
              15
390
0
  6
STYLE_01
 62
               7
100
AcDbCircle
 10
782.49049586934052
 20
-391.10648064315933
 30
0.0
 40
2.0000000000002274
100
AcDbArc
 50
90.0
 51
181.8698440851166
  0
ARC
  5
1ED
100
AcDbEntity
  8
ARJ70-0905
370
              15
390
0
  6
STYLE_01
 62
               7
100
AcDbCircle
 10
785.10242115484652
 20
-471.11270371154137
 30
0.0
 40
2.0000000000001181
100
AcDbArc
 50
181.8698440851166
 51
270.0
  0
LINE
  5
1EE
100
AcDbEntity
  8
ARJ70-0905
370
              15
390
0
  6
STYLE_01
 62
               7
100
AcDbLine
 10
679.89425256846152
 20
-389.10648064316342
 30
0.0
 11
687.90523133644911
 21
-389.10648064316342
 31
0.0
  0
LINE
  5
1EF
100
AcDbEntity
  8
ARJ70-0905
370
              15
390
0
  6
STYLE_01
 62
               7
100
AcDbLine
 10
677.89699349895091
 20
-391.00180873067734
 30
0.0
 11
675.17665012781799
 21
-442.90905243283441
 31
0.0
  0
ARC
  5
1F0
100
AcDbEntity
  8
ARJ70-0905
370
              15
390
0
  6
STYLE_01
 62
               7
100
AcDbCircle
 10
616.25750757729475
 20
-439.82123101450134
 30
0.0
 40
58.999999999999972
100
AcDbArc
 50
275.5639746548693
 51
356.99999999999397
  0
ARC
  5
1F1
100
AcDbEntity
  8
ARJ70-0905
370
              15
390
0
  6
STYLE_01
 62
               7
100
AcDbCircle
 10
622.46276328599288
 20
-503.51969882644926
 30
0.0
 40
4.9999999999999627
100
AcDbArc
 50
95.563974654869327
 51
135.17000215263727
  0
LINE
  5
1F2
100
AcDbEntity
  8
ARJ70-0905
370
              15
390
0
  6
STYLE_01
 62
               7
100
AcDbLine
 10
618.91675468516769
 20
-499.99467074104541
 30
0.0
 11
610.95567263161865
 21
-508.00313613473827
 31
0.0
  0
LINE
  5
1F3
100
AcDbEntity
  8
ARJ70-0905
370
              15
390
0
  6
STYLE_01
 62
               7
100
AcDbLine
 10
610.95567263161502
 20
-522.35983477377931
 30
0.0
 11
655.35350777481653
 21
-520.03304282895147
 31
0.0
  0
ARC
  5
1F4
100
AcDbEntity
  8
ARJ70-0905
370
              15
390
0
  6
STYLE_01
 62
               7
100
AcDbCircle
 10
653.7310931312868
 20
-489.07552725155938
 30
0.0
 40
31.000000000000227
100
AcDbArc
 50
273.00000000000557
 51
356.99999999999397
  0
LINE
  5
1F5
100
AcDbEntity
  8
ARJ70-0905
370
              15
390
0
  6
STYLE_01
 62
               7
100
AcDbLine
 10
689.90249040595882
 20
-391.21115255564928
 30
0.0
 11
684.68860870867866
 21
-490.69794189508934
 31
0.0
  0
ARC
  5
1F6
100
AcDbEntity
  8
ARJ70-0905
370
              15
390
0
  6
STYLE_01
 62
               7
100
AcDbCircle
 10
687.90523133644911
 20
-391.10648064316342
 30
0.0
 40
1.9999999999996632
100
AcDbArc
 50
356.99999999999392
 51
90.0
  0
ARC
  5
1F7
100
AcDbEntity
  8
ARJ70-0905
370
              15
390
0
  6
STYLE_01
 62
               7
100
AcDbCircle
 10
679.89425256846152
 20
-391.10648064316342
 30
0.0
 40
1.9999999999997726
100
AcDbArc
 50
90.0
 51
176.99999999999395
  0
LINE
  5
1F8
100
AcDbEntity
  8
ARJ70-0905
370
              15
390
0
  6
STYLE_01
 62
               7
100
AcDbLine
 10
610.95567263161865
 20
-508.00313613473827
 30
0.0
 11
610.95567263161502
 21
-522.35983477377931
 31
0.0
  0
LINE
  5
1F9
100
AcDbEntity
  8
ARJ70-0905
370
              15
390
0
  6
Continuous
 62
               7
100
AcDbLine
 10
-45.429717547427572
 20
-380.11221812770327
 30
0.0
 11
-679.43020191152755
 21
-380.11221812770327
 31
0.0
  0
ARC
  5
1FA
100
AcDbEntity
  8
ARJ70-0905
370
              15
390
0
  6
Continuous
 62
               7
100
AcDbCircle
 10
-396.47368569230639
 20
588.42695449297673
 30
0.0
 40
324.04372586344226
100
AcDbArc
 50
354.55316613679446
 51
5.4468338632055975
  0
CIRCLE
  5
1FB
100
AcDbEntity
  8
ARJ70-0905
370
              15
390
0
  6
Continuous
 62
               7
100
AcDbCircle
 10
-292.4300024164304
 20
615.87745795164039
 30
0.0
 40
35.0
  0
CIRCLE
  5
1FC
100
AcDbEntity
  8
ARJ70-0905
370
              15
390
0
  6
Continuous
 62
               7
100
AcDbCircle
 10
-292.4300024164304
 20
615.87745795164039
 30
0.0
 40
22.5
  0
ARC
  5
1FD
100
AcDbEntity
  8
ARJ70-0905
370
              15
390
0
  6
Continuous
 62
               7
100
AcDbCircle
 10
-163.48673573183805
 20
566.21104208407189
 30
0.0
 40
89.999999999999943
100
AcDbArc
 50
274.18944752400949
 51
354.55316613679452
  0
ARC
  5
1FE
100
AcDbEntity
  8
ARJ70-0905
370
              15
390
0
  6
Continuous
 62
               7
100
AcDbCircle
 10
-163.48673573183805
 20
610.64286690188158
 30
0.0
 40
89.999999999999957
100
AcDbArc
 50
5.4468338632055646
 51
85.810552475990491
  0
LINE
  5
1FF
100
AcDbEntity
  8
ARJ70-0905
370
              15
390
0
  6
Continuous
 62
               7
100
AcDbLine
 10
-37.430002416438583
 20
588.60183044915459
 30
0.0
 11
-37.430002416438583
 21
835.92698478999682
 31
0.0
  0
LINE
  5
200
100
AcDbEntity
  8
ARJ70-0905
370
              15
390
0
  6
Continuous
 62
               7
100
AcDbLine
 10
-687.43000241643131
 20
835.92698478999682
 30
0.0
 11
-687.43000241642767
 21
435.92695449297673
 31
0.0
  0
ARC
  5
201
100
AcDbEntity
  8
ARJ70-0905
370
              15
390
0
  6
Continuous
 62
               7
100
AcDbCircle
 10
-188.38623396542334
 20
588.42695449297673
 30
0.0
 40
324.04372586344226
100
AcDbArc
 50
174.55316613679449
 51
185.44683386320571
  0
ARC
  5
202
100
AcDbEntity
  8
ARJ70-0905
370
              15
390
0
  6
Continuous
 62
               7
100
AcDbCircle
 10
-421.37318392589168
 20
566.21104208407189
 30
0.0
 40
89.999999999999972
100
AcDbArc
 50
185.44683386320565
 51
265.81055247599051
  0
ARC
  5
203
100
AcDbEntity
  8
ARJ70-0905
370
              15
390
0
  6
Continuous
 62
               7
100
AcDbCircle
 10
-421.37318392589168
 20
610.64286690188158
 30
0.0
 40
90.000000000000057
100
AcDbArc
 50
94.189447524009495
 51
174.55316613679449
  0
ARC
  5
204
100
AcDbEntity
  8
ARJ70-0905
370
              15
390
0
  6
Continuous
 62
               7
100
AcDbCircle
 10
-292.42995982886532
 20
-958.96979877441981
 30
0.0
 40
1664.8967532673967
100
AcDbArc
 50
85.331111865931646
 51
94.668888134068339
  0
ARC
  5
205
100
AcDbEntity
  8
ARJ70-0905
370
              15
390
0
  6
Continuous
 62
               7
100
AcDbCircle
 10
-292.42995982886532
 20
2135.8237077603721
 30
0.0
 40
1664.8967532673955
100
AcDbArc
 50
265.33111186593169
 51
274.66888813406831
  0
LINE
  5
206
100
AcDbEntity
  8
ARJ70-0905
370
              15
390
0
  6
Continuous
 62
               7
100
AcDbLine
 10
-687.43000241643131
 20
835.92698478999682
 30
0.0
 11
-37.430002416438583
 21
835.92698478999682
 31
0.0
  0
ARC
  5
207
100
AcDbEntity
  8
ARJ70-0905
370
              15
390
0
  6
Continuous
 62
               7
100
AcDbCircle
 10
-292.42995982886532
 20
2135.8237077603721
 30
0.0
 40
1699.8967532673946
100
AcDbArc
 50
270.0
 51
274.66888813406831
  0
LINE
  5
208
100
AcDbEntity
  8
ARJ70-0905
370
              15
390
0
  6
Continuous
 62
               7
100
AcDbLine
 10
-687.43000241642767
 20
435.92695449297673
 30
0.0
 11
-292.42995982886532
 21
435.92695449297673
 31
0.0
  0
ARC
  5
209
100
AcDbEntity
  8
ARJ70-0905
370
              15
390
0
  6
Continuous
 62
               7
100
AcDbCircle
 10
-396.47368569230639
 20
588.42695449297673
 30
0.0
 40
359.04372586344209
100
AcDbArc
 50
354.55316613679446
 51
0.0279065024711826
  0
ARC
  5
20A
100
AcDbEntity
  8
ARJ70-0905
370
              15
390
0
  6
Continuous
 62
               7
100
AcDbCircle
 10
-163.48673573183805
 20
566.21104208407189
 30
0.0
 40
124.99999999999984
100
AcDbArc
 50
274.18944752400995
 51
354.55316613679452
  0
LINE
  5
20B
100
AcDbEntity
  8
ARJ70-0905
370
              15
390
0
  6
STYLE_01
 62
               7
100
AcDbLine
 10
769.45567263162593
 20
-529.94604473767026
 30
0.0
 11
758.37271649188551
 21
-400.07187746128238
 31
0.0
  0
LINE
  5
20C
100
AcDbEntity
  8
ARJ70-0905
370
              15
390
0
  6
STYLE_01
 62
               7
100
AcDbLine
 10
734.49016440234118
 20
-391.10648064316638
 30
0.0
 11
734.49016440234118
 21
-380.10648064316433
 31
0.0
  0
CIRCLE
  5
20D
100
AcDbEntity
  8
ARJ70-0905
370
              15
390
0
  6
Continuous
 62
               7
100
AcDbCircle
 10
-292.4300024164304
 20
770.96147656071219
 30
0.0
 40
17.5
  0
LINE
  5
20E
100
AcDbEntity
  8
ARJ70-0905
370
              15
390
0
  6
STYLE_01
 62
               7
100
AcDbLine
 10
751.99016440234846
 20
-380.10648064316433
 30
0.0
 11
751.99016440234846
 21
-391.10648064316547
 31
0.0
  0
LINE
  5
20F
100
AcDbEntity
  8
ARJ70-0905
370
              15
390
0
  6
STYLE_01
 62
               7
100
AcDbLine
 10
716.99016440234209
 20
-380.10648064316342
 30
0.0
 11
716.99016440234482
 21
-391.10648064316638
 31
0.0
  0
ARC
  5
210
100
AcDbEntity
  8
ARJ70-0905
370
              15
390
0
  6
STYLE_13
 62
               7
100
AcDbCircle
 10
-66.667932728694723
 20
-388.11221812770327
 30
0.0
 40
7.9999999999995453
100
AcDbArc
 50
90.0
 51
160.52693015834961
  0
ARC
  5
211
100
AcDbEntity
  8
ARJ70-0905
370
              15
390
0
  6
STYLE_13
 62
               7
100
AcDbCircle
 10
-517.7420858982332
 20
-388.11221812770327
 30
0.0
 40
7.9999999999997176
100
AcDbArc
 50
19.473069841651935
 51
90.0
  0
ARC
  5
212
100
AcDbEntity
  8
ARJ70-0905
370
              15
390
0
  6
STYLE_01
 62
               7
100
AcDbCircle
 10
677.04735886831713
 20
-388.10648064316433
 30
0.0
 40
7.9999999999995453
100
AcDbArc
 50
90.0
 51
176.99999999999423
  0
ARC
  5
213
100
AcDbEntity
  8
ARJ70-0905
370
              15
390
0
  6
STYLE_01
 62
               7
100
AcDbCircle
 10
427.18115470149496
 20
-388.10648064316433
 30
0.0
 40
8.0000000000001865
100
AcDbArc
 50
7.0851040320744385
 51
90.0
  0
LINE
  5
214
100
AcDbEntity
  8
ARJ70-0905
370
              15
390
0
  6
Continuous
 62
               7
100
AcDbLine
 10
-105.76207304519266
 20
-490.11234027196429
 30
0.0
 11
-106.82764568023686
 21
-505.35073889812247
 31
0.0
  0
ARC
  5
215
100
AcDbEntity
  8
ARJ70-0905
370
              15
390
0
  6
Continuous
 62
               7
100
AcDbCircle
 10
-125.90133108552527
 20
-502.38102999615239
 30
0.0
 40
19.303487920644709
100
AcDbArc
 50
279.10331425270857
 51
351.15029254185458
  0
ARC
  5
216
100
AcDbEntity
  8
ARJ70-0905
370
              15
390
0
  6
Continuous
 62
               7
100
AcDbCircle
 10
-215.02451696001935
 20
-128.76046864060345
 30
0.0
 40
403.35462574014997
100
AcDbArc
 50
279.69059253798935
 51
283.21034635332222
  0
ARC
  5
217
100
AcDbEntity
  8
ARJ70-0905
370
              15
390
0
  6
Continuous
 62
               7
100
AcDbCircle
 10
-418.37124343277901
 20
-414.2374727252834
 30
0.0
 40
115.74654273991305
100
AcDbArc
 50
251.63013362992126
 51
262.16807844978467
  0
LINE
  5
218
100
AcDbEntity
  8
ARJ70-0905
370
              15
390
0
  6
Continuous
 62
               7
100
AcDbLine
 10
-465.04216699944936
 20
-520.70084865666126
 30
0.0
 11
-454.84876058455484
 21
-524.08579041237726
 31
0.0
  0
ARC
  5
219
100
AcDbEntity
  8
ARJ70-0905
370
              15
390
0
  6
Continuous
 62
               7
100
AcDbCircle
 10
-633.76193197632892
 20
-968.69280832182721
 30
0.0
 40
478.70988606722204
100
AcDbArc
 50
69.362954760452482
 51
88.667679871701907
  0
LINE
  5
21A
100
AcDbEntity
  8
ARJ70-0905
370
              15
390
0
  6
Continuous
 62
               7
100
AcDbLine
 10
494.40614579326939
 20
-540.3427433233544
 30
0.0
 11
643.1889535260043
 21
-540.34274332336031
 31
0.0
  0
LINE
  5
21B
100
AcDbEntity
  8
ARJ70-0905
370
              15
390
0
  6
Continuous
 62
               7
100
AcDbLine
 10
769.45556261181719
 20
-529.94604473767026
 30
0.0
 11
799.45555061180494
 21
-529.94604473767026
 31
0.0
  0
LINE
  5
21C
100
AcDbEntity
  8
ARJ70-0905
370
              15
390
0
  6
Continuous
 62
               7
100
AcDbLine
 10
725.81160388988792
 20
-515.33454473767142
 30
0.0
 11
706.26361964918033
 21
-515.33454473767142
 31
0.0
  0
ARC
  5
21D
100
AcDbEntity
  8
ARJ70-0905
370
              15
390
0
  6
Continuous
 62
               7
100
AcDbCircle
 10
708.99165097960849
 20
-604.69546107039832
 30
0.0
 40
89.402547630168527
100
AcDbArc
 50
91.748596119083814
 51
131.6817464681902
  0
LINE
  5
21E
100
AcDbEntity
  8
ARJ70-0905
370
              15
390
0
  6
Continuous
 62
               7
100
AcDbLine
 10
725.81160388988792
 20
-515.33454473767142
 30
0.0
 11
759.43892420365592
 21
-515.33454473766847
 31
0.0
  0
LINE
  5
21F
100
AcDbEntity
  8
ARJ70-0905
370
              15
390
0
  6
Continuous
 62
               7
100
AcDbLine
 10
769.45556261181719
 20
-529.94604473767026
 30
0.0
 11
768.95434022297468
 21
-524.07253612978229
 31
0.0
  0
ARC
  5
220
100
AcDbEntity
  8
ARJ70-0905
370
              15
390
0
  6
Continuous
 62
               7
100
AcDbCircle
 10
759.43892420365592
 20
-524.88454473766728
 30
0.0
 40
9.549999999999498
100
AcDbArc
 50
4.877582039920064
 51
89.999999999999986
  0
ARC
  5
221
100
AcDbEntity
  8
ARJ70-0905
370
              15
390
0
  6
Continuous
 62
               7
100
AcDbCircle
 10
643.1889535260043
 20
-530.79274332336036
 30
0.0
 40
9.5500000000001819
100
AcDbArc
 50
270.0
 51
311.68174646819188
  0
LINE
  5
222
100
AcDbEntity
  8
ARJ70-0905
370
              15
390
0
  6
Continuous
 62
               7
100
AcDbLine
 10
799.45567263161593
 20
-383.10648064316842
 30
0.0
 11
799.45555061180494
 21
-529.94604473767026
 31
0.0
  0
LINE
  5
223
100
AcDbEntity
  8
ARJ70-0905
370
              15
390
0
  6
STYLE_13
 62
               7
100
AcDbLine
 10
-432.4300024164213
 20
-450.11225876178946
 30
0.0
 11
-432.4300024164213
 21
-410.11225876178946
 31
0.0
  0
CIRCLE
  5
224
100
AcDbEntity
  8
ARJ70-0905
370
              15
390
0
  6
STYLE_13
 62
               7
100
AcDbCircle
 10
-392.4300024164304
 20
760.96147656071219
 30
0.0
 40
17.5
  0
CIRCLE
  5
225
100
AcDbEntity
  8
ARJ70-0905
370
              15
390
0
  6
STYLE_13
 62
               7
100
AcDbCircle
 10
-192.4300024164304
 20
760.96147656071219
 30
0.0
 40
17.5
  0
LINE
  5
226
100
AcDbEntity
  8
ARJ70-0905
370
              15
390
0
  6
STYLE_13
 62
               7
100
AcDbLine
 10
-412.4300024164213
 20
-430.11225876178946
 30
0.0
 11
-452.4300024164213
 21
-430.11225876178946
 31
0.0
  0
CIRCLE
  5
227
100
AcDbEntity
  8
ARJ70-0905
370
              15
390
0
  6
STYLE_13
 62
               7
100
AcDbCircle
 10
-432.4300024164213
 20
-430.11225876178946
 30
0.0
 40
10.0
  0
LINE
  5
228
100
AcDbEntity
  8
ARJ70-0905
370
              15
390
0
  6
STYLE_13
 62
               7
100
AcDbLine
 10
-152.4300024164213
 20
-450.11225876178946
 30
0.0
 11
-152.4300024164213
 21
-410.11225876178946
 31
0.0
  0
LINE
  5
229
100
AcDbEntity
  8
ARJ70-0905
370
              15
390
0
  6
STYLE_13
 62
               7
100
AcDbLine
 10
-132.4300024164213
 20
-430.11225876178946
 30
0.0
 11
-172.4300024164213
 21
-430.11225876178946
 31
0.0
  0
CIRCLE
  5
22A
100
AcDbEntity
  8
ARJ70-0905
370
              15
390
0
  6
STYLE_13
 62
               7
100
AcDbCircle
 10
-152.4300024164213
 20
-430.11225876178946
 30
0.0
 40
10.0
  0
ENDSEC
  0
SECTION
  2
OBJECTS
  0
DICTIONARY
  5
19
100
AcDbDictionary
280
               0
281
               1
  3
ACAD_GROUP
350
1A
  3
ACAD_MLINESTYLE
350
1B
  3
ACAD_LAYOUT
350
1E
  3
ACAD_PLOTSETTINGS
350
22
  3
ACAD_PLOTSTYLENAME
350
1F
  0
DICTIONARY
  5
1A
102
{ACAD_REACTORS
330
19
102
}
100
AcDbDictionary
280
               0
281
               1
  0
DICTIONARY
  5
1B
102
{ACAD_REACTORS
330
19
102
}
100
AcDbDictionary
280
               0
281
               1
  3
Standard
350
1C
  0
MLINESTYLE
  5
1C
102
{ACAD_REACTORS
330
1B
102
}
100
AcDbMlineStyle
  2
Standard
 70
               0
  3

 62
               0
 51
90.0
 52
90.0
 71
               2
 49
0.5
 62
             256
  6
ByLayer
 49
-0.5
 62
             256
  6
ByLayer
  0
ACDBDICTIONARYWDFLT
  5
1F
102
{ACAD_REACTORS
330
19
102
}
100
AcDbDictionary
281
               1
  3
Normal
350
1D
100
AcDbDictionaryWithDefault
340
1D
  0
ACDBPLACEHOLDER
  5
1D
102
{ACAD_REACTORS
330
1F
102
}
  0
LAYOUT
  5
20
102
{ACAD_REACTORS
330
1E
102
}
100
AcDbPlotSettings
  1

  2

  4

  6

 40
0.0
 41
0.0
 42
0.0
 43
0.0
 44
0.0
 45
0.0
 46
0.0
 47
0.0
 48
0.0
 49
0.0
140
0.0
141
0.0
142
1.0
143
1.0
 70
            1024
 72
               0
 73
               0
 74
               0
  7

 75
               0
147
1.0
148
0.0
149
0.0
100
AcDbLayout
  1
Model
 70
               0
 71
               0
 10
0.0
 20
0.0
 11
0.0
 21
0.0
 12
0.0
 22
0.0
 32
0.0
 14
0.0
 24
0.0
 34
0.0
 15
0.0
 25
0.0
 35
0.0
146
0.0
 13
0.0
 23
0.0
 33
0.0
 16
0.0
 26
0.0
 36
0.0
 17
0.0
 27
0.0
 37
0.0
 76
               0
330
A
331
0
345
0
346
0
  0
LAYOUT
  5
21
102
{ACAD_REACTORS
330
1E
102
}
100
AcDbPlotSettings
  1

  2

  4

  6

 40
0.0
 41
0.0
 42
0.0
 43
0.0
 44
0.0
 45
0.0
 46
0.0
 47
0.0
 48
0.0
 49
0.0
140
0.0
141
0.0
142
1.0
143
1.0
 70
               0
 72
               0
 73
               0
 74
               0
  7

 75
               0
147
1.0
148
0.0
149
0.0
100
AcDbLayout
  1
Layout1
 70
               0
 71
               0
 10
0.0
 20
0.0
 11
0.0
 21
0.0
 12
0.0
 22
0.0
 32
0.0
 14
0.0
 24
0.0
 34
0.0
 15
0.0
 25
0.0
 35
0.0
146
0.0
 13
0.0
 23
0.0
 33
0.0
 16
0.0
 26
0.0
 36
0.0
 17
0.0
 27
0.0
 37
0.0
 76
               0
330
B
331
0
345
0
346
0
  0
DICTIONARY
  5
1E
102
{ACAD_REACTORS
330
19
102
}
100
AcDbDictionary
280
               0
281
               1
  3
Layout1
350
21
  3
Model
350
20
  0
DICTIONARY
  5
22
102
{ACAD_REACTORS
330
19
102
}
100
AcDbDictionary
280
               0
281
               1
  0
ENDSEC
  0
EOF
