  0
SECTION
  2
HEADER
  9
$ACADVER
  1
AC1015
  9
$ACADMAINTVER
 70
               6
  9
$DWGCODEPAGE
  3
ANSI_932
  9
$INSBASE
 10
0.0
 20
0.0
 30
0.0
  9
$EXTMIN
 10
-975.00000000024374
 20
-1431.5255224711127
 30
-14.834305555555552
  9
$EXTMAX
 10
975.00000000024011
 20
1405.9972926412997
 30
14.834305555555552
  9
$LIMMIN
 10
0.0
 20
0.0
  9
$LIMMAX
 10
0.0
 20
0.0
  9
$ORTHOMODE
 70
               0
  9
$REGENMODE
 70
               1
  9
$FILLMODE
 70
               1
  9
$QTEXTMODE
 70
               0
  9
$MIRRTEXT
 70
               1
  9
$LTSCALE
 40
25.399999999999999
  9
$ATTMODE
 70
               1
  9
$TEXTSIZE
 40
0.2
  9
$TRACEWID
 40
1.0
  9
$TEXTSTYLE
  7
Standard
  9
$CLAYER
  8
template
  9
$CELTYPE
  6
Continuous
  9
$CECOLOR
 62
             256
  9
$CELTSCALE
 40
1.0
  9
$DISPSILH
 70
               0
  9
$DIMSCALE
 40
1.0
  9
$DIMASZ
 40
31.75
  9
$DIMEXO
 40
0.0
  9
$DIMDLI
 40
6.9999999999999396
  9
$DIMRND
 40
0.0
  9
$DIMDLE
 40
0.0
  9
$DIMEXE
 40
19.999999999996199
  9
$DIMTP
 40
0.0
  9
$DIMTM
 40
0.0
  9
$DIMTXT
 40
24.432617187500004
  9
$DIMCEN
 40
0.0
  9
$DIMTSZ
 40
0.0
  9
$DIMTOL
 70
               0
  9
$DIMLIM
 70
               0
  9
$DIMTIH
 70
               0
  9
$DIMTOH
 70
               0
  9
$DIMSE1
 70
               0
  9
$DIMSE2
 70
               0
  9
$DIMTAD
 70
               1
  9
$DIMZIN
 70
              11
  9
$DIMBLK
  1
VW_FILLEDARROW
  9
$DIMASO
 70
               1
  9
$DIMSHO
 70
               1
  9
$DIMPOST
  1
<>
  9
$DIMAPOST
  1
[]
  9
$DIMALT
 70
               0
  9
$DIMALTD
 70
               1
  9
$DIMALTF
 40
1.0
  9
$DIMLFAC
 40
1.0
  9
$DIMTOFL
 70
               0
  9
$DIMTVP
 40
0.0
  9
$DIMTIX
 70
               1
  9
$DIMSOXD
 70
               0
  9
$DIMSAH
 70
               0
  9
$DIMBLK1
  1

  9
$DIMBLK2
  1

  9
$DIMSTYLE
  2
JIS
  9
$DIMCLRD
 70
               0
  9
$DIMCLRE
 70
               0
  9
$DIMCLRT
 70
               0
  9
$DIMTFAC
 40
1.0
  9
$DIMGAP
 40
1.00000000000108
  9
$DIMJUST
 70
               0
  9
$DIMSD1
 70
               0
  9
$DIMSD2
 70
               0
  9
$DIMTOLJ
 70
               1
  9
$DIMTZIN
 70
              11
  9
$DIMALTZ
 70
              11
  9
$DIMALTTZ
 70
              11
  9
$DIMUPT
 70
               0
  9
$DIMDEC
 70
               1
  9
$DIMTDEC
 70
               1
  9
$DIMALTU
 70
               2
  9
$DIMALTTD
 70
               2
  9
$DIMTXSTY
  7
ＭＳ ゴシック
  9
$DIMAUNIT
 70
               0
  9
$DIMADEC
 70
               2
  9
$DIMALTRND
 40
0.0
  9
$DIMAZIN
 70
               0
  9
$DIMDSEP
 70
              46
  9
$DIMATFIT
 70
               0
  9
$DIMFRAC
 70
               2
  9
$DIMLDRBLK
  1

  9
$DIMLUNIT
 70
               2
  9
$DIMLWD
 70
              -2
  9
$DIMLWE
 70
              -2
  9
$DIMTMOVE
 70
               0
  9
$LUNITS
 70
               2
  9
$LUPREC
 70
               4
  9
$SKETCHINC
 40
0.1
  9
$FILLETRAD
 40
0.0
  9
$AUNITS
 70
               0
  9
$AUPREC
 70
               0
  9
$MENU
  1
acad
  9
$ELEVATION
 40
0.0
  9
$PELEVATION
 40
0.0
  9
$THICKNESS
 40
0.0
  9
$LIMCHECK
 70
               0
  9
$CHAMFERA
 40
0.0
  9
$CHAMFERB
 40
0.0
  9
$CHAMFERC
 40
0.0
  9
$CHAMFERD
 40
0.0
  9
$SKPOLY
 70
               0
  9
$TDCREATE
 40
2455988.711446759
  9
$TDUCREATE
 40
0.000000000
  9
$TDUPDATE
 40
2455988.711446759
  9
$TDUUPDATE
 40
0.000000000
  9
$TDINDWG
 40
0.0000000000
  9
$TDUSRTIMER
 40
0.0000000000
  9
$USRTIMER
 70
               1
  9
$ANGBASE
 50
0.0
  9
$ANGDIR
 70
               0
  9
$PDMODE
 70
               1
  9
$PDSIZE
 40
-2.0
  9
$PLINEWID
 40
0.0
  9
$SPLFRAME
 70
               0
  9
$SPLINETYPE
 70
               6
  9
$SPLINESEGS
 70
               8
  9
$HANDSEED
  5
250
  9
$SURFTAB1
 70
               6
  9
$SURFTAB2
 70
               6
  9
$SURFTYPE
 70
               6
  9
$SURFU
 70
               6
  9
$SURFV
 70
               6
  9
$UCSBASE
  2

  9
$UCSNAME
  2

  9
$UCSORG
 10
0.0
 20
0.0
 30
0.0
  9
$UCSXDIR
 10
1.0
 20
0.0
 30
0.0
  9
$UCSYDIR
 10
0.0
 20
1.0
 30
0.0
  9
$UCSORTHOREF
  2

  9
$UCSORTHOVIEW
 70
               0
  9
$UCSORGTOP
 10
0.0
 20
0.0
 30
0.0
  9
$UCSORGBOTTOM
 10
0.0
 20
0.0
 30
0.0
  9
$UCSORGLEFT
 10
0.0
 20
0.0
 30
0.0
  9
$UCSORGRIGHT
 10
0.0
 20
0.0
 30
0.0
  9
$UCSORGFRONT
 10
0.0
 20
0.0
 30
0.0
  9
$UCSORGBACK
 10
0.0
 20
0.0
 30
0.0
  9
$PUCSBASE
  2

  9
$PUCSNAME
  2

  9
$PUCSORG
 10
0.0
 20
0.0
 30
0.0
  9
$PUCSXDIR
 10
1.0
 20
0.0
 30
0.0
  9
$PUCSYDIR
 10
0.0
 20
1.0
 30
0.0
  9
$PUCSORTHOREF
  2

  9
$PUCSORTHOVIEW
 70
               0
  9
$PUCSORGTOP
 10
0.0
 20
0.0
 30
0.0
  9
$PUCSORGBOTTOM
 10
0.0
 20
0.0
 30
0.0
  9
$PUCSORGLEFT
 10
0.0
 20
0.0
 30
0.0
  9
$PUCSORGRIGHT
 10
0.0
 20
0.0
 30
0.0
  9
$PUCSORGFRONT
 10
0.0
 20
0.0
 30
0.0
  9
$PUCSORGBACK
 10
0.0
 20
0.0
 30
0.0
  9
$USERI1
 70
               0
  9
$USERI2
 70
               0
  9
$USERI3
 70
               0
  9
$USERI4
 70
               0
  9
$USERI5
 70
               0
  9
$USERR1
 40
0.0
  9
$USERR2
 40
0.0
  9
$USERR3
 40
0.0
  9
$USERR4
 40
0.0
  9
$USERR5
 40
0.0
  9
$WORLDVIEW
 70
               1
  9
$SHADEDGE
 70
               3
  9
$SHADEDIF
 70
              70
  9
$TILEMODE
 70
               1
  9
$MAXACTVP
 70
              64
  9
$PINSBASE
 10
0.0
 20
0.0
 30
0.0
  9
$PLIMCHECK
 70
               0
  9
$PEXTMIN
 10
1.0000000000000000E+20
 20
1.0000000000000000E+20
 30
1.0000000000000000E+20
  9
$PEXTMAX
 10
-1.0000000000000000E+20
 20
-1.0000000000000000E+20
 30
-1.0000000000000000E+20
  9
$PLIMMIN
 10
0.0
 20
0.0
  9
$PLIMMAX
 10
12.0
 20
9.0
  9
$UNITMODE
 70
               0
  9
$VISRETAIN
 70
               0
  9
$PLINEGEN
 70
               1
  9
$PSLTSCALE
 70
               0
  9
$TREEDEPTH
 70
            3020
  9
$CMLSTYLE
  2
Standard
  9
$CMLJUST
 70
               0
  9
$CMLSCALE
 40
1.0
  9
$PROXYGRAPHICS
 70
               0
  9
$MEASUREMENT
 70
               1
  9
$CELWEIGHT
370
               0
  9
$ENDCAPS
280
               0
  9
$JOINSTYLE
280
               0
  9
$LWDISPLAY
290
               1
  9
$INSUNITS
 70
               4
  9
$HYPERLINKBASE
  1

  9
$STYLESHEET
  1

  9
$XEDIT
290
               1
  9
$CEPSNTYPE
380
               0
  9
$PSTYLEMODE
290
               1
  9
$FINGERPRINTGUID
  2

  9
$VERSIONGUID
  2

  9
$EXTNAMES
290
               1
  9
$PSVPSCALE
 40
0.0
  0
ENDSEC
  0
SECTION
  2
CLASSES
  0
CLASS
  1
LWPOLYLINE
  2
AcDbPolyline
  3
AutoCAD 2000
 90
        0
280
               0
281
               1
  0
CLASS
  1
IMAGE
  2
AcDbRasterImage
  3
ISM
 90
      127
280
               0
281
               1
  0
CLASS
  1
OLE2FRAME
  2
AcDbOle2Frame
  3
AutoCAD 2000
 90
        0
280
               0
281
               1
  0
CLASS
  1
HATCH
  2
AcDbHatch
  3
AutoCAD 2000
 90
        0
280
               0
281
               1
  0
CLASS
  1
DICTIONARYVAR
  2
AcDbDictionaryVar
  3
AutoCAD 2000
 90
        0
280
               0
281
               0
  0
CLASS
  1
RASTERVARIABLES
  2
AcDbRasterVariables
  3
ISM
 90
        0
280
               0
281
               0
  0
CLASS
  1
IMAGEDEF
  2
AcDbRasterImageDef
  3
ISM
 90
        0
280
               0
281
               0
  0
CLASS
  1
IMAGEDEF_REACTOR
  2
AcDbRasterImageDefReactor
  3
ISM
 90
        1
280
               0
281
               0
  0
CLASS
  1
IDBUFFER
  2
AcDbIdBuffer
  3
AutoCAD 2000
 90
        0
280
               0
281
               0
  0
CLASS
  1
SPATIAL_FILTER
  2
AcDbSpatialFilter
  3
AutoCAD 2000
 90
        0
280
               0
281
               0
  0
CLASS
  1
XRECORD
  2
AcDbXrecord
  3
AutoCAD 2000
 90
        0
280
               0
281
               0
  0
CLASS
  1
SORTENTSTABLE
  2
AcDbSortentsTable
  3
AutoCAD 2000
 90
        0
280
               0
281
               0
  0
CLASS
  1
LAYER_INDEX
  2
AcDbLayerIndex
  3
AutoCAD 2000
 90
        0
280
               0
281
               0
  0
CLASS
  1
SPATIAL_INDEX
  2
AcDbSpatialIndex
  3
AutoCAD 2000
 90
        0
280
               0
281
               0
  0
CLASS
  1
OBJECT_PTR
  2
CAseDLPNTableRecord
  3
"ASE-LPNTableRecord"
 90
        1
280
               0
281
               0
  0
CLASS
  1
LAYOUT
  2
AcDbLayout
  3
AutoCAD 2000
 90
        0
280
               0
281
               0
  0
CLASS
  1
PLOTSETTINGS
  2
AcDbPlotSettings
  3
AutoCAD 2000
 90
        0
280
               0
281
               0
  0
CLASS
  1
ACDBDICTIONARYWDFLT
  2
AcDbDictionaryWithDefault
  3
AutoCAD 2000
 90
        0
280
               0
281
               0
  0
CLASS
  1
ACDBPLACEHOLDER
  2
AcDbPlaceHolder
  3
AutoCAD 2000
 90
        0
280
               0
281
               0
  0
ENDSEC
  0
SECTION
  2
TABLES
  0
TABLE
  2
VPORT
  5
7
100
AcDbSymbolTable
 70
               1
  0
VPORT
  5
15
100
AcDbSymbolTableRecord
100
AcDbViewportTableRecord
  2
*ACTIVE
 70
               0
 10
0.0
 20
0.0
 11
1.0
 21
1.0
 12
-0.000000000001819
 22
-12.764114914906486
 13
0.0
 23
0.0
 14
1.0
 24
1.0
 15
0.0
 25
0.0
 16
0.0
 26
0.0
 36
1.0
 17
0.0
 27
0.0
 37
0.0
 40
2837.5228151124124
 41
0.688564
 42
50.0
 43
0.0
 44
0.0
 50
0.0
 51
0.0
 71
               0
 72
            2000
 73
               1
 74
               1
 75
               0
 76
               0
 77
               0
 78
               0
281
               0
 65
               0
110
0.0
120
0.0
130
0.0
111
1.0
121
0.0
131
0.0
112
0.0
122
1.0
132
0.0
345
0
346
0
 79
               0
146
0.0
  0
ENDTAB
  0
TABLE
  2
LTYPE
  5
4
100
AcDbSymbolTable
 70
              16
  0
LTYPE
  5
11
100
AcDbSymbolTableRecord
100
AcDbLinetypeTableRecord
  2
ByBlock
 70
              64
  3

 72
              65
 73
               0
 40
0.0
  0
LTYPE
  5
12
100
AcDbSymbolTableRecord
100
AcDbLinetypeTableRecord
  2
ByLayer
 70
              64
  3

 72
              65
 73
               0
 40
0.0
  0
LTYPE
  5
13
100
AcDbSymbolTableRecord
100
AcDbLinetypeTableRecord
  2
Continuous
 70
              64
  3
Solid line
 72
              65
 73
               0
 40
0.0
  0
LTYPE
  5
3B
100
AcDbSymbolTableRecord
100
AcDbLinetypeTableRecord
  2
STYLE_01
 70
               0
  3

 72
              65
 73
               4
 40
0.078740157480315
 49
0.0492125984251968
 74
               0
 49
-0.0098425196850394
 74
               0
 49
0.0098425196850394
 74
               0
 49
-0.0098425196850394
 74
               0
  0
LTYPE
  5
3C
100
AcDbSymbolTableRecord
100
AcDbLinetypeTableRecord
  2
STYLE_02
 70
               0
  3

 72
              65
 73
               2
 40
0.0590551181102362
 49
0.0393700787401574
 74
               0
 49
-0.0196850393700788
 74
               0
  0
LTYPE
  5
3D
100
AcDbSymbolTableRecord
100
AcDbLinetypeTableRecord
  2
STYLE_03
 70
               0
  3

 72
              65
 73
               2
 40
0.7499999999999998
 49
0.5
 74
               0
 49
-0.2499999999999998
 74
               0
  0
LTYPE
  5
3E
100
AcDbSymbolTableRecord
100
AcDbLinetypeTableRecord
  2
STYLE_04
 70
               0
  3

 72
              65
 73
               4
 40
1.9999999999999998
 49
1.25
 74
               0
 49
-0.2499999999999999
 74
               0
 49
0.2499999999999999
 74
               0
 49
-0.2499999999999999
 74
               0
  0
LTYPE
  5
3F
100
AcDbSymbolTableRecord
100
AcDbLinetypeTableRecord
  2
STYLE_05
 70
               0
  3

 72
              65
 73
               2
 40
0.41656
 49
0.13885
 74
               0
 49
-0.27771
 74
               0
  0
LTYPE
  5
40
100
AcDbSymbolTableRecord
100
AcDbLinetypeTableRecord
  2
STYLE_06
 70
               0
  3

 72
              65
 73
               4
 40
2.0832800000000002
 49
1.25
 74
               0
 49
-0.41656
 74
               0
 49
0.1388600000000001
 74
               0
 49
-0.2778600000000001
 74
               0
  0
LTYPE
  5
41
100
AcDbSymbolTableRecord
100
AcDbLinetypeTableRecord
  2
STYLE_07
 70
               0
  3

 72
              65
 73
               6
 40
3.75
 49
1.25
 74
               0
 49
-0.41656
 74
               0
 49
1.2500000000000002
 74
               0
 49
-0.4167199999999999
 74
               0
 49
0.1388600000000001
 74
               0
 49
-0.2778599999999998
 74
               0
  0
LTYPE
  5
42
100
AcDbSymbolTableRecord
100
AcDbLinetypeTableRecord
  2
STYLE_08
 70
               0
  3

 72
              65
 73
               6
 40
2.5
 49
1.25
 74
               0
 49
-0.41656
 74
               0
 49
0.1388600000000001
 74
               0
 49
-0.2778600000000001
 74
               0
 49
0.1388599999999998
 74
               0
 49
-0.2778600000000001
 74
               0
  0
LTYPE
  5
43
100
AcDbSymbolTableRecord
100
AcDbLinetypeTableRecord
  2
STYLE_09
 70
               0
  3

 72
              65
 73
               4
 40
10.0
 49
7.5
 74
               0
 49
-0.5555699999999997
 74
               0
 49
1.3888600000000006
 74
               0
 49
-0.5555699999999997
 74
               0
  0
LTYPE
  5
44
100
AcDbSymbolTableRecord
100
AcDbLinetypeTableRecord
  2
STYLE_10
 70
               0
  3

 72
              65
 73
               6
 40
11.875
 49
7.5
 74
               0
 49
-0.5555699999999997
 74
               0
 49
1.3888600000000006
 74
               0
 49
-0.5555699999999997
 74
               0
 49
1.25
 74
               0
 49
-0.625
 74
               0
  0
LTYPE
  5
45
100
AcDbSymbolTableRecord
100
AcDbLinetypeTableRecord
  2
STYLE_11
 70
               0
  3

 72
              65
 73
               2
 40
0.1388889763779528
 49
0.0694444881889764
 74
               0
 49
-0.0694444881889764
 74
               0
  0
LTYPE
  5
46
100
AcDbSymbolTableRecord
100
AcDbLinetypeTableRecord
  2
STYLE_12
 70
               0
  3

 72
              65
 73
               2
 40
0.3472222222222222
 49
0.2083333333333333
 74
               0
 49
-0.1388888888888889
 74
               0
  0
LTYPE
  5
47
100
AcDbSymbolTableRecord
100
AcDbLinetypeTableRecord
  2
STYLE_13
 70
               0
  3

 72
              65
 73
               2
 40
0.7874015748031495
 49
0.3937007874015748
 74
               0
 49
-0.3937007874015748
 74
               0
  0
ENDTAB
  0
TABLE
  2
LAYER
  5
2
100
AcDbSymbolTable
 70
               5
  0
LAYER
  5
14
100
AcDbSymbolTableRecord
100
AcDbLayerTableRecord
  2
0
 70
               0
 62
               7
  6
Continuous
290
               1
370
              -3
390
1D
  0
LAYER
  5
48
100
AcDbSymbolTableRecord
100
AcDbLayerTableRecord
  2
Defpoints
 70
               0
 62
               7
  6
Continuous
290
               0
370
              -3
390
1D
  0
LAYER
  5
49
100
AcDbSymbolTableRecord
100
AcDbLayerTableRecord
  2
template
 70
               0
 62
               7
  6
Continuous
290
               1
370
              -3
390
1D
  0
LAYER
  5
4A
100
AcDbSymbolTableRecord
100
AcDbLayerTableRecord
  2
notes
 70
               0
 62
               7
  6
Continuous
290
               1
370
              -3
390
1D
  0
LAYER
  5
4B
100
AcDbSymbolTableRecord
100
AcDbLayerTableRecord
  2
ARJ70-1001
 70
               0
 62
               7
  6
Continuous
290
               1
370
              -3
390
1D
  0
ENDTAB
  0
TABLE
  2
STYLE
  5
3
100
AcDbSymbolTable
 70
               2
  0
STYLE
  5
17
100
AcDbSymbolTableRecord
100
AcDbTextStyleTableRecord
  2
Standard
 70
               0
 40
0.0
 41
1.0
 50
0.0
 71
               0
 42
0.0
  3
txt
  4
BIGFONT.SHX
  0
STYLE
  5
3A
100
AcDbSymbolTableRecord
100
AcDbTextStyleTableRecord
  2
ＭＳ ゴシック
 70
               0
 40
0.0
 41
1.0
 50
0.0
 71
               0
 42
0.0
  3

  4
ＭＳ ゴシック
1001
ACAD
1000
ＭＳ ゴシック
1071
        0
  0
ENDTAB
  0
TABLE
  2
VIEW
  5
5
100
AcDbSymbolTable
 70
               0
  0
ENDTAB
  0
TABLE
  2
UCS
  5
6
100
AcDbSymbolTable
 70
               0
  0
ENDTAB
  0
TABLE
  2
APPID
  5
8
100
AcDbSymbolTable
 70
               1
  0
APPID
  5
16
100
AcDbSymbolTableRecord
100
AcDbRegAppTableRecord
  2
ACAD
 70
               0
  0
ENDTAB
  0
TABLE
  2
DIMSTYLE
  5
9
100
AcDbSymbolTable
 70
               3
100
AcDbDimStyleTable
 71
               0
  0
DIMSTYLE
105
18
100
AcDbSymbolTableRecord
100
AcDbDimStyleTableRecord
  2
Standard
 70
               0
  3

  4

 40
1.0
 41
0.18
 42
0.0625
 43
0.38
 44
0.18
 45
0.0
 46
0.0
 47
0.0
 48
0.0
 71
               0
 72
               0
 73
               1
 74
               1
 75
               0
 76
               0
 77
               0
 78
               0
 79
               0
140
0.18
141
0.09
142
0.0
143
25.399999999999999
144
1.0
145
0.0
146
1.0
147
0.09
148
0.0
170
               0
171
               2
172
               0
173
               0
174
               0
175
               0
176
               0
177
               0
178
               0
179
               0
271
               4
272
               4
273
               2
274
               2
275
               0
276
               0
277
               2
278
              46
279
               0
280
               0
281
               0
282
               0
283
               1
284
               0
285
               0
286
               0
288
               0
289
               3
340
17
341
0
342
0
343
0
344
0
371
              -2
372
              -2
  0
DIMSTYLE
105
54
100
AcDbSymbolTableRecord
100
AcDbDimStyleTableRecord
  2
tform線あり
 70
               0
  3
<>
  4
[]
 40
1.0
 41
3.999755859375
 42
24.999999999999996
 43
0.9999999999999999
 44
0.0
 45
0.0
 46
0.0
 47
0.0
 48
0.0
 71
               0
 72
               0
 73
               0
 74
               0
 75
               0
 76
               0
 77
               1
 78
              11
 79
               0
140
24.432617187500004
141
0.0
142
0.0
143
1.0
144
1.0
145
0.0
146
1.0
147
0.4999999999999999
148
0.0
170
               0
171
               1
172
               0
173
               0
174
               1
175
               0
176
               0
177
               0
178
               0
179
               2
271
               1
272
               1
273
               2
274
               2
275
               0
276
               2
277
               2
278
              46
279
               0
280
               0
281
               0
282
               0
283
               1
284
              11
285
              11
286
              11
288
               0
289
               0
340
3A
341
4C
342
4C
343
0
344
0
371
              -2
372
              -2
  0
DIMSTYLE
105
59
100
AcDbSymbolTableRecord
100
AcDbDimStyleTableRecord
  2
JIS
 70
               0
  3
<>
  4
[]
 40
1.0
 41
31.75
 42
0.0
 43
6.9999999999999396
 44
19.999999999996199
 45
0.0
 46
0.0
 47
0.0
 48
0.0
 71
               0
 72
               0
 73
               0
 74
               0
 75
               0
 76
               0
 77
               1
 78
              11
 79
               0
140
24.432617187500004
141
0.0
142
0.0
143
1.0
144
1.0
145
0.0
146
1.0
147
1.00000000000108
148
0.0
170
               0
171
               1
172
               0
173
               0
174
               1
175
               0
176
               0
177
               0
178
               0
179
               2
271
               1
272
               1
273
               2
274
               2
275
               0
276
               2
277
               2
278
              46
279
               0
280
               0
281
               0
282
               0
283
               1
284
              11
285
              11
286
              11
288
               0
289
               0
340
3A
341
55
342
55
343
0
344
0
371
              -2
372
              -2
  0
ENDTAB
  0
TABLE
  2
BLOCK_RECORD
  5
1
100
AcDbSymbolTable
 70
              25
  0
BLOCK_RECORD
  5
A
100
AcDbSymbolTableRecord
100
AcDbBlockTableRecord
  2
*MODEL_SPACE
340
20
  0
BLOCK_RECORD
  5
B
100
AcDbSymbolTableRecord
100
AcDbBlockTableRecord
  2
*PAPER_SPACE
340
21
  0
BLOCK_RECORD
  5
4C
100
AcDbSymbolTableRecord
100
AcDbBlockTableRecord
  2
_DOT
340
0
  0
BLOCK_RECORD
  5
55
100
AcDbSymbolTableRecord
100
AcDbBlockTableRecord
  2
VW_FILLEDARROW
340
0
  0
BLOCK_RECORD
  5
23
100
AcDbSymbolTableRecord
100
AcDbBlockTableRecord
  2
グループ
340
0
102
{BLKREFS
331
17F
102
}
  0
BLOCK_RECORD
  5
24
100
AcDbSymbolTableRecord
100
AcDbBlockTableRecord
  2
*D3
340
0
  0
BLOCK_RECORD
  5
25
100
AcDbSymbolTableRecord
100
AcDbBlockTableRecord
  2
*D4
340
0
  0
BLOCK_RECORD
  5
26
100
AcDbSymbolTableRecord
100
AcDbBlockTableRecord
  2
*D5
340
0
  0
BLOCK_RECORD
  5
27
100
AcDbSymbolTableRecord
100
AcDbBlockTableRecord
  2
*D6
340
0
  0
BLOCK_RECORD
  5
28
100
AcDbSymbolTableRecord
100
AcDbBlockTableRecord
  2
*D7
340
0
  0
BLOCK_RECORD
  5
29
100
AcDbSymbolTableRecord
100
AcDbBlockTableRecord
  2
*D8
340
0
  0
BLOCK_RECORD
  5
2A
100
AcDbSymbolTableRecord
100
AcDbBlockTableRecord
  2
*D9
340
0
  0
BLOCK_RECORD
  5
2B
100
AcDbSymbolTableRecord
100
AcDbBlockTableRecord
  2
*D10
340
0
  0
BLOCK_RECORD
  5
2C
100
AcDbSymbolTableRecord
100
AcDbBlockTableRecord
  2
*D11
340
0
  0
BLOCK_RECORD
  5
2D
100
AcDbSymbolTableRecord
100
AcDbBlockTableRecord
  2
*D12
340
0
  0
BLOCK_RECORD
  5
2E
100
AcDbSymbolTableRecord
100
AcDbBlockTableRecord
  2
*D13
340
0
  0
BLOCK_RECORD
  5
2F
100
AcDbSymbolTableRecord
100
AcDbBlockTableRecord
  2
*D14
340
0
  0
BLOCK_RECORD
  5
30
100
AcDbSymbolTableRecord
100
AcDbBlockTableRecord
  2
*D15
340
0
  0
BLOCK_RECORD
  5
31
100
AcDbSymbolTableRecord
100
AcDbBlockTableRecord
  2
*D16
340
0
  0
BLOCK_RECORD
  5
32
100
AcDbSymbolTableRecord
100
AcDbBlockTableRecord
  2
*D17
340
0
  0
BLOCK_RECORD
  5
33
100
AcDbSymbolTableRecord
100
AcDbBlockTableRecord
  2
*D18
340
0
  0
BLOCK_RECORD
  5
34
100
AcDbSymbolTableRecord
100
AcDbBlockTableRecord
  2
*D19
340
0
  0
BLOCK_RECORD
  5
35
100
AcDbSymbolTableRecord
100
AcDbBlockTableRecord
  2
*D20
340
0
  0
BLOCK_RECORD
  5
36
100
AcDbSymbolTableRecord
100
AcDbBlockTableRecord
  2
*D21
340
0
  0
BLOCK_RECORD
  5
37
100
AcDbSymbolTableRecord
100
AcDbBlockTableRecord
  2
*D22
340
0
  0
BLOCK_RECORD
  5
38
100
AcDbSymbolTableRecord
100
AcDbBlockTableRecord
  2
*D23
340
0
  0
BLOCK_RECORD
  5
39
100
AcDbSymbolTableRecord
100
AcDbBlockTableRecord
  2
グループ-1
340
0
102
{BLKREFS
331
245
102
}
  0
ENDTAB
  0
ENDSEC
  0
SECTION
  2
BLOCKS
  0
BLOCK
  5
D
100
AcDbEntity
  8
0
390
0
100
AcDbBlockBegin
  2
*MODEL_SPACE
 70
               0
 10
0.0
 20
0.0
 30
0.0
  3
*MODEL_SPACE
  1

  0
ENDBLK
  5
E
100
AcDbEntity
  8
0
390
0
100
AcDbBlockEnd
  0
BLOCK
  5
F
100
AcDbEntity
 67
               1
  8
0
390
0
100
AcDbBlockBegin
  2
*PAPER_SPACE
 70
               0
 10
0.0
 20
0.0
 30
0.0
  3
*PAPER_SPACE
  1

  0
ENDBLK
  5
10
100
AcDbEntity
 67
               1
  8
0
390
0
100
AcDbBlockEnd
  0
BLOCK
  5
4D
100
AcDbEntity
  8
0
390
0
100
AcDbBlockBegin
  2
_DOT
 70
               0
 10
0.0
 20
0.0
 30
0.0
  3
_DOT
  1

  0
POLYLINE
  5
4E
100
AcDbEntity
  8
0
370
              -2
390
0
  6
ByBlock
 62
               0
100
AcDb2dPolyline
 66
               1
 10
0.0
 20
0.0
 30
0.0
 70
               1
 40
0.5
 41
0.5
  0
VERTEX
  5
4F
100
AcDbEntity
  8
0
370
              -2
390
0
  6
ByBlock
 62
               0
100
AcDbVertex
100
AcDb2dVertex
 10
-0.25
 20
0.0
 30
0.0
 42
1.0
  0
VERTEX
  5
50
100
AcDbEntity
  8
0
370
              -2
390
0
  6
ByBlock
 62
               0
100
AcDbVertex
100
AcDb2dVertex
 10
0.25
 20
0.0
 30
0.0
 42
1.0
  0
SEQEND
  5
51
100
AcDbEntity
  8
0
390
0
  0
LINE
  5
52
100
AcDbEntity
  8
0
370
              -2
390
0
  6
ByBlock
 62
               0
100
AcDbLine
 10
-0.5
 20
0.0
 30
0.0
 11
-1.0
 21
0.0
 31
0.0
  0
ENDBLK
  5
53
100
AcDbEntity
  8
0
390
0
100
AcDbBlockEnd
  0
BLOCK
  5
56
100
AcDbEntity
  8
0
370
              -2
390
0
  6
ByBlock
 62
               0
100
AcDbBlockBegin
  2
VW_FILLEDARROW
 70
               0
 10
0.0
 20
0.0
 30
0.0
  3
VW_FILLEDARROW
  1

  0
SOLID
  5
57
100
AcDbEntity
  8
0
370
              -2
390
0
 62
               0
100
AcDbTrace
 10
0.0
 20
0.0
 30
0.0
 11
-0.9921874999999999
 21
-0.2658558393652545
 31
0.0
 12
-0.9921874999999999
 22
0.2658558393652548
 32
0.0
 13
-0.9921874999999999
 23
0.2658558393652548
 33
0.0
  0
ENDBLK
  5
58
100
AcDbEntity
  8
0
390
0
100
AcDbBlockEnd
  0
BLOCK
  5
5A
100
AcDbEntity
  8
template
390
0
100
AcDbBlockBegin
  2
グループ
 70
               0
 10
0.0
 20
0.0
 30
0.0
  3
グループ
  1

  0
LWPOLYLINE
  5
5B
100
AcDbEntity
  8
0
370
              15
390
0
  6
Continuous
 62
               7
100
AcDbPolyline
 90
        8
 70
             129
 10
-739.82428747059703
 20
-2555.6161751536433
 10
-739.82428747059703
 20
-2561.6135638472192
 10
-749.3254843885984
 20
-2561.6135638472192
 10
-749.3254843885984
 20
-2586.0645271107278
 10
-757.68086165038176
 20
-2586.0645271107278
 10
-757.68086165038176
 20
-2561.6135638472192
 10
-767.01381859669118
 20
-2561.6135638472192
 10
-767.01381859669118
 20
-2555.6161751536433
  0
LWPOLYLINE
  5
5C
100
AcDbEntity
  8
0
370
              15
390
0
  6
Continuous
 62
               7
100
AcDbPolyline
 90
      101
 70
             128
 10
-727.09599564003975
 20
-2556.3444236465798
 10
-727.08064561125798
 20
-2556.3400628898958
 42
-0.0222221607816144
 10
-726.79064103458268
 20
-2556.2714384246501
 10
-726.77484727058163
 20
-2556.2684350015516
 42
-0.0146883565572603
 10
-726.51214456536536
 20
-2556.2264318146035
 42
-0.0127458844183892
 10
-726.24750559821484
 20
-2556.1988948465314
 10
-726.18505051989951
 20
-2556.1940014239431
 42
-0.0198099018569318
 10
-725.79420141043238
 20
-2556.1789162665464
 10
-725.74238994097823
 20
-2556.1789700422114
 42
-0.0147617382752496
 10
-725.2477664799909
 20
-2556.1940900674572
 10
-725.17507502513126
 20
-2556.1984626743438
 42
-0.0162624549006869
 10
-724.78492139566561
 20
-2556.2346955496164
 10
-724.66338900439825
 20
-2556.2499821086139
 42
-0.0080020874640298
 10
-724.51780997331434
 20
-2556.2706649558813
 10
-724.47949050273553
 20
-2556.2767362336895
 42
-0.0053821929683385
 10
-724.41100639740353
 20
-2556.2883437575138
 10
-725.13741209660247
 20
-2558.4692722132277
 42
0.0108667757392101
 10
-725.20472916673668
 20
-2558.4560850980074
 10
-725.24219718992344
 20
-2558.4495873554133
 42
0.0170663203312738
 10
-725.3854139768365
 20
-2558.4297577581219
 10
-725.45328930952155
 20
-2558.4227105875343
 42
0.0220162375269691
 10
-725.73366871737051
 20
-2558.4060282267646
 10
-725.81152428443318
 20
-2558.4048288594977
 42
0.028260691578461
 10
-726.1471606080072
 20
-2558.4186321364668
 10
-726.19107388177633
 20
-2558.4229321264702
 42
0.0169677213686751
 10
-726.43699837673785
 20
-2558.4554691760222
 42
0.0190576269862946
 10
-726.67990633932288
 20
-2558.5056160481295
 10
-726.68616552742924
 20
-2558.5071590222378
 42
0.0213685642868046
 10
-726.93655001191212
 20
-2558.5803593073447
 10
-726.94203990682354
 20
-2558.582222303402
 42
0.0237595297594275
 10
-727.19553479171759
 20
-2558.6819068252962
 10
-727.20063686575077
 20
-2558.6841986007757
 42
0.026185746881113
 10
-727.45280764197469
 20
-2558.8137349381464
 10
-727.46323383106835
 20
-2558.8198004126184
 42
0.0272553062013706
 10
-727.69966360630724
 20
-2558.9751726185632
 10
-727.73442661981869
 20
-2559.0008337666568
 42
0.0325996893192706
 10
-727.88458196346846
 20
-2559.1275816396264
 10
-727.90829139258949
 20
-2559.1503996681372
 42
0.0138050960628204
 10
-728.00017454880117
 20
-2559.2438493296909
 42
0.0125280103803995
 10
-728.0870170816338
 20
-2559.3420126562901
 10
-728.11069752654248
 20
-2559.3701711544782
 42
0.0205218024721668
 10
-728.23579760205689
 20
-2559.5319644687088
 10
-728.25826394254318
 20
-2559.5636241985344
 42
0.016311012958182
 10
-728.41397432179406
 20
-2559.7989546336025
 10
-728.41669821784626
 20
-2559.8033783955898
 42
0.0131897341904111
 10
-728.56349873875308
 20
-2560.0565104879552
 10
-728.5651988341192
 20
-2560.0596287270901
 42
0.0107895576072341
 10
-728.70297553633031
 20
-2560.325843936726
 10
-728.70370842585498
 20
-2560.3273381693716
 42
0.0091371507208703
 10
-728.83218837450283
 20
-2560.6018633671283
 10
-728.86193400591355
 20
-2560.6685698742904
 42
0.0135418326356857
 10
-729.03364794498555
 20
-2561.0835076595599
 10
-729.06725275341773
 20
-2561.1713738018357
 42
0.0092834542402961
 10
-729.23848181334006
 20
-2561.6452723001457
 10
-729.26409894105609
 20
-2561.7205133699345
 42
0.0054261043584421
 10
-729.37173708935052
 20
-2562.048277343004
 10
-729.38926307553277
 20
-2562.103665505249
 42
0.0008225090825788
 10
-729.45793312735759
 20
-2562.3219342633829
 10
-730.44262225929151
 20
-2565.3468255566395
 10
-727.20999841921684
 20
-2565.3468255566395
 10
-727.71419084906984
 20
-2567.2513038549923
 10
-730.9702471310552
 20
-2567.2513038549923
 10
-736.7993961634088
 20
-2586.0645269209972
 10
-738.62449377371877
 20
-2586.0645269209972
 10
-732.78981573821829
 20
-2567.2513038549923
 10
-735.19493210725659
 20
-2567.2513038549923
 10
-734.6907396774036
 20
-2565.3468255566395
 10
-732.2621908664546
 20
-2565.3468255566395
 10
-731.40203594826698
 20
-2562.7104125559408
 42
-0.0005863560583637
 10
-731.36530127011508
 20
-2562.5935861358184
 10
-731.2892134364015
 20
-2562.3525938362636
 42
-0.0087522378929421
 10
-731.08974529294346
 20
-2561.757317749114
 10
-730.99748101752994
 20
-2561.4971775806011
 42
-0.0077400953825523
 10
-730.7395473583997
 20
-2560.8041729030556
 10
-730.72378238682199
 20
-2560.7637420196725
 42
-0.0082369946334664
 10
-730.4766979162091
 20
-2560.1596629534743
 42
-0.0085725238368343
 10
-730.20945182020637
 20
-2559.5642369141869
 10
-730.10782221919953
 20
-2559.3478158122025
 42
-0.0168109410592197
 10
-729.82087779046969
 20
-2558.7866082860974
 10
-729.69503440002484
 20
-2558.559644253125
 42
-0.0007817726883767
 10
-729.64075004995402
 20
-2558.4621000080688
 10
-729.64062174393825
 20
-2558.4618702993353
 42
-0.0036626142151497
 10
-729.58573387991464
 20
-2558.3652724193639
 42
-0.0080221150636714
 10
-729.52860962450666
 20
-2558.2699931846091
 10
-729.49790967314721
 20
-2558.220602235489
 42
-0.0202139325592923
 10
-729.37025393334034
 20
-2558.0326206348068
 10
-729.31618646815286
 20
-2557.9595417705668
 42
-0.0249323791781431
 10
-729.05702367443325
 20
-2557.643496528412
 10
-729.03288386030681
 20
-2557.6168822555001
 42
-0.0242132121548826
 10
-728.6932031187672
 20
-2557.2769987692977
 10
-728.64529154601507
 20
-2557.2334896331104
 42
-0.0251017527862018
 10
-728.36130984537294
 20
-2557.000496887345
 10
-728.35986436855876
 20
-2556.9994276297657
 42
-0.0130868069029795
 10
-728.06160371860233
 20
-2556.7906471612237
 10
-728.06004189946441
 20
-2556.7896137209518
 42
-0.0290329526403269
 10
-727.74893075806676
 20
-2556.6087882193196
 10
-727.71908519608144
 20
-2556.5936858364803
 42
-0.0160250190043445
 10
-727.45318078231548
 20
-2556.4696697262661
 42
-0.0267600374782642
 10
-727.17790470484806
 20
-2556.3689214057181
 10
-727.15116878532672
 20
-2556.360728846892
 42
-0.004998158766704
 10
-727.09599564003975
 20
-2556.3444236465798
 42
-0.004998158766704
  0
LWPOLYLINE
  5
5D
100
AcDbEntity
  8
0
370
              15
390
0
  6
Continuous
 62
               7
100
AcDbPolyline
 90
      118
 70
             128
 10
-707.28162807559193
 20
-2565.4208088844671
 10
-705.40650615109143
 20
-2565.4208088844671
 10
-706.24454505669155
 20
-2568.1023754108674
 42
-0.0010587229296363
 10
-706.21308924111906
 20
-2568.0654708775105
 10
-706.15489515048785
 20
-2567.9974886213358
 42
-0.0071874740388915
 10
-706.00451993238846
 20
-2567.8268479293056
 10
-705.86279715912815
 20
-2567.6706117879939
 42
-0.0148118053518196
 10
-705.41266786642166
 20
-2567.2029979419858
 10
-705.32544553151206
 20
-2567.1176006211249
 42
-0.0086273358696451
 10
-704.98989673050573
 20
-2566.8002249871106
 10
-704.94606301428075
 20
-2566.7601753427784
 42
-0.0103138323101531
 10
-704.68803931204593
 20
-2566.5340122054395
 10
-704.64226490572219
 20
-2566.4955301581822
 42
-0.00602067485798
 10
-704.46941684160674
 20
-2566.353735507425
 10
-704.46738571072194
 20
-2566.3521098017945
 42
-0.0067069027308856
 10
-704.29509289605767
 20
-2566.2179591679987
 10
-704.29254413012666
 20
-2566.2160289981198
 42
-0.0076184352042911
 10
-704.12163886426015
 20
-2566.0906541228796
 42
-0.0089652861680072
 10
-703.946677901518
 20
-2565.9710208625415
 10
-703.91032618137774
 20
-2565.9471096490615
 42
-0.0156916245943436
 10
-703.71436668422166
 20
-2565.8268471625897
 42
-0.0023299011061026
 10
-703.51410464028379
 20
-2565.7136692230724
 10
-703.49872050786098
 20
-2565.705069227984
 42
-0.0107669341481751
 10
-703.26448368276465
 20
-2565.580669094637
 10
-703.24221888168495
 20
-2565.5694523446846
 42
-0.0078058045893996
 10
-702.95862876372985
 20
-2565.4320908890445
 10
-702.94872167602398
 20
-2565.4274817611777
 42
-0.0181829330479779
 10
-702.6384122714054
 20
-2565.296618020081
 10
-702.58435682883987
 20
-2565.2761029001381
 42
-0.0208411536029638
 10
-702.23527186139063
 20
-2565.1600124376455
 10
-702.22091576126468
 20
-2565.1558939926927
 42
-0.0222799817143368
 10
-701.89219596734665
 20
-2565.0772524265512
 10
-701.88330700410825
 20
-2565.0755404159659
 42
-0.0215509523881784
 10
-701.56683603582906
 20
-2565.0286247274321
 10
-701.52435407477992
 20
-2565.0241872006413
 42
-0.0182545924875649
 10
-701.29024529547451
 20
-2565.0083433752507
 10
-701.25084427912566
 20
-2565.0071188301713
 42
-0.0072962856543675
 10
-701.09492139943859
 20
-2565.0045495016493
 10
-701.06582172886965
 20
-2565.0044946662456
 42
-0.005922751633126
 10
-700.9680722297212
 20
-2565.0054683780359
 10
-700.93883001238908
 20
-2565.0061061446363
 42
-0.0011833111909125
 10
-700.89957872851619
 20
-2565.0070551489489
 10
-701.69496532412404
 20
-2567.5457890940479
 42
0.0143932051572113
 10
-701.72136670646637
 20
-2567.5355901240059
 10
-701.72863867889146
 20
-2567.5330189051456
 42
0.0234388603574895
 10
-701.7704695448258
 20
-2567.5203996694295
 10
-701.77915120773605
 20
-2567.5182187074251
 42
0.0199162742940454
 10
-701.83944004180864
 20
-2567.5056019720914
 10
-701.86025397962248
 20
-2567.5021047726618
 42
0.0293643550677221
 10
-701.96332883839
 20
-2567.4909547270081
 10
-701.98801401910214
 20
-2567.4897431099898
 42
0.0214606686877523
 10
-702.14115493505074
 20
-2567.4888045495723
 10
-702.15052684587272
 20
-2567.4891494611165
 42
0.0167564054170009
 10
-702.32204703697971
 20
-2567.5012265034843
 10
-702.33050682973999
 20
-2567.5021078439117
 42
0.0137677553251004
 10
-702.51786014301445
 20
-2567.5268571524566
 10
-702.52521188251239
 20
-2567.5280350724233
 42
0.0118497261475528
 10
-702.72570964660758
 20
-2567.5650524226112
 10
-702.73185965386119
 20
-2567.5663392853326
 42
0.0106421143892484
 10
-702.94274054114555
 20
-2567.615171660907
 10
-702.94764934953537
 20
-2567.6164190035925
 42
0.0099746379694831
 10
-703.16610781868997
 20
-2567.6765935319049
 10
-703.22765585886782
 20
-2567.6948754105379
 42
0.0191613675862006
 10
-703.5636403213847
 20
-2567.8088527908253
 10
-703.6517000941343
 20
-2567.8425397011506
 42
0.02052740801505
 10
-704.03700686602997
 20
-2568.0083681089754
 10
-704.09465614801434
 20
-2568.036036073549
 42
0.0181256912189524
 10
-704.35293308867904
 20
-2568.1717198925257
 10
-704.40588847198683
 20
-2568.2020375057368
 42
0.0140709242403238
 10
-704.55084340662188
 20
-2568.290532179175
 10
-704.57709227523981
 20
-2568.30758899789
 42
0.0086667884380554
 10
-704.66601843678245
 20
-2568.367591665773
 42
0.0036408192036531
 10
-704.75345167484465
 20
-2568.4297725235861
 10
-704.78867854928421
 20
-2568.4552134694782
 42
0.0052260781258896
 10
-704.94490724666082
 20
-2568.5705458561015
 10
-704.96111410293497
 20
-2568.5827739667307
 42
0.0050024435895999
 10
-705.14711744598378
 20
-2568.7260565349848
 10
-705.16243560250905
 20
-2568.7381025574387
 42
0.0136138710277928
 10
-705.37287687083574
 20
-2568.9130690623533
 10
-705.40654474662779
 20
-2568.9426480350662
 42
0.0172815186914396
 10
-705.67094828829249
 20
-2569.1916447076915
 10
-705.67351063413344
 20
-2569.1942305248367
 42
0.018940385800383
 10
-705.9240924327097
 20
-2569.467035789638
 10
-705.95672392624874
 20
-2569.505379721139
 42
0.0185044199498813
 10
-706.14868036522739
 20
-2569.7486283022608
 42
0.0088565243883284
 10
-706.32714047185584
 20
-2570.0021447224099
 10
-706.33631845150512
 20
-2570.015686102171
 42
0.015719534724591
 10
-706.5195390578408
 20
-2570.3052083114885
 10
-706.56562199977134
 20
-2570.3833605085092
 42
0.0095451879781589
 10
-706.73070754990704
 20
-2570.675955150864
 10
-706.74185546883882
 20
-2570.696625823
 42
0.0100351706230314
 10
-706.8738992179965
 20
-2570.9536813834866
 42
0.0086935915439912
 10
-706.99623036979381
 20
-2571.2155145288966
 10
-706.99955111120607
 20
-2571.2229568518633
 42
0.0072580174878192
 10
-707.11989756314995
 20
-2571.5035488434455
 10
-707.12315919645653
 20
-2571.5114688694639
 42
0.0060005122598153
 10
-707.24235986479982
 20
-2571.8110785400727
 10
-707.24557084314029
 20
-2571.819440067974
 42
0.0049017786984151
 10
-707.36447100199825
 20
-2572.1383690485791
 10
-707.3676368083884
 20
-2572.1471219858086
 42
0.0039415167593445
 10
-707.48707308644669
 20
-2572.4856640482249
 10
-707.49020418909777
 20
-2572.494767249098
 42
0.0031035838780257
 10
-707.61100897479014
 20
-2572.8532071108707
 10
-707.6141190193207
 20
-2572.8626277322464
 42
0.0025070747136267
 10
-707.73702037062935
 20
-2573.2412749491714
 10
-707.77431426706107
 20
-2573.3581666144432
 42
0.0029081910291277
 10
-707.96633256487678
 20
-2573.9723302727484
 10
-708.00713573338953
 20
-2574.1055535150108
 42
0.0009266453734362
 10
-708.27555310769401
 20
-2574.9877779749022
 10
-708.29644058034614
 20
-2575.0568898541765
 42
-0.000580999367001
 10
-708.573777260935
 20
-2575.970697960809
 10
-708.64005905919475
 20
-2576.1881828929254
 42
-0.0012018708175595
 10
-708.78704336863802
 20
-2576.6663455574899
 10
-708.83936322016984
 20
-2576.8351046982452
 42
-0.000269105962238
 10
-708.88293270137319
 20
-2576.9753723186973
 10
-711.71588859966096
 20
-2586.0645269209972
 10
-713.53387749163949
 20
-2586.0645269209972
 10
-707.28162807559193
 20
-2565.4208088844671
  0
SPLINE
  5
5E
100
AcDbEntity
  8
0
370
              15
390
0
  6
Continuous
 62
               7
100
AcDbSpline
210
0.0
220
0.0
230
1.0
 70
              13
 71
               2
 72
             782
 73
             779
 74
               0
 42
0.000001
 43
0.000001
 40
0.0
 40
0.0
 40
0.0
 40
1.0
 40
1.0
 40
2.0
 40
2.0
 40
3.0
 40
3.0
 40
4.0
 40
4.0
 40
5.0
 40
5.0
 40
6.0
 40
6.0
 40
7.0
 40
7.0
 40
8.0
 40
8.0
 40
9.0
 40
9.0
 40
10.0
 40
10.0
 40
11.0
 40
11.0
 40
12.0
 40
12.0
 40
13.0
 40
13.0
 40
14.0
 40
14.0
 40
15.0
 40
15.0
 40
16.0
 40
16.0
 40
17.0
 40
17.0
 40
18.0
 40
18.0
 40
19.0
 40
19.0
 40
20.0
 40
20.0
 40
21.0
 40
21.0
 40
22.0
 40
22.0
 40
23.0
 40
23.0
 40
24.0
 40
24.0
 40
25.0
 40
25.0
 40
26.0
 40
26.0
 40
27.0
 40
27.0
 40
28.0
 40
28.0
 40
29.0
 40
29.0
 40
30.0
 40
30.0
 40
31.0
 40
31.0
 40
32.0
 40
32.0
 40
33.0
 40
33.0
 40
34.0
 40
34.0
 40
35.0
 40
35.0
 40
36.0
 40
36.0
 40
37.0
 40
37.0
 40
38.0
 40
38.0
 40
39.0
 40
39.0
 40
40.0
 40
40.0
 40
41.0
 40
41.0
 40
42.0
 40
42.0
 40
43.0
 40
43.0
 40
44.0
 40
44.0
 40
45.0
 40
45.0
 40
46.0
 40
46.0
 40
47.0
 40
47.0
 40
48.0
 40
48.0
 40
49.0
 40
49.0
 40
50.0
 40
50.0
 40
51.0
 40
51.0
 40
52.0
 40
52.0
 40
53.0
 40
53.0
 40
54.0
 40
54.0
 40
55.0
 40
55.0
 40
56.0
 40
56.0
 40
57.0
 40
57.0
 40
58.0
 40
58.0
 40
59.0
 40
59.0
 40
60.0
 40
60.0
 40
61.0
 40
61.0
 40
62.0
 40
62.0
 40
63.0
 40
63.0
 40
64.0
 40
64.0
 40
65.0
 40
65.0
 40
66.0
 40
66.0
 40
67.0
 40
67.0
 40
68.0
 40
68.0
 40
69.0
 40
69.0
 40
70.0
 40
70.0
 40
71.0
 40
71.0
 40
72.0
 40
72.0
 40
73.0
 40
73.0
 40
74.0
 40
74.0
 40
75.0
 40
75.0
 40
76.0
 40
76.0
 40
77.0
 40
77.0
 40
78.0
 40
78.0
 40
79.0
 40
79.0
 40
80.0
 40
80.0
 40
81.0
 40
81.0
 40
82.0
 40
82.0
 40
83.0
 40
83.0
 40
84.0
 40
84.0
 40
85.0
 40
85.0
 40
86.0
 40
86.0
 40
87.0
 40
87.0
 40
88.0
 40
88.0
 40
89.0
 40
89.0
 40
90.0
 40
90.0
 40
91.0
 40
91.0
 40
92.0
 40
92.0
 40
93.0
 40
93.0
 40
94.0
 40
94.0
 40
95.0
 40
95.0
 40
96.0
 40
96.0
 40
97.0
 40
97.0
 40
98.0
 40
98.0
 40
99.0
 40
99.0
 40
100.0
 40
100.0
 40
101.0
 40
101.0
 40
102.0
 40
102.0
 40
103.0
 40
103.0
 40
104.0
 40
104.0
 40
105.0
 40
105.0
 40
106.0
 40
106.0
 40
107.0
 40
107.0
 40
108.0
 40
108.0
 40
109.0
 40
109.0
 40
110.0
 40
110.0
 40
111.0
 40
111.0
 40
112.0
 40
112.0
 40
113.0
 40
113.0
 40
114.0
 40
114.0
 40
115.0
 40
115.0
 40
116.0
 40
116.0
 40
117.0
 40
117.0
 40
118.0
 40
118.0
 40
119.0
 40
119.0
 40
120.0
 40
120.0
 40
121.0
 40
121.0
 40
122.0
 40
122.0
 40
123.0
 40
123.0
 40
124.0
 40
124.0
 40
125.0
 40
125.0
 40
126.0
 40
126.0
 40
127.0
 40
127.0
 40
128.0
 40
128.0
 40
129.0
 40
129.0
 40
130.0
 40
130.0
 40
131.0
 40
131.0
 40
132.0
 40
132.0
 40
133.0
 40
133.0
 40
134.0
 40
134.0
 40
135.0
 40
135.0
 40
136.0
 40
136.0
 40
137.0
 40
137.0
 40
138.0
 40
138.0
 40
139.0
 40
139.0
 40
140.0
 40
140.0
 40
141.0
 40
141.0
 40
142.0
 40
142.0
 40
143.0
 40
143.0
 40
144.0
 40
144.0
 40
145.0
 40
145.0
 40
146.0
 40
146.0
 40
147.0
 40
147.0
 40
148.0
 40
148.0
 40
149.0
 40
149.0
 40
150.0
 40
150.0
 40
151.0
 40
151.0
 40
152.0
 40
152.0
 40
153.0
 40
153.0
 40
154.0
 40
154.0
 40
155.0
 40
155.0
 40
156.0
 40
156.0
 40
157.0
 40
157.0
 40
158.0
 40
158.0
 40
159.0
 40
159.0
 40
160.0
 40
160.0
 40
161.0
 40
161.0
 40
162.0
 40
162.0
 40
163.0
 40
163.0
 40
164.0
 40
164.0
 40
165.0
 40
165.0
 40
166.0
 40
166.0
 40
167.0
 40
167.0
 40
168.0
 40
168.0
 40
169.0
 40
169.0
 40
170.0
 40
170.0
 40
171.0
 40
171.0
 40
172.0
 40
172.0
 40
173.0
 40
173.0
 40
174.0
 40
174.0
 40
175.0
 40
175.0
 40
176.0
 40
176.0
 40
177.0
 40
177.0
 40
178.0
 40
178.0
 40
179.0
 40
179.0
 40
180.0
 40
180.0
 40
181.0
 40
181.0
 40
182.0
 40
182.0
 40
183.0
 40
183.0
 40
184.0
 40
184.0
 40
185.0
 40
185.0
 40
186.0
 40
186.0
 40
187.0
 40
187.0
 40
188.0
 40
188.0
 40
189.0
 40
189.0
 40
190.0
 40
190.0
 40
191.0
 40
191.0
 40
192.0
 40
192.0
 40
193.0
 40
193.0
 40
194.0
 40
194.0
 40
195.0
 40
195.0
 40
196.0
 40
196.0
 40
197.0
 40
197.0
 40
198.0
 40
198.0
 40
199.0
 40
199.0
 40
200.0
 40
200.0
 40
201.0
 40
201.0
 40
202.0
 40
202.0
 40
203.0
 40
203.0
 40
204.0
 40
204.0
 40
205.0
 40
205.0
 40
206.0
 40
206.0
 40
207.0
 40
207.0
 40
208.0
 40
208.0
 40
209.0
 40
209.0
 40
210.0
 40
210.0
 40
211.0
 40
211.0
 40
212.0
 40
212.0
 40
213.0
 40
213.0
 40
214.0
 40
214.0
 40
215.0
 40
215.0
 40
216.0
 40
216.0
 40
217.0
 40
217.0
 40
218.0
 40
218.0
 40
219.0
 40
219.0
 40
220.0
 40
220.0
 40
221.0
 40
221.0
 40
222.0
 40
222.0
 40
223.0
 40
223.0
 40
224.0
 40
224.0
 40
225.0
 40
225.0
 40
226.0
 40
226.0
 40
227.0
 40
227.0
 40
228.0
 40
228.0
 40
229.0
 40
229.0
 40
230.0
 40
230.0
 40
231.0
 40
231.0
 40
232.0
 40
232.0
 40
233.0
 40
233.0
 40
234.0
 40
234.0
 40
235.0
 40
235.0
 40
236.0
 40
236.0
 40
237.0
 40
237.0
 40
238.0
 40
238.0
 40
239.0
 40
239.0
 40
240.0
 40
240.0
 40
241.0
 40
241.0
 40
242.0
 40
242.0
 40
243.0
 40
243.0
 40
244.0
 40
244.0
 40
245.0
 40
245.0
 40
246.0
 40
246.0
 40
247.0
 40
247.0
 40
248.0
 40
248.0
 40
249.0
 40
249.0
 40
250.0
 40
250.0
 40
251.0
 40
251.0
 40
252.0
 40
252.0
 40
253.0
 40
253.0
 40
254.0
 40
254.0
 40
255.0
 40
255.0
 40
256.0
 40
256.0
 40
257.0
 40
257.0
 40
258.0
 40
258.0
 40
259.0
 40
259.0
 40
260.0
 40
260.0
 40
261.0
 40
261.0
 40
262.0
 40
262.0
 40
263.0
 40
263.0
 40
264.0
 40
264.0
 40
265.0
 40
265.0
 40
266.0
 40
266.0
 40
267.0
 40
267.0
 40
268.0
 40
268.0
 40
269.0
 40
269.0
 40
270.0
 40
270.0
 40
271.0
 40
271.0
 40
272.0
 40
272.0
 40
273.0
 40
273.0
 40
274.0
 40
274.0
 40
275.0
 40
275.0
 40
276.0
 40
276.0
 40
277.0
 40
277.0
 40
278.0
 40
278.0
 40
279.0
 40
279.0
 40
280.0
 40
280.0
 40
281.0
 40
281.0
 40
282.0
 40
282.0
 40
283.0
 40
283.0
 40
284.0
 40
284.0
 40
285.0
 40
285.0
 40
286.0
 40
286.0
 40
287.0
 40
287.0
 40
288.0
 40
288.0
 40
289.0
 40
289.0
 40
290.0
 40
290.0
 40
291.0
 40
291.0
 40
292.0
 40
292.0
 40
293.0
 40
293.0
 40
294.0
 40
294.0
 40
295.0
 40
295.0
 40
296.0
 40
296.0
 40
297.0
 40
297.0
 40
298.0
 40
298.0
 40
299.0
 40
299.0
 40
300.0
 40
300.0
 40
301.0
 40
301.0
 40
302.0
 40
302.0
 40
303.0
 40
303.0
 40
304.0
 40
304.0
 40
305.0
 40
305.0
 40
306.0
 40
306.0
 40
307.0
 40
307.0
 40
308.0
 40
308.0
 40
309.0
 40
309.0
 40
310.0
 40
310.0
 40
311.0
 40
311.0
 40
312.0
 40
312.0
 40
313.0
 40
313.0
 40
314.0
 40
314.0
 40
315.0
 40
315.0
 40
316.0
 40
316.0
 40
317.0
 40
317.0
 40
318.0
 40
318.0
 40
319.0
 40
319.0
 40
320.0
 40
320.0
 40
321.0
 40
321.0
 40
322.0
 40
322.0
 40
323.0
 40
323.0
 40
324.0
 40
324.0
 40
325.0
 40
325.0
 40
326.0
 40
326.0
 40
327.0
 40
327.0
 40
328.0
 40
328.0
 40
329.0
 40
329.0
 40
330.0
 40
330.0
 40
331.0
 40
331.0
 40
332.0
 40
332.0
 40
333.0
 40
333.0
 40
334.0
 40
334.0
 40
335.0
 40
335.0
 40
336.0
 40
336.0
 40
337.0
 40
337.0
 40
338.0
 40
338.0
 40
339.0
 40
339.0
 40
340.0
 40
340.0
 40
341.0
 40
341.0
 40
342.0
 40
342.0
 40
343.0
 40
343.0
 40
344.0
 40
344.0
 40
345.0
 40
345.0
 40
346.0
 40
346.0
 40
347.0
 40
347.0
 40
348.0
 40
348.0
 40
349.0
 40
349.0
 40
350.0
 40
350.0
 40
351.0
 40
351.0
 40
352.0
 40
352.0
 40
353.0
 40
353.0
 40
354.0
 40
354.0
 40
355.0
 40
355.0
 40
356.0
 40
356.0
 40
357.0
 40
357.0
 40
358.0
 40
358.0
 40
359.0
 40
359.0
 40
360.0
 40
360.0
 40
361.0
 40
361.0
 40
362.0
 40
362.0
 40
363.0
 40
363.0
 40
364.0
 40
364.0
 40
365.0
 40
365.0
 40
366.0
 40
366.0
 40
367.0
 40
367.0
 40
368.0
 40
368.0
 40
369.0
 40
369.0
 40
370.0
 40
370.0
 40
371.0
 40
371.0
 40
372.0
 40
372.0
 40
373.0
 40
373.0
 40
374.0
 40
374.0
 40
375.0
 40
375.0
 40
376.0
 40
376.0
 40
377.0
 40
377.0
 40
378.0
 40
378.0
 40
379.0
 40
379.0
 40
380.0
 40
380.0
 40
381.0
 40
381.0
 40
382.0
 40
382.0
 40
383.0
 40
383.0
 40
384.0
 40
384.0
 40
385.0
 40
385.0
 40
386.0
 40
386.0
 40
387.0
 40
387.0
 40
388.0
 40
388.0
 40
389.0
 40
389.0
 40
389.0
 10
-696.95292362485952
 20
-2565.4098825211049
 30
0.0
 41
1.0
 10
-696.13449951613939
 20
-2565.4098825211049
 30
0.0
 41
1.0
 10
-695.31607540741925
 20
-2565.4098825211049
 30
0.0
 41
1.0
 10
-695.72982914293561
 20
-2566.7525087853546
 30
0.0
 41
1.0
 10
-696.14358287845198
 20
-2568.0951350496043
 30
0.0
 41
1.0
 10
-696.12524338329695
 20
-2568.0664342767122
 30
0.0
 41
0.9999957264420937
 10
-696.10673638646028
 20
-2568.0378412265522
 30
0.0
 41
1.0
 10
-696.07630706231953
 20
-2567.9908283481709
 30
0.0
 41
1.0
 10
-696.04587773817866
 20
-2567.94381546979
 30
0.0
 41
1.0
 10
-695.96651209307151
 20
-2567.8211966628855
 30
0.0
 41
0.999539406908188
 10
-695.87985370152012
 20
-2567.7036186011446
 30
0.0
 41
1.0
 10
-695.84409683925969
 20
-2567.6551037085501
 30
0.0
 41
1.0
 10
-695.80833997699938
 20
-2567.606588815956
 30
0.0
 41
1.0
 10
-695.67461330918252
 20
-2567.4251485408304
 30
0.0
 41
0.9994460617142743
 10
-695.52911282789546
 20
-2567.2530061431817
 30
0.0
 41
1.0
 10
-695.5247246469213
 20
-2567.2478144628003
 30
0.0
 41
1.0
 10
-695.52033646594714
 20
-2567.2426227824185
 30
0.0
 41
1.0
 10
-695.38361234661033
 20
-2567.0808637455348
 30
0.0
 41
0.9994359394933925
 10
-695.23633811625632
 20
-2566.9286475443673
 30
0.0
 41
1.0
 10
-695.23395476230178
 20
-2566.9261842139931
 30
0.0
 41
1.0
 10
-695.23157140834724
 20
-2566.9237208836184
 30
0.0
 41
1.0
 10
-695.08906388590617
 20
-2566.7764313432035
 30
0.0
 41
0.9995293688567064
 10
-694.93779220492206
 20
-2566.6381581310388
 30
0.0
 41
1.0
 10
-694.91849844565922
 20
-2566.6205222453882
 30
0.0
 41
1.0
 10
-694.8992046863965
 20
-2566.6028863597376
 30
0.0
 41
1.0
 10
-694.78652052394023
 20
-2566.4998849188755
 30
0.0
 41
0.9997087614803779
 10
-694.66899763498395
 20
-2566.4024406380768
 30
0.0
 41
1.0
 10
-694.64983156181415
 20
-2566.3865490595736
 30
0.0
 41
1.0
 10
-694.63066548864435
 20
-2566.3706574810703
 30
0.0
 41
1.0
 10
-694.55147474603473
 20
-2566.3049963572839
 30
0.0
 41
0.9999595338694757
 10
-694.47111547517443
 20
-2566.240770626624
 30
0.0
 41
1.0
 10
-694.39075620432823
 20
-2566.176544895975
 30
0.0
 41
0.9999749417506177
 10
-694.30949566999061
 20
-2566.1134633420338
 30
0.0
 41
1.0
 10
-694.28850952380139
 20
-2566.0971720547113
 30
0.0
 41
1.0
 10
-694.26752337761229
 20
-2566.0808807673893
 30
0.0
 41
1.0
 10
-694.18295549233312
 20
-2566.0152317575662
 30
0.0
 41
0.9999792037122698
 10
-694.0975478925734
 20
-2565.9506789759298
 30
0.0
 41
1.0
 10
-694.07672306660243
 20
-2565.9349391536271
 30
0.0
 41
1.0
 10
-694.05589824063145
 20
-2565.9191993313243
 30
0.0
 41
1.0
 10
-694.01214029275184
 20
-2565.8861261942466
 30
0.0
 41
0.9999993373855431
 10
-693.96845860666099
 20
-2565.8529523988623
 30
0.0
 41
1.0
 10
-693.92477692051887
 20
-2565.8197786034393
 30
0.0
 41
0.999916095381626
 10
-693.88025050959629
 20
-2565.7877475382388
 30
0.0
 41
1.0
 10
-693.84742862217786
 20
-2565.7641363826542
 30
0.0
 41
1.0
 10
-693.81460673475931
 20
-2565.7405252270701
 30
0.0
 41
1.0
 10
-693.70443654900077
 20
-2565.6612718507017
 30
0.0
 41
0.9980964527230776
 10
-693.58534755549999
 20
-2565.5961843778459
 30
0.0
 41
1.0
 10
-693.5483149485716
 20
-2565.5759443982524
 30
0.0
 41
1.0
 10
-693.51128234164321
 20
-2565.5557044186594
 30
0.0
 41
1.0
 10
-693.33195532836953
 20
-2565.4576941679584
 30
0.0
 41
0.9984572810573835
 10
-693.14286676201164
 20
-2565.3801719066123
 30
0.0
 41
1.0
 10
-693.13922049261532
 20
-2565.3786770142742
 30
0.0
 41
1.0
 10
-693.13557422321912
 20
-2565.3771821219361
 30
0.0
 41
1.0
 10
-692.95377819565249
 20
-2565.3026496452658
 30
0.0
 41
0.9987838528033721
 10
-692.76552553709325
 20
-2565.2463840051
 30
0.0
 41
1.0
 10
-692.7612875878965
 20
-2565.2451173514105
 30
0.0
 41
1.0
 10
-692.75704963869987
 20
-2565.243850697721
 30
0.0
 41
1.0
 10
-692.57727287853629
 20
-2565.1901183649347
 30
0.0
 41
0.9990652816206683
 10
-692.39352694681793
 20
-2565.1521146853925
 30
0.0
 41
1.0
 10
-692.38833854578434
 20
-2565.1510415822854
 30
0.0
 41
1.0
 10
-692.38315014475074
 20
-2565.1499684791784
 30
0.0
 41
1.0
 10
-692.20978101509991
 20
-2565.1141110058502
 30
0.0
 41
0.9992909934271004
 10
-692.03420524864441
 20
-2565.0914005733839
 30
0.0
 41
1.0
 10
-691.85862948218994
 20
-2565.0686901409172
 30
0.0
 41
0.9994553539447708
 10
-691.68193804910004
 20
-2565.0576108367118
 30
0.0
 41
1.0
 10
-691.64650364129898
 20
-2565.0553889486637
 30
0.0
 41
1.0
 10
-691.6110692334978
 20
-2565.0531670606156
 30
0.0
 41
1.0
 10
-691.44484346693014
 20
-2565.0427439982041
 30
0.0
 41
0.9990928098293439
 10
-691.27833367502944
 20
-2565.0465036394385
 30
0.0
 41
1.0
 10
-691.23977183975796
 20
-2565.0473743309713
 30
0.0
 41
1.0
 10
-691.20121000448648
 20
-2565.0482450225045
 30
0.0
 41
1.0
 10
-691.11182388312704
 20
-2565.0502632806729
 30
0.0
 41
0.9998382089205214
 10
-691.02256820034063
 20
-2565.0554954072009
 30
0.0
 41
1.0
 10
-691.02213829412347
 20
-2565.0555206081031
 30
0.0
 41
1.0
 10
-691.0217083879063
 20
-2565.0555458090053
 30
0.0
 41
1.0
 10
-690.93331251755762
 20
-2565.0607275337284
 30
0.0
 41
0.9997558016757762
 10
-690.84523194035364
 20
-2565.0698100490954
 30
0.0
 41
1.0
 10
-690.8447558019227
 20
-2565.069859146578
 30
0.0
 41
1.0
 10
-690.84427966349176
 20
-2565.069908244061
 30
0.0
 41
1.0
 10
-690.75715136315159
 20
-2565.0788925644624
 30
0.0
 41
0.999656514418116
 10
-690.67061350981066
 20
-2565.0924298711511
 30
0.0
 41
1.0
 10
-690.67014758443474
 20
-2565.0925027568819
 30
0.0
 41
1.0
 10
-690.66968165905882
 20
-2565.0925756426132
 30
0.0
 41
1.0
 10
-690.58407565647019
 20
-2565.1059671778398
 30
0.0
 41
0.999532180686773
 10
-690.49944857614037
 20
-2565.1245676662693
 30
0.0
 41
1.0
 10
-690.49905938156439
 20
-2565.1246532087362
 30
0.0
 41
1.0
 10
-690.49867018698853
 20
-2565.1247387512026
 30
0.0
 41
1.0
 10
-690.41482149580816
 20
-2565.1431681546997
 30
0.0
 41
0.9993819199220039
 10
-690.3324749616163
 20
-2565.1674435379591
 30
0.0
 41
1.0
 10
-690.33223652811739
 20
-2565.1675138270684
 30
0.0
 41
1.0
 10
-690.3319980946186
 20
-2565.1675841161782
 30
0.0
 41
1.0
 10
-690.2501284274191
 20
-2565.1917189212204
 30
0.0
 41
0.9992088568506521
 10
-690.17043590843195
 20
-2565.2222841570142
 30
0.0
 41
1.0
 10
-690.090754917553
 20
-2565.2528437577471
 30
0.0
 41
0.9990226101772818
 10
-690.01408424764622
 20
-2565.2903211893617
 30
0.0
 41
1.0
 10
-689.9374251058473
 20
-2565.3277929859159
 30
0.0
 41
0.9988424273973284
 10
-689.86472147863469
 20
-2565.3724577611697
 30
0.0
 41
1.0
 10
-689.8644537702562
 20
-2565.3726222252417
 30
0.0
 41
1.0
 10
-689.86418606187772
 20
-2565.3727866893132
 30
0.0
 41
1.0
 10
-689.79094701790621
 20
-2565.4177803927109
 30
0.0
 41
0.9986928844494603
 10
-689.72268415119436
 20
-2565.4700161269911
 30
0.0
 41
1.0
 10
-689.72210285897245
 20
-2565.4704609402183
 30
0.0
 41
1.0
 10
-689.72152156675065
 20
-2565.4709057534455
 30
0.0
 41
1.0
 10
-689.65209611559283
 20
-2565.5240311141824
 30
0.0
 41
0.998600726227597
 10
-689.58866994582502
 20
-2565.5841918838773
 30
0.0
 41
1.0
 10
-689.5877755303693
 20
-2565.5850402517108
 30
0.0
 41
1.0
 10
-689.58688111491347
 20
-2565.5858886195447
 30
0.0
 41
1.0
 10
-689.52166611423149
 20
-2565.6477461249096
 30
0.0
 41
0.9985581491382166
 10
-689.46345850252669
 20
-2565.7162386151854
 30
0.0
 41
1.0
 10
-689.45420004893333
 20
-2565.7271329728846
 30
0.0
 41
1.0
 10
-689.44494159533997
 20
-2565.7380273305835
 30
0.0
 41
1.0
 10
-689.36821707644765
 20
-2565.8283085362582
 30
0.0
 41
0.9970460233522333
 10
-689.30622517528889
 20
-2565.9292756204381
 30
0.0
 41
1.0
 10
-689.29175581020718
 20
-2565.9528420795227
 30
0.0
 41
1.0
 10
-689.27728644512547
 20
-2565.9764085386073
 30
0.0
 41
1.0
 10
-689.23754974511382
 20
-2566.0411282626378
 30
0.0
 41
0.9988468816635008
 10
-689.20420337436417
 20
-2566.1093607150619
 30
0.0
 41
1.0
 10
-689.19716735187353
 20
-2566.1237576361973
 30
0.0
 41
1.0
 10
-689.19013132938289
 20
-2566.1381545573331
 30
0.0
 41
1.0
 10
-689.17085700361372
 20
-2566.1775931674879
 30
0.0
 41
0.9998431189998392
 10
-689.15299167611784
 20
-2566.2176897219306
 30
0.0
 41
1.0
 10
-689.1351263486174
 20
-2566.2577862763837
 30
0.0
 41
0.9999989989897755
 10
-689.11714762515601
 20
-2566.2978321140549
 30
0.0
 41
1.0
 10
-689.11097531358428
 20
-2566.3115803308174
 30
0.0
 41
1.0
 10
-689.10480300201243
 20
-2566.3253285475803
 30
0.0
 41
1.0
 10
-689.0744796554028
 20
-2566.3928708187873
 30
0.0
 41
0.9998790356320738
 10
-689.04627177526095
 20
-2566.4613235707357
 30
0.0
 41
1.0
 10
-689.03943659397748
 20
-2566.4779106721617
 30
0.0
 41
1.0
 10
-689.03260141269402
 20
-2566.4944977735872
 30
0.0
 41
1.0
 10
-689.0090437503153
 20
-2566.5516657284697
 30
0.0
 41
0.9998227574562066
 10
-688.98765500192667
 20
-2566.6096800367445
 30
0.0
 41
1.0
 10
-688.96626625353679
 20
-2566.6676943450225
 30
0.0
 41
0.9996797971040705
 10
-688.94783996857893
 20
-2566.7267164641366
 30
0.0
 41
1.0
 10
-688.94393616585285
 20
-2566.7392209223071
 30
0.0
 41
1.0
 10
-688.94003236312665
 20
-2566.7517253804781
 30
0.0
 41
1.0
 10
-688.91379847271651
 20
-2566.8357564159328
 30
0.0
 41
0.9979274938736278
 10
-688.89857394923683
 20
-2566.9224607745919
 30
0.0
 41
1.0
 10
-688.89635026197539
 20
-2566.9351247754134
 30
0.0
 41
1.0
 10
-688.89412657471405
 20
-2566.947788776235
 30
0.0
 41
1.0
 10
-688.88319663501477
 20
-2567.0100352835275
 30
0.0
 41
0.9994985982135102
 10
-688.87622846983822
 20
-2567.0728487846691
 30
0.0
 41
1.0
 10
-688.86926030466145
 20
-2567.135662285812
 30
0.0
 41
0.9996372611201491
 10
-688.86568443889416
 20
-2567.1987598644923
 30
0.0
 41
1.0
 10
-688.8655158614049
 20
-2567.2017344815749
 30
0.0
 41
1.0
 10
-688.86534728391553
 20
-2567.2047090986575
 30
0.0
 41
1.0
 10
-688.86143426316949
 20
-2567.2737559115039
 30
0.0
 41
0.9997730630735956
 10
-688.86046594968138
 20
-2567.3429067355364
 30
0.0
 41
1.0
 10
-688.86040884326326
 20
-2567.3469849146786
 30
0.0
 41
1.0
 10
-688.86035173684513
 20
-2567.3510630938213
 30
0.0
 41
1.0
 10
-688.85926921052055
 20
-2567.428370276135
 30
0.0
 41
0.9998772614071818
 10
-688.8606092972517
 20
-2567.5056734226878
 30
0.0
 41
1.0
 10
-688.8606985604506
 20
-2567.5108225865306
 30
0.0
 41
1.0
 10
-688.86078782364939
 20
-2567.5159717503734
 30
0.0
 41
1.0
 10
-688.86230643677834
 20
-2567.6035732246232
 30
0.0
 41
0.999941556732426
 10
-688.86571874702508
 20
-2567.6911213862927
 30
0.0
 41
1.0
 10
-688.86596006770026
 20
-2567.6973128460249
 30
0.0
 41
1.0
 10
-688.86620138837543
 20
-2567.7035043057576
 30
0.0
 41
1.0
 10
-688.87009633997286
 20
-2567.8034353869098
 30
0.0
 41
0.999971681042422
 10
-688.87549492309051
 20
-2567.9032965251249
 30
0.0
 41
1.0
 10
-688.87870772187944
 20
-2567.9627257747898
 30
0.0
 41
1.0
 10
-688.88192052066847
 20
-2568.0221550244542
 30
0.0
 41
1.0
 10
-688.88999442981935
 20
-2568.171503425714
 30
0.0
 41
0.9999819129910706
 10
-688.89986422143693
 20
-2568.3207439034427
 30
0.0
 41
1.0
 10
-688.90973401305337
 20
-2568.4699843811541
 30
0.0
 41
1.0
 10
-688.91217333361737
 20
-2568.5071774270036
 30
0.0
 41
1.0
 10
-688.88947509976811
 20
-2568.46843642964
 30
0.0
 41
0.9999982128168548
 10
-688.86663054103678
 20
-2568.4297815357227
 30
0.0
 41
1.0
 10
-688.83972098114975
 20
-2568.384248321664
 30
0.0
 41
1.0
 10
-688.81281142126272
 20
-2568.3387151076054
 30
0.0
 41
1.0
 10
-688.73614774273665
 20
-2568.2089937855362
 30
0.0
 41
0.9998609190057861
 10
-688.65520042987089
 20
-2568.0819014036001
 30
0.0
 41
1.0
 10
-688.62555210839128
 20
-2568.0353516706464
 30
0.0
 41
1.0
 10
-688.59590378691166
 20
-2567.9888019376926
 30
0.0
 41
1.0
 10
-688.51363156667617
 20
-2567.8596293676992
 30
0.0
 41
0.999906760972992
 10
-688.42786255721012
 20
-2567.7327516782561
 30
0.0
 41
1.0
 10
-688.4254578540083
 20
-2567.7291944121998
 30
0.0
 41
1.0
 10
-688.4230531508066
 20
-2567.725637146144
 30
0.0
 41
1.0
 10
-688.34209354774725
 20
-2567.6058739888172
 30
0.0
 41
0.9998784952148272
 10
-688.25743993806418
 20
-2567.4886927721059
 30
0.0
 41
1.0
 10
-688.17278632838179
 20
-2567.3715115553955
 30
0.0
 41
0.9998532968281911
 10
-688.08416870756139
 20
-2567.2572986469281
 30
0.0
 41
1.0
 10
-688.06420691856977
 20
-2567.2315713259077
 30
0.0
 41
1.0
 10
-688.04424512957814
 20
-2567.2058440048868
 30
0.0
 41
1.0
 10
-687.92576107982018
 20
-2567.0531383939192
 30
0.0
 41
0.9991551975795961
 10
-687.79513663019634
 20
-2566.910678831834
 30
0.0
 41
1.0
 10
-687.79162701421592
 20
-2566.9068512302092
 30
0.0
 41
1.0
 10
-687.78811739823561
 20
-2566.9030236285839
 30
0.0
 41
1.0
 10
-687.66451218057409
 20
-2566.7682192697512
 30
0.0
 41
0.9997418144180771
 10
-687.53491004087255
 20
-2566.6391698591383
 30
0.0
 41
1.0
 10
-687.40530790117077
 20
-2566.510120448525
 30
0.0
 41
0.9989238204633367
 10
-687.26430535292116
 20
-2566.3936354864877
 30
0.0
 41
1.0
 10
-687.21905767478188
 20
-2566.3562554948794
 30
0.0
 41
1.0
 10
-687.17380999664249
 20
-2566.3188755032706
 30
0.0
 41
1.0
 10
-687.033569939421
 20
-2566.2030204499797
 30
0.0
 41
0.9990825084096805
 10
-686.88393000681526
 20
-2566.0995914521454
 30
0.0
 41
1.0
 10
-686.87388464276296
 20
-2566.0926482390691
 30
0.0
 41
1.0
 10
-686.86383927871066
 20
-2566.0857050259929
 30
0.0
 41
1.0
 10
-686.73429007421601
 20
-2565.9961624543157
 30
0.0
 41
0.9998164899825784
 10
-686.6014058708347
 20
-2565.9116482127965
 30
0.0
 41
1.0
 10
-686.58956031031357
 20
-2565.904114446274
 30
0.0
 41
1.0
 10
-686.57771474979256
 20
-2565.8965806797514
 30
0.0
 41
1.0
 10
-686.4685216674643
 20
-2565.8271339712833
 30
0.0
 41
0.9997473449129852
 10
-686.35631771020917
 20
-2565.7626650134644
 30
0.0
 41
1.0
 10
-686.24411375295927
 20
-2565.6981960556482
 30
0.0
 41
0.9999327861146587
 10
-686.13044514219382
 20
-2565.6363460639659
 30
0.0
 41
1.0
 10
-686.12989313963431
 20
-2565.6360457052874
 30
0.0
 41
1.0
 10
-686.12934113707479
 20
-2565.6357453466089
 30
0.0
 41
1.0
 10
-686.01456852119065
 20
-2565.5732946375697
 30
0.0
 41
0.9996956420484291
 10
-685.89685519535124
 20
-2565.5165811705951
 30
0.0
 41
1.0
 10
-685.86641479045352
 20
-2565.5019151938627
 30
0.0
 41
1.0
 10
-685.83597438555591
 20
-2565.4872492171303
 30
0.0
 41
1.0
 10
-685.73299727881795
 20
-2565.4376355586892
 30
0.0
 41
0.9998070570176665
 10
-685.62815088988054
 20
-2565.3921049717901
 30
0.0
 41
1.0
 10
-685.5233045009403
 20
-2565.3465743848892
 30
0.0
 41
0.9997827436147012
 10
-685.41665156433339
 20
-2565.3054532135784
 30
0.0
 41
1.0
 10
-685.3974287146998
 20
-2565.298041639945
 30
0.0
 41
1.0
 10
-685.37820586506632
 20
-2565.2906300663121
 30
0.0
 41
1.0
 10
-685.23310722919268
 20
-2565.2346857477351
 30
0.0
 41
0.998803184197738
 10
-685.08323686658684
 20
-2565.1931856835668
 30
0.0
 41
1.0
 10
-685.05831961822196
 20
-2565.1862859377597
 30
0.0
 41
1.0
 10
-685.03340236985719
 20
-2565.1793861919523
 30
0.0
 41
1.0
 10
-684.86613234421225
 20
-2565.1330680495466
 30
0.0
 41
0.9984748040550502
 10
-684.6947754355665
 20
-2565.1054738172825
 30
0.0
 41
1.0
 10
-684.69003629931876
 20
-2565.1047106567694
 30
0.0
 41
1.0
 10
-684.68529716307103
 20
-2565.1039474962558
 30
0.0
 41
1.0
 10
-684.52341852691848
 20
-2565.0778795850174
 30
0.0
 41
0.9984436495479999
 10
-684.3596437831925
 20
-2565.0700016311985
 30
0.0
 41
1.0
 10
-684.33794657506019
 20
-2565.0689579439986
 30
0.0
 41
1.0
 10
-684.31624936692788
 20
-2565.0679142567992
 30
0.0
 41
1.0
 10
-684.1958690394672
 20
-2565.06212367738
 30
0.0
 41
0.998795478933555
 10
-684.07550079455859
 20
-2565.0681602051222
 30
0.0
 41
1.0
 10
-684.05553600205803
 20
-2565.0691614494613
 30
0.0
 41
1.0
 10
-684.03557120955747
 20
-2565.0701626938003
 30
0.0
 41
1.0
 10
-683.9551325496426
 20
-2565.0741967328649
 30
0.0
 41
0.9997941595877704
 10
-683.87492377155422
 20
-2565.0814907987856
 30
0.0
 41
1.0
 10
-683.79471499347028
 20
-2565.0887848647053
 30
0.0
 41
0.9998589466235477
 10
-683.71479644662577
 20
-2565.0987687191541
 30
0.0
 41
1.0
 10
-683.68239024480658
 20
-2565.1028170760746
 30
0.0
 41
1.0
 10
-683.6499840429874
 20
-2565.1068654329952
 30
0.0
 41
1.0
 10
-683.50525309251316
 20
-2565.1249460012841
 30
0.0
 41
0.9993495063249686
 10
-683.36220184874412
 20
-2565.1534117110268
 30
0.0
 41
1.0
 10
-683.32926815159533
 20
-2565.1599651742408
 30
0.0
 41
1.0
 10
-683.29633445444654
 20
-2565.1665186374553
 30
0.0
 41
1.0
 10
-683.18704063124176
 20
-2565.1882669715906
 30
0.0
 41
0.9996788715561157
 10
-683.07898905928641
 20
-2565.2155247709534
 30
0.0
 41
1.0
 10
-683.07692605675277
 20
-2565.2160451975251
 30
0.0
 41
1.0
 10
-683.07486305421912
 20
-2565.2165656240963
 30
0.0
 41
1.0
 10
-682.97093748733596
 20
-2565.2427825703144
 30
0.0
 41
0.9995480654492136
 10
-682.86877525210048
 20
-2565.2751975269407
 30
0.0
 41
1.0
 10
-682.86708560996897
 20
-2565.2757336318555
 30
0.0
 41
1.0
 10
-682.86539596783746
 20
-2565.2762697367702
 30
0.0
 41
1.0
 10
-682.76661301686727
 20
-2565.3076124835666
 30
0.0
 41
0.9993867959456831
 10
-682.67026585842768
 20
-2565.3457918528547
 30
0.0
 41
1.0
 10
-682.6690229093374
 20
-2565.3462843947532
 30
0.0
 41
1.0
 10
-682.66777996024723
 20
-2565.3467769366516
 30
0.0
 41
1.0
 10
-682.57391869997969
 20
-2565.3839712221475
 30
0.0
 41
0.9992050256523472
 10
-682.48331902495147
 20
-2565.4285251213832
 30
0.0
 41
1.0
 10
-682.48258434223931
 20
-2565.4288864138439
 30
0.0
 41
1.0
 10
-682.48184965952726
 20
-2565.4292477063045
 30
0.0
 41
1.0
 10
-682.39271934991825
 20
-2565.4730790206222
 30
0.0
 41
0.9990222350741768
 10
-682.30780928852482
 20
-2565.5246122883204
 30
0.0
 41
1.0
 10
-682.30762540324326
 20
-2565.5247238912243
 30
0.0
 41
1.0
 10
-682.30744151796182
 20
-2565.5248354941286
 30
0.0
 41
1.0
 10
-682.22289922713185
 20
-2565.5761455560187
 30
0.0
 41
0.9988642743804878
 10
-682.14362469251273
 20
-2565.6352697435441
 30
0.0
 41
1.0
 10
-682.06435015789384
 20
-2565.694393931069
 30
0.0
 41
0.9987681233310241
 10
-681.99132637361549
 20
-2565.7610846224725
 30
0.0
 41
1.0
 10
-681.99099744565081
 20
-2565.7613850236858
 30
0.0
 41
1.0
 10
-681.99066851768612
 20
-2565.7616854248986
 30
0.0
 41
1.0
 10
-681.91698687748089
 20
-2565.8289769187249
 30
0.0
 41
0.9987496570897343
 10
-681.85039307215425
 20
-2565.9032897328116
 30
0.0
 41
1.0
 10
-681.84962090239253
 20
-2565.904151406171
 30
0.0
 41
1.0
 10
-681.84884873263081
 20
-2565.9050130795304
 30
0.0
 41
1.0
 10
-681.78071058778323
 20
-2565.981049240333
 30
0.0
 41
0.9988147669829363
 10
-681.72028833356012
 20
-2566.0633502471719
 30
0.0
 41
1.0
 10
-681.71916900748113
 20
-2566.0648748785261
 30
0.0
 41
1.0
 10
-681.71804968140214
 20
-2566.0663995098803
 30
0.0
 41
1.0
 10
-681.65538877502149
 20
-2566.1517497794266
 30
0.0
 41
0.9989452636214502
 10
-681.60082186206046
 20
-2566.2424884685838
 30
0.0
 41
1.0
 10
-681.59947313597422
 20
-2566.2447312496106
 30
0.0
 41
1.0
 10
-681.59812440988799
 20
-2566.2469740306378
 30
0.0
 41
1.0
 10
-681.54086004475494
 20
-2566.3421982818481
 30
0.0
 41
0.9991046436069099
 10
-681.49185083143357
 20
-2566.4419227148742
 30
0.0
 41
1.0
 10
-681.49038696984371
 20
-2566.4449013949461
 30
0.0
 41
1.0
 10
-681.48892310825386
 20
-2566.4478800750185
 30
0.0
 41
1.0
 10
-681.43698617175266
 20
-2566.5535618681888
 30
0.0
 41
0.9992763831102116
 10
-681.3932330431976
 20
-2566.6628859301445
 30
0.0
 41
1.0
 10
-681.39175377353422
 20
-2566.6665821176784
 30
0.0
 41
1.0
 10
-681.39027450387084
 20
-2566.6702783052119
 30
0.0
 41
1.0
 10
-681.34356283598868
 20
-2566.7869947422355
 30
0.0
 41
0.9994163472883361
 10
-681.30492980479983
 20
-2566.9066283306961
 30
0.0
 41
1.0
 10
-681.30369165255274
 20
-2566.91046247448
 30
0.0
 41
1.0
 10
-681.30245350030555
 20
-2566.914296618264
 30
0.0
 41
1.0
 10
-681.26256993928791
 20
-2567.037802679743
 30
0.0
 41
0.9997268055890342
 10
-681.22850188337588
 20
-2567.1630377116935
 30
0.0
 41
1.0
 10
-681.2275717031057
 20
-2567.1664570778044
 30
0.0
 41
1.0
 10
-681.22664152283562
 20
-2567.1698764439152
 30
0.0
 41
1.0
 10
-681.19443382746306
 20
-2567.2882727436481
 30
0.0
 41
0.9996701319001187
 10
-681.16834821069324
 20
-2567.4081666969078
 30
0.0
 41
1.0
 10
-681.14226259392331
 20
-2567.5280606501678
 30
0.0
 41
0.999578545110922
 10
-681.12317901658275
 20
-2567.6492664112038
 30
0.0
 41
1.0
 10
-681.11895923440932
 20
-2567.6760675659671
 30
0.0
 41
1.0
 10
-681.11473945223588
 20
-2567.7028687207307
 30
0.0
 41
1.0
 10
-681.08816447629715
 20
-2567.8716546944352
 30
0.0
 41
0.9979925101216203
 10
-681.08313889037117
 20
-2568.0424460225277
 30
0.0
 41
1.0
 10
-681.08231407794642
 20
-2568.0704767460147
 30
0.0
 41
1.0
 10
-681.08148926552178
 20
-2568.0985074695018
 30
0.0
 41
1.0
 10
-681.07811330444542
 20
-2568.2132373506265
 30
0.0
 41
0.9995314902263752
 10
-681.08176349658379
 20
-2568.3279588343712
 30
0.0
 41
1.0
 10
-681.08541368872238
 20
-2568.4426803181232
 30
0.0
 41
0.9996245486944179
 10
-681.09534278385354
 20
-2568.557029589248
 30
0.0
 41
1.0
 10
-681.09550583184773
 20
-2568.558907345383
 30
0.0
 41
1.0
 10
-681.09566887984192
 20
-2568.5607851015175
 30
0.0
 41
1.0
 10
-681.10592407096169
 20
-2568.6788898849145
 30
0.0
 41
0.9997286095001435
 10
-681.12166939453198
 20
-2568.7963887938063
 30
0.0
 41
1.0
 10
-681.12206288718244
 20
-2568.7993252185088
 30
0.0
 41
1.0
 10
-681.12245637983278
 20
-2568.8022616432108
 30
0.0
 41
1.0
 10
-681.13898868870444
 20
-2568.9256334015117
 30
0.0
 41
0.9998265533968025
 10
-681.16010414743721
 20
-2569.0483038762968
 30
0.0
 41
1.0
 10
-681.16078068957449
 20
-2569.0522342548047
 30
0.0
 41
1.0
 10
-681.16145723171167
 20
-2569.0561646333126
 30
0.0
 41
1.0
 10
-681.18392577471786
 20
-2569.1866958651085
 30
0.0
 41
0.9999022530855304
 10
-681.21003523932882
 20
-2569.3165478337532
 30
0.0
 41
1.0
 10
-681.21101388049431
 20
-2569.3214149761411
 30
0.0
 41
1.0
 10
-681.21199252165979
 20
-2569.326282118529
 30
0.0
 41
1.0
 10
-681.24005926860229
 20
-2569.4658683719495
 30
0.0
 41
0.9999524761935594
 10
-681.27084223743373
 20
-2569.6048808650989
 30
0.0
 41
1.0
 10
-681.27211834461002
 20
-2569.6106436244054
 30
0.0
 41
1.0
 10
-681.27339445178632
 20
-2569.6164063837114
 30
0.0
 41
1.0
 10
-681.30672963497159
 20
-2569.7669443954774
 30
0.0
 41
0.9999813588717271
 10
-681.34190063577137
 20
-2569.91706410815
 30
0.0
 41
1.0
 10
-681.34345456122628
 20
-2569.9236966985654
 30
0.0
 41
1.0
 10
-681.34500848668131
 20
-2569.9303292889813
 30
0.0
 41
1.0
 10
-681.38328733839307
 20
-2570.0937141824934
 30
0.0
 41
0.9999955237666639
 10
-681.42254321636835
 20
-2570.2568670860783
 30
0.0
 41
1.0
 10
-681.43482485200389
 20
-2570.3079112766063
 30
0.0
 41
1.0
 10
-681.4471064876393
 20
-2570.3589554671344
 30
0.0
 41
1.0
 10
-681.51092563689053
 20
-2570.6241967517972
 30
0.0
 41
0.9999993604131414
 10
-681.5753445840619
 20
-2570.8892930024954
 30
0.0
 41
1.0
 10
-681.58006341960595
 20
-2570.9087119105234
 30
0.0
 41
1.0
 10
-681.58478225515
 20
-2570.9281308185518
 30
0.0
 41
1.0
 10
-681.65863887341015
 20
-2571.2320648853097
 30
0.0
 41
0.9999659914731399
 10
-681.73749846929798
 20
-2571.5347394318796
 30
0.0
 41
1.0
 10
-681.74245115822737
 20
-2571.5537485690575
 30
0.0
 41
1.0
 10
-681.74740384715687
 20
-2571.5727577062353
 30
0.0
 41
1.0
 10
-681.83616882090314
 20
-2571.9134505271586
 30
0.0
 41
0.9999441976025177
 10
-681.93211185386588
 20
-2572.2521919524547
 30
0.0
 41
1.0
 10
-681.94881237229129
 20
-2572.3111556649819
 30
0.0
 41
1.0
 10
-681.96551289071658
 20
-2572.3701193775087
 30
0.0
 41
1.0
 10
-682.09485696053537
 20
-2572.8267882278778
 30
0.0
 41
0.9999625120729546
 10
-682.23208972785619
 20
-2573.2811487618637
 30
0.0
 41
1.0
 10
-682.26787967094037
 20
-2573.3996447884947
 30
0.0
 41
1.0
 10
-682.30366961402444
 20
-2573.5181408151252
 30
0.0
 41
1.0
 10
-682.37818981806618
 20
-2573.7648678932283
 30
0.0
 41
0.9999793386306083
 10
-682.45587584119903
 20
-2574.0106165324514
 30
0.0
 41
1.0
 10
-682.53356186433621
 20
-2574.2563651716873
 30
0.0
 41
1.0
 10
-682.54434142320815
 20
-2574.290383076062
 30
0.0
 41
1.0
 10
-684.39471447647747
 20
-2580.1774549985294
 30
0.0
 41
1.0
 10
-686.2450875297468
 20
-2586.0645269209972
 30
0.0
 41
1.0
 10
-687.20634421977002
 20
-2586.0645269209972
 30
0.0
 41
1.0
 10
-688.16760090979324
 20
-2586.0645269209972
 30
0.0
 41
1.0
 10
-686.54865613111497
 20
-2580.9164984192075
 30
0.0
 41
1.0
 10
-684.9297113524367
 20
-2575.7684699174179
 30
0.0
 41
1.0
 10
-684.88454552926282
 20
-2575.6244386951498
 30
0.0
 41
1.0
 10
-684.83937970608895
 20
-2575.4804074728818
 30
0.0
 41
1.0
 10
-684.6690752887248
 20
-2574.9373164437156
 30
0.0
 41
0.9999911657923706
 10
-684.50334247704495
 20
-2574.3928129123524
 30
0.0
 41
1.0
 10
-684.47364653354452
 20
-2574.295248972302
 30
0.0
 41
1.0
 10
-684.44395059004421
 20
-2574.1976850322512
 30
0.0
 41
1.0
 10
-684.33760966535988
 20
-2573.8483093809709
 30
0.0
 41
0.9999952428110797
 10
-684.23342607603945
 20
-2573.4982843566386
 30
0.0
 41
1.0
 10
-684.22836660570988
 20
-2573.4812860823731
 30
0.0
 41
1.0
 10
-684.2233071353802
 20
-2573.4642878081077
 30
0.0
 41
1.0
 10
-684.12924248671993
 20
-2573.1482593323108
 30
0.0
 41
0.9999931687531625
 10
-684.03751664884066
 20
-2572.8315441190189
 30
0.0
 41
1.0
 10
-684.03258138438127
 20
-2572.8145034097483
 30
0.0
 41
1.0
 10
-684.027646119922
 20
-2572.7974627004778
 30
0.0
 41
1.0
 10
-683.9457908109639
 20
-2572.5148289057352
 30
0.0
 41
0.999989384079273
 10
-683.86654358451005
 20
-2572.231452776502
 30
0.0
 41
1.0
 10
-683.78729635804871
 20
-2571.9480766472416
 30
0.0
 41
0.9999833980061696
 10
-683.71132011731095
 20
-2571.6638060642267
 30
0.0
 41
1.0
 10
-683.70231618058892
 20
-2571.6301171857494
 30
0.0
 41
1.0
 10
-683.69331224386701
 20
-2571.5964283072717
 30
0.0
 41
1.0
 10
-683.62434769499771
 20
-2571.3383924749642
 30
0.0
 41
0.9999233658067848
 10
-683.56179272377949
 20
-2571.078728316249
 30
0.0
 41
1.0
 10
-683.49923775255911
 20
-2570.8190641575266
 30
0.0
 41
1.0
 10
-683.45975433370177
 20
-2570.6552574931002
 30
0.0
 41
1.0
 10
-683.45477572972493
 20
-2570.6346025312314
 30
0.0
 41
1.0
 10
-683.44979712574809
 20
-2570.6139475693631
 30
0.0
 41
1.0
 10
-683.42027091484965
 20
-2570.4914508286947
 30
0.0
 41
0.9999868670866068
 10
-683.39200183084859
 20
-2570.3686578830284
 30
0.0
 41
1.0
 10
-683.38810434369077
 20
-2570.3517282956109
 30
0.0
 41
1.0
 10
-683.38420685653296
 20
-2570.3347987081934
 30
0.0
 41
1.0
 10
-683.36373274685673
 20
-2570.2458649374012
 30
0.0
 41
0.9999778173345507
 10
-683.34444514873712
 20
-2570.1566663201525
 30
0.0
 41
1.0
 10
-683.32515755061956
 20
-2570.0674677029128
 30
0.0
 41
0.9999602692866283
 10
-683.30746319199102
 20
-2569.9779394144966
 30
0.0
 41
1.0
 10
-683.30425935991332
 20
-2569.9617289596108
 30
0.0
 41
1.0
 10
-683.30105552783562
 20
-2569.9455185047245
 30
0.0
 41
1.0
 10
-683.27695350505041
 20
-2569.8235693065303
 30
0.0
 41
0.9995617985321952
 10
-683.26011015783047
 20
-2569.700407558822
 30
0.0
 41
1.0
 10
-683.25764566792395
 20
-2569.682386741455
 30
0.0
 41
1.0
 10
-683.25518117801755
 20
-2569.6643659240885
 30
0.0
 41
1.0
 10
-683.23489791696875
 20
-2569.5160508743897
 30
0.0
 41
0.9991121410637275
 10
-683.22717256338137
 20
-2569.3665547755822
 30
0.0
 41
1.0
 10
-683.2262537733568
 20
-2569.3487749390051
 30
0.0
 41
1.0
 10
-683.22533498333235
 20
-2569.3309951024285
 30
0.0
 41
1.0
 10
-683.219447209794
 20
-2569.2170586767738
 30
0.0
 41
0.9989792494907427
 10
-683.22386630191113
 20
-2569.1030558408775
 30
0.0
 41
1.0
 10
-683.22451427377973
 20
-2569.0863395949527
 30
0.0
 41
1.0
 10
-683.22516224564822
 20
-2569.0696233490276
 30
0.0
 41
1.0
 10
-683.22828539402792
 20
-2568.9890530049843
 30
0.0
 41
0.999782029539263
 10
-683.23476939140392
 20
-2568.9086832832354
 30
0.0
 41
1.0
 10
-683.24125338878036
 20
-2568.828313561482
 30
0.0
 41
0.999833510597289
 10
-683.25066558429194
 20
-2568.7482339450348
 30
0.0
 41
1.0
 10
-683.25226050896788
 20
-2568.7346642145549
 30
0.0
 41
1.0
 10
-683.25385543364382
 20
-2568.7210944840749
 30
0.0
 41
1.0
 10
-683.26645747850773
 20
-2568.6138754066615
 30
0.0
 41
0.9996876457878643
 10
-683.28440139130646
 20
-2568.5074199789437
 30
0.0
 41
1.0
 10
-683.28663305445161
 20
-2568.4941802437024
 30
0.0
 41
1.0
 10
-683.28886471759688
 20
-2568.4809405084611
 30
0.0
 41
1.0
 10
-683.30266053901812
 20
-2568.3990943645017
 30
0.0
 41
0.9995547496494088
 10
-683.32131386091123
 20
-2568.3182168673097
 30
0.0
 41
1.0
 10
-683.32168781778284
 20
-2568.316595456603
 30
0.0
 41
1.0
 10
-683.32206177465446
 20
-2568.3149740458962
 30
0.0
 41
1.0
 10
-683.33996718280503
 20
-2568.2373393701137
 30
0.0
 41
0.9994899427174451
 10
-683.3627920914837
 20
-2568.161006087284
 30
0.0
 41
1.0
 10
-683.36325061822504
 20
-2568.1594726374933
 30
0.0
 41
1.0
 10
-683.36370914496638
 20
-2568.1579391877031
 30
0.0
 41
1.0
 10
-683.38561700016362
 20
-2568.084672804448
 30
0.0
 41
0.9993784877592087
 10
-683.41263263526935
 20
-2568.0131320992905
 30
0.0
 41
1.0
 10
-683.41316432624626
 20
-2568.0117241165699
 30
0.0
 41
1.0
 10
-683.41369601722329
 20
-2568.0103161338488
 30
0.0
 41
1.0
 10
-683.43964827037644
 20
-2567.9415913941293
 30
0.0
 41
0.999243083225301
 10
-683.47086480553526
 20
-2567.8750922420631
 30
0.0
 41
1.0
 10
-683.47144692159191
 20
-2567.8738521869454
 30
0.0
 41
1.0
 10
-683.47202903764867
 20
-2567.8726121318282
 30
0.0
 41
1.0
 10
-683.50208134069555
 20
-2567.8085930899942
 30
0.0
 41
0.9990789632800987
 10
-683.53751196747135
 20
-2567.7473864782455
 30
0.0
 41
1.0
 10
-683.53810767365292
 20
-2567.7463573923869
 30
0.0
 41
1.0
 10
-683.53870337983449
 20
-2567.7453283065283
 30
0.0
 41
1.0
 10
-683.57294259424646
 20
-2567.6861798664986
 30
0.0
 41
0.9988874801123406
 10
-683.61260187027938
 20
-2567.6305201540781
 30
0.0
 41
1.0
 10
-683.61315739634415
 20
-2567.6297405024025
 30
0.0
 41
1.0
 10
-683.61371292240881
 20
-2567.6289608507273
 30
0.0
 41
1.0
 10
-683.65226114631105
 20
-2567.5748604416603
 30
0.0
 41
0.9986762060692825
 10
-683.69616361758699
 20
-2567.5250067272209
 30
0.0
 41
1.0
 10
-683.69660757791939
 20
-2567.5245025854042
 30
0.0
 41
1.0
 10
-683.69705153825169
 20
-2567.5239984435875
 30
0.0
 41
1.0
 10
-683.7400660888627
 20
-2567.4751530127819
 30
0.0
 41
0.9984621642485647
 10
-683.78822364564121
 20
-2567.4313697123107
 30
0.0
 41
1.0
 10
-683.7884702801573
 20
-2567.4311454801477
 30
0.0
 41
1.0
 10
-683.78871691467327
 20
-2567.4309212479848
 30
0.0
 41
1.0
 10
-683.8363812024179
 20
-2567.3875864118409
 30
0.0
 41
0.9982724693854085
 10
-683.88879983426023
 20
-2567.350142061322
 30
0.0
 41
1.0
 10
-683.94121846610187
 20
-2567.3126977108031
 30
0.0
 41
0.9981399180153278
 10
-683.9978045294971
 20
-2567.2819111913595
 30
0.0
 41
1.0
 10
-683.99785019157434
 20
-2567.281886348203
 30
0.0
 41
1.0
 10
-683.9978958536517
 20
-2567.2818615050464
 30
0.0
 41
1.0
 10
-684.05457324120357
 20
-2567.2510252992884
 30
0.0
 41
0.9980927086836997
 10
-684.11461859227109
 20
-2567.2274084904357
 30
0.0
 41
1.0
 10
-684.1150587619818
 20
-2567.2272353645612
 30
0.0
 41
1.0
 10
-684.1154989316924
 20
-2567.2270622386864
 30
0.0
 41
1.0
 10
-684.17642462217964
 20
-2567.2030991780848
 30
0.0
 41
0.9981411356563967
 10
-684.23981314357729
 20
-2567.1867265365795
 30
0.0
 41
1.0
 10
-684.24069526028109
 20
-2567.1864986943733
 30
0.0
 41
1.0
 10
-684.24157737698488
 20
-2567.1862708521671
 30
0.0
 41
1.0
 10
-684.30673013178841
 20
-2567.1694425262499
 30
0.0
 41
0.9983031812933869
 10
-684.37339756078416
 20
-2567.1603031650739
 30
0.0
 41
1.0
 10
-684.38226858618521
 20
-2567.1590870464029
 30
0.0
 41
1.0
 10
-684.39113961158625
 20
-2567.1578709277319
 30
0.0
 41
1.0
 10
-684.44548925409129
 20
-2567.1504201977405
 30
0.0
 41
0.998388770826272
 10
-684.5003331033854
 20
-2567.1491755241072
 30
0.0
 41
1.0
 10
-684.50839650860337
 20
-2567.1489925262322
 30
0.0
 41
1.0
 10
-684.51645991382134
 20
-2567.1488095283576
 30
0.0
 41
1.0
 10
-684.55517695267895
 20
-2567.147930850474
 30
0.0
 41
0.9998869563077802
 10
-684.59390290588135
 20
-2567.1482167198337
 30
0.0
 41
1.0
 10
-684.63262885906431
 20
-2567.1485025891934
 30
0.0
 41
0.9999972320166071
 10
-684.67135303825512
 20
-2567.1489706887219
 30
0.0
 41
1.0
 10
-684.69070605485501
 20
-2567.1492046288113
 30
0.0
 41
1.0
 10
-684.71005907145491
 20
-2567.1494385689011
 30
0.0
 41
1.0
 10
-684.78748928382993
 20
-2567.1503745486089
 30
0.0
 41
0.9997304945086243
 10
-684.86479259007183
 20
-2567.1549036423953
 30
0.0
 41
1.0
 10
-684.87384223177196
 20
-2567.1554338483847
 30
0.0
 41
1.0
 10
-684.88289187347209
 20
-2567.1559640543746
 30
0.0
 41
1.0
 10
-684.97829446311619
 20
-2567.1615535601409
 30
0.0
 41
0.9997888306416197
 10
-685.07338679895656
 20
-2567.1710585246296
 30
0.0
 41
1.0
 10
-685.08210786053155
 20
-2567.1719302392621
 30
0.0
 41
1.0
 10
-685.09082892210654
 20
-2567.1728019538941
 30
0.0
 41
1.0
 10
-685.20336338109303
 20
-2567.1840503476478
 30
0.0
 41
0.9984170238191774
 10
-685.3139225284433
 20
-2567.2078664295832
 30
0.0
 41
1.0
 10
-685.35030365943157
 20
-2567.2157034653897
 30
0.0
 41
1.0
 10
-685.38668479041996
 20
-2567.2235405011961
 30
0.0
 41
1.0
 10
-685.501875858841
 20
-2567.2483543677054
 30
0.0
 41
0.9976592854198654
 10
-685.61260402524522
 20
-2567.2886530448523
 30
0.0
 41
1.0
 10
-685.72333219164875
 20
-2567.3289517219991
 30
0.0
 41
0.9993255074353302
 10
-685.83080399043899
 20
-2567.3772686204911
 30
0.0
 41
1.0
 10
-685.83542916936312
 20
-2567.3793479966912
 30
0.0
 41
1.0
 10
-685.84005434828714
 20
-2567.3814273728913
 30
0.0
 41
1.0
 10
-685.95677650492371
 20
-2567.4339030237829
 30
0.0
 41
0.9976475078276632
 10
-686.06522384923505
 20
-2567.5018510134414
 30
0.0
 41
1.0
 10
-686.08356624337102
 20
-2567.5133434922564
 30
0.0
 41
1.0
 10
-686.10190863750688
 20
-2567.5248359710718
 30
0.0
 41
1.0
 10
-686.18611082905647
 20
-2567.5775930918385
 30
0.0
 41
0.9995131336406383
 10
-686.26685854401467
 20
-2567.6354993037921
 30
0.0
 41
1.0
 10
-686.34760625897093
 20
-2567.6934055157449
 30
0.0
 41
0.999581010760736
 10
-686.42486790670171
 20
-2567.7558871982119
 30
0.0
 41
1.0
 10
-686.42783793791159
 20
-2567.7582890696763
 30
0.0
 41
1.0
 10
-686.43080796912136
 20
-2567.7606909411406
 30
0.0
 41
1.0
 10
-686.51400967927248
 20
-2567.8279763665364
 30
0.0
 41
0.9996617837953568
 10
-686.59360036640794
 20
-2567.8994968220968
 30
0.0
 41
1.0
 10
-686.60573111728581
 20
-2567.9103975550884
 30
0.0
 41
1.0
 10
-686.6178618681638
 20
-2567.9212982880799
 30
0.0
 41
1.0
 10
-686.68613739555963
 20
-2567.982650903552
 30
0.0
 41
0.999726775005317
 10
-686.75147090384098
 20
-2568.0471274400752
 30
0.0
 41
1.0
 10
-686.8168044121212
 20
-2568.1116039765975
 30
0.0
 41
0.9999667288963368
 10
-686.88107735527217
 20
-2568.1771377834966
 30
0.0
 41
1.0
 10
-686.94990480304682
 20
-2568.2473154422541
 30
0.0
 41
1.0
 10
-687.01873225082136
 20
-2568.3174931010117
 30
0.0
 41
1.0
 10
-687.22066008951924
 20
-2568.5233822254231
 30
0.0
 41
0.9988205335174416
 10
-687.40166570649694
 20
-2568.7478864574823
 30
0.0
 41
1.0
 10
-687.43230567140188
 20
-2568.7858897079122
 30
0.0
 41
1.0
 10
-687.46294563630681
 20
-2568.8238929583426
 30
0.0
 41
1.0
 10
-687.70523118309529
 20
-2569.1244036912631
 30
0.0
 41
0.9997077826754404
 10
-687.93270913420019
 20
-2569.4362734854785
 30
0.0
 41
1.0
 10
-687.93443254933095
 20
-2569.4386362688583
 30
0.0
 41
1.0
 10
-687.9361559644617
 20
-2569.4409990522386
 30
0.0
 41
1.0
 10
-688.16708074582777
 20
-2569.7575944132136
 30
0.0
 41
0.998914756707919
 10
-688.36754424871151
 20
-2570.0943038743985
 30
0.0
 41
1.0
 10
-688.39228539401802
 20
-2570.1358604549505
 30
0.0
 41
1.0
 10
-688.41702653932464
 20
-2570.1774170355025
 30
0.0
 41
1.0
 10
-688.57223783796167
 20
-2570.4381184199542
 30
0.0
 41
0.9997476598182231
 10
-688.71558282547221
 20
-2570.7055281685393
 30
0.0
 41
1.0
 10
-688.85892781298264
 20
-2570.972937917124
 30
0.0
 41
0.9996258967109668
 10
-688.98743606491382
 20
-2571.2477858537472
 30
0.0
 41
1.0
 10
-689.0006359743636
 20
-2571.2760172538433
 30
0.0
 41
1.0
 10
-689.0138358838135
 20
-2571.3042486539393
 30
0.0
 41
1.0
 10
-689.15404460481261
 20
-2571.6041210518906
 30
0.0
 41
0.9998735413945007
 10
-689.28464595153264
 20
-2571.9083006513579
 30
0.0
 41
1.0
 10
-689.28808877959318
 20
-2571.9163192368223
 30
0.0
 41
1.0
 10
-689.29153160765372
 20
-2571.9243378222873
 30
0.0
 41
1.0
 10
-689.41524729825255
 20
-2572.2124802508247
 30
0.0
 41
0.9999377418859926
 10
-689.53250210042779
 20
-2572.5033117185008
 30
0.0
 41
1.0
 10
-689.6497569026028
 20
-2572.7941431861764
 30
0.0
 41
0.9999508299505316
 10
-689.7612208459791
 20
-2573.0872428629928
 30
0.0
 41
1.0
 10
-689.76430161464259
 20
-2573.0953438889592
 30
0.0
 41
1.0
 10
-689.76738238330609
 20
-2573.1034449149256
 30
0.0
 41
1.0
 10
-689.88500786400664
 20
-2573.4127466436676
 30
0.0
 41
0.9999609228427919
 10
-689.99714646688278
 20
-2573.7240796596916
 30
0.0
 41
1.0
 10
-690.0001024772323
 20
-2573.7322865001006
 30
0.0
 41
1.0
 10
-690.00305848758171
 20
-2573.7404933405096
 30
0.0
 41
1.0
 10
-690.12110911115485
 20
-2574.0682400373457
 30
0.0
 41
0.9999674607402469
 10
-690.23385663722456
 20
-2574.3978486573446
 30
0.0
 41
1.0
 10
-690.28525502778496
 20
-2574.5481078530302
 30
0.0
 41
1.0
 10
-690.33665341834535
 20
-2574.6983670487157
 30
0.0
 41
1.0
 10
-690.45266402510811
 20
-2575.0375150312311
 30
0.0
 41
0.9999287532310255
 10
-690.56054542907668
 20
-2575.3793357702016
 30
0.0
 41
1.0
 10
-690.60702268522687
 20
-2575.5265983146073
 30
0.0
 41
1.0
 10
-690.65349994137694
 20
-2575.6738608590135
 30
0.0
 41
1.0
 10
-690.66842683308585
 20
-2575.7211565092994
 30
0.0
 41
0.9999998223756722
 10
-690.68329734177814
 20
-2575.7684699174179
 30
0.0
 41
1.0
 10
-692.30395347857348
 20
-2580.9164984192075
 30
0.0
 41
1.0
 10
-693.92460961536881
 20
-2586.0645269209972
 30
0.0
 41
1.0
 10
-694.82991805925985
 20
-2586.0645269209972
 30
0.0
 41
1.0
 10
-695.7352265031509
 20
-2586.0645269209972
 30
0.0
 41
1.0
 10
-693.88314209176451
 20
-2580.1774549985294
 30
0.0
 41
1.0
 10
-692.03105768037813
 20
-2574.290383076062
 30
0.0
 41
1.0
 10
-692.02093592207484
 20
-2574.258339862612
 30
0.0
 41
1.0
 10
-691.9483282532251
 20
-2574.0280403207862
 30
0.0
 41
1.0
 10
-691.87572058437047
 20
-2573.7977407789449
 30
0.0
 41
0.9999825681970007
 10
-691.80583754516044
 20
-2573.5665998838831
 30
0.0
 41
1.0
 10
-691.75754648300085
 20
-2573.4068753003908
 30
0.0
 41
1.0
 10
-691.70925542084126
 20
-2573.2471507168984
 30
0.0
 41
1.0
 10
-691.61210306752446
 20
-2572.9258154951231
 30
0.0
 41
0.9999672528967279
 10
-691.52016426190448
 20
-2572.6029499495453
 30
0.0
 41
1.0
 10
-691.5173753782359
 20
-2572.5931561041593
 30
0.0
 41
1.0
 10
-691.51458649456731
 20
-2572.5833622587734
 30
0.0
 41
1.0
 10
-691.4282254562753
 20
-2572.2800844039375
 30
0.0
 41
0.9999899749141056
 10
-691.34458384674645
 20
-2571.9760453155068
 30
0.0
 41
1.0
 10
-691.33447792772847
 20
-2571.939310077827
 30
0.0
 41
1.0
 10
-691.3243720087105
 20
-2571.9025748401473
 30
0.0
 41
1.0
 10
-691.26094223720884
 20
-2571.6720062270469
 30
0.0
 41
0.9999214200503023
 10
-691.20331280883283
 20
-2571.439919884845
 30
0.0
 41
1.0
 10
-691.19054695665272
 20
-2571.388508999451
 30
0.0
 41
1.0
 10
-691.17778110447261
 20
-2571.3370981140574
 30
0.0
 41
1.0
 10
-691.14568338045547
 20
-2571.2078335426395
 30
0.0
 41
0.9999828681661998
 10
-691.11510112845963
 20
-2571.0782020681681
 30
0.0
 41
1.0
 10
-691.08451887646333
 20
-2570.9485705936945
 30
0.0
 41
0.9999389844479151
 10
-691.05680788767484
 20
-2570.818295137798
 30
0.0
 41
1.0
 10
-691.04967014395493
 20
-2570.7847390339621
 30
0.0
 41
1.0
 10
-691.0425324002349
 20
-2570.7511829301257
 30
0.0
 41
1.0
 10
-691.00054592400636
 20
-2570.5537952665572
 30
0.0
 41
0.9998933699441569
 10
-690.96434165960375
 20
-2570.3552656587976
 30
0.0
 41
1.0
 10
-690.96296883438686
 20
-2570.3477376380988
 30
0.0
 41
1.0
 10
-690.96159600917008
 20
-2570.3402096173995
 30
0.0
 41
1.0
 10
-690.92264609433551
 20
-2570.12662396825
 30
0.0
 41
0.9996850305193138
 10
-690.89446241807684
 20
-2569.9113529628116
 30
0.0
 41
1.0
 10
-690.89246738470752
 20
-2569.8961146086899
 30
0.0
 41
1.0
 10
-690.8904723513383
 20
-2569.8808762545682
 30
0.0
 41
1.0
 10
-690.86306448887944
 20
-2569.6715310274121
 30
0.0
 41
0.9994697936706791
 10
-690.84933992965989
 20
-2569.4608458320818
 30
0.0
 41
1.0
 10
-690.84886286041012
 20
-2569.4535223598691
 30
0.0
 41
1.0
 10
-690.84838579116035
 20
-2569.4461988876565
 30
0.0
 41
1.0
 10
-690.83561537044034
 20
-2569.2501606367464
 30
0.0
 41
0.9991804893137197
 10
-690.83874368671286
 20
-2569.0537317867775
 30
0.0
 41
1.0
 10
-690.83882756553498
 20
-2569.0484649853643
 30
0.0
 41
1.0
 10
-690.83891144435711
 20
-2569.0431981839511
 30
0.0
 41
1.0
 10
-690.84187200298538
 20
-2568.8573029368035
 30
0.0
 41
0.9988448329321019
 10
-690.86266354860936
 20
-2568.6725503469706
 30
0.0
 41
1.0
 10
-690.86425762231261
 20
-2568.6583854911983
 30
0.0
 41
1.0
 10
-690.86585169601574
 20
-2568.6442206354259
 30
0.0
 41
1.0
 10
-690.88345509423323
 20
-2568.4877977571377
 30
0.0
 41
0.9985503209458939
 10
-690.91777136653263
 20
-2568.3341735730482
 30
0.0
 41
1.0
 10
-690.92535735860406
 20
-2568.3002132456468
 30
0.0
 41
1.0
 10
-690.93294335067549
 20
-2568.2662529182458
 30
0.0
 41
1.0
 10
-690.95208763883227
 20
-2568.1805493889574
 30
0.0
 41
0.999103678136952
 10
-690.97841250048305
 20
-2568.0967723016338
 30
0.0
 41
1.0
 10
-690.98239472593775
 20
-2568.0840991391269
 30
0.0
 41
1.0
 10
-690.98637695139246
 20
-2568.0714259766205
 30
0.0
 41
1.0
 10
-691.0047373621311
 20
-2568.0129952143193
 30
0.0
 41
0.9998874504369352
 10
-691.02484256981325
 20
-2567.9551416120858
 30
0.0
 41
1.0
 10
-691.04494777749289
 20
-2567.8972880098604
 30
0.0
 41
0.9994041637544882
 10
-691.06899639042729
 20
-2567.840959305971
 30
0.0
 41
1.0
 10
-691.07319317465067
 20
-2567.831129241491
 30
0.0
 41
1.0
 10
-691.07738995887394
 20
-2567.8212991770106
 30
0.0
 41
1.0
 10
-691.105268789869
 20
-2567.7559990110426
 30
0.0
 41
0.9991846840702281
 10
-691.13832514656269
 20
-2567.6931609797612
 30
0.0
 41
1.0
 10
-691.13946175295814
 20
-2567.6910003633056
 30
0.0
 41
1.0
 10
-691.1405983593537
 20
-2567.6888397468501
 30
0.0
 41
1.0
 10
-691.17138150325695
 20
-2567.6303229484793
 30
0.0
 41
0.9989253167924849
 10
-691.20745092731022
 20
-2567.5749080200908
 30
0.0
 41
1.0
 10
-691.20850505198428
 20
-2567.5732885253287
 30
0.0
 41
1.0
 10
-691.20955917665833
 20
-2567.5716690305667
 30
0.0
 41
1.0
 10
-691.24352035136428
 20
-2567.519493091701
 30
0.0
 41
0.9986467172833038
 10
-691.28271750400245
 20
-2567.471127058071
 30
0.0
 41
1.0
 10
-691.28359163270238
 20
-2567.4700484557934
 30
0.0
 41
1.0
 10
-691.28446576140232
 20
-2567.4689698535162
 30
0.0
 41
1.0
 10
-691.32191465663936
 20
-2567.4227610244429
 30
0.0
 41
0.998400110427124
 10
-691.36434138715731
 20
-2567.3810759170728
 30
0.0
 41
1.0
 10
-691.36492852526635
 20
-2567.3804990421922
 30
0.0
 41
1.0
 10
-691.36551566337528
 20
-2567.3799221673112
 30
0.0
 41
1.0
 10
-691.4067681176731
 20
-2567.3393908097046
 30
0.0
 41
0.9982442159081865
 10
-691.45252421900977
 20
-2567.3040222484433
 30
0.0
 41
1.0
 10
-691.45273901447149
 20
-2567.3038562157999
 30
0.0
 41
1.0
 10
-691.45295380993332
 20
-2567.303690183157
 30
0.0
 41
1.0
 10
-691.49828032034566
 20
-2567.2686536871829
 30
0.0
 41
0.9982450060836093
 10
-691.54743129941698
 20
-2567.2392219041499
 30
0.0
 41
1.0
 10
-691.59658227848615
 20
-2567.2097901211177
 30
0.0
 41
0.998392263963801
 10
-691.64874858464884
 20
-2567.1861104864643
 30
0.0
 41
1.0
 10
-691.64897546197562
 20
-2567.1860075009818
 30
0.0
 41
1.0
 10
-691.64920233930252
 20
-2567.1859045154993
 30
0.0
 41
1.0
 10
-691.70182240011798
 20
-2567.1620189098812
 30
0.0
 41
0.9986517147147048
 10
-691.75663537298863
 20
-2567.1437177907592
 30
0.0
 41
1.0
 10
-691.75731329441442
 20
-2567.1434914443284
 30
0.0
 41
1.0
 10
-691.75799121584032
 20
-2567.1432650978977
 30
0.0
 41
1.0
 10
-691.81416003156619
 20
-2567.1245112859128
 30
0.0
 41
0.9989435598957327
 10
-691.8718134187186
 20
-2567.110993583678
 30
0.0
 41
1.0
 10
-691.87289353829863
 20
-2567.1107403334254
 30
0.0
 41
1.0
 10
-691.87397365787865
 20
-2567.1104870831728
 30
0.0
 41
1.0
 10
-691.93378728419066
 20
-2567.0964628804327
 30
0.0
 41
0.999224924124031
 10
-691.99451879308469
 20
-2567.0871875377179
 30
0.0
 41
1.0
 10
-691.99593248137853
 20
-2567.0869716293096
 30
0.0
 41
1.0
 10
-691.99734616967226
 20
-2567.0867557209012
 30
0.0
 41
1.0
 10
-692.06090505515147
 20
-2567.0770485613702
 30
0.0
 41
0.9994396597833974
 10
-692.12497099168775
 20
-2567.0716156390245
 30
0.0
 41
1.0
 10
-692.1441116591659
 20
-2567.0699924713058
 30
0.0
 41
1.0
 10
-692.16325232664394
 20
-2567.0683693035871
 30
0.0
 41
1.0
 10
-692.26559959813562
 20
-2567.059690045804
 30
0.0
 41
0.9987693403121137
 10
-692.3683032217217
 20
-2567.0611931092567
 30
0.0
 41
1.0
 10
-692.37855755595342
 20
-2567.0613431810307
 30
0.0
 41
1.0
 10
-692.38881189018514
 20
-2567.0614932528051
 30
0.0
 41
1.0
 10
-692.4983676563603
 20
-2567.0630965970927
 30
0.0
 41
0.9989753644966156
 10
-692.60732965637317
 20
-2567.0745996040177
 30
0.0
 41
1.0
 10
-692.71629165638865
 20
-2567.0861026109433
 30
0.0
 41
0.9983190067308074
 10
-692.82319046735233
 20
-2567.1101376027291
 30
0.0
 41
1.0
 10
-692.83209141896066
 20
-2567.1121388812921
 30
0.0
 41
1.0
 10
-692.84099237056898
 20
-2567.1141401598552
 30
0.0
 41
1.0
 10
-692.96569308474807
 20
-2567.1421777087671
 30
0.0
 41
0.998553938830213
 10
-693.08666283842604
 20
-2567.1834413848128
 30
0.0
 41
1.0
 10
-693.08900826938634
 20
-2567.1842414286284
 30
0.0
 41
1.0
 10
-693.09135370034664
 20
-2567.1850414724445
 30
0.0
 41
1.0
 10
-693.21701431594875
 20
-2567.2279052361232
 30
0.0
 41
0.9988468746493043
 10
-693.33798465825043
 20
-2567.2826233211867
 30
0.0
 41
1.0
 10
-693.34116748023632
 20
-2567.2840629957454
 30
0.0
 41
1.0
 10
-693.34435030222221
 20
-2567.2855026703041
 30
0.0
 41
1.0
 10
-693.47168628849886
 20
-2567.3431001044864
 30
0.0
 41
0.9991322885919427
 10
-693.59378687255673
 20
-2567.4110954366688
 30
0.0
 41
1.0
 10
-693.61138888360051
 20
-2567.4208976386585
 30
0.0
 41
1.0
 10
-693.62899089464429
 20
-2567.4306998406482
 30
0.0
 41
1.0
 10
-693.73116757570006
 20
-2567.4875999564279
 30
0.0
 41
0.9993860037849071
 10
-693.82910857977413
 20
-2567.5515159720171
 30
0.0
 41
1.0
 10
-693.83472689262544
 20
-2567.5551824667114
 30
0.0
 41
1.0
 10
-693.84034520547675
 20
-2567.5588489614056
 30
0.0
 41
1.0
 10
-693.9270495838465
 20
-2567.615431987605
 30
0.0
 41
0.9998821494952356
 10
-694.0119759596605
 20
-2567.6746502176825
 30
0.0
 41
1.0
 10
-694.09690233547212
 20
-2567.7338684477581
 30
0.0
 41
0.9997976482744755
 10
-694.17937796586943
 20
-2567.7964548557952
 30
0.0
 41
1.0
 10
-694.19401423067836
 20
-2567.8075615455782
 30
0.0
 41
1.0
 10
-694.20865049548729
 20
-2567.8186682353607
 30
0.0
 41
1.0
 10
-694.32039865550473
 20
-2567.9034680229647
 30
0.0
 41
0.9998091630799565
 10
-694.42874893353257
 20
-2567.992568373666
 30
0.0
 41
1.0
 10
-694.44175468600815
 20
-2568.003263474111
 30
0.0
 41
1.0
 10
-694.45476043848385
 20
-2568.0139585745555
 30
0.0
 41
1.0
 10
-694.58912222146716
 20
-2568.1244491261491
 30
0.0
 41
0.9995035112315663
 10
-694.71625809922739
 20
-2568.2431829431625
 30
0.0
 41
1.0
 10
-694.7259054096146
 20
-2568.2521926893205
 30
0.0
 41
1.0
 10
-694.73555272000169
 20
-2568.261202435478
 30
0.0
 41
1.0
 10
-694.85897578276615
 20
-2568.3764688072338
 30
0.0
 41
0.9994630424299801
 10
-694.97458418855194
 20
-2568.4995715504706
 30
0.0
 41
1.0
 10
-694.97826702732345
 20
-2568.5034931299838
 30
0.0
 41
1.0
 10
-694.98194986609496
 20
-2568.507414709497
 30
0.0
 41
1.0
 10
-695.09019259433592
 20
-2568.6226742937056
 30
0.0
 41
0.9995160693749726
 10
-695.19105862386778
 20
-2568.7444417115785
 30
0.0
 41
1.0
 10
-695.19299234394748
 20
-2568.7467761357857
 30
0.0
 41
1.0
 10
-695.19492606402719
 20
-2568.7491105599925
 30
0.0
 41
1.0
 10
-695.29192465339952
 20
-2568.8662091294509
 30
0.0
 41
0.9996561470514251
 10
-695.38265087206628
 20
-2568.9882318918999
 30
0.0
 41
1.0
 10
-695.38880853796775
 20
-2568.9965136809415
 30
0.0
 41
1.0
 10
-695.39496620386922
 20
-2569.004795469983
 30
0.0
 41
1.0
 10
-695.47337709072963
 20
-2569.1102546543443
 30
0.0
 41
0.9998349055172162
 10
-695.54790437266411
 20
-2569.2184932380123
 30
0.0
 41
1.0
 10
-695.62243165460222
 20
-2569.3267318216863
 30
0.0
 41
0.9999728109562357
 10
-695.69535455051084
 20
-2569.4360577472376
 30
0.0
 41
1.0
 10
-695.69666976592043
 20
-2569.4380295167366
 30
0.0
 41
1.0
 10
-695.69798498133014
 20
-2569.4400012862361
 30
0.0
 41
1.0
 10
-695.77353830807408
 20
-2569.55327075081
 30
0.0
 41
0.999997214744808
 10
-695.84855611843398
 20
-2569.6668955936261
 30
0.0
 41
1.0
 10
-695.85352766105825
 20
-2569.6744256821016
 30
0.0
 41
1.0
 10
-695.85849920368264
 20
-2569.6819557705771
 30
0.0
 41
1.0
 10
-695.94346009929689
 20
-2569.8106407903524
 30
0.0
 41
0.9999371979006811
 10
-696.02551544870607
 20
-2569.9411977041364
 30
0.0
 41
1.0
 10
-696.0290243330677
 20
-2569.9467806322009
 30
0.0
 41
1.0
 10
-696.03253321742932
 20
-2569.9523635602659
 30
0.0
 41
1.0
 10
-696.12160633556005
 20
-2570.0940863301767
 30
0.0
 41
0.9998272025610755
 10
-696.20534972644111
 20
-2570.2390222069175
 30
0.0
 41
1.0
 10
-696.220564898465
 20
-2570.265355321374
 30
0.0
 41
1.0
 10
-696.235780070489
 20
-2570.2916884358301
 30
0.0
 41
1.0
 10
-696.34995380541852
 20
-2570.489290541484
 30
0.0
 41
0.9995217214837977
 10
-696.45169349497462
 20
-2570.693572869347
 30
0.0
 41
1.0
 10
-696.45933705760922
 20
-2570.708920319049
 30
0.0
 41
1.0
 10
-696.4669806202437
 20
-2570.7242677687509
 30
0.0
 41
1.0
 10
-696.55388591283406
 20
-2570.898764226833
 30
0.0
 41
0.9998269762607056
 10
-696.63424037910636
 20
-2571.0763725135585
 30
0.0
 41
1.0
 10
-696.71459484537581
 20
-2571.253980800278
 30
0.0
 41
0.9998944747387657
 10
-696.78975563994197
 20
-2571.4338485259104
 30
0.0
 41
1.0
 10
-696.79470930953289
 20
-2571.445703180827
 30
0.0
 41
1.0
 10
-696.7996629791237
 20
-2571.4575578357435
 30
0.0
 41
1.0
 10
-696.88031003967728
 20
-2571.6505547757633
 30
0.0
 41
0.9999506734409884
 10
-696.95710756858216
 20
-2571.8451155806215
 30
0.0
 41
1.0
 10
-696.97170753385035
 20
-2571.8821035024203
 30
0.0
 41
1.0
 10
-696.98630749911842
 20
-2571.919091424219
 30
0.0
 41
1.0
 10
-697.03390509749011
 20
-2572.0396763854878
 30
0.0
 41
0.9999912393920671
 10
-697.08049154150785
 20
-2572.1606555881735
 30
0.0
 41
1.0
 10
-697.1270779855306
 20
-2572.2816347908724
 30
0.0
 41
0.9999927113994791
 10
-697.17273927992574
 20
-2572.4029661983759
 30
0.0
 41
1.0
 10
-697.1867077113227
 20
-2572.4400831803723
 30
0.0
 41
1.0
 10
-697.20067614271966
 20
-2572.4772001623692
 30
0.0
 41
1.0
 10
-697.27427429990666
 20
-2572.6727655338605
 30
0.0
 41
0.9999487550949726
 10
-697.34389792488196
 20
-2572.8697808990523
 30
0.0
 41
1.0
 10
-697.36749153481901
 20
-2572.9365442093449
 30
0.0
 41
1.0
 10
-697.39108514475595
 20
-2573.0033075196379
 30
0.0
 41
1.0
 10
-697.48577077912341
 20
-2573.2712413544532
 30
0.0
 41
0.9999808436949413
 10
-697.57713236776772
 20
-2573.5403267857264
 30
0.0
 41
1.0
 10
-697.66849395641475
 20
-2573.8094122170078
 30
0.0
 41
0.999987393291459
 10
-697.75714866513056
 20
-2574.0794015720153
 30
0.0
 41
1.0
 10
-697.77724102199795
 20
-2574.1405909047626
 30
0.0
 41
1.0
 10
-697.79733337886546
 20
-2574.2017802375099
 30
0.0
 41
1.0
 10
-697.92617280132004
 20
-2574.5941482580229
 30
0.0
 41
0.9999794883037438
 10
-698.04997558628327
 20
-2574.9881344643159
 30
0.0
 41
1.0
 10
-698.06112784570814
 20
-2575.0236250745129
 30
0.0
 41
1.0
 10
-698.07228010513313
 20
-2575.0591156847099
 30
0.0
 41
1.0
 10
-698.21483826902067
 20
-2575.5127884367648
 30
0.0
 41
0.9999982761769305
 10
-698.3557107090669
 20
-2575.9669874589904
 30
0.0
 41
1.0
 10
-699.94385104163985
 20
-2581.0157571899936
 30
0.0
 41
1.0
 10
-701.53199137421279
 20
-2586.0645269209972
 30
0.0
 41
1.0
 10
-702.48074198568929
 20
-2586.0645269209972
 30
0.0
 41
1.0
 10
-703.42949259716579
 20
-2586.0645269209972
 30
0.0
 41
1.0
 10
-700.19120811101266
 20
-2575.7372047210511
 30
0.0
 41
1.0
 10
-696.95292362485952
 20
-2565.4098825211049
 30
0.0
 41
1.0
  0
LWPOLYLINE
  5
5F
100
AcDbEntity
  8
0
370
              15
390
0
  6
Continuous
 62
               7
100
AcDbPolyline
 90
      232
 70
             128
 10
-722.65646939868702
 20
-2566.4942253526197
 42
0.0004370800673702
 10
-722.70934657274097
 20
-2566.5628919918536
 10
-722.74863080388559
 20
-2566.613999104773
 42
0.0030481992177264
 10
-722.87896952100994
 20
-2566.7857207971247
 10
-722.91748119275462
 20
-2566.837107580905
 42
0.0042058245749002
 10
-723.12146624342154
 20
-2567.1141133259744
 10
-723.17387136592561
 20
-2567.1865461727593
 42
0.0120948898744662
 10
-723.46991528268563
 20
-2567.617295777306
 10
-723.56610778181164
 20
-2567.7647765125371
 42
0.0141601263948862
 10
-723.8697518287313
 20
-2568.2604458492688
 10
-723.90928909615639
 20
-2568.3292898166992
 42
0.0071131081299183
 10
-724.11456141939607
 20
-2568.6987926155389
 42
0.0068458791008669
 10
-724.30944094623919
 20
-2569.0738841790139
 10
-724.3162528086973
 20
-2569.0874458927383
 42
0.006412088029852
 10
-724.51439505873907
 20
-2569.4948703676541
 10
-724.5219297442577
 20
-2569.5108822243787
 42
0.0058857236437765
 10
-724.72468513612762
 20
-2569.9552583354107
 10
-724.73286006242279
 20
-2569.9737484890475
 42
0.0053189741896235
 10
-724.94156437508957
 20
-2570.4597119629616
 10
-724.95031218077247
 20
-2570.4806938411612
 42
0.0047503650423065
 10
-725.16628590692642
 20
-2571.0128932743787
 10
-725.17555415527158
 20
-2571.0363696504792
 42
0.0042071762167349
 10
-725.40010153900164
 20
-2571.6194632445536
 10
-725.4098509413484
 20
-2571.6454294194182
 42
0.0036680086492204
 10
-725.64430558466131
 20
-2572.2840648039523
 10
-725.65451336450815
 20
-2572.3125133382946
 42
0.0032573142619882
 10
-725.90014565047409
 20
-2573.0113659980466
 10
-725.9687961713164
 20
-2573.2108290821043
 42
0.0026133366646775
 10
-726.31724137007359
 20
-2574.2406923657727
 10
-726.38049815757392
 20
-2574.4309232011642
 42
0.0020592950740912
 10
-726.59436122654142
 20
-2575.0830268537784
 10
-726.59741301769964
 20
-2575.0924633421728
 42
0.0025609928535987
 10
-726.79923351918978
 20
-2575.7276085645544
 10
-726.80182488631499
 20
-2575.7359109054901
 42
0.0031362356233902
 10
-726.99131567199356
 20
-2576.3566737616743
 10
-726.99344671492031
 20
-2576.363815067883
 42
0.0037229918035174
 10
-727.17024710184751
 20
-2576.9728003698597
 10
-727.17192569105362
 20
-2576.9787472600333
 42
0.0043077623703819
 10
-727.33566649311842
 20
-2577.5785659918029
 42
0.0047654161822743
 10
-727.48849521563398
 20
-2578.1812520807034
 10
-727.52295982447367
 20
-2578.3228138578552
 42
0.0112969368447242
 10
-727.71882418261782
 20
-2579.2145060184803
 10
-727.74683057171433
 20
-2579.3573340645771
 42
0.0130056762571617
 10
-727.947667815361
 20
-2580.544275136222
 10
-727.96820756550744
 20
-2580.6883532496945
 42
0.0138721532144755
 10
-728.07191057004593
 20
-2581.5951827355248
 10
-728.09120605795385
 20
-2581.8186804574502
 42
0.0071254697012138
 10
-728.12455270387591
 20
-2582.2818674662972
 10
-728.12951367803873
 20
-2582.3678714608527
 42
0.0028881799195173
 10
-728.14465197132859
 20
-2582.6596131706997
 42
0.0060297297137678
 10
-728.15458417110426
 20
-2582.9515621068153
 10
-728.15564645277129
 20
-2582.999954478742
 42
0.0229523164149905
 10
-728.14791542498597
 20
-2583.3227093250312
 10
-728.14368965146582
 20
-2583.3831128590455
 42
0.0123673300680183
 10
-728.12461100494738
 20
-2583.5842335842221
 42
0.0128577674470025
 10
-728.09541561454091
 20
-2583.7841314341508
 10
-728.08828974115431
 20
-2583.8254602487459
 42
0.0285717853779091
 10
-728.02379573945893
 20
-2584.103576400058
 10
-728.01012721579264
 20
-2584.150231169534
 42
0.031628309914227
 10
-727.89431663587811
 20
-2584.4692456713624
 10
-727.89126794412255
 20
-2584.476232043688
 42
0.033898482425369
 10
-727.74183623315503
 20
-2584.7637980078771
 10
-727.73952750378589
 20
-2584.7675890371515
 42
0.035022871831951
 10
-727.55716721311137
 20
-2585.0246410218297
 10
-727.55628196133785
 20
-2585.025720099592
 42
0.0347476747538623
 10
-727.34185727409704
 20
-2585.2529051468141
 42
0.0331337701920914
 10
-727.09861394834627
 20
-2585.4490338088945
 10
-727.09751384983383
 20
-2585.4498065120642
 42
0.0305233319067431
 10
-726.82896915425817
 20
-2585.6149346821567
 10
-726.82573910975907
 20
-2585.616658694018
 42
0.0273744481154271
 10
-726.53318539818213
 20
-2585.7527968379095
 10
-726.52808086304731
 20
-2585.754840422378
 42
0.0240964406194966
 10
-726.21260378740658
 20
-2585.8638241486578
 10
-726.20602045819169
 20
-2585.8657488883346
 42
0.0209636179815335
 10
-725.86862030553527
 20
-2585.9492170362673
 10
-725.86098784509022
 20
-2585.950768949268
 42
0.0181388704690855
 10
-725.50266545309501
 20
-2586.0101850424812
 10
-725.4943846047131
 20
-2586.011251226299
 42
0.0156086547593744
 10
-725.11619724052059
 20
-2586.0479874128755
 10
-725.0730019881986
 20
-2586.0508259153544
 42
0.0137148329030164
 10
-724.74532884289829
 20
-2586.0633461706057
 10
-724.69939265292965
 20
-2586.063840603721
 42
0.0051057823894181
 10
-724.46324706638052
 20
-2586.0639708581302
 42
0.0052256693317555
 10
-724.2271497825875
 20
-2586.0592220336657
 10
-724.15692299885313
 20
-2586.057075067652
 42
0.0161507179052844
 10
-723.78118592075361
 20
-2586.0334246973252
 10
-723.7611729603791
 20
-2586.0315145020377
 42
0.0101216737830573
 10
-723.34714573889448
 20
-2585.9835215716735
 10
-723.31309244946124
 20
-2585.978873874863
 42
0.0245291776394069
 10
-722.83630279391139
 20
-2585.8897987967871
 10
-722.75147947839389
 20
-2585.8696028764425
 42
0.0143509212556791
 10
-722.39484837444661
 20
-2585.773798242662
 42
0.0156557857045206
 10
-722.04463230971112
 20
-2585.65678702684
 10
-722.03713109522459
 20
-2585.654016865089
 42
0.0170137333630538
 10
-721.68053509954109
 20
-2585.5083592502169
 10
-721.67343117713563
 20
-2585.5051714146543
 42
0.0183105364412606
 10
-721.31408150897641
 20
-2585.3278363728336
 10
-721.3071347443306
 20
-2585.3240859379575
 42
0.0194899958150865
 10
-720.94865400334766
 20
-2585.1121069560672
 10
-720.94164012401006
 20
-2585.1075816137718
 42
0.0204869852954703
 10
-720.58762582191764
 20
-2584.8580615986875
 10
-720.58036021332873
 20
-2584.8524815333376
 42
0.0212516938557827
 10
-720.23437028222008
 20
-2584.5625775364429
 10
-720.18785358814569
 20
-2584.5201102263504
 42
0.021524891825328
 10
-719.92782741925703
 20
-2584.261345947355
 10
-719.88279768487348
 20
-2584.2125018260022
 42
0.0114578554951219
 10
-719.72800553119896
 20
-2584.0366788925467
 10
-719.71681099521197
 20
-2584.023360129001
 42
0.0061531305147588
 10
-719.59033634921752
 20
-2583.869070595696
 42
0.0006325587130282
 10
-719.46595786500404
 20
-2583.7130672199419
 10
-719.44291773001487
 20
-2583.6840936993608
 42
0.0041897761546687
 10
-719.27446232603131
 20
-2583.4685743232844
 10
-719.21600020615051
 20
-2583.3924729763139
 42
0.0092993880033185
 10
-718.93938827892487
 20
-2583.0181942124277
 10
-718.85699378572656
 20
-2582.9022572088606
 42
0.0159321727096328
 10
-718.51038730308528
 20
-2582.3800829881047
 10
-718.46603116769654
 20
-2582.308403423855
 42
0.0085547317009172
 10
-718.23151940237085
 20
-2581.9145284746301
 42
0.0084601156900486
 10
-718.01054322492632
 20
-2581.5129016255942
 10
-718.00242775109791
 20
-2581.4975419433249
 42
0.0081429654282231
 10
-717.77917848066045
 20
-2581.0578204307844
 10
-717.77031831647628
 20
-2581.0396415887649
 42
0.0076574581334569
 10
-717.54391080590744
 20
-2580.5564587135077
 10
-717.53443116518565
 20
-2580.5353942352085
 42
0.0070682724202643
 10
-717.30398625737575
 20
-2580.0033569304205
 10
-717.29399597339716
 20
-2579.9793677414164
 42
0.006455951444735
 10
-717.05866276521635
 20
-2579.3930554748999
 10
-717.0482534070502
 20
-2579.366120549455
 42
0.0058311413910362
 10
-716.80720667028709
 20
-2578.7200884550693
 10
-716.79645159290021
 20
-2578.6902041139106
 42
0.0052312425814838
 10
-716.54887031485725
 20
-2577.9790017000687
 10
-716.53782647847993
 20
-2577.9461749880065
 42
0.0046680544799413
 10
-716.28289805074962
 20
-2577.1643486722633
 10
-716.24090590070432
 20
-2577.0313654349652
 42
0.0041666856434032
 10
-716.03761988830729
 20
-2576.3683966599538
 10
-715.99995744764658
 20
-2576.241815552311
 42
0.0015170975161483
 10
-715.87877086923027
 20
-2575.8299472008066
 42
-0.0004887993117879
 10
-715.75843109611606
 20
-2575.4178287887944
 10
-715.68195383861212
 20
-2575.1568714028235
 42
0.0002583378929194
 10
-715.40873926852157
 20
-2574.2228146995549
 10
-715.32696641898099
 20
-2573.9427154400951
 42
0.000663616967142
 10
-715.13309865895963
 20
-2573.2753625164742
 10
-715.12800200459867
 20
-2573.2577309335461
 42
0.0010589131328177
 10
-714.94655330369596
 20
-2572.6249995905455
 10
-714.94157123321793
 20
-2572.6074866835343
 42
0.001565552446104
 10
-714.7733010260331
 20
-2572.0088700043243
 10
-714.76847082562028
 20
-2571.9914778453963
 42
0.0021640440471739
 10
-714.61418085363175
 20
-2571.4264508273704
 10
-714.60954663420182
 20
-2571.4091860973767
 42
0.00287638718562
 10
-714.47003091614852
 20
-2570.8772181465297
 10
-714.46564505198
 20
-2570.8600941683703
 42
0.0037310511953396
 10
-714.34168836014533
 20
-2570.3606465743514
 10
-714.33761313985599
 20
-2570.3436863031043
 42
0.0047652197756974
 10
-714.22998923934801
 20
-2569.8762085348008
 10
-714.22629864002568
 20
-2569.8594489796556
 42
0.0060276699298396
 10
-714.13576854086978
 20
-2569.4233731845065
 10
-714.13254985058109
 20
-2569.4068719701995
 42
0.0075824337766748
 10
-714.05986054116465
 20
-2569.0016048057714
 10
-714.05721516378412
 20
-2568.985449858319
 42
0.0095130624612368
 10
-714.00309992815392
 20
-2568.6103605052485
 10
-713.99611370427158
 20
-2568.5544269471325
 42
0.0121054653214463
 10
-713.96952237369396
 20
-2568.2895311186585
 10
-713.96865588393416
 20
-2568.278127675726
 42
0.0069050827393605
 10
-713.95356706589655
 20
-2568.0351864488853
 10
-713.95243176622762
 20
-2568.011660191833
 42
0.0169063976692159
 10
-713.94960448724714
 20
-2567.8154674645398
 10
-713.950775138778
 20
-2567.7551317031962
 42
0.0052007733089303
 10
-713.95302858737296
 20
-2567.6795383130384
 42
0.0054038123398628
 10
-713.9729920992105
 20
-2567.5595200170301
 10
-713.97807795508152
 20
-2567.5308615304475
 42
0.0112050460426443
 10
-714.01346231713887
 20
-2567.3545350921177
 10
-714.03128727918147
 20
-2567.2749935053876
 42
0.0240764468011148
 10
-714.12218464532907
 20
-2566.9447564698798
 10
-714.14074340814034
 20
-2566.8881363048918
 42
0.0256812331839033
 10
-714.28410632832902
 20
-2566.5164120986351
 10
-714.28951575414908
 20
-2566.5042807636482
 42
0.0268360501227742
 10
-714.4589429950006
 20
-2566.1732876296246
 10
-714.46447940263499
 20
-2566.1637679593136
 42
0.0274670231723621
 10
-714.6566803790497
 20
-2565.8714805843947
 10
-714.6620616790118
 20
-2565.8642014368538
 42
0.0275035967093375
 10
-714.87363455857439
 20
-2565.6086855465492
 10
-714.87870405954209
 20
-2565.6032064589176
 42
0.026955767351923
 10
-715.10610760297959
 20
-2565.3825641729568
 10
-715.11085066076225
 20
-2565.3784342184958
 42
0.0259124802225605
 10
-715.35040549219275
 20
-2565.1907436913434
 10
-715.35493633737633
 20
-2565.1875581890117
 42
0.0245162152994397
 10
-715.60285269047063
 20
-2565.0308251799024
 10
-715.60737923679721
 20
-2565.0282649827004
 42
0.0229282588833435
 10
-715.8597987936223
 20
-2564.9003967902026
 10
-715.8645792874612
 20
-2564.8982444904395
 42
0.0212984135689439
 10
-716.11761723992049
 20
-2564.7970455731984
 10
-716.12292152489556
 20
-2564.7951820104363
 42
0.0197555462346394
 10
-716.37269986261299
 20
-2564.718366592474
 42
0.0183511896783724
 10
-716.6276285880673
 20
-2564.6607836855101
 10
-716.71399378480373
 20
-2564.6445808951225
 42
0.0338057877152558
 10
-716.99950113405839
 20
-2564.610772489983
 10
-717.09050653911584
 20
-2564.6061928347212
 42
0.0091990524505657
 10
-717.19635364773376
 20
-2564.6028169787996
 42
0.0028333980804716
 10
-717.3022675637128
 20
-2564.6019888712831
 10
-717.30318301677607
 20
-2564.601986901459
 42
-0.0023619827806508
 10
-717.41092903188553
 20
-2564.6012460603802
 10
-717.44733420205876
 20
-2564.6008237539172
 42
0.0008824598464461
 10
-717.62789019176319
 20
-2564.5990479756806
 10
-717.67175162431477
 20
-2564.5986940141538
 42
0.0038132665768456
 10
-717.9400345201949
 20
-2564.5985750780865
 10
-717.95656817498684
 20
-2564.5986938442302
 42
0.0060665569334493
 10
-718.25784866658853
 20
-2564.6045141436516
 10
-718.27209899860327
 20
-2564.604962451619
 42
0.008035695333477
 10
-718.6015577149293
 20
-2564.6206301736847
 10
-718.61362773002975
 20
-2564.6213987566261
 42
0.0098996399104157
 10
-718.96639081469345
 20
-2564.6508839858252
 10
-718.97643652405577
 20
-2564.6519242820223
 42
0.011774098136268
 10
-719.34759338240508
 20
-2564.6992165295524
 10
-719.35581607888753
 20
-2564.7004616461231
 42
0.0137435215140714
 10
-719.74040489837807
 20
-2564.769558619686
 10
-719.7470619374958
 20
-2564.7709445159185
 42
0.0158359869377747
 10
-720.14005903129441
 20
-2564.8658366043983
 10
-720.14547221816474
 20
-2564.8673265452699
 42
0.0180554124027503
 10
-720.5417872627836
 20
-2564.9919645615105
 10
-720.54634405086063
 20
-2564.9935805977748
 42
0.0203657431280611
 10
-720.94082156866909
 20
-2565.1518409392888
 10
-720.94496510767976
 20
-2565.1537025607322
 42
0.0226819684657083
 10
-721.3324011638864
 20
-2565.3493451394042
 10
-721.33660095490222
 20
-2565.3517107313228
 42
0.0248634984603986
 10
-721.71178289608383
 20
-2565.5883373772708
 10
-721.7599778248665
 20
-2565.6221944190956
 42
0.0267044190882345
 10
-722.03427052178313
 20
-2565.8376347949643
 42
0.0139303002198871
 10
-722.2904376877209
 20
-2566.0748736358755
 10
-722.29529107344251
 20
-2566.079626298736
 42
0.0283460963434154
 10
-722.53936366767039
 20
-2566.3473569591815
 10
-722.57903217282683
 20
-2566.3961585366542
 42
0.0070695364812129
 10
-722.65646939868702
 20
-2566.4942253526197
 42
0.0070695364812129
  0
LWPOLYLINE
  5
60
100
AcDbEntity
  8
0
370
              15
390
0
  6
Continuous
 62
               7
100
AcDbPolyline
 90
      226
 70
             128
 10
-726.1852898359316
 20
-2582.2158141588038
 42
-0.0026277636751212
 10
-726.18536771973345
 20
-2582.1490422330726
 10
-726.1851503615012
 20
-2582.0958870156178
 42
-0.0088680296720071
 10
-726.18137374520768
 20
-2581.9228712332069
 10
-726.17902738609564
 20
-2581.8635912077611
 42
-0.0077381705629711
 10
-726.16298127533207
 20
-2581.5723307119647
 10
-726.16211336415881
 20
-2581.5600424782779
 42
-0.0068872530511086
 10
-726.13548128441118
 20
-2581.2448207262146
 10
-726.13427706022458
 20
-2581.2325797471899
 42
-0.0062130021502824
 10
-726.09668334339676
 20
-2580.8937100559474
 10
-726.09517943986202
 20
-2580.8815361840348
 42
-0.0056726929666219
 10
-726.04625758036082
 20
-2580.5193409619319
 10
-726.04448413471482
 20
-2580.5072471616759
 42
-0.0052341884480489
 10
-725.98387354845624
 20
-2580.1220539061624
 10
-725.98185555967893
 20
-2580.1100489761657
 42
-0.004976845019256
 10
-725.90911687825269
 20
-2579.7022044087321
 10
-725.88486786353087
 20
-2579.5736564257272
 42
-0.0089029805618857
 10
-725.74778701173591
 20
-2578.9118809783067
 10
-725.71504163641703
 20
-2578.7668495477815
 42
-0.0080318257099264
 10
-725.48549302207618
 20
-2577.8211399159263
 10
-725.4735080956284
 20
-2577.7750092807378
 42
-0.0074265721319581
 10
-725.18949655677727
 20
-2576.7449447023528
 10
-725.16961701366176
 20
-2576.6768106417676
 42
-0.0069711922701339
 10
-724.84231243515524
 20
-2575.6105429014397
 10
-724.78236048805172
 20
-2575.4245215430747
 42
-0.0052070422893878
 10
-724.55293526279047
 20
-2574.7372494660376
 10
-724.5356540706282
 20
-2574.6872221854492
 42
-0.0009167004447182
 10
-724.33256218332872
 20
-2574.1027663372665
 42
-0.0025162726936623
 10
-724.12546455306324
 20
-2573.5197250730957
 10
-724.08823994126135
 20
-2573.4165755272002
 42
-0.0028212681462723
 10
-723.84006402229761
 20
-2572.7408448950277
 10
-723.83023325954457
 20
-2572.7145374503448
 42
-0.0031964916821024
 10
-723.5939410018841
 20
-2572.0943326882239
 10
-723.58430654788413
 20
-2572.0695226980779
 42
-0.0036281836444009
 10
-723.35920058678448
 20
-2571.5020820171876
 10
-723.34976217662779
 20
-2571.4787845856863
 42
-0.0041269166841324
 10
-723.13514447996795
 20
-2570.9613436897066
 10
-723.10251152354749
 20
-2570.8844652433468
 42
-0.0047472213051419
 10
-722.94546671799299
 20
-2570.5240437754619
 10
-722.93857263678569
 20
-2570.508623178132
 42
-0.00256516599905
 10
-722.79021460293507
 20
-2570.1812951223815
 42
-0.0057144635003452
 10
-722.63646490916233
 20
-2569.8564854490164
 10
-722.60843420376307
 20
-2569.7989770666263
 42
-0.0065388068367927
 10
-722.42496717602216
 20
-2569.4347445699595
 10
-722.41650872024582
 20
-2569.4184849905942
 42
-0.0074510843031391
 10
-722.2403264743657
 20
-2569.0917967094674
 10
-722.23214680383398
 20
-2569.0771559321975
 42
-0.0084648979848498
 10
-722.0625129507348
 20
-2568.7852469212376
 10
-722.05465682424438
 20
-2568.7722399295826
 42
-0.0095638542807271
 10
-721.89082137665309
 20
-2568.5123510576082
 10
-721.88334643298265
 20
-2568.5009816961547
 42
-0.010719162681727
 10
-721.72454485259323
 20
-2568.2703704616088
 10
-721.7175281188654
 20
-2568.2606343692487
 42
-0.0118458573884903
 10
-721.56298002034919
 20
-2568.0565621739333
 42
-0.0129184518193467
 10
-721.39852739674245
 20
-2567.8604016577565
 10
-721.36838262438596
 20
-2567.8262755788642
 42
-0.021774257964077
 10
-721.19177030205037
 20
-2567.6430688086134
 10
-721.18102475759281
 20
-2567.6328519754134
 42
-0.0097266568664051
 10
-721.01496713873394
 20
-2567.4810044009732
 42
-0.0187720905703819
 10
-720.84061956284086
 20
-2567.3389355475815
 10
-720.80991357217533
 20
-2567.3157764651919
 42
-0.0179428207520356
 10
-720.57749285217369
 20
-2567.1532242880762
 10
-720.57384052525481
 20
-2567.1508603531865
 42
-0.0170047877691462
 10
-720.33807688772731
 20
-2567.0093998390366
 10
-720.3342938989764
 20
-2567.0073015339981
 42
-0.0160190788356994
 10
-720.09738535134557
 20
-2566.8856502320123
 42
-0.0151102861473621
 10
-719.85335356889004
 20
-2566.778967455954
 10
-719.80096706668746
 20
-2566.7579273230631
 42
-0.0271945441889518
 10
-719.44230450763018
 20
-2566.6360625123571
 10
-719.37323970714613
 20
-2566.6167129710921
 42
-0.0237596594022197
 10
-718.95744286011859
 20
-2566.5212622591093
 10
-718.88938000638154
 20
-2566.5090075709813
 42
-0.0213715440551753
 10
-718.60350507494286
 20
-2566.4700605394728
 10
-718.54335790873677
 20
-2566.4644708247729
 42
-0.0101465655834788
 10
-718.37586537673133
 20
-2566.4523272815077
 10
-718.36652499053764
 20
-2566.4518403665106
 42
-0.0100375910893507
 10
-718.21737088997043
 20
-2566.4470645485849
 10
-718.20711162028078
 20
-2566.4469421095705
 42
-0.010362563337974
 10
-718.07840362563502
 20
-2566.4480735430971
 10
-718.05613797436808
 20
-2566.4487309015622
 42
-0.0115689250262823
 10
-717.97208723683934
 20
-2566.4531604078074
 42
-0.0072438037463549
 10
-717.88824895741561
 20
-2566.460749607555
 10
-717.87144844792738
 20
-2566.4625161502809
 42
-0.0217917313122267
 10
-717.75487868460948
 20
-2566.4799360430029
 10
-717.68927859404334
 20
-2566.4926826514175
 42
-0.0332943556764983
 10
-717.4848864290193
 20
-2566.5467229427236
 10
-717.45471386046484
 20
-2566.5568910198435
 42
-0.0184824084772727
 10
-717.31620880400396
 20
-2566.6093420352286
 42
-0.0198002050705629
 10
-717.18213446350694
 20
-2566.6722260954261
 10
-717.18024782612656
 20
-2566.6732038823079
 42
-0.0212242342991514
 10
-717.04810888372276
 20
-2566.7489666211027
 10
-717.04629358818192
 20
-2566.7501124233095
 42
-0.0226090605772792
 10
-716.91778968696212
 20
-2566.8395920668727
 10
-716.91594524522361
 20
-2566.841004319861
 42
-0.0238457052243574
 10
-716.7927631639302
 20
-2566.9450002157241
 10
-716.79081043537144
 20
-2566.9468150934899
 42
-0.0248160564163663
 10
-716.67460892806764
 20
-2567.066089694702
 10
-716.67250529466901
 20
-2567.0684750284026
 42
-0.0254109591431339
 10
-716.56490007680304
 20
-2567.2037634143676
 10
-716.56265205488899
 20
-2567.206904962768
 42
-0.0255528488282549
 10
-716.46520537609047
 20
-2567.3589320170022
 10
-716.46287427617472
 20
-2567.3630136286092
 42
-0.0252146793255227
 10
-716.37709325016533
 20
-2567.5325158746077
 10
-716.37479101100826
 20
-2567.5376979565194
 42
-0.024426563590259
 10
-716.30213631724666
 20
-2567.7254445285666
 10
-716.29288991577903
 20
-2567.753309946901
 42
-0.0231319612937425
 10
-716.24696713678577
 20
-2567.9166109937055
 42
-0.0112130424345579
 10
-716.21233111424749
 20
-2568.0828145938967
 10
-716.21112858913557
 20
-2568.0893111807814
 42
-0.0210527881222865
 10
-716.18544211376468
 20
-2568.270366826222
 10
-716.18193151894275
 20
-2568.3057723747697
 42
-0.0190029892429859
 10
-716.16649004539795
 20
-2568.5593082210412
 10
-716.16568006895386
 20
-2568.5947838354114
 42
-0.0137974553669148
 10
-716.16722892178962
 20
-2568.9198152421377
 10
-716.16807437674549
 20
-2568.9459339867367
 42
-0.0081336634211471
 10
-716.18293371196842
 20
-2569.2512814543365
 42
-0.0073526923570101
 10
-716.2072422453424
 20
-2569.5560296986177
 10
-716.20850366912555
 20
-2569.5693663732877
 42
-0.0066886138688135
 10
-716.24423925517146
 20
-2569.8999524167871
 10
-716.2458963446411
 20
-2569.9135740357765
 42
-0.0061359187365843
 10
-716.29374694669207
 20
-2570.2703380158791
 10
-716.29578444776462
 20
-2570.2842328187057
 42
-0.005669861006001
 10
-716.35643477853273
 20
-2570.6675113875472
 10
-716.35884021185529
 20
-2570.6816705067745
 42
-0.0052721077276049
 10
-716.43297241265634
 20
-2571.0917978464577
 10
-716.43573556149704
 20
-2571.1062144818384
 42
-0.0049289272181304
 10
-716.52402967959529
 20
-2571.5435229929521
 10
-716.52714217427956
 20
-2571.5581918457765
 42
-0.0047415956716518
 10
-716.63038016581197
 20
-2572.0229886031871
 10
-716.66514837617206
 20
-2572.1727956985706
 42
-0.0084404470895616
 10
-716.85516481974446
 20
-2572.9330197231034
 10
-716.86129150772967
 20
-2572.9558838472553
 42
-0.0039635940262982
 10
-717.08274519201143
 20
-2573.7568727114958
 10
-717.09612198719287
 20
-2573.8038043280944
 42
-0.007247504083548
 10
-717.36356887505644
 20
-2574.6930240444854
 10
-717.43378120188049
 20
-2574.914764394447
 42
-0.0051345458828505
 10
-717.72054057394189
 20
-2575.7890895822675
 10
-717.74206684071555
 20
-2575.8525158494158
 42
-0.0019150016608591
 10
-717.99760024757643
 20
-2576.5960649696235
 10
-718.00406785196901
 20
-2576.6146524345345
 42
-0.0021524362741856
 10
-718.25254590303621
 20
-2577.3189782562531
 10
-718.26175632372929
 20
-2577.3447318345457
 42
-0.0024331286830139
 10
-718.49801158276796
 20
-2577.995331142673
 10
-718.50705953532224
 20
-2578.0198744490372
 42
-0.0027449721790068
 10
-718.73167410615451
 20
-2578.6190043279516
 10
-718.74056411354081
 20
-2578.6423269177881
 42
-0.0031083229764895
 10
-718.95410660015705
 20
-2579.1922509553833
 10
-718.96284273183289
 20
-2579.2143406712416
 42
-0.0035311343284762
 10
-719.16588391742471
 20
-2579.7173237969714
 10
-719.17446925657021
 20
-2579.7381665204762
 42
-0.0040245640947136
 10
-719.36758106036677
 20
-2580.196475843074
 10
-719.37601717397183
 20
-2580.2160552111509
 42
-0.0046015135854644
 10
-719.55977346713325
 20
-2580.6319602407884
 10
-719.56805964496118
 20
-2580.65025738024
 42
-0.0052768638265923
 10
-719.74303716391705
 20
-2581.0260302645111
 10
-719.75116937454516
 20
-2581.0430236030566
 42
-0.0060672675641447
 10
-719.91794898730996
 20
-2581.3809392261683
 10
-719.92591846778998
 20
-2581.3966044851627
 42
-0.0069904648867364
 10
-720.08508686179312
 20
-2581.6989402918293
 10
-720.09287826140257
 20
-2581.7132508410541
 42
-0.0080637022754709
 10
-720.2450301217491
 20
-2581.9822861442099
 10
-720.25261915437954
 20
-2581.9952140098094
 42
-0.0093006455695015
 10
-720.39835983091189
 20
-2582.2332284083136
 10
-720.40571049765572
 20
-2582.244746377487
 42
-0.0107060778039579
 10
-720.5456590410945
 20
-2582.4540166948655
 10
-720.552720809373
 20
-2582.4641022374299
 42
-0.0122723111423533
 10
-720.68751452757215
 20
-2582.6468955669206
 10
-720.68784075112524
 20
-2582.647315954729
 42
-0.0141836319626027
 10
-720.8314223541006
 20
-2582.8218857125594
 10
-720.83837010974958
 20
-2582.8298607128208
 42
-0.0175957477210703
 10
-720.97827627778724
 20
-2582.9794816012291
 42
-0.008046635966633
 10
-721.12574004281919
 20
-2583.1218041293823
 10
-721.17177458733431
 20
-2583.1648245674714
 42
-0.0269600260400791
 10
-721.42505483331638
 20
-2583.3771478259805
 10
-721.49162196961265
 20
-2583.4270992406041
 42
-0.0178362839758098
 10
-721.7315664592702
 20
-2583.5941171668574
 10
-721.73881143027131
 20
-2583.5987856790625
 42
-0.0174650732639771
 10
-721.97514762771289
 20
-2583.7396466440214
 42
-0.0169240130145168
 10
-722.22061387356939
 20
-2583.8639389037985
 10
-722.26660002912786
 20
-2583.885300859366
 42
-0.0318883036843085
 10
-722.61695088474391
 20
-2584.021639168875
 10
-722.68531641991524
 20
-2584.0433397893521
 42
-0.0284435909899708
 10
-723.06136654620377
 20
-2584.1395572248257
 10
-723.09652470670244
 20
-2584.1464508206541
 42
-0.024390934101544
 10
-723.40996816762117
 20
-2584.1921718516846
 10
-723.46024889440196
 20
-2584.1970173985874
 42
-0.0196639292923299
 10
-723.67584447191939
 20
-2584.2092656841
 10
-723.72766854306315
 20
-2584.2101689448364
 42
-0.0100501510713688
 10
-723.84009182474665
 20
-2584.2098685464834
 10
-723.87175168607553
 20
-2584.209147474598
 42
-0.0019752031143502
 10
-723.9208440227726
 20
-2584.2078353143884
 10
-723.92360432596774
 20
-2584.2077506225628
 42
0.0065378751956989
 10
-723.96718090075001
 20
-2584.2069837313475
 42
-0.0167974694630981
 10
-724.01071172368552
 20
-2584.2053238328208
 10
-724.01479106294346
 20
-2584.2050308219259
 42
-0.0081283276288934
 10
-724.06635086067945
 20
-2584.2004838282883
 10
-724.07809043456064
 20
-2584.1992559107098
 42
-0.0126703440183779
 10
-724.1528087303526
 20
-2584.1895211196388
 10
-724.17559659803146
 20
-2584.185962863723
 42
-0.0117852088426756
 10
-724.29513558386225
 20
-2584.1643998685663
 10
-724.3505160356267
 20
-2584.1530563283313
 42
-0.0251774592296336
 10
-724.57736007463529
 20
-2584.0945583188982
 10
-724.62207926448684
 20
-2584.0805914995626
 42
-0.0146525199888121
 10
-724.80847225202297
 20
-2584.0163249723651
 42
-0.016692943585706
 10
-724.99044990814662
 20
-2583.9405178393117
 10
-724.99510653942298
 20
-2583.9383929386963
 42
-0.0191684358430963
 10
-725.18029017067374
 20
-2583.8451568549058
 10
-725.18362275642949
 20
-2583.8433156073534
 42
-0.0221181781809536
 10
-725.36693306033203
 20
-2583.7311821089825
 10
-725.36928286434022
 20
-2583.7295978109914
 42
-0.0254984685380304
 10
-725.54557301472221
 20
-2583.5971866610248
 10
-725.5680551624273
 20
-2583.5784343520854
 42
-0.0292492648799164
 10
-725.69282410127062
 20
-2583.4613415524423
 42
-0.0159048957513819
 10
-725.80666409871958
 20
-2583.3333215608445
 10
-725.80798288930009
 20
-2583.3317399478233
 42
-0.0343813379566487
 10
-725.91062015092541
 20
-2583.1898686220552
 10
-725.94211168228719
 20
-2583.1393652299598
 42
-0.0369117275701783
 10
-726.02800418418474
 20
-2582.9758879890114
 42
-0.0191751379921708
 10
-726.09519756974407
 20
-2582.803483382997
 10
-726.09696089350064
 20
-2582.7983900383306
 42
-0.0378178042205184
 10
-726.14675561228421
 20
-2582.6094492622506
 10
-726.15275090801504
 20
-2582.576888644051
 42
-0.018484604649665
 10
-726.17346810730896
 20
-2582.4351358235076
 42
-0.01798663512453
 10
-726.18380111238378
 20
-2582.2922450104247
 10
-726.1838575548295
 20
-2582.2906873238135
 42
-0.0085497186139412
 10
-726.1852898359316
 20
-2582.2158141588038
 42
-0.0085497186139412
  0
ENDBLK
  5
61
100
AcDbEntity
  8
template
390
0
100
AcDbBlockEnd
  0
BLOCK
  5
62
100
AcDbEntity
  8
template
390
0
100
AcDbBlockBegin
  2
*D3
 70
               1
 10
0.0
 20
0.0
 30
0.0
  3
*D3
  1

  0
LINE
  5
63
100
AcDbEntity
  8
0
370
              -2
390
0
  6
Continuous
 62
               0
100
AcDbLine
 10
598.68811136914064
 20
-578.79143965531466
 30
0.0
 11
602.375
 21
-578.79143965531466
 31
0.0
  0
LINE
  5
64
100
AcDbEntity
  8
0
370
              -2
390
0
  6
Continuous
 62
               0
100
AcDbLine
 10
598.78146729963441
 20
-433.79143965531466
 30
0.0
 11
602.375
 21
-433.79143965531466
 31
0.0
  0
LINE
  5
65
100
AcDbEntity
  8
0
370
              -2
390
0
  6
Continuous
 62
               0
100
AcDbLine
 10
602.375
 20
-433.79143965531466
 30
0.0
 11
602.375
 21
-360.37499663564904
 31
0.0
  0
LINE
  5
66
100
AcDbEntity
  8
0
370
              -2
390
0
  6
Continuous
 62
               0
100
AcDbLine
 10
602.375
 20
-578.79143965531466
 30
0.0
 11
602.375
 21
-433.79143965531466
 31
0.0
  0
CIRCLE
  5
67
102
{ACAD_REACTORS
330
68
102
}
100
AcDbEntity
  8
0
370
              -2
390
0
  6
Continuous
 62
               0
100
AcDbCircle
 10
602.375
 20
-578.79143965531466
 30
0.0
 40
1.9998779296875
  0
HATCH
  5
68
100
AcDbEntity
  8
0
370
              -2
390
0
  6
Continuous
 62
               0
100
AcDbHatch
 10
0.0
 20
0.0
 30
0.0
210
0.0
220
0.0
230
1.0
  2
SOLID
 70
               1
 71
               1
 91
        1
 92
        1
 93
        1
 72
               2
 10
602.375
 20
-578.79143965531466
 40
1.9998779296875
 50
0.0
 51
360.0
 73
               0
 97
        1
330
67
 75
               0
 76
               1
 98
        1
 10
0.0
 20
0.0
  0
CIRCLE
  5
69
102
{ACAD_REACTORS
330
6A
102
}
100
AcDbEntity
  8
0
370
              -2
390
0
  6
Continuous
 62
               0
100
AcDbCircle
 10
602.375
 20
-433.79143965531466
 30
0.0
 40
1.9998779296875
  0
HATCH
  5
6A
100
AcDbEntity
  8
0
370
              -2
390
0
  6
Continuous
 62
               0
100
AcDbHatch
 10
0.0
 20
0.0
 30
0.0
210
0.0
220
0.0
230
1.0
  2
SOLID
 70
               1
 71
               1
 91
        1
 92
        1
 93
        1
 72
               2
 10
602.375
 20
-433.79143965531466
 40
1.9998779296875
 50
0.0
 51
360.0
 73
               0
 97
        1
330
69
 75
               0
 76
               1
 98
        1
 10
0.0
 20
0.0
  0
MTEXT
  5
6B
100
AcDbEntity
  8
0
390
0
 62
               0
100
AcDbMText
 10
568.49738281250006
 20
-408.0
 30
0.0
 40
24.432617187500004
 41
0.0
 71
               1
 72
               1
  1
145
  7
ＭＳ ゴシック
 11
0.0
 21
1.0
 31
0.0
 73
               1
 44
0.7828267384257843
  0
POINT
  5
6C
100
AcDbEntity
  8
Defpoints
370
               0
390
0
 62
               0
100
AcDbPoint
 10
573.78146729963441
 20
-433.79143965531466
 30
0.0
  0
POINT
  5
6D
100
AcDbEntity
  8
Defpoints
370
               0
390
0
 62
               0
100
AcDbPoint
 10
573.68811136914064
 20
-578.79143965531466
 30
0.0
  0
POINT
  5
6E
100
AcDbEntity
  8
Defpoints
370
               0
390
0
 62
               0
100
AcDbPoint
 10
602.375
 20
-578.79143965531466
 30
0.0
  0
ENDBLK
  5
6F
100
AcDbEntity
  8
template
390
0
100
AcDbBlockEnd
  0
BLOCK
  5
70
100
AcDbEntity
  8
template
390
0
100
AcDbBlockBegin
  2
*D4
 70
               1
 10
0.0
 20
0.0
 30
0.0
  3
*D4
  1

  0
LINE
  5
71
100
AcDbEntity
  8
0
370
              -2
390
0
  6
Continuous
 62
               0
100
AcDbLine
 10
743.10633619815246
 20
-443.73164116551334
 30
0.0
 11
735.10633619815246
 21
-443.73164116551334
 31
0.0
  0
LINE
  5
72
100
AcDbEntity
  8
0
370
              -2
390
0
  6
Continuous
 62
               0
100
AcDbLine
 10
743.10633619815246
 20
-433.71877132454279
 30
0.0
 11
735.10633619815246
 21
-433.71877132454279
 31
0.0
  0
LINE
  5
73
100
AcDbEntity
  8
0
370
              -2
390
0
  6
Continuous
 62
               0
100
AcDbLine
 10
735.10633619815246
 20
-433.71877132454279
 30
0.0
 11
735.10633619815246
 21
-381.25
 31
0.0
  0
LINE
  5
74
100
AcDbEntity
  8
0
370
              -2
390
0
  6
Continuous
 62
               0
100
AcDbLine
 10
735.10633619815246
 20
-443.73164116551334
 30
0.0
 11
735.10633619815246
 21
-433.71877132454279
 31
0.0
  0
CIRCLE
  5
75
102
{ACAD_REACTORS
330
76
102
}
100
AcDbEntity
  8
0
370
              -2
390
0
  6
Continuous
 62
               0
100
AcDbCircle
 10
735.10633619815246
 20
-443.73164116551334
 30
0.0
 40
1.9998779296875
  0
HATCH
  5
76
100
AcDbEntity
  8
0
370
              -2
390
0
  6
Continuous
 62
               0
100
AcDbHatch
 10
0.0
 20
0.0
 30
0.0
210
0.0
220
0.0
230
1.0
  2
SOLID
 70
               1
 71
               1
 91
        1
 92
        1
 93
        1
 72
               2
 10
735.10633619815246
 20
-443.73164116551334
 40
1.9998779296875
 50
0.0
 51
360.0
 73
               0
 97
        1
330
75
 75
               0
 76
               1
 98
        1
 10
0.0
 20
0.0
  0
CIRCLE
  5
77
102
{ACAD_REACTORS
330
78
102
}
100
AcDbEntity
  8
0
370
              -2
390
0
  6
Continuous
 62
               0
100
AcDbCircle
 10
735.10633619815246
 20
-433.71877132454279
 30
0.0
 40
1.9998779296875
  0
HATCH
  5
78
100
AcDbEntity
  8
0
370
              -2
390
0
  6
Continuous
 62
               0
100
AcDbHatch
 10
0.0
 20
0.0
 30
0.0
210
0.0
220
0.0
230
1.0
  2
SOLID
 70
               1
 71
               1
 91
        1
 92
        1
 93
        1
 72
               2
 10
735.10633619815246
 20
-433.71877132454279
 40
1.9998779296875
 50
0.0
 51
360.0
 73
               0
 97
        1
330
77
 75
               0
 76
               1
 98
        1
 10
0.0
 20
0.0
  0
MTEXT
  5
79
100
AcDbEntity
  8
0
390
0
 62
               0
100
AcDbMText
 10
701.22871901065241
 20
-413.0
 30
0.0
 40
24.432617187500004
 41
0.0
 71
               1
 72
               1
  1
10
  7
ＭＳ ゴシック
 11
0.0
 21
1.0
 31
0.0
 73
               1
 44
0.7828267384257843
  0
POINT
  5
7A
100
AcDbEntity
  8
Defpoints
370
               0
390
0
 62
               0
100
AcDbPoint
 10
718.10633619815246
 20
-433.71877132454279
 30
0.0
  0
POINT
  5
7B
100
AcDbEntity
  8
Defpoints
370
               0
390
0
 62
               0
100
AcDbPoint
 10
718.10633619815246
 20
-443.73164116551334
 30
0.0
  0
POINT
  5
7C
100
AcDbEntity
  8
Defpoints
370
               0
390
0
 62
               0
100
AcDbPoint
 10
735.10633619815246
 20
-443.73164116551334
 30
0.0
  0
ENDBLK
  5
7D
100
AcDbEntity
  8
template
390
0
100
AcDbBlockEnd
  0
BLOCK
  5
7E
100
AcDbEntity
  8
notes
390
0
100
AcDbBlockBegin
  2
*D5
 70
               1
 10
0.0
 20
0.0
 30
0.0
  3
*D5
  1

  0
LINE
  5
7F
100
AcDbEntity
  8
0
370
              -2
390
0
  6
Continuous
 62
               0
100
AcDbLine
 10
-750.00000000007503
 20
764.52032148594378
 30
0.0
 11
-750.00000000007503
 21
978.05696815260796
 31
0.0
  0
LINE
  5
80
100
AcDbEntity
  8
0
370
              -2
390
0
  6
Continuous
 62
               0
100
AcDbLine
 10
-50.000000000073669
 20
764.52032148594378
 30
0.0
 11
-50.000000000073669
 21
978.05696815260796
 31
0.0
  0
LINE
  5
81
100
AcDbEntity
  8
0
370
              -2
390
0
  6
Continuous
 62
               0
100
AcDbLine
 10
-750.00000000007503
 20
978.05696815260796
 30
0.0
 11
-50.000000000073669
 21
978.05696815260796
 31
0.0
  0
CIRCLE
  5
82
102
{ACAD_REACTORS
330
83
102
}
100
AcDbEntity
  8
0
370
              -2
390
0
  6
Continuous
 62
               0
100
AcDbCircle
 10
-750.00000000007503
 20
978.05696815260796
 30
0.0
 40
1.9998779296875
  0
HATCH
  5
83
100
AcDbEntity
  8
0
370
              -2
390
0
  6
Continuous
 62
               0
100
AcDbHatch
 10
0.0
 20
0.0
 30
0.0
210
0.0
220
0.0
230
1.0
  2
SOLID
 70
               1
 71
               1
 91
        1
 92
        1
 93
        1
 72
               2
 10
-750.00000000007503
 20
978.05696815260796
 40
1.9998779296875
 50
0.0
 51
360.0
 73
               0
 97
        1
330
82
 75
               0
 76
               1
 98
        1
 10
0.0
 20
0.0
  0
CIRCLE
  5
84
102
{ACAD_REACTORS
330
85
102
}
100
AcDbEntity
  8
0
370
              -2
390
0
  6
Continuous
 62
               0
100
AcDbCircle
 10
-50.000000000073669
 20
978.05696815260796
 30
0.0
 40
1.9998779296875
  0
HATCH
  5
85
100
AcDbEntity
  8
0
370
              -2
390
0
  6
Continuous
 62
               0
100
AcDbHatch
 10
0.0
 20
0.0
 30
0.0
210
0.0
220
0.0
230
1.0
  2
SOLID
 70
               1
 71
               1
 91
        1
 92
        1
 93
        1
 72
               2
 10
-50.000000000073669
 20
978.05696815260796
 40
1.9998779296875
 50
0.0
 51
360.0
 73
               0
 97
        1
330
84
 75
               0
 76
               1
 98
        1
 10
0.0
 20
0.0
  0
MTEXT
  5
86
100
AcDbEntity
  8
0
390
0
 62
               0
100
AcDbMText
 10
-423.37156731838013
 20
1011.934585340108
 30
0.0
 40
24.432617187500004
 41
0.0
 71
               1
 72
               1
  1
700
  7
ＭＳ ゴシック
 73
               1
 44
0.7828267384257843
  0
POINT
  5
87
100
AcDbEntity
  8
Defpoints
370
               0
390
0
 62
               0
100
AcDbPoint
 10
-50.000000000073669
 20
739.52032148594378
 30
0.0
  0
POINT
  5
88
100
AcDbEntity
  8
Defpoints
370
               0
390
0
 62
               0
100
AcDbPoint
 10
-750.00000000007503
 20
739.52032148594378
 30
0.0
  0
POINT
  5
89
100
AcDbEntity
  8
Defpoints
370
               0
390
0
 62
               0
100
AcDbPoint
 10
-750.00000000007503
 20
978.05696815260796
 30
0.0
  0
ENDBLK
  5
8A
100
AcDbEntity
  8
notes
390
0
100
AcDbBlockEnd
  0
BLOCK
  5
8B
100
AcDbEntity
  8
notes
390
0
100
AcDbBlockBegin
  2
*D6
 70
               1
 10
0.0
 20
0.0
 30
0.0
  3
*D6
  1

  0
LINE
  5
8C
100
AcDbEntity
  8
0
370
              -2
390
0
  6
Continuous
 62
               0
100
AcDbLine
 10
-499.35906563620483
 20
706.47007354823279
 30
0.0
 11
-499.35906563620483
 21
878.05696815260796
 31
0.0
  0
LINE
  5
8D
100
AcDbEntity
  8
0
370
              -2
390
0
  6
Continuous
 62
               0
100
AcDbLine
 10
-399.34183691226667
 20
719.97007354823302
 30
0.0
 11
-399.34183691226667
 21
878.05696815260796
 31
0.0
  0
LINE
  5
8E
100
AcDbEntity
  8
0
370
              -2
390
0
  6
Continuous
 62
               0
100
AcDbLine
 10
-499.35906563620483
 20
878.05696815260796
 30
0.0
 11
-399.34183691226667
 21
878.05696815260796
 31
0.0
  0
CIRCLE
  5
8F
102
{ACAD_REACTORS
330
90
102
}
100
AcDbEntity
  8
0
370
              -2
390
0
  6
Continuous
 62
               0
100
AcDbCircle
 10
-499.35906563620483
 20
878.05696815260796
 30
0.0
 40
1.9998779296875
  0
HATCH
  5
90
100
AcDbEntity
  8
0
370
              -2
390
0
  6
Continuous
 62
               0
100
AcDbHatch
 10
0.0
 20
0.0
 30
0.0
210
0.0
220
0.0
230
1.0
  2
SOLID
 70
               1
 71
               1
 91
        1
 92
        1
 93
        1
 72
               2
 10
-499.35906563620483
 20
878.05696815260796
 40
1.9998779296875
 50
0.0
 51
360.0
 73
               0
 97
        1
330
8F
 75
               0
 76
               1
 98
        1
 10
0.0
 20
0.0
  0
CIRCLE
  5
91
102
{ACAD_REACTORS
330
92
102
}
100
AcDbEntity
  8
0
370
              -2
390
0
  6
Continuous
 62
               0
100
AcDbCircle
 10
-399.34183691226667
 20
878.05696815260796
 30
0.0
 40
1.9998779296875
  0
HATCH
  5
92
100
AcDbEntity
  8
0
370
              -2
390
0
  6
Continuous
 62
               0
100
AcDbHatch
 10
0.0
 20
0.0
 30
0.0
210
0.0
220
0.0
230
1.0
  2
SOLID
 70
               1
 71
               1
 91
        1
 92
        1
 93
        1
 72
               2
 10
-399.34183691226667
 20
878.05696815260796
 40
1.9998779296875
 50
0.0
 51
360.0
 73
               0
 97
        1
330
91
 75
               0
 76
               1
 98
        1
 10
0.0
 20
0.0
  0
MTEXT
  5
93
100
AcDbEntity
  8
0
390
0
 62
               0
100
AcDbMText
 10
-473.16295295641112
 20
911.93458534010801
 30
0.0
 40
24.432617187500004
 41
0.0
 71
               1
 72
               1
  1
100
  7
ＭＳ ゴシック
 73
               1
 44
0.7828267384257843
  0
POINT
  5
94
100
AcDbEntity
  8
Defpoints
370
               0
390
0
 62
               0
100
AcDbPoint
 10
-399.34183691226667
 20
694.97007354823302
 30
0.0
  0
POINT
  5
95
100
AcDbEntity
  8
Defpoints
370
               0
390
0
 62
               0
100
AcDbPoint
 10
-499.35906563620483
 20
681.47007354823279
 30
0.0
  0
POINT
  5
96
100
AcDbEntity
  8
Defpoints
370
               0
390
0
 62
               0
100
AcDbPoint
 10
-499.35906563620483
 20
878.05696815260796
 30
0.0
  0
ENDBLK
  5
97
100
AcDbEntity
  8
notes
390
0
100
AcDbBlockEnd
  0
BLOCK
  5
98
100
AcDbEntity
  8
notes
390
0
100
AcDbBlockBegin
  2
*D7
 70
               1
 10
0.0
 20
0.0
 30
0.0
  3
*D7
  1

  0
LINE
  5
99
100
AcDbEntity
  8
0
370
              -2
390
0
  6
Continuous
 62
               0
100
AcDbLine
 10
-399.34183691226667
 20
719.97007354823302
 30
0.0
 11
-399.34183691226667
 21
878.05696815260796
 31
0.0
  0
LINE
  5
9A
100
AcDbEntity
  8
0
370
              -2
390
0
  6
Continuous
 62
               0
100
AcDbLine
 10
-299.3590656362046
 20
706.47007354823279
 30
0.0
 11
-299.3590656362046
 21
878.05696815260796
 31
0.0
  0
LINE
  5
9B
100
AcDbEntity
  8
0
370
              -2
390
0
  6
Continuous
 62
               0
100
AcDbLine
 10
-399.34183691226667
 20
878.05696815260796
 30
0.0
 11
-299.3590656362046
 21
878.05696815260796
 31
0.0
  0
CIRCLE
  5
9C
102
{ACAD_REACTORS
330
9D
102
}
100
AcDbEntity
  8
0
370
              -2
390
0
  6
Continuous
 62
               0
100
AcDbCircle
 10
-399.34183691226667
 20
878.05696815260796
 30
0.0
 40
1.9998779296875
  0
HATCH
  5
9D
100
AcDbEntity
  8
0
370
              -2
390
0
  6
Continuous
 62
               0
100
AcDbHatch
 10
0.0
 20
0.0
 30
0.0
210
0.0
220
0.0
230
1.0
  2
SOLID
 70
               1
 71
               1
 91
        1
 92
        1
 93
        1
 72
               2
 10
-399.34183691226667
 20
878.05696815260796
 40
1.9998779296875
 50
0.0
 51
360.0
 73
               0
 97
        1
330
9C
 75
               0
 76
               1
 98
        1
 10
0.0
 20
0.0
  0
CIRCLE
  5
9E
102
{ACAD_REACTORS
330
9F
102
}
100
AcDbEntity
  8
0
370
              -2
390
0
  6
Continuous
 62
               0
100
AcDbCircle
 10
-299.3590656362046
 20
878.05696815260796
 30
0.0
 40
1.9998779296875
  0
HATCH
  5
9F
100
AcDbEntity
  8
0
370
              -2
390
0
  6
Continuous
 62
               0
100
AcDbHatch
 10
0.0
 20
0.0
 30
0.0
210
0.0
220
0.0
230
1.0
  2
SOLID
 70
               1
 71
               1
 91
        1
 92
        1
 93
        1
 72
               2
 10
-299.3590656362046
 20
878.05696815260796
 40
1.9998779296875
 50
0.0
 51
360.0
 73
               0
 97
        1
330
9E
 75
               0
 76
               1
 98
        1
 10
0.0
 20
0.0
  0
MTEXT
  5
A0
100
AcDbEntity
  8
0
390
0
 62
               0
100
AcDbMText
 10
-373.16295295641112
 20
911.93458534010801
 30
0.0
 40
24.432617187500004
 41
0.0
 71
               1
 72
               1
  1
100
  7
ＭＳ ゴシック
 73
               1
 44
0.7828267384257843
  0
POINT
  5
A1
100
AcDbEntity
  8
Defpoints
370
               0
390
0
 62
               0
100
AcDbPoint
 10
-299.3590656362046
 20
681.47007354823279
 30
0.0
  0
POINT
  5
A2
100
AcDbEntity
  8
Defpoints
370
               0
390
0
 62
               0
100
AcDbPoint
 10
-399.34183691226667
 20
694.97007354823302
 30
0.0
  0
POINT
  5
A3
100
AcDbEntity
  8
Defpoints
370
               0
390
0
 62
               0
100
AcDbPoint
 10
-399.34183691226667
 20
878.05696815260796
 30
0.0
  0
ENDBLK
  5
A4
100
AcDbEntity
  8
notes
390
0
100
AcDbBlockEnd
  0
BLOCK
  5
A5
100
AcDbEntity
  8
notes
390
0
100
AcDbBlockBegin
  2
*D8
 70
               1
 10
0.0
 20
0.0
 30
0.0
  3
*D8
  1

  0
LINE
  5
A6
100
AcDbEntity
  8
0
370
              -2
390
0
  6
Continuous
 62
               0
100
AcDbLine
 10
-259.3590656362046
 20
662.57007354823281
 30
0.0
 11
-207.22437045539937
 21
662.57007354823281
 31
0.0
  0
LINE
  5
A7
100
AcDbEntity
  8
0
370
              -2
390
0
  6
Continuous
 62
               0
100
AcDbLine
 10
-259.3590656362046
 20
777.57007354823281
 30
0.0
 11
-207.22437045539937
 21
777.57007354823281
 31
0.0
  0
LINE
  5
A8
100
AcDbEntity
  8
0
370
              -2
390
0
  6
Continuous
 62
               0
100
AcDbLine
 10
-207.22437045539937
 20
777.57007354823281
 30
0.0
 11
-207.22437045539937
 21
834.95598410209823
 31
0.0
  0
LINE
  5
A9
100
AcDbEntity
  8
0
370
              -2
390
0
  6
Continuous
 62
               0
100
AcDbLine
 10
-207.22437045539937
 20
662.57007354823281
 30
0.0
 11
-207.22437045539937
 21
777.57007354823281
 31
0.0
  0
CIRCLE
  5
AA
102
{ACAD_REACTORS
330
AB
102
}
100
AcDbEntity
  8
0
370
              -2
390
0
  6
Continuous
 62
               0
100
AcDbCircle
 10
-207.22437045539937
 20
662.57007354823281
 30
0.0
 40
1.9998779296875
  0
HATCH
  5
AB
100
AcDbEntity
  8
0
370
              -2
390
0
  6
Continuous
 62
               0
100
AcDbHatch
 10
0.0
 20
0.0
 30
0.0
210
0.0
220
0.0
230
1.0
  2
SOLID
 70
               1
 71
               1
 91
        1
 92
        1
 93
        1
 72
               2
 10
-207.22437045539937
 20
662.57007354823281
 40
1.9998779296875
 50
0.0
 51
360.0
 73
               0
 97
        1
330
AA
 75
               0
 76
               1
 98
        1
 10
0.0
 20
0.0
  0
CIRCLE
  5
AC
102
{ACAD_REACTORS
330
AD
102
}
100
AcDbEntity
  8
0
370
              -2
390
0
  6
Continuous
 62
               0
100
AcDbCircle
 10
-207.22437045539937
 20
777.57007354823281
 30
0.0
 40
1.9998779296875
  0
HATCH
  5
AD
100
AcDbEntity
  8
0
370
              -2
390
0
  6
Continuous
 62
               0
100
AcDbHatch
 10
0.0
 20
0.0
 30
0.0
210
0.0
220
0.0
230
1.0
  2
SOLID
 70
               1
 71
               1
 91
        1
 92
        1
 93
        1
 72
               2
 10
-207.22437045539937
 20
777.57007354823281
 40
1.9998779296875
 50
0.0
 51
360.0
 73
               0
 97
        1
330
AC
 75
               0
 76
               1
 98
        1
 10
0.0
 20
0.0
  0
MTEXT
  5
AE
100
AcDbEntity
  8
0
390
0
 62
               0
100
AcDbMText
 10
-241.1019876428993
 20
787.33098073774715
 30
0.0
 40
24.432617187500004
 41
0.0
 71
               1
 72
               1
  1
115
  7
ＭＳ ゴシック
 11
0.0
 21
1.0
 31
0.0
 73
               1
 44
0.7828267384257843
  0
POINT
  5
AF
100
AcDbEntity
  8
Defpoints
370
               0
390
0
 62
               0
100
AcDbPoint
 10
-284.3590656362046
 20
777.57007354823281
 30
0.0
  0
POINT
  5
B0
100
AcDbEntity
  8
Defpoints
370
               0
390
0
 62
               0
100
AcDbPoint
 10
-284.3590656362046
 20
662.57007354823281
 30
0.0
  0
POINT
  5
B1
100
AcDbEntity
  8
Defpoints
370
               0
390
0
 62
               0
100
AcDbPoint
 10
-207.22437045539937
 20
662.57007354823281
 30
0.0
  0
ENDBLK
  5
B2
100
AcDbEntity
  8
notes
390
0
100
AcDbBlockEnd
  0
BLOCK
  5
B3
100
AcDbEntity
  8
notes
390
0
100
AcDbBlockBegin
  2
*D9
 70
               1
 10
0.0
 20
0.0
 30
0.0
  3
*D9
  1

  0
LINE
  5
B4
100
AcDbEntity
  8
0
370
              -2
390
0
  6
Continuous
 62
               0
100
AcDbLine
 10
-690.00000000007731
 20
799.52032148593833
 30
0.0
 11
-690.00000000007731
 21
927.52032148594287
 31
0.0
  0
LINE
  5
B5
100
AcDbEntity
  8
0
370
              -2
390
0
  6
Continuous
 62
               0
100
AcDbLine
 10
-110.00000000007094
 20
799.52032148593742
 30
0.0
 11
-110.00000000007094
 21
927.52032148594287
 31
0.0
  0
LINE
  5
B6
100
AcDbEntity
  8
0
370
              -2
390
0
  6
Continuous
 62
               0
100
AcDbLine
 10
-690.00000000007731
 20
927.52032148594287
 30
0.0
 11
-110.00000000007094
 21
927.52032148594287
 31
0.0
  0
CIRCLE
  5
B7
102
{ACAD_REACTORS
330
B8
102
}
100
AcDbEntity
  8
0
370
              -2
390
0
  6
Continuous
 62
               0
100
AcDbCircle
 10
-690.00000000007731
 20
927.52032148594287
 30
0.0
 40
1.9998779296875
  0
HATCH
  5
B8
100
AcDbEntity
  8
0
370
              -2
390
0
  6
Continuous
 62
               0
100
AcDbHatch
 10
0.0
 20
0.0
 30
0.0
210
0.0
220
0.0
230
1.0
  2
SOLID
 70
               1
 71
               1
 91
        1
 92
        1
 93
        1
 72
               2
 10
-690.00000000007731
 20
927.52032148594287
 40
1.9998779296875
 50
0.0
 51
360.0
 73
               0
 97
        1
330
B7
 75
               0
 76
               1
 98
        1
 10
0.0
 20
0.0
  0
CIRCLE
  5
B9
102
{ACAD_REACTORS
330
BA
102
}
100
AcDbEntity
  8
0
370
              -2
390
0
  6
Continuous
 62
               0
100
AcDbCircle
 10
-110.00000000007094
 20
927.52032148594287
 30
0.0
 40
1.9998779296875
  0
HATCH
  5
BA
100
AcDbEntity
  8
0
370
              -2
390
0
  6
Continuous
 62
               0
100
AcDbHatch
 10
0.0
 20
0.0
 30
0.0
210
0.0
220
0.0
230
1.0
  2
SOLID
 70
               1
 71
               1
 91
        1
 92
        1
 93
        1
 72
               2
 10
-110.00000000007094
 20
927.52032148594287
 40
1.9998779296875
 50
0.0
 51
360.0
 73
               0
 97
        1
330
B9
 75
               0
 76
               1
 98
        1
 10
0.0
 20
0.0
  0
MTEXT
  5
BB
100
AcDbEntity
  8
0
390
0
 62
               0
100
AcDbMText
 10
-423.8125016822496
 20
961.39793867344292
 30
0.0
 40
24.432617187500004
 41
0.0
 71
               1
 72
               1
  1
580
  7
ＭＳ ゴシック
 73
               1
 44
0.7828267384257843
  0
POINT
  5
BC
100
AcDbEntity
  8
Defpoints
370
               0
390
0
 62
               0
100
AcDbPoint
 10
-110.00000000007094
 20
774.52032148593742
 30
0.0
  0
POINT
  5
BD
100
AcDbEntity
  8
Defpoints
370
               0
390
0
 62
               0
100
AcDbPoint
 10
-690.00000000007731
 20
774.52032148593833
 30
0.0
  0
POINT
  5
BE
100
AcDbEntity
  8
Defpoints
370
               0
390
0
 62
               0
100
AcDbPoint
 10
-690.00000000007731
 20
927.52032148594287
 30
0.0
  0
ENDBLK
  5
BF
100
AcDbEntity
  8
notes
390
0
100
AcDbBlockEnd
  0
BLOCK
  5
C0
100
AcDbEntity
  8
notes
390
0
100
AcDbBlockBegin
  2
*D10
 70
               1
 10
0.0
 20
0.0
 30
0.0
  3
*D10
  1

  0
LINE
  5
C1
100
AcDbEntity
  8
0
370
              -2
390
0
  6
Continuous
 62
               0
100
AcDbLine
 10
-88.022975200686687
 20
777.52032148594287
 30
0.0
 11
49.999999999926331
 21
777.52032148594287
 31
0.0
  0
LINE
  5
C2
100
AcDbEntity
  8
0
370
              -2
390
0
  6
Continuous
 62
               0
100
AcDbLine
 10
-43.000000000073669
 20
227.52032148594378
 30
0.0
 11
49.999999999926331
 21
227.52032148594378
 31
0.0
  0
LINE
  5
C3
100
AcDbEntity
  8
0
370
              -2
390
0
  6
Continuous
 62
               0
100
AcDbLine
 10
49.999999999926331
 20
777.52032148594287
 30
0.0
 11
49.999999999926331
 21
227.52032148594378
 31
0.0
  0
CIRCLE
  5
C4
102
{ACAD_REACTORS
330
C5
102
}
100
AcDbEntity
  8
0
370
              -2
390
0
  6
Continuous
 62
               0
100
AcDbCircle
 10
49.999999999926331
 20
777.52032148594287
 30
0.0
 40
1.9998779296875
  0
HATCH
  5
C5
100
AcDbEntity
  8
0
370
              -2
390
0
  6
Continuous
 62
               0
100
AcDbHatch
 10
0.0
 20
0.0
 30
0.0
210
0.0
220
0.0
230
1.0
  2
SOLID
 70
               1
 71
               1
 91
        1
 92
        1
 93
        1
 72
               2
 10
49.999999999926331
 20
777.52032148594287
 40
1.9998779296875
 50
0.0
 51
360.0
 73
               0
 97
        1
330
C4
 75
               0
 76
               1
 98
        1
 10
0.0
 20
0.0
  0
CIRCLE
  5
C6
102
{ACAD_REACTORS
330
C7
102
}
100
AcDbEntity
  8
0
370
              -2
390
0
  6
Continuous
 62
               0
100
AcDbCircle
 10
49.999999999926331
 20
227.52032148594378
 30
0.0
 40
1.9998779296875
  0
HATCH
  5
C7
100
AcDbEntity
  8
0
370
              -2
390
0
  6
Continuous
 62
               0
100
AcDbHatch
 10
0.0
 20
0.0
 30
0.0
210
0.0
220
0.0
230
1.0
  2
SOLID
 70
               1
 71
               1
 91
        1
 92
        1
 93
        1
 72
               2
 10
49.999999999926331
 20
227.52032148594378
 40
1.9998779296875
 50
0.0
 51
360.0
 73
               0
 97
        1
330
C6
 75
               0
 76
               1
 98
        1
 10
0.0
 20
0.0
  0
MTEXT
  5
C8
100
AcDbEntity
  8
0
390
0
 62
               0
100
AcDbMText
 10
16.122382812426395
 20
478.70781980376785
 30
0.0
 40
24.432617187500004
 41
0.0
 71
               1
 72
               1
  1
550
  7
ＭＳ ゴシック
 11
0.0
 21
1.0
 31
0.0
 73
               1
 44
0.7828267384257843
  0
POINT
  5
C9
100
AcDbEntity
  8
Defpoints
370
               0
390
0
 62
               0
100
AcDbPoint
 10
-68.000000000073669
 20
227.52032148594378
 30
0.0
  0
POINT
  5
CA
100
AcDbEntity
  8
Defpoints
370
               0
390
0
 62
               0
100
AcDbPoint
 10
-113.02297520068669
 20
777.52032148594287
 30
0.0
  0
POINT
  5
CB
100
AcDbEntity
  8
Defpoints
370
               0
390
0
 62
               0
100
AcDbPoint
 10
49.999999999926331
 20
777.52032148594287
 30
0.0
  0
ENDBLK
  5
CC
100
AcDbEntity
  8
notes
390
0
100
AcDbBlockEnd
  0
BLOCK
  5
CD
100
AcDbEntity
  8
notes
390
0
100
AcDbBlockBegin
  2
*D11
 70
               1
 10
0.0
 20
0.0
 30
0.0
  3
*D11
  1

  0
LINE
  5
CE
100
AcDbEntity
  8
0
370
              -2
390
0
  6
Continuous
 62
               0
100
AcDbLine
 10
-630.00000001761418
 20
202.52032148594378
 30
0.0
 11
-630.00000001761418
 21
127.52032148594367
 31
0.0
  0
LINE
  5
CF
100
AcDbEntity
  8
0
370
              -2
390
0
  6
Continuous
 62
               0
100
AcDbLine
 10
-169.99999998245858
 20
202.52032148594378
 30
0.0
 11
-169.99999998245858
 21
127.52032148594367
 31
0.0
  0
LINE
  5
D0
100
AcDbEntity
  8
0
370
              -2
390
0
  6
Continuous
 62
               0
100
AcDbLine
 10
-630.00000001761418
 20
127.52032148594367
 30
0.0
 11
-169.99999998245858
 21
127.52032148594367
 31
0.0
  0
CIRCLE
  5
D1
102
{ACAD_REACTORS
330
D2
102
}
100
AcDbEntity
  8
0
370
              -2
390
0
  6
Continuous
 62
               0
100
AcDbCircle
 10
-630.00000001761418
 20
127.52032148594367
 30
0.0
 40
1.9998779296875
  0
HATCH
  5
D2
100
AcDbEntity
  8
0
370
              -2
390
0
  6
Continuous
 62
               0
100
AcDbHatch
 10
0.0
 20
0.0
 30
0.0
210
0.0
220
0.0
230
1.0
  2
SOLID
 70
               1
 71
               1
 91
        1
 92
        1
 93
        1
 72
               2
 10
-630.00000001761418
 20
127.52032148594367
 40
1.9998779296875
 50
0.0
 51
360.0
 73
               0
 97
        1
330
D1
 75
               0
 76
               1
 98
        1
 10
0.0
 20
0.0
  0
CIRCLE
  5
D3
102
{ACAD_REACTORS
330
D4
102
}
100
AcDbEntity
  8
0
370
              -2
390
0
  6
Continuous
 62
               0
100
AcDbCircle
 10
-169.99999998245858
 20
127.52032148594367
 30
0.0
 40
1.9998779296875
  0
HATCH
  5
D4
100
AcDbEntity
  8
0
370
              -2
390
0
  6
Continuous
 62
               0
100
AcDbHatch
 10
0.0
 20
0.0
 30
0.0
210
0.0
220
0.0
230
1.0
  2
SOLID
 70
               1
 71
               1
 91
        1
 92
        1
 93
        1
 72
               2
 10
-169.99999998245858
 20
127.52032148594367
 40
1.9998779296875
 50
0.0
 51
360.0
 73
               0
 97
        1
330
D3
 75
               0
 76
               1
 98
        1
 10
0.0
 20
0.0
  0
MTEXT
  5
D5
100
AcDbEntity
  8
0
390
0
 62
               0
100
AcDbMText
 10
-423.81250168221186
 20
161.3979386734436
 30
0.0
 40
24.432617187500004
 41
0.0
 71
               1
 72
               1
  1
460
  7
ＭＳ ゴシック
 73
               1
 44
0.7828267384257843
  0
POINT
  5
D6
100
AcDbEntity
  8
Defpoints
370
               0
390
0
 62
               0
100
AcDbPoint
 10
-169.99999998245858
 20
227.52032148594378
 30
0.0
  0
POINT
  5
D7
100
AcDbEntity
  8
Defpoints
370
               0
390
0
 62
               0
100
AcDbPoint
 10
-630.00000001761418
 20
227.52032148594378
 30
0.0
  0
POINT
  5
D8
100
AcDbEntity
  8
Defpoints
370
               0
390
0
 62
               0
100
AcDbPoint
 10
-630.00000001761418
 20
127.52032148594367
 30
0.0
  0
ENDBLK
  5
D9
100
AcDbEntity
  8
notes
390
0
100
AcDbBlockEnd
  0
BLOCK
  5
DA
100
AcDbEntity
  8
notes
390
0
100
AcDbBlockBegin
  2
*D12
 70
               1
 10
0.0
 20
0.0
 30
0.0
  3
*D12
  1

  0
LINE
  5
DB
100
AcDbEntity
  8
0
370
              -2
390
0
  6
Continuous
 62
               0
100
AcDbLine
 10
-169.99999998245858
 20
202.52032148594378
 30
0.0
 11
-169.99999998245858
 21
127.52032148594367
 31
0.0
  0
LINE
  5
DC
100
AcDbEntity
  8
0
370
              -2
390
0
  6
Continuous
 62
               0
100
AcDbLine
 10
-50.000000000073669
 20
220.52032148594378
 30
0.0
 11
-50.000000000073669
 21
127.52032148594367
 31
0.0
  0
LINE
  5
DD
100
AcDbEntity
  8
0
370
              -2
390
0
  6
Continuous
 62
               0
100
AcDbLine
 10
-169.99999998245858
 20
127.52032148594367
 30
0.0
 11
-50.000000000073669
 21
127.52032148594367
 31
0.0
  0
CIRCLE
  5
DE
102
{ACAD_REACTORS
330
DF
102
}
100
AcDbEntity
  8
0
370
              -2
390
0
  6
Continuous
 62
               0
100
AcDbCircle
 10
-169.99999998245858
 20
127.52032148594367
 30
0.0
 40
1.9998779296875
  0
HATCH
  5
DF
100
AcDbEntity
  8
0
370
              -2
390
0
  6
Continuous
 62
               0
100
AcDbHatch
 10
0.0
 20
0.0
 30
0.0
210
0.0
220
0.0
230
1.0
  2
SOLID
 70
               1
 71
               1
 91
        1
 92
        1
 93
        1
 72
               2
 10
-169.99999998245858
 20
127.52032148594367
 40
1.9998779296875
 50
0.0
 51
360.0
 73
               0
 97
        1
330
DE
 75
               0
 76
               1
 98
        1
 10
0.0
 20
0.0
  0
CIRCLE
  5
E0
102
{ACAD_REACTORS
330
E1
102
}
100
AcDbEntity
  8
0
370
              -2
390
0
  6
Continuous
 62
               0
100
AcDbCircle
 10
-50.000000000073669
 20
127.52032148594367
 30
0.0
 40
1.9998779296875
  0
HATCH
  5
E1
100
AcDbEntity
  8
0
370
              -2
390
0
  6
Continuous
 62
               0
100
AcDbHatch
 10
0.0
 20
0.0
 30
0.0
210
0.0
220
0.0
230
1.0
  2
SOLID
 70
               1
 71
               1
 91
        1
 92
        1
 93
        1
 72
               2
 10
-50.000000000073669
 20
127.52032148594367
 40
1.9998779296875
 50
0.0
 51
360.0
 73
               0
 97
        1
330
E0
 75
               0
 76
               1
 98
        1
 10
0.0
 20
0.0
  0
MTEXT
  5
E2
100
AcDbEntity
  8
0
390
0
 62
               0
100
AcDbMText
 10
-133.8125016734416
 20
161.3979386734436
 30
0.0
 40
24.432617187500004
 41
0.0
 71
               1
 72
               1
  1
120
  7
ＭＳ ゴシック
 73
               1
 44
0.7828267384257843
  0
POINT
  5
E3
100
AcDbEntity
  8
Defpoints
370
               0
390
0
 62
               0
100
AcDbPoint
 10
-50.000000000073669
 20
245.52032148594378
 30
0.0
  0
POINT
  5
E4
100
AcDbEntity
  8
Defpoints
370
               0
390
0
 62
               0
100
AcDbPoint
 10
-169.99999998245858
 20
227.52032148594378
 30
0.0
  0
POINT
  5
E5
100
AcDbEntity
  8
Defpoints
370
               0
390
0
 62
               0
100
AcDbPoint
 10
-169.99999998245858
 20
127.52032148594367
 30
0.0
  0
ENDBLK
  5
E6
100
AcDbEntity
  8
notes
390
0
100
AcDbBlockEnd
  0
BLOCK
  5
E7
100
AcDbEntity
  8
notes
390
0
100
AcDbBlockBegin
  2
*D13
 70
               1
 10
0.0
 20
0.0
 30
0.0
  3
*D13
  1

  0
LINE
  5
E8
100
AcDbEntity
  8
0
370
              -2
390
0
  6
Continuous
 62
               0
100
AcDbLine
 10
-711.97702479946201
 20
777.52032148594287
 30
0.0
 11
-850.00000000007503
 21
777.52032148594287
 31
0.0
  0
LINE
  5
E9
100
AcDbEntity
  8
0
370
              -2
390
0
  6
Continuous
 62
               0
100
AcDbLine
 10
-775.00000000007503
 20
617.49557736495251
 30
0.0
 11
-850.00000000007503
 21
617.49557736495251
 31
0.0
  0
LINE
  5
EA
100
AcDbEntity
  8
0
370
              -2
390
0
  6
Continuous
 62
               0
100
AcDbLine
 10
-850.00000000007503
 20
777.52032148594287
 30
0.0
 11
-850.00000000007503
 21
617.49557736495251
 31
0.0
  0
CIRCLE
  5
EB
102
{ACAD_REACTORS
330
EC
102
}
100
AcDbEntity
  8
0
370
              -2
390
0
  6
Continuous
 62
               0
100
AcDbCircle
 10
-850.00000000007503
 20
777.52032148594287
 30
0.0
 40
1.9998779296875
  0
HATCH
  5
EC
100
AcDbEntity
  8
0
370
              -2
390
0
  6
Continuous
 62
               0
100
AcDbHatch
 10
0.0
 20
0.0
 30
0.0
210
0.0
220
0.0
230
1.0
  2
SOLID
 70
               1
 71
               1
 91
        1
 92
        1
 93
        1
 72
               2
 10
-850.00000000007503
 20
777.52032148594287
 40
1.9998779296875
 50
0.0
 51
360.0
 73
               0
 97
        1
330
EB
 75
               0
 76
               1
 98
        1
 10
0.0
 20
0.0
  0
CIRCLE
  5
ED
102
{ACAD_REACTORS
330
EE
102
}
100
AcDbEntity
  8
0
370
              -2
390
0
  6
Continuous
 62
               0
100
AcDbCircle
 10
-850.00000000007503
 20
617.49557736495251
 30
0.0
 40
1.9998779296875
  0
HATCH
  5
EE
100
AcDbEntity
  8
0
370
              -2
390
0
  6
Continuous
 62
               0
100
AcDbHatch
 10
0.0
 20
0.0
 30
0.0
210
0.0
220
0.0
230
1.0
  2
SOLID
 70
               1
 71
               1
 91
        1
 92
        1
 93
        1
 72
               2
 10
-850.00000000007503
 20
617.49557736495251
 40
1.9998779296875
 50
0.0
 51
360.0
 73
               0
 97
        1
330
ED
 75
               0
 76
               1
 98
        1
 10
0.0
 20
0.0
  0
MTEXT
  5
EF
100
AcDbEntity
  8
0
390
0
 62
               0
100
AcDbMText
 10
-883.8776171875752
 20
668.7078198037658
 30
0.0
 40
24.432617187500004
 41
0.0
 71
               1
 72
               1
  1
160
  7
ＭＳ ゴシック
 11
0.0
 21
1.0
 31
0.0
 73
               1
 44
0.7828267384257843
  0
POINT
  5
F0
100
AcDbEntity
  8
Defpoints
370
               0
390
0
 62
               0
100
AcDbPoint
 10
-750.00000000007503
 20
617.49557736495251
 30
0.0
  0
POINT
  5
F1
100
AcDbEntity
  8
Defpoints
370
               0
390
0
 62
               0
100
AcDbPoint
 10
-686.97702479946201
 20
777.52032148594287
 30
0.0
  0
POINT
  5
F2
100
AcDbEntity
  8
Defpoints
370
               0
390
0
 62
               0
100
AcDbPoint
 10
-850.00000000007503
 20
777.52032148594287
 30
0.0
  0
ENDBLK
  5
F3
100
AcDbEntity
  8
notes
390
0
100
AcDbBlockEnd
  0
BLOCK
  5
F4
100
AcDbEntity
  8
notes
390
0
100
AcDbBlockBegin
  2
*D14
 70
               1
 10
0.0
 20
0.0
 30
0.0
  3
*D14
  1

  0
LINE
  5
F5
100
AcDbEntity
  8
0
370
              -2
390
0
  6
Continuous
 62
               0
100
AcDbLine
 10
-775.00000000007503
 20
617.49557736495251
 30
0.0
 11
-850.00000000007503
 21
617.49557736495251
 31
0.0
  0
LINE
  5
F6
100
AcDbEntity
  8
0
370
              -2
390
0
  6
Continuous
 62
               0
100
AcDbLine
 10
-775.00000000007503
 20
302.50331238709759
 30
0.0
 11
-850.00000000007503
 21
302.50331238709759
 31
0.0
  0
LINE
  5
F7
100
AcDbEntity
  8
0
370
              -2
390
0
  6
Continuous
 62
               0
100
AcDbLine
 10
-850.00000000007503
 20
617.49557736495251
 30
0.0
 11
-850.00000000007503
 21
302.50331238709759
 31
0.0
  0
CIRCLE
  5
F8
102
{ACAD_REACTORS
330
F9
102
}
100
AcDbEntity
  8
0
370
              -2
390
0
  6
Continuous
 62
               0
100
AcDbCircle
 10
-850.00000000007503
 20
617.49557736495251
 30
0.0
 40
1.9998779296875
  0
HATCH
  5
F9
100
AcDbEntity
  8
0
370
              -2
390
0
  6
Continuous
 62
               0
100
AcDbHatch
 10
0.0
 20
0.0
 30
0.0
210
0.0
220
0.0
230
1.0
  2
SOLID
 70
               1
 71
               1
 91
        1
 92
        1
 93
        1
 72
               2
 10
-850.00000000007503
 20
617.49557736495251
 40
1.9998779296875
 50
0.0
 51
360.0
 73
               0
 97
        1
330
F8
 75
               0
 76
               1
 98
        1
 10
0.0
 20
0.0
  0
CIRCLE
  5
FA
102
{ACAD_REACTORS
330
FB
102
}
100
AcDbEntity
  8
0
370
              -2
390
0
  6
Continuous
 62
               0
100
AcDbCircle
 10
-850.00000000007503
 20
302.50331238709759
 30
0.0
 40
1.9998779296875
  0
HATCH
  5
FB
100
AcDbEntity
  8
0
370
              -2
390
0
  6
Continuous
 62
               0
100
AcDbHatch
 10
0.0
 20
0.0
 30
0.0
210
0.0
220
0.0
230
1.0
  2
SOLID
 70
               1
 71
               1
 91
        1
 92
        1
 93
        1
 72
               2
 10
-850.00000000007503
 20
302.50331238709759
 40
1.9998779296875
 50
0.0
 51
360.0
 73
               0
 97
        1
330
FA
 75
               0
 76
               1
 98
        1
 10
0.0
 20
0.0
  0
MTEXT
  5
FC
100
AcDbEntity
  8
0
390
0
 62
               0
100
AcDbMText
 10
-883.8776171875752
 20
448.7078198037658
 30
0.0
 40
24.432617187500004
 41
0.0
 71
               1
 72
               1
  1
315
  7
ＭＳ ゴシック
 11
0.0
 21
1.0
 31
0.0
 73
               1
 44
0.7828267384257843
  0
POINT
  5
FD
100
AcDbEntity
  8
Defpoints
370
               0
390
0
 62
               0
100
AcDbPoint
 10
-750.00000000007503
 20
302.50331238709759
 30
0.0
  0
POINT
  5
FE
100
AcDbEntity
  8
Defpoints
370
               0
390
0
 62
               0
100
AcDbPoint
 10
-750.00000000007503
 20
617.49557736495251
 30
0.0
  0
POINT
  5
FF
100
AcDbEntity
  8
Defpoints
370
               0
390
0
 62
               0
100
AcDbPoint
 10
-850.00000000007503
 20
617.49557736495251
 30
0.0
  0
ENDBLK
  5
100
100
AcDbEntity
  8
notes
390
0
100
AcDbBlockEnd
  0
BLOCK
  5
101
100
AcDbEntity
  8
notes
390
0
100
AcDbBlockBegin
  2
*D15
 70
               1
 10
0.0
 20
0.0
 30
0.0
  3
*D15
  1

  0
LINE
  5
102
100
AcDbEntity
  8
0
370
              -2
390
0
  6
Continuous
 62
               0
100
AcDbLine
 10
-35.628375342088475
 20
-433.75214824954742
 30
0.0
 11
49.531756053497475
 21
-433.75214824954742
 31
0.0
  0
LINE
  5
103
100
AcDbEntity
  8
0
370
              -2
390
0
  6
Continuous
 62
               0
100
AcDbLine
 10
-353.44869232135761
 20
-613.65994113280703
 30
0.0
 11
49.531756053497475
 21
-613.65994113280703
 31
0.0
  0
LINE
  5
104
100
AcDbEntity
  8
0
370
              -2
390
0
  6
Continuous
 62
               0
100
AcDbLine
 10
49.531756053497475
 20
-433.75214824954742
 30
0.0
 11
49.531756053497475
 21
-613.65994113280703
 31
0.0
  0
CIRCLE
  5
105
102
{ACAD_REACTORS
330
106
102
}
100
AcDbEntity
  8
0
370
              -2
390
0
  6
Continuous
 62
               0
100
AcDbCircle
 10
49.531756053497475
 20
-433.75214824954742
 30
0.0
 40
1.9998779296875
  0
HATCH
  5
106
100
AcDbEntity
  8
0
370
              -2
390
0
  6
Continuous
 62
               0
100
AcDbHatch
 10
0.0
 20
0.0
 30
0.0
210
0.0
220
0.0
230
1.0
  2
SOLID
 70
               1
 71
               1
 91
        1
 92
        1
 93
        1
 72
               2
 10
49.531756053497475
 20
-433.75214824954742
 40
1.9998779296875
 50
0.0
 51
360.0
 73
               0
 97
        1
330
105
 75
               0
 76
               1
 98
        1
 10
0.0
 20
0.0
  0
CIRCLE
  5
107
102
{ACAD_REACTORS
330
108
102
}
100
AcDbEntity
  8
0
370
              -2
390
0
  6
Continuous
 62
               0
100
AcDbCircle
 10
49.531756053497475
 20
-613.65994113280703
 30
0.0
 40
1.9998779296875
  0
HATCH
  5
108
100
AcDbEntity
  8
0
370
              -2
390
0
  6
Continuous
 62
               0
100
AcDbHatch
 10
0.0
 20
0.0
 30
0.0
210
0.0
220
0.0
230
1.0
  2
SOLID
 70
               1
 71
               1
 91
        1
 92
        1
 93
        1
 72
               2
 10
49.531756053497475
 20
-613.65994113280703
 40
1.9998779296875
 50
0.0
 51
360.0
 73
               0
 97
        1
330
107
 75
               0
 76
               1
 98
        1
 10
0.0
 20
0.0
  0
MTEXT
  5
109
100
AcDbEntity
  8
0
390
0
 62
               0
100
AcDbMText
 10
15.654138865997538
 20
-547.51854637335282
 30
0.0
 40
24.432617187500004
 41
0.0
 71
               1
 72
               1
  1
180
  7
ＭＳ ゴシック
 11
0.0
 21
1.0
 31
0.0
 73
               1
 44
0.7828267384257843
  0
POINT
  5
10A
100
AcDbEntity
  8
Defpoints
370
               0
390
0
 62
               0
100
AcDbPoint
 10
-378.44869232135761
 20
-613.65994113280703
 30
0.0
  0
POINT
  5
10B
100
AcDbEntity
  8
Defpoints
370
               0
390
0
 62
               0
100
AcDbPoint
 10
-60.628375342088475
 20
-433.75214824954742
 30
0.0
  0
POINT
  5
10C
100
AcDbEntity
  8
Defpoints
370
               0
390
0
 62
               0
100
AcDbPoint
 10
49.531756053497475
 20
-433.75214824954742
 30
0.0
  0
ENDBLK
  5
10D
100
AcDbEntity
  8
notes
390
0
100
AcDbBlockEnd
  0
BLOCK
  5
10E
100
AcDbEntity
  8
notes
390
0
100
AcDbBlockBegin
  2
*D16
 70
               1
 10
0.0
 20
0.0
 30
0.0
  3
*D16
  1

  0
LINE
  5
10F
100
AcDbEntity
  8
0
370
              -2
390
0
  6
Continuous
 62
               0
100
AcDbLine
 10
308.72142253996572
 20
-433.71877132454279
 30
0.0
 11
223.53948425597537
 21
-433.71877132454279
 31
0.0
  0
LINE
  5
110
100
AcDbEntity
  8
0
370
              -2
390
0
  6
Continuous
 62
               0
100
AcDbLine
 10
303.53948425597537
 20
-508.64325688259783
 30
0.0
 11
223.53948425597537
 21
-508.64325688259783
 31
0.0
  0
LINE
  5
111
100
AcDbEntity
  8
0
370
              -2
390
0
  6
Continuous
 62
               0
100
AcDbLine
 10
223.53948425597537
 20
-433.71877132454279
 30
0.0
 11
223.53948425597537
 21
-508.64325688259783
 31
0.0
  0
CIRCLE
  5
112
102
{ACAD_REACTORS
330
113
102
}
100
AcDbEntity
  8
0
370
              -2
390
0
  6
Continuous
 62
               0
100
AcDbCircle
 10
223.53948425597537
 20
-433.71877132454279
 30
0.0
 40
1.9998779296875
  0
HATCH
  5
113
100
AcDbEntity
  8
0
370
              -2
390
0
  6
Continuous
 62
               0
100
AcDbHatch
 10
0.0
 20
0.0
 30
0.0
210
0.0
220
0.0
230
1.0
  2
SOLID
 70
               1
 71
               1
 91
        1
 92
        1
 93
        1
 72
               2
 10
223.53948425597537
 20
-433.71877132454279
 40
1.9998779296875
 50
0.0
 51
360.0
 73
               0
 97
        1
330
112
 75
               0
 76
               1
 98
        1
 10
0.0
 20
0.0
  0
CIRCLE
  5
114
102
{ACAD_REACTORS
330
115
102
}
100
AcDbEntity
  8
0
370
              -2
390
0
  6
Continuous
 62
               0
100
AcDbCircle
 10
223.53948425597537
 20
-508.64325688259783
 30
0.0
 40
1.9998779296875
  0
HATCH
  5
115
100
AcDbEntity
  8
0
370
              -2
390
0
  6
Continuous
 62
               0
100
AcDbHatch
 10
0.0
 20
0.0
 30
0.0
210
0.0
220
0.0
230
1.0
  2
SOLID
 70
               1
 71
               1
 91
        1
 92
        1
 93
        1
 72
               2
 10
223.53948425597537
 20
-508.64325688259783
 40
1.9998779296875
 50
0.0
 51
360.0
 73
               0
 97
        1
330
114
 75
               0
 76
               1
 98
        1
 10
0.0
 20
0.0
  0
MTEXT
  5
116
100
AcDbEntity
  8
0
390
0
 62
               0
100
AcDbMText
 10
189.66186706847543
 20
-487.05601410357031
 30
0.0
 40
24.432617187500004
 41
0.0
 71
               1
 72
               1
  1
75
  7
ＭＳ ゴシック
 11
0.0
 21
1.0
 31
0.0
 73
               1
 44
0.7828267384257843
  0
POINT
  5
117
100
AcDbEntity
  8
Defpoints
370
               0
390
0
 62
               0
100
AcDbPoint
 10
328.53948425597537
 20
-508.64325688259783
 30
0.0
  0
POINT
  5
118
100
AcDbEntity
  8
Defpoints
370
               0
390
0
 62
               0
100
AcDbPoint
 10
333.72142253996572
 20
-433.71877132454279
 30
0.0
  0
POINT
  5
119
100
AcDbEntity
  8
Defpoints
370
               0
390
0
 62
               0
100
AcDbPoint
 10
223.53948425597537
 20
-433.71877132454279
 30
0.0
  0
ENDBLK
  5
11A
100
AcDbEntity
  8
notes
390
0
100
AcDbBlockEnd
  0
BLOCK
  5
11B
100
AcDbEntity
  8
notes
390
0
100
AcDbBlockBegin
  2
*D17
 70
               1
 10
0.0
 20
0.0
 30
0.0
  3
*D17
  1

  0
LINE
  5
11C
100
AcDbEntity
  8
0
370
              -2
390
0
  6
Continuous
 62
               0
100
AcDbLine
 10
303.53948425597537
 20
-508.64325688259783
 30
0.0
 11
223.53948425597537
 21
-508.64325688259783
 31
0.0
  0
LINE
  5
11D
100
AcDbEntity
  8
0
370
              -2
390
0
  6
Continuous
 62
               0
100
AcDbLine
 10
361.7630351527323
 20
-568.55994113281031
 30
0.0
 11
223.53948425597537
 21
-568.55994113281031
 31
0.0
  0
LINE
  5
11E
100
AcDbEntity
  8
0
370
              -2
390
0
  6
Continuous
 62
               0
100
AcDbLine
 10
223.53948425597537
 20
-508.64325688259783
 30
0.0
 11
223.53948425597537
 21
-568.55994113281031
 31
0.0
  0
CIRCLE
  5
11F
102
{ACAD_REACTORS
330
120
102
}
100
AcDbEntity
  8
0
370
              -2
390
0
  6
Continuous
 62
               0
100
AcDbCircle
 10
223.53948425597537
 20
-508.64325688259783
 30
0.0
 40
1.9998779296875
  0
HATCH
  5
120
100
AcDbEntity
  8
0
370
              -2
390
0
  6
Continuous
 62
               0
100
AcDbHatch
 10
0.0
 20
0.0
 30
0.0
210
0.0
220
0.0
230
1.0
  2
SOLID
 70
               1
 71
               1
 91
        1
 92
        1
 93
        1
 72
               2
 10
223.53948425597537
 20
-508.64325688259783
 40
1.9998779296875
 50
0.0
 51
360.0
 73
               0
 97
        1
330
11F
 75
               0
 76
               1
 98
        1
 10
0.0
 20
0.0
  0
CIRCLE
  5
121
102
{ACAD_REACTORS
330
122
102
}
100
AcDbEntity
  8
0
370
              -2
390
0
  6
Continuous
 62
               0
100
AcDbCircle
 10
223.53948425597537
 20
-568.55994113281031
 30
0.0
 40
1.9998779296875
  0
HATCH
  5
122
100
AcDbEntity
  8
0
370
              -2
390
0
  6
Continuous
 62
               0
100
AcDbHatch
 10
0.0
 20
0.0
 30
0.0
210
0.0
220
0.0
230
1.0
  2
SOLID
 70
               1
 71
               1
 91
        1
 92
        1
 93
        1
 72
               2
 10
223.53948425597537
 20
-568.55994113281031
 40
1.9998779296875
 50
0.0
 51
360.0
 73
               0
 97
        1
330
121
 75
               0
 76
               1
 98
        1
 10
0.0
 20
0.0
  0
MTEXT
  5
123
100
AcDbEntity
  8
0
390
0
 62
               0
100
AcDbMText
 10
189.66186706847543
 20
-554.47659900770395
 30
0.0
 40
24.432617187500004
 41
0.0
 71
               1
 72
               1
  1
60
  7
ＭＳ ゴシック
 11
0.0
 21
1.0
 31
0.0
 73
               1
 44
0.7828267384257843
  0
POINT
  5
124
100
AcDbEntity
  8
Defpoints
370
               0
390
0
 62
               0
100
AcDbPoint
 10
386.7630351527323
 20
-568.55994113281031
 30
0.0
  0
POINT
  5
125
100
AcDbEntity
  8
Defpoints
370
               0
390
0
 62
               0
100
AcDbPoint
 10
328.53948425597537
 20
-508.64325688259783
 30
0.0
  0
POINT
  5
126
100
AcDbEntity
  8
Defpoints
370
               0
390
0
 62
               0
100
AcDbPoint
 10
223.53948425597537
 20
-508.64325688259783
 30
0.0
  0
ENDBLK
  5
127
100
AcDbEntity
  8
notes
390
0
100
AcDbBlockEnd
  0
BLOCK
  5
128
100
AcDbEntity
  8
notes
390
0
100
AcDbBlockBegin
  2
*D18
 70
               1
 10
0.0
 20
0.0
 30
0.0
  3
*D18
  1

  0
LINE
  5
129
100
AcDbEntity
  8
0
370
              -2
390
0
  6
Continuous
 62
               0
100
AcDbLine
 10
361.7630351527323
 20
-568.55994113281031
 30
0.0
 11
223.53948425597537
 21
-568.55994113281031
 31
0.0
  0
LINE
  5
12A
100
AcDbEntity
  8
0
370
              -2
390
0
  6
Continuous
 62
               0
100
AcDbLine
 10
552.12695745533802
 20
-613.5599411328069
 30
0.0
 11
223.53948425597537
 21
-613.5599411328069
 31
0.0
  0
LINE
  5
12B
100
AcDbEntity
  8
0
370
              -2
390
0
  6
Continuous
 62
               0
100
AcDbLine
 10
223.53948425597537
 20
-568.55994113281031
 30
0.0
 11
223.53948425597537
 21
-613.5599411328069
 31
0.0
  0
CIRCLE
  5
12C
102
{ACAD_REACTORS
330
12D
102
}
100
AcDbEntity
  8
0
370
              -2
390
0
  6
Continuous
 62
               0
100
AcDbCircle
 10
223.53948425597537
 20
-568.55994113281031
 30
0.0
 40
1.9998779296875
  0
HATCH
  5
12D
100
AcDbEntity
  8
0
370
              -2
390
0
  6
Continuous
 62
               0
100
AcDbHatch
 10
0.0
 20
0.0
 30
0.0
210
0.0
220
0.0
230
1.0
  2
SOLID
 70
               1
 71
               1
 91
        1
 92
        1
 93
        1
 72
               2
 10
223.53948425597537
 20
-568.55994113281031
 40
1.9998779296875
 50
0.0
 51
360.0
 73
               0
 97
        1
330
12C
 75
               0
 76
               1
 98
        1
 10
0.0
 20
0.0
  0
CIRCLE
  5
12E
102
{ACAD_REACTORS
330
12F
102
}
100
AcDbEntity
  8
0
370
              -2
390
0
  6
Continuous
 62
               0
100
AcDbCircle
 10
223.53948425597537
 20
-613.5599411328069
 30
0.0
 40
1.9998779296875
  0
HATCH
  5
12F
100
AcDbEntity
  8
0
370
              -2
390
0
  6
Continuous
 62
               0
100
AcDbHatch
 10
0.0
 20
0.0
 30
0.0
210
0.0
220
0.0
230
1.0
  2
SOLID
 70
               1
 71
               1
 91
        1
 92
        1
 93
        1
 72
               2
 10
223.53948425597537
 20
-613.5599411328069
 40
1.9998779296875
 50
0.0
 51
360.0
 73
               0
 97
        1
330
12E
 75
               0
 76
               1
 98
        1
 10
0.0
 20
0.0
  0
MTEXT
  5
130
100
AcDbEntity
  8
0
390
0
 62
               0
100
AcDbMText
 10
189.66186706847543
 20
-606.93494113280849
 30
0.0
 40
24.432617187500004
 41
0.0
 71
               1
 72
               1
  1
45
  7
ＭＳ ゴシック
 11
0.0
 21
1.0
 31
0.0
 73
               1
 44
0.7828267384257843
  0
POINT
  5
131
100
AcDbEntity
  8
Defpoints
370
               0
390
0
 62
               0
100
AcDbPoint
 10
577.12695745533802
 20
-613.5599411328069
 30
0.0
  0
POINT
  5
132
100
AcDbEntity
  8
Defpoints
370
               0
390
0
 62
               0
100
AcDbPoint
 10
386.7630351527323
 20
-568.55994113281031
 30
0.0
  0
POINT
  5
133
100
AcDbEntity
  8
Defpoints
370
               0
390
0
 62
               0
100
AcDbPoint
 10
223.53948425597537
 20
-568.55994113281031
 30
0.0
  0
ENDBLK
  5
134
100
AcDbEntity
  8
notes
390
0
100
AcDbBlockEnd
  0
BLOCK
  5
135
100
AcDbEntity
  8
notes
390
0
100
AcDbBlockBegin
  2
*D19
 70
               1
 10
0.0
 20
0.0
 30
0.0
  3
*D19
  1

  0
LINE
  5
136
100
AcDbEntity
  8
0
370
              -2
390
0
  6
Continuous
 62
               0
100
AcDbLine
 10
-542.9590656362052
 20
-463.71877132454279
 30
0.0
 11
-542.9590656362052
 21
-333.72077979463165
 31
0.0
  0
LINE
  5
137
100
AcDbEntity
  8
0
370
              -2
390
0
  6
Continuous
 62
               0
100
AcDbLine
 10
-257.95906563620474
 20
-463.71877132454279
 30
0.0
 11
-257.95906563620474
 21
-333.72077979463165
 31
0.0
  0
LINE
  5
138
100
AcDbEntity
  8
0
370
              -2
390
0
  6
Continuous
 62
               0
100
AcDbLine
 10
-542.9590656362052
 20
-333.72077979463165
 30
0.0
 11
-257.95906563620474
 21
-333.72077979463165
 31
0.0
  0
CIRCLE
  5
139
102
{ACAD_REACTORS
330
13A
102
}
100
AcDbEntity
  8
0
370
              -2
390
0
  6
Continuous
 62
               0
100
AcDbCircle
 10
-542.9590656362052
 20
-333.72077979463165
 30
0.0
 40
1.9998779296875
  0
HATCH
  5
13A
100
AcDbEntity
  8
0
370
              -2
390
0
  6
Continuous
 62
               0
100
AcDbHatch
 10
0.0
 20
0.0
 30
0.0
210
0.0
220
0.0
230
1.0
  2
SOLID
 70
               1
 71
               1
 91
        1
 92
        1
 93
        1
 72
               2
 10
-542.9590656362052
 20
-333.72077979463165
 40
1.9998779296875
 50
0.0
 51
360.0
 73
               0
 97
        1
330
139
 75
               0
 76
               1
 98
        1
 10
0.0
 20
0.0
  0
CIRCLE
  5
13B
102
{ACAD_REACTORS
330
13C
102
}
100
AcDbEntity
  8
0
370
              -2
390
0
  6
Continuous
 62
               0
100
AcDbCircle
 10
-257.95906563620474
 20
-333.72077979463165
 30
0.0
 40
1.9998779296875
  0
HATCH
  5
13C
100
AcDbEntity
  8
0
370
              -2
390
0
  6
Continuous
 62
               0
100
AcDbHatch
 10
0.0
 20
0.0
 30
0.0
210
0.0
220
0.0
230
1.0
  2
SOLID
 70
               1
 71
               1
 91
        1
 92
        1
 93
        1
 72
               2
 10
-257.95906563620474
 20
-333.72077979463165
 40
1.9998779296875
 50
0.0
 51
360.0
 73
               0
 97
        1
330
13B
 75
               0
 76
               1
 98
        1
 10
0.0
 20
0.0
  0
MTEXT
  5
13D
100
AcDbEntity
  8
0
390
0
 62
               0
100
AcDbMText
 10
-424.27156731838068
 20
-299.84316260713172
 30
0.0
 40
24.432617187500004
 41
0.0
 71
               1
 72
               1
  1
285
  7
ＭＳ ゴシック
 73
               1
 44
0.7828267384257843
  0
POINT
  5
13E
100
AcDbEntity
  8
Defpoints
370
               0
390
0
 62
               0
100
AcDbPoint
 10
-257.95906563620474
 20
-488.71877132454279
 30
0.0
  0
POINT
  5
13F
100
AcDbEntity
  8
Defpoints
370
               0
390
0
 62
               0
100
AcDbPoint
 10
-542.9590656362052
 20
-488.71877132454279
 30
0.0
  0
POINT
  5
140
100
AcDbEntity
  8
Defpoints
370
               0
390
0
 62
               0
100
AcDbPoint
 10
-542.9590656362052
 20
-333.72077979463165
 30
0.0
  0
ENDBLK
  5
141
100
AcDbEntity
  8
notes
390
0
100
AcDbBlockEnd
  0
BLOCK
  5
142
100
AcDbEntity
  8
notes
390
0
100
AcDbBlockBegin
  2
*D20
 70
               1
 10
0.0
 20
0.0
 30
0.0
  3
*D20
  1

  0
LINE
  5
143
100
AcDbEntity
  8
0
370
              -2
390
0
  6
Continuous
 62
               0
100
AcDbLine
 10
-617.97572456038506
 20
-508.68101410357326
 30
0.0
 11
-850.46215036009653
 21
-508.68101410357326
 31
0.0
  0
LINE
  5
144
100
AcDbEntity
  8
0
370
              -2
390
0
  6
Continuous
 62
               0
100
AcDbLine
 10
-761.5590656362051
 20
-433.68101410357326
 30
0.0
 11
-850.46215036009653
 21
-433.68101410357326
 31
0.0
  0
LINE
  5
145
100
AcDbEntity
  8
0
370
              -2
390
0
  6
Continuous
 62
               0
100
AcDbLine
 10
-850.46215036009653
 20
-508.68101410357326
 30
0.0
 11
-850.46215036009653
 21
-433.68101410357326
 31
0.0
  0
CIRCLE
  5
146
102
{ACAD_REACTORS
330
147
102
}
100
AcDbEntity
  8
0
370
              -2
390
0
  6
Continuous
 62
               0
100
AcDbCircle
 10
-850.46215036009653
 20
-508.68101410357326
 30
0.0
 40
1.9998779296875
  0
HATCH
  5
147
100
AcDbEntity
  8
0
370
              -2
390
0
  6
Continuous
 62
               0
100
AcDbHatch
 10
0.0
 20
0.0
 30
0.0
210
0.0
220
0.0
230
1.0
  2
SOLID
 70
               1
 71
               1
 91
        1
 92
        1
 93
        1
 72
               2
 10
-850.46215036009653
 20
-508.68101410357326
 40
1.9998779296875
 50
0.0
 51
360.0
 73
               0
 97
        1
330
146
 75
               0
 76
               1
 98
        1
 10
0.0
 20
0.0
  0
CIRCLE
  5
148
102
{ACAD_REACTORS
330
149
102
}
100
AcDbEntity
  8
0
370
              -2
390
0
  6
Continuous
 62
               0
100
AcDbCircle
 10
-850.46215036009653
 20
-433.68101410357326
 30
0.0
 40
1.9998779296875
  0
HATCH
  5
149
100
AcDbEntity
  8
0
370
              -2
390
0
  6
Continuous
 62
               0
100
AcDbHatch
 10
0.0
 20
0.0
 30
0.0
210
0.0
220
0.0
230
1.0
  2
SOLID
 70
               1
 71
               1
 91
        1
 92
        1
 93
        1
 72
               2
 10
-850.46215036009653
 20
-433.68101410357326
 40
1.9998779296875
 50
0.0
 51
360.0
 73
               0
 97
        1
330
148
 75
               0
 76
               1
 98
        1
 10
0.0
 20
0.0
  0
MTEXT
  5
14A
100
AcDbEntity
  8
0
390
0
 62
               0
100
AcDbMText
 10
-884.33976754759669
 20
-487.05601410357326
 30
0.0
 40
24.432617187500004
 41
0.0
 71
               1
 72
               1
  1
75
  7
ＭＳ ゴシック
 11
0.0
 21
1.0
 31
0.0
 73
               1
 44
0.7828267384257843
  0
POINT
  5
14B
100
AcDbEntity
  8
Defpoints
370
               0
390
0
 62
               0
100
AcDbPoint
 10
-736.5590656362051
 20
-433.68101410357326
 30
0.0
  0
POINT
  5
14C
100
AcDbEntity
  8
Defpoints
370
               0
390
0
 62
               0
100
AcDbPoint
 10
-592.97572456038506
 20
-508.68101410357326
 30
0.0
  0
POINT
  5
14D
100
AcDbEntity
  8
Defpoints
370
               0
390
0
 62
               0
100
AcDbPoint
 10
-850.46215036009653
 20
-508.68101410357326
 30
0.0
  0
ENDBLK
  5
14E
100
AcDbEntity
  8
notes
390
0
100
AcDbBlockEnd
  0
BLOCK
  5
14F
100
AcDbEntity
  8
notes
390
0
100
AcDbBlockBegin
  2
*D21
 70
               1
 10
0.0
 20
0.0
 30
0.0
  3
*D21
  1

  0
LINE
  5
150
100
AcDbEntity
  8
0
370
              -2
390
0
  6
Continuous
 62
               0
100
AcDbLine
 10
873.8121755730524
 20
-428.483282401407
 30
0.0
 11
873.8121755730524
 21
-333.71877132454279
 31
0.0
  0
LINE
  5
151
100
AcDbEntity
  8
0
370
              -2
390
0
  6
Continuous
 62
               0
100
AcDbLine
 10
768.8121755730524
 20
-408.71877132454279
 30
0.0
 11
768.8121755730524
 21
-333.71877132454279
 31
0.0
  0
LINE
  5
152
100
AcDbEntity
  8
0
370
              -2
390
0
  6
Continuous
 62
               0
100
AcDbLine
 10
873.8121755730524
 20
-333.71877132454279
 30
0.0
 11
768.8121755730524
 21
-333.71877132454279
 31
0.0
  0
CIRCLE
  5
153
102
{ACAD_REACTORS
330
154
102
}
100
AcDbEntity
  8
0
370
              -2
390
0
  6
Continuous
 62
               0
100
AcDbCircle
 10
873.8121755730524
 20
-333.71877132454279
 30
0.0
 40
1.9998779296875
  0
HATCH
  5
154
100
AcDbEntity
  8
0
370
              -2
390
0
  6
Continuous
 62
               0
100
AcDbHatch
 10
0.0
 20
0.0
 30
0.0
210
0.0
220
0.0
230
1.0
  2
SOLID
 70
               1
 71
               1
 91
        1
 92
        1
 93
        1
 72
               2
 10
873.8121755730524
 20
-333.71877132454279
 40
1.9998779296875
 50
0.0
 51
360.0
 73
               0
 97
        1
330
153
 75
               0
 76
               1
 98
        1
 10
0.0
 20
0.0
  0
CIRCLE
  5
155
102
{ACAD_REACTORS
330
156
102
}
100
AcDbEntity
  8
0
370
              -2
390
0
  6
Continuous
 62
               0
100
AcDbCircle
 10
768.8121755730524
 20
-333.71877132454279
 30
0.0
 40
1.9998779296875
  0
HATCH
  5
156
100
AcDbEntity
  8
0
370
              -2
390
0
  6
Continuous
 62
               0
100
AcDbHatch
 10
0.0
 20
0.0
 30
0.0
210
0.0
220
0.0
230
1.0
  2
SOLID
 70
               1
 71
               1
 91
        1
 92
        1
 93
        1
 72
               2
 10
768.8121755730524
 20
-333.71877132454279
 40
1.9998779296875
 50
0.0
 51
360.0
 73
               0
 97
        1
330
155
 75
               0
 76
               1
 98
        1
 10
0.0
 20
0.0
  0
MTEXT
  5
157
100
AcDbEntity
  8
0
390
0
 62
               0
100
AcDbMText
 10
797.49967389087692
 20
-299.84115413704285
 30
0.0
 40
24.432617187500004
 41
0.0
 71
               1
 72
               1
  1
105
  7
ＭＳ ゴシック
 73
               1
 44
0.7828267384257843
  0
POINT
  5
158
100
AcDbEntity
  8
Defpoints
370
               0
390
0
 62
               0
100
AcDbPoint
 10
768.8121755730524
 20
-433.71877132454279
 30
0.0
  0
POINT
  5
159
100
AcDbEntity
  8
Defpoints
370
               0
390
0
 62
               0
100
AcDbPoint
 10
873.8121755730524
 20
-453.483282401407
 30
0.0
  0
POINT
  5
15A
100
AcDbEntity
  8
Defpoints
370
               0
390
0
 62
               0
100
AcDbPoint
 10
873.8121755730524
 20
-333.71877132454279
 30
0.0
  0
ENDBLK
  5
15B
100
AcDbEntity
  8
notes
390
0
100
AcDbBlockEnd
  0
BLOCK
  5
15C
100
AcDbEntity
  8
notes
390
0
100
AcDbBlockBegin
  2
*D22
 70
               1
 10
0.0
 20
0.0
 30
0.0
  3
*D22
  1

  0
LINE
  5
15D
100
AcDbEntity
  8
0
370
              -2
390
0
  6
Continuous
 62
               0
100
AcDbLine
 10
-391.43502001450474
 20
656.95814712817571
 30
0.0
 11
-342.59311486743673
 21
560.52032148594083
 31
0.0
  0
CIRCLE
  5
15E
102
{ACAD_REACTORS
330
15F
102
}
100
AcDbEntity
  8
0
370
              -2
390
0
  6
Continuous
 62
               0
100
AcDbCircle
 10
-391.43502001450474
 20
656.95814712817571
 30
0.0
 40
1.9998779296875
  0
HATCH
  5
15F
100
AcDbEntity
  8
0
370
              -2
390
0
  6
Continuous
 62
               0
100
AcDbHatch
 10
0.0
 20
0.0
 30
0.0
210
0.0
220
0.0
230
1.0
  2
SOLID
 70
               1
 71
               1
 91
        1
 92
        1
 93
        1
 72
               2
 10
-391.43502001450474
 20
656.95814712817571
 40
1.9998779296875
 50
0.0
 51
360.0
 73
               0
 97
        1
330
15E
 75
               0
 76
               1
 98
        1
 10
0.0
 20
0.0
  0
LINE
  5
160
100
AcDbEntity
  8
0
370
              -2
390
0
  6
Continuous
 62
               0
100
AcDbLine
 10
-342.59311486743673
 20
560.52032148594083
 30
0.0
 11
-219.09311486743673
 21
560.52032148594083
 31
0.0
  0
MTEXT
  5
161
100
AcDbEntity
  8
0
390
0
 62
               0
100
AcDbMText
 10
-282.59311486743673
 20
594.39793867344088
 30
0.0
 40
24.432617187500004
 41
0.0
 71
               1
 72
               1
  1
φ35
  7
ＭＳ ゴシック
 73
               1
 44
0.7828267384257843
  0
POINT
  5
162
100
AcDbEntity
  8
Defpoints
370
               0
390
0
 62
               0
100
AcDbPoint
 10
-407.2486538100286
 20
688.18199996828992
 30
0.0
  0
POINT
  5
163
100
AcDbEntity
  8
Defpoints
370
               0
390
0
 62
               0
100
AcDbPoint
 10
-391.43502001450474
 20
656.95814712817571
 30
0.0
  0
ENDBLK
  5
164
100
AcDbEntity
  8
notes
390
0
100
AcDbBlockEnd
  0
BLOCK
  5
165
100
AcDbEntity
  8
notes
390
0
100
AcDbBlockBegin
  2
*D23
 70
               1
 10
0.0
 20
0.0
 30
0.0
  3
*D23
  1

  0
LINE
  5
166
100
AcDbEntity
  8
0
370
              -2
390
0
  6
Continuous
 62
               0
100
AcDbLine
 10
608.62695745533802
 20
-638.5599411328069
 30
0.0
 11
608.62695745533802
 21
-713.5599411328069
 31
0.0
  0
LINE
  5
167
100
AcDbEntity
  8
0
370
              -2
390
0
  6
Continuous
 62
               0
100
AcDbLine
 10
873.81217557269679
 20
-605.74572270882754
 30
0.0
 11
873.81217557269679
 21
-713.5599411328069
 31
0.0
  0
LINE
  5
168
100
AcDbEntity
  8
0
370
              -2
390
0
  6
Continuous
 62
               0
100
AcDbLine
 10
608.62695745533802
 20
-713.5599411328069
 30
0.0
 11
873.81217557269679
 21
-713.5599411328069
 31
0.0
  0
CIRCLE
  5
169
102
{ACAD_REACTORS
330
16A
102
}
100
AcDbEntity
  8
0
370
              -2
390
0
  6
Continuous
 62
               0
100
AcDbCircle
 10
608.62695745533802
 20
-713.5599411328069
 30
0.0
 40
1.9998779296875
  0
HATCH
  5
16A
100
AcDbEntity
  8
0
370
              -2
390
0
  6
Continuous
 62
               0
100
AcDbHatch
 10
0.0
 20
0.0
 30
0.0
210
0.0
220
0.0
230
1.0
  2
SOLID
 70
               1
 71
               1
 91
        1
 92
        1
 93
        1
 72
               2
 10
608.62695745533802
 20
-713.5599411328069
 40
1.9998779296875
 50
0.0
 51
360.0
 73
               0
 97
        1
330
169
 75
               0
 76
               1
 98
        1
 10
0.0
 20
0.0
  0
CIRCLE
  5
16B
102
{ACAD_REACTORS
330
16C
102
}
100
AcDbEntity
  8
0
370
              -2
390
0
  6
Continuous
 62
               0
100
AcDbCircle
 10
873.81217557269679
 20
-713.5599411328069
 30
0.0
 40
1.9998779296875
  0
HATCH
  5
16C
100
AcDbEntity
  8
0
370
              -2
390
0
  6
Continuous
 62
               0
100
AcDbHatch
 10
0.0
 20
0.0
 30
0.0
210
0.0
220
0.0
230
1.0
  2
SOLID
 70
               1
 71
               1
 91
        1
 92
        1
 93
        1
 72
               2
 10
873.81217557269679
 20
-713.5599411328069
 40
1.9998779296875
 50
0.0
 51
360.0
 73
               0
 97
        1
330
16B
 75
               0
 76
               1
 98
        1
 10
0.0
 20
0.0
  0
MTEXT
  5
16D
100
AcDbEntity
  8
0
390
0
 62
               0
100
AcDbMText
 10
717.40706483184192
 20
-679.68232394530696
 30
0.0
 40
24.432617187500004
 41
0.0
 71
               1
 72
               1
  1
265
  7
ＭＳ ゴシック
 73
               1
 44
0.7828267384257843
  0
POINT
  5
16E
100
AcDbEntity
  8
Defpoints
370
               0
390
0
 62
               0
100
AcDbPoint
 10
873.81217557269679
 20
-580.74572270882754
 30
0.0
  0
POINT
  5
16F
100
AcDbEntity
  8
Defpoints
370
               0
390
0
 62
               0
100
AcDbPoint
 10
608.62695745533802
 20
-613.5599411328069
 30
0.0
  0
POINT
  5
170
100
AcDbEntity
  8
Defpoints
370
               0
390
0
 62
               0
100
AcDbPoint
 10
608.62695745533802
 20
-713.5599411328069
 30
0.0
  0
ENDBLK
  5
171
100
AcDbEntity
  8
notes
390
0
100
AcDbBlockEnd
  0
BLOCK
  5
172
100
AcDbEntity
  8
ARJ70-1001
390
0
100
AcDbBlockBegin
  2
グループ-1
 70
               0
 10
0.0
 20
0.0
 30
0.0
  3
グループ-1
  1

  0
LINE
  5
173
100
AcDbEntity
  8
0
370
              15
390
0
  6
Continuous
 62
               7
100
AcDbLine
 10
-1050.1258378183325
 20
-1834.6863952627643
 30
0.0
 11
-987.12583781833246
 21
-1834.6863952627643
 31
0.0
  0
LINE
  5
174
100
AcDbEntity
  8
0
370
              15
390
0
  6
Continuous
 62
               7
100
AcDbLine
 10
-1050.1258378183325
 20
-1825.2996780717974
 30
0.0
 11
-1050.1258378183325
 21
-1834.6863952627643
 31
0.0
  0
LINE
  5
175
100
AcDbEntity
  8
0
370
              15
390
0
  6
Continuous
 62
               7
100
AcDbLine
 10
-987.12583781833246
 20
-1825.2996780718054
 30
0.0
 11
-987.12583781833246
 21
-1834.6863952627643
 31
0.0
  0
ENDBLK
  5
176
100
AcDbEntity
  8
ARJ70-1001
390
0
100
AcDbBlockEnd
  0
ENDSEC
  0
SECTION
  2
ENTITIES
  0
MTEXT
  5
177
100
AcDbEntity
  8
template
390
0
 62
               7
100
AcDbMText
 10
-967.99999999975989
 20
-1147.4176292337002
 30
0.0
 40
16.288411458333332
 41
0.0
 71
               1
 72
               1
  1
品名
  7
ＭＳ ゴシック
 73
               1
 44
0.7828267384257843
  0
MTEXT
  5
178
100
AcDbEntity
  8
template
390
0
 62
               7
100
AcDbMText
 10
-967.99999999975989
 20
-1232.4176292337002
 30
0.0
 40
16.288411458333332
 41
0.0
 71
               1
 72
               1
  1
仕様
  7
ＭＳ ゴシック
 73
               1
 44
0.7828267384257843
  0
LINE
  5
179
100
AcDbEntity
  8
template
370
               5
390
0
  6
Continuous
 62
               7
100
AcDbLine
 10
974.99999999975807
 20
-1224.0027073587003
 30
0.0
 11
-975.00000000024374
 21
-1224.0027073587003
 31
0.0
  0
LWPOLYLINE
  5
17A
100
AcDbEntity
  8
template
370
               5
390
0
  6
Continuous
 62
               7
100
AcDbPolyline
 90
        5
 70
             128
 10
975.00000000024011
 20
1405.9972926412997
 10
-974.99999999975989
 20
1405.9972926412997
 10
-974.99999999975989
 20
-1394.0027073587003
 10
975.00000000024011
 20
-1394.0027073587003
 10
975.00000000024011
 20
1405.9972926412997
  0
LINE
  5
17B
100
AcDbEntity
  8
template
370
               5
390
0
  6
Continuous
 62
               7
100
AcDbLine
 10
974.99999999975807
 20
-1139.0027073587003
 30
0.0
 11
-975.00000000024374
 21
-1139.0027073587003
 31
0.0
  0
LINE
  5
17C
100
AcDbEntity
  8
template
370
               5
390
0
  6
Continuous
 62
               7
100
AcDbLine
 10
975.00000000024011
 20
-1309.0027073587003
 30
0.0
 11
222.00000000024011
 21
-1309.0027073587003
 31
0.0
  0
MTEXT
  5
17D
100
AcDbEntity
  8
template
390
0
 62
               7
100
AcDbMText
 10
-974.99999999955617
 20
-1405.8565294155574
 30
0.0
 40
21.717881944444446
 41
0.0
 71
               1
 72
               1
  1
120221SH
  7
ＭＳ ゴシック
 73
               1
 44
0.7828267384257843
  0
MTEXT
  5
17E
100
AcDbEntity
  8
template
390
0
 62
               7
100
AcDbMText
 10
251.87140625249958
 20
-1338.9131018320077
 30
0.0
 40
24.432617187500004
 41
0.0
 71
               1
 72
               1
  1
大洋金物株式会社 ティーフォルム事業部
  7
ＭＳ ゴシック
 73
               1
 44
0.7828267384257843
  0
INSERT
  5
17F
100
AcDbEntity
  8
template
390
0
 62
               7
100
AcDbBlockReference
  2
グループ
 10
1627.2527952736705
 20
1221.1264541299574
 30
0.0
  0
MTEXT
  5
180
100
AcDbEntity
  8
template
390
0
 62
               7
100
AcDbMText
 10
784.00000000050022
 20
-1261.0000901712001
 30
0.0
 40
24.432617187500004
 41
0.0
 71
               1
 72
               1
  1
1:10
  7
ＭＳ ゴシック
 73
               1
 44
0.7828267384257843
  0
MTEXT
  5
181
100
AcDbEntity
  8
template
390
0
 62
               7
100
AcDbMText
 10
731.00000000050022
 20
-1232.4176292337002
 30
0.0
 40
16.288411458333332
 41
0.0
 71
               1
 72
               1
  1
縮尺
  7
ＭＳ ゴシック
 73
               1
 44
0.7828267384257843
  0
LINE
  5
182
100
AcDbEntity
  8
template
370
               5
390
0
  6
Continuous
 62
               7
100
AcDbLine
 10
724.00000000050022
 20
-1309.0027073587003
 30
0.0
 11
724.00000000050022
 21
-1224.0027073587003
 31
0.0
  0
MTEXT
  5
183
100
AcDbEntity
  8
template
390
0
 62
               7
100
AcDbMText
 10
480.00000000050022
 20
-1232.4176292337002
 30
0.0
 40
16.288411458333332
 41
0.0
 71
               1
 72
               1
  1
容量
  7
ＭＳ ゴシック
 73
               1
 44
0.7828267384257843
  0
MTEXT
  5
184
100
AcDbEntity
  8
template
390
0
 62
               7
100
AcDbMText
 10
533.00000000050022
 20
-1260.9383459142705
 30
0.0
 40
23.9074177654294
 41
0.0
 71
               1
 72
               1
  1
4.5L
  7
ＭＳ ゴシック
 73
               1
 44
0.7828267384257843
  0
LINE
  5
185
100
AcDbEntity
  8
template
370
               5
390
0
  6
Continuous
 62
               7
100
AcDbLine
 10
473.00000000050022
 20
-1309.0027073587003
 30
0.0
 11
473.00000000050022
 21
-1224.0027073587003
 31
0.0
  0
MTEXT
  5
186
100
AcDbEntity
  8
template
390
0
 62
               7
100
AcDbMText
 10
229.00000000050022
 20
-1147.4176292337002
 30
0.0
 40
16.288411458333332
 41
0.0
 71
               1
 72
               1
  1
品番
  7
ＭＳ ゴシック
 73
               1
 44
0.7828267384257843
  0
MTEXT
  5
187
100
AcDbEntity
  8
template
390
0
 62
               7
100
AcDbMText
 10
229.00000000050022
 20
-1232.4176292337002
 30
0.0
 40
16.288411458333332
 41
0.0
 71
               1
 72
               1
  1
重量
  7
ＭＳ ゴシック
 73
               1
 44
0.7828267384257843
  0
MTEXT
  5
188
100
AcDbEntity
  8
template
390
0
 62
               7
100
AcDbMText
 10
282.00000000050022
 20
-1176.0000901712001
 30
0.0
 40
24.432617187500004
 41
0.0
 71
               1
 72
               1
  1
ARJ70-1001(AQI70-1001)
  7
ＭＳ ゴシック
 73
               1
 44
0.7828267384257843
  0
MTEXT
  5
189
100
AcDbEntity
  8
template
390
0
 62
               7
100
AcDbMText
 10
282.00000000050022
 20
-1261.0000901712001
 30
0.0
 40
24.432617187500004
 41
0.0
 71
               1
 72
               1
  1
25kg
  7
ＭＳ ゴシック
 73
               1
 44
0.7828267384257843
  0
LINE
  5
18A
100
AcDbEntity
  8
template
370
               5
390
0
  6
Continuous
 62
               7
100
AcDbLine
 10
222.00000000050022
 20
-1394.0027073587003
 30
0.0
 11
222.00000000050022
 21
-1139.0027073587003
 31
0.0
  0
MTEXT
  5
18B
100
AcDbEntity
  8
template
390
0
 62
               7
100
AcDbMText
 10
-914.99999999975989
 20
-1176.0000901712001
 30
0.0
 40
24.432617187500004
 41
0.0
 71
               1
 72
               1
  1
洗面器 -POZZI GINORI,Novecento-
  7
ＭＳ ゴシック
 73
               1
 44
0.7828267384257843
  0
MTEXT
  5
18C
100
AcDbEntity
  8
template
390
0
 62
               7
100
AcDbMText
 10
-914.99999999975989
 20
-1261.0000901712001
 30
0.0
 40
24.432617187500004
 41
0.0
 71
               1
 72
               1
  1
壁掛け/オーバーフロー付き/壁取付ボルト付属/陶器/ホワイト
  7
ＭＳ ゴシック
 73
               1
 44
1.3047112307096407
  0
LINE
  5
18D
100
AcDbEntity
  8
template
370
               5
390
0
  6
Continuous
 62
               7
100
AcDbLine
 10
581.0
 20
-508.64325688259896
 30
0.0
 11
849.35683479843897
 21
-508.64325688259783
 31
0.0
  0
LINE
  5
18E
100
AcDbEntity
  8
template
370
              15
390
0
  6
STYLE_03
 62
               7
100
AcDbLine
 10
569.04867465619645
 20
-578.72938333862385
 30
0.0
 11
648.56992214051138
 21
-578.77945209621885
 31
0.0
  0
DIMENSION
  5
18F
100
AcDbEntity
  8
template
370
               5
390
0
  6
Continuous
 62
               7
100
AcDbDimension
  2
*D3
 10
602.375
 20
-578.79143965531466
 30
0.0
 11
607.375
 21
-408.0
 31
0.0
 70
             128
 71
               5
 72
               1
 41
1.0
 42
0.0
  1
145
  3
tform線あり
100
AcDbAlignedDimension
 13
573.78146729963441
 23
-433.79143965531466
 33
0.0
 14
573.68811136914064
 24
-578.79143965531466
 34
0.0
 50
90.0
100
AcDbRotatedDimension
1001
ACAD
1000
DSTYLE
1002
{
1070
             279
1070
               2
1070
             340
1005
3A
1070
             174
1070
               0
1070
             147
1040
5.0
1002
}
  0
DIMENSION
  5
190
100
AcDbEntity
  8
template
370
               5
390
0
  6
Continuous
 62
               7
100
AcDbDimension
  2
*D4
 10
735.10633619815246
 20
-443.73164116551334
 30
0.0
 11
740.10633619815246
 21
-413.0
 31
0.0
 70
             128
 71
               5
 72
               1
 41
1.0
 42
0.0
  3
tform線あり
100
AcDbAlignedDimension
 13
718.10633619815246
 23
-433.71877132454279
 33
0.0
 14
718.10633619815246
 24
-443.73164116551334
 34
0.0
 50
90.0
100
AcDbRotatedDimension
1001
ACAD
1000
DSTYLE
1002
{
1070
             279
1070
               2
1070
             340
1005
3A
1070
             174
1070
               0
1070
             147
1040
5.0
1002
}
  0
DIMENSION
  5
191
100
AcDbEntity
  8
notes
370
               5
390
0
  6
Continuous
 62
               7
100
AcDbDimension
  2
*D5
 10
-750.00000000007503
 20
978.05696815260796
 30
0.0
 11
-399.55906563620465
 21
983.05696815260796
 31
0.0
 70
             128
 71
               5
 72
               1
 41
1.0
 42
0.0
  3
tform線あり
100
AcDbAlignedDimension
 13
-50.000000000073669
 23
739.52032148594378
 33
0.0
 14
-750.00000000007503
 24
739.52032148594378
 34
0.0
100
AcDbRotatedDimension
1001
ACAD
1000
DSTYLE
1002
{
1070
             279
1070
               2
1070
             340
1005
3A
1070
             147
1040
5.0
1002
}
  0
DIMENSION
  5
192
100
AcDbEntity
  8
notes
370
               5
390
0
  6
Continuous
 62
               7
100
AcDbDimension
  2
*D6
 10
-499.35906563620483
 20
878.05696815260796
 30
0.0
 11
-449.35045127423564
 21
878.05696815260796
 31
0.0
 71
               5
 72
               1
 41
1.0
 42
0.0
  3
tform線あり
100
AcDbAlignedDimension
 13
-399.34183691226667
 23
694.97007354823302
 33
0.0
 14
-499.35906563620483
 24
681.47007354823279
 34
0.0
100
AcDbRotatedDimension
1001
ACAD
1000
DSTYLE
1002
{
1070
             279
1070
               2
1070
             340
1005
3A
1070
             147
1040
5.0
1002
}
  0
DIMENSION
  5
193
100
AcDbEntity
  8
notes
370
               5
390
0
  6
Continuous
 62
               7
100
AcDbDimension
  2
*D7
 10
-399.34183691226667
 20
878.05696815260796
 30
0.0
 11
-349.35045127423564
 21
878.05696815260796
 31
0.0
 71
               5
 72
               1
 41
1.0
 42
0.0
  3
tform線あり
100
AcDbAlignedDimension
 13
-299.3590656362046
 23
681.47007354823279
 33
0.0
 14
-399.34183691226667
 24
694.97007354823302
 34
0.0
100
AcDbRotatedDimension
1001
ACAD
1000
DSTYLE
1002
{
1070
             279
1070
               2
1070
             340
1005
3A
1070
             147
1040
5.0
1002
}
  0
DIMENSION
  5
194
100
AcDbEntity
  8
notes
370
               5
390
0
  6
Continuous
 62
               7
100
AcDbDimension
  2
*D8
 10
-207.22437045539937
 20
662.57007354823281
 30
0.0
 11
-202.22437045539937
 21
787.33098073774715
 31
0.0
 70
             128
 71
               5
 72
               1
 41
1.0
 42
0.0
  3
tform線あり
100
AcDbAlignedDimension
 13
-284.3590656362046
 23
777.57007354823281
 33
0.0
 14
-284.3590656362046
 24
662.57007354823281
 34
0.0
 50
90.0
100
AcDbRotatedDimension
1001
ACAD
1000
DSTYLE
1002
{
1070
             279
1070
               2
1070
             340
1005
3A
1070
             174
1070
               0
1070
             147
1040
5.0
1002
}
  0
DIMENSION
  5
195
100
AcDbEntity
  8
notes
370
               5
390
0
  6
Continuous
 62
               7
100
AcDbDimension
  2
*D9
 10
-690.00000000007731
 20
927.52032148594287
 30
0.0
 11
-400.00000000007412
 21
927.52032148594287
 31
0.0
 71
               5
 72
               1
 41
1.0
 42
0.0
  3
tform線あり
100
AcDbAlignedDimension
 13
-110.00000000007094
 23
774.52032148593742
 33
0.0
 14
-690.00000000007731
 24
774.52032148593833
 34
0.0
100
AcDbRotatedDimension
1001
ACAD
1000
DSTYLE
1002
{
1070
             279
1070
               2
1070
             340
1005
3A
1070
             147
1040
5.0
1002
}
  0
DIMENSION
  5
196
100
AcDbEntity
  8
notes
370
               5
390
0
  6
Continuous
 62
               7
100
AcDbDimension
  2
*D10
 10
49.999999999926331
 20
777.52032148594287
 30
0.0
 11
49.999999999926331
 21
502.52032148594333
 31
0.0
 71
               5
 72
               1
 41
1.0
 42
0.0
  3
tform線あり
100
AcDbAlignedDimension
 13
-68.000000000073669
 23
227.52032148594378
 33
0.0
 14
-113.02297520068669
 24
777.52032148594287
 34
0.0
 50
90.0
100
AcDbRotatedDimension
1001
ACAD
1000
DSTYLE
1002
{
1070
             279
1070
               2
1070
             340
1005
3A
1070
             147
1040
5.0
1002
}
  0
DIMENSION
  5
197
100
AcDbEntity
  8
notes
370
               5
390
0
  6
Continuous
 62
               7
100
AcDbDimension
  2
*D11
 10
-630.00000001761418
 20
127.52032148594367
 30
0.0
 11
-400.00000000003638
 21
127.52032148594367
 31
0.0
 71
               5
 72
               1
 41
1.0
 42
0.0
  3
tform線あり
100
AcDbAlignedDimension
 13
-169.99999998245858
 23
227.52032148594378
 33
0.0
 14
-630.00000001761418
 24
227.52032148594378
 34
0.0
100
AcDbRotatedDimension
1001
ACAD
1000
DSTYLE
1002
{
1070
             279
1070
               2
1070
             340
1005
3A
1070
             147
1040
5.0
1002
}
  0
DIMENSION
  5
198
100
AcDbEntity
  8
notes
370
               5
390
0
  6
Continuous
 62
               7
100
AcDbDimension
  2
*D12
 10
-169.99999998245858
 20
127.52032148594367
 30
0.0
 11
-109.99999999126612
 21
127.52032148594367
 31
0.0
 71
               5
 72
               1
 41
1.0
 42
0.0
  3
tform線あり
100
AcDbAlignedDimension
 13
-50.000000000073669
 23
245.52032148594378
 33
0.0
 14
-169.99999998245858
 24
227.52032148594378
 34
0.0
100
AcDbRotatedDimension
1001
ACAD
1000
DSTYLE
1002
{
1070
             279
1070
               2
1070
             340
1005
3A
1070
             147
1040
5.0
1002
}
  0
DIMENSION
  5
199
100
AcDbEntity
  8
notes
370
               5
390
0
  6
Continuous
 62
               7
100
AcDbDimension
  2
*D13
 10
-850.00000000007503
 20
777.52032148594287
 30
0.0
 11
-855.00000000007503
 21
692.52032148594128
 31
0.0
 70
             128
 71
               5
 72
               1
 41
1.0
 42
0.0
  3
tform線あり
100
AcDbAlignedDimension
 13
-750.00000000007503
 23
617.49557736495251
 33
0.0
 14
-686.97702479946201
 24
777.52032148594287
 34
0.0
 50
90.0
100
AcDbRotatedDimension
1001
ACAD
1000
DSTYLE
1002
{
1070
             279
1070
               2
1070
             340
1005
3A
1070
             147
1040
5.0
1002
}
  0
DIMENSION
  5
19A
100
AcDbEntity
  8
notes
370
               5
390
0
  6
Continuous
 62
               7
100
AcDbDimension
  2
*D14
 10
-850.00000000007503
 20
617.49557736495251
 30
0.0
 11
-855.00000000007503
 21
472.52032148594128
 31
0.0
 70
             128
 71
               5
 72
               1
 41
1.0
 42
0.0
  3
tform線あり
100
AcDbAlignedDimension
 13
-750.00000000007503
 23
302.50331238709759
 33
0.0
 14
-750.00000000007503
 24
617.49557736495251
 34
0.0
 50
90.0
100
AcDbRotatedDimension
1001
ACAD
1000
DSTYLE
1002
{
1070
             279
1070
               2
1070
             340
1005
3A
1070
             147
1040
5.0
1002
}
  0
DIMENSION
  5
19B
100
AcDbEntity
  8
notes
370
               5
390
0
  6
Continuous
 62
               7
100
AcDbDimension
  2
*D15
 10
49.531756053497475
 20
-433.75214824954742
 30
0.0
 11
49.531756053497475
 21
-523.70604469117734
 31
0.0
 71
               5
 72
               1
 41
1.0
 42
0.0
  3
tform線あり
100
AcDbAlignedDimension
 13
-378.44869232135761
 23
-613.65994113280703
 33
0.0
 14
-60.628375342088475
 24
-433.75214824954742
 34
0.0
 50
90.0
100
AcDbRotatedDimension
1001
ACAD
1000
DSTYLE
1002
{
1070
             271
1070
               0
1070
             279
1070
               2
1070
             340
1005
3A
1070
             147
1040
5.0
1002
}
  0
DIMENSION
  5
19C
100
AcDbEntity
  8
notes
370
               5
390
0
  6
Continuous
 62
               7
100
AcDbDimension
  2
*D16
 10
223.53948425597537
 20
-433.71877132454279
 30
0.0
 11
223.53948425597537
 21
-471.18101410357031
 31
0.0
 71
               5
 72
               1
 41
1.0
 42
0.0
  3
tform線あり
100
AcDbAlignedDimension
 13
328.53948425597537
 23
-508.64325688259783
 33
0.0
 14
333.72142253996572
 24
-433.71877132454279
 34
0.0
 50
90.0
100
AcDbRotatedDimension
1001
ACAD
1000
DSTYLE
1002
{
1070
             271
1070
               0
1070
             279
1070
               2
1070
             340
1005
3A
1070
             147
1040
5.0
1002
}
  0
DIMENSION
  5
19D
100
AcDbEntity
  8
notes
370
               5
390
0
  6
Continuous
 62
               7
100
AcDbDimension
  2
*D17
 10
223.53948425597537
 20
-508.64325688259783
 30
0.0
 11
223.53948425597537
 21
-538.60159900770395
 31
0.0
 71
               5
 72
               1
 41
1.0
 42
0.0
  3
tform線あり
100
AcDbAlignedDimension
 13
386.7630351527323
 23
-568.55994113281031
 33
0.0
 14
328.53948425597537
 24
-508.64325688259783
 34
0.0
 50
90.0
100
AcDbRotatedDimension
1001
ACAD
1000
DSTYLE
1002
{
1070
             271
1070
               0
1070
             279
1070
               2
1070
             340
1005
3A
1070
             147
1040
5.0
1002
}
  0
DIMENSION
  5
19E
100
AcDbEntity
  8
notes
370
               5
390
0
  6
Continuous
 62
               7
100
AcDbDimension
  2
*D18
 10
223.53948425597537
 20
-568.55994113281031
 30
0.0
 11
223.53948425597537
 21
-591.05994113280849
 31
0.0
 71
               5
 72
               1
 41
1.0
 42
0.0
  3
tform線あり
100
AcDbAlignedDimension
 13
577.12695745533802
 23
-613.5599411328069
 33
0.0
 14
386.7630351527323
 24
-568.55994113281031
 34
0.0
 50
90.0
100
AcDbRotatedDimension
1001
ACAD
1000
DSTYLE
1002
{
1070
             271
1070
               0
1070
             279
1070
               2
1070
             340
1005
3A
1070
             147
1040
5.0
1002
}
  0
DIMENSION
  5
19F
100
AcDbEntity
  8
notes
370
               5
390
0
  6
Continuous
 62
               7
100
AcDbDimension
  2
*D19
 10
-542.9590656362052
 20
-333.72077979463165
 30
0.0
 11
-400.45906563620497
 21
-333.72077979463165
 31
0.0
 71
               5
 72
               1
 41
1.0
 42
0.0
  3
tform線あり
100
AcDbAlignedDimension
 13
-257.95906563620474
 23
-488.71877132454279
 33
0.0
 14
-542.9590656362052
 24
-488.71877132454279
 34
0.0
100
AcDbRotatedDimension
1001
ACAD
1000
DSTYLE
1002
{
1070
             279
1070
               2
1070
             340
1005
3A
1070
             147
1040
5.0
1002
}
  0
DIMENSION
  5
1A0
100
AcDbEntity
  8
notes
370
               5
390
0
  6
Continuous
 62
               7
100
AcDbDimension
  2
*D20
 10
-850.46215036009653
 20
-508.68101410357326
 30
0.0
 11
-850.46215036009653
 21
-471.18101410357326
 31
0.0
 71
               5
 72
               1
 41
1.0
 42
0.0
  3
tform線あり
100
AcDbAlignedDimension
 13
-736.5590656362051
 23
-433.68101410357326
 33
0.0
 14
-592.97572456038506
 24
-508.68101410357326
 34
0.0
 50
90.0
100
AcDbRotatedDimension
1001
ACAD
1000
DSTYLE
1002
{
1070
             279
1070
               2
1070
             340
1005
3A
1070
             147
1040
5.0
1002
}
  0
DIMENSION
  5
1A1
100
AcDbEntity
  8
notes
370
               5
390
0
  6
Continuous
 62
               7
100
AcDbDimension
  2
*D21
 10
873.8121755730524
 20
-333.71877132454279
 30
0.0
 11
821.3121755730524
 21
-333.71877132454279
 31
0.0
 71
               5
 72
               1
 41
1.0
 42
0.0
  3
tform線あり
100
AcDbAlignedDimension
 13
768.8121755730524
 23
-433.71877132454279
 33
0.0
 14
873.8121755730524
 24
-453.483282401407
 34
0.0
100
AcDbRotatedDimension
1001
ACAD
1000
DSTYLE
1002
{
1070
             279
1070
               2
1070
             340
1005
3A
1070
             147
1040
5.0
1002
}
  0
DIMENSION
  5
1A2
100
AcDbEntity
  8
notes
370
               5
390
0
  6
Continuous
 62
               7
100
AcDbDimension
  2
*D22
 10
-407.2486538100286
 20
688.18199996828992
 30
0.0
 11
-282.59311486743627
 21
560.52032148594094
 31
0.0
 70
               3
 71
               5
 72
               1
 41
1.0
 42
0.0
  3
tform線あり
100
AcDbDiametricDimension
 15
-391.43502001450474
 25
656.95814712817571
 35
0.0
 40
108.10081365557473
1001
ACAD
1000
DSTYLE
1002
{
1070
             289
1070
               0
1070
             342
1005
4C
1070
             340
1005
3A
1070
              73
1070
               1
1070
              74
1070
               1
1070
               3
1000

1070
             174
1070
               0
1070
             147
1040
5.0
1002
}
  0
DIMENSION
  5
1A3
100
AcDbEntity
  8
notes
370
               5
390
0
  6
Continuous
 62
               7
100
AcDbDimension
  2
*D23
 10
608.62695745533802
 20
-713.5599411328069
 30
0.0
 11
741.2195665140174
 21
-713.5599411328069
 31
0.0
 71
               5
 72
               1
 41
1.0
 42
0.0
  3
tform線あり
100
AcDbAlignedDimension
 13
873.81217557269679
 23
-580.74572270882754
 33
0.0
 14
608.62695745533802
 24
-613.5599411328069
 34
0.0
100
AcDbRotatedDimension
1001
ACAD
1000
DSTYLE
1002
{
1070
             271
1070
               0
1070
             279
1070
               2
1070
             340
1005
3A
1070
             147
1040
5.0
1002
}
  0
MTEXT
  5
1A4
100
AcDbEntity
  8
notes
390
0
 62
               7
100
AcDbMText
 10
-769.64186853555339
 20
44.251201263469738
 30
0.0
 40
24.432617187500004
 41
832.41749808015356
 71
               1
 72
               1
  1
＝φ30もしくはφ35の水栓取付用穴あけ加工を承ります。\P   必要な場合、ご注文の際にご指示ください。
  7
ＭＳ ゴシック
 73
               1
 44
1.0437689845677123
  0
MTEXT
  5
1A5
100
AcDbEntity
  8
notes
390
0
 62
               7
100
AcDbMText
 10
-182.24901756836152
 20
-357.99991611467476
 30
0.0
 40
24.432617187500004
 41
0.0
 71
               1
 72
               1
  1
壁取付ボルト穴(2ヶ所)
  7
ＭＳ ゴシック
 73
               1
 44
0.7828267384257843
  0
LINE
  5
1A6
100
AcDbEntity
  8
notes
370
               5
390
0
  6
Continuous
 62
               7
100
AcDbLine
 10
-257.95906563620474
 20
-508.71877132454279
 30
0.0
 11
-168.90991171579662
 21
-392.95581939148565
 31
0.0
  0
CIRCLE
  5
1A7
100
AcDbEntity
  8
notes
370
              15
390
0
  6
STYLE_13
 62
               7
100
AcDbCircle
 10
-787.22437045539982
 20
29.281228675457214
 30
0.0
 40
15.0
  0
LINE
  5
1A8
100
AcDbEntity
  8
ARJ70-1001
370
              15
390
0
  6
Continuous
 62
               7
100
AcDbLine
 10
328.53948425597537
 20
-508.64325688259896
 30
0.0
 11
581.0
 21
-508.64325688259896
 31
0.0
  0
LINE
  5
1A9
100
AcDbEntity
  8
ARJ70-1001
370
              15
390
0
  6
STYLE_13
 62
               7
100
AcDbLine
 10
-726.49036383142584
 20
-443.75689939862968
 30
0.0
 11
-75.996477955953651
 21
-443.76501809051797
 31
0.0
  0
LINE
  5
1AA
100
AcDbEntity
  8
ARJ70-1001
370
              15
390
0
  6
Continuous
 62
               7
100
AcDbLine
 10
-690.46215036009608
 20
-563.67663464628299
 30
0.0
 11
-692.21428242107731
 21
-513.5021371627729
 31
0.0
  0
LINE
  5
1AB
100
AcDbEntity
  8
ARJ70-1001
370
              15
390
0
  6
STYLE_13
 62
               7
100
AcDbLine
 10
-733.77839721438295
 20
-437.1182938650079
 30
0.0
 11
-730.56306933467795
 21
-441.64680818880788
 31
0.0
  0
LINE
  5
1AC
100
AcDbEntity
  8
ARJ70-1001
370
              15
390
0
  6
Continuous
 62
               7
100
AcDbLine
 10
-745.46215036009608
 20
-508.67663464628185
 30
0.0
 11
-697.2112365561793
 21
-508.6766346462889
 31
0.0
  0
ARC
  5
1AD
100
AcDbEntity
  8
ARJ70-1001
370
              15
390
0
  6
Continuous
 62
               7
100
AcDbCircle
 10
-745.46215036009608
 20
-503.67663464628299
 30
0.0
 40
5.0
100
AcDbArc
 50
180.0
 51
270.0
  0
LINE
  5
1AE
100
AcDbEntity
  8
ARJ70-1001
370
              15
390
0
  6
Continuous
 62
               7
100
AcDbLine
 10
-685.46215036009608
 20
-568.67663464628299
 30
0.0
 11
-400.46215036009585
 21
-568.6766346462598
 31
0.0
  0
ARC
  5
1AF
100
AcDbEntity
  8
ARJ70-1001
370
              15
390
0
  6
Continuous
 62
               7
100
AcDbCircle
 10
-685.46215036009608
 20
-563.67663464628299
 30
0.0
 40
5.0
100
AcDbArc
 50
180.0
 51
270.0
  0
LINE
  5
1B0
100
AcDbEntity
  8
ARJ70-1001
370
              15
390
0
  6
STYLE_13
 62
               7
100
AcDbLine
 10
-589.6804898460864
 20
-569.30743064435933
 30
0.0
 11
-435.41361734642169
 21
-580.48451889727698
 31
0.0
  0
LINE
  5
1B1
100
AcDbEntity
  8
ARJ70-1001
370
              15
390
0
  6
STYLE_13
 62
               7
100
AcDbLine
 10
-422.49009028266482
 20
-594.32197263253897
 30
0.0
 11
-422.49009028264982
 21
-613.65994113280703
 31
0.0
  0
LINE
  5
1B2
100
AcDbEntity
  8
ARJ70-1001
370
              15
390
0
  6
STYLE_13
 62
               7
100
AcDbLine
 10
-436.39893303509416
 20
-580.41312988010941
 30
0.0
 11
-422.49009028266482
 21
-594.32197263253897
 31
0.0
  0
LINE
  5
1B3
100
AcDbEntity
  8
ARJ70-1001
370
              15
390
0
  6
Continuous
 62
               7
100
AcDbLine
 10
-619.0899671307443
 20
-604.78390087240291
 30
0.0
 11
-398.90983609951377
 21
-604.43308952145799
 31
0.0
  0
ARC
  5
1B4
100
AcDbEntity
  8
ARJ70-1001
370
              15
390
0
  6
Continuous
 62
               7
100
AcDbCircle
 10
-740.29969967402803
 20
-441.75214908822795
 30
0.0
 40
8.0
100
AcDbArc
 50
90.0
 51
180.0
  0
ARC
  5
1B5
100
AcDbEntity
  8
ARJ70-1001
370
              15
390
0
  6
STYLE_13
 62
               7
100
AcDbCircle
 10
-740.29969967402803
 20
-441.75214908822795
 30
0.0
 40
8.0000000000000817
100
AcDbArc
 50
35.354358250791449
 51
90.0
  0
ARC
  5
1B6
100
AcDbEntity
  8
ARJ70-1001
370
              15
390
0
  6
STYLE_13
 62
               7
100
AcDbCircle
 10
-726.48618956070504
 20
-438.75214908824296
 30
0.0
 40
4.9999999999999494
100
AcDbArc
 50
215.37544757788751
 51
270.0
  0
LINE
  5
1B7
100
AcDbEntity
  8
ARJ70-1001
370
              15
390
0
  6
Continuous
 62
               7
100
AcDbLine
 10
-750.46215036009608
 20
-503.67663464628299
 30
0.0
 11
-748.28021207612119
 21
-441.19409729857489
 31
0.0
  0
LINE
  5
1B8
100
AcDbEntity
  8
ARJ70-1001
370
              15
390
0
  6
Continuous
 62
               7
100
AcDbLine
 10
-707.57942857199214
 20
-508.67663464628185
 30
0.0
 11
-400.46215036009585
 21
-508.67663464628185
 31
0.0
  0
ARC
  5
1B9
100
AcDbEntity
  8
ARJ70-1001
370
              15
390
0
  6
Continuous
 62
               7
100
AcDbCircle
 10
-697.2112365561793
 20
-513.67663464628981
 30
0.0
 40
5.0000000000003331
100
AcDbArc
 50
2.000000000212085
 51
90.0
  0
LINE
  5
1BA
100
AcDbEntity
  8
ARJ70-1001
370
              15
390
0
  6
STYLE_13
 62
               7
100
AcDbLine
 10
-625.27582857175821
 20
-447.12417050851082
 30
0.0
 11
-594.16780044007692
 21
-561.94984247686079
 31
0.0
  0
ARC
  5
1BB
100
AcDbEntity
  8
ARJ70-1001
370
              15
390
0
  6
STYLE_13
 62
               7
100
AcDbCircle
 10
-629.8770193961559
 20
-449.08096456957583
 30
0.0
 40
4.9999999999999263
100
AcDbArc
 50
23.039075119824854
 51
90.023928175234204
  0
ARC
  5
1BC
100
AcDbEntity
  8
ARJ70-1001
370
              15
390
0
  6
STYLE_13
 62
               7
100
AcDbCircle
 10
-589.56660961566695
 20
-564.30872768327845
 30
0.0
 40
4.9999999999999263
100
AcDbArc
 50
203.03907511982484
 51
268.69491583378209
  0
ARC
  5
1BD
100
AcDbEntity
  8
ARJ70-1001
370
              15
390
0
  6
Continuous
 62
               7
100
AcDbCircle
 10
-619.0899671307443
 20
-599.78390087240291
 30
0.0
 40
4.9999999999997886
100
AcDbArc
 50
195.51849411229827
 51
270.0
  0
LINE
  5
1BE
100
AcDbEntity
  8
ARJ70-1001
370
              15
390
0
  6
Continuous
 62
               7
100
AcDbLine
 10
-60.623574788926362
 20
-433.71877132454279
 30
0.0
 11
-400.46112410284445
 21
-433.64325688260374
 31
0.0
  0
LINE
  5
1BF
100
AcDbEntity
  8
ARJ70-1001
370
              15
390
0
  6
Continuous
 62
               7
100
AcDbLine
 10
-632.81935495775815
 20
-569.02744599722087
 30
0.0
 11
-623.90768784556894
 21
-601.12164790154088
 31
0.0
  0
LINE
  5
1C0
100
AcDbEntity
  8
ARJ70-1001
370
              15
390
0
  6
Continuous
 62
               7
100
AcDbLine
 10
-115.46452251655955
 20
-568.67663464628299
 30
0.0
 11
-400.46215036009585
 21
-568.6766346462598
 31
0.0
  0
LINE
  5
1C1
100
AcDbEntity
  8
ARJ70-1001
370
              15
390
0
  6
STYLE_13
 62
               7
100
AcDbLine
 10
-211.2438108741062
 20
-571.49175137686984
 30
0.0
 11
-365.0
 21
-580.85679150171177
 31
0.0
  0
LINE
  5
1C2
100
AcDbEntity
  8
ARJ70-1001
370
              15
390
0
  6
STYLE_13
 62
               7
100
AcDbLine
 10
-378.43421043752596
 20
-594.32197263253897
 30
0.0
 11
-378.44869232135761
 21
-613.65994113280703
 31
0.0
  0
LINE
  5
1C3
100
AcDbEntity
  8
ARJ70-1001
370
              15
390
0
  6
STYLE_13
 62
               7
100
AcDbLine
 10
-365.0
 20
-580.85679150171177
 30
0.0
 11
-378.43421043752596
 21
-594.32197263253897
 31
0.0
  0
LINE
  5
1C4
100
AcDbEntity
  8
ARJ70-1001
370
              15
390
0
  6
Continuous
 62
               7
100
AcDbLine
 10
-181.83433358944558
 20
-604.78390087240291
 30
0.0
 11
-402.01446462067588
 21
-604.43308952145799
 31
0.0
  0
LINE
  5
1C5
100
AcDbEntity
  8
ARJ70-1001
370
              15
390
0
  6
Continuous
 62
               7
100
AcDbLine
 10
-57.004142331339608
 20
-508.69598029793883
 30
0.0
 11
-400.46215036009585
 21
-508.67663464628185
 31
0.0
  0
LINE
  5
1C6
100
AcDbEntity
  8
ARJ70-1001
370
              15
390
0
  6
STYLE_13
 62
               7
100
AcDbLine
 10
-175.64847214844667
 20
-447.12417050851082
 30
0.0
 11
-206.75650028012888
 21
-561.94984247686079
 31
0.0
  0
ARC
  5
1C7
100
AcDbEntity
  8
ARJ70-1001
370
              15
390
0
  6
STYLE_13
 62
               7
100
AcDbCircle
 10
-171.04728132403397
 20
-449.08096456957583
 30
0.0
 40
5.0000000000000693
100
AcDbArc
 50
89.976071824765839
 51
156.96092488017618
  0
ARC
  5
1C8
100
AcDbEntity
  8
ARJ70-1001
370
              15
390
0
  6
STYLE_13
 62
               7
100
AcDbCircle
 10
-211.35769110452566
 20
-566.49304841578896
 30
0.0
 40
4.9999999999999147
100
AcDbArc
 50
271.30508416621791
 51
336.96092488017518
  0
ARC
  5
1C9
100
AcDbEntity
  8
ARJ70-1001
370
              15
390
0
  6
Continuous
 62
               7
100
AcDbCircle
 10
-181.83433358944558
 20
-599.78390087240291
 30
0.0
 40
5.0
100
AcDbArc
 50
270.0
 51
344.48150588770244
  0
LINE
  5
1CA
100
AcDbEntity
  8
ARJ70-1001
370
              15
390
0
  6
Continuous
 62
               7
100
AcDbLine
 10
-168.104945762434
 20
-569.02744599722087
 30
0.0
 11
-177.01661287462093
 21
-601.12164790154088
 31
0.0
  0
LINE
  5
1CB
100
AcDbEntity
  8
ARJ70-1001
370
              15
390
0
  6
Continuous
 62
               7
100
AcDbLine
 10
-110.46756838145893
 20
-563.851132129799
 30
0.0
 11
-108.54150803804987
 21
-508.69598029793087
 31
0.0
  0
LINE
  5
1CC
100
AcDbEntity
  8
ARJ70-1001
370
              15
390
0
  6
STYLE_13
 62
               7
100
AcDbLine
 10
-67.149312980110608
 20
-437.12309581794284
 30
0.0
 11
-69.473470317593637
 21
-440.39647265144595
 31
0.0
  0
ARC
  5
1CD
100
AcDbEntity
  8
ARJ70-1001
370
              15
390
0
  6
STYLE_13
 62
               7
100
AcDbCircle
 10
-60.624601046177759
 20
-441.75214908822795
 30
0.0
 40
8.0
100
AcDbArc
 50
90.0
 51
144.6456417493884
  0
LINE
  5
1CE
100
AcDbEntity
  8
ARJ70-1001
370
              15
390
0
  6
Continuous
 62
               7
100
AcDbLine
 10
-50.468243946497751
 20
-503.52148281441487
 30
0.0
 11
-52.635026385630681
 21
-441.47295207842285
 31
0.0
  0
LINE
  5
1CF
100
AcDbEntity
  8
ARJ70-1001
370
              15
390
0
  6
Continuous
 62
               7
100
AcDbLine
 10
-55.465198081526978
 20
-508.69598029793087
 30
0.0
 11
-57.004142331339608
 21
-508.69598029793883
 31
0.0
  0
ARC
  5
1D0
100
AcDbEntity
  8
ARJ70-1001
370
              15
390
0
  6
Continuous
 62
               7
100
AcDbCircle
 10
-55.465198081597919
 20
-503.69598029793201
 30
0.0
 40
5.0
100
AcDbArc
 50
270.00000000083378
 51
2.0000000000063092
  0
ARC
  5
1D1
100
AcDbEntity
  8
ARJ70-1001
370
              15
390
0
  6
Continuous
 62
               7
100
AcDbCircle
 10
-60.630153001782674
 20
-441.75214805204291
 30
0.0
 40
8.0000000000001616
100
AcDbArc
 50
2.0000000000052403
 51
89.987268450159235
  0
ARC
  5
1D2
100
AcDbEntity
  8
ARJ70-1001
370
              15
390
0
  6
STYLE_13
 62
               7
100
AcDbCircle
 10
-75.996477955953651
 20
-435.76501809051797
 30
0.0
 40
8.0
100
AcDbArc
 50
270.0
 51
324.62455242161752
  0
ARC
  5
1D3
100
AcDbEntity
  8
ARJ70-1001
370
              15
390
0
  6
Continuous
 62
               7
100
AcDbCircle
 10
-115.46452251655955
 20
-563.67663464628299
 30
0.0
 40
5.0
100
AcDbArc
 50
270.0
 51
357.9999999999938
  0
LINE
  5
1D4
100
AcDbEntity
  8
ARJ70-1001
370
              15
390
0
  6
Continuous
 62
               7
100
AcDbLine
 10
333.70193494204341
 20
-433.71877132454279
 30
0.0
 11
844.19743183386049
 21
-433.71877132454279
 31
0.0
  0
LINE
  5
1D5
100
AcDbEntity
  8
ARJ70-1001
370
              15
390
0
  6
Continuous
 62
               7
100
AcDbLine
 10
383.76241686780031
 20
-565.55994119651496
 30
0.0
 11
383.75973980341132
 21
-508.64325688259896
 31
0.0
  0
LINE
  5
1D6
100
AcDbEntity
  8
ARJ70-1001
370
              15
390
0
  6
Continuous
 62
               7
100
AcDbLine
 10
386.76303515274685
 20
-568.55994113279189
 30
0.0
 11
854.0133283800667
 21
-568.46951616029992
 31
0.0
  0
LINE
  5
1D7
100
AcDbEntity
  8
ARJ70-1001
370
              15
390
0
  6
Continuous
 62
               7
100
AcDbLine
 10
873.81217557263039
 20
-604.51112725859889
 30
0.0
 11
854.0133283800667
 21
-604.51112725862185
 31
0.0
  0
LINE
  5
1D8
100
AcDbEntity
  8
ARJ70-1001
370
              15
390
0
  6
Continuous
 62
               7
100
AcDbLine
 10
873.8121755730524
 20
-453.483282401407
 30
0.0
 11
857.33575920332692
 21
-453.483282401407
 31
0.0
  0
LINE
  5
1D9
100
AcDbEntity
  8
ARJ70-1001
370
              15
390
0
  6
Continuous
 62
               7
100
AcDbLine
 10
873.81217557263039
 20
-604.51112725859889
 30
0.0
 11
873.8121755730524
 21
-453.483282401407
 31
0.0
  0
ARC
  5
1DA
100
AcDbEntity
  8
ARJ70-1001
370
              15
390
0
  6
Continuous
 62
               7
100
AcDbCircle
 10
386.76241686780031
 20
-565.55994119652291
 30
0.0
 40
3.0
100
AcDbArc
 50
180.0
 51
270.01180837246346
  0
ARC
  5
1DB
100
AcDbEntity
  8
ARJ70-1001
370
              15
390
0
  6
Continuous
 62
               7
100
AcDbCircle
 10
857.33575920332692
 20
-448.48328240141382
 30
0.0
 40
5.0
100
AcDbArc
 50
180.0
 51
270.0
  0
ARC
  5
1DC
100
AcDbEntity
  8
ARJ70-1001
370
              15
390
0
  6
Continuous
 62
               7
100
AcDbCircle
 10
560.72136342737849
 20
-405.31364974052099
 30
0.0
 40
199.16858358847412
100
AcDbArc
 50
235.04245628769598
 51
273.19204654677225
  0
LINE
  5
1DD
100
AcDbEntity
  8
ARJ70-1001
370
              15
390
0
  6
Continuous
 62
               7
100
AcDbLine
 10
854.0133283800667
 20
-568.46833263835197
 30
0.0
 11
854.0133283800667
 21
-604.51112725862185
 31
0.0
  0
ARC
  5
1DE
100
AcDbEntity
  8
ARJ70-1001
370
              15
390
0
  6
Continuous
 62
               7
100
AcDbCircle
 10
522.34838198398847
 20
-347.48244587771387
 30
0.0
 40
282.42157917416813
100
AcDbArc
 50
294.64728838353437
 51
308.50267276673623
  0
LINE
  5
1DF
100
AcDbEntity
  8
ARJ70-1001
370
              15
390
0
  6
Continuous
 62
               7
100
AcDbLine
 10
640.12695745533802
 20
-604.17322394184794
 30
0.0
 11
571.86810115427852
 21
-604.17322394183998
 31
0.0
  0
ARC
  5
1E0
100
AcDbEntity
  8
ARJ70-1001
370
              15
390
0
  6
Continuous
 62
               7
100
AcDbCircle
 10
328.53948425597537
 20
-503.64325688259783
 30
0.0
 40
5.0
100
AcDbArc
 50
180.0
 51
270.0
  0
ARC
  5
1E1
100
AcDbEntity
  8
ARJ70-1001
370
              15
390
0
  6
Continuous
 62
               7
100
AcDbCircle
 10
333.72142253996572
 20
-441.71877132454279
 30
0.0
 40
8.0
100
AcDbArc
 50
90.0
 51
180.0
  0
LINE
  5
1E2
100
AcDbEntity
  8
ARJ70-1001
370
              15
390
0
  6
Continuous
 62
               7
100
AcDbLine
 10
323.53948425597537
 20
-503.643256882591
 30
0.0
 11
325.72142253996572
 21
-441.1607195348829
 31
0.0
  0
ARC
  5
1E3
100
AcDbEntity
  8
ARJ70-1001
370
              15
390
0
  6
Continuous
 62
               7
100
AcDbCircle
 10
844.19743183386049
 20
-441.71877132454983
 30
0.0
 40
8.0
100
AcDbArc
 50
0.0
 51
90.0
  0
LINE
  5
1E4
100
AcDbEntity
  8
ARJ70-1001
370
              15
390
0
  6
Continuous
 62
               7
100
AcDbLine
 10
852.96342565264672
 20
-463.65396433214482
 30
0.0
 11
852.1779442359682
 21
-441.1607195348829
 31
0.0
  0
LINE
  5
1E5
100
AcDbEntity
  8
ARJ70-1001
370
              15
390
0
  6
Continuous
 62
               7
100
AcDbLine
 10
854.35378893354095
 20
-503.46875939908091
 30
0.0
 11
852.96342565264672
 21
-463.65396433214482
 31
0.0
  0
ARC
  5
1E6
100
AcDbEntity
  8
ARJ70-1001
370
              15
390
0
  6
Continuous
 62
               7
100
AcDbCircle
 10
849.35683479843897
 20
-503.64325688259783
 30
0.0
 40
5.0
100
AcDbArc
 50
270.0
 51
1.9999999997925217
  0
LINE
  5
1E7
100
AcDbEntity
  8
ARJ70-1001
370
              15
390
0
  6
Continuous
 62
               7
100
AcDbLine
 10
-400.00000000007481
 20
227.52032148594378
 30
0.0
 11
-732.00000000007503
 21
227.52032148594378
 31
0.0
  0
LINE
  5
1E8
100
AcDbEntity
  8
ARJ70-1001
370
              15
390
0
  6
Continuous
 62
               7
100
AcDbLine
 10
-400.00000000007481
 20
229.68277217201933
 30
0.0
 11
-732.00000000007503
 21
229.68277217201933
 31
0.0
  0
LINE
  5
1E9
100
AcDbEntity
  8
ARJ70-1001
370
              15
390
0
  6
Continuous
 62
               7
100
AcDbLine
 10
-750.00000000007503
 20
739.52032148594378
 30
0.0
 11
-750.00000000007503
 21
245.52032148594378
 31
0.0
  0
ARC
  5
1EA
100
AcDbEntity
  8
ARJ70-1001
370
              15
390
0
  6
Continuous
 62
               7
100
AcDbCircle
 10
-732.00000000007503
 20
245.52032148594378
 30
0.0
 40
18.0
100
AcDbArc
 50
180.0
 51
270.0
  0
ARC
  5
1EB
100
AcDbEntity
  8
ARJ70-1001
370
              15
390
0
  6
Continuous
 62
               7
100
AcDbCircle
 10
-732.00000000007503
 20
245.52032148594378
 30
0.0
 40
15.837549313924683
100
AcDbArc
 50
180.0
 51
270.0
  0
LINE
  5
1EC
100
AcDbEntity
  8
ARJ70-1001
370
              15
390
0
  6
Continuous
 62
               7
100
AcDbLine
 10
-686.97702479946201
 20
777.52032148594287
 30
0.0
 11
-400.00000000007481
 21
777.52032148593946
 31
0.0
  0
LINE
  5
1ED
100
AcDbEntity
  8
ARJ70-1001
370
              15
390
0
  6
Continuous
 62
               7
100
AcDbLine
 10
-750.00000000007503
 20
739.52032148594378
 30
0.0
 11
-750.00000000007503
 21
245.52032148594378
 31
0.0
  0
LINE
  5
1EE
100
AcDbEntity
  8
ARJ70-1001
370
              15
390
0
  6
Continuous
 62
               7
100
AcDbLine
 10
-747.83754931399926
 20
739.52032148594378
 30
0.0
 11
-747.83754931399926
 21
245.52032148594378
 31
0.0
  0
ARC
  5
1EF
100
AcDbEntity
  8
ARJ70-1001
370
              15
390
0
  6
Continuous
 62
               7
100
AcDbCircle
 10
-732.00000000007503
 20
739.52032148594378
 30
0.0
 40
18.0
100
AcDbArc
 50
90.0
 51
180.0
  0
ARC
  5
1F0
100
AcDbEntity
  8
ARJ70-1001
370
              15
390
0
  6
Continuous
 62
               7
100
AcDbCircle
 10
-732.00000000007503
 20
739.52032148594378
 30
0.0
 40
15.837549313924683
100
AcDbArc
 50
90.0
 51
180.0
  0
ARC
  5
1F1
100
AcDbEntity
  8
ARJ70-1001
370
              15
390
0
  6
Continuous
 62
               7
100
AcDbCircle
 10
-687.00000000007822
 20
774.52032148594287
 30
0.0
 40
3.0
100
AcDbArc
 50
90.0
 51
180.00000000005215
  0
LINE
  5
1F2
100
AcDbEntity
  8
ARJ70-1001
370
              15
390
0
  6
Continuous
 62
               7
100
AcDbLine
 10
-690.00000000007003
 20
769.12082675673889
 30
0.0
 11
-690.00000000007731
 21
774.52032148593833
 31
0.0
  0
LINE
  5
1F3
100
AcDbEntity
  8
ARJ70-1001
370
              15
390
0
  6
Continuous
 62
               7
100
AcDbLine
 10
-732.00000000007503
 20
757.52032148594378
 30
0.0
 11
-701.57753007018118
 21
757.52032148598221
 31
0.0
  0
LINE
  5
1F4
100
AcDbEntity
  8
ARJ70-1001
370
              15
390
0
  6
Continuous
 62
               7
100
AcDbLine
 10
-733.31283738007824
 20
730.83315886598018
 30
0.0
 11
-733.31283738007824
 21
254.20748410593944
 31
0.0
  0
ARC
  5
1F5
100
AcDbEntity
  8
ARJ70-1001
370
              15
390
0
  6
Continuous
 62
               7
100
AcDbCircle
 10
-723.31283738007824
 20
730.83315886598018
 30
0.0
 40
10.0
100
AcDbArc
 50
90.0
 51
180.0
  0
LINE
  5
1F6
100
AcDbEntity
  8
ARJ70-1001
370
              15
390
0
  6
Continuous
 62
               7
100
AcDbLine
 10
-724.47192836644717
 20
726.99224985235094
 30
0.0
 11
-724.47192836644717
 21
258.04839311957119
 31
0.0
  0
LINE
  5
1F7
100
AcDbEntity
  8
ARJ70-1001
370
              15
390
0
  6
Continuous
 62
               7
100
AcDbLine
 10
-719.47192836644717
 20
731.99224985235094
 30
0.0
 11
-400.00000000007481
 21
731.99224985235094
 31
0.0
  0
ARC
  5
1F8
100
AcDbEntity
  8
ARJ70-1001
370
              15
390
0
  6
Continuous
 62
               7
100
AcDbCircle
 10
-719.47192836644717
 20
726.99224985235094
 30
0.0
 40
5.0
100
AcDbArc
 50
90.0
 51
180.0
  0
LINE
  5
1F9
100
AcDbEntity
  8
ARJ70-1001
370
              15
390
0
  6
Continuous
 62
               7
100
AcDbLine
 10
-723.31283738007824
 20
740.83315886598086
 30
0.0
 11
-400.00000000007481
 21
740.83315886598086
 31
0.0
  0
ARC
  5
1FA
100
AcDbEntity
  8
ARJ70-1001
370
              15
390
0
  6
Continuous
 62
               7
100
AcDbCircle
 10
-701.60050527081012
 20
769.12082675672161
 30
0.0
 40
11.600505270740086
100
AcDbArc
 50
270.00000000005167
 51
0.0000000000528075
  0
ARC
  5
1FB
100
AcDbEntity
  8
ARJ70-1001
370
              15
390
0
  6
Continuous
 62
               7
100
AcDbCircle
 10
-703.76295595689135
 20
769.12082675671957
 30
0.0
 40
13.762955956820861
100
AcDbArc
 50
270.00000000005303
 51
0.0000000000520686
  0
LINE
  5
1FC
100
AcDbEntity
  8
ARJ70-1001
370
              15
390
0
  6
Continuous
 62
               7
100
AcDbLine
 10
-732.00000000007503
 20
755.35787079986869
 30
0.0
 11
-400.00000000007367
 21
755.35787080022681
 31
0.0
  0
LINE
  5
1FD
100
AcDbEntity
  8
ARJ70-1001
370
              15
390
0
  6
Continuous
 62
               7
100
AcDbLine
 10
-400.00000000007481
 20
253.04839311956937
 30
0.0
 11
-719.47192836644717
 21
253.04839311957096
 31
0.0
  0
LINE
  5
1FE
100
AcDbEntity
  8
ARJ70-1001
370
              15
390
0
  6
Continuous
 62
               7
100
AcDbLine
 10
-400.00000000007481
 20
244.20748410593831
 30
0.0
 11
-723.31283738007824
 21
244.20748410593922
 31
0.0
  0
LINE
  5
1FF
100
AcDbEntity
  8
ARJ70-1001
370
              15
390
0
  6
Continuous
 62
               7
100
AcDbLine
 10
-400.00000000007481
 20
229.68277217201614
 30
0.0
 11
-732.00000000007503
 21
229.68277217201933
 31
0.0
  0
ARC
  5
200
100
AcDbEntity
  8
ARJ70-1001
370
              15
390
0
  6
Continuous
 62
               7
100
AcDbCircle
 10
-723.31283738007824
 20
254.20748410593944
 30
0.0
 40
10.0
100
AcDbArc
 50
180.0
 51
270.0
  0
ARC
  5
201
100
AcDbEntity
  8
ARJ70-1001
370
              15
390
0
  6
Continuous
 62
               7
100
AcDbCircle
 10
-719.47192836644717
 20
258.04839311957119
 30
0.0
 40
5.0
100
AcDbArc
 50
180.0
 51
270.0
  0
LINE
  5
202
100
AcDbEntity
  8
ARJ70-1001
370
              15
390
0
  6
Continuous
 62
               7
100
AcDbLine
 10
-400.00000000007481
 20
227.52032148594378
 30
0.0
 11
-68.000000000073669
 21
227.52032148594378
 31
0.0
  0
LINE
  5
203
100
AcDbEntity
  8
ARJ70-1001
370
              15
390
0
  6
Continuous
 62
               7
100
AcDbLine
 10
-400.00000000007481
 20
229.68277217201933
 30
0.0
 11
-68.000000000073669
 21
229.68277217201933
 31
0.0
  0
LINE
  5
204
100
AcDbEntity
  8
ARJ70-1001
370
              15
390
0
  6
Continuous
 62
               7
100
AcDbLine
 10
-50.000000000073669
 20
739.52032148594378
 30
0.0
 11
-50.000000000073669
 21
245.52032148594378
 31
0.0
  0
ARC
  5
205
100
AcDbEntity
  8
ARJ70-1001
370
              15
390
0
  6
Continuous
 62
               7
100
AcDbCircle
 10
-68.000000000073669
 20
245.52032148594378
 30
0.0
 40
18.0
100
AcDbArc
 50
270.0
 51
0.0
  0
ARC
  5
206
100
AcDbEntity
  8
ARJ70-1001
370
              15
390
0
  6
Continuous
 62
               7
100
AcDbCircle
 10
-68.000000000073669
 20
245.52032148594378
 30
0.0
 40
15.837549313924683
100
AcDbArc
 50
270.0
 51
0.0
  0
LINE
  5
207
100
AcDbEntity
  8
ARJ70-1001
370
              15
390
0
  6
Continuous
 62
               7
100
AcDbLine
 10
-113.02297520068669
 20
777.52032148594287
 30
0.0
 11
-400.00000000007481
 21
777.52032148593946
 31
0.0
  0
LINE
  5
208
100
AcDbEntity
  8
ARJ70-1001
370
              15
390
0
  6
Continuous
 62
               7
100
AcDbLine
 10
-50.000000000073669
 20
739.52032148594378
 30
0.0
 11
-50.000000000073669
 21
245.52032148594378
 31
0.0
  0
LINE
  5
209
100
AcDbEntity
  8
ARJ70-1001
370
              15
390
0
  6
Continuous
 62
               7
100
AcDbLine
 10
-52.162450686149896
 20
739.52032148594378
 30
0.0
 11
-52.162450686149896
 21
245.52032148594378
 31
0.0
  0
ARC
  5
20A
100
AcDbEntity
  8
ARJ70-1001
370
              15
390
0
  6
Continuous
 62
               7
100
AcDbCircle
 10
-68.000000000073669
 20
739.52032148594378
 30
0.0
 40
18.0
100
AcDbArc
 50
0.0
 51
90.0
  0
ARC
  5
20B
100
AcDbEntity
  8
ARJ70-1001
370
              15
390
0
  6
Continuous
 62
               7
100
AcDbCircle
 10
-68.000000000073669
 20
739.52032148594378
 30
0.0
 40
15.837549313924683
100
AcDbArc
 50
0.0
 51
90.0
  0
LINE
  5
20C
100
AcDbEntity
  8
ARJ70-1001
370
              15
390
0
  6
Continuous
 62
               7
100
AcDbLine
 10
-68.000000000073669
 20
757.52032148594378
 30
0.0
 11
-98.422469929967974
 21
757.52032148598221
 31
0.0
  0
LINE
  5
20D
100
AcDbEntity
  8
ARJ70-1001
370
              15
390
0
  6
Continuous
 62
               7
100
AcDbLine
 10
-66.687162620071831
 20
730.83315886598018
 30
0.0
 11
-66.687162620069557
 21
254.20748410593944
 31
0.0
  0
ARC
  5
20E
100
AcDbEntity
  8
ARJ70-1001
370
              15
390
0
  6
Continuous
 62
               7
100
AcDbCircle
 10
-76.687162620069557
 20
730.83315886598018
 30
0.0
 40
10.0
100
AcDbArc
 50
0.0
 51
90.0
  0
LINE
  5
20F
100
AcDbEntity
  8
ARJ70-1001
370
              15
390
0
  6
Continuous
 62
               7
100
AcDbLine
 10
-75.528071633701984
 20
726.99224985235094
 30
0.0
 11
-75.52807163369971
 21
258.04839311957119
 31
0.0
  0
LINE
  5
210
100
AcDbEntity
  8
ARJ70-1001
370
              15
390
0
  6
Continuous
 62
               7
100
AcDbLine
 10
-80.528071633701984
 20
731.99224985235094
 30
0.0
 11
-400.00000000007481
 21
731.99224985235094
 31
0.0
  0
ARC
  5
211
100
AcDbEntity
  8
ARJ70-1001
370
              15
390
0
  6
Continuous
 62
               7
100
AcDbCircle
 10
-80.528071633701984
 20
726.99224985235094
 30
0.0
 40
5.0
100
AcDbArc
 50
0.0
 51
90.0
  0
LINE
  5
212
100
AcDbEntity
  8
ARJ70-1001
370
              15
390
0
  6
Continuous
 62
               7
100
AcDbLine
 10
-76.687162620069557
 20
740.83315886598086
 30
0.0
 11
-400.00000000007481
 21
740.83315886598086
 31
0.0
  0
LINE
  5
213
100
AcDbEntity
  8
ARJ70-1001
370
              15
390
0
  6
Continuous
 62
               7
100
AcDbLine
 10
-68.000000000073669
 20
755.35787079986869
 30
0.0
 11
-400.00000000007481
 21
755.35787080022681
 31
0.0
  0
LINE
  5
214
100
AcDbEntity
  8
ARJ70-1001
370
              15
390
0
  6
Continuous
 62
               7
100
AcDbLine
 10
-400.00000000007481
 20
253.04839311956937
 30
0.0
 11
-80.52807163369971
 21
253.04839311957096
 31
0.0
  0
LINE
  5
215
100
AcDbEntity
  8
ARJ70-1001
370
              15
390
0
  6
Continuous
 62
               7
100
AcDbLine
 10
-400.00000000007481
 20
244.20748410593831
 30
0.0
 11
-76.687162620069557
 21
244.20748410593922
 31
0.0
  0
LINE
  5
216
100
AcDbEntity
  8
ARJ70-1001
370
              15
390
0
  6
Continuous
 62
               7
100
AcDbLine
 10
-400.00000000007481
 20
229.68277217201614
 30
0.0
 11
-68.000000000073669
 21
229.68277217201933
 31
0.0
  0
ARC
  5
217
100
AcDbEntity
  8
ARJ70-1001
370
              15
390
0
  6
Continuous
 62
               7
100
AcDbCircle
 10
-76.687162620069557
 20
254.20748410593944
 30
0.0
 40
10.0
100
AcDbArc
 50
270.0
 51
0.0
  0
ARC
  5
218
100
AcDbEntity
  8
ARJ70-1001
370
              15
390
0
  6
Continuous
 62
               7
100
AcDbCircle
 10
-80.52807163369971
 20
258.04839311957119
 30
0.0
 40
5.0
100
AcDbArc
 50
270.0
 51
0.0
  0
CIRCLE
  5
219
100
AcDbEntity
  8
ARJ70-1001
370
              15
390
0
  6
Continuous
 62
               7
100
AcDbCircle
 10
-399.15072880320281
 20
512.46418318108374
 30
0.0
 40
22.500000000000227
  0
CIRCLE
  5
21A
100
AcDbEntity
  8
ARJ70-1001
370
              15
390
0
  6
Continuous
 62
               7
100
AcDbCircle
 10
-399.15072880320281
 20
512.46418318108374
 30
0.0
 40
35.000000000000227
  0
CIRCLE
  5
21B
100
AcDbEntity
  8
ARJ70-1001
370
              15
390
0
  6
Continuous
 62
               7
100
AcDbCircle
 10
-399.34183691226667
 20
672.57007354823281
 30
0.0
 40
17.500000000000227
  0
LINE
  5
21C
100
AcDbEntity
  8
ARJ70-1001
370
              15
390
0
  6
Continuous
 62
               7
100
AcDbLine
 10
-400.00000000004388
 20
617.49557736495615
 30
0.0
 11
-180.0
 21
617.49557736495274
 31
0.0
  0
LINE
  5
21D
100
AcDbEntity
  8
ARJ70-1001
370
              15
390
0
  6
Continuous
 62
               7
100
AcDbLine
 10
-400.00000000003683
 20
302.49983637745731
 30
0.0
 11
-179.99984198213497
 21
302.50331238709805
 31
0.0
  0
LINE
  5
21E
100
AcDbEntity
  8
ARJ70-1001
370
              15
390
0
  6
Continuous
 62
               7
100
AcDbLine
 10
-400.00000000010482
 20
617.49557736495615
 30
0.0
 11
-620.00000000007412
 21
617.49557736495274
 31
0.0
  0
LINE
  5
21F
100
AcDbEntity
  8
ARJ70-1001
370
              15
390
0
  6
Continuous
 62
               7
100
AcDbLine
 10
-400.00000000011187
 20
302.49983637745731
 30
0.0
 11
-620.00015801794007
 21
302.50331238709805
 31
0.0
  0
LINE
  5
220
100
AcDbEntity
  8
ARJ70-1001
370
              15
390
0
  6
Continuous
 62
               7
100
AcDbLine
 10
-630.00000000007503
 20
607.49557736495251
 30
0.0
 11
-630.00000000007503
 21
312.50442263504738
 31
0.0
  0
ARC
  5
221
100
AcDbEntity
  8
ARJ70-1001
370
              15
390
0
  6
Continuous
 62
               7
100
AcDbCircle
 10
-620.00000001761418
 20
312.50331238584954
 30
0.0
 40
10.0
100
AcDbArc
 50
180.0
 51
269.99909472479305
  0
ARC
  5
222
100
AcDbEntity
  8
ARJ70-1001
370
              15
390
0
  6
Continuous
 62
               7
100
AcDbCircle
 10
-620.00000000007412
 20
607.49557736495251
 30
0.0
 40
10.0
100
AcDbArc
 50
90.0
 51
180.0
  0
ARC
  5
223
100
AcDbEntity
  8
ARJ70-1001
370
              15
390
0
  6
Continuous
 62
               7
100
AcDbCircle
 10
-1341.2422692740806
 20
516.47410075346329
 30
0.0
 40
752.05422018416164
100
AcDbArc
 50
344.26331845163651
 51
359.29530193757068
  0
ARC
  5
224
100
AcDbEntity
  8
ARJ70-1001
370
              15
390
0
  6
Continuous
 62
               7
100
AcDbCircle
 10
-801.94732815584393
 20
507.32530164215336
 30
0.0
 40
212.70242094499255
100
AcDbArc
 50
359.97287189442244
 51
28.095391621192903
  0
ARC
  5
225
100
AcDbEntity
  8
ARJ70-1001
370
              15
390
0
  6
Continuous
 62
               7
100
AcDbCircle
 10
-113.00000000007094
 20
774.52032148594287
 30
0.0
 40
3.0
100
AcDbArc
 50
359.99999999989586
 51
90.0
  0
LINE
  5
226
100
AcDbEntity
  8
ARJ70-1001
370
              15
390
0
  6
Continuous
 62
               7
100
AcDbLine
 10
-110.00000000007958
 20
769.12082675673889
 30
0.0
 11
-110.00000000007094
 21
774.52032148593833
 31
0.0
  0
ARC
  5
227
100
AcDbEntity
  8
ARJ70-1001
370
              15
390
0
  6
Continuous
 62
               7
100
AcDbCircle
 10
-98.399494729338585
 20
769.12082675672161
 30
0.0
 40
11.600505270740086
100
AcDbArc
 50
179.99999999989558
 51
269.99999999994833
  0
ARC
  5
228
100
AcDbEntity
  8
ARJ70-1001
370
              15
390
0
  6
Continuous
 62
               7
100
AcDbCircle
 10
-96.23704404325872
 20
769.12082675671957
 30
0.0
 40
13.762955956820861
100
AcDbArc
 50
179.99999999989589
 51
269.99999999994697
  0
LINE
  5
229
100
AcDbEntity
  8
ARJ70-1001
370
              15
390
0
  6
Continuous
 62
               7
100
AcDbLine
 10
-170.0
 20
607.49557736495251
 30
0.0
 11
-170.0
 21
312.50442263504738
 31
0.0
  0
ARC
  5
22A
100
AcDbEntity
  8
ARJ70-1001
370
              15
390
0
  6
Continuous
 62
               7
100
AcDbCircle
 10
-180.0
 20
607.49557736495251
 30
0.0
 40
10.0
100
AcDbArc
 50
0.0
 51
90.0
  0
ARC
  5
22B
100
AcDbEntity
  8
ARJ70-1001
370
              15
390
0
  6
Continuous
 62
               7
100
AcDbCircle
 10
541.24226927400559
 20
516.47410075346329
 30
0.0
 40
752.05422018416118
100
AcDbArc
 50
180.70469806242915
 51
195.73668154836344
  0
ARC
  5
22C
100
AcDbEntity
  8
ARJ70-1001
370
              15
390
0
  6
Continuous
 62
               7
100
AcDbCircle
 10
1.9473281557693554
 20
507.32530164215336
 30
0.0
 40
212.70242094499272
100
AcDbArc
 50
151.90460837880713
 51
180.02712810552541
  0
ARC
  5
22D
100
AcDbEntity
  8
ARJ70-1001
370
              15
390
0
  6
Continuous
 62
               7
100
AcDbCircle
 10
-179.99999998245858
 20
312.50331238584954
 30
0.0
 40
10.000000000000151
100
AcDbArc
 50
270.000905275207
 51
0.0
  0
CIRCLE
  5
22E
100
AcDbEntity
  8
ARJ70-1001
370
              15
390
0
  6
STYLE_13
 62
               7
100
AcDbCircle
 10
-499.35906563620483
 20
662.57007354823281
 30
0.0
 40
15.000000000000455
  0
CIRCLE
  5
22F
100
AcDbEntity
  8
ARJ70-1001
370
              15
390
0
  6
STYLE_13
 62
               7
100
AcDbCircle
 10
-299.3590656362046
 20
662.57007354823281
 30
0.0
 40
15.0
  0
LINE
  5
230
100
AcDbEntity
  8
ARJ70-1001
370
              15
390
0
  6
Continuous
 62
               7
100
AcDbLine
 10
-422.49009028264982
 20
-604.47065976354497
 30
0.0
 11
-422.49009028264982
 21
-613.65994113280703
 31
0.0
  0
LINE
  5
231
100
AcDbEntity
  8
ARJ70-1001
370
              15
390
0
  6
Continuous
 62
               7
100
AcDbLine
 10
-378.43421043754097
 20
-604.47065976354497
 30
0.0
 11
-378.44869232135761
 21
-613.65994113280703
 31
0.0
  0
LINE
  5
232
100
AcDbEntity
  8
ARJ70-1001
370
              15
390
0
  6
Continuous
 62
               7
100
AcDbLine
 10
-422.49009028264982
 20
-613.65994113280703
 30
0.0
 11
-378.44869232135761
 21
-613.65994113280703
 31
0.0
  0
LINE
  5
233
100
AcDbEntity
  8
ARJ70-1001
370
              15
390
0
  6
STYLE_13
 62
               7
100
AcDbLine
 10
-542.9590656362052
 20
-528.71877132454279
 30
0.0
 11
-542.9590656362052
 21
-488.71877132454279
 31
0.0
  0
ARC
  5
234
100
AcDbEntity
  8
ARJ70-1001
370
              15
390
0
  6
STYLE_13
 62
               7
100
AcDbCircle
 10
716.84815952720737
 20
-450.21877132454279
 30
0.0
 40
3.0
100
AcDbArc
 50
90.0
 51
180.0
  0
ARC
  5
235
100
AcDbEntity
  8
ARJ70-1001
370
              15
390
0
  6
STYLE_13
 62
               7
100
AcDbCircle
 10
556.87342553740154
 20
-451.36620231518395
 30
0.0
 40
156.9789275955487
100
AcDbArc
 50
305.74173015946815
 51
0.4188048643754314
  0
ARC
  5
236
100
AcDbEntity
  8
ARJ70-1001
370
              15
390
0
  6
STYLE_03
 62
               7
100
AcDbCircle
 10
652.28139842042776
 20
-589.21975141152552
 30
0.0
 40
11.080383836743877
100
AcDbArc
 50
109.57005569858049
 51
139.8038978598845
  0
ARC
  5
237
100
AcDbEntity
  8
ARJ70-1001
370
              15
390
0
  6
STYLE_13
 62
               7
100
AcDbCircle
 10
392.81217557300624
 20
-453.21877132454279
 30
0.0
 40
6.0
100
AcDbArc
 50
0.0
 51
89.999999999969646
  0
ARC
  5
238
100
AcDbEntity
  8
ARJ70-1001
370
              15
390
0
  6
STYLE_13
 62
               7
100
AcDbCircle
 10
565.33719837628018
 20
-589.16968265393029
 30
0.0
 40
11.080383836743646
100
AcDbArc
 50
40.196102140115499
 51
70.42994430141971
  0
ARC
  5
239
100
AcDbEntity
  8
ARJ70-1001
370
              15
390
0
  6
STYLE_13
 62
               7
100
AcDbCircle
 10
566.65309045200388
 20
-403.77307125020252
 30
0.0
 40
174.97271205322409
100
AcDbArc
 50
196.41490008974313
 51
270.78447176831747
  0
LINE
  5
23A
100
AcDbEntity
  8
ARJ70-1001
370
              15
390
0
  6
STYLE_13
 62
               7
100
AcDbLine
 10
630.66751827803785
 20
-594.13581425245161
 30
0.0
 11
630.66751827802284
 21
-604.28450138345761
 31
0.0
  0
LINE
  5
23B
100
AcDbEntity
  8
ARJ70-1001
370
              15
390
0
  6
STYLE_13
 62
               7
100
AcDbLine
 10
643.59104534179471
 20
-581.99047626617948
 30
0.0
 11
630.66751827803785
 21
-594.13581425245161
 31
0.0
  0
LINE
  5
23C
100
AcDbEntity
  8
ARJ70-1001
370
              15
390
0
  6
STYLE_13
 62
               7
100
AcDbLine
 10
586.61163843289887
 20
-594.13581425245161
 30
0.0
 11
586.61163843291388
 21
-604.28450138345761
 31
0.0
  0
LINE
  5
23D
100
AcDbEntity
  8
ARJ70-1001
370
              15
390
0
  6
STYLE_13
 62
               7
100
AcDbLine
 10
573.68811136914064
 20
-581.99047626617948
 30
0.0
 11
586.61163843289887
 21
-594.13581425245161
 31
0.0
  0
LINE
  5
23E
100
AcDbEntity
  8
ARJ70-1001
370
              15
390
0
  6
Continuous
 62
               7
100
AcDbLine
 10
630.66751827802284
 20
-604.28450138345761
 30
0.0
 11
630.66751827802284
 21
-613.47378275271967
 31
0.0
  0
LINE
  5
23F
100
AcDbEntity
  8
ARJ70-1001
370
              15
390
0
  6
Continuous
 62
               7
100
AcDbLine
 10
586.61163843291388
 20
-604.28450138345761
 30
0.0
 11
586.62612031673052
 21
-613.47378275271967
 31
0.0
  0
LINE
  5
240
100
AcDbEntity
  8
ARJ70-1001
370
              15
390
0
  6
STYLE_13
 62
               7
100
AcDbLine
 10
-522.9590656362052
 20
-508.71877132454279
 30
0.0
 11
-562.9590656362052
 21
-508.71877132454279
 31
0.0
  0
CIRCLE
  5
241
100
AcDbEntity
  8
ARJ70-1001
370
              15
390
0
  6
STYLE_13
 62
               7
100
AcDbCircle
 10
-542.9590656362052
 20
-508.71877132454279
 30
0.0
 40
10.0
  0
LINE
  5
242
100
AcDbEntity
  8
ARJ70-1001
370
              15
390
0
  6
STYLE_13
 62
               7
100
AcDbLine
 10
-257.95906563620474
 20
-528.71877132454279
 30
0.0
 11
-257.95906563620474
 21
-488.71877132454279
 31
0.0
  0
LINE
  5
243
100
AcDbEntity
  8
ARJ70-1001
370
              15
390
0
  6
STYLE_13
 62
               7
100
AcDbLine
 10
-237.95906563620474
 20
-508.71877132454279
 30
0.0
 11
-277.95906563620474
 21
-508.71877132454279
 31
0.0
  0
CIRCLE
  5
244
100
AcDbEntity
  8
ARJ70-1001
370
              15
390
0
  6
STYLE_13
 62
               7
100
AcDbCircle
 10
-257.95906563620474
 20
-508.71877132454279
 30
0.0
 40
10.0
  0
INSERT
  5
245
100
AcDbEntity
  8
ARJ70-1001
390
0
 62
               7
100
AcDbBlockReference
  2
グループ-1
 10
1627.2527952736705
 20
1221.1264541299574
 30
0.0
  0
LINE
  5
246
100
AcDbEntity
  8
ARJ70-1001
370
              15
390
0
  6
Continuous
 62
               7
100
AcDbLine
 10
751.32470237369012
 20
-443.71877132454279
 30
0.0
 11
751.32470237369012
 21
-458.71877132454279
 31
0.0
  0
LINE
  5
247
100
AcDbEntity
  8
ARJ70-1001
370
              15
390
0
  6
Continuous
 62
               7
100
AcDbLine
 10
786.32470237369012
 20
-443.71877132454279
 30
0.0
 11
786.32470237369012
 21
-458.71877132454279
 31
0.0
  0
LINE
  5
248
100
AcDbEntity
  8
ARJ70-1001
370
              15
390
0
  6
STYLE_13
 62
               7
100
AcDbLine
 10
349.37357164511695
 20
-443.73164116551334
 30
0.0
 11
828.83110679979779
 21
-443.73164116551334
 31
0.0
  0
LINE
  5
249
100
AcDbEntity
  8
ARJ70-1001
370
              15
390
0
  6
STYLE_13
 62
               7
100
AcDbLine
 10
837.67827177564084
 20
-437.08971889293821
 30
0.0
 11
835.35411443815781
 21
-440.36309572644132
 31
0.0
  0
ARC
  5
24A
100
AcDbEntity
  8
ARJ70-1001
370
              15
390
0
  6
STYLE_13
 62
               7
100
AcDbCircle
 10
844.20298370957369
 20
-441.71877216322332
 30
0.0
 40
8.0
100
AcDbArc
 50
90.0
 51
144.64564174938792
  0
ARC
  5
24B
100
AcDbEntity
  8
ARJ70-1001
370
              15
390
0
  6
STYLE_13
 62
               7
100
AcDbCircle
 10
828.83110679979779
 20
-435.73164116551334
 30
0.0
 40
8.0
100
AcDbArc
 50
270.0
 51
324.62455242161667
  0
LINE
  5
24C
100
AcDbEntity
  8
ARJ70-1001
370
              15
390
0
  6
STYLE_13
 62
               7
100
AcDbLine
 10
340.52640666927391
 20
-437.08971889293821
 30
0.0
 11
342.85056400675694
 21
-440.36309572644132
 31
0.0
  0
ARC
  5
24D
100
AcDbEntity
  8
ARJ70-1001
370
              15
390
0
  6
STYLE_13
 62
               7
100
AcDbCircle
 10
334.00169473534106
 20
-441.71877216322332
 30
0.0
 40
8.0000000000001084
100
AcDbArc
 50
35.354358250611604
 51
90.0
  0
ARC
  5
24E
100
AcDbEntity
  8
ARJ70-1001
370
              15
390
0
  6
STYLE_13
 62
               7
100
AcDbCircle
 10
349.37357164511695
 20
-435.73164116551334
 30
0.0
 40
8.0000000000000391
100
AcDbArc
 50
215.37544757838384
 51
270.0
  0
LINE
  5
24F
100
AcDbEntity
  8
ARJ70-1001
370
              15
390
0
  6
Continuous
 62
               7
100
AcDbLine
 10
-400.46112410284445
 20
-433.64325688260374
 30
0.0
 11
-740.29969967402803
 21
-433.75214908822795
 31
0.0
  0
ENDSEC
  0
SECTION
  2
OBJECTS
  0
DICTIONARY
  5
19
100
AcDbDictionary
280
               0
281
               1
  3
ACAD_GROUP
350
1A
  3
ACAD_MLINESTYLE
350
1B
  3
ACAD_LAYOUT
350
1E
  3
ACAD_PLOTSETTINGS
350
22
  3
ACAD_PLOTSTYLENAME
350
1F
  0
DICTIONARY
  5
1A
102
{ACAD_REACTORS
330
19
102
}
100
AcDbDictionary
280
               0
281
               1
  0
DICTIONARY
  5
1B
102
{ACAD_REACTORS
330
19
102
}
100
AcDbDictionary
280
               0
281
               1
  3
Standard
350
1C
  0
MLINESTYLE
  5
1C
102
{ACAD_REACTORS
330
1B
102
}
100
AcDbMlineStyle
  2
Standard
 70
               0
  3

 62
               0
 51
90.0
 52
90.0
 71
               2
 49
0.5
 62
             256
  6
ByLayer
 49
-0.5
 62
             256
  6
ByLayer
  0
ACDBDICTIONARYWDFLT
  5
1F
102
{ACAD_REACTORS
330
19
102
}
100
AcDbDictionary
281
               1
  3
Normal
350
1D
100
AcDbDictionaryWithDefault
340
1D
  0
ACDBPLACEHOLDER
  5
1D
102
{ACAD_REACTORS
330
1F
102
}
  0
LAYOUT
  5
20
102
{ACAD_REACTORS
330
1E
102
}
100
AcDbPlotSettings
  1

  2

  4

  6

 40
0.0
 41
0.0
 42
0.0
 43
0.0
 44
0.0
 45
0.0
 46
0.0
 47
0.0
 48
0.0
 49
0.0
140
0.0
141
0.0
142
1.0
143
1.0
 70
            1024
 72
               0
 73
               0
 74
               0
  7

 75
               0
147
1.0
148
0.0
149
0.0
100
AcDbLayout
  1
Model
 70
               0
 71
               0
 10
0.0
 20
0.0
 11
0.0
 21
0.0
 12
0.0
 22
0.0
 32
0.0
 14
0.0
 24
0.0
 34
0.0
 15
0.0
 25
0.0
 35
0.0
146
0.0
 13
0.0
 23
0.0
 33
0.0
 16
0.0
 26
0.0
 36
0.0
 17
0.0
 27
0.0
 37
0.0
 76
               0
330
A
331
0
345
0
346
0
  0
LAYOUT
  5
21
102
{ACAD_REACTORS
330
1E
102
}
100
AcDbPlotSettings
  1

  2

  4

  6

 40
0.0
 41
0.0
 42
0.0
 43
0.0
 44
0.0
 45
0.0
 46
0.0
 47
0.0
 48
0.0
 49
0.0
140
0.0
141
0.0
142
1.0
143
1.0
 70
               0
 72
               0
 73
               0
 74
               0
  7

 75
               0
147
1.0
148
0.0
149
0.0
100
AcDbLayout
  1
Layout1
 70
               0
 71
               0
 10
0.0
 20
0.0
 11
0.0
 21
0.0
 12
0.0
 22
0.0
 32
0.0
 14
0.0
 24
0.0
 34
0.0
 15
0.0
 25
0.0
 35
0.0
146
0.0
 13
0.0
 23
0.0
 33
0.0
 16
0.0
 26
0.0
 36
0.0
 17
0.0
 27
0.0
 37
0.0
 76
               0
330
B
331
0
345
0
346
0
  0
DICTIONARY
  5
1E
102
{ACAD_REACTORS
330
19
102
}
100
AcDbDictionary
280
               0
281
               1
  3
Layout1
350
21
  3
Model
350
20
  0
DICTIONARY
  5
22
102
{ACAD_REACTORS
330
19
102
}
100
AcDbDictionary
280
               0
281
               1
  0
ENDSEC
  0
EOF
