  0
SECTION
  2
HEADER
  9
$ACADVER
  1
AC1015
  9
$ACADMAINTVER
 70
               6
  9
$DWGCODEPAGE
  3
ANSI_932
  9
$INSBASE
 10
0.0
 20
0.0
 30
0.0
  9
$EXTMIN
 10
-975.00000000024352
 20
-1431.5255224711125
 30
-14.834305555555554
  9
$EXTMAX
 10
975.00000000024011
 20
1405.9972926412997
 30
14.834305555555554
  9
$LIMMIN
 10
0.0
 20
0.0
  9
$LIMMAX
 10
0.0
 20
0.0
  9
$ORTHOMODE
 70
               0
  9
$REGENMODE
 70
               1
  9
$FILLMODE
 70
               1
  9
$QTEXTMODE
 70
               0
  9
$MIRRTEXT
 70
               1
  9
$LTSCALE
 40
25.399999999999999
  9
$ATTMODE
 70
               1
  9
$TEXTSIZE
 40
0.2
  9
$TRACEWID
 40
1.0
  9
$TEXTSTYLE
  7
Standard
  9
$CLAYER
  8
ARJ70-1002
  9
$CELTYPE
  6
Continuous
  9
$CECOLOR
 62
             256
  9
$CELTSCALE
 40
1.0
  9
$DISPSILH
 70
               0
  9
$DIMSCALE
 40
1.0
  9
$DIMASZ
 40
31.75
  9
$DIMEXO
 40
0.0
  9
$DIMDLI
 40
6.9999999999999396
  9
$DIMRND
 40
0.0
  9
$DIMDLE
 40
0.0
  9
$DIMEXE
 40
19.999999999996199
  9
$DIMTP
 40
0.0
  9
$DIMTM
 40
0.0
  9
$DIMTXT
 40
24.432617187500004
  9
$DIMCEN
 40
0.0
  9
$DIMTSZ
 40
0.0
  9
$DIMTOL
 70
               0
  9
$DIMLIM
 70
               0
  9
$DIMTIH
 70
               0
  9
$DIMTOH
 70
               0
  9
$DIMSE1
 70
               0
  9
$DIMSE2
 70
               0
  9
$DIMTAD
 70
               1
  9
$DIMZIN
 70
              11
  9
$DIMBLK
  1
VW_FILLEDARROW
  9
$DIMASO
 70
               1
  9
$DIMSHO
 70
               1
  9
$DIMPOST
  1
<>
  9
$DIMAPOST
  1
[]
  9
$DIMALT
 70
               0
  9
$DIMALTD
 70
               1
  9
$DIMALTF
 40
1.0
  9
$DIMLFAC
 40
1.0
  9
$DIMTOFL
 70
               0
  9
$DIMTVP
 40
0.0
  9
$DIMTIX
 70
               1
  9
$DIMSOXD
 70
               0
  9
$DIMSAH
 70
               0
  9
$DIMBLK1
  1

  9
$DIMBLK2
  1

  9
$DIMSTYLE
  2
JIS
  9
$DIMCLRD
 70
               0
  9
$DIMCLRE
 70
               0
  9
$DIMCLRT
 70
               0
  9
$DIMTFAC
 40
1.0
  9
$DIMGAP
 40
1.00000000000108
  9
$DIMJUST
 70
               0
  9
$DIMSD1
 70
               0
  9
$DIMSD2
 70
               0
  9
$DIMTOLJ
 70
               1
  9
$DIMTZIN
 70
              11
  9
$DIMALTZ
 70
              11
  9
$DIMALTTZ
 70
              11
  9
$DIMUPT
 70
               0
  9
$DIMDEC
 70
               1
  9
$DIMTDEC
 70
               1
  9
$DIMALTU
 70
               2
  9
$DIMALTTD
 70
               2
  9
$DIMTXSTY
  7
ＭＳ ゴシック
  9
$DIMAUNIT
 70
               0
  9
$DIMADEC
 70
               2
  9
$DIMALTRND
 40
0.0
  9
$DIMAZIN
 70
               0
  9
$DIMDSEP
 70
              46
  9
$DIMATFIT
 70
               0
  9
$DIMFRAC
 70
               2
  9
$DIMLDRBLK
  1

  9
$DIMLUNIT
 70
               2
  9
$DIMLWD
 70
              -2
  9
$DIMLWE
 70
              -2
  9
$DIMTMOVE
 70
               0
  9
$LUNITS
 70
               2
  9
$LUPREC
 70
               4
  9
$SKETCHINC
 40
0.1
  9
$FILLETRAD
 40
0.0
  9
$AUNITS
 70
               0
  9
$AUPREC
 70
               0
  9
$MENU
  1
acad
  9
$ELEVATION
 40
0.0
  9
$PELEVATION
 40
0.0
  9
$THICKNESS
 40
0.0
  9
$LIMCHECK
 70
               0
  9
$CHAMFERA
 40
0.0
  9
$CHAMFERB
 40
0.0
  9
$CHAMFERC
 40
0.0
  9
$CHAMFERD
 40
0.0
  9
$SKPOLY
 70
               0
  9
$TDCREATE
 40
2455988.713368055
  9
$TDUCREATE
 40
0.000000000
  9
$TDUPDATE
 40
2455988.713368055
  9
$TDUUPDATE
 40
0.000000000
  9
$TDINDWG
 40
0.0000000000
  9
$TDUSRTIMER
 40
0.0000000000
  9
$USRTIMER
 70
               1
  9
$ANGBASE
 50
0.0
  9
$ANGDIR
 70
               0
  9
$PDMODE
 70
               1
  9
$PDSIZE
 40
-2.0
  9
$PLINEWID
 40
0.0
  9
$SPLFRAME
 70
               0
  9
$SPLINETYPE
 70
               6
  9
$SPLINESEGS
 70
               8
  9
$HANDSEED
  5
284
  9
$SURFTAB1
 70
               6
  9
$SURFTAB2
 70
               6
  9
$SURFTYPE
 70
               6
  9
$SURFU
 70
               6
  9
$SURFV
 70
               6
  9
$UCSBASE
  2

  9
$UCSNAME
  2

  9
$UCSORG
 10
0.0
 20
0.0
 30
0.0
  9
$UCSXDIR
 10
1.0
 20
0.0
 30
0.0
  9
$UCSYDIR
 10
0.0
 20
1.0
 30
0.0
  9
$UCSORTHOREF
  2

  9
$UCSORTHOVIEW
 70
               0
  9
$UCSORGTOP
 10
0.0
 20
0.0
 30
0.0
  9
$UCSORGBOTTOM
 10
0.0
 20
0.0
 30
0.0
  9
$UCSORGLEFT
 10
0.0
 20
0.0
 30
0.0
  9
$UCSORGRIGHT
 10
0.0
 20
0.0
 30
0.0
  9
$UCSORGFRONT
 10
0.0
 20
0.0
 30
0.0
  9
$UCSORGBACK
 10
0.0
 20
0.0
 30
0.0
  9
$PUCSBASE
  2

  9
$PUCSNAME
  2

  9
$PUCSORG
 10
0.0
 20
0.0
 30
0.0
  9
$PUCSXDIR
 10
1.0
 20
0.0
 30
0.0
  9
$PUCSYDIR
 10
0.0
 20
1.0
 30
0.0
  9
$PUCSORTHOREF
  2

  9
$PUCSORTHOVIEW
 70
               0
  9
$PUCSORGTOP
 10
0.0
 20
0.0
 30
0.0
  9
$PUCSORGBOTTOM
 10
0.0
 20
0.0
 30
0.0
  9
$PUCSORGLEFT
 10
0.0
 20
0.0
 30
0.0
  9
$PUCSORGRIGHT
 10
0.0
 20
0.0
 30
0.0
  9
$PUCSORGFRONT
 10
0.0
 20
0.0
 30
0.0
  9
$PUCSORGBACK
 10
0.0
 20
0.0
 30
0.0
  9
$USERI1
 70
               0
  9
$USERI2
 70
               0
  9
$USERI3
 70
               0
  9
$USERI4
 70
               0
  9
$USERI5
 70
               0
  9
$USERR1
 40
0.0
  9
$USERR2
 40
0.0
  9
$USERR3
 40
0.0
  9
$USERR4
 40
0.0
  9
$USERR5
 40
0.0
  9
$WORLDVIEW
 70
               1
  9
$SHADEDGE
 70
               3
  9
$SHADEDIF
 70
              70
  9
$TILEMODE
 70
               1
  9
$MAXACTVP
 70
              64
  9
$PINSBASE
 10
0.0
 20
0.0
 30
0.0
  9
$PLIMCHECK
 70
               0
  9
$PEXTMIN
 10
1.0000000000000000E+20
 20
1.0000000000000000E+20
 30
1.0000000000000000E+20
  9
$PEXTMAX
 10
-1.0000000000000000E+20
 20
-1.0000000000000000E+20
 30
-1.0000000000000000E+20
  9
$PLIMMIN
 10
0.0
 20
0.0
  9
$PLIMMAX
 10
12.0
 20
9.0
  9
$UNITMODE
 70
               0
  9
$VISRETAIN
 70
               0
  9
$PLINEGEN
 70
               1
  9
$PSLTSCALE
 70
               0
  9
$TREEDEPTH
 70
            3020
  9
$CMLSTYLE
  2
Standard
  9
$CMLJUST
 70
               0
  9
$CMLSCALE
 40
1.0
  9
$PROXYGRAPHICS
 70
               0
  9
$MEASUREMENT
 70
               1
  9
$CELWEIGHT
370
               0
  9
$ENDCAPS
280
               0
  9
$JOINSTYLE
280
               0
  9
$LWDISPLAY
290
               1
  9
$INSUNITS
 70
               4
  9
$HYPERLINKBASE
  1

  9
$STYLESHEET
  1

  9
$XEDIT
290
               1
  9
$CEPSNTYPE
380
               0
  9
$PSTYLEMODE
290
               1
  9
$FINGERPRINTGUID
  2

  9
$VERSIONGUID
  2

  9
$EXTNAMES
290
               1
  9
$PSVPSCALE
 40
0.0
  0
ENDSEC
  0
SECTION
  2
CLASSES
  0
CLASS
  1
LWPOLYLINE
  2
AcDbPolyline
  3
AutoCAD 2000
 90
        0
280
               0
281
               1
  0
CLASS
  1
IMAGE
  2
AcDbRasterImage
  3
ISM
 90
      127
280
               0
281
               1
  0
CLASS
  1
OLE2FRAME
  2
AcDbOle2Frame
  3
AutoCAD 2000
 90
        0
280
               0
281
               1
  0
CLASS
  1
HATCH
  2
AcDbHatch
  3
AutoCAD 2000
 90
        0
280
               0
281
               1
  0
CLASS
  1
DICTIONARYVAR
  2
AcDbDictionaryVar
  3
AutoCAD 2000
 90
        0
280
               0
281
               0
  0
CLASS
  1
RASTERVARIABLES
  2
AcDbRasterVariables
  3
ISM
 90
        0
280
               0
281
               0
  0
CLASS
  1
IMAGEDEF
  2
AcDbRasterImageDef
  3
ISM
 90
        0
280
               0
281
               0
  0
CLASS
  1
IMAGEDEF_REACTOR
  2
AcDbRasterImageDefReactor
  3
ISM
 90
        1
280
               0
281
               0
  0
CLASS
  1
IDBUFFER
  2
AcDbIdBuffer
  3
AutoCAD 2000
 90
        0
280
               0
281
               0
  0
CLASS
  1
SPATIAL_FILTER
  2
AcDbSpatialFilter
  3
AutoCAD 2000
 90
        0
280
               0
281
               0
  0
CLASS
  1
XRECORD
  2
AcDbXrecord
  3
AutoCAD 2000
 90
        0
280
               0
281
               0
  0
CLASS
  1
SORTENTSTABLE
  2
AcDbSortentsTable
  3
AutoCAD 2000
 90
        0
280
               0
281
               0
  0
CLASS
  1
LAYER_INDEX
  2
AcDbLayerIndex
  3
AutoCAD 2000
 90
        0
280
               0
281
               0
  0
CLASS
  1
SPATIAL_INDEX
  2
AcDbSpatialIndex
  3
AutoCAD 2000
 90
        0
280
               0
281
               0
  0
CLASS
  1
OBJECT_PTR
  2
CAseDLPNTableRecord
  3
"ASE-LPNTableRecord"
 90
        1
280
               0
281
               0
  0
CLASS
  1
LAYOUT
  2
AcDbLayout
  3
AutoCAD 2000
 90
        0
280
               0
281
               0
  0
CLASS
  1
PLOTSETTINGS
  2
AcDbPlotSettings
  3
AutoCAD 2000
 90
        0
280
               0
281
               0
  0
CLASS
  1
ACDBDICTIONARYWDFLT
  2
AcDbDictionaryWithDefault
  3
AutoCAD 2000
 90
        0
280
               0
281
               0
  0
CLASS
  1
ACDBPLACEHOLDER
  2
AcDbPlaceHolder
  3
AutoCAD 2000
 90
        0
280
               0
281
               0
  0
ENDSEC
  0
SECTION
  2
TABLES
  0
TABLE
  2
VPORT
  5
7
100
AcDbSymbolTable
 70
               1
  0
VPORT
  5
15
100
AcDbSymbolTableRecord
100
AcDbViewportTableRecord
  2
*ACTIVE
 70
               0
 10
0.0
 20
0.0
 11
1.0
 21
1.0
 12
-0.0000000000017053
 22
-12.764114914906486
 13
0.0
 23
0.0
 14
1.0
 24
1.0
 15
0.0
 25
0.0
 16
0.0
 26
0.0
 36
1.0
 17
0.0
 27
0.0
 37
0.0
 40
2837.522815112412
 41
0.688564
 42
50.0
 43
0.0
 44
0.0
 50
0.0
 51
0.0
 71
               0
 72
            2000
 73
               1
 74
               1
 75
               0
 76
               0
 77
               0
 78
               0
281
               0
 65
               0
110
0.0
120
0.0
130
0.0
111
1.0
121
0.0
131
0.0
112
0.0
122
1.0
132
0.0
345
0
346
0
 79
               0
146
0.0
  0
ENDTAB
  0
TABLE
  2
LTYPE
  5
4
100
AcDbSymbolTable
 70
              16
  0
LTYPE
  5
11
100
AcDbSymbolTableRecord
100
AcDbLinetypeTableRecord
  2
ByBlock
 70
              64
  3

 72
              65
 73
               0
 40
0.0
  0
LTYPE
  5
12
100
AcDbSymbolTableRecord
100
AcDbLinetypeTableRecord
  2
ByLayer
 70
              64
  3

 72
              65
 73
               0
 40
0.0
  0
LTYPE
  5
13
100
AcDbSymbolTableRecord
100
AcDbLinetypeTableRecord
  2
Continuous
 70
              64
  3
Solid line
 72
              65
 73
               0
 40
0.0
  0
LTYPE
  5
3F
100
AcDbSymbolTableRecord
100
AcDbLinetypeTableRecord
  2
STYLE_01
 70
               0
  3

 72
              65
 73
               2
 40
1.1811023622047245
 49
0.4724409448818898
 74
               0
 49
-0.7086614173228347
 74
               0
  0
LTYPE
  5
40
100
AcDbSymbolTableRecord
100
AcDbLinetypeTableRecord
  2
STYLE_02
 70
               0
  3

 72
              65
 73
               2
 40
0.0590551181102362
 49
0.0393700787401574
 74
               0
 49
-0.0196850393700788
 74
               0
  0
LTYPE
  5
41
100
AcDbSymbolTableRecord
100
AcDbLinetypeTableRecord
  2
STYLE_03
 70
               0
  3

 72
              65
 73
               2
 40
0.7499999999999998
 49
0.5
 74
               0
 49
-0.2499999999999998
 74
               0
  0
LTYPE
  5
42
100
AcDbSymbolTableRecord
100
AcDbLinetypeTableRecord
  2
STYLE_04
 70
               0
  3

 72
              65
 73
               4
 40
1.9999999999999998
 49
1.25
 74
               0
 49
-0.2499999999999999
 74
               0
 49
0.2499999999999999
 74
               0
 49
-0.2499999999999999
 74
               0
  0
LTYPE
  5
43
100
AcDbSymbolTableRecord
100
AcDbLinetypeTableRecord
  2
STYLE_05
 70
               0
  3

 72
              65
 73
               2
 40
0.41656
 49
0.13885
 74
               0
 49
-0.27771
 74
               0
  0
LTYPE
  5
44
100
AcDbSymbolTableRecord
100
AcDbLinetypeTableRecord
  2
STYLE_06
 70
               0
  3

 72
              65
 73
               4
 40
2.0832800000000002
 49
1.25
 74
               0
 49
-0.41656
 74
               0
 49
0.1388600000000001
 74
               0
 49
-0.2778600000000001
 74
               0
  0
LTYPE
  5
45
100
AcDbSymbolTableRecord
100
AcDbLinetypeTableRecord
  2
STYLE_07
 70
               0
  3

 72
              65
 73
               6
 40
3.75
 49
1.25
 74
               0
 49
-0.41656
 74
               0
 49
1.2500000000000002
 74
               0
 49
-0.4167199999999999
 74
               0
 49
0.1388600000000001
 74
               0
 49
-0.2778599999999998
 74
               0
  0
LTYPE
  5
46
100
AcDbSymbolTableRecord
100
AcDbLinetypeTableRecord
  2
STYLE_08
 70
               0
  3

 72
              65
 73
               6
 40
2.5
 49
1.25
 74
               0
 49
-0.41656
 74
               0
 49
0.1388600000000001
 74
               0
 49
-0.2778600000000001
 74
               0
 49
0.1388599999999998
 74
               0
 49
-0.2778600000000001
 74
               0
  0
LTYPE
  5
47
100
AcDbSymbolTableRecord
100
AcDbLinetypeTableRecord
  2
STYLE_09
 70
               0
  3

 72
              65
 73
               4
 40
10.0
 49
7.5
 74
               0
 49
-0.5555699999999997
 74
               0
 49
1.3888600000000006
 74
               0
 49
-0.5555699999999997
 74
               0
  0
LTYPE
  5
48
100
AcDbSymbolTableRecord
100
AcDbLinetypeTableRecord
  2
STYLE_10
 70
               0
  3

 72
              65
 73
               6
 40
11.875
 49
7.5
 74
               0
 49
-0.5555699999999997
 74
               0
 49
1.3888600000000006
 74
               0
 49
-0.5555699999999997
 74
               0
 49
1.25
 74
               0
 49
-0.625
 74
               0
  0
LTYPE
  5
49
100
AcDbSymbolTableRecord
100
AcDbLinetypeTableRecord
  2
STYLE_11
 70
               0
  3

 72
              65
 73
               2
 40
0.1388889763779528
 49
0.0694444881889764
 74
               0
 49
-0.0694444881889764
 74
               0
  0
LTYPE
  5
4A
100
AcDbSymbolTableRecord
100
AcDbLinetypeTableRecord
  2
STYLE_12
 70
               0
  3

 72
              65
 73
               2
 40
0.3472222222222222
 49
0.2083333333333333
 74
               0
 49
-0.1388888888888889
 74
               0
  0
LTYPE
  5
4B
100
AcDbSymbolTableRecord
100
AcDbLinetypeTableRecord
  2
STYLE_13
 70
               0
  3

 72
              65
 73
               2
 40
0.7874015748031495
 49
0.3937007874015748
 74
               0
 49
-0.3937007874015748
 74
               0
  0
ENDTAB
  0
TABLE
  2
LAYER
  5
2
100
AcDbSymbolTable
 70
               5
  0
LAYER
  5
14
100
AcDbSymbolTableRecord
100
AcDbLayerTableRecord
  2
0
 70
               0
 62
               7
  6
Continuous
290
               1
370
              -3
390
1D
  0
LAYER
  5
4C
100
AcDbSymbolTableRecord
100
AcDbLayerTableRecord
  2
Defpoints
 70
               0
 62
               7
  6
Continuous
290
               0
370
              -3
390
1D
  0
LAYER
  5
4D
100
AcDbSymbolTableRecord
100
AcDbLayerTableRecord
  2
template
 70
               0
 62
               7
  6
Continuous
290
               1
370
              -3
390
1D
  0
LAYER
  5
4E
100
AcDbSymbolTableRecord
100
AcDbLayerTableRecord
  2
notes
 70
               0
 62
               7
  6
Continuous
290
               1
370
              -3
390
1D
  0
LAYER
  5
4F
100
AcDbSymbolTableRecord
100
AcDbLayerTableRecord
  2
ARJ70-1002
 70
               0
 62
               7
  6
Continuous
290
               1
370
              -3
390
1D
  0
ENDTAB
  0
TABLE
  2
STYLE
  5
3
100
AcDbSymbolTable
 70
               2
  0
STYLE
  5
17
100
AcDbSymbolTableRecord
100
AcDbTextStyleTableRecord
  2
Standard
 70
               0
 40
0.0
 41
1.0
 50
0.0
 71
               0
 42
0.0
  3
txt
  4
BIGFONT.SHX
  0
STYLE
  5
3E
100
AcDbSymbolTableRecord
100
AcDbTextStyleTableRecord
  2
ＭＳ ゴシック
 70
               0
 40
0.0
 41
1.0
 50
0.0
 71
               0
 42
0.0
  3

  4
ＭＳ ゴシック
1001
ACAD
1000
ＭＳ ゴシック
1071
        0
  0
ENDTAB
  0
TABLE
  2
VIEW
  5
5
100
AcDbSymbolTable
 70
               0
  0
ENDTAB
  0
TABLE
  2
UCS
  5
6
100
AcDbSymbolTable
 70
               0
  0
ENDTAB
  0
TABLE
  2
APPID
  5
8
100
AcDbSymbolTable
 70
               1
  0
APPID
  5
16
100
AcDbSymbolTableRecord
100
AcDbRegAppTableRecord
  2
ACAD
 70
               0
  0
ENDTAB
  0
TABLE
  2
DIMSTYLE
  5
9
100
AcDbSymbolTable
 70
               3
100
AcDbDimStyleTable
 71
               0
  0
DIMSTYLE
105
18
100
AcDbSymbolTableRecord
100
AcDbDimStyleTableRecord
  2
Standard
 70
               0
  3

  4

 40
1.0
 41
0.18
 42
0.0625
 43
0.38
 44
0.18
 45
0.0
 46
0.0
 47
0.0
 48
0.0
 71
               0
 72
               0
 73
               1
 74
               1
 75
               0
 76
               0
 77
               0
 78
               0
 79
               0
140
0.18
141
0.09
142
0.0
143
25.399999999999999
144
1.0
145
0.0
146
1.0
147
0.09
148
0.0
170
               0
171
               2
172
               0
173
               0
174
               0
175
               0
176
               0
177
               0
178
               0
179
               0
271
               4
272
               4
273
               2
274
               2
275
               0
276
               0
277
               2
278
              46
279
               0
280
               0
281
               0
282
               0
283
               1
284
               0
285
               0
286
               0
288
               0
289
               3
340
17
341
0
342
0
343
0
344
0
371
              -2
372
              -2
  0
DIMSTYLE
105
58
100
AcDbSymbolTableRecord
100
AcDbDimStyleTableRecord
  2
tform線あり
 70
               0
  3
<>
  4
[]
 40
1.0
 41
3.999755859375
 42
24.999999999999996
 43
0.9999999999999999
 44
0.0
 45
0.0
 46
0.0
 47
0.0
 48
0.0
 71
               0
 72
               0
 73
               0
 74
               0
 75
               0
 76
               0
 77
               1
 78
              11
 79
               0
140
24.432617187500004
141
0.0
142
0.0
143
1.0
144
1.0
145
0.0
146
1.0
147
0.4999999999999999
148
0.0
170
               0
171
               1
172
               0
173
               0
174
               1
175
               0
176
               0
177
               0
178
               0
179
               2
271
               1
272
               1
273
               2
274
               2
275
               0
276
               2
277
               2
278
              46
279
               0
280
               0
281
               0
282
               0
283
               1
284
              11
285
              11
286
              11
288
               0
289
               0
340
3E
341
50
342
50
343
0
344
0
371
              -2
372
              -2
  0
DIMSTYLE
105
5D
100
AcDbSymbolTableRecord
100
AcDbDimStyleTableRecord
  2
JIS
 70
               0
  3
<>
  4
[]
 40
1.0
 41
31.75
 42
0.0
 43
6.9999999999999396
 44
19.999999999996199
 45
0.0
 46
0.0
 47
0.0
 48
0.0
 71
               0
 72
               0
 73
               0
 74
               0
 75
               0
 76
               0
 77
               1
 78
              11
 79
               0
140
24.432617187500004
141
0.0
142
0.0
143
1.0
144
1.0
145
0.0
146
1.0
147
1.00000000000108
148
0.0
170
               0
171
               1
172
               0
173
               0
174
               1
175
               0
176
               0
177
               0
178
               0
179
               2
271
               1
272
               1
273
               2
274
               2
275
               0
276
               2
277
               2
278
              46
279
               0
280
               0
281
               0
282
               0
283
               1
284
              11
285
              11
286
              11
288
               0
289
               0
340
3E
341
59
342
59
343
0
344
0
371
              -2
372
              -2
  0
ENDTAB
  0
TABLE
  2
BLOCK_RECORD
  5
1
100
AcDbSymbolTable
 70
              29
  0
BLOCK_RECORD
  5
A
100
AcDbSymbolTableRecord
100
AcDbBlockTableRecord
  2
*MODEL_SPACE
340
20
  0
BLOCK_RECORD
  5
B
100
AcDbSymbolTableRecord
100
AcDbBlockTableRecord
  2
*PAPER_SPACE
340
21
  0
BLOCK_RECORD
  5
50
100
AcDbSymbolTableRecord
100
AcDbBlockTableRecord
  2
_DOT
340
0
  0
BLOCK_RECORD
  5
59
100
AcDbSymbolTableRecord
100
AcDbBlockTableRecord
  2
VW_FILLEDARROW
340
0
  0
BLOCK_RECORD
  5
23
100
AcDbSymbolTableRecord
100
AcDbBlockTableRecord
  2
グループ
340
0
102
{BLKREFS
331
1AE
102
}
  0
BLOCK_RECORD
  5
24
100
AcDbSymbolTableRecord
100
AcDbBlockTableRecord
  2
*D3
340
0
  0
BLOCK_RECORD
  5
25
100
AcDbSymbolTableRecord
100
AcDbBlockTableRecord
  2
*D4
340
0
  0
BLOCK_RECORD
  5
26
100
AcDbSymbolTableRecord
100
AcDbBlockTableRecord
  2
*D5
340
0
  0
BLOCK_RECORD
  5
27
100
AcDbSymbolTableRecord
100
AcDbBlockTableRecord
  2
*D6
340
0
  0
BLOCK_RECORD
  5
28
100
AcDbSymbolTableRecord
100
AcDbBlockTableRecord
  2
*D7
340
0
  0
BLOCK_RECORD
  5
29
100
AcDbSymbolTableRecord
100
AcDbBlockTableRecord
  2
*D8
340
0
  0
BLOCK_RECORD
  5
2A
100
AcDbSymbolTableRecord
100
AcDbBlockTableRecord
  2
*D9
340
0
  0
BLOCK_RECORD
  5
2B
100
AcDbSymbolTableRecord
100
AcDbBlockTableRecord
  2
*D10
340
0
  0
BLOCK_RECORD
  5
2C
100
AcDbSymbolTableRecord
100
AcDbBlockTableRecord
  2
*D11
340
0
  0
BLOCK_RECORD
  5
2D
100
AcDbSymbolTableRecord
100
AcDbBlockTableRecord
  2
*D12
340
0
  0
BLOCK_RECORD
  5
2E
100
AcDbSymbolTableRecord
100
AcDbBlockTableRecord
  2
*D13
340
0
  0
BLOCK_RECORD
  5
2F
100
AcDbSymbolTableRecord
100
AcDbBlockTableRecord
  2
*D14
340
0
  0
BLOCK_RECORD
  5
30
100
AcDbSymbolTableRecord
100
AcDbBlockTableRecord
  2
*D15
340
0
  0
BLOCK_RECORD
  5
31
100
AcDbSymbolTableRecord
100
AcDbBlockTableRecord
  2
*D16
340
0
  0
BLOCK_RECORD
  5
32
100
AcDbSymbolTableRecord
100
AcDbBlockTableRecord
  2
*D17
340
0
  0
BLOCK_RECORD
  5
33
100
AcDbSymbolTableRecord
100
AcDbBlockTableRecord
  2
*D18
340
0
  0
BLOCK_RECORD
  5
34
100
AcDbSymbolTableRecord
100
AcDbBlockTableRecord
  2
*D19
340
0
  0
BLOCK_RECORD
  5
35
100
AcDbSymbolTableRecord
100
AcDbBlockTableRecord
  2
*D20
340
0
  0
BLOCK_RECORD
  5
36
100
AcDbSymbolTableRecord
100
AcDbBlockTableRecord
  2
*D21
340
0
  0
BLOCK_RECORD
  5
37
100
AcDbSymbolTableRecord
100
AcDbBlockTableRecord
  2
*D22
340
0
  0
BLOCK_RECORD
  5
38
100
AcDbSymbolTableRecord
100
AcDbBlockTableRecord
  2
*D23
340
0
  0
BLOCK_RECORD
  5
39
100
AcDbSymbolTableRecord
100
AcDbBlockTableRecord
  2
*D24
340
0
  0
BLOCK_RECORD
  5
3A
100
AcDbSymbolTableRecord
100
AcDbBlockTableRecord
  2
グループ-1
340
0
102
{BLKREFS
331
274
102
}
  0
BLOCK_RECORD
  5
3B
100
AcDbSymbolTableRecord
100
AcDbBlockTableRecord
  2
グループ-2
340
0
102
{BLKREFS
331
27A
102
}
  0
BLOCK_RECORD
  5
3C
100
AcDbSymbolTableRecord
100
AcDbBlockTableRecord
  2
*D27
340
0
  0
BLOCK_RECORD
  5
3D
100
AcDbSymbolTableRecord
100
AcDbBlockTableRecord
  2
*D28
340
0
  0
ENDTAB
  0
ENDSEC
  0
SECTION
  2
BLOCKS
  0
BLOCK
  5
D
100
AcDbEntity
  8
0
390
0
100
AcDbBlockBegin
  2
*MODEL_SPACE
 70
               0
 10
0.0
 20
0.0
 30
0.0
  3
*MODEL_SPACE
  1

  0
ENDBLK
  5
E
100
AcDbEntity
  8
0
390
0
100
AcDbBlockEnd
  0
BLOCK
  5
F
100
AcDbEntity
 67
               1
  8
0
390
0
100
AcDbBlockBegin
  2
*PAPER_SPACE
 70
               0
 10
0.0
 20
0.0
 30
0.0
  3
*PAPER_SPACE
  1

  0
ENDBLK
  5
10
100
AcDbEntity
 67
               1
  8
0
390
0
100
AcDbBlockEnd
  0
BLOCK
  5
51
100
AcDbEntity
  8
0
390
0
100
AcDbBlockBegin
  2
_DOT
 70
               0
 10
0.0
 20
0.0
 30
0.0
  3
_DOT
  1

  0
POLYLINE
  5
52
100
AcDbEntity
  8
0
370
              -2
390
0
  6
ByBlock
 62
               0
100
AcDb2dPolyline
 66
               1
 10
0.0
 20
0.0
 30
0.0
 70
               1
 40
0.5
 41
0.5
  0
VERTEX
  5
53
100
AcDbEntity
  8
0
370
              -2
390
0
  6
ByBlock
 62
               0
100
AcDbVertex
100
AcDb2dVertex
 10
-0.25
 20
0.0
 30
0.0
 42
1.0
  0
VERTEX
  5
54
100
AcDbEntity
  8
0
370
              -2
390
0
  6
ByBlock
 62
               0
100
AcDbVertex
100
AcDb2dVertex
 10
0.25
 20
0.0
 30
0.0
 42
1.0
  0
SEQEND
  5
55
100
AcDbEntity
  8
0
390
0
  0
LINE
  5
56
100
AcDbEntity
  8
0
370
              -2
390
0
  6
ByBlock
 62
               0
100
AcDbLine
 10
-0.5
 20
0.0
 30
0.0
 11
-1.0
 21
0.0
 31
0.0
  0
ENDBLK
  5
57
100
AcDbEntity
  8
0
390
0
100
AcDbBlockEnd
  0
BLOCK
  5
5A
100
AcDbEntity
  8
0
370
              -2
390
0
  6
ByBlock
 62
               0
100
AcDbBlockBegin
  2
VW_FILLEDARROW
 70
               0
 10
0.0
 20
0.0
 30
0.0
  3
VW_FILLEDARROW
  1

  0
SOLID
  5
5B
100
AcDbEntity
  8
0
370
              -2
390
0
 62
               0
100
AcDbTrace
 10
0.0
 20
0.0
 30
0.0
 11
-0.9921874999999999
 21
-0.2658558393652545
 31
0.0
 12
-0.9921874999999999
 22
0.2658558393652548
 32
0.0
 13
-0.9921874999999999
 23
0.2658558393652548
 33
0.0
  0
ENDBLK
  5
5C
100
AcDbEntity
  8
0
390
0
100
AcDbBlockEnd
  0
BLOCK
  5
5E
100
AcDbEntity
  8
template
390
0
100
AcDbBlockBegin
  2
グループ
 70
               0
 10
0.0
 20
0.0
 30
0.0
  3
グループ
  1

  0
LWPOLYLINE
  5
5F
100
AcDbEntity
  8
0
370
              15
390
0
  6
Continuous
 62
               7
100
AcDbPolyline
 90
        8
 70
             129
 10
-704.70939309787195
 20
-2499.3043859131021
 10
-704.70939309787195
 20
-2505.301774606678
 10
-714.21059001587332
 20
-2505.301774606678
 10
-714.21059001587332
 20
-2529.7527378701861
 10
-722.56596727765668
 20
-2529.7527378701861
 10
-722.56596727765668
 20
-2505.301774606678
 10
-731.89892422396611
 20
-2505.301774606678
 10
-731.89892422396611
 20
-2499.3043859131021
  0
LWPOLYLINE
  5
60
100
AcDbEntity
  8
0
370
              15
390
0
  6
Continuous
 62
               7
100
AcDbPolyline
 90
      101
 70
             128
 10
-691.98110126731467
 20
-2500.0326344060386
 10
-691.96575123852767
 20
-2500.0282736493527
 42
-0.0222221607815299
 10
-691.6757466618576
 20
-2499.9596491841085
 10
-691.65995289785803
 20
-2499.9566457610103
 42
-0.0146883565585445
 10
-691.39725019264029
 20
-2499.9146425740623
 42
-0.0127458844184012
 10
-691.13261122549
 20
-2499.8871056059902
 10
-691.07015614717443
 20
-2499.8822121834019
 42
-0.0198099018567897
 10
-690.67930703770503
 20
-2499.8671270260052
 10
-690.62749556825315
 20
-2499.8671808016702
 42
-0.0147617382763458
 10
-690.13287210727788
 20
-2499.8823008269151
 10
-690.06018065239675
 20
-2499.886673433803
 42
-0.016262454900724
 10
-689.67002702294053
 20
-2499.9229063090747
 10
-689.54849463168546
 20
-2499.9381928680709
 42
-0.0080020874653213
 10
-689.40291560058927
 20
-2499.9588757153397
 10
-689.36459613002933
 20
-2499.9649469931451
 42
-0.005382192971393
 10
-689.29611202467845
 20
-2499.9765545169721
 10
-690.0225177238774
 20
-2502.157482972686
 42
0.0108667757381432
 10
-690.08983479402718
 20
-2502.1442958574626
 10
-690.12730281719837
 20
-2502.1377981148717
 42
0.0170663203307797
 10
-690.27051960411347
 20
-2502.1179685175798
 10
-690.33839493679648
 20
-2502.1109213469927
 42
0.02201623752727
 10
-690.61877434464839
 20
-2502.094238986223
 10
-690.6966299117031
 20
-2502.0930396189565
 42
0.0282606915786157
 10
-691.03226623528212
 20
-2502.1068428959252
 10
-691.07617950904807
 20
-2502.1111428859281
 42
0.0169677213681605
 10
-691.32210400401277
 20
-2502.1436799354806
 42
0.0190576269858187
 10
-691.56501196659235
 20
-2502.1938268075864
 10
-691.57127115470416
 20
-2502.1953697816962
 42
0.0213685642867437
 10
-691.82165563919
 20
-2502.2685700668039
 10
-691.82714553409846
 20
-2502.2704330628603
 42
0.0237595297575913
 10
-692.08064041899536
 20
-2502.3701175847555
 10
-692.08574249302569
 20
-2502.3724093602341
 42
0.0261857468821283
 10
-692.33791326925279
 20
-2502.501945697607
 10
-692.34833945834532
 20
-2502.5080111720786
 42
0.027255306201438
 10
-692.58476923358216
 20
-2502.6633833780215
 10
-692.61953224709168
 20
-2502.6890445261133
 42
0.0325996893185235
 10
-692.76968759074339
 20
-2502.8157923990848
 10
-692.79339701986783
 20
-2502.8386104275992
 42
0.0138050960637188
 10
-692.88528017607609
 20
-2502.9320600891492
 42
0.0125280103802576
 10
-692.97212270890543
 20
-2503.0302234157448
 10
-692.99580315381741
 20
-2503.058381913937
 42
0.0205218024717512
 10
-693.12090322933125
 20
-2503.2201752281667
 10
-693.14336956981811
 20
-2503.2518349579932
 42
0.0163110129582003
 10
-693.2990799490708
 20
-2503.4871653930641
 10
-693.30180384512119
 20
-2503.4915891550486
 42
0.0131897341894272
 10
-693.44860436602869
 20
-2503.7447212474144
 10
-693.45030446139413
 20
-2503.7478394865484
 42
0.0107895576070951
 10
-693.58808116360251
 20
-2504.0140546961788
 10
-693.58881405312991
 20
-2504.01554892883
 42
0.0091371507208171
 10
-693.71729400177867
 20
-2504.2900741265885
 10
-693.74703963318848
 20
-2504.3567806337487
 42
0.0135418326355154
 10
-693.91875357226149
 20
-2504.771718419021
 10
-693.95235838069436
 20
-2504.8595845612986
 42
0.0092834542411439
 10
-694.12358744061498
 20
-2505.3334830596041
 10
-694.14920456833249
 20
-2505.4087241293969
 42
0.0054261043581338
 10
-694.25684271662544
 20
-2505.7364881024623
 10
-694.27436870282088
 20
-2505.7918762647491
 42
0.0008225090828404
 10
-694.34303875463252
 20
-2506.0101450228412
 10
-695.32772788656644
 20
-2509.0350363160978
 10
-692.09510404649177
 20
-2509.0350363160978
 10
-692.59929647634476
 20
-2510.9395146144507
 10
-695.85535275833013
 20
-2510.9395146144507
 10
-701.68450179068373
 20
-2529.7527376804555
 10
-703.50959940099369
 20
-2529.7527376804555
 10
-697.67492136549322
 20
-2510.9395146144507
 10
-700.08003773453152
 20
-2510.9395146144507
 10
-699.57584530467852
 20
-2509.0350363160978
 10
-697.14729649372953
 20
-2509.0350363160978
 10
-696.28714157554191
 20
-2506.3986233153992
 42
-0.0005863560575708
 10
-696.25040689733248
 20
-2506.281796895094
 10
-696.17431906367642
 20
-2506.040804595722
 42
-0.0087522378932633
 10
-695.97485092022077
 20
-2505.4455285085796
 10
-695.88258664480509
 20
-2505.1853883400609
 42
-0.007740095382485
 10
-695.62465298567463
 20
-2504.4923836625144
 10
-695.60888801409601
 20
-2504.451952779129
 42
-0.0082369946335818
 10
-695.36180354348403
 20
-2503.8478737129326
 42
-0.0085725238360359
 10
-695.09455744748232
 20
-2503.2524476736476
 10
-694.99292784647275
 20
-2503.0360265716577
 42
-0.0168109410595557
 10
-694.70598341774462
 20
-2502.4748190455562
 10
-694.58014002730761
 20
-2502.2478550125984
 42
-0.0007817726898057
 10
-694.52585567722895
 20
-2502.1503107675276
 10
-694.52572737121454
 20
-2502.1500810587963
 42
-0.0036626142158715
 10
-694.47083950718957
 20
-2502.0534831788223
 42
-0.0080221150646438
 10
-694.41371525178261
 20
-2501.9582039440693
 10
-694.38301530042213
 20
-2501.9088129949473
 42
-0.0202139325592861
 10
-694.25535956061526
 20
-2501.7208313942651
 10
-694.20129209542779
 20
-2501.6477525300252
 42
-0.0249323791782098
 10
-693.94212930170738
 20
-2501.3317072878694
 10
-693.91798948758174
 20
-2501.3050930149584
 42
-0.0242132121549845
 10
-693.57830874604247
 20
-2500.9652095287565
 10
-693.53039717329239
 20
-2500.921700392571
 42
-0.0251017527866408
 10
-693.24641547264787
 20
-2500.6887076468033
 10
-693.24496999582936
 20
-2500.6876383892209
 42
-0.0130868069026081
 10
-692.94670934587725
 20
-2500.478857920682
 10
-692.94514752673638
 20
-2500.4778244804083
 42
-0.0290329526403693
 10
-692.63403638534169
 20
-2500.296998978778
 10
-692.60419082334863
 20
-2500.281896595935
 42
-0.0160250190036141
 10
-692.33828640959041
 20
-2500.1578804857249
 42
-0.026760037478343
 10
-692.06301033212424
 20
-2500.0571321651764
 10
-692.03627441260164
 20
-2500.0489396063504
 42
-0.0049981587705805
 10
-691.98110126731467
 20
-2500.0326344060386
 42
-0.0049981587705805
  0
LWPOLYLINE
  5
61
100
AcDbEntity
  8
0
370
              15
390
0
  6
Continuous
 62
               7
100
AcDbPolyline
 90
      118
 70
             128
 10
-672.16673370286685
 20
-2509.1090196439254
 10
-670.29161177836636
 20
-2509.1090196439254
 10
-671.12965068396647
 20
-2511.7905861703257
 42
-0.0010587229275193
 10
-671.09819486839035
 20
-2511.7536816369652
 10
-671.04000077776277
 20
-2511.6856993807946
 42
-0.0071874740403554
 10
-670.88962555966896
 20
-2511.5150586887703
 10
-670.74790278640307
 20
-2511.3588225474523
 42
-0.0148118053518243
 10
-670.29777349369067
 20
-2510.8912087014387
 10
-670.21055115879199
 20
-2510.8058113805882
 42
-0.0086273358705783
 10
-669.87500235778066
 20
-2510.4884357465694
 10
-669.83116864155761
 20
-2510.4483861022391
 42
-0.010313832310386
 10
-669.57314493932085
 20
-2510.2222229648983
 10
-669.52737053298097
 20
-2510.1837409176273
 42
-0.0060206748561565
 10
-669.35452246888167
 20
-2510.0419462668833
 10
-669.35249133799857
 20
-2510.0403205612542
 42
-0.0067069027307842
 10
-669.18019852333259
 20
-2509.9061699274571
 10
-669.17764975740636
 20
-2509.9042397575818
 42
-0.0076184352031068
 10
-669.00674449153507
 20
-2509.778864882338
 42
-0.0089652861679252
 10
-668.83178352880498
 20
-2509.6592316220076
 10
-668.79543180865505
 20
-2509.6353204085212
 42
-0.0156916245943113
 10
-668.59947231149658
 20
-2509.5150579220481
 42
-0.0023299011062337
 10
-668.39921026752722
 20
-2509.4018799825135
 10
-668.38382613513591
 20
-2509.3932799874424
 42
-0.0107669341483969
 10
-668.14958931003559
 20
-2509.2688798540935
 10
-668.12732450895987
 20
-2509.2576631041429
 42
-0.0078058045899011
 10
-667.84373439100716
 20
-2509.1203016485042
 10
-667.8338273032989
 20
-2509.115692520636
 42
-0.0181829330483374
 10
-667.52351789868624
 20
-2508.9848287795417
 10
-667.46946245611684
 20
-2508.9643136595973
 42
-0.0208411536031376
 10
-667.12037748866555
 20
-2508.8482231971038
 10
-667.1060213885371
 20
-2508.8441047521501
 42
-0.0222799817133004
 10
-666.77730159462158
 20
-2508.76546318601
 10
-666.7684126313809
 20
-2508.7637511754242
 42
-0.0215509523887287
 10
-666.45194166310398
 20
-2508.7168354868904
 10
-666.40945970205894
 20
-2508.7123979601001
 42
-0.0182545924880453
 10
-666.17535092274943
 20
-2508.696554134709
 10
-666.13594990640831
 20
-2508.6953295896301
 42
-0.0072962856524745
 10
-665.98002702671351
 20
-2508.6927602611077
 10
-665.95092735612775
 20
-2508.6927054257039
 42
-0.0059227516322601
 10
-665.85317785699613
 20
-2508.6936791374942
 10
-665.82393563945004
 20
-2508.6943169040992
 42
-0.0011833111828965
 10
-665.78468435579111
 20
-2508.6952659084072
 10
-666.58007095139897
 20
-2511.2339998535062
 42
0.0143932051368592
 10
-666.60647233373834
 20
-2511.2238008834652
 10
-666.61374430616638
 20
-2511.2212296646039
 42
0.0234388603575696
 10
-666.65557517210107
 20
-2511.2086104288878
 10
-666.66425683501097
 20
-2511.2064294668835
 42
0.0199162742982971
 10
-666.72454566909266
 20
-2511.1938127315484
 10
-666.74535960689741
 20
-2511.1903155321202
 42
0.0293643550654071
 10
-666.84843446566015
 20
-2511.1791654864664
 10
-666.87311964637706
 20
-2511.1779538694482
 42
0.0214606686877769
 10
-667.02626056232748
 20
-2511.1770153090306
 10
-667.03563247314764
 20
-2511.1773602205749
 42
0.0167564054169338
 10
-667.20715266425486
 20
-2511.1894372629426
 10
-667.21561245701491
 20
-2511.1903186033701
 42
0.0137677553242541
 10
-667.40296577027789
 20
-2511.2150679119131
 10
-667.41031750978732
 20
-2511.2162458318817
 42
0.0118497261476301
 10
-667.61081527388478
 20
-2511.25326318207
 10
-667.61696528113612
 20
-2511.2545500447909
 42
0.0106421143907402
 10
-667.82784616843162
 20
-2511.3033824203685
 10
-667.83275497681029
 20
-2511.3046297630508
 42
0.009974637970454
 10
-668.05121344597819
 20
-2511.3648042913674
 10
-668.11276148614274
 20
-2511.3830861699962
 42
0.0191613675856795
 10
-668.44874594865439
 20
-2511.4970635502814
 10
-668.53680572140331
 20
-2511.5307504606067
 42
0.0205274080147253
 10
-668.92211249330489
 20
-2511.6965788684338
 10
-668.9797617752854
 20
-2511.7242468330055
 42
0.0181256912185798
 10
-669.23803871595396
 20
-2511.8599306519841
 10
-669.29099409926937
 20
-2511.8902482651997
 42
0.0140709242426473
 10
-669.4359490338968
 20
-2511.9787429386333
 10
-669.46219790251166
 20
-2511.9957997573465
 42
0.0086667884387554
 10
-669.55112406405738
 20
-2512.0558024252314
 42
0.0036408192031862
 10
-669.63855730210184
 20
-2512.1179832830317
 10
-669.67378417655914
 20
-2512.1434242289365
 42
0.0052260781268351
 10
-669.83001287395507
 20
-2512.2587566155744
 10
-669.8462197302099
 20
-2512.270984726189
 42
0.0050024435899634
 10
-670.03222307325382
 20
-2512.4142672944395
 10
-670.04754122978397
 20
-2512.426313316897
 42
0.0136138710276724
 10
-670.25798249810998
 20
-2512.6012798218112
 10
-670.29165037390271
 20
-2512.6308587945246
 42
0.0172815186914452
 10
-670.55605391556753
 20
-2512.8798554671498
 10
-670.55861626140836
 20
-2512.8824412842951
 42
0.0189403858002351
 10
-670.80919805998633
 20
-2513.1552465490981
 10
-670.84182955352367
 20
-2513.1935904805973
 42
0.0185044199503499
 10
-671.03378599250232
 20
-2513.4368390617196
 42
0.0088565243880675
 10
-671.21224609913008
 20
-2513.6903554818678
 10
-671.22142407878005
 20
-2513.7038968616298
 42
0.0157195347249436
 10
-671.40464468511607
 20
-2513.9934190709478
 10
-671.45072762704501
 20
-2514.0715712679657
 42
0.0095451879787909
 10
-671.61581317718196
 20
-2514.3641659103228
 10
-671.62696109611238
 20
-2514.3848365824565
 42
0.0100351706231123
 10
-671.75900484527142
 20
-2514.6418921429454
 42
0.0086935915442969
 10
-671.88133599706623
 20
-2514.9037252883491
 10
-671.884656738481
 20
-2514.9111676113216
 42
0.007258017487255
 10
-672.00500319042612
 20
-2515.191759602907
 10
-672.00826482373145
 20
-2515.1996796289227
 42
0.0060005122600581
 10
-672.12746549207566
 20
-2515.4992892995333
 10
-672.13067647041521
 20
-2515.5076508274324
 42
0.0049017786990578
 10
-672.24957662927181
 20
-2515.8265798080338
 10
-672.25274243566332
 20
-2515.8353327452669
 42
0.0039415167598022
 10
-672.37217871372218
 20
-2516.1738748076855
 10
-672.37530981637269
 20
-2516.1829780085563
 42
0.0031035838783947
 10
-672.49611460206438
 20
-2516.5414178703272
 10
-672.49922464659562
 20
-2516.5508384917048
 42
0.0025070747132752
 10
-672.62212599790394
 20
-2516.9294857086288
 10
-672.659419894336
 20
-2517.0463773739016
 42
0.0029081910290848
 10
-672.85143819215034
 20
-2517.6605410322022
 10
-672.89224136066446
 20
-2517.7937642744691
 42
0.0009266453736683
 10
-673.16065873498781
 20
-2518.6759887344233
 10
-673.1815462076114
 20
-2518.745100613603
 42
-0.0005809993667621
 10
-673.45888288820993
 20
-2519.6589087202678
 10
-673.52516468648321
 20
-2519.8763936524283
 42
-0.0012018708177674
 10
-673.67214899591295
 20
-2520.3545563169482
 10
-673.72446884753811
 20
-2520.5233154580042
 42
-0.0002691059612839
 10
-673.76803832864812
 20
-2520.6635830781561
 10
-676.60099422693588
 20
-2529.7527376804555
 10
-678.41898311891441
 20
-2529.7527376804555
 10
-672.16673370286685
 20
-2509.1090196439254
  0
SPLINE
  5
62
100
AcDbEntity
  8
0
370
              15
390
0
  6
Continuous
 62
               7
100
AcDbSpline
210
0.0
220
0.0
230
1.0
 70
              13
 71
               2
 72
             782
 73
             779
 74
               0
 42
0.000001
 43
0.000001
 40
0.0
 40
0.0
 40
0.0
 40
1.0
 40
1.0
 40
2.0
 40
2.0
 40
3.0
 40
3.0
 40
4.0
 40
4.0
 40
5.0
 40
5.0
 40
6.0
 40
6.0
 40
7.0
 40
7.0
 40
8.0
 40
8.0
 40
9.0
 40
9.0
 40
10.0
 40
10.0
 40
11.0
 40
11.0
 40
12.0
 40
12.0
 40
13.0
 40
13.0
 40
14.0
 40
14.0
 40
15.0
 40
15.0
 40
16.0
 40
16.0
 40
17.0
 40
17.0
 40
18.0
 40
18.0
 40
19.0
 40
19.0
 40
20.0
 40
20.0
 40
21.0
 40
21.0
 40
22.0
 40
22.0
 40
23.0
 40
23.0
 40
24.0
 40
24.0
 40
25.0
 40
25.0
 40
26.0
 40
26.0
 40
27.0
 40
27.0
 40
28.0
 40
28.0
 40
29.0
 40
29.0
 40
30.0
 40
30.0
 40
31.0
 40
31.0
 40
32.0
 40
32.0
 40
33.0
 40
33.0
 40
34.0
 40
34.0
 40
35.0
 40
35.0
 40
36.0
 40
36.0
 40
37.0
 40
37.0
 40
38.0
 40
38.0
 40
39.0
 40
39.0
 40
40.0
 40
40.0
 40
41.0
 40
41.0
 40
42.0
 40
42.0
 40
43.0
 40
43.0
 40
44.0
 40
44.0
 40
45.0
 40
45.0
 40
46.0
 40
46.0
 40
47.0
 40
47.0
 40
48.0
 40
48.0
 40
49.0
 40
49.0
 40
50.0
 40
50.0
 40
51.0
 40
51.0
 40
52.0
 40
52.0
 40
53.0
 40
53.0
 40
54.0
 40
54.0
 40
55.0
 40
55.0
 40
56.0
 40
56.0
 40
57.0
 40
57.0
 40
58.0
 40
58.0
 40
59.0
 40
59.0
 40
60.0
 40
60.0
 40
61.0
 40
61.0
 40
62.0
 40
62.0
 40
63.0
 40
63.0
 40
64.0
 40
64.0
 40
65.0
 40
65.0
 40
66.0
 40
66.0
 40
67.0
 40
67.0
 40
68.0
 40
68.0
 40
69.0
 40
69.0
 40
70.0
 40
70.0
 40
71.0
 40
71.0
 40
72.0
 40
72.0
 40
73.0
 40
73.0
 40
74.0
 40
74.0
 40
75.0
 40
75.0
 40
76.0
 40
76.0
 40
77.0
 40
77.0
 40
78.0
 40
78.0
 40
79.0
 40
79.0
 40
80.0
 40
80.0
 40
81.0
 40
81.0
 40
82.0
 40
82.0
 40
83.0
 40
83.0
 40
84.0
 40
84.0
 40
85.0
 40
85.0
 40
86.0
 40
86.0
 40
87.0
 40
87.0
 40
88.0
 40
88.0
 40
89.0
 40
89.0
 40
90.0
 40
90.0
 40
91.0
 40
91.0
 40
92.0
 40
92.0
 40
93.0
 40
93.0
 40
94.0
 40
94.0
 40
95.0
 40
95.0
 40
96.0
 40
96.0
 40
97.0
 40
97.0
 40
98.0
 40
98.0
 40
99.0
 40
99.0
 40
100.0
 40
100.0
 40
101.0
 40
101.0
 40
102.0
 40
102.0
 40
103.0
 40
103.0
 40
104.0
 40
104.0
 40
105.0
 40
105.0
 40
106.0
 40
106.0
 40
107.0
 40
107.0
 40
108.0
 40
108.0
 40
109.0
 40
109.0
 40
110.0
 40
110.0
 40
111.0
 40
111.0
 40
112.0
 40
112.0
 40
113.0
 40
113.0
 40
114.0
 40
114.0
 40
115.0
 40
115.0
 40
116.0
 40
116.0
 40
117.0
 40
117.0
 40
118.0
 40
118.0
 40
119.0
 40
119.0
 40
120.0
 40
120.0
 40
121.0
 40
121.0
 40
122.0
 40
122.0
 40
123.0
 40
123.0
 40
124.0
 40
124.0
 40
125.0
 40
125.0
 40
126.0
 40
126.0
 40
127.0
 40
127.0
 40
128.0
 40
128.0
 40
129.0
 40
129.0
 40
130.0
 40
130.0
 40
131.0
 40
131.0
 40
132.0
 40
132.0
 40
133.0
 40
133.0
 40
134.0
 40
134.0
 40
135.0
 40
135.0
 40
136.0
 40
136.0
 40
137.0
 40
137.0
 40
138.0
 40
138.0
 40
139.0
 40
139.0
 40
140.0
 40
140.0
 40
141.0
 40
141.0
 40
142.0
 40
142.0
 40
143.0
 40
143.0
 40
144.0
 40
144.0
 40
145.0
 40
145.0
 40
146.0
 40
146.0
 40
147.0
 40
147.0
 40
148.0
 40
148.0
 40
149.0
 40
149.0
 40
150.0
 40
150.0
 40
151.0
 40
151.0
 40
152.0
 40
152.0
 40
153.0
 40
153.0
 40
154.0
 40
154.0
 40
155.0
 40
155.0
 40
156.0
 40
156.0
 40
157.0
 40
157.0
 40
158.0
 40
158.0
 40
159.0
 40
159.0
 40
160.0
 40
160.0
 40
161.0
 40
161.0
 40
162.0
 40
162.0
 40
163.0
 40
163.0
 40
164.0
 40
164.0
 40
165.0
 40
165.0
 40
166.0
 40
166.0
 40
167.0
 40
167.0
 40
168.0
 40
168.0
 40
169.0
 40
169.0
 40
170.0
 40
170.0
 40
171.0
 40
171.0
 40
172.0
 40
172.0
 40
173.0
 40
173.0
 40
174.0
 40
174.0
 40
175.0
 40
175.0
 40
176.0
 40
176.0
 40
177.0
 40
177.0
 40
178.0
 40
178.0
 40
179.0
 40
179.0
 40
180.0
 40
180.0
 40
181.0
 40
181.0
 40
182.0
 40
182.0
 40
183.0
 40
183.0
 40
184.0
 40
184.0
 40
185.0
 40
185.0
 40
186.0
 40
186.0
 40
187.0
 40
187.0
 40
188.0
 40
188.0
 40
189.0
 40
189.0
 40
190.0
 40
190.0
 40
191.0
 40
191.0
 40
192.0
 40
192.0
 40
193.0
 40
193.0
 40
194.0
 40
194.0
 40
195.0
 40
195.0
 40
196.0
 40
196.0
 40
197.0
 40
197.0
 40
198.0
 40
198.0
 40
199.0
 40
199.0
 40
200.0
 40
200.0
 40
201.0
 40
201.0
 40
202.0
 40
202.0
 40
203.0
 40
203.0
 40
204.0
 40
204.0
 40
205.0
 40
205.0
 40
206.0
 40
206.0
 40
207.0
 40
207.0
 40
208.0
 40
208.0
 40
209.0
 40
209.0
 40
210.0
 40
210.0
 40
211.0
 40
211.0
 40
212.0
 40
212.0
 40
213.0
 40
213.0
 40
214.0
 40
214.0
 40
215.0
 40
215.0
 40
216.0
 40
216.0
 40
217.0
 40
217.0
 40
218.0
 40
218.0
 40
219.0
 40
219.0
 40
220.0
 40
220.0
 40
221.0
 40
221.0
 40
222.0
 40
222.0
 40
223.0
 40
223.0
 40
224.0
 40
224.0
 40
225.0
 40
225.0
 40
226.0
 40
226.0
 40
227.0
 40
227.0
 40
228.0
 40
228.0
 40
229.0
 40
229.0
 40
230.0
 40
230.0
 40
231.0
 40
231.0
 40
232.0
 40
232.0
 40
233.0
 40
233.0
 40
234.0
 40
234.0
 40
235.0
 40
235.0
 40
236.0
 40
236.0
 40
237.0
 40
237.0
 40
238.0
 40
238.0
 40
239.0
 40
239.0
 40
240.0
 40
240.0
 40
241.0
 40
241.0
 40
242.0
 40
242.0
 40
243.0
 40
243.0
 40
244.0
 40
244.0
 40
245.0
 40
245.0
 40
246.0
 40
246.0
 40
247.0
 40
247.0
 40
248.0
 40
248.0
 40
249.0
 40
249.0
 40
250.0
 40
250.0
 40
251.0
 40
251.0
 40
252.0
 40
252.0
 40
253.0
 40
253.0
 40
254.0
 40
254.0
 40
255.0
 40
255.0
 40
256.0
 40
256.0
 40
257.0
 40
257.0
 40
258.0
 40
258.0
 40
259.0
 40
259.0
 40
260.0
 40
260.0
 40
261.0
 40
261.0
 40
262.0
 40
262.0
 40
263.0
 40
263.0
 40
264.0
 40
264.0
 40
265.0
 40
265.0
 40
266.0
 40
266.0
 40
267.0
 40
267.0
 40
268.0
 40
268.0
 40
269.0
 40
269.0
 40
270.0
 40
270.0
 40
271.0
 40
271.0
 40
272.0
 40
272.0
 40
273.0
 40
273.0
 40
274.0
 40
274.0
 40
275.0
 40
275.0
 40
276.0
 40
276.0
 40
277.0
 40
277.0
 40
278.0
 40
278.0
 40
279.0
 40
279.0
 40
280.0
 40
280.0
 40
281.0
 40
281.0
 40
282.0
 40
282.0
 40
283.0
 40
283.0
 40
284.0
 40
284.0
 40
285.0
 40
285.0
 40
286.0
 40
286.0
 40
287.0
 40
287.0
 40
288.0
 40
288.0
 40
289.0
 40
289.0
 40
290.0
 40
290.0
 40
291.0
 40
291.0
 40
292.0
 40
292.0
 40
293.0
 40
293.0
 40
294.0
 40
294.0
 40
295.0
 40
295.0
 40
296.0
 40
296.0
 40
297.0
 40
297.0
 40
298.0
 40
298.0
 40
299.0
 40
299.0
 40
300.0
 40
300.0
 40
301.0
 40
301.0
 40
302.0
 40
302.0
 40
303.0
 40
303.0
 40
304.0
 40
304.0
 40
305.0
 40
305.0
 40
306.0
 40
306.0
 40
307.0
 40
307.0
 40
308.0
 40
308.0
 40
309.0
 40
309.0
 40
310.0
 40
310.0
 40
311.0
 40
311.0
 40
312.0
 40
312.0
 40
313.0
 40
313.0
 40
314.0
 40
314.0
 40
315.0
 40
315.0
 40
316.0
 40
316.0
 40
317.0
 40
317.0
 40
318.0
 40
318.0
 40
319.0
 40
319.0
 40
320.0
 40
320.0
 40
321.0
 40
321.0
 40
322.0
 40
322.0
 40
323.0
 40
323.0
 40
324.0
 40
324.0
 40
325.0
 40
325.0
 40
326.0
 40
326.0
 40
327.0
 40
327.0
 40
328.0
 40
328.0
 40
329.0
 40
329.0
 40
330.0
 40
330.0
 40
331.0
 40
331.0
 40
332.0
 40
332.0
 40
333.0
 40
333.0
 40
334.0
 40
334.0
 40
335.0
 40
335.0
 40
336.0
 40
336.0
 40
337.0
 40
337.0
 40
338.0
 40
338.0
 40
339.0
 40
339.0
 40
340.0
 40
340.0
 40
341.0
 40
341.0
 40
342.0
 40
342.0
 40
343.0
 40
343.0
 40
344.0
 40
344.0
 40
345.0
 40
345.0
 40
346.0
 40
346.0
 40
347.0
 40
347.0
 40
348.0
 40
348.0
 40
349.0
 40
349.0
 40
350.0
 40
350.0
 40
351.0
 40
351.0
 40
352.0
 40
352.0
 40
353.0
 40
353.0
 40
354.0
 40
354.0
 40
355.0
 40
355.0
 40
356.0
 40
356.0
 40
357.0
 40
357.0
 40
358.0
 40
358.0
 40
359.0
 40
359.0
 40
360.0
 40
360.0
 40
361.0
 40
361.0
 40
362.0
 40
362.0
 40
363.0
 40
363.0
 40
364.0
 40
364.0
 40
365.0
 40
365.0
 40
366.0
 40
366.0
 40
367.0
 40
367.0
 40
368.0
 40
368.0
 40
369.0
 40
369.0
 40
370.0
 40
370.0
 40
371.0
 40
371.0
 40
372.0
 40
372.0
 40
373.0
 40
373.0
 40
374.0
 40
374.0
 40
375.0
 40
375.0
 40
376.0
 40
376.0
 40
377.0
 40
377.0
 40
378.0
 40
378.0
 40
379.0
 40
379.0
 40
380.0
 40
380.0
 40
381.0
 40
381.0
 40
382.0
 40
382.0
 40
383.0
 40
383.0
 40
384.0
 40
384.0
 40
385.0
 40
385.0
 40
386.0
 40
386.0
 40
387.0
 40
387.0
 40
388.0
 40
388.0
 40
389.0
 40
389.0
 40
389.0
 10
-661.83802925213445
 20
-2509.0980932805633
 30
0.0
 41
1.0
 10
-661.01960514341431
 20
-2509.0980932805633
 30
0.0
 41
1.0
 10
-660.20118103469417
 20
-2509.0980932805633
 30
0.0
 41
1.0
 10
-660.61493477021054
 20
-2510.440719544813
 30
0.0
 41
1.0
 10
-661.0286885057269
 20
-2511.7833458090627
 30
0.0
 41
1.0
 10
-661.01034901056516
 20
-2511.7546450361601
 30
0.0
 41
0.9999957264399391
 10
-660.99184201373851
 20
-2511.726051986016
 30
0.0
 41
1.0
 10
-660.96141268959605
 20
-2511.6790391076324
 30
0.0
 41
1.0
 10
-660.93098336545359
 20
-2511.6320262292488
 30
0.0
 41
1.0
 10
-660.85161772034826
 20
-2511.5094074223475
 30
0.0
 41
0.9995394069081814
 10
-660.76495932879573
 20
-2511.3918293606043
 30
0.0
 41
1.0
 10
-660.72920246653541
 20
-2511.3433144680098
 30
0.0
 41
1.0
 10
-660.6934456042751
 20
-2511.2947995754153
 30
0.0
 41
1.0
 10
-660.55971893645699
 20
-2511.1133593002883
 30
0.0
 41
0.999446061714343
 10
-660.41421845517038
 20
-2510.94121690264
 30
0.0
 41
1.0
 10
-660.40983027419634
 20
-2510.9360252222586
 30
0.0
 41
1.0
 10
-660.40544209322229
 20
-2510.9308335418773
 30
0.0
 41
1.0
 10
-660.26871797388355
 20
-2510.7690745049913
 30
0.0
 41
0.9994359394934473
 10
-660.12144374353124
 20
-2510.6168583038257
 30
0.0
 41
1.0
 10
-660.11906038957659
 20
-2510.614394973451
 30
0.0
 41
1.0
 10
-660.11667703562182
 20
-2510.6119316430763
 30
0.0
 41
1.0
 10
-659.97416951317803
 20
-2510.4646421026591
 30
0.0
 41
0.9995293688566875
 10
-659.82289783219699
 20
-2510.3263688904972
 30
0.0
 41
1.0
 10
-659.80360407293574
 20
-2510.3087330048479
 30
0.0
 41
1.0
 10
-659.78431031367438
 20
-2510.2910971191986
 30
0.0
 41
1.0
 10
-659.67162615121401
 20
-2510.1880956783334
 30
0.0
 41
0.9997087614804472
 10
-659.55410326225888
 20
-2510.0906513975356
 30
0.0
 41
1.0
 10
-659.53493718908362
 20
-2510.0747598190278
 30
0.0
 41
1.0
 10
-659.51577111590836
 20
-2510.05886824052
 30
0.0
 41
1.0
 10
-659.43658037330397
 20
-2509.9932071167377
 30
0.0
 41
0.9999595338692036
 10
-659.35622110244935
 20
-2509.9289813860823
 30
0.0
 41
1.0
 10
-659.27586183159542
 20
-2509.8647556554274
 30
0.0
 41
0.9999749417499885
 10
-659.19460129724359
 20
-2509.8016741014749
 30
0.0
 41
1.0
 10
-659.17361515107177
 20
-2509.785382814166
 30
0.0
 41
1.0
 10
-659.15262900489984
 20
-2509.7690915268572
 30
0.0
 41
1.0
 10
-659.06806111960987
 20
-2509.7034425170259
 30
0.0
 41
0.9999792037111214
 10
-658.98265351984833
 20
-2509.6388897353881
 30
0.0
 41
1.0
 10
-658.96182869394215
 20
-2509.6231499131345
 30
0.0
 41
1.0
 10
-658.94100386803609
 20
-2509.6074100908809
 30
0.0
 41
1.0
 10
-658.89724592006462
 20
-2509.5743369537336
 30
0.0
 41
0.9999993374120614
 10
-658.85356423393591
 20
-2509.5411631583206
 30
0.0
 41
1.0
 10
-658.80988254779595
 20
-2509.507989362899
 30
0.0
 41
0.9999160953817144
 10
-658.76535613688372
 20
-2509.4759582977063
 30
0.0
 41
1.0
 10
-658.73253424945892
 20
-2509.4523471421171
 30
0.0
 41
1.0
 10
-658.69971236203423
 20
-2509.4287359865284
 30
0.0
 41
1.0
 10
-658.58954217627695
 20
-2509.349482610161
 30
0.0
 41
0.9980964527230261
 10
-658.47045318277719
 20
-2509.2843951373056
 30
0.0
 41
1.0
 10
-658.43342057584607
 20
-2509.2641551577108
 30
0.0
 41
1.0
 10
-658.39638796891495
 20
-2509.2439151781159
 30
0.0
 41
1.0
 10
-658.21706095564434
 20
-2509.1459049274167
 30
0.0
 41
0.9984572810573812
 10
-658.02797238928656
 20
-2509.0683826660706
 30
0.0
 41
1.0
 10
-658.02432611989173
 20
-2509.066887773733
 30
0.0
 41
1.0
 10
-658.02067985049689
 20
-2509.0653928813954
 30
0.0
 41
1.0
 10
-657.83888382292798
 20
-2508.9908604047241
 30
0.0
 41
0.998783852803396
 10
-657.65063116436818
 20
-2508.9345947645584
 30
0.0
 41
1.0
 10
-657.64639321516847
 20
-2508.9333281108679
 30
0.0
 41
1.0
 10
-657.64215526596865
 20
-2508.9320614571775
 30
0.0
 41
1.0
 10
-657.46237850580746
 20
-2508.8783291243922
 30
0.0
 41
0.9990652816207012
 10
-657.27863257409285
 20
-2508.8403254448508
 30
0.0
 41
1.0
 10
-657.27344417306006
 20
-2508.8392523417442
 30
0.0
 41
1.0
 10
-657.26825577202726
 20
-2508.8381792386372
 30
0.0
 41
1.0
 10
-657.09488664237529
 20
-2508.8023217653085
 30
0.0
 41
0.9992909934270976
 10
-656.91931087591934
 20
-2508.7796113328423
 30
0.0
 41
1.0
 10
-656.74373510946486
 20
-2508.7569009003755
 30
0.0
 41
0.9994553539448013
 10
-656.56704367637565
 20
-2508.7458215961701
 30
0.0
 41
1.0
 10
-656.53160926857686
 20
-2508.743599708122
 30
0.0
 41
1.0
 10
-656.49617486077818
 20
-2508.7413778200739
 30
0.0
 41
1.0
 10
-656.32994909420768
 20
-2508.7309547576624
 30
0.0
 41
0.999092809829316
 10
-656.16343930230437
 20
-2508.7347143988968
 30
0.0
 41
1.0
 10
-656.12487746702345
 20
-2508.73558509043
 30
0.0
 41
1.0
 10
-656.08631563174254
 20
-2508.7364557819633
 30
0.0
 41
1.0
 10
-655.99692951039265
 20
-2508.7384740401317
 30
0.0
 41
0.9998382089204712
 10
-655.90767382761555
 20
-2508.7437061666592
 30
0.0
 41
1.0
 10
-655.90724392139862
 20
-2508.7437313675609
 30
0.0
 41
1.0
 10
-655.90681401518168
 20
-2508.7437565684631
 30
0.0
 41
1.0
 10
-655.81841814483266
 20
-2508.7489382931867
 30
0.0
 41
0.9997558016757661
 10
-655.73033756762857
 20
-2508.7580208085537
 30
0.0
 41
1.0
 10
-655.72986142919581
 20
-2508.7580699060363
 30
0.0
 41
1.0
 10
-655.72938529076305
 20
-2508.7581190035194
 30
0.0
 41
1.0
 10
-655.6422569904247
 20
-2508.7671033239208
 30
0.0
 41
0.999656514418244
 10
-655.55571913708559
 20
-2508.7806406306095
 30
0.0
 41
1.0
 10
-655.5552532117083
 20
-2508.7807135163407
 30
0.0
 41
1.0
 10
-655.55478728633113
 20
-2508.780786402072
 30
0.0
 41
1.0
 10
-655.46918128374341
 20
-2508.7941779372986
 30
0.0
 41
0.9995321806867653
 10
-655.38455420341529
 20
-2508.8127784257276
 30
0.0
 41
1.0
 10
-655.38416500884523
 20
-2508.8128639681931
 30
0.0
 41
1.0
 10
-655.38377581427528
 20
-2508.8129495106587
 30
0.0
 41
1.0
 10
-655.29992712308888
 20
-2508.8313789141562
 30
0.0
 41
0.9993819199218591
 10
-655.21758058889122
 20
-2508.8556542974175
 30
0.0
 41
1.0
 10
-655.21734215539254
 20
-2508.8557245865268
 30
0.0
 41
1.0
 10
-655.21710372189375
 20
-2508.8557948756365
 30
0.0
 41
1.0
 10
-655.13523405469482
 20
-2508.8799296806783
 30
0.0
 41
0.999208856850644
 10
-655.05554153570688
 20
-2508.9104949164725
 30
0.0
 41
1.0
 10
-654.97586054482792
 20
-2508.9410545172054
 30
0.0
 41
0.9990226101771482
 10
-654.89918987492115
 20
-2508.9785319488205
 30
0.0
 41
1.0
 10
-654.82253073312199
 20
-2509.0160037453752
 30
0.0
 41
0.9988424273974901
 10
-654.74982710590666
 20
-2509.0606685206299
 30
0.0
 41
1.0
 10
-654.74955939752965
 20
-2509.0608329847009
 30
0.0
 41
1.0
 10
-654.74929168915264
 20
-2509.0609974487716
 30
0.0
 41
1.0
 10
-654.676052645185
 20
-2509.1059911521666
 30
0.0
 41
0.9986928844491945
 10
-654.60778977847701
 20
-2509.158226886444
 30
0.0
 41
1.0
 10
-654.60720848625124
 20
-2509.1586716996744
 30
0.0
 41
1.0
 10
-654.60662719402558
 20
-2509.1591165129043
 30
0.0
 41
1.0
 10
-654.53720174286798
 20
-2509.2122418736412
 30
0.0
 41
0.9986007262277299
 10
-654.47377557309835
 20
-2509.2724026433375
 30
0.0
 41
1.0
 10
-654.47288115764331
 20
-2509.2732510111705
 30
0.0
 41
1.0
 10
-654.47198674218839
 20
-2509.2740993790035
 30
0.0
 41
1.0
 10
-654.40677174150778
 20
-2509.3359568843666
 30
0.0
 41
0.9985581491380232
 10
-654.34856412980685
 20
-2509.4044493746383
 30
0.0
 41
1.0
 10
-654.33930567621087
 20
-2509.4153437323403
 30
0.0
 41
1.0
 10
-654.33004722261489
 20
-2509.4262380900423
 30
0.0
 41
1.0
 10
-654.25332270372144
 20
-2509.5165192957184
 30
0.0
 41
0.9970460233523657
 10
-654.19133080256233
 20
-2509.6174863798988
 30
0.0
 41
1.0
 10
-654.17686143748301
 20
-2509.6410528389797
 30
0.0
 41
1.0
 10
-654.16239207240369
 20
-2509.6646192980602
 30
0.0
 41
1.0
 10
-654.12265537239159
 20
-2509.7293390220902
 30
0.0
 41
0.9988468816633234
 10
-654.08930900163909
 20
-2509.7975714745203
 30
0.0
 41
1.0
 10
-654.08227297914812
 20
-2509.8119683956565
 30
0.0
 41
1.0
 10
-654.07523695665714
 20
-2509.8263653167933
 30
0.0
 41
1.0
 10
-654.0559626308908
 20
-2509.8658039269412
 30
0.0
 41
0.9998431189998862
 10
-654.03809730339276
 20
-2509.9059004813889
 30
0.0
 41
1.0
 10
-654.02023197592666
 20
-2509.9459970357648
 30
0.0
 41
0.9999989989953444
 10
-654.00225325246902
 20
-2509.9860428734291
 30
0.0
 41
1.0
 10
-653.99608094087819
 20
-2509.9997910902339
 30
0.0
 41
1.0
 10
-653.98990862928736
 20
-2510.0135393070391
 30
0.0
 41
1.0
 10
-653.95958528267784
 20
-2510.0810815782461
 30
0.0
 41
0.9998790356321754
 10
-653.9313774025411
 20
-2510.1495343301817
 30
0.0
 41
1.0
 10
-653.92454222125457
 20
-2510.1661214316146
 30
0.0
 41
1.0
 10
-653.91770703996792
 20
-2510.1827085330478
 30
0.0
 41
1.0
 10
-653.89414937759068
 20
-2510.2398764879267
 30
0.0
 41
0.9998227574561972
 10
-653.87276062920159
 20
-2510.2978907962029
 30
0.0
 41
1.0
 10
-653.85137188081217
 20
-2510.3559051044799
 30
0.0
 41
0.9996797971041321
 10
-653.83294559585181
 20
-2510.4149272236014
 30
0.0
 41
1.0
 10
-653.82904179312663
 20
-2510.4274316817691
 30
0.0
 41
1.0
 10
-653.82513799040157
 20
-2510.4399361399364
 30
0.0
 41
1.0
 10
-653.79890409999155
 20
-2510.5239671753911
 30
0.0
 41
0.9979274938737057
 10
-653.78367957651142
 20
-2510.610671534052
 30
0.0
 41
1.0
 10
-653.78145588924986
 20
-2510.6233355348745
 30
0.0
 41
1.0
 10
-653.77923220198841
 20
-2510.635999535697
 30
0.0
 41
1.0
 10
-653.76830226228969
 20
-2510.6982460429867
 30
0.0
 41
0.9994985982135437
 10
-653.76133409711315
 20
-2510.7610595441274
 30
0.0
 41
1.0
 10
-653.75436593193638
 20
-2510.8238730452704
 30
0.0
 41
0.9996372611201047
 10
-653.75079006616909
 20
-2510.8869706239507
 30
0.0
 41
1.0
 10
-653.75062148867983
 20
-2510.8899452410333
 30
0.0
 41
1.0
 10
-653.75045291119045
 20
-2510.8929198581159
 30
0.0
 41
1.0
 10
-653.74653989044441
 20
-2510.9619666709609
 30
0.0
 41
0.9997730630736968
 10
-653.74557157695631
 20
-2511.0311174949929
 30
0.0
 41
1.0
 10
-653.74551447053818
 20
-2511.035195674136
 30
0.0
 41
1.0
 10
-653.74545736412006
 20
-2511.0392738532796
 30
0.0
 41
1.0
 10
-653.7443748377957
 20
-2511.1165810355924
 30
0.0
 41
0.9998772614072092
 10
-653.74571492452685
 20
-2511.1938841821589
 30
0.0
 41
1.0
 10
-653.74580418772553
 20
-2511.1990333459953
 30
0.0
 41
1.0
 10
-653.74589345092431
 20
-2511.2041825098318
 30
0.0
 41
1.0
 10
-653.74741206405258
 20
-2511.2917839840607
 30
0.0
 41
0.9999415567328116
 10
-653.75082437429876
 20
-2511.3793321457201
 30
0.0
 41
1.0
 10
-653.75106569497461
 20
-2511.3855236054678
 30
0.0
 41
1.0
 10
-653.75130701565035
 20
-2511.391715065216
 30
0.0
 41
1.0
 10
-653.75520196724756
 20
-2511.491646146359
 30
0.0
 41
0.9999716810417014
 10
-653.76060055036612
 20
-2511.591507284596
 30
0.0
 41
1.0
 10
-653.76381334915482
 20
-2511.6509365342563
 30
0.0
 41
1.0
 10
-653.76702614794362
 20
-2511.7103657839161
 30
0.0
 41
1.0
 10
-653.77510005709564
 20
-2511.8597141851938
 30
0.0
 41
0.9999819129911398
 10
-653.78496984871185
 20
-2512.008954662901
 30
0.0
 41
1.0
 10
-653.79483964032829
 20
-2512.1581951406124
 30
0.0
 41
1.0
 10
-653.7972789608923
 20
-2512.195388186462
 30
0.0
 41
1.0
 10
-653.77458072704485
 20
-2512.1566471891015
 30
0.0
 41
0.9999982128111687
 10
-653.75173616831717
 20
-2512.1179922951901
 30
0.0
 41
1.0
 10
-653.72482660842741
 20
-2512.0724590811269
 30
0.0
 41
1.0
 10
-653.69791704853765
 20
-2512.0269258670637
 30
0.0
 41
1.0
 10
-653.62125337001021
 20
-2511.8972045449918
 30
0.0
 41
0.9998609190058071
 10
-653.54030605714922
 20
-2511.7701121630639
 30
0.0
 41
1.0
 10
-653.51065773566597
 20
-2511.7235624301047
 30
0.0
 41
1.0
 10
-653.48100941418284
 20
-2511.6770126971451
 30
0.0
 41
1.0
 10
-653.398737193947
 20
-2511.5478401271521
 30
0.0
 41
0.9999067609730333
 10
-653.31296818448504
 20
-2511.4209624377145
 30
0.0
 41
1.0
 10
-653.31056348128595
 20
-2511.4174051716627
 30
0.0
 41
1.0
 10
-653.30815877808698
 20
-2511.4138479056105
 30
0.0
 41
1.0
 10
-653.22719917502479
 20
-2511.2940847482791
 30
0.0
 41
0.9998784952150679
 10
-653.14254556533911
 20
-2511.1769035315642
 30
0.0
 41
1.0
 10
-653.05789195565308
 20
-2511.0597223148493
 30
0.0
 41
0.9998532968284897
 10
-652.96927433482949
 20
-2510.9455094063778
 30
0.0
 41
1.0
 10
-652.94931254584128
 20
-2510.9197820853615
 30
0.0
 41
1.0
 10
-652.92935075685307
 20
-2510.8940547643451
 30
0.0
 41
1.0
 10
-652.8108667070951
 20
-2510.7413491533775
 30
0.0
 41
0.9991551975795621
 10
-652.68024225747126
 20
-2510.5988895912928
 30
0.0
 41
1.0
 10
-652.67673264149244
 20
-2510.5950619896694
 30
0.0
 41
1.0
 10
-652.67322302551361
 20
-2510.5912343880464
 30
0.0
 41
1.0
 10
-652.54961780784936
 20
-2510.4564300292104
 30
0.0
 41
0.999741814417987
 10
-652.42001566814747
 20
-2510.3273806185971
 30
0.0
 41
1.0
 10
-652.29041352844581
 20
-2510.1983312079842
 30
0.0
 41
0.9989238204633577
 10
-652.14941098019506
 20
-2510.0818462459456
 30
0.0
 41
1.0
 10
-652.1041633020543
 20
-2510.0444662543359
 30
0.0
 41
1.0
 10
-652.05891562391366
 20
-2510.0070862627263
 30
0.0
 41
1.0
 10
-651.91867556669308
 20
-2509.8912312094362
 30
0.0
 41
0.9990825084096439
 10
-651.76903563409019
 20
-2509.7878022116042
 30
0.0
 41
1.0
 10
-651.75899027003584
 20
-2509.7808589985266
 30
0.0
 41
1.0
 10
-651.74894490598149
 20
-2509.7739157854489
 30
0.0
 41
1.0
 10
-651.61939570148866
 20
-2509.6843732137731
 30
0.0
 41
0.9998164899824568
 10
-651.48651149810962
 20
-2509.5998589722549
 30
0.0
 41
1.0
 10
-651.47466593758168
 20
-2509.5923252057282
 30
0.0
 41
1.0
 10
-651.46282037705373
 20
-2509.5847914392011
 30
0.0
 41
1.0
 10
-651.35362729473138
 20
-2509.5153447307375
 30
0.0
 41
0.9997473449129813
 10
-651.24142333748409
 20
-2509.4508757729227
 30
0.0
 41
1.0
 10
-651.12921938023533
 20
-2509.386406815107
 30
0.0
 41
0.9999327861144404
 10
-651.01555076947523
 20
-2509.3245568234279
 30
0.0
 41
1.0
 10
-651.01499876691241
 20
-2509.3242564647476
 30
0.0
 41
1.0
 10
-651.01444676434971
 20
-2509.3239561060673
 30
0.0
 41
1.0
 10
-650.89967414846967
 20
-2509.2615053970299
 30
0.0
 41
0.9996956420483414
 10
-650.78196082263435
 20
-2509.2047919300576
 30
0.0
 41
1.0
 10
-650.75152041773151
 20
-2509.1901259533224
 30
0.0
 41
1.0
 10
-650.72108001282868
 20
-2509.1754599765877
 30
0.0
 41
1.0
 10
-650.61810290608821
 20
-2509.1258463181462
 30
0.0
 41
0.9998070570176848
 10
-650.51325651715547
 20
-2509.0803157312484
 30
0.0
 41
1.0
 10
-650.40841012821522
 20
-2509.0347851443476
 30
0.0
 41
0.9997827436147726
 10
-650.30175719160832
 20
-2508.9936639730367
 30
0.0
 41
1.0
 10
-650.28253434197472
 20
-2508.9862523994034
 30
0.0
 41
1.0
 10
-650.26331149234124
 20
-2508.9788408257705
 30
0.0
 41
1.0
 10
-650.11821285646602
 20
-2508.9228965071929
 30
0.0
 41
0.9988031841976529
 10
-649.96834249385927
 20
-2508.8813964430251
 30
0.0
 41
1.0
 10
-649.94342524550018
 20
-2508.8744966972195
 30
0.0
 41
1.0
 10
-649.91850799714109
 20
-2508.8675969514138
 30
0.0
 41
1.0
 10
-649.75123797149229
 20
-2508.8212788090063
 30
0.0
 41
0.998474804054999
 10
-649.57988106284142
 20
-2508.7936845767408
 30
0.0
 41
1.0
 10
-649.57514192659028
 20
-2508.7929214162268
 30
0.0
 41
1.0
 10
-649.57040279033913
 20
-2508.7921582557133
 30
0.0
 41
1.0
 10
-649.40852415418999
 20
-2508.7660903444757
 30
0.0
 41
0.9984436495479548
 10
-649.24474941046742
 20
-2508.7582123906573
 30
0.0
 41
1.0
 10
-649.22305220233852
 20
-2508.7571687034579
 30
0.0
 41
1.0
 10
-649.20135499420962
 20
-2508.756125016258
 30
0.0
 41
1.0
 10
-649.08097466674553
 20
-2508.7503344368388
 30
0.0
 41
0.9987954789335503
 10
-648.96060642183352
 20
-2508.756370964581
 30
0.0
 41
1.0
 10
-648.94064162934035
 20
-2508.7573722089196
 30
0.0
 41
1.0
 10
-648.92067683684718
 20
-2508.7583734532582
 30
0.0
 41
1.0
 10
-648.84023817692525
 20
-2508.7624074923233
 30
0.0
 41
0.9997941595877342
 10
-648.76002939882915
 20
-2508.7697015582444
 30
0.0
 41
1.0
 10
-648.67982062072917
 20
-2508.7769956241659
 30
0.0
 41
0.9998589466238753
 10
-648.59990207386886
 20
-2508.7869794786166
 30
0.0
 41
1.0
 10
-648.56749587206559
 20
-2508.7910278355353
 30
0.0
 41
1.0
 10
-648.53508967026232
 20
-2508.795076192454
 30
0.0
 41
1.0
 10
-648.39035871979354
 20
-2508.813156760742
 30
0.0
 41
0.9993495063249368
 10
-648.24730747602996
 20
-2508.8416224704833
 30
0.0
 41
1.0
 10
-648.21437377887196
 20
-2508.8481759336992
 30
0.0
 41
1.0
 10
-648.18144008171407
 20
-2508.854729396915
 30
0.0
 41
1.0
 10
-648.07214625851361
 20
-2508.8764777310498
 30
0.0
 41
0.9996788715561447
 10
-647.96409468656134
 20
-2508.9037355304117
 30
0.0
 41
1.0
 10
-647.96203168402519
 20
-2508.9042559569839
 30
0.0
 41
1.0
 10
-647.95996868148904
 20
-2508.9047763835561
 30
0.0
 41
1.0
 10
-647.85604311460838
 20
-2508.9309933297736
 30
0.0
 41
0.9995480654492056
 10
-647.7538808793754
 20
-2508.963408286399
 30
0.0
 41
1.0
 10
-647.7521912372423
 20
-2508.9639443913143
 30
0.0
 41
1.0
 10
-647.7505015951092
 20
-2508.9644804962295
 30
0.0
 41
1.0
 10
-647.6517186441406
 20
-2508.9958232430254
 30
0.0
 41
0.9993867959456377
 10
-647.55537148570261
 20
-2509.0340026123135
 30
0.0
 41
1.0
 10
-647.55412853662006
 20
-2509.0344951542088
 30
0.0
 41
1.0
 10
-647.55288558753762
 20
-2509.0349876961041
 30
0.0
 41
1.0
 10
-647.45902432726211
 20
-2509.0721819816026
 30
0.0
 41
0.9992050256522557
 10
-647.36842465222639
 20
-2509.116735880842
 30
0.0
 41
1.0
 10
-647.36768996951196
 20
-2509.1170971733036
 30
0.0
 41
1.0
 10
-647.36695528679763
 20
-2509.1174584657656
 30
0.0
 41
1.0
 10
-647.27782497719113
 20
-2509.1612897800815
 30
0.0
 41
0.9990222350741351
 10
-647.19291491579975
 20
-2509.2128230477788
 30
0.0
 41
1.0
 10
-647.19273103051864
 20
-2509.2129346506827
 30
0.0
 41
1.0
 10
-647.19254714523754
 20
-2509.2130462535865
 30
0.0
 41
1.0
 10
-647.10800485440757
 20
-2509.2643563154761
 30
0.0
 41
0.9988642743804722
 10
-647.02873031978766
 20
-2509.3234805030024
 30
0.0
 41
1.0
 10
-646.94945578516706
 20
-2509.3826046905292
 30
0.0
 41
0.9987681233311002
 10
-646.87643200089133
 20
-2509.4492953819299
 30
0.0
 41
1.0
 10
-646.87610307292618
 20
-2509.4495957831432
 30
0.0
 41
1.0
 10
-646.87577414496104
 20
-2509.4498961843569
 30
0.0
 41
1.0
 10
-646.80209250475195
 20
-2509.5171876781874
 30
0.0
 41
0.998749657089747
 10
-646.73549869942474
 20
-2509.5915004922749
 30
0.0
 41
1.0
 10
-646.73472652966529
 20
-2509.592362165632
 30
0.0
 41
1.0
 10
-646.73395435990574
 20
-2509.5932238389887
 30
0.0
 41
1.0
 10
-646.66581621505918
 20
-2509.66925999979
 30
0.0
 41
0.9988147669829772
 10
-646.60539396083402
 20
-2509.7515610066316
 30
0.0
 41
1.0
 10
-646.60427463475548
 20
-2509.7530856379854
 30
0.0
 41
1.0
 10
-646.60315530867706
 20
-2509.7546102693386
 30
0.0
 41
1.0
 10
-646.54049440229619
 20
-2509.8399605388854
 30
0.0
 41
0.9989452636215187
 10
-646.48592748933368
 20
-2509.9306992280449
 30
0.0
 41
1.0
 10
-646.48457876324824
 20
-2509.9329420090708
 30
0.0
 41
1.0
 10
-646.48323003716291
 20
-2509.9351847900962
 30
0.0
 41
1.0
 10
-646.42596567203043
 20
-2510.0304090413056
 30
0.0
 41
0.999104643606936
 10
-646.37695645870861
 20
-2510.1301334743321
 30
0.0
 41
1.0
 10
-646.37549259711864
 20
-2510.1331121544044
 30
0.0
 41
1.0
 10
-646.37402873552878
 20
-2510.1360908344768
 30
0.0
 41
1.0
 10
-646.32209179902782
 20
-2510.2417726276472
 30
0.0
 41
0.9992763831102492
 10
-646.27833867047173
 20
-2510.3510966896047
 30
0.0
 41
1.0
 10
-646.27685940080869
 20
-2510.3547928771377
 30
0.0
 41
1.0
 10
-646.27538013114577
 20
-2510.3584890646703
 30
0.0
 41
1.0
 10
-646.22866846326474
 20
-2510.4752055016907
 30
0.0
 41
0.9994163472883052
 10
-646.19003543207577
 20
-2510.5948390901517
 30
0.0
 41
1.0
 10
-646.18879727982767
 20
-2510.5986732339388
 30
0.0
 41
1.0
 10
-646.18755912757956
 20
-2510.6025073777255
 30
0.0
 41
1.0
 10
-646.14767556656238
 20
-2510.7260134392031
 30
0.0
 41
0.9997268055890829
 10
-646.11360751065081
 20
-2510.8512484711523
 30
0.0
 41
1.0
 10
-646.1126773303813
 20
-2510.8546678372604
 30
0.0
 41
1.0
 10
-646.11174715011191
 20
-2510.858087203369
 30
0.0
 41
1.0
 10
-646.07953945473855
 20
-2510.9764835031037
 30
0.0
 41
0.9996701319000658
 10
-646.05345383796816
 20
-2511.0963774563661
 30
0.0
 41
1.0
 10
-646.02736822119778
 20
-2511.2162714096285
 30
0.0
 41
0.9995785451109438
 10
-646.00828464385756
 20
-2511.3374771706631
 30
0.0
 41
1.0
 10
-646.00406486168413
 20
-2511.3642783254272
 30
0.0
 41
1.0
 10
-645.99984507951058
 20
-2511.3910794801909
 30
0.0
 41
1.0
 10
-645.97327010357196
 20
-2511.5598654538962
 30
0.0
 41
0.9979925101216739
 10
-645.9682445176461
 20
-2511.730656781986
 30
0.0
 41
1.0
 10
-645.96741970522146
 20
-2511.7586875054685
 30
0.0
 41
1.0
 10
-645.96659489279682
 20
-2511.786718228951
 30
0.0
 41
1.0
 10
-645.96321893172023
 20
-2511.9014481100821
 30
0.0
 41
0.9995314902263844
 10
-645.96686912385871
 20
-2512.0161695938295
 30
0.0
 41
1.0
 10
-645.97051931599731
 20
-2512.130891077582
 30
0.0
 41
0.9996245486943964
 10
-645.98044841112846
 20
-2512.2452403487064
 30
0.0
 41
1.0
 10
-645.98061145912266
 20
-2512.2471181048413
 30
0.0
 41
1.0
 10
-645.98077450711685
 20
-2512.2489958609763
 30
0.0
 41
1.0
 10
-645.99102969823662
 20
-2512.3671006443724
 30
0.0
 41
0.9997286095001652
 10
-646.00677502180747
 20
-2512.4845995532687
 30
0.0
 41
1.0
 10
-646.00716851445759
 20
-2512.4875359779689
 30
0.0
 41
1.0
 10
-646.00756200710771
 20
-2512.4904724026692
 30
0.0
 41
1.0
 10
-646.02409431597766
 20
-2512.613844160961
 30
0.0
 41
0.9998265533968341
 10
-646.04520977471202
 20
-2512.7365146357542
 30
0.0
 41
1.0
 10
-646.04588631684931
 20
-2512.7404450142626
 30
0.0
 41
1.0
 10
-646.04656285898659
 20
-2512.744375392771
 30
0.0
 41
1.0
 10
-646.06903140199427
 20
-2512.874906624575
 30
0.0
 41
0.9999022530855526
 10
-646.09514086660397
 20
-2513.0047585932125
 30
0.0
 41
1.0
 10
-646.09611950776934
 20
-2513.0096257355999
 30
0.0
 41
1.0
 10
-646.09709814893472
 20
-2513.0144928779873
 30
0.0
 41
1.0
 10
-646.12516489587563
 20
-2513.1540791314019
 30
0.0
 41
0.9999524761934194
 10
-646.1559478647107
 20
-2513.2930916245664
 30
0.0
 41
1.0
 10
-646.15722397188597
 20
-2513.2988543838683
 30
0.0
 41
1.0
 10
-646.15850007906124
 20
-2513.3046171431697
 30
0.0
 41
1.0
 10
-646.19183526225038
 20
-2513.4551551549539
 30
0.0
 41
0.9999813588730744
 10
-646.22700626304231
 20
-2513.6052748675911
 30
0.0
 41
1.0
 10
-646.22856018849927
 20
-2513.6119074580156
 30
0.0
 41
1.0
 10
-646.23011411395623
 20
-2513.6185400484396
 30
0.0
 41
1.0
 10
-646.26839296566379
 20
-2513.7819249419335
 30
0.0
 41
0.9999955237622084
 10
-646.30764884364294
 20
-2513.9450778455357
 30
0.0
 41
1.0
 10
-646.31993047927858
 20
-2513.9961220360647
 30
0.0
 41
1.0
 10
-646.33221211491423
 20
-2514.0471662265932
 30
0.0
 41
1.0
 10
-646.39603126417023
 20
-2514.3124075112755
 30
0.0
 41
0.9999993604073839
 10
-646.46045021134637
 20
-2514.5775037619933
 30
0.0
 41
1.0
 10
-646.46516904688565
 20
-2514.5969226700017
 30
0.0
 41
1.0
 10
-646.46988788242493
 20
-2514.6163415780106
 30
0.0
 41
1.0
 10
-646.54374450068576
 20
-2514.9202756447712
 30
0.0
 41
0.9999659914731861
 10
-646.62260409657426
 20
-2515.222950191343
 30
0.0
 41
1.0
 10
-646.62755678550297
 20
-2515.2419593285185
 30
0.0
 41
1.0
 10
-646.6325094744318
 20
-2515.2609684656936
 30
0.0
 41
1.0
 10
-646.72127444817647
 20
-2515.601661286611
 30
0.0
 41
0.9999441976021923
 10
-646.81721748114001
 20
-2515.9404027119103
 30
0.0
 41
1.0
 10
-646.83391799956576
 20
-2515.9993664244384
 30
0.0
 41
1.0
 10
-646.85061851799151
 20
-2516.058330136967
 30
0.0
 41
1.0
 10
-646.97996258780722
 20
-2516.5149989873253
 30
0.0
 41
0.9999625120730222
 10
-647.1171953551318
 20
-2516.9693595213248
 30
0.0
 41
1.0
 10
-647.15298529821212
 20
-2517.087855547943
 30
0.0
 41
1.0
 10
-647.18877524129232
 20
-2517.2063515745608
 30
0.0
 41
1.0
 10
-647.26329544533178
 20
-2517.453078652658
 30
0.0
 41
0.9999793386319101
 10
-647.34098146847396
 20
-2517.6988272919098
 30
0.0
 41
1.0
 10
-647.41866749161113
 20
-2517.9445759311457
 30
0.0
 41
1.0
 10
-647.42944705048308
 20
-2517.9785938355208
 30
0.0
 41
1.0
 10
-649.2798201037524
 20
-2523.8656657579882
 30
0.0
 41
1.0
 10
-651.13019315702172
 20
-2529.7527376804555
 30
0.0
 41
1.0
 10
-652.09144984704494
 20
-2529.7527376804555
 30
0.0
 41
1.0
 10
-653.05270653706816
 20
-2529.7527376804555
 30
0.0
 41
1.0
 10
-651.43376175838989
 20
-2524.6047091786659
 30
0.0
 41
1.0
 10
-649.81481697971162
 20
-2519.4566806768762
 30
0.0
 41
1.0
 10
-649.76965115653479
 20
-2519.3126494545986
 30
0.0
 41
1.0
 10
-649.72448533335785
 20
-2519.168618232321
 30
0.0
 41
1.0
 10
-649.5541809160004
 20
-2518.6255272031767
 30
0.0
 41
0.9999911657886974
 10
-649.38844810431988
 20
-2518.0810236718107
 30
0.0
 41
1.0
 10
-649.35875216082195
 20
-2517.9834597317686
 30
0.0
 41
1.0
 10
-649.32905621732414
 20
-2517.8858957917264
 30
0.0
 41
1.0
 10
-649.22271529263776
 20
-2517.5365201404393
 30
0.0
 41
0.9999952428173257
 10
-649.11853170331437
 20
-2517.1864951160974
 30
0.0
 41
1.0
 10
-649.11347223298344
 20
-2517.1694968418278
 30
0.0
 41
1.0
 10
-649.10841276265262
 20
-2517.1524985675578
 30
0.0
 41
1.0
 10
-649.01434811398553
 20
-2516.8364700917364
 30
0.0
 41
0.9999931687495921
 10
-648.92262227611559
 20
-2516.5197548784772
 30
0.0
 41
1.0
 10
-648.91768701165711
 20
-2516.5027141692094
 30
0.0
 41
1.0
 10
-648.91275174719851
 20
-2516.4856734599416
 30
0.0
 41
1.0
 10
-648.83089643824633
 20
-2516.2030396652199
 30
0.0
 41
0.9999893840824645
 10
-648.75164921178498
 20
-2515.9196635359604
 30
0.0
 41
1.0
 10
-648.67240198533023
 20
-2515.6362874067245
 30
0.0
 41
0.9999833980061307
 10
-648.59642574458837
 20
-2515.3520168236942
 30
0.0
 41
1.0
 10
-648.5874218078643
 20
-2515.3183279452087
 30
0.0
 41
1.0
 10
-648.57841787114023
 20
-2515.2846390667237
 30
0.0
 41
1.0
 10
-648.50945332227548
 20
-2515.026603234433
 30
0.0
 41
0.999923365806358
 10
-648.44689835105441
 20
-2514.7669390757073
 30
0.0
 41
1.0
 10
-648.38434337983404
 20
-2514.5072749169849
 30
0.0
 41
1.0
 10
-648.34485996097669
 20
-2514.3434682525585
 30
0.0
 41
1.0
 10
-648.33988135700133
 20
-2514.3228132906956
 30
0.0
 41
1.0
 10
-648.33490275302586
 20
-2514.3021583288328
 30
0.0
 41
1.0
 10
-648.30537654212299
 20
-2514.1796615881476
 30
0.0
 41
0.9999868670844602
 10
-648.27710745812351
 20
-2514.0568686424867
 30
0.0
 41
1.0
 10
-648.27320997096535
 20
-2514.0399390550679
 30
0.0
 41
1.0
 10
-648.26931248380731
 20
-2514.023009467649
 30
0.0
 41
1.0
 10
-648.24883837412619
 20
-2513.934075696834
 30
0.0
 41
0.999977817334249
 10
-648.22955077601205
 20
-2513.8448770796108
 30
0.0
 41
1.0
 10
-648.21026317789438
 20
-2513.7556784623712
 30
0.0
 41
0.9999602692859884
 10
-648.19256881926333
 20
-2513.6661501739422
 30
0.0
 41
1.0
 10
-648.18936498718699
 20
-2513.6499397190628
 30
0.0
 41
1.0
 10
-648.18616115511054
 20
-2513.6337292641829
 30
0.0
 41
1.0
 10
-648.16205913232488
 20
-2513.5117800659864
 30
0.0
 41
0.9995617985321328
 10
-648.14521578510562
 20
-2513.3886183182822
 30
0.0
 41
1.0
 10
-648.1427512951991
 20
-2513.3705975009152
 30
0.0
 41
1.0
 10
-648.1402868052927
 20
-2513.3525766835487
 30
0.0
 41
1.0
 10
-648.12000354424379
 20
-2513.2042616338463
 30
0.0
 41
0.9991121410637638
 10
-648.1122781906563
 20
-2513.0547655350406
 30
0.0
 41
1.0
 10
-648.11135940063173
 20
-2513.0369856984626
 30
0.0
 41
1.0
 10
-648.11044061060727
 20
-2513.0192058618845
 30
0.0
 41
1.0
 10
-648.10455283706892
 20
-2512.9052694362317
 30
0.0
 41
0.9989792494906944
 10
-648.10897192918605
 20
-2512.7912666003363
 30
0.0
 41
1.0
 10
-648.10961990105466
 20
-2512.7745503544093
 30
0.0
 41
1.0
 10
-648.11026787292326
 20
-2512.7578341084823
 30
0.0
 41
1.0
 10
-648.11339102130319
 20
-2512.6772637644381
 30
0.0
 41
0.999782029539332
 10
-648.11987501867884
 20
-2512.5968940426937
 30
0.0
 41
1.0
 10
-648.12635901605495
 20
-2512.516524320944
 30
0.0
 41
0.9998335105972823
 10
-648.13577121156652
 20
-2512.436444704495
 30
0.0
 41
1.0
 10
-648.13736613624269
 20
-2512.4228749740141
 30
0.0
 41
1.0
 10
-648.13896106091875
 20
-2512.4093052435333
 30
0.0
 41
1.0
 10
-648.15156310578232
 20
-2512.302086166123
 30
0.0
 41
0.9996876457879269
 10
-648.16950701858104
 20
-2512.1956307384039
 30
0.0
 41
1.0
 10
-648.17173868172654
 20
-2512.1823910031612
 30
0.0
 41
1.0
 10
-648.17397034487192
 20
-2512.1691512679186
 30
0.0
 41
1.0
 10
-648.18776616629361
 20
-2512.0873051239578
 30
0.0
 41
0.9995547496494682
 10
-648.20641948818616
 20
-2512.0064276267681
 30
0.0
 41
1.0
 10
-648.20679344505777
 20
-2512.0048062160613
 30
0.0
 41
1.0
 10
-648.20716740192938
 20
-2512.0031848053545
 30
0.0
 41
1.0
 10
-648.22507281007995
 20
-2511.9255501295725
 30
0.0
 41
0.9994899427173868
 10
-648.24789771875862
 20
-2511.8492168467424
 30
0.0
 41
1.0
 10
-648.24835624549905
 20
-2511.8476833969548
 30
0.0
 41
1.0
 10
-648.24881477223948
 20
-2511.8461499471673
 30
0.0
 41
1.0
 10
-648.27072262743764
 20
-2511.7728835639095
 30
0.0
 41
0.9993784877591968
 10
-648.29773826254427
 20
-2511.7013428587493
 30
0.0
 41
1.0
 10
-648.29826995352119
 20
-2511.6999348760287
 30
0.0
 41
1.0
 10
-648.29880164449821
 20
-2511.6985268933081
 30
0.0
 41
1.0
 10
-648.32475389765125
 20
-2511.6298021535886
 30
0.0
 41
0.9992430832252877
 10
-648.35597043281018
 20
-2511.5633030015219
 30
0.0
 41
1.0
 10
-648.35655254886683
 20
-2511.5620629464047
 30
0.0
 41
1.0
 10
-648.35713466492359
 20
-2511.560822891287
 30
0.0
 41
1.0
 10
-648.38718696797048
 20
-2511.4968038494526
 30
0.0
 41
0.999078963280045
 10
-648.42261759474627
 20
-2511.4355972377039
 30
0.0
 41
1.0
 10
-648.42321330092761
 20
-2511.4345681518457
 30
0.0
 41
1.0
 10
-648.42380900710896
 20
-2511.4335390659876
 30
0.0
 41
1.0
 10
-648.45804822152297
 20
-2511.3743906259533
 30
0.0
 41
0.9988874801119086
 10
-648.4977074975543
 20
-2511.3187309135365
 30
0.0
 41
1.0
 10
-648.4982630236201
 20
-2511.3179512618599
 30
0.0
 41
1.0
 10
-648.49881854968589
 20
-2511.3171716101829
 30
0.0
 41
1.0
 10
-648.53736677358665
 20
-2511.2630712011182
 30
0.0
 41
0.99867620606929
 10
-648.58126924486191
 20
-2511.2132174866797
 30
0.0
 41
1.0
 10
-648.58171320519432
 20
-2511.212713344863
 30
0.0
 41
1.0
 10
-648.58215716552661
 20
-2511.2122092030463
 30
0.0
 41
1.0
 10
-648.62517171613763
 20
-2511.1633637722407
 30
0.0
 41
0.9984621642485649
 10
-648.67332927291613
 20
-2511.1195804717695
 30
0.0
 41
1.0
 10
-648.67357590743245
 20
-2511.1193562396065
 30
0.0
 41
1.0
 10
-648.67382254194865
 20
-2511.1191320074431
 30
0.0
 41
1.0
 10
-648.72148682969316
 20
-2511.0757971712992
 30
0.0
 41
0.9982724693855688
 10
-648.77390546153515
 20
-2511.0383528207803
 30
0.0
 41
1.0
 10
-648.82632409337521
 20
-2511.0009084702629
 30
0.0
 41
0.9981399180153787
 10
-648.88291015676725
 20
-2510.9701219508206
 30
0.0
 41
1.0
 10
-648.88295581884699
 20
-2510.9700971076627
 30
0.0
 41
1.0
 10
-648.88300148092662
 20
-2510.9700722645048
 30
0.0
 41
1.0
 10
-648.93967886847793
 20
-2510.9392360587467
 30
0.0
 41
0.9980927086838748
 10
-648.99972421954408
 20
-2510.9156192498945
 30
0.0
 41
1.0
 10
-649.0001643892557
 20
-2510.9154461240196
 30
0.0
 41
1.0
 10
-649.00060455896732
 20
-2510.9152729981447
 30
0.0
 41
1.0
 10
-649.0615302494582
 20
-2510.8913099375418
 30
0.0
 41
0.9981411356561536
 10
-649.12491877085938
 20
-2510.874937296036
 30
0.0
 41
1.0
 10
-649.12580088755954
 20
-2510.8747094538307
 30
0.0
 41
1.0
 10
-649.1266830042598
 20
-2510.8744816116255
 30
0.0
 41
1.0
 10
-649.19183575906118
 20
-2510.8576532857091
 30
0.0
 41
0.9983031812935075
 10
-649.25850318805578
 20
-2510.8485139245327
 30
0.0
 41
1.0
 10
-649.26737421345979
 20
-2510.8472978058612
 30
0.0
 41
1.0
 10
-649.27624523886368
 20
-2510.8460816871898
 30
0.0
 41
1.0
 10
-649.3305948813678
 20
-2510.8386309571988
 30
0.0
 41
0.9983887708262741
 10
-649.38543873066033
 20
-2510.8373862835656
 30
0.0
 41
1.0
 10
-649.39350213587318
 20
-2510.8372032856905
 30
0.0
 41
1.0
 10
-649.40156554108603
 20
-2510.8370202878159
 30
0.0
 41
1.0
 10
-649.44028257994864
 20
-2510.8361416099324
 30
0.0
 41
0.9998869563078383
 10
-649.47900853315628
 20
-2510.8364274792921
 30
0.0
 41
1.0
 10
-649.51773448638278
 20
-2510.8367133486518
 30
0.0
 41
0.9999972320036615
 10
-649.55645866561758
 20
-2510.8371814481816
 30
0.0
 41
1.0
 10
-649.57581168217371
 20
-2510.8374153882705
 30
0.0
 41
1.0
 10
-649.59516469872983
 20
-2510.8376493283595
 30
0.0
 41
1.0
 10
-649.67259491110201
 20
-2510.8385853080672
 30
0.0
 41
0.9997304945087042
 10
-649.74989821734061
 20
-2510.8431144018537
 30
0.0
 41
1.0
 10
-649.75894785904381
 20
-2510.8436446078435
 30
0.0
 41
1.0
 10
-649.76799750074701
 20
-2510.8441748138334
 30
0.0
 41
1.0
 10
-649.86340009039714
 20
-2510.8497643196001
 30
0.0
 41
0.999788830641554
 10
-649.95849242624297
 20
-2510.8592692840894
 30
0.0
 41
1.0
 10
-649.96721348781216
 20
-2510.8601409987214
 30
0.0
 41
1.0
 10
-649.97593454938146
 20
-2510.8610127133529
 30
0.0
 41
1.0
 10
-650.08846900836693
 20
-2510.8722611071057
 30
0.0
 41
0.9984170238191469
 10
-650.19902815571504
 20
-2510.8960771890406
 30
0.0
 41
1.0
 10
-650.23540928670513
 20
-2510.9039142248475
 30
0.0
 41
1.0
 10
-650.27179041769512
 20
-2510.9117512606545
 30
0.0
 41
1.0
 10
-650.3869814861157
 20
-2510.9365651271637
 30
0.0
 41
0.9976592854197296
 10
-650.49770965252014
 20
-2510.9768638043111
 30
0.0
 41
1.0
 10
-650.60843781892277
 20
-2511.0171624814575
 30
0.0
 41
0.9993255074353553
 10
-650.71590961771381
 20
-2511.0654793799499
 30
0.0
 41
1.0
 10
-650.72053479663793
 20
-2511.06755875615
 30
0.0
 41
1.0
 10
-650.72515997556206
 20
-2511.0696381323501
 30
0.0
 41
1.0
 10
-650.84188213220079
 20
-2511.1221137832422
 30
0.0
 41
0.9976475078274258
 10
-650.95032947651328
 20
-2511.190061772902
 30
0.0
 41
1.0
 10
-650.96867187064686
 20
-2511.2015542517156
 30
0.0
 41
1.0
 10
-650.98701426478033
 20
-2511.2130467305292
 30
0.0
 41
1.0
 10
-651.07121645633151
 20
-2511.2658038512968
 30
0.0
 41
0.9995131336406119
 10
-651.15196417128959
 20
-2511.3237100632509
 30
0.0
 41
1.0
 10
-651.23271188624483
 20
-2511.3816162752032
 30
0.0
 41
0.9995810107607782
 10
-651.30997353397436
 20
-2511.4440979576684
 30
0.0
 41
1.0
 10
-651.31294356518538
 20
-2511.4464998291337
 30
0.0
 41
1.0
 10
-651.31591359639629
 20
-2511.448901700599
 30
0.0
 41
1.0
 10
-651.39911530654842
 20
-2511.5161871259957
 30
0.0
 41
0.999661783795358
 10
-651.47870599368207
 20
-2511.5877075815547
 30
0.0
 41
1.0
 10
-651.49083674455778
 20
-2511.5986083145444
 30
0.0
 41
1.0
 10
-651.5029674954335
 20
-2511.6095090475337
 30
0.0
 41
1.0
 10
-651.57124302282955
 20
-2511.6708616630058
 30
0.0
 41
0.9997267750051984
 10
-651.63657653111591
 20
-2511.735338199534
 30
0.0
 41
1.0
 10
-651.70191003940067
 20
-2511.7998147360609
 30
0.0
 41
0.9999667288962835
 10
-651.76618298254903
 20
-2511.8653485429572
 30
0.0
 41
1.0
 10
-651.83501043032265
 20
-2511.9355262017134
 30
0.0
 41
1.0
 10
-651.90383787809628
 20
-2512.00570386047
 30
0.0
 41
1.0
 10
-652.10576571679542
 20
-2512.2115929848828
 30
0.0
 41
0.9988205335174464
 10
-652.28677133377414
 20
-2512.4360972169434
 30
0.0
 41
1.0
 10
-652.31741129867794
 20
-2512.4741004673724
 30
0.0
 41
1.0
 10
-652.34805126358174
 20
-2512.512103717801
 30
0.0
 41
1.0
 10
-652.59033681036931
 20
-2512.8126144507205
 30
0.0
 41
0.9997077826755001
 10
-652.81781476147114
 20
-2513.1244842449314
 30
0.0
 41
1.0
 10
-652.81953817660383
 20
-2513.1268470283139
 30
0.0
 41
1.0
 10
-652.82126159173663
 20
-2513.1292098116969
 30
0.0
 41
1.0
 10
-653.05218637310372
 20
-2513.4458051726733
 30
0.0
 41
0.9989147567078546
 10
-653.252649875987
 20
-2513.7825146338582
 30
0.0
 41
1.0
 10
-653.27739102129408
 20
-2513.8240712144107
 30
0.0
 41
1.0
 10
-653.30213216660127
 20
-2513.8656277949635
 30
0.0
 41
1.0
 10
-653.45734346523852
 20
-2514.1263291794162
 30
0.0
 41
0.9997476598181453
 10
-653.60068845274714
 20
-2514.3937389279977
 30
0.0
 41
1.0
 10
-653.74403344025745
 20
-2514.6611486765823
 30
0.0
 41
0.9996258967109862
 10
-653.87254169218829
 20
-2514.9359966132047
 30
0.0
 41
1.0
 10
-653.88574160163796
 20
-2514.9642280133003
 30
0.0
 41
1.0
 10
-653.89894151108763
 20
-2514.9924594133959
 30
0.0
 41
1.0
 10
-654.0391502320856
 20
-2515.2923318113449
 30
0.0
 41
0.9998735413944878
 10
-654.16975157880756
 20
-2515.5965114108162
 30
0.0
 41
1.0
 10
-654.17319440686902
 20
-2515.6045299962834
 30
0.0
 41
1.0
 10
-654.17663723493058
 20
-2515.6125485817502
 30
0.0
 41
1.0
 10
-654.30035292552679
 20
-2515.9006910102817
 30
0.0
 41
0.9999377418863835
 10
-654.41760772770272
 20
-2516.1915224779591
 30
0.0
 41
1.0
 10
-654.53486252988034
 20
-2516.4823539456411
 30
0.0
 41
0.9999508299504308
 10
-654.64632647325152
 20
-2516.7754536224447
 30
0.0
 41
1.0
 10
-654.64940724191626
 20
-2516.7835546484148
 30
0.0
 41
1.0
 10
-654.65248801058101
 20
-2516.7916556743844
 30
0.0
 41
1.0
 10
-654.77011349128315
 20
-2517.1009574031314
 30
0.0
 41
0.999960922843011
 10
-654.88225209416089
 20
-2517.4122904191586
 30
0.0
 41
1.0
 10
-654.88520810450882
 20
-2517.4204972595635
 30
0.0
 41
1.0
 10
-654.88816411485664
 20
-2517.4287040999679
 30
0.0
 41
1.0
 10
-655.00621473842898
 20
-2517.7564507968018
 30
0.0
 41
0.9999674607405927
 10
-655.11896226449767
 20
-2518.0860594167975
 30
0.0
 41
1.0
 10
-655.17036065505977
 20
-2518.236318612488
 30
0.0
 41
1.0
 10
-655.22175904562187
 20
-2518.3865778081786
 30
0.0
 41
1.0
 10
-655.33776965238053
 20
-2518.7257257906831
 30
0.0
 41
0.9999287532305302
 10
-655.44565105635161
 20
-2519.0675465296599
 30
0.0
 41
1.0
 10
-655.49212831249997
 20
-2519.2148090740602
 30
0.0
 41
1.0
 10
-655.53860556864845
 20
-2519.362071618461
 30
0.0
 41
1.0
 10
-655.55353246030927
 20
-2519.409367268594
 30
0.0
 41
0.9999998225212669
 10
-655.56840296905307
 20
-2519.4566806768762
 30
0.0
 41
1.0
 10
-657.1890591058484
 20
-2524.6047091786659
 30
0.0
 41
1.0
 10
-658.80971524264373
 20
-2529.7527376804555
 30
0.0
 41
1.0
 10
-659.71502368653478
 20
-2529.7527376804555
 30
0.0
 41
1.0
 10
-660.62033213042582
 20
-2529.7527376804555
 30
0.0
 41
1.0
 10
-658.76824771903944
 20
-2523.8656657579882
 30
0.0
 41
1.0
 10
-656.91616330765305
 20
-2517.9785938355208
 30
0.0
 41
1.0
 10
-656.90604154934977
 20
-2517.9465506220704
 30
0.0
 41
1.0
 10
-656.83343388050002
 20
-2517.7162510802445
 30
0.0
 41
1.0
 10
-656.76082621165278
 20
-2517.4859515384269
 30
0.0
 41
0.9999825681971354
 10
-656.69094317243832
 20
-2517.2548106433514
 30
0.0
 41
1.0
 10
-656.64265211027919
 20
-2517.0950860598605
 30
0.0
 41
1.0
 10
-656.59436104812005
 20
-2516.93536147637
 30
0.0
 41
1.0
 10
-656.49720869480507
 20
-2516.6140262546005
 30
0.0
 41
0.9999672528968678
 10
-656.40526988917941
 20
-2516.2911607090041
 30
0.0
 41
1.0
 10
-656.40248100550752
 20
-2516.2813668636068
 30
0.0
 41
1.0
 10
-656.39969212183564
 20
-2516.2715730182094
 30
0.0
 41
1.0
 10
-656.3133310835542
 20
-2515.9682951634095
 30
0.0
 41
0.999989974916087
 10
-656.22968947402137
 20
-2515.6642560749651
 30
0.0
 41
1.0
 10
-656.21958355500396
 20
-2515.6275208372876
 30
0.0
 41
1.0
 10
-656.20947763598667
 20
-2515.5907855996102
 30
0.0
 41
1.0
 10
-656.14604786448592
 20
-2515.3602169865117
 30
0.0
 41
0.9999214200503316
 10
-656.08841843610776
 20
-2515.1281306443034
 30
0.0
 41
1.0
 10
-656.07565258392628
 20
-2515.0767197589039
 30
0.0
 41
1.0
 10
-656.06288673174492
 20
-2515.0253088735049
 30
0.0
 41
1.0
 10
-656.03078900772698
 20
-2514.8960443020842
 30
0.0
 41
0.9999828681673888
 10
-656.00020675573455
 20
-2514.7664128276265
 30
0.0
 41
1.0
 10
-655.96962450373826
 20
-2514.6367813531533
 30
0.0
 41
0.9999389844476914
 10
-655.94191351494976
 20
-2514.5065058972564
 30
0.0
 41
1.0
 10
-655.93477577122985
 20
-2514.4729497934204
 30
0.0
 41
1.0
 10
-655.92763802750983
 20
-2514.4393936895844
 30
0.0
 41
1.0
 10
-655.8856515512789
 20
-2514.2420060260051
 30
0.0
 41
0.9998933699438379
 10
-655.84944728687753
 20
-2514.0434764182501
 30
0.0
 41
1.0
 10
-655.84807446166133
 20
-2514.035948397554
 30
0.0
 41
1.0
 10
-655.846701636445
 20
-2514.0284203768579
 30
0.0
 41
1.0
 10
-655.80775172160952
 20
-2513.8148347277029
 30
0.0
 41
0.9996850305193651
 10
-655.77956804535154
 20
-2513.5995637222682
 30
0.0
 41
1.0
 10
-655.77757301198221
 20
-2513.5843253681464
 30
0.0
 41
1.0
 10
-655.775577978613
 20
-2513.5690870140247
 30
0.0
 41
1.0
 10
-655.74817011615494
 20
-2513.3597417868732
 30
0.0
 41
0.9994697936707383
 10
-655.73444555693482
 20
-2513.1490565915401
 30
0.0
 41
1.0
 10
-655.73396848768516
 20
-2513.1417331193288
 30
0.0
 41
1.0
 10
-655.73349141843551
 20
-2513.134409647118
 30
0.0
 41
1.0
 10
-655.72072099771526
 20
-2512.9383713962102
 30
0.0
 41
0.9991804893137034
 10
-655.72384931398778
 20
-2512.7419425462363
 30
0.0
 41
1.0
 10
-655.72393319280991
 20
-2512.7366757448253
 30
0.0
 41
1.0
 10
-655.72401707163192
 20
-2512.7314089434144
 30
0.0
 41
1.0
 10
-655.72697763026008
 20
-2512.545513696266
 30
0.0
 41
0.9988448329320949
 10
-655.74776917588429
 20
-2512.3607611064294
 30
0.0
 41
1.0
 10
-655.7493632495873
 20
-2512.3465962506589
 30
0.0
 41
1.0
 10
-655.75095732329032
 20
-2512.3324313948879
 30
0.0
 41
1.0
 10
-655.76856072150827
 20
-2512.1760085165965
 30
0.0
 41
0.9985503209459444
 10
-655.80287699380756
 20
-2512.0223843325066
 30
0.0
 41
1.0
 10
-655.81046298587955
 20
-2511.9884240051024
 30
0.0
 41
1.0
 10
-655.81804897795155
 20
-2511.9544636776986
 30
0.0
 41
1.0
 10
-655.83719326610731
 20
-2511.8687601484162
 30
0.0
 41
0.9991036781370761
 10
-655.86351812775797
 20
-2511.7849830610921
 30
0.0
 41
1.0
 10
-655.86750035321074
 20
-2511.7723098985916
 30
0.0
 41
1.0
 10
-655.8714825786634
 20
-2511.7596367360916
 30
0.0
 41
1.0
 10
-655.88984298940477
 20
-2511.7012059737808
 30
0.0
 41
0.9998874504368867
 10
-655.90994819708817
 20
-2511.6433523715441
 30
0.0
 41
1.0
 10
-655.93005340476782
 20
-2511.5854987693192
 30
0.0
 41
0.9994041637544937
 10
-655.95410201770324
 20
-2511.5291700654275
 30
0.0
 41
1.0
 10
-655.9582988019265
 20
-2511.5193400009475
 30
0.0
 41
1.0
 10
-655.96249558614977
 20
-2511.5095099364671
 30
0.0
 41
1.0
 10
-655.99037441714449
 20
-2511.4442097704996
 30
0.0
 41
0.9991846840701734
 10
-656.02343077383762
 20
-2511.3813717392195
 30
0.0
 41
1.0
 10
-656.02456738023307
 20
-2511.379211122764
 30
0.0
 41
1.0
 10
-656.02570398662863
 20
-2511.377050506308
 30
0.0
 41
1.0
 10
-656.05648713053188
 20
-2511.3185337079376
 30
0.0
 41
0.9989253167925649
 10
-656.09255655458514
 20
-2511.2631187795491
 30
0.0
 41
1.0
 10
-656.09361067925863
 20
-2511.261499284788
 30
0.0
 41
1.0
 10
-656.09466480393212
 20
-2511.2598797900268
 30
0.0
 41
1.0
 10
-656.12862597863955
 20
-2511.2077038511584
 30
0.0
 41
0.9986467172830749
 10
-656.16782313127737
 20
-2511.1593378175294
 30
0.0
 41
1.0
 10
-656.16869725997753
 20
-2511.1582592152517
 30
0.0
 41
1.0
 10
-656.16957138867758
 20
-2511.1571806129746
 30
0.0
 41
1.0
 10
-656.20702028391395
 20
-2511.1109717839013
 30
0.0
 41
0.998400110426937
 10
-656.24944701443223
 20
-2511.0692866765312
 30
0.0
 41
1.0
 10
-656.25003415254264
 20
-2511.0687098016488
 30
0.0
 41
1.0
 10
-656.25062129065304
 20
-2511.0681329267668
 30
0.0
 41
1.0
 10
-656.29187374495029
 20
-2511.0276015691616
 30
0.0
 41
0.9982442159082341
 10
-656.3376298462847
 20
-2510.9922330079021
 30
0.0
 41
1.0
 10
-656.33784464174641
 20
-2510.9920669752591
 30
0.0
 41
1.0
 10
-656.33805943720802
 20
-2510.9919009426158
 30
0.0
 41
1.0
 10
-656.38338594761944
 20
-2510.9568644466422
 30
0.0
 41
0.9982450060834509
 10
-656.43253692669191
 20
-2510.9274326636082
 30
0.0
 41
1.0
 10
-656.48168790576358
 20
-2510.8980008805747
 30
0.0
 41
0.9983922639636514
 10
-656.53385421192877
 20
-2510.8743212459203
 30
0.0
 41
1.0
 10
-656.53408108925305
 20
-2510.8742182604392
 30
0.0
 41
1.0
 10
-656.53430796657744
 20
-2510.8741152749576
 30
0.0
 41
1.0
 10
-656.58692802739108
 20
-2510.8502296693405
 30
0.0
 41
0.9986517147147044
 10
-656.64174100025889
 20
-2510.8319285502193
 30
0.0
 41
1.0
 10
-656.64241892168707
 20
-2510.8317022037877
 30
0.0
 41
1.0
 10
-656.64309684311525
 20
-2510.8314758573561
 30
0.0
 41
1.0
 10
-656.6992656588377
 20
-2510.8127220453721
 30
0.0
 41
0.9989435598959106
 10
-656.75691904598727
 20
-2510.7992043431377
 30
0.0
 41
1.0
 10
-656.75799916557048
 20
-2510.7989510928846
 30
0.0
 41
1.0
 10
-656.75907928515358
 20
-2510.7986978426311
 30
0.0
 41
1.0
 10
-656.81889291146683
 20
-2510.784673639891
 30
0.0
 41
0.9992249241239855
 10
-656.87962442036303
 20
-2510.7753982971758
 30
0.0
 41
1.0
 10
-656.88103810865505
 20
-2510.7751823887675
 30
0.0
 41
1.0
 10
-656.88245179694718
 20
-2510.7749664803596
 30
0.0
 41
1.0
 10
-656.94601068242798
 20
-2510.7652593208281
 30
0.0
 41
0.9994396597832871
 10
-657.01007661896654
 20
-2510.7598263984828
 30
0.0
 41
1.0
 10
-657.02921728644264
 20
-2510.7582032307641
 30
0.0
 41
1.0
 10
-657.04835795391887
 20
-2510.7565800630455
 30
0.0
 41
1.0
 10
-657.15070522541089
 20
-2510.7479008052624
 30
0.0
 41
0.9987693403119854
 10
-657.25340884899731
 20
-2510.7494038687155
 30
0.0
 41
1.0
 10
-657.26366318322539
 20
-2510.7495539404899
 30
0.0
 41
1.0
 10
-657.27391751745358
 20
-2510.7497040122639
 30
0.0
 41
1.0
 10
-657.38347328363204
 20
-2510.7513073565515
 30
0.0
 41
0.9989753644966808
 10
-657.49243528364809
 20
-2510.7628103634765
 30
0.0
 41
1.0
 10
-657.60139728366585
 20
-2510.7743133704016
 30
0.0
 41
0.9983190067306331
 10
-657.70829609463135
 20
-2510.7983483621883
 30
0.0
 41
1.0
 10
-657.71719704623763
 20
-2510.8003496407509
 30
0.0
 41
1.0
 10
-657.72609799784391
 20
-2510.8023509193135
 30
0.0
 41
1.0
 10
-657.85079871202174
 20
-2510.830388468225
 30
0.0
 41
0.9985539388302307
 10
-657.97176846569801
 20
-2510.8716521442702
 30
0.0
 41
1.0
 10
-657.97411389665979
 20
-2510.8724521880868
 30
0.0
 41
1.0
 10
-657.97645932762157
 20
-2510.8732522319028
 30
0.0
 41
1.0
 10
-658.10211994322151
 20
-2510.9161159955806
 30
0.0
 41
0.9988468746493299
 10
-658.22309028552252
 20
-2510.9708340806437
 30
0.0
 41
1.0
 10
-658.22627310750977
 20
-2510.9722737552029
 30
0.0
 41
1.0
 10
-658.22945592949714
 20
-2510.9737134297625
 30
0.0
 41
1.0
 10
-658.3567919157756
 20
-2511.0313108639452
 30
0.0
 41
0.9991322885919186
 10
-658.47889249983484
 20
-2511.099306196129
 30
0.0
 41
1.0
 10
-658.49649451087532
 20
-2511.1091083981169
 30
0.0
 41
1.0
 10
-658.5140965219158
 20
-2511.1189106001048
 30
0.0
 41
1.0
 10
-658.61627320297498
 20
-2511.1758107158867
 30
0.0
 41
0.9993860037849083
 10
-658.71421420704905
 20
-2511.2397267314755
 30
0.0
 41
1.0
 10
-658.71983251989695
 20
-2511.2433932261674
 30
0.0
 41
1.0
 10
-658.72545083274474
 20
-2511.2470597208594
 30
0.0
 41
1.0
 10
-658.81215521111972
 20
-2511.3036427470624
 30
0.0
 41
0.9998821494955078
 10
-658.89708158693543
 20
-2511.3628609771408
 30
0.0
 41
1.0
 10
-658.98200796275114
 20
-2511.4220792072197
 30
0.0
 41
0.999797648274445
 10
-659.06448359315777
 20
-2511.4846656152636
 30
0.0
 41
1.0
 10
-659.07911985795999
 20
-2511.4957723050411
 30
0.0
 41
1.0
 10
-659.09375612276222
 20
-2511.5068789948191
 30
0.0
 41
1.0
 10
-659.20550428277591
 20
-2511.5916787824203
 30
0.0
 41
0.9998091630800532
 10
-659.31385456080636
 20
-2511.6807791331239
 30
0.0
 41
1.0
 10
-659.32686031328262
 20
-2511.6914742335689
 30
0.0
 41
1.0
 10
-659.33986606575877
 20
-2511.7021693340139
 30
0.0
 41
1.0
 10
-659.47422784873959
 20
-2511.8126598856056
 30
0.0
 41
0.9995035112316166
 10
-659.60136372650118
 20
-2511.9313937026195
 30
0.0
 41
1.0
 10
-659.61101103688986
 20
-2511.9404034487789
 30
0.0
 41
1.0
 10
-659.62065834727855
 20
-2511.9494131949382
 30
0.0
 41
1.0
 10
-659.74408141004483
 20
-2512.0646795666958
 30
0.0
 41
0.9994630424299764
 10
-659.85968981582687
 20
-2512.1877823099294
 30
0.0
 41
1.0
 10
-659.86337265459838
 20
-2512.1917038894426
 30
0.0
 41
1.0
 10
-659.86705549337
 20
-2512.1956254689558
 30
0.0
 41
1.0
 10
-659.97529822160982
 20
-2512.3108850531635
 30
0.0
 41
0.9995160693750437
 10
-660.0761642511427
 20
-2512.4326524710368
 30
0.0
 41
1.0
 10
-660.07809797122422
 20
-2512.4349868952459
 30
0.0
 41
1.0
 10
-660.08003169130563
 20
-2512.4373213194549
 30
0.0
 41
1.0
 10
-660.17703028067706
 20
-2512.5544198889124
 30
0.0
 41
0.9996561470515123
 10
-660.2677564993412
 20
-2512.6764426513582
 30
0.0
 41
1.0
 10
-660.27391416524233
 20
-2512.6847244403993
 30
0.0
 41
1.0
 10
-660.28007183114335
 20
-2512.6930062294405
 30
0.0
 41
1.0
 10
-660.35848271800842
 20
-2512.7984654138081
 30
0.0
 41
0.9998349055172697
 10
-660.43300999993903
 20
-2512.9067039974711
 30
0.0
 41
1.0
 10
-660.50753728186191
 20
-2513.0149425811228
 30
0.0
 41
0.9999728109567283
 10
-660.58046017777724
 20
-2513.1242685066836
 30
0.0
 41
1.0
 10
-660.58177539319115
 20
-2513.1262402761895
 30
0.0
 41
1.0
 10
-660.58309060860506
 20
-2513.1282120456949
 30
0.0
 41
1.0
 10
-660.65864393534048
 20
-2513.2414815102557
 30
0.0
 41
0.9999972147388236
 10
-660.73366174573277
 20
-2513.3551063531208
 30
0.0
 41
1.0
 10
-660.73863328834523
 20
-2513.3626364415782
 30
0.0
 41
1.0
 10
-660.74360483095757
 20
-2513.3701665300355
 30
0.0
 41
1.0
 10
-660.82856572656942
 20
-2513.4988515498071
 30
0.0
 41
0.9999371979005901
 10
-660.91062107597645
 20
-2513.6294084635874
 30
0.0
 41
1.0
 10
-660.91412996034035
 20
-2513.6349913916556
 30
0.0
 41
1.0
 10
-660.91763884470424
 20
-2513.6405743197242
 30
0.0
 41
1.0
 10
-661.00671196283054
 20
-2513.7822970896282
 30
0.0
 41
0.9998272025610275
 10
-661.0904553537157
 20
-2513.927232966375
 30
0.0
 41
1.0
 10
-661.10567052573981
 20
-2513.9535660808315
 30
0.0
 41
1.0
 10
-661.12088569776392
 20
-2513.9798991952885
 30
0.0
 41
1.0
 10
-661.23505943269367
 20
-2514.1775013009428
 30
0.0
 41
0.9995217214837988
 10
-661.33679912225
 20
-2514.3817836288063
 30
0.0
 41
1.0
 10
-661.34444268488596
 20
-2514.3971310785109
 30
0.0
 41
1.0
 10
-661.35208624752192
 20
-2514.4124785282156
 30
0.0
 41
1.0
 10
-661.43899154010944
 20
-2514.5869749862927
 30
0.0
 41
0.9998269762608208
 10
-661.51934600638128
 20
-2514.7645832730173
 30
0.0
 41
1.0
 10
-661.5997004726504
 20
-2514.9421915597354
 30
0.0
 41
0.9998944747385504
 10
-661.67486126721599
 20
-2515.1220592853665
 30
0.0
 41
1.0
 10
-661.67981493680804
 20
-2515.1339139402862
 30
0.0
 41
1.0
 10
-661.6847686064001
 20
-2515.1457685952055
 30
0.0
 41
1.0
 10
-661.76541566695107
 20
-2515.338765535219
 30
0.0
 41
0.9999506734414855
 10
-661.84221319585708
 20
-2515.5333263400798
 30
0.0
 41
1.0
 10
-661.85681316112675
 20
-2515.5703142618827
 30
0.0
 41
1.0
 10
-661.87141312639642
 20
-2515.6073021836855
 30
0.0
 41
1.0
 10
-661.91901072477162
 20
-2515.7278871449621
 30
0.0
 41
0.9999912393920802
 10
-661.96559716878278
 20
-2515.8488663476319
 30
0.0
 41
1.0
 10
-662.01218361279575
 20
-2515.9698455503053
 30
0.0
 41
0.9999927113997345
 10
-662.05784490720134
 20
-2516.0911769578361
 30
0.0
 41
1.0
 10
-662.07181333859796
 20
-2516.1282939398316
 30
0.0
 41
1.0
 10
-662.08578176999458
 20
-2516.1654109218275
 30
0.0
 41
1.0
 10
-662.15937992718841
 20
-2516.3609762933365
 30
0.0
 41
0.9999487550951643
 10
-662.22900355215597
 20
-2516.5579916585079
 30
0.0
 41
1.0
 10
-662.25259716209348
 20
-2516.6247549688023
 30
0.0
 41
1.0
 10
-662.27619077203087
 20
-2516.6915182790963
 30
0.0
 41
1.0
 10
-662.37087640639811
 20
-2516.9594521139106
 30
0.0
 41
0.9999808436949413
 10
-662.46223799504264
 20
-2517.2285375451847
 30
0.0
 41
1.0
 10
-662.5535995836924
 20
-2517.4976229764743
 30
0.0
 41
0.9999873932910588
 10
-662.64225429240423
 20
-2517.76761233147
 30
0.0
 41
1.0
 10
-662.66234664927231
 20
-2517.8288016642191
 30
0.0
 41
1.0
 10
-662.68243900614038
 20
-2517.8899909969682
 30
0.0
 41
1.0
 10
-662.81127842859678
 20
-2518.2823590174867
 30
0.0
 41
0.9999794883023392
 10
-662.93508121355649
 20
-2518.6763452237687
 30
0.0
 41
1.0
 10
-662.94623347298784
 20
-2518.7118358339867
 30
0.0
 41
1.0
 10
-662.95738573241931
 20
-2518.7473264442042
 30
0.0
 41
1.0
 10
-663.09994389630651
 20
-2519.2009991962568
 30
0.0
 41
0.9999982761814155
 10
-663.24081633634182
 20
-2519.6551982184492
 30
0.0
 41
1.0
 10
-664.82895666891477
 20
-2524.7039679494524
 30
0.0
 41
1.0
 10
-666.41709700148772
 20
-2529.7527376804555
 30
0.0
 41
1.0
 10
-667.36584761296422
 20
-2529.7527376804555
 30
0.0
 41
1.0
 10
-668.31459822444072
 20
-2529.7527376804555
 30
0.0
 41
1.0
 10
-665.07631373828758
 20
-2519.4254154805094
 30
0.0
 41
1.0
 10
-661.83802925213445
 20
-2509.0980932805633
 30
0.0
 41
1.0
  0
LWPOLYLINE
  5
63
100
AcDbEntity
  8
0
370
              15
390
0
  6
Continuous
 62
               7
100
AcDbPolyline
 90
      232
 70
             128
 10
-687.54157502596195
 20
-2510.182436112078
 42
0.0004370800667986
 10
-687.59445219999338
 20
-2510.2511027512828
 10
-687.63373643116051
 20
-2510.3022098642314
 42
0.0030481992169547
 10
-687.76407514828929
 20
-2510.4739315565894
 10
-687.80258682002955
 20
-2510.5253183403638
 42
0.004205824575057
 10
-688.00657187070124
 20
-2510.8023240854395
 10
-688.05897699320053
 20
-2510.8747569322181
 42
0.0120948898748089
 10
-688.35502090996329
 20
-2511.3055065367685
 10
-688.45121340908531
 20
-2511.4529872719932
 42
0.0141601263947371
 10
-688.75485745600622
 20
-2511.9486566087271
 10
-688.7943947234354
 20
-2512.0175005761644
 42
0.0071131081298569
 10
-688.99966704667099
 20
-2512.3870033749972
 42
0.0068458791003154
 10
-689.19454657351253
 20
-2512.7620949384695
 10
-689.20135843597222
 20
-2512.7756566521971
 42
0.0064120880298109
 10
-689.39950068601559
 20
-2513.1830811271157
 10
-689.40703537153263
 20
-2513.1990929838371
 42
0.0058857236434429
 10
-689.60979076340129
 20
-2513.6434690948663
 10
-689.61796568969771
 20
-2513.6619592485058
 42
0.0053189741895713
 10
-689.82667000236472
 20
-2514.1479227224208
 10
-689.8354178080474
 20
-2514.16890460062
 42
0.0047503650422816
 10
-690.05139153419975
 20
-2514.701104033833
 10
-690.06065978254651
 20
-2514.7245804099375
 42
0.0042071762167365
 10
-690.28520716627645
 20
-2515.3076740040119
 10
-690.29495656862332
 20
-2515.333640178877
 42
0.0036680086489669
 10
-690.52941121193726
 20
-2515.9722755634139
 10
-690.53961899178307
 20
-2516.0007240977529
 42
0.0032573142622779
 10
-690.7852512777489
 20
-2516.6995767575049
 10
-690.85390179858894
 20
-2516.8990398415563
 42
0.0026133366649563
 10
-691.20234699734851
 20
-2517.928903125231
 10
-691.2656037848501
 20
-2518.1191339606266
 42
0.0020592950742092
 10
-691.47946685381635
 20
-2518.7712376132372
 10
-691.48251864498081
 20
-2518.7806741016511
 42
0.0025609928535472
 10
-691.68433914646471
 20
-2519.4158193240128
 10
-691.68693051358912
 20
-2519.4241216649457
 42
0.0031362356234212
 10
-691.87642129926849
 20
-2520.0448845211326
 10
-691.87855234219933
 20
-2520.052025827355
 42
0.0037229918042741
 10
-692.05535272912243
 20
-2520.661011129318
 10
-692.05703131832797
 20
-2520.6669580194894
 42
0.0043077623703191
 10
-692.22077212039335
 20
-2521.2667767512617
 42
0.0047654161822554
 10
-692.3736008429081
 20
-2521.8694628401586
 10
-692.4080654517486
 20
-2522.0110246173135
 42
0.0112969368447617
 10
-692.60392980989241
 20
-2522.9027167779368
 10
-692.63193619898925
 20
-2523.0455448240355
 42
0.0130056762571777
 10
-692.83277344263593
 20
-2524.2324858956804
 10
-692.85331319278339
 20
-2524.3765640091601
 42
0.0138721532149025
 10
-692.95701619732085
 20
-2525.2833934949831
 10
-692.97631168522923
 20
-2525.506891216914
 42
0.007125469701318
 10
-693.00965833115083
 20
-2525.9700782257555
 10
-693.01461930531377
 20
-2526.0560822203129
 42
0.0028881799189359
 10
-693.02975759860351
 20
-2526.347823930158
 42
0.0060297297133017
 10
-693.0396897983793
 20
-2526.6397728662791
 10
-693.04075208004622
 20
-2526.6881652382021
 42
0.0229523164152022
 10
-693.03302105226089
 20
-2527.0109200844895
 10
-693.02879527874018
 20
-2527.0713236185111
 42
0.0123673300682782
 10
-693.00971663222231
 20
-2527.2724443436805
 42
0.0128577674464047
 10
-692.98052124181652
 20
-2527.4723421936046
 10
-692.97339536842924
 20
-2527.5136710082043
 42
0.0285717853771095
 10
-692.90890136673443
 20
-2527.7917871595146
 10
-692.8952328430662
 20
-2527.8384419289978
 42
0.0316283099146404
 10
-692.77942226315304
 20
-2528.1574564308212
 10
-692.77637357139793
 20
-2528.1644428031459
 42
0.0338984824257671
 10
-692.62694186042995
 20
-2528.4520087673359
 10
-692.6246331310598
 20
-2528.4557997966122
 42
0.0350228718331882
 10
-692.44227284038629
 20
-2528.7128517812885
 10
-692.4413875886122
 20
-2528.7139308590513
 42
0.0347476747536725
 10
-692.22696290137196
 20
-2528.9411159062724
 42
0.0331337701916598
 10
-691.98371957562381
 20
-2529.137244568351
 10
-691.98261947710876
 20
-2529.1380172715226
 42
0.0305233319081457
 10
-691.71407478153571
 20
-2529.3031454416132
 10
-691.71084473703399
 20
-2529.3048694534764
 42
0.027374448115257
 10
-691.41829102546001
 20
-2529.4410075973665
 10
-691.41318649032223
 20
-2529.4430511818364
 42
0.0240964406200346
 10
-691.09770941467559
 20
-2529.552034908118
 10
-691.09112608546661
 20
-2529.5539596477929
 42
0.0209636179816934
 10
-690.75372593280997
 20
-2529.6374277957257
 10
-690.74609347236515
 20
-2529.6389797087263
 42
0.0181388704690652
 10
-690.38777108036209
 20
-2529.6983958019409
 10
-690.37949023198803
 20
-2529.6994619857574
 42
0.0156086547582183
 10
-690.00130286780939
 20
-2529.7361981723334
 10
-689.95810761545749
 20
-2529.7390366748141
 42
0.0137148329039091
 10
-689.63043447017321
 20
-2529.7515569300645
 10
-689.58449828026369
 20
-2529.7520513631794
 42
0.0051057823867909
 10
-689.34835269365544
 20
-2529.7521816175886
 42
0.0052256693319985
 10
-689.11225540984583
 20
-2529.7474327931236
 10
-689.04202862612806
 20
-2529.7452858271104
 42
0.0161507179047257
 10
-688.66629154802888
 20
-2529.721635456784
 10
-688.64627858765402
 20
-2529.7197252614965
 42
0.0101216737833666
 10
-688.23225136617191
 20
-2529.6717323311323
 10
-688.19819807673616
 20
-2529.6670846343213
 42
0.0245291776394364
 10
-687.72140842118415
 20
-2529.578009556245
 10
-687.63658510565722
 20
-2529.5578136358981
 42
0.0143509212561519
 10
-687.27995400172153
 20
-2529.4620090021203
 42
0.0156557857041205
 10
-686.92973793699082
 20
-2529.3449977863002
 10
-686.92223672249952
 20
-2529.3422276245474
 42
0.0170137333627275
 10
-686.56564072681658
 20
-2529.1965700096757
 10
-686.55853680441055
 20
-2529.1933821741127
 42
0.0183105364410401
 10
-686.19918713624565
 20
-2529.0160471322893
 10
-686.19224037160552
 20
-2529.0122966974163
 42
0.0194899958147824
 10
-685.8337596306244
 20
-2528.8003177155274
 10
-685.82674575128499
 20
-2528.7957923732306
 42
0.0204869852950658
 10
-685.47273144918938
 20
-2528.5462723581436
 10
-685.46546584060366
 20
-2528.5406922927964
 42
0.02125169385582
 10
-685.11947590949717
 20
-2528.2507882959035
 10
-685.07295921541504
 20
-2528.2083209858038
 42
0.0215248918258473
 10
-684.81293304653195
 20
-2527.9495567068134
 10
-684.76790331215057
 20
-2527.9007125854628
 42
0.0114578554946002
 10
-684.61311115847388
 20
-2527.7248896520055
 10
-684.60191662249247
 20
-2527.7115708884662
 42
0.0061531305145152
 10
-684.47544197649245
 20
-2527.5572813551544
 42
0.0006325587129624
 10
-684.35106349232342
 20
-2527.4012779794562
 10
-684.32802335728979
 20
-2527.3723044588191
 42
0.0041897761547813
 10
-684.15956795330987
 20
-2527.1567850827473
 10
-684.10110583342544
 20
-2527.0806837357723
 42
0.0092993880036021
 10
-683.82449390619979
 20
-2526.7064049718865
 10
-683.74209941300342
 20
-2526.5904679683217
 42
0.0159321727099911
 10
-683.39549293036021
 20
-2526.0682937475635
 10
-683.35113679497124
 20
-2525.9966141833129
 42
0.0085547317005196
 10
-683.11662502964577
 20
-2525.6027392340889
 42
0.0084601156903653
 10
-682.89564885219988
 20
-2525.2011123850507
 10
-682.88753337837284
 20
-2525.1857527027837
 42
0.0081429654277901
 10
-682.66428410793515
 20
-2524.7460311902423
 10
-682.6554239437512
 20
-2524.7278523482232
 42
0.0076574581330671
 10
-682.42901643318226
 20
-2524.2446694729661
 10
-682.41953679246058
 20
-2524.2236049946673
 42
0.007068272420063
 10
-682.18909188465193
 20
-2523.691567689882
 10
-682.17910160067208
 20
-2523.6675785008747
 42
0.0064559514445286
 10
-681.94376839249196
 20
-2523.0812662343601
 10
-681.93335903432512
 20
-2523.0543313089133
 42
0.0058311413911064
 10
-681.69231229756235
 20
-2522.4082992145286
 10
-681.68155722017514
 20
-2522.3784148733689
 42
0.0052312425815555
 10
-681.43397594213252
 20
-2521.6672124595279
 10
-681.42293210575485
 20
-2521.6343857474649
 42
0.0046680544800395
 10
-681.168003678025
 20
-2520.8525594317234
 10
-681.12601152797436
 20
-2520.7195761944085
 42
0.0041666856439444
 10
-680.92272551558221
 20
-2520.0566074194121
 10
-680.88506307491821
 20
-2519.9300263117584
 42
0.0015170975162489
 10
-680.76387649650519
 20
-2519.5181579602649
 42
-0.0004887993116034
 10
-680.64353672336404
 20
-2519.1060395481609
 10
-680.56705946588704
 20
-2518.8450821622819
 42
0.0002583378929194
 10
-680.29384489575102
 20
-2517.9110254588577
 10
-680.21207204626353
 20
-2517.6309261995793
 42
0.0006636169671525
 10
-680.01820428623455
 20
-2516.963573275933
 10
-680.01310763187143
 20
-2516.9459416929976
 42
0.0010589131326997
 10
-679.83165893097089
 20
-2516.3132103500043
 10
-679.82667686049626
 20
-2516.2956974430049
 42
0.001565552445581
 10
-679.65840665330802
 20
-2515.6970807637831
 10
-679.65357645289259
 20
-2515.6796886048455
 42
0.0021640440466673
 10
-679.49928648090668
 20
-2515.1146615868288
 10
-679.49465226147868
 20
-2515.0973968568424
 42
0.0028763871854632
 10
-679.35513654342344
 20
-2514.565428905988
 10
-679.35075067925607
 20
-2514.5483049278332
 42
0.0037310511950773
 10
-679.22679398742025
 20
-2514.0488573338098
 10
-679.22271876712966
 20
-2514.0318970625576
 42
0.0047652197765129
 10
-679.11509486662294
 20
-2513.5644192942591
 10
-679.11140426730049
 20
-2513.547659739113
 42
0.0060276699300653
 10
-679.0208741681447
 20
-2513.1115839439649
 10
-679.01765547785556
 20
-2513.095082729656
 42
0.0075824337766098
 10
-678.94496616843958
 20
-2512.6898155652298
 10
-678.94232079105893
 20
-2512.6736606177769
 42
0.009513062461447
 10
-678.88820555542884
 20
-2512.2985712647073
 10
-678.88121933154662
 20
-2512.2426377065917
 42
0.0121054653229174
 10
-678.85462800096889
 20
-2511.9777418781168
 10
-678.85376151120931
 20
-2511.9663384351879
 42
0.0069050827386791
 10
-678.83867269317147
 20
-2511.7233972083436
 10
-678.83753739350266
 20
-2511.6998709512932
 42
0.0169063976688457
 10
-678.83471011452207
 20
-2511.5036782239981
 10
-678.83588076605326
 20
-2511.4433424626382
 42
0.0052007733049739
 10
-678.83813421464788
 20
-2511.3677490724967
 42
0.0054038123399142
 10
-678.8580977264877
 20
-2511.2477307764757
 10
-678.86318358235644
 20
-2511.2190722899059
 42
0.0112050460430855
 10
-678.89856794441562
 20
-2511.0427458515678
 10
-678.91639290645639
 20
-2510.9632042648459
 42
0.0240764468006954
 10
-679.00729027260229
 20
-2510.6329672293436
 10
-679.02584903541504
 20
-2510.576347064351
 42
0.0256812331841812
 10
-679.16921195560394
 20
-2510.2046228580934
 10
-679.17462138142446
 20
-2510.1924915231057
 42
0.0268360501218096
 10
-679.34404862227552
 20
-2509.861498389083
 10
-679.34958502991174
 20
-2509.8519787187688
 42
0.0274670231728706
 10
-679.54178600632463
 20
-2509.5596913438535
 10
-679.54716730628741
 20
-2509.5524121963117
 42
0.0275035967091396
 10
-679.75874018584932
 20
-2509.296896306008
 10
-679.76380968681678
 20
-2509.2914172183764
 42
0.0269557673523384
 10
-679.99121323025452
 20
-2509.0707749324151
 10
-679.99595628803581
 20
-2509.0666449779555
 42
0.0259124802227364
 10
-680.23551111946767
 20
-2508.8789544508022
 10
-680.24004196464921
 20
-2508.8757689484723
 42
0.02451621529952
 10
-680.48795831774555
 20
-2508.7190359393612
 10
-680.49248486407407
 20
-2508.7164757421579
 42
0.0229282588844255
 10
-680.74490442089723
 20
-2508.5886075496614
 10
-680.74968491472953
 20
-2508.5864552499015
 42
0.0212984135685748
 10
-681.00272286719542
 20
-2508.4852563326572
 10
-681.00802715216548
 20
-2508.4833927698969
 42
0.0197555462351618
 10
-681.25780548988791
 20
-2508.4065773519324
 42
0.0183511896780475
 10
-681.5127342153495
 20
-2508.3489944449675
 10
-681.59909941207366
 20
-2508.3327916545823
 42
0.0338057877146246
 10
-681.88460676133332
 20
-2508.2989832494418
 10
-681.9756121663678
 20
-2508.2944035941809
 42
0.0091990524495939
 10
-682.08145927500868
 20
-2508.291027738258
 42
0.0028333980823451
 10
-682.18737319103843
 20
-2508.2901996307414
 10
-682.188288644051
 20
-2508.2901976609173
 42
-0.0023619827830775
 10
-682.29603465915636
 20
-2508.289456819839
 10
-682.33243982933368
 20
-2508.289034513376
 42
0.0008824598480423
 10
-682.51299581904971
 20
-2508.2872587351389
 10
-682.55685725158969
 20
-2508.2869047736122
 42
0.0038132665759921
 10
-682.82514014746209
 20
-2508.2867858375453
 10
-682.84167380226177
 20
-2508.286904603689
 42
0.0060665569345509
 10
-683.14295429387596
 20
-2508.2927249031104
 10
-683.15720462587819
 20
-2508.2931732110774
 42
0.0080356953332835
 10
-683.48666334220695
 20
-2508.308840933144
 10
-683.49873335730467
 20
-2508.3096095160849
 42
0.0098996399103091
 10
-683.85149644196372
 20
-2508.3390947452835
 10
-683.8615421513307
 20
-2508.3401350414811
 42
0.0117740981368972
 10
-684.23269900967261
 20
-2508.3874272890098
 10
-684.24092170616245
 20
-2508.3886724055815
 42
0.0137435215144013
 10
-684.62551052565652
 20
-2508.4577693791452
 10
-684.63216756477073
 20
-2508.4591552753768
 42
0.0158359869383791
 10
-685.02516465857525
 20
-2508.5540473638584
 10
-685.03057784543967
 20
-2508.5555373047282
 42
0.0180554124025598
 10
-685.42689289005011
 20
-2508.6801753209661
 10
-685.43144967813555
 20
-2508.6817913572331
 42
0.0203657431281375
 10
-685.82592719594504
 20
-2508.8400516987476
 10
-685.83007073495469
 20
-2508.8419133201905
 42
0.0226819684659777
 10
-686.21750679115473
 20
-2509.0375558988594
 10
-686.22170658217715
 20
-2509.0399214907816
 42
0.0248634984605387
 10
-686.59688852336149
 20
-2509.2765481367314
 10
-686.64508345214097
 20
-2509.310405178554
 42
0.0267044190885915
 10
-686.91937614905805
 20
-2509.5258455544226
 42
0.0139303002201902
 10
-687.17554331500003
 20
-2509.763084395338
 10
-687.18039670071744
 20
-2509.7678370581948
 42
0.028346096342732
 10
-687.42446929494349
 20
-2510.0355677186376
 10
-687.46413780010175
 20
-2510.0843692961125
 42
0.0070695364812305
 10
-687.54157502596195
 20
-2510.182436112078
 42
0.0070695364812305
  0
LWPOLYLINE
  5
64
100
AcDbEntity
  8
0
370
              15
390
0
  6
Continuous
 62
               7
100
AcDbPolyline
 90
      226
 70
             128
 10
-691.07039546320652
 20
-2525.9040249182626
 42
-0.0026277636783322
 10
-691.07047334700826
 20
-2525.8372529925286
 10
-691.07025598877613
 20
-2525.7840977750761
 42
-0.0088680296721629
 10
-691.06647937248295
 20
-2525.6110819926744
 10
-691.06413301337057
 20
-2525.5518019672195
 42
-0.0077381705632124
 10
-691.04808690260677
 20
-2525.2605414714194
 10
-691.04721899143374
 20
-2525.2482532377362
 42
-0.0068872530497411
 10
-691.02058691168577
 20
-2524.9330314856693
 10
-691.0193826874995
 20
-2524.9207905066482
 42
-0.0062130021500556
 10
-690.98178897067237
 20
-2524.5819208154112
 10
-690.98028506713695
 20
-2524.5697469434931
 42
-0.0056726929655049
 10
-690.93136320763415
 20
-2524.2075517213793
 10
-690.92958976198975
 20
-2524.1954579211347
 42
-0.0052341884479733
 10
-690.86897917573026
 20
-2523.8102646656157
 10
-690.86696118695386
 20
-2523.7982597356245
 42
-0.0049768450184975
 10
-690.79422250552739
 20
-2523.3904151681891
 10
-690.7699734908058
 20
-2523.2618671851856
 42
-0.0089029805618803
 10
-690.63289263901117
 20
-2522.6000917377669
 10
-690.60014726369195
 20
-2522.4550603072398
 42
-0.0080318257099022
 10
-690.37059864935065
 20
-2521.5093506753828
 10
-690.35861372290333
 20
-2521.4632200401961
 42
-0.0074265721319627
 10
-690.0746021840522
 20
-2520.4331554618111
 10
-690.05472264093703
 20
-2520.3650214012268
 42
-0.0069711922702484
 10
-689.72741806243016
 20
-2519.298753660898
 10
-689.66746611532744
 20
-2519.1127323025357
 42
-0.0052070422896863
 10
-689.43804089006539
 20
-2518.425460225496
 10
-689.42075969788641
 20
-2518.3754329448593
 42
-0.0009167004447636
 10
-689.21766781060364
 20
-2517.7909770967249
 42
-0.0025162726943738
 10
-689.01057018034169
 20
-2517.2079358325641
 10
-688.97334556853536
 20
-2517.1047862866558
 42
-0.0028212681462157
 10
-688.72516964957254
 20
-2516.4290556544861
 10
-688.71533888681688
 20
-2516.4027482097963
 42
-0.0031964916821871
 10
-688.47904662915903
 20
-2515.7825434476822
 10
-688.46941217516178
 20
-2515.7577334575435
 42
-0.0036281836445156
 10
-688.24430621405941
 20
-2515.1902927766459
 10
-688.23486780390454
 20
-2515.1669953451492
 42
-0.0041269166841997
 10
-688.02025010724287
 20
-2514.649554449165
 10
-687.9876171508231
 20
-2514.5726760028065
 42
-0.0047472213053027
 10
-687.83057234526791
 20
-2514.2122545349202
 10
-687.82367826405539
 20
-2514.1968339375785
 42
-0.0025651659991663
 10
-687.67532023020999
 20
-2513.8695058818398
 42
-0.005714463500361
 10
-687.52157053643862
 20
-2513.5446962084775
 10
-687.4935398310389
 20
-2513.4871878260865
 42
-0.0065388068368033
 10
-687.31007280329709
 20
-2513.1229553294179
 10
-687.30161434751926
 20
-2513.1066957500498
 42
-0.0074510843035434
 10
-687.12543210164063
 20
-2512.7800074689258
 10
-687.11725243110641
 20
-2512.7653666916513
 42
-0.0084648979849662
 10
-686.94761857800972
 20
-2512.4734576806959
 10
-686.93976245152157
 20
-2512.4604506890446
 42
-0.0095638542807706
 10
-686.77592700392802
 20
-2512.2005618170665
 10
-686.76845206025882
 20
-2512.1891924556148
 42
-0.0107191626822231
 10
-686.60965047986815
 20
-2511.9585812210671
 10
-686.60263374613623
 20
-2511.9488451287011
 42
-0.0118458573878772
 10
-686.44808564762411
 20
-2511.7447729333917
 42
-0.0129184518194881
 10
-686.28363302402238
 20
-2511.5486124172203
 10
-686.25348825165827
 20
-2511.5144863383193
 42
-0.0217742579636211
 10
-686.0768759293253
 20
-2511.3312795680717
 10
-686.06613038487069
 20
-2511.3210627348744
 42
-0.0097266568661246
 10
-685.90007276600886
 20
-2511.1692151604316
 42
-0.0187720905718289
 10
-685.72572519011987
 20
-2511.0271463070435
 10
-685.69501919944344
 20
-2511.0039872246452
 42
-0.0179428207517491
 10
-685.46259847944862
 20
-2510.8414350475346
 10
-685.45894615253576
 20
-2510.8390711126485
 42
-0.0170047877700094
 10
-685.22318251500224
 20
-2510.6976105984954
 10
-685.21939952624882
 20
-2510.6955122934555
 42
-0.0160190788353742
 10
-684.98249097862049
 20
-2510.5738609914711
 42
-0.0151102861494254
 10
-684.73845919617611
 20
-2510.4671782154169
 10
-684.68607269396239
 20
-2510.4461380825214
 42
-0.027194544188871
 10
-684.32741013490136
 20
-2510.3242732718145
 10
-684.25834533442151
 20
-2510.3049237305504
 42
-0.0237596594020953
 10
-683.84254848739351
 20
-2510.2094730185677
 10
-683.7744856336667
 20
-2510.1972183304415
 42
-0.0213715440559394
 10
-683.48861070221778
 20
-2510.1582712989311
 10
-683.42846353598975
 20
-2510.1526815842294
 42
-0.0101465655800677
 10
-683.26097100400625
 20
-2510.140538040966
 10
-683.2516306178062
 20
-2510.1400511259685
 42
-0.0100375910884917
 10
-683.10247651724535
 20
-2510.1352753080432
 10
-683.09221724757617
 20
-2510.1351528690288
 42
-0.0103625633386164
 10
-682.96350925290994
 20
-2510.1362843025554
 10
-682.94124360163505
 20
-2510.1369416610205
 42
-0.0115689250237516
 10
-682.85719286411427
 20
-2510.1413711672658
 42
-0.0072438037417742
 10
-682.77335458466507
 20
-2510.1489603670166
 10
-682.7565540752023
 20
-2510.1507269097397
 42
-0.0217917313121205
 10
-682.63998431188827
 20
-2510.1681468024608
 10
-682.57438422131975
 20
-2510.1808934108753
 42
-0.0332943556765299
 10
-682.36999205629422
 20
-2510.2349337021819
 10
-682.3398194877517
 20
-2510.2451017792978
 42
-0.0184824084785163
 10
-682.20131443127889
 20
-2510.2975527946869
 42
-0.0198002050687033
 10
-682.06724009077277
 20
-2510.360436854889
 10
-682.06535345340149
 20
-2510.3614146417663
 42
-0.0212242343001831
 10
-681.93321451100087
 20
-2510.4371773805592
 10
-681.93139921545685
 20
-2510.4383231827678
 42
-0.022609060577432
 10
-681.80289531423534
 20
-2510.5278028263328
 10
-681.80105087249854
 20
-2510.5292150793198
 42
-0.0238457052236361
 10
-681.67786879120581
 20
-2510.6332109751816
 10
-681.67591606264637
 20
-2510.6350258529483
 42
-0.0248160564169331
 10
-681.55971455534757
 20
-2510.7543004541553
 10
-681.55761092194393
 20
-2510.7566857878614
 42
-0.0254109591433737
 10
-681.45000570407558
 20
-2510.8919741738291
 10
-681.44775768216391
 20
-2510.8951157222264
 42
-0.0255528488281503
 10
-681.35031100336846
 20
-2511.047142776456
 10
-681.34797990344964
 20
-2511.051224388068
 42
-0.0252146793258267
 10
-681.26219887743969
 20
-2511.220726634067
 10
-681.25989663828318
 20
-2511.2259087159778
 42
-0.0244265635909174
 10
-681.18724194452125
 20
-2511.4136552880259
 10
-681.17799554305282
 20
-2511.441520706363
 42
-0.0231319612928322
 10
-681.13207276406069
 20
-2511.6048217531638
 42
-0.0112130424359051
 10
-681.09743674152389
 20
-2511.7710253533469
 10
-681.09623421641049
 20
-2511.7775219402397
 42
-0.0210527881231915
 10
-681.07054774103983
 20
-2511.9585775856785
 10
-681.06703714621767
 20
-2511.9939831342281
 42
-0.0190029892429124
 10
-681.05159567267276
 20
-2512.2475189805014
 10
-681.05078569622879
 20
-2512.2829945948697
 42
-0.0137974553671302
 10
-681.05233454906477
 20
-2512.6080260016015
 10
-681.05318000402042
 20
-2512.634144746195
 42
-0.0081336634211522
 10
-681.06803933924334
 20
-2512.9394922137949
 42
-0.0073526923567108
 10
-681.09234787261755
 20
-2513.2442404580779
 10
-681.09360929640047
 20
-2513.2575771327461
 42
-0.0066886138684555
 10
-681.12934488244662
 20
-2513.5881631762472
 10
-681.13100197191602
 20
-2513.6017847952348
 42
-0.0061359187369711
 10
-681.17885257396676
 20
-2513.9585487753357
 10
-681.18089007503954
 20
-2513.9724435781641
 42
-0.0056698610061478
 10
-681.24154040580629
 20
-2514.3557221469973
 10
-681.24394583913022
 20
-2514.3698812662328
 42
-0.0052721077273983
 10
-681.31807803992967
 20
-2514.7800086059078
 10
-681.32084118877196
 20
-2514.7944252412967
 42
-0.0049289272172983
 10
-681.40913530687135
 20
-2515.2317337524159
 10
-681.41224780155449
 20
-2515.2464026052348
 42
-0.0047415956718406
 10
-681.51548579308587
 20
-2515.7111993626409
 10
-681.55025400344698
 20
-2515.8610064580289
 42
-0.0084404470895246
 10
-681.74027044701984
 20
-2516.6212304825635
 10
-681.7463971350046
 20
-2516.6440946067137
 42
-0.0039635940262982
 10
-681.96785081928635
 20
-2517.4450834709542
 10
-681.9812276144678
 20
-2517.4920150875528
 42
-0.0072475040834675
 10
-682.24867450233023
 20
-2518.3812348039401
 10
-682.31888682915803
 20
-2518.602975153914
 42
-0.0051345458825653
 10
-682.60564620121681
 20
-2519.4773003417258
 10
-682.62717246798456
 20
-2519.5407266088569
 42
-0.00191500166087
 10
-682.88270587485135
 20
-2520.2842757290819
 10
-682.8891734792478
 20
-2520.3028631940037
 42
-0.0021524362743403
 10
-683.13765153031113
 20
-2521.0071890157114
 10
-683.14686195100683
 20
-2521.0329425940108
 42
-0.0024331286828713
 10
-683.38311721004288
 20
-2521.6835419021313
 10
-683.39216516259239
 20
-2521.7080852084828
 42
-0.0027449721791736
 10
-683.61677973342944
 20
-2522.30721508741
 10
-683.62566974082017
 20
-2522.3305376772582
 42
-0.0031083229764538
 10
-683.83921222743197
 20
-2522.8804617148417
 10
-683.84794835910668
 20
-2522.9025514306973
 42
-0.0035311343282601
 10
-684.05098954469963
 20
-2523.4055345564298
 10
-684.05957488384638
 20
-2523.4263772799377
 42
-0.0040245640941273
 10
-684.2526866876417
 20
-2523.8846866025328
 10
-684.26112280124471
 20
-2523.9042659706051
 42
-0.0046015135851975
 10
-684.44487909440818
 20
-2524.3201710002472
 10
-684.45316527223417
 20
-2524.3384681396942
 42
-0.0052768638271564
 10
-684.62814279119198
 20
-2524.7142410239694
 10
-684.63627500182008
 20
-2524.7312343625149
 42
-0.0060672675641413
 10
-684.80305461458488
 20
-2525.0691499856266
 10
-684.81102409506434
 20
-2525.0848152446197
 42
-0.0069904648870819
 10
-684.97019248906804
 20
-2525.3871510512877
 10
-684.97798388867704
 20
-2525.4014616005115
 42
-0.0080637022755759
 10
-685.13013574902402
 20
-2525.6704969036682
 10
-685.13772478165708
 20
-2525.6834247692723
 42
-0.0093006455686888
 10
-685.28346545818681
 20
-2525.921439167772
 10
-685.2908161249311
 20
-2525.9329571369458
 42
-0.010706077803681
 10
-685.43076466836942
 20
-2526.1422274543243
 10
-685.43782643664633
 20
-2526.1523129968864
 42
-0.0122723111427397
 10
-685.57262015484707
 20
-2526.335106326379
 10
-685.57294637839902
 20
-2526.335526714186
 42
-0.0141836319614438
 10
-685.71652798137552
 20
-2526.5100964720182
 10
-685.72347573702689
 20
-2526.5180714722824
 42
-0.0175957477206297
 10
-685.86338190506217
 20
-2526.6676923606879
 42
-0.0080466359670642
 10
-686.01084567009093
 20
-2526.8100148888379
 10
-686.05688021460924
 20
-2526.8530353269302
 42
-0.0269600260398576
 10
-686.31016046059267
 20
-2527.0653585854407
 10
-686.37672759688542
 20
-2527.1153100000611
 42
-0.0178362839767813
 10
-686.61667208654512
 20
-2527.2823279263157
 10
-686.62391705754169
 20
-2527.2869964385181
 42
-0.0174650732639818
 10
-686.86025325498781
 20
-2527.4278574034797
 42
-0.0169240130162564
 10
-687.10571950084829
 20
-2527.5521496632587
 10
-687.15170565640278
 20
-2527.5735116188243
 42
-0.0318883036838636
 10
-687.50205651202475
 20
-2527.7098499283352
 10
-687.57042204718584
 20
-2527.7315505488095
 42
-0.0284435909904148
 10
-687.9464721734787
 20
-2527.8277679842845
 10
-687.98163033397441
 20
-2527.8346615801124
 42
-0.0243909341009449
 10
-688.2950737948961
 20
-2527.880382611143
 10
-688.34535452167188
 20
-2527.8852281580453
 42
-0.0196639292927028
 10
-688.56095009919432
 20
-2527.8974764435584
 10
-688.61277417036285
 20
-2527.8983797042952
 42
-0.0100501510690584
 10
-688.72519745202158
 20
-2527.8980793059418
 10
-688.75685731334136
 20
-2527.8973582340568
 42
-0.0019752031122037
 10
-688.80594965004752
 20
-2527.8960460738467
 10
-688.80870995326177
 20
-2527.8959613820207
 42
0.0065378751997306
 10
-688.85228652802493
 20
-2527.8951944908058
 42
-0.0167974694758547
 10
-688.89581735094509
 20
-2527.8935345922805
 10
-688.89989669021838
 20
-2527.8932415813847
 42
-0.0081283276207105
 10
-688.95145648796915
 20
-2527.8886945877452
 10
-688.96319606183556
 20
-2527.8874666701681
 42
-0.0126703440175444
 10
-689.03791435763583
 20
-2527.8777318790958
 10
-689.06070222530639
 20
-2527.8741736231814
 42
-0.0117852088441678
 10
-689.18024121112762
 20
-2527.8526106280265
 10
-689.23562166290162
 20
-2527.8412670877897
 42
-0.0251774592293009
 10
-689.4624657019142
 20
-2527.7827690783552
 10
-689.50718489175949
 20
-2527.7688022590219
 42
-0.0146525199885363
 10
-689.69357787929789
 20
-2527.7045357318234
 42
-0.0166929435861808
 10
-689.87555553541847
 20
-2527.6287285987714
 10
-689.8802121666979
 20
-2527.6266036981547
 42
-0.0191684358433552
 10
-690.06539579794332
 20
-2527.5333676143673
 10
-690.06872838370441
 20
-2527.5315263668117
 42
-0.0221181781816527
 10
-690.25203868760832
 20
-2527.4193928684404
 10
-690.25438849161515
 20
-2527.4178085704502
 42
-0.0254984685386031
 10
-690.43067864200225
 20
-2527.2853974204786
 10
-690.45316078970188
 20
-2527.2666451115442
 42
-0.0292492648799209
 10
-690.57792972854554
 20
-2527.1495523119006
 42
-0.0159048957500639
 10
-690.69176972599701
 20
-2527.0215323203001
 10
-690.69308851657502
 20
-2527.0199507072816
 42
-0.0343813379561114
 10
-690.79572577820124
 20
-2526.8780793815122
 10
-690.82721730956075
 20
-2526.8275759894204
 42
-0.0369117275705374
 10
-690.91310981145966
 20
-2526.6640987484698
 42
-0.0191751379908067
 10
-690.98030319701638
 20
-2526.4916941424631
 10
-690.98206652077556
 20
-2526.4866007977889
 42
-0.0378178042186041
 10
-691.03186123955948
 20
-2526.2976600217071
 10
-691.03785653529053
 20
-2526.2650994035066
 42
-0.0184846046494121
 10
-691.05857373458389
 20
-2526.123346582966
 42
-0.0179866351245443
 10
-691.0689067396587
 20
-2525.9804557698812
 10
-691.06896318210443
 20
-2525.9788980832718
 42
-0.0085497186140557
 10
-691.07039546320652
 20
-2525.9040249182626
 42
-0.0085497186140557
  0
ENDBLK
  5
65
100
AcDbEntity
  8
template
390
0
100
AcDbBlockEnd
  0
BLOCK
  5
66
100
AcDbEntity
  8
notes
390
0
100
AcDbBlockBegin
  2
*D3
 70
               1
 10
0.0
 20
0.0
 30
0.0
  3
*D3
  1

  0
LINE
  5
67
100
AcDbEntity
  8
0
370
              -2
390
0
  6
Continuous
 62
               0
100
AcDbLine
 10
-529.89323158727234
 20
-451.84350068950175
 30
0.0
 11
-700.88896065532504
 21
-451.84350068950175
 31
0.0
  0
LINE
  5
68
100
AcDbEntity
  8
0
370
              -2
390
0
  6
Continuous
 62
               0
100
AcDbLine
 10
-543.39323158727234
 20
-351.82883934021561
 30
0.0
 11
-700.88896065532504
 21
-351.82883934021561
 31
0.0
  0
LINE
  5
69
100
AcDbEntity
  8
0
370
              -2
390
0
  6
Continuous
 62
               0
100
AcDbLine
 10
-700.88896065532504
 20
-451.84350068950175
 30
0.0
 11
-700.88896065532504
 21
-351.82883934021561
 31
0.0
  0
CIRCLE
  5
6A
102
{ACAD_REACTORS
330
6B
102
}
100
AcDbEntity
  8
0
370
              -2
390
0
  6
Continuous
 62
               0
100
AcDbCircle
 10
-700.88896065532504
 20
-451.84350068950175
 30
0.0
 40
1.9998779296875
  0
HATCH
  5
6B
100
AcDbEntity
  8
0
370
              -2
390
0
  6
Continuous
 62
               0
100
AcDbHatch
 10
0.0
 20
0.0
 30
0.0
210
0.0
220
0.0
230
1.0
  2
SOLID
 70
               1
 71
               1
 91
        1
 92
        1
 93
        1
 72
               2
 10
-700.88896065532504
 20
-451.84350068950175
 40
1.9998779296875
 50
0.0
 51
360.0
 73
               0
 97
        1
330
6A
 75
               0
 76
               1
 98
        1
 10
0.0
 20
0.0
  0
CIRCLE
  5
6C
102
{ACAD_REACTORS
330
6D
102
}
100
AcDbEntity
  8
0
370
              -2
390
0
  6
Continuous
 62
               0
100
AcDbCircle
 10
-700.88896065532504
 20
-351.82883934021561
 30
0.0
 40
1.9998779296875
  0
HATCH
  5
6D
100
AcDbEntity
  8
0
370
              -2
390
0
  6
Continuous
 62
               0
100
AcDbHatch
 10
0.0
 20
0.0
 30
0.0
210
0.0
220
0.0
230
1.0
  2
SOLID
 70
               1
 71
               1
 91
        1
 92
        1
 93
        1
 72
               2
 10
-700.88896065532504
 20
-351.82883934021561
 40
1.9998779296875
 50
0.0
 51
360.0
 73
               0
 97
        1
330
6C
 75
               0
 76
               1
 98
        1
 10
0.0
 20
0.0
  0
MTEXT
  5
6E
100
AcDbEntity
  8
0
390
0
 62
               0
100
AcDbMText
 10
-734.7665778428252
 20
-425.64867169703416
 30
0.0
 40
24.432617187500004
 41
0.0
 71
               1
 72
               1
  1
100
  7
ＭＳ ゴシック
 11
0.0
 21
1.0
 31
0.0
 73
               1
 44
0.7828267384257843
  0
POINT
  5
6F
100
AcDbEntity
  8
Defpoints
370
               0
390
0
 62
               0
100
AcDbPoint
 10
-518.39323158727234
 20
-351.82883934021561
 30
0.0
  0
POINT
  5
70
100
AcDbEntity
  8
Defpoints
370
               0
390
0
 62
               0
100
AcDbPoint
 10
-504.89323158727234
 20
-451.84350068950175
 30
0.0
  0
POINT
  5
71
100
AcDbEntity
  8
Defpoints
370
               0
390
0
 62
               0
100
AcDbPoint
 10
-700.88896065532504
 20
-451.84350068950175
 30
0.0
  0
ENDBLK
  5
72
100
AcDbEntity
  8
notes
390
0
100
AcDbBlockEnd
  0
BLOCK
  5
73
100
AcDbEntity
  8
notes
390
0
100
AcDbBlockBegin
  2
*D4
 70
               1
 10
0.0
 20
0.0
 30
0.0
  3
*D4
  1

  0
LINE
  5
74
100
AcDbEntity
  8
0
370
              -2
390
0
  6
Continuous
 62
               0
100
AcDbLine
 10
-543.39323158727234
 20
-351.82883934021561
 30
0.0
 11
-700.88896065532504
 21
-351.82883934021561
 31
0.0
  0
LINE
  5
75
100
AcDbEntity
  8
0
370
              -2
390
0
  6
Continuous
 62
               0
100
AcDbLine
 10
-529.89323158727234
 20
-251.86790531189376
 30
0.0
 11
-700.88896065532504
 21
-251.86790531189376
 31
0.0
  0
LINE
  5
76
100
AcDbEntity
  8
0
370
              -2
390
0
  6
Continuous
 62
               0
100
AcDbLine
 10
-700.88896065532504
 20
-351.82883934021561
 30
0.0
 11
-700.88896065532504
 21
-251.86790531189376
 31
0.0
  0
CIRCLE
  5
77
102
{ACAD_REACTORS
330
78
102
}
100
AcDbEntity
  8
0
370
              -2
390
0
  6
Continuous
 62
               0
100
AcDbCircle
 10
-700.88896065532504
 20
-351.82883934021561
 30
0.0
 40
1.9998779296875
  0
HATCH
  5
78
100
AcDbEntity
  8
0
370
              -2
390
0
  6
Continuous
 62
               0
100
AcDbHatch
 10
0.0
 20
0.0
 30
0.0
210
0.0
220
0.0
230
1.0
  2
SOLID
 70
               1
 71
               1
 91
        1
 92
        1
 93
        1
 72
               2
 10
-700.88896065532504
 20
-351.82883934021561
 40
1.9998779296875
 50
0.0
 51
360.0
 73
               0
 97
        1
330
77
 75
               0
 76
               1
 98
        1
 10
0.0
 20
0.0
  0
CIRCLE
  5
79
102
{ACAD_REACTORS
330
7A
102
}
100
AcDbEntity
  8
0
370
              -2
390
0
  6
Continuous
 62
               0
100
AcDbCircle
 10
-700.88896065532504
 20
-251.86790531189376
 30
0.0
 40
1.9998779296875
  0
HATCH
  5
7A
100
AcDbEntity
  8
0
370
              -2
390
0
  6
Continuous
 62
               0
100
AcDbHatch
 10
0.0
 20
0.0
 30
0.0
210
0.0
220
0.0
230
1.0
  2
SOLID
 70
               1
 71
               1
 91
        1
 92
        1
 93
        1
 72
               2
 10
-700.88896065532504
 20
-251.86790531189376
 40
1.9998779296875
 50
0.0
 51
360.0
 73
               0
 97
        1
330
79
 75
               0
 76
               1
 98
        1
 10
0.0
 20
0.0
  0
MTEXT
  5
7B
100
AcDbEntity
  8
0
390
0
 62
               0
100
AcDbMText
 10
-734.7665778428252
 20
-325.66087400823017
 30
0.0
 40
24.432617187500004
 41
0.0
 71
               1
 72
               1
  1
100
  7
ＭＳ ゴシック
 11
0.0
 21
1.0
 31
0.0
 73
               1
 44
0.7828267384257843
  0
POINT
  5
7C
100
AcDbEntity
  8
Defpoints
370
               0
390
0
 62
               0
100
AcDbPoint
 10
-504.89323158727234
 20
-251.86790531189376
 30
0.0
  0
POINT
  5
7D
100
AcDbEntity
  8
Defpoints
370
               0
390
0
 62
               0
100
AcDbPoint
 10
-518.39323158727234
 20
-351.82883934021561
 30
0.0
  0
POINT
  5
7E
100
AcDbEntity
  8
Defpoints
370
               0
390
0
 62
               0
100
AcDbPoint
 10
-700.88896065532504
 20
-351.82883934021561
 30
0.0
  0
ENDBLK
  5
7F
100
AcDbEntity
  8
notes
390
0
100
AcDbBlockEnd
  0
BLOCK
  5
80
100
AcDbEntity
  8
notes
390
0
100
AcDbBlockBegin
  2
*D5
 70
               1
 10
0.0
 20
0.0
 30
0.0
  3
*D5
  1

  0
LINE
  5
81
100
AcDbEntity
  8
0
370
              -2
390
0
  6
Continuous
 62
               0
100
AcDbLine
 10
-485.89323158727234
 20
-211.86790531189376
 30
0.0
 11
-485.89323158727234
 21
-136.86790531189376
 31
0.0
  0
LINE
  5
82
100
AcDbEntity
  8
0
370
              -2
390
0
  6
Continuous
 62
               0
100
AcDbLine
 10
-600.89323158727234
 20
-211.86790531189376
 30
0.0
 11
-600.89323158727234
 21
-136.86790531189376
 31
0.0
  0
LINE
  5
83
100
AcDbEntity
  8
0
370
              -2
390
0
  6
Continuous
 62
               0
100
AcDbLine
 10
-600.89323158727234
 20
-136.86790531189376
 30
0.0
 11
-657.09241761311864
 21
-136.86790531189376
 31
0.0
  0
LINE
  5
84
100
AcDbEntity
  8
0
370
              -2
390
0
  6
Continuous
 62
               0
100
AcDbLine
 10
-485.89323158727234
 20
-136.86790531189376
 30
0.0
 11
-600.89323158727234
 21
-136.86790531189376
 31
0.0
  0
CIRCLE
  5
85
102
{ACAD_REACTORS
330
86
102
}
100
AcDbEntity
  8
0
370
              -2
390
0
  6
Continuous
 62
               0
100
AcDbCircle
 10
-485.89323158727234
 20
-136.86790531189376
 30
0.0
 40
1.9998779296875
  0
HATCH
  5
86
100
AcDbEntity
  8
0
370
              -2
390
0
  6
Continuous
 62
               0
100
AcDbHatch
 10
0.0
 20
0.0
 30
0.0
210
0.0
220
0.0
230
1.0
  2
SOLID
 70
               1
 71
               1
 91
        1
 92
        1
 93
        1
 72
               2
 10
-485.89323158727234
 20
-136.86790531189376
 40
1.9998779296875
 50
0.0
 51
360.0
 73
               0
 97
        1
330
85
 75
               0
 76
               1
 98
        1
 10
0.0
 20
0.0
  0
CIRCLE
  5
87
102
{ACAD_REACTORS
330
88
102
}
100
AcDbEntity
  8
0
370
              -2
390
0
  6
Continuous
 62
               0
100
AcDbCircle
 10
-600.89323158727234
 20
-136.86790531189376
 30
0.0
 40
1.9998779296875
  0
HATCH
  5
88
100
AcDbEntity
  8
0
370
              -2
390
0
  6
Continuous
 62
               0
100
AcDbHatch
 10
0.0
 20
0.0
 30
0.0
210
0.0
220
0.0
230
1.0
  2
SOLID
 70
               1
 71
               1
 91
        1
 92
        1
 93
        1
 72
               2
 10
-600.89323158727234
 20
-136.86790531189376
 40
1.9998779296875
 50
0.0
 51
360.0
 73
               0
 97
        1
330
87
 75
               0
 76
               1
 98
        1
 10
0.0
 20
0.0
  0
MTEXT
  5
89
100
AcDbEntity
  8
0
390
0
 62
               0
100
AcDbMText
 10
-657.09241761311864
 20
-102.99028812439383
 30
0.0
 40
24.432617187500004
 41
0.0
 71
               1
 72
               1
  1
115
  7
ＭＳ ゴシック
 73
               1
 44
0.7828267384257843
  0
POINT
  5
8A
100
AcDbEntity
  8
Defpoints
370
               0
390
0
 62
               0
100
AcDbPoint
 10
-600.89323158727234
 20
-236.86790531189376
 30
0.0
  0
POINT
  5
8B
100
AcDbEntity
  8
Defpoints
370
               0
390
0
 62
               0
100
AcDbPoint
 10
-485.89323158727234
 20
-236.86790531189376
 30
0.0
  0
POINT
  5
8C
100
AcDbEntity
  8
Defpoints
370
               0
390
0
 62
               0
100
AcDbPoint
 10
-485.89323158727234
 20
-136.86790531189376
 30
0.0
  0
ENDBLK
  5
8D
100
AcDbEntity
  8
notes
390
0
100
AcDbBlockEnd
  0
BLOCK
  5
8E
100
AcDbEntity
  8
notes
390
0
100
AcDbBlockBegin
  2
*D6
 70
               1
 10
0.0
 20
0.0
 30
0.0
  3
*D6
  1

  0
LINE
  5
8F
100
AcDbEntity
  8
0
370
              -2
390
0
  6
Continuous
 62
               0
100
AcDbLine
 10
-587.8889606553264
 20
-801.82883934022379
 30
0.0
 11
-800.88896065532504
 21
-801.82883934022379
 31
0.0
  0
LINE
  5
90
100
AcDbEntity
  8
0
370
              -2
390
0
  6
Continuous
 62
               0
100
AcDbLine
 10
-587.8889606553264
 20
98.171160659777115
 30
0.0
 11
-800.88896065532504
 21
98.171160659777115
 31
0.0
  0
LINE
  5
91
100
AcDbEntity
  8
0
370
              -2
390
0
  6
Continuous
 62
               0
100
AcDbLine
 10
-800.88896065532504
 20
-801.82883934022379
 30
0.0
 11
-800.88896065532504
 21
98.171160659777115
 31
0.0
  0
CIRCLE
  5
92
102
{ACAD_REACTORS
330
93
102
}
100
AcDbEntity
  8
0
370
              -2
390
0
  6
Continuous
 62
               0
100
AcDbCircle
 10
-800.88896065532504
 20
-801.82883934022379
 30
0.0
 40
1.9998779296875
  0
HATCH
  5
93
100
AcDbEntity
  8
0
370
              -2
390
0
  6
Continuous
 62
               0
100
AcDbHatch
 10
0.0
 20
0.0
 30
0.0
210
0.0
220
0.0
230
1.0
  2
SOLID
 70
               1
 71
               1
 91
        1
 92
        1
 93
        1
 72
               2
 10
-800.88896065532504
 20
-801.82883934022379
 40
1.9998779296875
 50
0.0
 51
360.0
 73
               0
 97
        1
330
92
 75
               0
 76
               1
 98
        1
 10
0.0
 20
0.0
  0
CIRCLE
  5
94
102
{ACAD_REACTORS
330
95
102
}
100
AcDbEntity
  8
0
370
              -2
390
0
  6
Continuous
 62
               0
100
AcDbCircle
 10
-800.88896065532504
 20
98.171160659777115
 30
0.0
 40
1.9998779296875
  0
HATCH
  5
95
100
AcDbEntity
  8
0
370
              -2
390
0
  6
Continuous
 62
               0
100
AcDbHatch
 10
0.0
 20
0.0
 30
0.0
210
0.0
220
0.0
230
1.0
  2
SOLID
 70
               1
 71
               1
 91
        1
 92
        1
 93
        1
 72
               2
 10
-800.88896065532504
 20
98.171160659777115
 40
1.9998779296875
 50
0.0
 51
360.0
 73
               0
 97
        1
330
94
 75
               0
 76
               1
 98
        1
 10
0.0
 20
0.0
  0
MTEXT
  5
96
100
AcDbEntity
  8
0
390
0
 62
               0
100
AcDbMText
 10
-834.7665778428252
 20
-375.64134102239882
 30
0.0
 40
24.432617187500004
 41
0.0
 71
               1
 72
               1
  1
900
  7
ＭＳ ゴシック
 11
0.0
 21
1.0
 31
0.0
 73
               1
 44
0.7828267384257843
  0
POINT
  5
97
100
AcDbEntity
  8
Defpoints
370
               0
390
0
 62
               0
100
AcDbPoint
 10
-562.8889606553264
 20
98.171160659777115
 30
0.0
  0
POINT
  5
98
100
AcDbEntity
  8
Defpoints
370
               0
390
0
 62
               0
100
AcDbPoint
 10
-562.8889606553264
 20
-801.82883934022379
 30
0.0
  0
POINT
  5
99
100
AcDbEntity
  8
Defpoints
370
               0
390
0
 62
               0
100
AcDbPoint
 10
-800.88896065532504
 20
-801.82883934022379
 30
0.0
  0
ENDBLK
  5
9A
100
AcDbEntity
  8
notes
390
0
100
AcDbBlockEnd
  0
BLOCK
  5
9B
100
AcDbEntity
  8
notes
390
0
100
AcDbBlockBegin
  2
*D7
 70
               1
 10
0.0
 20
0.0
 30
0.0
  3
*D7
  1

  0
LINE
  5
9C
100
AcDbEntity
  8
0
370
              -2
390
0
  6
Continuous
 62
               0
100
AcDbLine
 10
-622.88896065532094
 20
38.148185459165461
 30
0.0
 11
-750.88896065532549
 21
38.148185459165461
 31
0.0
  0
LINE
  5
9D
100
AcDbEntity
  8
0
370
              -2
390
0
  6
Continuous
 62
               0
100
AcDbLine
 10
-622.8889606553214
 20
-741.80586413961169
 30
0.0
 11
-750.88896065532549
 21
-741.80586413961169
 31
0.0
  0
LINE
  5
9E
100
AcDbEntity
  8
0
370
              -2
390
0
  6
Continuous
 62
               0
100
AcDbLine
 10
-750.88896065532549
 20
38.148185459165461
 30
0.0
 11
-750.88896065532549
 21
-741.80586413961169
 31
0.0
  0
CIRCLE
  5
9F
102
{ACAD_REACTORS
330
A0
102
}
100
AcDbEntity
  8
0
370
              -2
390
0
  6
Continuous
 62
               0
100
AcDbCircle
 10
-750.88896065532549
 20
38.148185459165461
 30
0.0
 40
1.9998779296875
  0
HATCH
  5
A0
100
AcDbEntity
  8
0
370
              -2
390
0
  6
Continuous
 62
               0
100
AcDbHatch
 10
0.0
 20
0.0
 30
0.0
210
0.0
220
0.0
230
1.0
  2
SOLID
 70
               1
 71
               1
 91
        1
 92
        1
 93
        1
 72
               2
 10
-750.88896065532549
 20
38.148185459165461
 40
1.9998779296875
 50
0.0
 51
360.0
 73
               0
 97
        1
330
9F
 75
               0
 76
               1
 98
        1
 10
0.0
 20
0.0
  0
CIRCLE
  5
A1
102
{ACAD_REACTORS
330
A2
102
}
100
AcDbEntity
  8
0
370
              -2
390
0
  6
Continuous
 62
               0
100
AcDbCircle
 10
-750.88896065532549
 20
-741.80586413961169
 30
0.0
 40
1.9998779296875
  0
HATCH
  5
A2
100
AcDbEntity
  8
0
370
              -2
390
0
  6
Continuous
 62
               0
100
AcDbHatch
 10
0.0
 20
0.0
 30
0.0
210
0.0
220
0.0
230
1.0
  2
SOLID
 70
               1
 71
               1
 91
        1
 92
        1
 93
        1
 72
               2
 10
-750.88896065532549
 20
-741.80586413961169
 40
1.9998779296875
 50
0.0
 51
360.0
 73
               0
 97
        1
330
A1
 75
               0
 76
               1
 98
        1
 10
0.0
 20
0.0
  0
MTEXT
  5
A3
100
AcDbEntity
  8
0
390
0
 62
               0
100
AcDbMText
 10
-784.76657784282565
 20
-375.64134102239859
 30
0.0
 40
24.432617187500004
 41
0.0
 71
               1
 72
               1
  1
780
  7
ＭＳ ゴシック
 11
0.0
 21
1.0
 31
0.0
 73
               1
 44
0.7828267384257843
  0
POINT
  5
A4
100
AcDbEntity
  8
Defpoints
370
               0
390
0
 62
               0
100
AcDbPoint
 10
-597.8889606553214
 20
-741.80586413961169
 30
0.0
  0
POINT
  5
A5
100
AcDbEntity
  8
Defpoints
370
               0
390
0
 62
               0
100
AcDbPoint
 10
-597.88896065532094
 20
38.148185459165461
 30
0.0
  0
POINT
  5
A6
100
AcDbEntity
  8
Defpoints
370
               0
390
0
 62
               0
100
AcDbPoint
 10
-750.88896065532549
 20
38.148185459165461
 30
0.0
  0
ENDBLK
  5
A7
100
AcDbEntity
  8
notes
390
0
100
AcDbBlockEnd
  0
BLOCK
  5
A8
100
AcDbEntity
  8
notes
390
0
100
AcDbBlockBegin
  2
*D8
 70
               1
 10
0.0
 20
0.0
 30
0.0
  3
*D8
  1

  0
LINE
  5
A9
100
AcDbEntity
  8
0
370
              -2
390
0
  6
Continuous
 62
               0
100
AcDbLine
 10
493.58461745587829
 20
1180.886025720695
 30
0.0
 11
398.82010637901408
 21
1180.886025720695
 31
0.0
  0
LINE
  5
AA
100
AcDbEntity
  8
0
370
              -2
390
0
  6
Continuous
 62
               0
100
AcDbLine
 10
473.82010637901408
 20
1075.886025720695
 30
0.0
 11
398.82010637901408
 21
1075.886025720695
 31
0.0
  0
LINE
  5
AB
100
AcDbEntity
  8
0
370
              -2
390
0
  6
Continuous
 62
               0
100
AcDbLine
 10
398.82010637901408
 20
1180.886025720695
 30
0.0
 11
398.82010637901408
 21
1075.886025720695
 31
0.0
  0
CIRCLE
  5
AC
102
{ACAD_REACTORS
330
AD
102
}
100
AcDbEntity
  8
0
370
              -2
390
0
  6
Continuous
 62
               0
100
AcDbCircle
 10
398.82010637901408
 20
1180.886025720695
 30
0.0
 40
1.9998779296875
  0
HATCH
  5
AD
100
AcDbEntity
  8
0
370
              -2
390
0
  6
Continuous
 62
               0
100
AcDbHatch
 10
0.0
 20
0.0
 30
0.0
210
0.0
220
0.0
230
1.0
  2
SOLID
 70
               1
 71
               1
 91
        1
 92
        1
 93
        1
 72
               2
 10
398.82010637901408
 20
1180.886025720695
 40
1.9998779296875
 50
0.0
 51
360.0
 73
               0
 97
        1
330
AC
 75
               0
 76
               1
 98
        1
 10
0.0
 20
0.0
  0
CIRCLE
  5
AE
102
{ACAD_REACTORS
330
AF
102
}
100
AcDbEntity
  8
0
370
              -2
390
0
  6
Continuous
 62
               0
100
AcDbCircle
 10
398.82010637901408
 20
1075.886025720695
 30
0.0
 40
1.9998779296875
  0
HATCH
  5
AF
100
AcDbEntity
  8
0
370
              -2
390
0
  6
Continuous
 62
               0
100
AcDbHatch
 10
0.0
 20
0.0
 30
0.0
210
0.0
220
0.0
230
1.0
  2
SOLID
 70
               1
 71
               1
 91
        1
 92
        1
 93
        1
 72
               2
 10
398.82010637901408
 20
1075.886025720695
 40
1.9998779296875
 50
0.0
 51
360.0
 73
               0
 97
        1
330
AE
 75
               0
 76
               1
 98
        1
 10
0.0
 20
0.0
  0
MTEXT
  5
B0
100
AcDbEntity
  8
0
390
0
 62
               0
100
AcDbMText
 10
364.94248919151414
 20
1104.5735240385195
 30
0.0
 40
24.432617187500004
 41
0.0
 71
               1
 72
               1
  1
105
  7
ＭＳ ゴシック
 11
0.0
 21
1.0
 31
0.0
 73
               1
 44
0.7828267384257843
  0
POINT
  5
B1
100
AcDbEntity
  8
Defpoints
370
               0
390
0
 62
               0
100
AcDbPoint
 10
498.82010637901408
 20
1075.886025720695
 30
0.0
  0
POINT
  5
B2
100
AcDbEntity
  8
Defpoints
370
               0
390
0
 62
               0
100
AcDbPoint
 10
518.58461745587829
 20
1180.886025720695
 30
0.0
  0
POINT
  5
B3
100
AcDbEntity
  8
Defpoints
370
               0
390
0
 62
               0
100
AcDbPoint
 10
398.82010637901408
 20
1180.886025720695
 30
0.0
  0
ENDBLK
  5
B4
100
AcDbEntity
  8
notes
390
0
100
AcDbBlockEnd
  0
BLOCK
  5
B5
100
AcDbEntity
  8
notes
390
0
100
AcDbBlockBegin
  2
*D9
 70
               1
 10
0.0
 20
0.0
 30
0.0
  3
*D9
  1

  0
LINE
  5
B6
100
AcDbEntity
  8
0
370
              -2
390
0
  6
Continuous
 62
               0
100
AcDbLine
 10
528.74806592640493
 20
-674.82525226360099
 30
0.0
 11
398.75714559730955
 21
-674.82525226360099
 31
0.0
  0
LINE
  5
B7
100
AcDbEntity
  8
0
370
              -2
390
0
  6
Continuous
 62
               0
100
AcDbLine
 10
528.74806592640493
 20
-491.82525226360099
 30
0.0
 11
398.75714559730955
 21
-491.82525226360099
 31
0.0
  0
LINE
  5
B8
100
AcDbEntity
  8
0
370
              -2
390
0
  6
Continuous
 62
               0
100
AcDbLine
 10
398.75714559730955
 20
-674.82525226360099
 30
0.0
 11
398.75714559730955
 21
-491.82525226360099
 31
0.0
  0
CIRCLE
  5
B9
102
{ACAD_REACTORS
330
BA
102
}
100
AcDbEntity
  8
0
370
              -2
390
0
  6
Continuous
 62
               0
100
AcDbCircle
 10
398.75714559730955
 20
-674.82525226360099
 30
0.0
 40
1.9998779296875
  0
HATCH
  5
BA
100
AcDbEntity
  8
0
370
              -2
390
0
  6
Continuous
 62
               0
100
AcDbHatch
 10
0.0
 20
0.0
 30
0.0
210
0.0
220
0.0
230
1.0
  2
SOLID
 70
               1
 71
               1
 91
        1
 92
        1
 93
        1
 72
               2
 10
398.75714559730955
 20
-674.82525226360099
 40
1.9998779296875
 50
0.0
 51
360.0
 73
               0
 97
        1
330
B9
 75
               0
 76
               1
 98
        1
 10
0.0
 20
0.0
  0
CIRCLE
  5
BB
102
{ACAD_REACTORS
330
BC
102
}
100
AcDbEntity
  8
0
370
              -2
390
0
  6
Continuous
 62
               0
100
AcDbCircle
 10
398.75714559730955
 20
-491.82525226360099
 30
0.0
 40
1.9998779296875
  0
HATCH
  5
BC
100
AcDbEntity
  8
0
370
              -2
390
0
  6
Continuous
 62
               0
100
AcDbHatch
 10
0.0
 20
0.0
 30
0.0
210
0.0
220
0.0
230
1.0
  2
SOLID
 70
               1
 71
               1
 91
        1
 92
        1
 93
        1
 72
               2
 10
398.75714559730955
 20
-491.82525226360099
 40
1.9998779296875
 50
0.0
 51
360.0
 73
               0
 97
        1
330
BB
 75
               0
 76
               1
 98
        1
 10
0.0
 20
0.0
  0
MTEXT
  5
BD
100
AcDbEntity
  8
0
390
0
 62
               0
100
AcDbMText
 10
364.87952840980961
 20
-607.13775394577647
 30
0.0
 40
24.432617187500004
 41
0.0
 71
               1
 72
               1
  1
183
  7
ＭＳ ゴシック
 11
0.0
 21
1.0
 31
0.0
 73
               1
 44
0.7828267384257843
  0
POINT
  5
BE
100
AcDbEntity
  8
Defpoints
370
               0
390
0
 62
               0
100
AcDbPoint
 10
553.74806592640493
 20
-491.82525226360099
 30
0.0
  0
POINT
  5
BF
100
AcDbEntity
  8
Defpoints
370
               0
390
0
 62
               0
100
AcDbPoint
 10
553.74806592640493
 20
-674.82525226360099
 30
0.0
  0
POINT
  5
C0
100
AcDbEntity
  8
Defpoints
370
               0
390
0
 62
               0
100
AcDbPoint
 10
398.75714559730955
 20
-674.82525226360099
 30
0.0
  0
ENDBLK
  5
C1
100
AcDbEntity
  8
notes
390
0
100
AcDbBlockEnd
  0
BLOCK
  5
C2
100
AcDbEntity
  8
notes
390
0
100
AcDbBlockBegin
  2
*D10
 70
               1
 10
0.0
 20
0.0
 30
0.0
  3
*D10
  1

  0
LINE
  5
C3
100
AcDbEntity
  8
0
370
              -2
390
0
  6
Continuous
 62
               0
100
AcDbLine
 10
528.74806592640493
 20
-491.82525226360099
 30
0.0
 11
398.75714559730955
 21
-491.82525226360099
 31
0.0
  0
LINE
  5
C4
100
AcDbEntity
  8
0
370
              -2
390
0
  6
Continuous
 62
               0
100
AcDbLine
 10
528.74806592640493
 20
-211.82525226360099
 30
0.0
 11
398.75714559730955
 21
-211.82525226360099
 31
0.0
  0
LINE
  5
C5
100
AcDbEntity
  8
0
370
              -2
390
0
  6
Continuous
 62
               0
100
AcDbLine
 10
398.75714559730955
 20
-491.82525226360099
 30
0.0
 11
398.75714559730955
 21
-211.82525226360099
 31
0.0
  0
CIRCLE
  5
C6
102
{ACAD_REACTORS
330
C7
102
}
100
AcDbEntity
  8
0
370
              -2
390
0
  6
Continuous
 62
               0
100
AcDbCircle
 10
398.75714559730955
 20
-491.82525226360099
 30
0.0
 40
1.9998779296875
  0
HATCH
  5
C7
100
AcDbEntity
  8
0
370
              -2
390
0
  6
Continuous
 62
               0
100
AcDbHatch
 10
0.0
 20
0.0
 30
0.0
210
0.0
220
0.0
230
1.0
  2
SOLID
 70
               1
 71
               1
 91
        1
 92
        1
 93
        1
 72
               2
 10
398.75714559730955
 20
-491.82525226360099
 40
1.9998779296875
 50
0.0
 51
360.0
 73
               0
 97
        1
330
C6
 75
               0
 76
               1
 98
        1
 10
0.0
 20
0.0
  0
CIRCLE
  5
C8
102
{ACAD_REACTORS
330
C9
102
}
100
AcDbEntity
  8
0
370
              -2
390
0
  6
Continuous
 62
               0
100
AcDbCircle
 10
398.75714559730955
 20
-211.82525226360099
 30
0.0
 40
1.9998779296875
  0
HATCH
  5
C9
100
AcDbEntity
  8
0
370
              -2
390
0
  6
Continuous
 62
               0
100
AcDbHatch
 10
0.0
 20
0.0
 30
0.0
210
0.0
220
0.0
230
1.0
  2
SOLID
 70
               1
 71
               1
 91
        1
 92
        1
 93
        1
 72
               2
 10
398.75714559730955
 20
-211.82525226360099
 40
1.9998779296875
 50
0.0
 51
360.0
 73
               0
 97
        1
330
C8
 75
               0
 76
               1
 98
        1
 10
0.0
 20
0.0
  0
MTEXT
  5
CA
100
AcDbEntity
  8
0
390
0
 62
               0
100
AcDbMText
 10
364.87952840980961
 20
-375.63775394577647
 30
0.0
 40
24.432617187500004
 41
0.0
 71
               1
 72
               1
  1
280
  7
ＭＳ ゴシック
 11
0.0
 21
1.0
 31
0.0
 73
               1
 44
0.7828267384257843
  0
POINT
  5
CB
100
AcDbEntity
  8
Defpoints
370
               0
390
0
 62
               0
100
AcDbPoint
 10
553.74806592640493
 20
-211.82525226360099
 30
0.0
  0
POINT
  5
CC
100
AcDbEntity
  8
Defpoints
370
               0
390
0
 62
               0
100
AcDbPoint
 10
553.74806592640493
 20
-491.82525226360099
 30
0.0
  0
POINT
  5
CD
100
AcDbEntity
  8
Defpoints
370
               0
390
0
 62
               0
100
AcDbPoint
 10
398.75714559730955
 20
-491.82525226360099
 30
0.0
  0
ENDBLK
  5
CE
100
AcDbEntity
  8
notes
390
0
100
AcDbBlockEnd
  0
BLOCK
  5
CF
100
AcDbEntity
  8
notes
390
0
100
AcDbBlockBegin
  2
*D11
 70
               1
 10
0.0
 20
0.0
 30
0.0
  3
*D11
  1

  0
LINE
  5
D0
100
AcDbEntity
  8
0
370
              -2
390
0
  6
Continuous
 62
               0
100
AcDbLine
 10
528.74806592640493
 20
-211.82525226360099
 30
0.0
 11
398.75714559730955
 21
-211.82525226360099
 31
0.0
  0
LINE
  5
D1
100
AcDbEntity
  8
0
370
              -2
390
0
  6
Continuous
 62
               0
100
AcDbLine
 10
528.74806592640493
 20
-28.825252263600987
 30
0.0
 11
398.75714559730955
 21
-28.825252263600987
 31
0.0
  0
LINE
  5
D2
100
AcDbEntity
  8
0
370
              -2
390
0
  6
Continuous
 62
               0
100
AcDbLine
 10
398.75714559730955
 20
-211.82525226360099
 30
0.0
 11
398.75714559730955
 21
-28.825252263600987
 31
0.0
  0
CIRCLE
  5
D3
102
{ACAD_REACTORS
330
D4
102
}
100
AcDbEntity
  8
0
370
              -2
390
0
  6
Continuous
 62
               0
100
AcDbCircle
 10
398.75714559730955
 20
-211.82525226360099
 30
0.0
 40
1.9998779296875
  0
HATCH
  5
D4
100
AcDbEntity
  8
0
370
              -2
390
0
  6
Continuous
 62
               0
100
AcDbHatch
 10
0.0
 20
0.0
 30
0.0
210
0.0
220
0.0
230
1.0
  2
SOLID
 70
               1
 71
               1
 91
        1
 92
        1
 93
        1
 72
               2
 10
398.75714559730955
 20
-211.82525226360099
 40
1.9998779296875
 50
0.0
 51
360.0
 73
               0
 97
        1
330
D3
 75
               0
 76
               1
 98
        1
 10
0.0
 20
0.0
  0
CIRCLE
  5
D5
102
{ACAD_REACTORS
330
D6
102
}
100
AcDbEntity
  8
0
370
              -2
390
0
  6
Continuous
 62
               0
100
AcDbCircle
 10
398.75714559730955
 20
-28.825252263600987
 30
0.0
 40
1.9998779296875
  0
HATCH
  5
D6
100
AcDbEntity
  8
0
370
              -2
390
0
  6
Continuous
 62
               0
100
AcDbHatch
 10
0.0
 20
0.0
 30
0.0
210
0.0
220
0.0
230
1.0
  2
SOLID
 70
               1
 71
               1
 91
        1
 92
        1
 93
        1
 72
               2
 10
398.75714559730955
 20
-28.825252263600987
 40
1.9998779296875
 50
0.0
 51
360.0
 73
               0
 97
        1
330
D5
 75
               0
 76
               1
 98
        1
 10
0.0
 20
0.0
  0
MTEXT
  5
D7
100
AcDbEntity
  8
0
390
0
 62
               0
100
AcDbMText
 10
364.87952840980961
 20
-144.13775394577647
 30
0.0
 40
24.432617187500004
 41
0.0
 71
               1
 72
               1
  1
183
  7
ＭＳ ゴシック
 11
0.0
 21
1.0
 31
0.0
 73
               1
 44
0.7828267384257843
  0
POINT
  5
D8
100
AcDbEntity
  8
Defpoints
370
               0
390
0
 62
               0
100
AcDbPoint
 10
553.74806592640493
 20
-28.825252263600987
 30
0.0
  0
POINT
  5
D9
100
AcDbEntity
  8
Defpoints
370
               0
390
0
 62
               0
100
AcDbPoint
 10
553.74806592640493
 20
-211.82525226360099
 30
0.0
  0
POINT
  5
DA
100
AcDbEntity
  8
Defpoints
370
               0
390
0
 62
               0
100
AcDbPoint
 10
398.75714559730955
 20
-211.82525226360099
 30
0.0
  0
ENDBLK
  5
DB
100
AcDbEntity
  8
notes
390
0
100
AcDbBlockEnd
  0
BLOCK
  5
DC
100
AcDbEntity
  8
notes
390
0
100
AcDbBlockBegin
  2
*D12
 70
               1
 10
0.0
 20
0.0
 30
0.0
  3
*D12
  1

  0
LINE
  5
DD
100
AcDbEntity
  8
0
370
              -2
390
0
  6
Continuous
 62
               0
100
AcDbLine
 10
-43.888960655326628
 20
98.171160659777115
 30
0.0
 11
49.11103934467701
 21
98.171160659777115
 31
0.0
  0
LINE
  5
DE
100
AcDbEntity
  8
0
370
              -2
390
0
  6
Continuous
 62
               0
100
AcDbLine
 10
-25.88896065532299
 20
-76.828839340208788
 30
0.0
 11
49.11103934467701
 21
-76.828839340208788
 31
0.0
  0
LINE
  5
DF
100
AcDbEntity
  8
0
370
              -2
390
0
  6
Continuous
 62
               0
100
AcDbLine
 10
49.11103934467701
 20
98.171160659777115
 30
0.0
 11
49.11103934467701
 21
-76.828839340208788
 31
0.0
  0
CIRCLE
  5
E0
102
{ACAD_REACTORS
330
E1
102
}
100
AcDbEntity
  8
0
370
              -2
390
0
  6
Continuous
 62
               0
100
AcDbCircle
 10
49.11103934467701
 20
98.171160659777115
 30
0.0
 40
1.9998779296875
  0
HATCH
  5
E1
100
AcDbEntity
  8
0
370
              -2
390
0
  6
Continuous
 62
               0
100
AcDbHatch
 10
0.0
 20
0.0
 30
0.0
210
0.0
220
0.0
230
1.0
  2
SOLID
 70
               1
 71
               1
 91
        1
 92
        1
 93
        1
 72
               2
 10
49.11103934467701
 20
98.171160659777115
 40
1.9998779296875
 50
0.0
 51
360.0
 73
               0
 97
        1
330
E0
 75
               0
 76
               1
 98
        1
 10
0.0
 20
0.0
  0
CIRCLE
  5
E2
102
{ACAD_REACTORS
330
E3
102
}
100
AcDbEntity
  8
0
370
              -2
390
0
  6
Continuous
 62
               0
100
AcDbCircle
 10
49.11103934467701
 20
-76.828839340208788
 30
0.0
 40
1.9998779296875
  0
HATCH
  5
E3
100
AcDbEntity
  8
0
370
              -2
390
0
  6
Continuous
 62
               0
100
AcDbHatch
 10
0.0
 20
0.0
 30
0.0
210
0.0
220
0.0
230
1.0
  2
SOLID
 70
               1
 71
               1
 91
        1
 92
        1
 93
        1
 72
               2
 10
49.11103934467701
 20
-76.828839340208788
 40
1.9998779296875
 50
0.0
 51
360.0
 73
               0
 97
        1
330
E2
 75
               0
 76
               1
 98
        1
 10
0.0
 20
0.0
  0
MTEXT
  5
E4
100
AcDbEntity
  8
0
390
0
 62
               0
100
AcDbMText
 10
15.233422157177074
 20
-13.141341022391316
 30
0.0
 40
24.432617187500004
 41
0.0
 71
               1
 72
               1
  1
175
  7
ＭＳ ゴシック
 11
0.0
 21
1.0
 31
0.0
 73
               1
 44
0.7828267384257843
  0
POINT
  5
E5
100
AcDbEntity
  8
Defpoints
370
               0
390
0
 62
               0
100
AcDbPoint
 10
-50.88896065532299
 20
-76.828839340208788
 30
0.0
  0
POINT
  5
E6
100
AcDbEntity
  8
Defpoints
370
               0
390
0
 62
               0
100
AcDbPoint
 10
-68.888960655326628
 20
98.171160659777115
 30
0.0
  0
POINT
  5
E7
100
AcDbEntity
  8
Defpoints
370
               0
390
0
 62
               0
100
AcDbPoint
 10
49.11103934467701
 20
98.171160659777115
 30
0.0
  0
ENDBLK
  5
E8
100
AcDbEntity
  8
notes
390
0
100
AcDbBlockEnd
  0
BLOCK
  5
E9
100
AcDbEntity
  8
notes
390
0
100
AcDbBlockBegin
  2
*D13
 70
               1
 10
0.0
 20
0.0
 30
0.0
  3
*D13
  1

  0
LINE
  5
EA
100
AcDbEntity
  8
0
370
              -2
390
0
  6
Continuous
 62
               0
100
AcDbLine
 10
-25.88896065532299
 20
-76.828839340208788
 30
0.0
 11
49.11103934467701
 21
-76.828839340208788
 31
0.0
  0
LINE
  5
EB
100
AcDbEntity
  8
0
370
              -2
390
0
  6
Continuous
 62
               0
100
AcDbLine
 10
-25.88896065532299
 20
-626.82883934653069
 30
0.0
 11
49.11103934467701
 21
-626.82883934653069
 31
0.0
  0
LINE
  5
EC
100
AcDbEntity
  8
0
370
              -2
390
0
  6
Continuous
 62
               0
100
AcDbLine
 10
49.11103934467701
 20
-76.828839340208788
 30
0.0
 11
49.11103934467701
 21
-626.82883934653069
 31
0.0
  0
CIRCLE
  5
ED
102
{ACAD_REACTORS
330
EE
102
}
100
AcDbEntity
  8
0
370
              -2
390
0
  6
Continuous
 62
               0
100
AcDbCircle
 10
49.11103934467701
 20
-76.828839340208788
 30
0.0
 40
1.9998779296875
  0
HATCH
  5
EE
100
AcDbEntity
  8
0
370
              -2
390
0
  6
Continuous
 62
               0
100
AcDbHatch
 10
0.0
 20
0.0
 30
0.0
210
0.0
220
0.0
230
1.0
  2
SOLID
 70
               1
 71
               1
 91
        1
 92
        1
 93
        1
 72
               2
 10
49.11103934467701
 20
-76.828839340208788
 40
1.9998779296875
 50
0.0
 51
360.0
 73
               0
 97
        1
330
ED
 75
               0
 76
               1
 98
        1
 10
0.0
 20
0.0
  0
CIRCLE
  5
EF
102
{ACAD_REACTORS
330
F0
102
}
100
AcDbEntity
  8
0
370
              -2
390
0
  6
Continuous
 62
               0
100
AcDbCircle
 10
49.11103934467701
 20
-626.82883934653069
 30
0.0
 40
1.9998779296875
  0
HATCH
  5
F0
100
AcDbEntity
  8
0
370
              -2
390
0
  6
Continuous
 62
               0
100
AcDbHatch
 10
0.0
 20
0.0
 30
0.0
210
0.0
220
0.0
230
1.0
  2
SOLID
 70
               1
 71
               1
 91
        1
 92
        1
 93
        1
 72
               2
 10
49.11103934467701
 20
-626.82883934653069
 40
1.9998779296875
 50
0.0
 51
360.0
 73
               0
 97
        1
330
EF
 75
               0
 76
               1
 98
        1
 10
0.0
 20
0.0
  0
MTEXT
  5
F1
100
AcDbEntity
  8
0
390
0
 62
               0
100
AcDbMText
 10
15.233422157177074
 20
-375.64134102554522
 30
0.0
 40
24.432617187500004
 41
0.0
 71
               1
 72
               1
  1
550
  7
ＭＳ ゴシック
 11
0.0
 21
1.0
 31
0.0
 73
               1
 44
0.7828267384257843
  0
POINT
  5
F2
100
AcDbEntity
  8
Defpoints
370
               0
390
0
 62
               0
100
AcDbPoint
 10
-50.88896065532299
 20
-626.82883934653069
 30
0.0
  0
POINT
  5
F3
100
AcDbEntity
  8
Defpoints
370
               0
390
0
 62
               0
100
AcDbPoint
 10
-50.88896065532299
 20
-76.828839340208788
 30
0.0
  0
POINT
  5
F4
100
AcDbEntity
  8
Defpoints
370
               0
390
0
 62
               0
100
AcDbPoint
 10
49.11103934467701
 20
-76.828839340208788
 30
0.0
  0
ENDBLK
  5
F5
100
AcDbEntity
  8
notes
390
0
100
AcDbBlockEnd
  0
BLOCK
  5
F6
100
AcDbEntity
  8
notes
390
0
100
AcDbBlockBegin
  2
*D14
 70
               1
 10
0.0
 20
0.0
 30
0.0
  3
*D14
  1

  0
LINE
  5
F7
100
AcDbEntity
  8
0
370
              -2
390
0
  6
Continuous
 62
               0
100
AcDbLine
 10
528.74806592640493
 20
-674.82525226360099
 30
0.0
 11
398.75714559730955
 21
-674.82525226360099
 31
0.0
  0
LINE
  5
F8
100
AcDbEntity
  8
0
370
              -2
390
0
  6
Continuous
 62
               0
100
AcDbLine
 10
528.74806592640493
 20
-801.82525226360099
 30
0.0
 11
398.75714559730955
 21
-801.82525226360099
 31
0.0
  0
LINE
  5
F9
100
AcDbEntity
  8
0
370
              -2
390
0
  6
Continuous
 62
               0
100
AcDbLine
 10
398.75714559730955
 20
-674.82525226360099
 30
0.0
 11
398.75714559730955
 21
-801.82525226360099
 31
0.0
  0
CIRCLE
  5
FA
102
{ACAD_REACTORS
330
FB
102
}
100
AcDbEntity
  8
0
370
              -2
390
0
  6
Continuous
 62
               0
100
AcDbCircle
 10
398.75714559730955
 20
-674.82525226360099
 30
0.0
 40
1.9998779296875
  0
HATCH
  5
FB
100
AcDbEntity
  8
0
370
              -2
390
0
  6
Continuous
 62
               0
100
AcDbHatch
 10
0.0
 20
0.0
 30
0.0
210
0.0
220
0.0
230
1.0
  2
SOLID
 70
               1
 71
               1
 91
        1
 92
        1
 93
        1
 72
               2
 10
398.75714559730955
 20
-674.82525226360099
 40
1.9998779296875
 50
0.0
 51
360.0
 73
               0
 97
        1
330
FA
 75
               0
 76
               1
 98
        1
 10
0.0
 20
0.0
  0
CIRCLE
  5
FC
102
{ACAD_REACTORS
330
FD
102
}
100
AcDbEntity
  8
0
370
              -2
390
0
  6
Continuous
 62
               0
100
AcDbCircle
 10
398.75714559730955
 20
-801.82525226360099
 30
0.0
 40
1.9998779296875
  0
HATCH
  5
FD
100
AcDbEntity
  8
0
370
              -2
390
0
  6
Continuous
 62
               0
100
AcDbHatch
 10
0.0
 20
0.0
 30
0.0
210
0.0
220
0.0
230
1.0
  2
SOLID
 70
               1
 71
               1
 91
        1
 92
        1
 93
        1
 72
               2
 10
398.75714559730955
 20
-801.82525226360099
 40
1.9998779296875
 50
0.0
 51
360.0
 73
               0
 97
        1
330
FC
 75
               0
 76
               1
 98
        1
 10
0.0
 20
0.0
  0
MTEXT
  5
FE
100
AcDbEntity
  8
0
390
0
 62
               0
100
AcDbMText
 10
364.87952840980961
 20
-762.13775394577647
 30
0.0
 40
24.432617187500004
 41
0.0
 71
               1
 72
               1
  1
127
  7
ＭＳ ゴシック
 11
0.0
 21
1.0
 31
0.0
 73
               1
 44
0.7828267384257843
  0
POINT
  5
FF
100
AcDbEntity
  8
Defpoints
370
               0
390
0
 62
               0
100
AcDbPoint
 10
553.74806592640493
 20
-801.82525226360099
 30
0.0
  0
POINT
  5
100
100
AcDbEntity
  8
Defpoints
370
               0
390
0
 62
               0
100
AcDbPoint
 10
553.74806592640493
 20
-674.82525226360099
 30
0.0
  0
POINT
  5
101
100
AcDbEntity
  8
Defpoints
370
               0
390
0
 62
               0
100
AcDbPoint
 10
398.75714559730955
 20
-674.82525226360099
 30
0.0
  0
ENDBLK
  5
102
100
AcDbEntity
  8
notes
390
0
100
AcDbBlockEnd
  0
BLOCK
  5
103
100
AcDbEntity
  8
notes
390
0
100
AcDbBlockBegin
  2
*D15
 70
               1
 10
0.0
 20
0.0
 30
0.0
  3
*D15
  1

  0
LINE
  5
104
100
AcDbEntity
  8
0
370
              -2
390
0
  6
Continuous
 62
               0
100
AcDbLine
 10
694.6124623130695
 20
1180.886025720273
 30
0.0
 11
778.66127618727751
 21
1180.886025720273
 31
0.0
  0
LINE
  5
105
100
AcDbEntity
  8
0
370
              -2
390
0
  6
Continuous
 62
               0
100
AcDbLine
 10
703.66127618727751
 20
915.71342850311066
 30
0.0
 11
778.66127618727751
 21
915.71342850311066
 31
0.0
  0
LINE
  5
106
100
AcDbEntity
  8
0
370
              -2
390
0
  6
Continuous
 62
               0
100
AcDbLine
 10
778.66127618727751
 20
1180.886025720273
 30
0.0
 11
778.66127618727751
 21
915.71342850311066
 31
0.0
  0
CIRCLE
  5
107
102
{ACAD_REACTORS
330
108
102
}
100
AcDbEntity
  8
0
370
              -2
390
0
  6
Continuous
 62
               0
100
AcDbCircle
 10
778.66127618727751
 20
1180.886025720273
 30
0.0
 40
1.9998779296875
  0
HATCH
  5
108
100
AcDbEntity
  8
0
370
              -2
390
0
  6
Continuous
 62
               0
100
AcDbHatch
 10
0.0
 20
0.0
 30
0.0
210
0.0
220
0.0
230
1.0
  2
SOLID
 70
               1
 71
               1
 91
        1
 92
        1
 93
        1
 72
               2
 10
778.66127618727751
 20
1180.886025720273
 40
1.9998779296875
 50
0.0
 51
360.0
 73
               0
 97
        1
330
107
 75
               0
 76
               1
 98
        1
 10
0.0
 20
0.0
  0
CIRCLE
  5
109
102
{ACAD_REACTORS
330
10A
102
}
100
AcDbEntity
  8
0
370
              -2
390
0
  6
Continuous
 62
               0
100
AcDbCircle
 10
778.66127618727751
 20
915.71342850311066
 30
0.0
 40
1.9998779296875
  0
HATCH
  5
10A
100
AcDbEntity
  8
0
370
              -2
390
0
  6
Continuous
 62
               0
100
AcDbHatch
 10
0.0
 20
0.0
 30
0.0
210
0.0
220
0.0
230
1.0
  2
SOLID
 70
               1
 71
               1
 91
        1
 92
        1
 93
        1
 72
               2
 10
778.66127618727751
 20
915.71342850311066
 40
1.9998779296875
 50
0.0
 51
360.0
 73
               0
 97
        1
330
109
 75
               0
 76
               1
 98
        1
 10
0.0
 20
0.0
  0
MTEXT
  5
10B
100
AcDbEntity
  8
0
390
0
 62
               0
100
AcDbMText
 10
744.78365899977746
 20
1024.4872254295162
 30
0.0
 40
24.432617187500004
 41
0.0
 71
               1
 72
               1
  1
265
  7
ＭＳ ゴシック
 11
0.0
 21
1.0
 31
0.0
 73
               1
 44
0.7828267384257843
  0
POINT
  5
10C
100
AcDbEntity
  8
Defpoints
370
               0
390
0
 62
               0
100
AcDbPoint
 10
678.66127618727751
 20
915.71342850311066
 30
0.0
  0
POINT
  5
10D
100
AcDbEntity
  8
Defpoints
370
               0
390
0
 62
               0
100
AcDbPoint
 10
669.6124623130695
 20
1180.886025720273
 30
0.0
  0
POINT
  5
10E
100
AcDbEntity
  8
Defpoints
370
               0
390
0
 62
               0
100
AcDbPoint
 10
778.66127618727751
 20
1180.886025720273
 30
0.0
  0
ENDBLK
  5
10F
100
AcDbEntity
  8
notes
390
0
100
AcDbBlockEnd
  0
BLOCK
  5
110
100
AcDbEntity
  8
notes
390
0
100
AcDbBlockBegin
  2
*D16
 70
               1
 10
0.0
 20
0.0
 30
0.0
  3
*D16
  1

  0
LINE
  5
111
100
AcDbEntity
  8
0
370
              -2
390
0
  6
Continuous
 62
               0
100
AcDbLine
 10
-600.88896065532549
 20
60.148185459164097
 30
0.0
 11
-600.88896065532549
 21
198.17116065977712
 31
0.0
  0
LINE
  5
112
100
AcDbEntity
  8
0
370
              -2
390
0
  6
Continuous
 62
               0
100
AcDbLine
 10
-50.888960655325491
 20
105.17116065977712
 30
0.0
 11
-50.888960655325491
 21
198.17116065977712
 31
0.0
  0
LINE
  5
113
100
AcDbEntity
  8
0
370
              -2
390
0
  6
Continuous
 62
               0
100
AcDbLine
 10
-600.88896065532549
 20
198.17116065977712
 30
0.0
 11
-50.888960655325491
 21
198.17116065977712
 31
0.0
  0
CIRCLE
  5
114
102
{ACAD_REACTORS
330
115
102
}
100
AcDbEntity
  8
0
370
              -2
390
0
  6
Continuous
 62
               0
100
AcDbCircle
 10
-600.88896065532549
 20
198.17116065977712
 30
0.0
 40
1.9998779296875
  0
HATCH
  5
115
100
AcDbEntity
  8
0
370
              -2
390
0
  6
Continuous
 62
               0
100
AcDbHatch
 10
0.0
 20
0.0
 30
0.0
210
0.0
220
0.0
230
1.0
  2
SOLID
 70
               1
 71
               1
 91
        1
 92
        1
 93
        1
 72
               2
 10
-600.88896065532549
 20
198.17116065977712
 40
1.9998779296875
 50
0.0
 51
360.0
 73
               0
 97
        1
330
114
 75
               0
 76
               1
 98
        1
 10
0.0
 20
0.0
  0
CIRCLE
  5
116
102
{ACAD_REACTORS
330
117
102
}
100
AcDbEntity
  8
0
370
              -2
390
0
  6
Continuous
 62
               0
100
AcDbCircle
 10
-50.888960655325491
 20
198.17116065977712
 30
0.0
 40
1.9998779296875
  0
HATCH
  5
117
100
AcDbEntity
  8
0
370
              -2
390
0
  6
Continuous
 62
               0
100
AcDbHatch
 10
0.0
 20
0.0
 30
0.0
210
0.0
220
0.0
230
1.0
  2
SOLID
 70
               1
 71
               1
 91
        1
 92
        1
 93
        1
 72
               2
 10
-50.888960655325491
 20
198.17116065977712
 40
1.9998779296875
 50
0.0
 51
360.0
 73
               0
 97
        1
330
116
 75
               0
 76
               1
 98
        1
 10
0.0
 20
0.0
  0
MTEXT
  5
118
100
AcDbEntity
  8
0
390
0
 62
               0
100
AcDbMText
 10
-349.70146233750097
 20
232.04877784727717
 30
0.0
 40
24.432617187500004
 41
0.0
 71
               1
 72
               1
  1
550
  7
ＭＳ ゴシック
 73
               1
 44
0.7828267384257843
  0
POINT
  5
119
100
AcDbEntity
  8
Defpoints
370
               0
390
0
 62
               0
100
AcDbPoint
 10
-50.888960655325491
 20
80.171160659777115
 30
0.0
  0
POINT
  5
11A
100
AcDbEntity
  8
Defpoints
370
               0
390
0
 62
               0
100
AcDbPoint
 10
-600.88896065532549
 20
35.148185459164097
 30
0.0
  0
POINT
  5
11B
100
AcDbEntity
  8
Defpoints
370
               0
390
0
 62
               0
100
AcDbPoint
 10
-600.88896065532549
 20
198.17116065977712
 30
0.0
  0
ENDBLK
  5
11C
100
AcDbEntity
  8
notes
390
0
100
AcDbBlockEnd
  0
BLOCK
  5
11D
100
AcDbEntity
  8
notes
390
0
100
AcDbBlockBegin
  2
*D17
 70
               1
 10
0.0
 20
0.0
 30
0.0
  3
*D17
  1

  0
LINE
  5
11E
100
AcDbEntity
  8
0
370
              -2
390
0
  6
Continuous
 62
               0
100
AcDbLine
 10
498.82010637901408
 20
615.79527268760819
 30
0.0
 11
498.82010637901408
 21
530.61333440361807
 31
0.0
  0
LINE
  5
11F
100
AcDbEntity
  8
0
370
              -2
390
0
  6
Continuous
 62
               0
100
AcDbLine
 10
573.74459193706844
 20
610.61333440361784
 30
0.0
 11
573.74459193706844
 21
530.61333440361807
 31
0.0
  0
LINE
  5
120
100
AcDbEntity
  8
0
370
              -2
390
0
  6
Continuous
 62
               0
100
AcDbLine
 10
498.82010637901408
 20
530.61333440361807
 30
0.0
 11
573.74459193706844
 21
530.61333440361807
 31
0.0
  0
CIRCLE
  5
121
102
{ACAD_REACTORS
330
122
102
}
100
AcDbEntity
  8
0
370
              -2
390
0
  6
Continuous
 62
               0
100
AcDbCircle
 10
498.82010637901408
 20
530.61333440361807
 30
0.0
 40
1.9998779296875
  0
HATCH
  5
122
100
AcDbEntity
  8
0
370
              -2
390
0
  6
Continuous
 62
               0
100
AcDbHatch
 10
0.0
 20
0.0
 30
0.0
210
0.0
220
0.0
230
1.0
  2
SOLID
 70
               1
 71
               1
 91
        1
 92
        1
 93
        1
 72
               2
 10
498.82010637901408
 20
530.61333440361807
 40
1.9998779296875
 50
0.0
 51
360.0
 73
               0
 97
        1
330
121
 75
               0
 76
               1
 98
        1
 10
0.0
 20
0.0
  0
CIRCLE
  5
123
102
{ACAD_REACTORS
330
124
102
}
100
AcDbEntity
  8
0
370
              -2
390
0
  6
Continuous
 62
               0
100
AcDbCircle
 10
573.74459193706844
 20
530.61333440361807
 30
0.0
 40
1.9998779296875
  0
HATCH
  5
124
100
AcDbEntity
  8
0
370
              -2
390
0
  6
Continuous
 62
               0
100
AcDbHatch
 10
0.0
 20
0.0
 30
0.0
210
0.0
220
0.0
230
1.0
  2
SOLID
 70
               1
 71
               1
 91
        1
 92
        1
 93
        1
 72
               2
 10
573.74459193706844
 20
530.61333440361807
 40
1.9998779296875
 50
0.0
 51
360.0
 73
               0
 97
        1
330
123
 75
               0
 76
               1
 98
        1
 10
0.0
 20
0.0
  0
MTEXT
  5
125
100
AcDbEntity
  8
0
390
0
 62
               0
100
AcDbMText
 10
520.40734915804137
 20
564.49095159111812
 30
0.0
 40
24.432617187500004
 41
0.0
 71
               1
 72
               1
  1
75
  7
ＭＳ ゴシック
 73
               1
 44
0.7828267384257843
  0
POINT
  5
126
100
AcDbEntity
  8
Defpoints
370
               0
390
0
 62
               0
100
AcDbPoint
 10
573.74459193706844
 20
635.61333440361784
 30
0.0
  0
POINT
  5
127
100
AcDbEntity
  8
Defpoints
370
               0
390
0
 62
               0
100
AcDbPoint
 10
498.82010637901408
 20
640.79527268760819
 30
0.0
  0
POINT
  5
128
100
AcDbEntity
  8
Defpoints
370
               0
390
0
 62
               0
100
AcDbPoint
 10
498.82010637901408
 20
530.61333440361807
 30
0.0
  0
ENDBLK
  5
129
100
AcDbEntity
  8
notes
390
0
100
AcDbBlockEnd
  0
BLOCK
  5
12A
100
AcDbEntity
  8
notes
390
0
100
AcDbBlockBegin
  2
*D18
 70
               1
 10
0.0
 20
0.0
 30
0.0
  3
*D18
  1

  0
LINE
  5
12B
100
AcDbEntity
  8
0
370
              -2
390
0
  6
Continuous
 62
               0
100
AcDbLine
 10
573.74459193706844
 20
610.61333440361784
 30
0.0
 11
573.74459193706844
 21
530.61333440361807
 31
0.0
  0
LINE
  5
12C
100
AcDbEntity
  8
0
370
              -2
390
0
  6
Continuous
 62
               0
100
AcDbLine
 10
633.66127618728092
 20
668.83688530037421
 30
0.0
 11
633.66127618728092
 21
530.61333440361807
 31
0.0
  0
LINE
  5
12D
100
AcDbEntity
  8
0
370
              -2
390
0
  6
Continuous
 62
               0
100
AcDbLine
 10
573.74459193706844
 20
530.61333440361807
 30
0.0
 11
633.66127618728092
 21
530.61333440361807
 31
0.0
  0
CIRCLE
  5
12E
102
{ACAD_REACTORS
330
12F
102
}
100
AcDbEntity
  8
0
370
              -2
390
0
  6
Continuous
 62
               0
100
AcDbCircle
 10
573.74459193706844
 20
530.61333440361807
 30
0.0
 40
1.9998779296875
  0
HATCH
  5
12F
100
AcDbEntity
  8
0
370
              -2
390
0
  6
Continuous
 62
               0
100
AcDbHatch
 10
0.0
 20
0.0
 30
0.0
210
0.0
220
0.0
230
1.0
  2
SOLID
 70
               1
 71
               1
 91
        1
 92
        1
 93
        1
 72
               2
 10
573.74459193706844
 20
530.61333440361807
 40
1.9998779296875
 50
0.0
 51
360.0
 73
               0
 97
        1
330
12E
 75
               0
 76
               1
 98
        1
 10
0.0
 20
0.0
  0
CIRCLE
  5
130
102
{ACAD_REACTORS
330
131
102
}
100
AcDbEntity
  8
0
370
              -2
390
0
  6
Continuous
 62
               0
100
AcDbCircle
 10
633.66127618728092
 20
530.61333440361807
 30
0.0
 40
1.9998779296875
  0
HATCH
  5
131
100
AcDbEntity
  8
0
370
              -2
390
0
  6
Continuous
 62
               0
100
AcDbHatch
 10
0.0
 20
0.0
 30
0.0
210
0.0
220
0.0
230
1.0
  2
SOLID
 70
               1
 71
               1
 91
        1
 92
        1
 93
        1
 72
               2
 10
633.66127618728092
 20
530.61333440361807
 40
1.9998779296875
 50
0.0
 51
360.0
 73
               0
 97
        1
330
130
 75
               0
 76
               1
 98
        1
 10
0.0
 20
0.0
  0
MTEXT
  5
132
100
AcDbEntity
  8
0
390
0
 62
               0
100
AcDbMText
 10
587.82793406217468
 20
564.49095159111812
 30
0.0
 40
24.432617187500004
 41
0.0
 71
               1
 72
               1
  1
60
  7
ＭＳ ゴシック
 73
               1
 44
0.7828267384257843
  0
POINT
  5
133
100
AcDbEntity
  8
Defpoints
370
               0
390
0
 62
               0
100
AcDbPoint
 10
633.66127618728092
 20
693.83688530037421
 30
0.0
  0
POINT
  5
134
100
AcDbEntity
  8
Defpoints
370
               0
390
0
 62
               0
100
AcDbPoint
 10
573.74459193706844
 20
635.61333440361784
 30
0.0
  0
POINT
  5
135
100
AcDbEntity
  8
Defpoints
370
               0
390
0
 62
               0
100
AcDbPoint
 10
573.74459193706844
 20
530.61333440361807
 30
0.0
  0
ENDBLK
  5
136
100
AcDbEntity
  8
notes
390
0
100
AcDbBlockEnd
  0
BLOCK
  5
137
100
AcDbEntity
  8
notes
390
0
100
AcDbBlockBegin
  2
*D19
 70
               1
 10
0.0
 20
0.0
 30
0.0
  3
*D19
  1

  0
LINE
  5
138
100
AcDbEntity
  8
0
370
              -2
390
0
  6
Continuous
 62
               0
100
AcDbLine
 10
633.66127618728092
 20
668.83688530037421
 30
0.0
 11
633.66127618728092
 21
530.6133344036175
 31
0.0
  0
LINE
  5
139
100
AcDbEntity
  8
0
370
              -2
390
0
  6
Continuous
 62
               0
100
AcDbLine
 10
678.66127618727751
 20
853.88549928411896
 30
0.0
 11
678.66127618727751
 21
530.6133344036175
 31
0.0
  0
LINE
  5
13A
100
AcDbEntity
  8
0
370
              -2
390
0
  6
Continuous
 62
               0
100
AcDbLine
 10
633.66127618728092
 20
530.6133344036175
 30
0.0
 11
678.66127618727751
 21
530.6133344036175
 31
0.0
  0
CIRCLE
  5
13B
102
{ACAD_REACTORS
330
13C
102
}
100
AcDbEntity
  8
0
370
              -2
390
0
  6
Continuous
 62
               0
100
AcDbCircle
 10
633.66127618728092
 20
530.6133344036175
 30
0.0
 40
1.9998779296875
  0
HATCH
  5
13C
100
AcDbEntity
  8
0
370
              -2
390
0
  6
Continuous
 62
               0
100
AcDbHatch
 10
0.0
 20
0.0
 30
0.0
210
0.0
220
0.0
230
1.0
  2
SOLID
 70
               1
 71
               1
 91
        1
 92
        1
 93
        1
 72
               2
 10
633.66127618728092
 20
530.6133344036175
 40
1.9998779296875
 50
0.0
 51
360.0
 73
               0
 97
        1
330
13B
 75
               0
 76
               1
 98
        1
 10
0.0
 20
0.0
  0
CIRCLE
  5
13D
102
{ACAD_REACTORS
330
13E
102
}
100
AcDbEntity
  8
0
370
              -2
390
0
  6
Continuous
 62
               0
100
AcDbCircle
 10
678.66127618727751
 20
530.6133344036175
 30
0.0
 40
1.9998779296875
  0
HATCH
  5
13E
100
AcDbEntity
  8
0
370
              -2
390
0
  6
Continuous
 62
               0
100
AcDbHatch
 10
0.0
 20
0.0
 30
0.0
210
0.0
220
0.0
230
1.0
  2
SOLID
 70
               1
 71
               1
 91
        1
 92
        1
 93
        1
 72
               2
 10
678.66127618727751
 20
530.6133344036175
 40
1.9998779296875
 50
0.0
 51
360.0
 73
               0
 97
        1
330
13D
 75
               0
 76
               1
 98
        1
 10
0.0
 20
0.0
  0
MTEXT
  5
13F
100
AcDbEntity
  8
0
390
0
 62
               0
100
AcDbMText
 10
640.28627618727921
 20
564.49095159111755
 30
0.0
 40
24.432617187500004
 41
0.0
 71
               1
 72
               1
  1
45
  7
ＭＳ ゴシック
 73
               1
 44
0.7828267384257843
  0
POINT
  5
140
100
AcDbEntity
  8
Defpoints
370
               0
390
0
 62
               0
100
AcDbPoint
 10
678.66127618727751
 20
878.88549928411896
 30
0.0
  0
POINT
  5
141
100
AcDbEntity
  8
Defpoints
370
               0
390
0
 62
               0
100
AcDbPoint
 10
633.66127618728092
 20
693.83688530037421
 30
0.0
  0
POINT
  5
142
100
AcDbEntity
  8
Defpoints
370
               0
390
0
 62
               0
100
AcDbPoint
 10
633.66127618728092
 20
530.6133344036175
 30
0.0
  0
ENDBLK
  5
143
100
AcDbEntity
  8
notes
390
0
100
AcDbBlockEnd
  0
BLOCK
  5
144
100
AcDbEntity
  8
notes
390
0
100
AcDbBlockBegin
  2
*D20
 70
               1
 10
0.0
 20
0.0
 30
0.0
  3
*D20
  1

  0
LINE
  5
145
100
AcDbEntity
  8
0
370
              -2
390
0
  6
Continuous
 62
               0
100
AcDbLine
 10
498.83489159177702
 20
113.01229705033734
 30
0.0
 11
498.83489159177702
 21
198.16865415000484
 31
0.0
  0
LINE
  5
146
100
AcDbEntity
  8
0
370
              -2
390
0
  6
Continuous
 62
               0
100
AcDbLine
 10
678.82152452038952
 20
-295.79731234103269
 30
0.0
 11
678.82152452038952
 21
198.16865415000484
 31
0.0
  0
LINE
  5
147
100
AcDbEntity
  8
0
370
              -2
390
0
  6
Continuous
 62
               0
100
AcDbLine
 10
498.83489159177702
 20
198.16865415000484
 30
0.0
 11
678.82152452038952
 21
198.16865415000484
 31
0.0
  0
CIRCLE
  5
148
102
{ACAD_REACTORS
330
149
102
}
100
AcDbEntity
  8
0
370
              -2
390
0
  6
Continuous
 62
               0
100
AcDbCircle
 10
498.83489159177702
 20
198.16865415000484
 30
0.0
 40
1.9998779296875
  0
HATCH
  5
149
100
AcDbEntity
  8
0
370
              -2
390
0
  6
Continuous
 62
               0
100
AcDbHatch
 10
0.0
 20
0.0
 30
0.0
210
0.0
220
0.0
230
1.0
  2
SOLID
 70
               1
 71
               1
 91
        1
 92
        1
 93
        1
 72
               2
 10
498.83489159177702
 20
198.16865415000484
 40
1.9998779296875
 50
0.0
 51
360.0
 73
               0
 97
        1
330
148
 75
               0
 76
               1
 98
        1
 10
0.0
 20
0.0
  0
CIRCLE
  5
14A
102
{ACAD_REACTORS
330
14B
102
}
100
AcDbEntity
  8
0
370
              -2
390
0
  6
Continuous
 62
               0
100
AcDbCircle
 10
678.82152452038952
 20
198.16865415000484
 30
0.0
 40
1.9998779296875
  0
HATCH
  5
14B
100
AcDbEntity
  8
0
370
              -2
390
0
  6
Continuous
 62
               0
100
AcDbHatch
 10
0.0
 20
0.0
 30
0.0
210
0.0
220
0.0
230
1.0
  2
SOLID
 70
               1
 71
               1
 91
        1
 92
        1
 93
        1
 72
               2
 10
678.82152452038952
 20
198.16865415000484
 40
1.9998779296875
 50
0.0
 51
360.0
 73
               0
 97
        1
330
14A
 75
               0
 76
               1
 98
        1
 10
0.0
 20
0.0
  0
MTEXT
  5
14C
100
AcDbEntity
  8
0
390
0
 62
               0
100
AcDbMText
 10
565.01570637390773
 20
232.04627133750489
 30
0.0
 40
24.432617187500004
 41
0.0
 71
               1
 72
               1
  1
180
  7
ＭＳ ゴシック
 73
               1
 44
0.7828267384257843
  0
POINT
  5
14D
100
AcDbEntity
  8
Defpoints
370
               0
390
0
 62
               0
100
AcDbPoint
 10
678.82152452038952
 20
-320.79731234103269
 30
0.0
  0
POINT
  5
14E
100
AcDbEntity
  8
Defpoints
370
               0
390
0
 62
               0
100
AcDbPoint
 10
498.83489159177702
 20
88.012297050337338
 30
0.0
  0
POINT
  5
14F
100
AcDbEntity
  8
Defpoints
370
               0
390
0
 62
               0
100
AcDbPoint
 10
498.83489159177702
 20
198.16865415000484
 30
0.0
  0
ENDBLK
  5
150
100
AcDbEntity
  8
notes
390
0
100
AcDbBlockEnd
  0
BLOCK
  5
151
100
AcDbEntity
  8
notes
390
0
100
AcDbBlockBegin
  2
*D21
 70
               1
 10
0.0
 20
0.0
 30
0.0
  3
*D21
  1

  0
LINE
  5
152
100
AcDbEntity
  8
0
370
              -2
390
0
  6
Continuous
 62
               0
100
AcDbLine
 10
573.74806592640459
 20
-745.46790531189367
 30
0.0
 11
573.74806592640459
 21
-901.81915867720659
 31
0.0
  0
LINE
  5
153
100
AcDbEntity
  8
0
370
              -2
390
0
  6
Continuous
 62
               0
100
AcDbLine
 10
498.74806592640539
 20
-813.86790531189376
 30
0.0
 11
498.74806592640539
 21
-901.81915867720659
 31
0.0
  0
LINE
  5
154
100
AcDbEntity
  8
0
370
              -2
390
0
  6
Continuous
 62
               0
100
AcDbLine
 10
573.74806592640459
 20
-901.81915867720659
 30
0.0
 11
498.74806592640539
 21
-901.81915867720659
 31
0.0
  0
CIRCLE
  5
155
102
{ACAD_REACTORS
330
156
102
}
100
AcDbEntity
  8
0
370
              -2
390
0
  6
Continuous
 62
               0
100
AcDbCircle
 10
573.74806592640459
 20
-901.81915867720659
 30
0.0
 40
1.9998779296875
  0
HATCH
  5
156
100
AcDbEntity
  8
0
370
              -2
390
0
  6
Continuous
 62
               0
100
AcDbHatch
 10
0.0
 20
0.0
 30
0.0
210
0.0
220
0.0
230
1.0
  2
SOLID
 70
               1
 71
               1
 91
        1
 92
        1
 93
        1
 72
               2
 10
573.74806592640459
 20
-901.81915867720659
 40
1.9998779296875
 50
0.0
 51
360.0
 73
               0
 97
        1
330
155
 75
               0
 76
               1
 98
        1
 10
0.0
 20
0.0
  0
CIRCLE
  5
157
102
{ACAD_REACTORS
330
158
102
}
100
AcDbEntity
  8
0
370
              -2
390
0
  6
Continuous
 62
               0
100
AcDbCircle
 10
498.74806592640539
 20
-901.81915867720659
 30
0.0
 40
1.9998779296875
  0
HATCH
  5
158
100
AcDbEntity
  8
0
370
              -2
390
0
  6
Continuous
 62
               0
100
AcDbHatch
 10
0.0
 20
0.0
 30
0.0
210
0.0
220
0.0
230
1.0
  2
SOLID
 70
               1
 71
               1
 91
        1
 92
        1
 93
        1
 72
               2
 10
498.74806592640539
 20
-901.81915867720659
 40
1.9998779296875
 50
0.0
 51
360.0
 73
               0
 97
        1
330
157
 75
               0
 76
               1
 98
        1
 10
0.0
 20
0.0
  0
MTEXT
  5
159
100
AcDbEntity
  8
0
390
0
 62
               0
100
AcDbMText
 10
520.37306592640493
 20
-867.94154148970665
 30
0.0
 40
24.432617187500004
 41
0.0
 71
               1
 72
               1
  1
75
  7
ＭＳ ゴシック
 73
               1
 44
0.7828267384257843
  0
POINT
  5
15A
100
AcDbEntity
  8
Defpoints
370
               0
390
0
 62
               0
100
AcDbPoint
 10
498.74806592640539
 20
-788.86790531189376
 30
0.0
  0
POINT
  5
15B
100
AcDbEntity
  8
Defpoints
370
               0
390
0
 62
               0
100
AcDbPoint
 10
573.74806592640459
 20
-720.46790531189367
 30
0.0
  0
POINT
  5
15C
100
AcDbEntity
  8
Defpoints
370
               0
390
0
 62
               0
100
AcDbPoint
 10
573.74806592640459
 20
-901.81915867720659
 30
0.0
  0
ENDBLK
  5
15D
100
AcDbEntity
  8
notes
390
0
100
AcDbBlockEnd
  0
BLOCK
  5
15E
100
AcDbEntity
  8
notes
390
0
100
AcDbBlockBegin
  2
*D22
 70
               1
 10
0.0
 20
0.0
 30
0.0
  3
*D22
  1

  0
LINE
  5
15F
100
AcDbEntity
  8
0
370
              -2
390
0
  6
Continuous
 62
               0
100
AcDbLine
 10
-600.88896065532549
 20
-763.80586413961169
 30
0.0
 11
-600.88896065532549
 21
-901.82883934022379
 31
0.0
  0
LINE
  5
160
100
AcDbEntity
  8
0
370
              -2
390
0
  6
Continuous
 62
               0
100
AcDbLine
 10
-440.86421653433536
 20
-826.82883934022379
 30
0.0
 11
-440.86421653433536
 21
-901.82883934022379
 31
0.0
  0
LINE
  5
161
100
AcDbEntity
  8
0
370
              -2
390
0
  6
Continuous
 62
               0
100
AcDbLine
 10
-600.88896065532549
 20
-901.82883934022379
 30
0.0
 11
-440.86421653433536
 21
-901.82883934022379
 31
0.0
  0
CIRCLE
  5
162
102
{ACAD_REACTORS
330
163
102
}
100
AcDbEntity
  8
0
370
              -2
390
0
  6
Continuous
 62
               0
100
AcDbCircle
 10
-600.88896065532549
 20
-901.82883934022379
 30
0.0
 40
1.9998779296875
  0
HATCH
  5
163
100
AcDbEntity
  8
0
370
              -2
390
0
  6
Continuous
 62
               0
100
AcDbHatch
 10
0.0
 20
0.0
 30
0.0
210
0.0
220
0.0
230
1.0
  2
SOLID
 70
               1
 71
               1
 91
        1
 92
        1
 93
        1
 72
               2
 10
-600.88896065532549
 20
-901.82883934022379
 40
1.9998779296875
 50
0.0
 51
360.0
 73
               0
 97
        1
330
162
 75
               0
 76
               1
 98
        1
 10
0.0
 20
0.0
  0
CIRCLE
  5
164
102
{ACAD_REACTORS
330
165
102
}
100
AcDbEntity
  8
0
370
              -2
390
0
  6
Continuous
 62
               0
100
AcDbCircle
 10
-440.86421653433536
 20
-901.82883934022379
 30
0.0
 40
1.9998779296875
  0
HATCH
  5
165
100
AcDbEntity
  8
0
370
              -2
390
0
  6
Continuous
 62
               0
100
AcDbHatch
 10
0.0
 20
0.0
 30
0.0
210
0.0
220
0.0
230
1.0
  2
SOLID
 70
               1
 71
               1
 91
        1
 92
        1
 93
        1
 72
               2
 10
-440.86421653433536
 20
-901.82883934022379
 40
1.9998779296875
 50
0.0
 51
360.0
 73
               0
 97
        1
330
164
 75
               0
 76
               1
 98
        1
 10
0.0
 20
0.0
  0
MTEXT
  5
166
100
AcDbEntity
  8
0
390
0
 62
               0
100
AcDbMText
 10
-544.68909027700579
 20
-867.95122215272386
 30
0.0
 40
24.432617187500004
 41
0.0
 71
               1
 72
               1
  1
160
  7
ＭＳ ゴシック
 73
               1
 44
0.7828267384257843
  0
POINT
  5
167
100
AcDbEntity
  8
Defpoints
370
               0
390
0
 62
               0
100
AcDbPoint
 10
-440.86421653433536
 20
-801.82883934022379
 30
0.0
  0
POINT
  5
168
100
AcDbEntity
  8
Defpoints
370
               0
390
0
 62
               0
100
AcDbPoint
 10
-600.88896065532549
 20
-738.80586413961169
 30
0.0
  0
POINT
  5
169
100
AcDbEntity
  8
Defpoints
370
               0
390
0
 62
               0
100
AcDbPoint
 10
-600.88896065532549
 20
-901.82883934022379
 30
0.0
  0
ENDBLK
  5
16A
100
AcDbEntity
  8
notes
390
0
100
AcDbBlockEnd
  0
BLOCK
  5
16B
100
AcDbEntity
  8
notes
390
0
100
AcDbBlockBegin
  2
*D23
 70
               1
 10
0.0
 20
0.0
 30
0.0
  3
*D23
  1

  0
LINE
  5
16C
100
AcDbEntity
  8
0
370
              -2
390
0
  6
Continuous
 62
               0
100
AcDbLine
 10
-440.86421653433536
 20
-826.82883934022379
 30
0.0
 11
-440.86421653433536
 21
-901.82883934022379
 31
0.0
  0
LINE
  5
16D
100
AcDbEntity
  8
0
370
              -2
390
0
  6
Continuous
 62
               0
100
AcDbLine
 10
-125.87266255794225
 20
-826.82883934022379
 30
0.0
 11
-125.87266255794225
 21
-901.82883934022379
 31
0.0
  0
LINE
  5
16E
100
AcDbEntity
  8
0
370
              -2
390
0
  6
Continuous
 62
               0
100
AcDbLine
 10
-440.86421653433536
 20
-901.82883934022379
 30
0.0
 11
-125.87266255794225
 21
-901.82883934022379
 31
0.0
  0
CIRCLE
  5
16F
102
{ACAD_REACTORS
330
170
102
}
100
AcDbEntity
  8
0
370
              -2
390
0
  6
Continuous
 62
               0
100
AcDbCircle
 10
-440.86421653433536
 20
-901.82883934022379
 30
0.0
 40
1.9998779296875
  0
HATCH
  5
170
100
AcDbEntity
  8
0
370
              -2
390
0
  6
Continuous
 62
               0
100
AcDbHatch
 10
0.0
 20
0.0
 30
0.0
210
0.0
220
0.0
230
1.0
  2
SOLID
 70
               1
 71
               1
 91
        1
 92
        1
 93
        1
 72
               2
 10
-440.86421653433536
 20
-901.82883934022379
 40
1.9998779296875
 50
0.0
 51
360.0
 73
               0
 97
        1
330
16F
 75
               0
 76
               1
 98
        1
 10
0.0
 20
0.0
  0
CIRCLE
  5
171
102
{ACAD_REACTORS
330
172
102
}
100
AcDbEntity
  8
0
370
              -2
390
0
  6
Continuous
 62
               0
100
AcDbCircle
 10
-125.87266255794225
 20
-901.82883934022379
 30
0.0
 40
1.9998779296875
  0
HATCH
  5
172
100
AcDbEntity
  8
0
370
              -2
390
0
  6
Continuous
 62
               0
100
AcDbHatch
 10
0.0
 20
0.0
 30
0.0
210
0.0
220
0.0
230
1.0
  2
SOLID
 70
               1
 71
               1
 91
        1
 92
        1
 93
        1
 72
               2
 10
-125.87266255794225
 20
-901.82883934022379
 40
1.9998779296875
 50
0.0
 51
360.0
 73
               0
 97
        1
330
171
 75
               0
 76
               1
 98
        1
 10
0.0
 20
0.0
  0
MTEXT
  5
173
100
AcDbEntity
  8
0
390
0
 62
               0
100
AcDbMText
 10
-307.1809412283144
 20
-867.95122215272386
 30
0.0
 40
24.432617187500004
 41
0.0
 71
               1
 72
               1
  1
315
  7
ＭＳ ゴシック
 73
               1
 44
0.7828267384257843
  0
POINT
  5
174
100
AcDbEntity
  8
Defpoints
370
               0
390
0
 62
               0
100
AcDbPoint
 10
-125.87266255794225
 20
-801.82883934022379
 30
0.0
  0
POINT
  5
175
100
AcDbEntity
  8
Defpoints
370
               0
390
0
 62
               0
100
AcDbPoint
 10
-440.86421653433536
 20
-801.82883934022379
 30
0.0
  0
POINT
  5
176
100
AcDbEntity
  8
Defpoints
370
               0
390
0
 62
               0
100
AcDbPoint
 10
-440.86421653433536
 20
-901.82883934022379
 30
0.0
  0
ENDBLK
  5
177
100
AcDbEntity
  8
notes
390
0
100
AcDbBlockEnd
  0
BLOCK
  5
178
100
AcDbEntity
  8
notes
390
0
100
AcDbBlockBegin
  2
*D24
 70
               1
 10
0.0
 20
0.0
 30
0.0
  3
*D24
  1

  0
LINE
  5
179
100
AcDbEntity
  8
0
370
              -2
390
0
  6
Continuous
 62
               0
100
AcDbLine
 10
-482.74075803054825
 20
-340.28490416456339
 30
0.0
 11
-372.88896065532458
 21
-243.86790531189331
 31
0.0
  0
CIRCLE
  5
17A
102
{ACAD_REACTORS
330
17B
102
}
100
AcDbEntity
  8
0
370
              -2
390
0
  6
Continuous
 62
               0
100
AcDbCircle
 10
-482.74075803054825
 20
-340.28490416456339
 30
0.0
 40
1.9998779296875
  0
HATCH
  5
17B
100
AcDbEntity
  8
0
370
              -2
390
0
  6
Continuous
 62
               0
100
AcDbHatch
 10
0.0
 20
0.0
 30
0.0
210
0.0
220
0.0
230
1.0
  2
SOLID
 70
               1
 71
               1
 91
        1
 92
        1
 93
        1
 72
               2
 10
-482.74075803054825
 20
-340.28490416456339
 40
1.9998779296875
 50
0.0
 51
360.0
 73
               0
 97
        1
330
17A
 75
               0
 76
               1
 98
        1
 10
0.0
 20
0.0
  0
LINE
  5
17C
100
AcDbEntity
  8
0
370
              -2
390
0
  6
Continuous
 62
               0
100
AcDbLine
 10
-372.88896065532458
 20
-243.86790531189331
 30
0.0
 11
-249.38896065532458
 21
-243.86790531189331
 31
0.0
  0
MTEXT
  5
17D
100
AcDbEntity
  8
0
390
0
 62
               0
100
AcDbMText
 10
-312.88896065532458
 20
-209.99028812439337
 30
0.0
 40
24.432617187500004
 41
0.0
 71
               1
 72
               1
  1
φ35
  7
ＭＳ ゴシック
 73
               1
 44
0.7828267384257843
  0
POINT
  5
17E
100
AcDbEntity
  8
Defpoints
370
               0
390
0
 62
               0
100
AcDbPoint
 10
-509.04570514399688
 20
-363.37277451586806
 30
0.0
  0
POINT
  5
17F
100
AcDbEntity
  8
Defpoints
370
               0
390
0
 62
               0
100
AcDbPoint
 10
-482.74075803054825
 20
-340.28490416456339
 30
0.0
  0
ENDBLK
  5
180
100
AcDbEntity
  8
notes
390
0
100
AcDbBlockEnd
  0
BLOCK
  5
181
100
AcDbEntity
  8
ARJ70-1002
390
0
100
AcDbBlockBegin
  2
グループ-1
 70
               0
 10
0.0
 20
0.0
 30
0.0
  3
グループ-1
  1

  0
LINE
  5
182
100
AcDbEntity
  8
0
370
              15
390
0
  6
Continuous
 62
               7
100
AcDbLine
 10
-913.47662471366789
 20
-280.60384876355567
 30
0.0
 11
-913.47662471366789
 21
-217.60384876355553
 31
0.0
  0
LINE
  5
183
100
AcDbEntity
  8
0
370
              15
390
0
  6
Continuous
 62
               7
100
AcDbLine
 10
-922.86334190463481
 20
-280.60384876355567
 30
0.0
 11
-913.47662471366789
 21
-280.60384876355567
 31
0.0
  0
LINE
  5
184
100
AcDbEntity
  8
0
370
              15
390
0
  6
Continuous
 62
               7
100
AcDbLine
 10
-922.86334190462685
 20
-217.60384876355553
 30
0.0
 11
-913.47662471366789
 21
-217.60384876355553
 31
0.0
  0
ENDBLK
  5
185
100
AcDbEntity
  8
ARJ70-1002
390
0
100
AcDbBlockEnd
  0
BLOCK
  5
186
100
AcDbEntity
  8
ARJ70-1002
390
0
100
AcDbBlockBegin
  2
グループ-2
 70
               0
 10
0.0
 20
0.0
 30
0.0
  3
グループ-2
  1

  0
LINE
  5
187
100
AcDbEntity
  8
0
370
              15
390
0
  6
Continuous
 62
               7
100
AcDbLine
 10
-1083.2866122470393
 20
-106.42698168940485
 30
0.0
 11
-1068.2866122470393
 21
-106.42698168940485
 31
0.0
  0
LINE
  5
188
100
AcDbEntity
  8
0
370
              15
390
0
  6
Continuous
 62
               7
100
AcDbLine
 10
-1083.2866122470393
 20
-71.426981689404386
 30
0.0
 11
-1068.2866122470393
 21
-71.426981689404386
 31
0.0
  0
ENDBLK
  5
189
100
AcDbEntity
  8
ARJ70-1002
390
0
100
AcDbBlockEnd
  0
BLOCK
  5
18A
100
AcDbEntity
  8
ARJ70-1002
390
0
100
AcDbBlockBegin
  2
*D27
 70
               1
 10
0.0
 20
0.0
 30
0.0
  3
*D27
  1

  0
LINE
  5
18B
100
AcDbEntity
  8
0
370
              -2
390
0
  6
Continuous
 62
               0
100
AcDbLine
 10
643.93836705302454
 20
910.0
 30
0.0
 11
643.93836705302454
 21
909.0
 31
0.0
  0
LINE
  5
18C
100
AcDbEntity
  8
0
370
              -2
390
0
  6
Continuous
 62
               0
100
AcDbLine
 10
498.93836705302442
 20
910.0
 30
0.0
 11
498.93836705302442
 21
909.0
 31
0.0
  0
LINE
  5
18D
100
AcDbEntity
  8
0
370
              -2
390
0
  6
Continuous
 62
               0
100
AcDbLine
 10
498.93836705302442
 20
909.0
 30
0.0
 11
408.37499663564904
 21
909.0
 31
0.0
  0
LINE
  5
18E
100
AcDbEntity
  8
0
370
              -2
390
0
  6
Continuous
 62
               0
100
AcDbLine
 10
643.93836705302454
 20
909.0
 30
0.0
 11
498.93836705302442
 21
909.0
 31
0.0
  0
CIRCLE
  5
18F
102
{ACAD_REACTORS
330
190
102
}
100
AcDbEntity
  8
0
370
              -2
390
0
  6
Continuous
 62
               0
100
AcDbCircle
 10
643.93836705302454
 20
909.0
 30
0.0
 40
1.9998779296875
  0
HATCH
  5
190
100
AcDbEntity
  8
0
370
              -2
390
0
  6
Continuous
 62
               0
100
AcDbHatch
 10
0.0
 20
0.0
 30
0.0
210
0.0
220
0.0
230
1.0
  2
SOLID
 70
               1
 71
               1
 91
        1
 92
        1
 93
        1
 72
               2
 10
643.93836705302454
 20
909.0
 40
1.9998779296875
 50
0.0
 51
360.0
 73
               0
 97
        1
330
18F
 75
               0
 76
               1
 98
        1
 10
0.0
 20
0.0
  0
CIRCLE
  5
191
102
{ACAD_REACTORS
330
192
102
}
100
AcDbEntity
  8
0
370
              -2
390
0
  6
Continuous
 62
               0
100
AcDbCircle
 10
498.93836705302442
 20
909.0
 30
0.0
 40
1.9998779296875
  0
HATCH
  5
192
100
AcDbEntity
  8
0
370
              -2
390
0
  6
Continuous
 62
               0
100
AcDbHatch
 10
0.0
 20
0.0
 30
0.0
210
0.0
220
0.0
230
1.0
  2
SOLID
 70
               1
 71
               1
 91
        1
 92
        1
 93
        1
 72
               2
 10
498.93836705302442
 20
909.0
 40
1.9998779296875
 50
0.0
 51
360.0
 73
               0
 97
        1
330
191
 75
               0
 76
               1
 98
        1
 10
0.0
 20
0.0
  0
MTEXT
  5
193
100
AcDbEntity
  8
0
390
0
 62
               0
100
AcDbMText
 10
408.37499663564904
 20
942.87761718749994
 30
0.0
 40
24.432617187500004
 41
0.0
 71
               1
 72
               1
  1
145
  7
ＭＳ ゴシック
 73
               1
 44
0.7828267384257843
  0
POINT
  5
194
100
AcDbEntity
  8
Defpoints
370
               0
390
0
 62
               0
100
AcDbPoint
 10
498.93836705302442
 20
885.0
 30
0.0
  0
POINT
  5
195
100
AcDbEntity
  8
Defpoints
370
               0
390
0
 62
               0
100
AcDbPoint
 10
643.93836705302454
 20
885.0
 30
0.0
  0
POINT
  5
196
100
AcDbEntity
  8
Defpoints
370
               0
390
0
 62
               0
100
AcDbPoint
 10
643.93836705302454
 20
909.0
 30
0.0
  0
ENDBLK
  5
197
100
AcDbEntity
  8
ARJ70-1002
390
0
100
AcDbBlockEnd
  0
BLOCK
  5
198
100
AcDbEntity
  8
ARJ70-1002
390
0
100
AcDbBlockBegin
  2
*D28
 70
               1
 10
0.0
 20
0.0
 30
0.0
  3
*D28
  1

  0
LINE
  5
199
100
AcDbEntity
  8
0
370
              -2
390
0
  6
Continuous
 62
               0
100
AcDbLine
 10
508.82010637901408
 20
1048.8256364945748
 30
0.0
 11
508.82010637901408
 21
1025.8750000000109
 31
0.0
  0
LINE
  5
19A
100
AcDbEntity
  8
0
370
              -2
390
0
  6
Continuous
 62
               0
100
AcDbLine
 10
498.82010637901408
 20
1049.0
 30
0.0
 11
498.82010637901408
 21
1025.8750000000109
 31
0.0
  0
LINE
  5
19B
100
AcDbEntity
  8
0
370
              -2
390
0
  6
Continuous
 62
               0
100
AcDbLine
 10
498.82010637901408
 20
1025.8750000000109
 30
0.0
 11
424.25
 21
1025.8750000000109
 31
0.0
  0
LINE
  5
19C
100
AcDbEntity
  8
0
370
              -2
390
0
  6
Continuous
 62
               0
100
AcDbLine
 10
508.82010637901408
 20
1025.8750000000109
 30
0.0
 11
498.82010637901408
 21
1025.8750000000109
 31
0.0
  0
CIRCLE
  5
19D
102
{ACAD_REACTORS
330
19E
102
}
100
AcDbEntity
  8
0
370
              -2
390
0
  6
Continuous
 62
               0
100
AcDbCircle
 10
508.82010637901408
 20
1025.8750000000109
 30
0.0
 40
1.9998779296875
  0
HATCH
  5
19E
100
AcDbEntity
  8
0
370
              -2
390
0
  6
Continuous
 62
               0
100
AcDbHatch
 10
0.0
 20
0.0
 30
0.0
210
0.0
220
0.0
230
1.0
  2
SOLID
 70
               1
 71
               1
 91
        1
 92
        1
 93
        1
 72
               2
 10
508.82010637901408
 20
1025.8750000000109
 40
1.9998779296875
 50
0.0
 51
360.0
 73
               0
 97
        1
330
19D
 75
               0
 76
               1
 98
        1
 10
0.0
 20
0.0
  0
CIRCLE
  5
19F
102
{ACAD_REACTORS
330
1A0
102
}
100
AcDbEntity
  8
0
370
              -2
390
0
  6
Continuous
 62
               0
100
AcDbCircle
 10
498.82010637901408
 20
1025.8750000000109
 30
0.0
 40
1.9998779296875
  0
HATCH
  5
1A0
100
AcDbEntity
  8
0
370
              -2
390
0
  6
Continuous
 62
               0
100
AcDbHatch
 10
0.0
 20
0.0
 30
0.0
210
0.0
220
0.0
230
1.0
  2
SOLID
 70
               1
 71
               1
 91
        1
 92
        1
 93
        1
 72
               2
 10
498.82010637901408
 20
1025.8750000000109
 40
1.9998779296875
 50
0.0
 51
360.0
 73
               0
 97
        1
330
19F
 75
               0
 76
               1
 98
        1
 10
0.0
 20
0.0
  0
MTEXT
  5
1A1
100
AcDbEntity
  8
0
390
0
 62
               0
100
AcDbMText
 10
424.25
 20
1059.7526171875109
 30
0.0
 40
24.432617187500004
 41
0.0
 71
               1
 72
               1
  1
10
  7
ＭＳ ゴシック
 73
               1
 44
0.7828267384257843
  0
POINT
  5
1A2
100
AcDbEntity
  8
Defpoints
370
               0
390
0
 62
               0
100
AcDbPoint
 10
498.82010637901408
 20
1024.0
 30
0.0
  0
POINT
  5
1A3
100
AcDbEntity
  8
Defpoints
370
               0
390
0
 62
               0
100
AcDbPoint
 10
508.82010637901408
 20
1023.8256364945748
 30
0.0
  0
POINT
  5
1A4
100
AcDbEntity
  8
Defpoints
370
               0
390
0
 62
               0
100
AcDbPoint
 10
508.82010637901408
 20
1025.8750000000109
 30
0.0
  0
ENDBLK
  5
1A5
100
AcDbEntity
  8
ARJ70-1002
390
0
100
AcDbBlockEnd
  0
ENDSEC
  0
SECTION
  2
ENTITIES
  0
MTEXT
  5
1A6
100
AcDbEntity
  8
template
390
0
 62
               7
100
AcDbMText
 10
-967.99999999975967
 20
-1147.4176292336999
 30
0.0
 40
16.288411458333332
 41
0.0
 71
               1
 72
               1
  1
品名
  7
ＭＳ ゴシック
 73
               1
 44
0.7828267384257843
  0
MTEXT
  5
1A7
100
AcDbEntity
  8
template
390
0
 62
               7
100
AcDbMText
 10
-967.99999999975967
 20
-1232.4176292336999
 30
0.0
 40
16.288411458333332
 41
0.0
 71
               1
 72
               1
  1
仕様
  7
ＭＳ ゴシック
 73
               1
 44
0.7828267384257843
  0
LINE
  5
1A8
100
AcDbEntity
  8
template
370
               5
390
0
  6
Continuous
 62
               7
100
AcDbLine
 10
974.99999999975807
 20
-1224.0027073587
 30
0.0
 11
-975.00000000024352
 21
-1224.0027073587
 31
0.0
  0
LWPOLYLINE
  5
1A9
100
AcDbEntity
  8
template
370
               5
390
0
  6
Continuous
 62
               7
100
AcDbPolyline
 90
        5
 70
             128
 10
975.00000000024011
 20
1405.9972926412997
 10
-974.99999999975967
 20
1405.9972926412997
 10
-974.99999999975967
 20
-1394.0027073587
 10
975.00000000024011
 20
-1394.0027073587
 10
975.00000000024011
 20
1405.9972926412997
  0
LINE
  5
1AA
100
AcDbEntity
  8
template
370
               5
390
0
  6
Continuous
 62
               7
100
AcDbLine
 10
974.99999999975807
 20
-1139.0027073587
 30
0.0
 11
-975.00000000024352
 21
-1139.0027073587
 31
0.0
  0
LINE
  5
1AB
100
AcDbEntity
  8
template
370
               5
390
0
  6
Continuous
 62
               7
100
AcDbLine
 10
975.00000000024011
 20
-1309.0027073587
 30
0.0
 11
222.00000000024011
 21
-1309.0027073587
 31
0.0
  0
MTEXT
  5
1AC
100
AcDbEntity
  8
template
390
0
 62
               7
100
AcDbMText
 10
-974.99999999955594
 20
-1405.8565294155571
 30
0.0
 40
21.717881944444446
 41
0.0
 71
               1
 72
               1
  1
120221SH
  7
ＭＳ ゴシック
 73
               1
 44
0.7828267384257843
  0
MTEXT
  5
1AD
100
AcDbEntity
  8
template
390
0
 62
               7
100
AcDbMText
 10
251.87140625249958
 20
-1338.9131018320074
 30
0.0
 40
24.432617187500004
 41
0.0
 71
               1
 72
               1
  1
大洋金物株式会社 ティーフォルム事業部
  7
ＭＳ ゴシック
 73
               1
 44
0.7828267384257843
  0
INSERT
  5
1AE
100
AcDbEntity
  8
template
390
0
 62
               7
100
AcDbBlockReference
  2
グループ
 10
1592.1379009009454
 20
1164.814664889416
 30
0.0
  0
MTEXT
  5
1AF
100
AcDbEntity
  8
template
390
0
 62
               7
100
AcDbMText
 10
784.00000000050022
 20
-1261.0000901711999
 30
0.0
 40
24.432617187500004
 41
0.0
 71
               1
 72
               1
  1
1:10
  7
ＭＳ ゴシック
 73
               1
 44
0.7828267384257843
  0
MTEXT
  5
1B0
100
AcDbEntity
  8
template
390
0
 62
               7
100
AcDbMText
 10
731.00000000050022
 20
-1232.4176292336999
 30
0.0
 40
16.288411458333332
 41
0.0
 71
               1
 72
               1
  1
縮尺
  7
ＭＳ ゴシック
 73
               1
 44
0.7828267384257843
  0
LINE
  5
1B1
100
AcDbEntity
  8
template
370
               5
390
0
  6
Continuous
 62
               7
100
AcDbLine
 10
724.00000000050022
 20
-1309.0027073587
 30
0.0
 11
724.00000000050022
 21
-1224.0027073587
 31
0.0
  0
MTEXT
  5
1B2
100
AcDbEntity
  8
template
390
0
 62
               7
100
AcDbMText
 10
480.00000000050022
 20
-1232.4176292336999
 30
0.0
 40
16.288411458333332
 41
0.0
 71
               1
 72
               1
  1
容量
  7
ＭＳ ゴシック
 73
               1
 44
0.7828267384257843
  0
MTEXT
  5
1B3
100
AcDbEntity
  8
template
390
0
 62
               7
100
AcDbMText
 10
533.00000000050022
 20
-1260.9383459142703
 30
0.0
 40
23.9074177654294
 41
0.0
 71
               1
 72
               1
  1
5.3L
  7
ＭＳ ゴシック
 73
               1
 44
0.7828267384257843
  0
LINE
  5
1B4
100
AcDbEntity
  8
template
370
               5
390
0
  6
Continuous
 62
               7
100
AcDbLine
 10
473.00000000050022
 20
-1309.0027073587
 30
0.0
 11
473.00000000050022
 21
-1224.0027073587
 31
0.0
  0
MTEXT
  5
1B5
100
AcDbEntity
  8
template
390
0
 62
               7
100
AcDbMText
 10
229.00000000050022
 20
-1147.4176292336999
 30
0.0
 40
16.288411458333332
 41
0.0
 71
               1
 72
               1
  1
品番
  7
ＭＳ ゴシック
 73
               1
 44
0.7828267384257843
  0
MTEXT
  5
1B6
100
AcDbEntity
  8
template
390
0
 62
               7
100
AcDbMText
 10
229.00000000050022
 20
-1232.4176292336999
 30
0.0
 40
16.288411458333332
 41
0.0
 71
               1
 72
               1
  1
重量
  7
ＭＳ ゴシック
 73
               1
 44
0.7828267384257843
  0
MTEXT
  5
1B7
100
AcDbEntity
  8
template
390
0
 62
               7
100
AcDbMText
 10
282.00000000050022
 20
-1176.0000901711999
 30
0.0
 40
24.432617187500004
 41
0.0
 71
               1
 72
               1
  1
ARJ70-1002(旧品番:AQI70-1002)
  7
ＭＳ ゴシック
 73
               1
 44
0.7828267384257843
  0
MTEXT
  5
1B8
100
AcDbEntity
  8
template
390
0
 62
               7
100
AcDbMText
 10
282.00000000050022
 20
-1261.0000901711999
 30
0.0
 40
24.432617187500004
 41
0.0
 71
               1
 72
               1
  1
32.5kg
  7
ＭＳ ゴシック
 73
               1
 44
0.7828267384257843
  0
LINE
  5
1B9
100
AcDbEntity
  8
template
370
               5
390
0
  6
Continuous
 62
               7
100
AcDbLine
 10
222.00000000050022
 20
-1394.0027073587
 30
0.0
 11
222.00000000050022
 21
-1139.0027073587
 31
0.0
  0
MTEXT
  5
1BA
100
AcDbEntity
  8
template
390
0
 62
               7
100
AcDbMText
 10
-914.99999999975967
 20
-1176.0000901711999
 30
0.0
 40
24.432617187500004
 41
0.0
 71
               1
 72
               1
  1
洗面器 -POZZI GINORI,Novecento-
  7
ＭＳ ゴシック
 73
               1
 44
0.7828267384257843
  0
MTEXT
  5
1BB
100
AcDbEntity
  8
template
390
0
 62
               7
100
AcDbMText
 10
-914.99999999975967
 20
-1261.0000901711999
 30
0.0
 40
24.432617187500004
 41
0.0
 71
               1
 72
               1
  1
壁掛け/オーバーフロー付き/壁取付ボルト付属/陶器/ホワイト
  7
ＭＳ ゴシック
 73
               1
 44
1.3047112307096407
  0
DIMENSION
  5
1BC
100
AcDbEntity
  8
notes
370
               5
390
0
  6
Continuous
 62
               7
100
AcDbDimension
  2
*D3
 10
-700.88896065532504
 20
-451.84350068950175
 30
0.0
 11
-700.88896065532504
 21
-401.83617001485868
 31
0.0
 71
               5
 72
               1
 41
1.0
 42
0.0
  3
tform線あり
100
AcDbAlignedDimension
 13
-518.39323158727234
 23
-351.82883934021561
 33
0.0
 14
-504.89323158727234
 24
-451.84350068950175
 34
0.0
 50
90.0
100
AcDbRotatedDimension
1001
ACAD
1000
DSTYLE
1002
{
1070
             279
1070
               2
1070
             340
1005
3E
1070
             147
1040
5.0
1002
}
  0
DIMENSION
  5
1BD
100
AcDbEntity
  8
notes
370
               5
390
0
  6
Continuous
 62
               7
100
AcDbDimension
  2
*D4
 10
-700.88896065532504
 20
-351.82883934021561
 30
0.0
 11
-700.88896065532504
 21
-301.84837232605469
 31
0.0
 71
               5
 72
               1
 41
1.0
 42
0.0
  3
tform線あり
100
AcDbAlignedDimension
 13
-504.89323158727234
 23
-251.86790531189376
 33
0.0
 14
-518.39323158727234
 24
-351.82883934021561
 34
0.0
 50
90.0
100
AcDbRotatedDimension
1001
ACAD
1000
DSTYLE
1002
{
1070
             279
1070
               2
1070
             340
1005
3E
1070
             147
1040
5.0
1002
}
  0
DIMENSION
  5
1BE
100
AcDbEntity
  8
notes
370
               5
390
0
  6
Continuous
 62
               7
100
AcDbDimension
  2
*D5
 10
-485.89323158727234
 20
-136.86790531189376
 30
0.0
 11
-609.46741424876723
 21
-131.86790531189376
 31
0.0
 70
             128
 71
               5
 72
               1
 41
1.0
 42
0.0
  3
tform線あり
100
AcDbAlignedDimension
 13
-600.89323158727234
 23
-236.86790531189376
 33
0.0
 14
-485.89323158727234
 24
-236.86790531189376
 34
0.0
100
AcDbRotatedDimension
1001
ACAD
1000
DSTYLE
1002
{
1070
             279
1070
               2
1070
             340
1005
3E
1070
             174
1070
               0
1070
             147
1040
5.0
1002
}
  0
DIMENSION
  5
1BF
100
AcDbEntity
  8
notes
370
               5
390
0
  6
Continuous
 62
               7
100
AcDbDimension
  2
*D6
 10
-800.88896065532504
 20
-801.82883934022379
 30
0.0
 11
-800.88896065532504
 21
-351.82883934022334
 31
0.0
 71
               5
 72
               1
 41
1.0
 42
0.0
  3
tform線あり
100
AcDbAlignedDimension
 13
-562.8889606553264
 23
98.171160659777115
 33
0.0
 14
-562.8889606553264
 24
-801.82883934022379
 34
0.0
 50
90.0
100
AcDbRotatedDimension
1001
ACAD
1000
DSTYLE
1002
{
1070
             279
1070
               2
1070
             340
1005
3E
1070
             147
1040
5.0
1002
}
  0
DIMENSION
  5
1C0
100
AcDbEntity
  8
notes
370
               5
390
0
  6
Continuous
 62
               7
100
AcDbDimension
  2
*D7
 10
-750.88896065532549
 20
38.148185459165461
 30
0.0
 11
-750.88896065532549
 21
-351.82883934022311
 31
0.0
 71
               5
 72
               1
 41
1.0
 42
0.0
  3
tform線あり
100
AcDbAlignedDimension
 13
-597.8889606553214
 23
-741.80586413961169
 33
0.0
 14
-597.88896065532094
 24
38.148185459165461
 34
0.0
 50
90.0
100
AcDbRotatedDimension
1001
ACAD
1000
DSTYLE
1002
{
1070
             279
1070
               2
1070
             340
1005
3E
1070
             147
1040
5.0
1002
}
  0
DIMENSION
  5
1C1
100
AcDbEntity
  8
notes
370
               5
390
0
  6
Continuous
 62
               7
100
AcDbDimension
  2
*D8
 10
398.82010637901408
 20
1180.886025720695
 30
0.0
 11
398.82010637901408
 21
1128.386025720695
 31
0.0
 71
               5
 72
               1
 41
1.0
 42
0.0
  3
tform線あり
100
AcDbAlignedDimension
 13
498.82010637901408
 23
1075.886025720695
 33
0.0
 14
518.58461745587829
 24
1180.886025720695
 34
0.0
 50
90.0
100
AcDbRotatedDimension
1001
ACAD
1000
DSTYLE
1002
{
1070
             279
1070
               2
1070
             340
1005
3E
1070
             147
1040
5.0
1002
}
  0
DIMENSION
  5
1C2
100
AcDbEntity
  8
notes
370
               5
390
0
  6
Continuous
 62
               7
100
AcDbDimension
  2
*D9
 10
398.75714559730955
 20
-674.82525226360099
 30
0.0
 11
398.75714559730955
 21
-583.32525226360099
 31
0.0
 71
               5
 72
               1
 41
1.0
 42
0.0
  3
tform線あり
100
AcDbAlignedDimension
 13
553.74806592640493
 23
-491.82525226360099
 33
0.0
 14
553.74806592640493
 24
-674.82525226360099
 34
0.0
 50
90.0
100
AcDbRotatedDimension
1001
ACAD
1000
DSTYLE
1002
{
1070
             279
1070
               2
1070
             340
1005
3E
1070
             147
1040
5.0
1002
}
  0
DIMENSION
  5
1C3
100
AcDbEntity
  8
notes
370
               5
390
0
  6
Continuous
 62
               7
100
AcDbDimension
  2
*D10
 10
398.75714559730955
 20
-491.82525226360099
 30
0.0
 11
398.75714559730955
 21
-351.82525226360099
 31
0.0
 71
               5
 72
               1
 41
1.0
 42
0.0
  3
tform線あり
100
AcDbAlignedDimension
 13
553.74806592640493
 23
-211.82525226360099
 33
0.0
 14
553.74806592640493
 24
-491.82525226360099
 34
0.0
 50
90.0
100
AcDbRotatedDimension
1001
ACAD
1000
DSTYLE
1002
{
1070
             279
1070
               2
1070
             340
1005
3E
1070
             147
1040
5.0
1002
}
  0
DIMENSION
  5
1C4
100
AcDbEntity
  8
notes
370
               5
390
0
  6
Continuous
 62
               7
100
AcDbDimension
  2
*D11
 10
398.75714559730955
 20
-211.82525226360099
 30
0.0
 11
398.75714559730955
 21
-120.32525226360099
 31
0.0
 71
               5
 72
               1
 41
1.0
 42
0.0
  3
tform線あり
100
AcDbAlignedDimension
 13
553.74806592640493
 23
-28.825252263600987
 33
0.0
 14
553.74806592640493
 24
-211.82525226360099
 34
0.0
 50
90.0
100
AcDbRotatedDimension
1001
ACAD
1000
DSTYLE
1002
{
1070
             279
1070
               2
1070
             340
1005
3E
1070
             147
1040
5.0
1002
}
  0
DIMENSION
  5
1C5
100
AcDbEntity
  8
notes
370
               5
390
0
  6
Continuous
 62
               7
100
AcDbDimension
  2
*D12
 10
49.11103934467701
 20
98.171160659777115
 30
0.0
 11
49.11103934467701
 21
10.671160659784164
 31
0.0
 71
               5
 72
               1
 41
1.0
 42
0.0
  3
tform線あり
100
AcDbAlignedDimension
 13
-50.88896065532299
 23
-76.828839340208788
 33
0.0
 14
-68.888960655326628
 24
98.171160659777115
 34
0.0
 50
90.0
100
AcDbRotatedDimension
1001
ACAD
1000
DSTYLE
1002
{
1070
             279
1070
               2
1070
             340
1005
3E
1070
             147
1040
5.0
1002
}
  0
DIMENSION
  5
1C6
100
AcDbEntity
  8
notes
370
               5
390
0
  6
Continuous
 62
               7
100
AcDbDimension
  2
*D13
 10
49.11103934467701
 20
-76.828839340208788
 30
0.0
 11
49.11103934467701
 21
-351.82883934336974
 31
0.0
 71
               5
 72
               1
 41
1.0
 42
0.0
  3
tform線あり
100
AcDbAlignedDimension
 13
-50.88896065532299
 23
-626.82883934653069
 33
0.0
 14
-50.88896065532299
 24
-76.828839340208788
 34
0.0
 50
90.0
100
AcDbRotatedDimension
1001
ACAD
1000
DSTYLE
1002
{
1070
             279
1070
               2
1070
             340
1005
3E
1070
             147
1040
5.0
1002
}
  0
DIMENSION
  5
1C7
100
AcDbEntity
  8
notes
370
               5
390
0
  6
Continuous
 62
               7
100
AcDbDimension
  2
*D14
 10
398.75714559730955
 20
-674.82525226360099
 30
0.0
 11
398.75714559730955
 21
-738.32525226360099
 31
0.0
 71
               5
 72
               1
 41
1.0
 42
0.0
  3
tform線あり
100
AcDbAlignedDimension
 13
553.74806592640493
 23
-801.82525226360099
 33
0.0
 14
553.74806592640493
 24
-674.82525226360099
 34
0.0
 50
90.0
100
AcDbRotatedDimension
1001
ACAD
1000
DSTYLE
1002
{
1070
             279
1070
               2
1070
             340
1005
3E
1070
             147
1040
5.0
1002
}
  0
DIMENSION
  5
1C8
100
AcDbEntity
  8
notes
370
               5
390
0
  6
Continuous
 62
               7
100
AcDbDimension
  2
*D15
 10
778.66127618727751
 20
1180.886025720273
 30
0.0
 11
778.66127618727751
 21
1048.2997271116917
 31
0.0
 71
               5
 72
               1
 41
1.0
 42
0.0
  3
tform線あり
100
AcDbAlignedDimension
 13
678.66127618727751
 23
915.71342850311066
 33
0.0
 14
669.6124623130695
 24
1180.886025720273
 34
0.0
 50
90.0
100
AcDbRotatedDimension
1001
ACAD
1000
DSTYLE
1002
{
1070
             271
1070
               0
1070
             279
1070
               2
1070
             340
1005
3E
1070
             147
1040
5.0
1002
}
  0
DIMENSION
  5
1C9
100
AcDbEntity
  8
notes
370
               5
390
0
  6
Continuous
 62
               7
100
AcDbDimension
  2
*D16
 10
-600.88896065532549
 20
198.17116065977712
 30
0.0
 11
-325.88896065532549
 21
198.17116065977712
 31
0.0
 71
               5
 72
               1
 41
1.0
 42
0.0
  3
tform線あり
100
AcDbAlignedDimension
 13
-50.888960655325491
 23
80.171160659777115
 33
0.0
 14
-600.88896065532549
 24
35.148185459164097
 34
0.0
100
AcDbRotatedDimension
1001
ACAD
1000
DSTYLE
1002
{
1070
             279
1070
               2
1070
             340
1005
3E
1070
             147
1040
5.0
1002
}
  0
DIMENSION
  5
1CA
100
AcDbEntity
  8
notes
370
               5
390
0
  6
Continuous
 62
               7
100
AcDbDimension
  2
*D17
 10
498.82010637901408
 20
530.61333440361807
 30
0.0
 11
536.28234915804137
 21
530.61333440361807
 31
0.0
 71
               5
 72
               1
 41
1.0
 42
0.0
  3
tform線あり
100
AcDbAlignedDimension
 13
573.74459193706844
 23
635.61333440361784
 33
0.0
 14
498.82010637901408
 24
640.79527268760819
 34
0.0
100
AcDbRotatedDimension
1001
ACAD
1000
DSTYLE
1002
{
1070
             271
1070
               0
1070
             279
1070
               2
1070
             340
1005
3E
1070
             147
1040
5.0
1002
}
  0
DIMENSION
  5
1CB
100
AcDbEntity
  8
notes
370
               5
390
0
  6
Continuous
 62
               7
100
AcDbDimension
  2
*D18
 10
573.74459193706844
 20
530.61333440361807
 30
0.0
 11
603.70293406217468
 21
530.61333440361807
 31
0.0
 71
               5
 72
               1
 41
1.0
 42
0.0
  3
tform線あり
100
AcDbAlignedDimension
 13
633.66127618728092
 23
693.83688530037421
 33
0.0
 14
573.74459193706844
 24
635.61333440361784
 34
0.0
100
AcDbRotatedDimension
1001
ACAD
1000
DSTYLE
1002
{
1070
             271
1070
               0
1070
             279
1070
               2
1070
             340
1005
3E
1070
             147
1040
5.0
1002
}
  0
DIMENSION
  5
1CC
100
AcDbEntity
  8
notes
370
               5
390
0
  6
Continuous
 62
               7
100
AcDbDimension
  2
*D19
 10
633.66127618728092
 20
530.6133344036175
 30
0.0
 11
656.16127618727921
 21
530.6133344036175
 31
0.0
 71
               5
 72
               1
 41
1.0
 42
0.0
  3
tform線あり
100
AcDbAlignedDimension
 13
678.66127618727751
 23
878.88549928411896
 33
0.0
 14
633.66127618728092
 24
693.83688530037421
 34
0.0
100
AcDbRotatedDimension
1001
ACAD
1000
DSTYLE
1002
{
1070
             271
1070
               0
1070
             279
1070
               2
1070
             340
1005
3E
1070
             147
1040
5.0
1002
}
  0
DIMENSION
  5
1CD
100
AcDbEntity
  8
notes
370
               5
390
0
  6
Continuous
 62
               7
100
AcDbDimension
  2
*D20
 10
498.83489159177702
 20
198.16865415000484
 30
0.0
 11
588.82820805608321
 21
198.16865415000484
 31
0.0
 71
               5
 72
               1
 41
1.0
 42
0.0
  3
tform線あり
100
AcDbAlignedDimension
 13
678.82152452038952
 23
-320.79731234103269
 33
0.0
 14
498.83489159177702
 24
88.012297050337338
 34
0.0
100
AcDbRotatedDimension
1001
ACAD
1000
DSTYLE
1002
{
1070
             279
1070
               2
1070
             340
1005
3E
1070
             147
1040
5.0
1002
}
  0
DIMENSION
  5
1CE
100
AcDbEntity
  8
notes
370
               5
390
0
  6
Continuous
 62
               7
100
AcDbDimension
  2
*D21
 10
573.74806592640459
 20
-901.81915867720659
 30
0.0
 11
536.24806592640493
 21
-901.81915867720659
 31
0.0
 71
               5
 72
               1
 41
1.0
 42
0.0
  3
tform線あり
100
AcDbAlignedDimension
 13
498.74806592640539
 23
-788.86790531189376
 33
0.0
 14
573.74806592640459
 24
-720.46790531189367
 34
0.0
100
AcDbRotatedDimension
1001
ACAD
1000
DSTYLE
1002
{
1070
             279
1070
               2
1070
             340
1005
3E
1070
             147
1040
5.0
1002
}
  0
DIMENSION
  5
1CF
100
AcDbEntity
  8
notes
370
               5
390
0
  6
Continuous
 62
               7
100
AcDbDimension
  2
*D22
 10
-600.88896065532549
 20
-901.82883934022379
 30
0.0
 11
-520.87658859483031
 21
-901.82883934022379
 31
0.0
 71
               5
 72
               1
 41
1.0
 42
0.0
  3
tform線あり
100
AcDbAlignedDimension
 13
-440.86421653433536
 23
-801.82883934022379
 33
0.0
 14
-600.88896065532549
 24
-738.80586413961169
 34
0.0
100
AcDbRotatedDimension
1001
ACAD
1000
DSTYLE
1002
{
1070
             279
1070
               2
1070
             340
1005
3E
1070
             147
1040
5.0
1002
}
  0
DIMENSION
  5
1D0
100
AcDbEntity
  8
notes
370
               5
390
0
  6
Continuous
 62
               7
100
AcDbDimension
  2
*D23
 10
-440.86421653433536
 20
-901.82883934022379
 30
0.0
 11
-283.36843954613892
 21
-901.82883934022379
 31
0.0
 71
               5
 72
               1
 41
1.0
 42
0.0
  3
tform線あり
100
AcDbAlignedDimension
 13
-125.87266255794225
 23
-801.82883934022379
 33
0.0
 14
-440.86421653433536
 24
-801.82883934022379
 34
0.0
100
AcDbRotatedDimension
1001
ACAD
1000
DSTYLE
1002
{
1070
             279
1070
               2
1070
             340
1005
3E
1070
             147
1040
5.0
1002
}
  0
DIMENSION
  5
1D1
100
AcDbEntity
  8
notes
370
               5
390
0
  6
Continuous
 62
               7
100
AcDbDimension
  2
*D24
 10
-509.04570514399688
 20
-363.37277451586806
 30
0.0
 11
-312.88896065532549
 21
-243.86790531189217
 31
0.0
 70
               3
 71
               5
 72
               1
 41
1.0
 42
0.0
  3
tform線あり
100
AcDbDiametricDimension
 15
-482.74075803054825
 25
-340.28490416456339
 35
0.0
 40
146.16311112699748
1001
ACAD
1000
DSTYLE
1002
{
1070
             289
1070
               0
1070
             342
1005
50
1070
             340
1005
3E
1070
              73
1070
               1
1070
              74
1070
               1
1070
               3
1000

1070
             174
1070
               0
1070
             147
1040
5.0
1002
}
  0
MTEXT
  5
1D2
100
AcDbEntity
  8
notes
390
0
 62
               7
100
AcDbMText
 10
102.20615357050497
 20
-770.97153999600141
 30
0.0
 40
24.432617187500004
 41
839.87472017681887
 71
               1
 72
               1
  1
＝φ30もしくはφ35の水栓取付用穴あけ加工を承ります。\P  必要な場合、ご注文の際にご指示ください。
  7
ＭＳ ゴシック
 11
0.0
 21
1.0
 31
0.0
 73
               1
 44
1.0437689845677123
  0
MTEXT
  5
1D3
100
AcDbEntity
  8
notes
390
0
 62
               7
100
AcDbMText
 10
423.62239822581137
 20
46.06776766539042
 30
0.0
 40
24.432617187500004
 41
0.0
 71
               1
 72
               1
  1
壁取付ボルト穴(4ヶ所)
  7
ＭＳ ゴシック
 11
0.0
 21
1.0
 31
0.0
 73
               1
 44
0.7828267384257843
  0
LINE
  5
1D4
100
AcDbEntity
  8
notes
370
               5
390
0
  6
Continuous
 62
               7
100
AcDbLine
 10
573.74806592640459
 20
-31.825252263600987
 30
0.0
 11
456.59690323388963
 21
73.474422412046351
 31
0.0
  0
CIRCLE
  5
1D5
100
AcDbEntity
  8
notes
370
              15
390
0
  6
STYLE_13
 62
               7
100
AcDbCircle
 10
115.53261529652923
 20
-793.43914754312277
 30
0.0
 40
15.0
  0
LINE
  5
1D6
100
AcDbEntity
  8
ARJ70-1002
370
              15
390
0
  6
Continuous
 62
               7
100
AcDbLine
 10
498.83489159177702
 20
-791.66280157754068
 30
0.0
 11
498.73715640286241
 21
-351.82525226360099
 31
0.0
  0
LINE
  5
1D7
100
AcDbEntity
  8
ARJ70-1002
370
              15
390
0
  6
Continuous
 62
               7
100
AcDbLine
 10
633.81205392192658
 20
-736.82525226360872
 30
0.0
 11
633.81205392189042
 21
-353.21764749254157
 31
0.0
  0
LINE
  5
1D8
100
AcDbEntity
  8
ARJ70-1002
370
              15
390
0
  6
Continuous
 62
               7
100
AcDbLine
 10
669.56850879709543
 20
-382.85319218616974
 30
0.0
 11
678.82152452038952
 21
-382.85319218616974
 31
0.0
  0
LINE
  5
1D9
100
AcDbEntity
  8
ARJ70-1002
370
              15
390
0
  6
Continuous
 62
               7
100
AcDbLine
 10
678.82152452038952
 20
-320.79731234103269
 30
0.0
 11
678.82152452038952
 21
-382.85319218616974
 31
0.0
  0
LINE
  5
1DA
100
AcDbEntity
  8
ARJ70-1002
370
              15
390
0
  6
Continuous
 62
               7
100
AcDbLine
 10
669.56850879709543
 20
-641.032703013115
 30
0.0
 11
669.56850879709543
 21
-353.21764749252657
 31
0.0
  0
ARC
  5
1DB
100
AcDbEntity
  8
ARJ70-1002
370
              15
390
0
  6
Continuous
 62
               7
100
AcDbCircle
 10
506.86822271223014
 20
-791.66280157753386
 30
0.0
 40
8.0
100
AcDbArc
 50
180.0
 51
270.0
  0
LINE
  5
1DC
100
AcDbEntity
  8
ARJ70-1002
370
              15
390
0
  6
Continuous
 62
               7
100
AcDbLine
 10
568.63755643841057
 20
-801.81915867720704
 30
0.0
 11
506.32951657421904
 21
-799.64331397962701
 31
0.0
  0
ARC
  5
1DD
100
AcDbEntity
  8
ARJ70-1002
370
              15
390
0
  6
Continuous
 62
               7
100
AcDbCircle
 10
664.56850879710248
 20
-641.032703013115
 30
0.0
 40
4.9999999999999094
100
AcDbArc
 50
285.51849411240073
 51
0.0
  0
LINE
  5
1DE
100
AcDbEntity
  8
ARJ70-1002
370
              15
390
0
  6
Continuous
 62
               7
100
AcDbLine
 10
633.81205392190452
 20
-386.77671925051186
 30
0.0
 11
633.81205392189747
 21
-353.21764749254157
 31
0.0
  0
LINE
  5
1DF
100
AcDbEntity
  8
ARJ70-1002
370
              15
390
0
  6
Continuous
 62
               7
100
AcDbLine
 10
669.56850879709543
 20
-320.79731234103269
 30
0.0
 11
678.82152452038952
 21
-320.79731234103269
 31
0.0
  0
LINE
  5
1E0
100
AcDbEntity
  8
ARJ70-1002
370
              15
390
0
  6
Continuous
 62
               7
100
AcDbLine
 10
573.81205392192658
 20
-351.82525226359462
 30
0.0
 11
573.81205392192658
 21
-796.82220454211279
 31
0.0
  0
LINE
  5
1E1
100
AcDbEntity
  8
ARJ70-1002
370
              15
390
0
  6
Continuous
 62
               7
100
AcDbLine
 10
633.81205392191248
 20
-654.76209084014295
 30
0.0
 11
665.90625582624045
 21
-645.85042372794692
 31
0.0
  0
LINE
  5
1E2
100
AcDbEntity
  8
ARJ70-1002
370
              15
390
0
  6
Continuous
 62
               7
100
AcDbLine
 10
573.81205392192658
 20
-796.82220454217781
 30
0.0
 11
573.81205392194158
 21
-795.28326029235791
 31
0.0
  0
ARC
  5
1E3
100
AcDbEntity
  8
ARJ70-1002
370
              15
390
0
  6
Continuous
 62
               7
100
AcDbCircle
 10
628.81205392192658
 20
-736.82525226360872
 30
0.0
 40
5.0
100
AcDbArc
 50
270.0
 51
0.0
  0
LINE
  5
1E4
100
AcDbEntity
  8
ARJ70-1002
370
              15
390
0
  6
Continuous
 62
               7
100
AcDbLine
 10
628.81205392192658
 20
-741.82525226361008
 30
0.0
 11
573.81205392192658
 21
-743.74589458566174
 31
0.0
  0
ARC
  5
1E5
100
AcDbEntity
  8
ARJ70-1002
370
              15
390
0
  6
Continuous
 62
               7
100
AcDbCircle
 10
568.81205392192658
 20
-796.82220454211279
 30
0.0
 40
5.0000000000001528
100
AcDbArc
 50
267.99999999999642
 51
359.99999999916622
  0
LINE
  5
1E6
100
AcDbEntity
  8
ARJ70-1002
370
              15
390
0
  6
Continuous
 62
               7
100
AcDbLine
 10
498.83489159177702
 20
88.012297050337338
 30
0.0
 11
498.73715640286241
 21
-351.82525226360099
 31
0.0
  0
LINE
  5
1E7
100
AcDbEntity
  8
ARJ70-1002
370
              15
390
0
  6
Continuous
 62
               7
100
AcDbLine
 10
633.81205392192658
 20
33.174747736405379
 30
0.0
 11
633.81205392189042
 21
-350.43285703466086
 31
0.0
  0
LINE
  5
1E8
100
AcDbEntity
  8
ARJ70-1002
370
              15
390
0
  6
Continuous
 62
               7
100
AcDbLine
 10
669.56850879709543
 20
-320.79731234103269
 30
0.0
 11
678.82152452038952
 21
-320.79731234103269
 31
0.0
  0
LINE
  5
1E9
100
AcDbEntity
  8
ARJ70-1002
370
              15
390
0
  6
Continuous
 62
               7
100
AcDbLine
 10
669.56850879709543
 20
-62.617801514088796
 30
0.0
 11
669.56850879709543
 21
-353.21764749252657
 31
0.0
  0
LINE
  5
1EA
100
AcDbEntity
  8
ARJ70-1002
370
              15
390
0
  6
Continuous
 62
               7
100
AcDbLine
 10
568.63755643841057
 20
98.168654150006432
 30
0.0
 11
506.32951657421904
 21
95.992809452424126
 31
0.0
  0
ARC
  5
1EB
100
AcDbEntity
  8
ARJ70-1002
370
              15
390
0
  6
Continuous
 62
               7
100
AcDbCircle
 10
664.56850879710248
 20
-62.617801514089024
 30
0.0
 40
5.0
100
AcDbArc
 50
0.0
 51
74.481505887600065
  0
LINE
  5
1EC
100
AcDbEntity
  8
ARJ70-1002
370
              15
390
0
  6
Continuous
 62
               7
100
AcDbLine
 10
633.81205392190452
 20
-316.87378527669193
 30
0.0
 11
633.81205392189747
 21
-350.43285703466086
 31
0.0
  0
LINE
  5
1ED
100
AcDbEntity
  8
ARJ70-1002
370
              15
390
0
  6
Continuous
 62
               7
100
AcDbLine
 10
573.81205392192658
 20
-351.82525226360872
 30
0.0
 11
573.81205392192658
 21
93.171700014909447
 31
0.0
  0
LINE
  5
1EE
100
AcDbEntity
  8
ARJ70-1002
370
              15
390
0
  6
Continuous
 62
               7
100
AcDbLine
 10
633.81205392191248
 20
-48.888413687059938
 30
0.0
 11
665.90625582624045
 21
-57.800080799255966
 31
0.0
  0
ARC
  5
1EF
100
AcDbEntity
  8
ARJ70-1002
370
              15
390
0
  6
Continuous
 62
               7
100
AcDbCircle
 10
628.81205392192658
 20
33.174747736405379
 30
0.0
 40
5.0
100
AcDbArc
 50
0.0
 51
90.0
  0
LINE
  5
1F0
100
AcDbEntity
  8
ARJ70-1002
370
              15
390
0
  6
Continuous
 62
               7
100
AcDbLine
 10
628.81205392192658
 20
38.174747736406289
 30
0.0
 11
573.81205392192658
 21
40.095390058460225
 31
0.0
  0
ARC
  5
1F1
100
AcDbEntity
  8
ARJ70-1002
370
              15
390
0
  6
Continuous
 62
               7
100
AcDbCircle
 10
568.81205392192658
 20
93.171700014909447
 30
0.0
 40
5.0
100
AcDbArc
 50
0.0000000008337633
 51
92.000000000003681
  0
LINE
  5
1F2
100
AcDbEntity
  8
ARJ70-1002
370
              15
390
0
  6
Continuous
 62
               7
100
AcDbLine
 10
-50.88896065532299
 20
-351.82883934020697
 30
0.0
 11
-50.888960655325945
 21
-783.82883934022288
 31
0.0
  0
LINE
  5
1F3
100
AcDbEntity
  8
ARJ70-1002
370
              15
390
0
  6
Continuous
 62
               7
100
AcDbLine
 10
-76.417032288950622
 20
-351.82883934020697
 30
0.0
 11
-76.417032288953578
 21
-771.30076770659684
 31
0.0
  0
LINE
  5
1F4
100
AcDbEntity
  8
ARJ70-1002
370
              15
390
0
  6
Continuous
 62
               7
100
AcDbLine
 10
-67.576123275320469
 20
-351.82883934020697
 30
0.0
 11
-67.576123275321834
 21
-775.141676720227
 31
0.0
  0
LINE
  5
1F5
100
AcDbEntity
  8
ARJ70-1002
370
              15
390
0
  6
Continuous
 62
               7
100
AcDbLine
 10
-53.051411341398307
 20
-351.82883934020697
 30
0.0
 11
-53.051411341401263
 21
-783.82883934022288
 31
0.0
  0
LINE
  5
1F6
100
AcDbEntity
  8
ARJ70-1002
370
              15
390
0
  6
Continuous
 62
               7
100
AcDbLine
 10
-562.8889606553264
 20
-801.82883934022379
 30
0.0
 11
-68.888960655326628
 21
-801.82883934022379
 31
0.0
  0
LINE
  5
1F7
100
AcDbEntity
  8
ARJ70-1002
370
              15
390
0
  6
Continuous
 62
               7
100
AcDbLine
 10
-562.8889606553264
 20
-799.66638865414802
 30
0.0
 11
-68.888960655326628
 21
-799.66638865414802
 31
0.0
  0
LINE
  5
1F8
100
AcDbEntity
  8
ARJ70-1002
370
              15
390
0
  6
Continuous
 62
               7
100
AcDbLine
 10
-430.86421653433536
 20
-626.82883934022288
 30
0.0
 11
-135.87306180443034
 21
-626.82883934022288
 31
0.0
  0
LINE
  5
1F9
100
AcDbEntity
  8
ARJ70-1002
370
              15
390
0
  6
Continuous
 62
               7
100
AcDbLine
 10
-440.86421653433899
 20
-351.82883934020697
 30
0.0
 11
-440.86421653433536
 21
-616.82883934022288
 31
0.0
  0
ARC
  5
1FA
100
AcDbEntity
  8
ARJ70-1002
370
              15
390
0
  6
Continuous
 62
               7
100
AcDbCircle
 10
-68.888960655326628
 20
-783.82883934022288
 30
0.0
 40
18.0
100
AcDbArc
 50
270.0
 51
0.0
  0
ARC
  5
1FB
100
AcDbEntity
  8
ARJ70-1002
370
              15
390
0
  6
Continuous
 62
               7
100
AcDbCircle
 10
-68.888960655326628
 20
-783.82883934022288
 30
0.0
 40
15.837549313924683
100
AcDbArc
 50
270.0
 51
0.0
  0
ARC
  5
1FC
100
AcDbEntity
  8
ARJ70-1002
370
              15
390
0
  6
Continuous
 62
               7
100
AcDbCircle
 10
-562.8889606553264
 20
-783.82883934022288
 30
0.0
 40
18.0
100
AcDbArc
 50
180.0
 51
270.0
  0
ARC
  5
1FD
100
AcDbEntity
  8
ARJ70-1002
370
              15
390
0
  6
Continuous
 62
               7
100
AcDbCircle
 10
-562.8889606553264
 20
-783.82883934022288
 30
0.0
 40
15.837549313924683
100
AcDbArc
 50
180.0
 51
270.0
  0
LINE
  5
1FE
100
AcDbEntity
  8
ARJ70-1002
370
              15
390
0
  6
Continuous
 62
               7
100
AcDbLine
 10
-125.8684755468405
 20
-351.82883934021561
 30
0.0
 11
-125.87266255794248
 21
-616.82899734686066
 31
0.0
  0
LINE
  5
1FF
100
AcDbEntity
  8
ARJ70-1002
370
              15
390
0
  6
Continuous
 62
               7
100
AcDbLine
 10
-600.88896065532504
 20
-738.80586413961169
 30
0.0
 11
-600.88896065532322
 21
-351.82883934021379
 31
0.0
  0
ARC
  5
200
100
AcDbEntity
  8
ARJ70-1002
370
              15
390
0
  6
Continuous
 62
               7
100
AcDbCircle
 10
-597.88896065532549
 20
-738.80586413961169
 30
0.0
 40
3.0
100
AcDbArc
 50
180.0
 51
270.00000000007816
  0
LINE
  5
201
100
AcDbEntity
  8
ARJ70-1002
370
              15
390
0
  6
Continuous
 62
               7
100
AcDbLine
 10
-592.48946592612151
 20
-741.80586413960395
 30
0.0
 11
-597.88896065532094
 21
-741.80586413961169
 31
0.0
  0
CIRCLE
  5
202
100
AcDbEntity
  8
ARJ70-1002
370
              15
390
0
  6
Continuous
 62
               7
100
AcDbCircle
 10
-335.89323158727257
 20
-351.82883934021561
 30
0.0
 40
22.5
  0
CIRCLE
  5
203
100
AcDbEntity
  8
ARJ70-1002
370
              15
390
0
  6
Continuous
 62
               7
100
AcDbCircle
 10
-335.89323158727257
 20
-351.82883934021561
 30
0.0
 40
35.0
  0
ARC
  5
204
100
AcDbEntity
  8
ARJ70-1002
370
              15
390
0
  6
Continuous
 62
               7
100
AcDbCircle
 10
-135.87266255669397
 20
-616.82883934653069
 30
0.0
 40
10.0
100
AcDbArc
 50
270.0
 51
359.99909472479311
  0
ARC
  5
205
100
AcDbEntity
  8
ARJ70-1002
370
              15
390
0
  6
Continuous
 62
               7
100
AcDbCircle
 10
-430.86421653433536
 20
-616.82883934022288
 30
0.0
 40
10.0
100
AcDbArc
 50
180.0
 51
270.0
  0
CIRCLE
  5
206
100
AcDbEntity
  8
ARJ70-1002
370
              15
390
0
  6
Continuous
 62
               7
100
AcDbCircle
 10
-495.89323158727234
 20
-351.82883934021561
 30
0.0
 40
17.5
  0
LINE
  5
207
100
AcDbEntity
  8
ARJ70-1002
370
              15
390
0
  6
Continuous
 62
               7
100
AcDbLine
 10
-50.88896065532299
 20
-351.82883934022288
 30
0.0
 11
-50.888960655325491
 21
80.171160659777115
 31
0.0
  0
LINE
  5
208
100
AcDbEntity
  8
ARJ70-1002
370
              15
390
0
  6
Continuous
 62
               7
100
AcDbLine
 10
-53.051411341398307
 20
-351.82883934022288
 30
0.0
 11
-53.051411341400581
 21
80.171160659777115
 31
0.0
  0
LINE
  5
209
100
AcDbEntity
  8
ARJ70-1002
370
              15
390
0
  6
Continuous
 62
               7
100
AcDbLine
 10
-562.8889606553264
 20
98.171160659777115
 30
0.0
 11
-68.888960655326628
 21
98.171160659777115
 31
0.0
  0
LINE
  5
20A
100
AcDbEntity
  8
ARJ70-1002
370
              15
390
0
  6
Continuous
 62
               7
100
AcDbLine
 10
-562.8889606553264
 20
96.008709973700434
 30
0.0
 11
-68.888960655326628
 21
96.008709973700434
 31
0.0
  0
LINE
  5
20B
100
AcDbEntity
  8
ARJ70-1002
370
              15
390
0
  6
Continuous
 62
               7
100
AcDbLine
 10
-440.86421653433899
 20
-351.82883934022288
 30
0.0
 11
-440.86421653433604
 21
-86.828839340208788
 31
0.0
  0
ARC
  5
20C
100
AcDbEntity
  8
ARJ70-1002
370
              15
390
0
  6
Continuous
 62
               7
100
AcDbCircle
 10
-68.888960655326628
 20
80.171160659777115
 30
0.0
 40
18.0
100
AcDbArc
 50
0.0
 51
90.0
  0
ARC
  5
20D
100
AcDbEntity
  8
ARJ70-1002
370
              15
390
0
  6
Continuous
 62
               7
100
AcDbCircle
 10
-68.888960655326628
 20
80.171160659777115
 30
0.0
 40
15.837549313924683
100
AcDbArc
 50
0.0
 51
90.0
  0
ARC
  5
20E
100
AcDbEntity
  8
ARJ70-1002
370
              15
390
0
  6
Continuous
 62
               7
100
AcDbCircle
 10
-562.8889606553264
 20
80.171160659777115
 30
0.0
 40
18.0
100
AcDbArc
 50
90.0
 51
180.0
  0
LINE
  5
20F
100
AcDbEntity
  8
ARJ70-1002
370
              15
390
0
  6
Continuous
 62
               7
100
AcDbLine
 10
-125.8684755468405
 20
-351.82883934021561
 30
0.0
 11
-125.87266255794248
 21
-86.82868133357556
 31
0.0
  0
LINE
  5
210
100
AcDbEntity
  8
ARJ70-1002
370
              15
390
0
  6
Continuous
 62
               7
100
AcDbLine
 10
-580.8889606553264
 20
-783.82883934022288
 30
0.0
 11
-580.8889606553646
 21
-753.40636941032994
 31
0.0
  0
LINE
  5
211
100
AcDbEntity
  8
ARJ70-1002
370
              15
390
0
  6
Continuous
 62
               7
100
AcDbLine
 10
-554.2017980353628
 20
-785.141676720227
 30
0.0
 11
-77.576123275321834
 21
-785.141676720227
 31
0.0
  0
ARC
  5
212
100
AcDbEntity
  8
ARJ70-1002
370
              15
390
0
  6
Continuous
 62
               7
100
AcDbCircle
 10
-554.2017980353628
 20
-775.141676720227
 30
0.0
 40
10.0
100
AcDbArc
 50
180.0
 51
270.0
  0
ARC
  5
213
100
AcDbEntity
  8
ARJ70-1002
370
              15
390
0
  6
Continuous
 62
               7
100
AcDbCircle
 10
-77.576123275321834
 20
-775.141676720227
 30
0.0
 40
10.0
100
AcDbArc
 50
270.0
 51
0.0
  0
LINE
  5
214
100
AcDbEntity
  8
ARJ70-1002
370
              15
390
0
  6
Continuous
 62
               7
100
AcDbLine
 10
-550.36088902173356
 20
-776.30076770659684
 30
0.0
 11
-81.417032288953806
 21
-776.30076770659684
 31
0.0
  0
ARC
  5
215
100
AcDbEntity
  8
ARJ70-1002
370
              15
390
0
  6
Continuous
 62
               7
100
AcDbCircle
 10
-81.417032288953806
 20
-771.30076770659684
 30
0.0
 40
5.0
100
AcDbArc
 50
270.0
 51
0.0
  0
LINE
  5
216
100
AcDbEntity
  8
ARJ70-1002
370
              15
390
0
  6
Continuous
 62
               7
100
AcDbLine
 10
-578.72650996928473
 20
-783.82883934022288
 30
0.0
 11
-578.72650996928473
 21
80.171160659777115
 31
0.0
  0
LINE
  5
217
100
AcDbEntity
  8
ARJ70-1002
370
              15
390
0
  6
Continuous
 62
               7
100
AcDbLine
 10
-555.36088902173401
 20
-771.30076770659684
 30
0.0
 11
-555.36088902173401
 21
-351.82883934021561
 31
0.0
  0
ARC
  5
218
100
AcDbEntity
  8
ARJ70-1002
370
              15
390
0
  6
Continuous
 62
               7
100
AcDbCircle
 10
-550.36088902173356
 20
-771.30076770659684
 30
0.0
 40
5.0
100
AcDbArc
 50
180.0
 51
270.0
  0
LINE
  5
219
100
AcDbEntity
  8
ARJ70-1002
370
              15
390
0
  6
Continuous
 62
               7
100
AcDbLine
 10
-564.2017980353628
 20
-775.141676720227
 30
0.0
 11
-564.2017980353628
 21
-351.82883934021697
 31
0.0
  0
ARC
  5
21A
100
AcDbEntity
  8
ARJ70-1002
370
              15
390
0
  6
Continuous
 62
               7
100
AcDbCircle
 10
-595.88896065535914
 20
53.148185459162278
 30
0.0
 40
15.0
100
AcDbArc
 50
270.0
 51
0.0
  0
ARC
  5
21B
100
AcDbEntity
  8
ARJ70-1002
370
              15
390
0
  6
Continuous
 62
               7
100
AcDbCircle
 10
-595.88896065535914
 20
55.31063614523714
 30
0.0
 40
17.162450686075317
100
AcDbArc
 50
270.0
 51
0.0
  0
LINE
  5
21C
100
AcDbEntity
  8
ARJ70-1002
370
              15
390
0
  6
Continuous
 62
               7
100
AcDbLine
 10
-580.8889606553264
 20
54.348185459161186
 30
0.0
 11
-580.8889606553264
 21
53.148185459162278
 31
0.0
  0
LINE
  5
21D
100
AcDbEntity
  8
ARJ70-1002
370
              15
390
0
  6
Continuous
 62
               7
100
AcDbLine
 10
-580.8889606553264
 20
80.171160659777115
 30
0.0
 11
-580.88896065535914
 21
54.348185459147089
 31
0.0
  0
ARC
  5
21E
100
AcDbEntity
  8
ARJ70-1002
370
              15
390
0
  6
Continuous
 62
               7
100
AcDbCircle
 10
-562.8889606553264
 20
80.171160659777115
 30
0.0
 40
15.837549313924683
100
AcDbArc
 50
90.0
 51
180.0
  0
LINE
  5
21F
100
AcDbEntity
  8
ARJ70-1002
370
              15
390
0
  6
Continuous
 62
               7
100
AcDbLine
 10
-76.417032288950622
 20
-351.82883934022198
 30
0.0
 11
-76.417032288953123
 21
67.643089026151074
 31
0.0
  0
LINE
  5
220
100
AcDbEntity
  8
ARJ70-1002
370
              15
390
0
  6
Continuous
 62
               7
100
AcDbLine
 10
-67.576123275320469
 20
-351.82883934022198
 30
0.0
 11
-67.576123275321379
 21
71.483998039782136
 31
0.0
  0
LINE
  5
221
100
AcDbEntity
  8
ARJ70-1002
370
              15
390
0
  6
Continuous
 62
               7
100
AcDbLine
 10
-554.2017980353628
 20
81.483998039782136
 30
0.0
 11
-77.576123275321834
 21
81.483998039782136
 31
0.0
  0
ARC
  5
222
100
AcDbEntity
  8
ARJ70-1002
370
              15
390
0
  6
Continuous
 62
               7
100
AcDbCircle
 10
-554.2017980353628
 20
71.483998039782136
 30
0.0
 40
10.0
100
AcDbArc
 50
90.0
 51
180.0
  0
ARC
  5
223
100
AcDbEntity
  8
ARJ70-1002
370
              15
390
0
  6
Continuous
 62
               7
100
AcDbCircle
 10
-77.576123275321834
 20
71.483998039782136
 30
0.0
 40
10.0
100
AcDbArc
 50
0.0
 51
90.0
  0
LINE
  5
224
100
AcDbEntity
  8
ARJ70-1002
370
              15
390
0
  6
Continuous
 62
               7
100
AcDbLine
 10
-550.36088902173356
 20
72.643089026150164
 30
0.0
 11
-81.417032288953806
 21
72.643089026150164
 31
0.0
  0
ARC
  5
225
100
AcDbEntity
  8
ARJ70-1002
370
              15
390
0
  6
Continuous
 62
               7
100
AcDbCircle
 10
-81.417032288953806
 20
67.643089026151074
 30
0.0
 40
5.0
100
AcDbArc
 50
0.0
 51
90.0
  0
LINE
  5
226
100
AcDbEntity
  8
ARJ70-1002
370
              15
390
0
  6
Continuous
 62
               7
100
AcDbLine
 10
-555.36088902173401
 20
67.643089026151074
 30
0.0
 11
-555.36088902173401
 21
-351.82883934021379
 31
0.0
  0
ARC
  5
227
100
AcDbEntity
  8
ARJ70-1002
370
              15
390
0
  6
Continuous
 62
               7
100
AcDbCircle
 10
-550.36088902173356
 20
67.643089026151074
 30
0.0
 40
5.0
100
AcDbArc
 50
90.0
 51
180.0
  0
LINE
  5
228
100
AcDbEntity
  8
ARJ70-1002
370
              15
390
0
  6
Continuous
 62
               7
100
AcDbLine
 10
-564.2017980353628
 20
71.483998039782136
 30
0.0
 11
-564.2017980353628
 21
-351.82883934021379
 31
0.0
  0
ARC
  5
229
100
AcDbEntity
  8
ARJ70-1002
370
              15
390
0
  6
Continuous
 62
               7
100
AcDbCircle
 10
-592.48946592610423
 20
-753.40636941034404
 30
0.0
 40
11.600505270740086
100
AcDbArc
 50
0.0000000000516587
 51
90.000000000076383
  0
ARC
  5
22A
100
AcDbEntity
  8
ARJ70-1002
370
              15
390
0
  6
Continuous
 62
               7
100
AcDbCircle
 10
-592.48946592610241
 20
-755.56882009642391
 30
0.0
 40
13.762955956820861
100
AcDbArc
 50
0.0000000000530077
 51
90.00000000007951
  0
LINE
  5
22B
100
AcDbEntity
  8
ARJ70-1002
370
              15
390
0
  6
Continuous
 62
               7
100
AcDbLine
 10
-600.88896065532549
 20
35.148185459164097
 30
0.0
 11
-600.88896065532322
 21
-351.82883934021697
 31
0.0
  0
LINE
  5
22C
100
AcDbEntity
  8
ARJ70-1002
370
              15
390
0
  6
Continuous
 62
               7
100
AcDbLine
 10
-592.48946592612151
 20
38.148185459157276
 30
0.0
 11
-597.88896065532094
 21
38.148185459165461
 31
0.0
  0
ARC
  5
22D
100
AcDbEntity
  8
ARJ70-1002
370
              15
390
0
  6
Continuous
 62
               7
100
AcDbCircle
 10
-597.88896065532549
 20
35.148185459164097
 30
0.0
 40
3.0
100
AcDbArc
 50
89.999999999921855
 51
180.0
  0
ARC
  5
22E
100
AcDbEntity
  8
ARJ70-1002
370
              15
390
0
  6
Continuous
 62
               7
100
AcDbCircle
 10
-339.84273992284716
 20
-1338.0711086142276
 30
0.0
 40
752.05422018416118
100
AcDbArc
 50
74.263318451611042
 51
89.295301937570756
  0
ARC
  5
22F
100
AcDbEntity
  8
ARJ70-1002
370
              15
390
0
  6
Continuous
 62
               7
100
AcDbCircle
 10
-330.69394081153609
 20
-798.77616749599179
 30
0.0
 40
212.70242094499253
100
AcDbArc
 50
89.972871894448446
 51
118.09539162115952
  0
LINE
  5
230
100
AcDbEntity
  8
ARJ70-1002
370
              15
390
0
  6
Continuous
 62
               7
100
AcDbLine
 10
-430.86421653433536
 20
-76.828839340208788
 30
0.0
 11
-135.87306180443034
 21
-76.828839340208788
 31
0.0
  0
ARC
  5
231
100
AcDbEntity
  8
ARJ70-1002
370
              15
390
0
  6
Continuous
 62
               7
100
AcDbCircle
 10
-135.87266255669397
 20
-86.828839333900987
 30
0.0
 40
9.9999999999999236
100
AcDbArc
 50
0.0009052752069621
 51
90.0
  0
ARC
  5
232
100
AcDbEntity
  8
ARJ70-1002
370
              15
390
0
  6
Continuous
 62
               7
100
AcDbCircle
 10
-430.86421653433536
 20
-86.828839340208788
 30
0.0
 40
10.0
100
AcDbArc
 50
90.0
 51
180.0
  0
ARC
  5
233
100
AcDbEntity
  8
ARJ70-1002
370
              15
390
0
  6
Continuous
 62
               7
100
AcDbCircle
 10
-339.84273992284716
 20
634.41342993379942
 30
0.0
 40
752.05422018416334
100
AcDbArc
 50
270.7046980624292
 51
285.73668154838236
  0
ARC
  5
234
100
AcDbEntity
  8
ARJ70-1002
370
              15
390
0
  6
Continuous
 62
               7
100
AcDbCircle
 10
-330.69394081153609
 20
95.118488815561022
 30
0.0
 40
212.70242094499272
100
AcDbArc
 50
241.90460837884038
 51
270.02712810555147
  0
CIRCLE
  5
235
100
AcDbEntity
  8
ARJ70-1002
370
              15
390
0
  6
STYLE_13
 62
               7
100
AcDbCircle
 10
-485.89323158727234
 20
-451.84350068950175
 30
0.0
 40
15.0
  0
CIRCLE
  5
236
100
AcDbEntity
  8
ARJ70-1002
370
              15
390
0
  6
STYLE_13
 62
               7
100
AcDbCircle
 10
-485.89323158727234
 20
-251.86790531189376
 30
0.0
 40
15.0
  0
LINE
  5
237
100
AcDbEntity
  8
ARJ70-1002
370
              15
390
0
  6
Continuous
 62
               7
100
AcDbLine
 10
498.82010637901408
 20
640.77578508968588
 30
0.0
 11
498.82010637901408
 21
1151.2712819815031
 31
0.0
  0
LINE
  5
238
100
AcDbEntity
  8
ARJ70-1002
370
              15
390
0
  6
Continuous
 62
               7
100
AcDbLine
 10
630.66127625098557
 20
690.83626701544222
 30
0.0
 11
573.74459193706957
 21
690.83358995105323
 31
0.0
  0
LINE
  5
239
100
AcDbEntity
  8
ARJ70-1002
370
              15
390
0
  6
Continuous
 62
               7
100
AcDbLine
 10
633.6612761872625
 20
693.83688530038876
 30
0.0
 11
633.57085121477053
 21
1161.0871785277093
 31
0.0
  0
LINE
  5
23A
100
AcDbEntity
  8
ARJ70-1002
370
              15
390
0
  6
Continuous
 62
               7
100
AcDbLine
 10
573.74459193706957
 20
635.61333440361784
 30
0.0
 11
573.74459193706957
 21
1156.4306849460816
 31
0.0
  0
LINE
  5
23B
100
AcDbEntity
  8
ARJ70-1002
370
              15
390
0
  6
Continuous
 62
               7
100
AcDbLine
 10
669.6124623130695
 20
1180.886025720273
 30
0.0
 11
669.61246231309246
 21
1161.0871785277093
 31
0.0
  0
LINE
  5
23C
100
AcDbEntity
  8
ARJ70-1002
370
              15
390
0
  6
Continuous
 62
               7
100
AcDbLine
 10
518.58461745587829
 20
1180.886025720695
 30
0.0
 11
518.58461745587829
 21
1164.4096093509695
 31
0.0
  0
LINE
  5
23D
100
AcDbEntity
  8
ARJ70-1002
370
              15
390
0
  6
Continuous
 62
               7
100
AcDbLine
 10
669.6124623130695
 20
1180.886025720273
 30
0.0
 11
518.58461745587829
 21
1180.886025720695
 31
0.0
  0
ARC
  5
23E
100
AcDbEntity
  8
ARJ70-1002
370
              15
390
0
  6
Continuous
 62
               7
100
AcDbCircle
 10
630.66127625099352
 20
693.83626701544222
 30
0.0
 40
3.0000000000000568
100
AcDbArc
 50
270.0
 51
0.011808372463463
  0
ARC
  5
23F
100
AcDbEntity
  8
ARJ70-1002
370
              15
390
0
  6
Continuous
 62
               7
100
AcDbCircle
 10
513.58461745588511
 20
1164.4096093509695
 30
0.0
 40
5.0000000000000018
100
AcDbArc
 50
270.0
 51
0.0
  0
ARC
  5
240
100
AcDbEntity
  8
ARJ70-1002
370
              15
390
0
  6
Continuous
 62
               7
100
AcDbCircle
 10
470.41498479499228
 20
867.79521357502028
 30
0.0
 40
199.16858358847355
100
AcDbArc
 50
325.04245628769587
 51
3.1920465467723034
  0
LINE
  5
241
100
AcDbEntity
  8
ARJ70-1002
370
              15
390
0
  6
Continuous
 62
               7
100
AcDbLine
 10
633.56966769282258
 20
1161.0871785277093
 30
0.0
 11
669.61246231309246
 21
1161.0871785277093
 31
0.0
  0
ARC
  5
242
100
AcDbEntity
  8
ARJ70-1002
370
              15
390
0
  6
Continuous
 62
               7
100
AcDbCircle
 10
412.58378093218516
 20
834.42223213163027
 30
0.0
 40
280.24657357723254
100
AcDbArc
 50
23.659543739142507
 51
37.941274684339973
  0
LINE
  5
243
100
AcDbEntity
  8
ARJ70-1002
370
              15
390
0
  6
Continuous
 62
               7
100
AcDbLine
 10
669.27455899631855
 20
947.21081612586045
 30
0.0
 11
669.27455899631059
 21
878.94195130192031
 31
0.0
  0
ARC
  5
244
100
AcDbEntity
  8
ARJ70-1002
370
              15
390
0
  6
Continuous
 62
               7
100
AcDbCircle
 10
568.74459193706844
 20
635.61333440361784
 30
0.0
 40
5.0
100
AcDbArc
 50
270.0
 51
0.0
  0
ARC
  5
245
100
AcDbEntity
  8
ARJ70-1002
370
              15
390
0
  6
Continuous
 62
               7
100
AcDbCircle
 10
506.82010637901408
 20
640.79527268760819
 30
0.0
 40
8.0
100
AcDbArc
 50
180.0
 51
270.0
  0
LINE
  5
246
100
AcDbEntity
  8
ARJ70-1002
370
              15
390
0
  6
Continuous
 62
               7
100
AcDbLine
 10
568.74459193706161
 20
630.61333440361784
 30
0.0
 11
506.26205458935419
 21
632.79527268760819
 31
0.0
  0
LINE
  5
247
100
AcDbEntity
  8
ARJ70-1002
370
              15
390
0
  6
Continuous
 62
               7
100
AcDbLine
 10
528.75529938661612
 20
1160.0372758002893
 30
0.0
 11
506.26205458935419
 21
1159.2517943836108
 31
0.0
  0
LINE
  5
248
100
AcDbEntity
  8
ARJ70-1002
370
              15
390
0
  6
Continuous
 62
               7
100
AcDbLine
 10
568.57009445355152
 20
1161.4276390811835
 30
0.0
 11
528.75529938661612
 21
1160.0372758002893
 31
0.0
  0
ARC
  5
249
100
AcDbEntity
  8
ARJ70-1002
370
              15
390
0
  6
Continuous
 62
               7
100
AcDbCircle
 10
568.74459193706844
 20
1156.4306849460816
 30
0.0
 40
5.0
100
AcDbArc
 50
0.0
 51
91.999999999792536
  0
ARC
  5
24A
100
AcDbEntity
  8
ARJ70-1002
370
              15
390
0
  6
STYLE_03
 62
               7
100
AcDbCircle
 10
511.82010637901408
 20
1023.8256364945748
 30
0.0
 40
3.0
100
AcDbArc
 50
180.0
 51
270.0
  0
ARC
  5
24B
100
AcDbEntity
  8
ARJ70-1002
370
              15
390
0
  6
STYLE_13
 62
               7
100
AcDbCircle
 10
516.36753736965534
 20
863.94727568504356
 30
0.0
 40
156.97892759554821
100
AcDbArc
 50
35.741730159468339
 51
91.660367076070742
  0
ARC
  5
24C
100
AcDbEntity
  8
ARJ70-1002
370
              15
390
0
  6
STYLE_13
 62
               7
100
AcDbCircle
 10
653.68426681196388
 20
959.35524856807001
 30
0.0
 40
11.080383836743819
100
AcDbArc
 50
199.57005569858137
 51
229.80389785988547
  0
ARC
  5
24D
100
AcDbEntity
  8
ARJ70-1002
370
              15
390
0
  6
STYLE_13
 62
               7
100
AcDbCircle
 10
514.82010637901408
 20
699.00881677584232
 30
0.0
 40
6.0
100
AcDbArc
 50
90.0
 51
179.99999999996962
  0
ARC
  5
24E
100
AcDbEntity
  8
ARJ70-1002
370
              15
390
0
  6
STYLE_13
 62
               7
100
AcDbCircle
 10
654.46946950540564
 20
872.41104852392198
 30
0.0
 40
11.080383836743646
100
AcDbArc
 50
130.1961021401155
 51
160.42994430141971
  0
ARC
  5
24F
100
AcDbEntity
  8
ARJ70-1002
370
              15
390
0
  6
STYLE_13
 62
               7
100
AcDbCircle
 10
468.77440630467368
 20
873.72694059964567
 30
0.0
 40
174.97271205322346
100
AcDbArc
 50
285.63334427490173
 51
0.7844717683174737
  0
LINE
  5
250
100
AcDbEntity
  8
ARJ70-1002
370
              15
390
0
  6
STYLE_13
 62
               7
100
AcDbLine
 10
659.24705776329813
 20
937.76779987268992
 30
0.0
 11
669.38583643792833
 21
937.74136842566486
 31
0.0
  0
LINE
  5
251
100
AcDbEntity
  8
ARJ70-1002
370
              15
390
0
  6
STYLE_13
 62
               7
100
AcDbLine
 10
646.99181132065007
 20
950.66489548943673
 30
0.0
 11
659.1371493069222
 21
937.74136842567987
 31
0.0
  0
LINE
  5
252
100
AcDbEntity
  8
ARJ70-1002
370
              15
390
0
  6
STYLE_13
 62
               7
100
AcDbLine
 10
659.24705776329813
 20
893.65905713352993
 30
0.0
 11
669.38583643792833
 21
893.6854885805559
 31
0.0
  0
LINE
  5
253
100
AcDbEntity
  8
ARJ70-1002
370
              15
390
0
  6
STYLE_13
 62
               7
100
AcDbLine
 10
646.99181132065007
 20
880.76196151678266
 30
0.0
 11
659.1371493069222
 21
893.68548858054089
 31
0.0
  0
LINE
  5
254
100
AcDbEntity
  8
ARJ70-1002
370
              15
390
0
  6
Continuous
 62
               7
100
AcDbLine
 10
669.38583643792833
 20
937.74136842566486
 30
0.0
 11
678.57511780719017
 21
937.74136842566486
 31
0.0
  0
LINE
  5
255
100
AcDbEntity
  8
ARJ70-1002
370
              15
390
0
  6
Continuous
 62
               7
100
AcDbLine
 10
669.38583643792833
 20
893.6854885805559
 30
0.0
 11
678.57511780719017
 21
893.69997046437231
 31
0.0
  0
LINE
  5
256
100
AcDbEntity
  8
ARJ70-1002
370
              15
390
0
  6
STYLE_03
 62
               7
100
AcDbLine
 10
593.74806592640459
 20
-491.82525226360099
 30
0.0
 11
553.74806592640493
 21
-491.82525226360099
 31
0.0
  0
LINE
  5
257
100
AcDbEntity
  8
ARJ70-1002
370
              15
390
0
  6
STYLE_13
 62
               7
100
AcDbLine
 10
593.74806592640459
 20
-674.82525226360099
 30
0.0
 11
553.74806592640493
 21
-674.82525226360099
 31
0.0
  0
LINE
  5
258
100
AcDbEntity
  8
ARJ70-1002
370
              15
390
0
  6
STYLE_13
 62
               7
100
AcDbLine
 10
593.74806592640459
 20
-211.82525226360099
 30
0.0
 11
553.74806592640493
 21
-211.82525226360099
 31
0.0
  0
LINE
  5
259
100
AcDbEntity
  8
ARJ70-1002
370
              15
390
0
  6
STYLE_13
 62
               7
100
AcDbLine
 10
593.74806592640459
 20
-28.825252263600987
 30
0.0
 11
553.74806592640493
 21
-28.825252263600987
 31
0.0
  0
ARC
  5
25A
100
AcDbEntity
  8
ARJ70-1002
370
              15
390
0
  6
Continuous
 62
               7
100
AcDbCircle
 10
506.8542813135457
 20
87.990578189402186
 30
0.0
 40
8.0194191322393351
100
AcDbArc
 50
93.751930566898253
 51
179.8448265930316
  0
LINE
  5
25B
100
AcDbEntity
  8
ARJ70-1002
370
              15
390
0
  6
STYLE_13
 62
               7
100
AcDbLine
 10
508.84610695740162
 20
-777.59065223085349
 30
0.0
 11
508.82411152380996
 21
-724.92280544049822
 31
0.0
  0
LINE
  5
25C
100
AcDbEntity
  8
ARJ70-1002
370
              15
390
0
  6
STYLE_13
 62
               7
100
AcDbLine
 10
502.21225173416792
 20
-784.8828598845314
 30
0.0
 11
506.74076605796768
 21
-781.6675320048264
 31
0.0
  0
LINE
  5
25D
100
AcDbEntity
  8
ARJ70-1002
370
              15
390
0
  6
STYLE_13
 62
               7
100
AcDbLine
 10
643.5570569984335
 20
-636.0
 30
0.0
 11
647.46796503276391
 21
-386.19873194034585
 31
0.0
  0
LINE
  5
25E
100
AcDbEntity
  8
ARJ70-1002
370
              15
390
0
  6
STYLE_01
 62
               7
100
AcDbLine
 10
659.31593050169818
 20
-373.59163096371617
 30
0.0
 11
669.06872751104379
 21
-373.59163096371617
 31
0.0
  0
LINE
  5
25F
100
AcDbEntity
  8
ARJ70-1002
370
              15
390
0
  6
STYLE_01
 62
               7
100
AcDbLine
 10
647.17059251542605
 20
-386.51515802747303
 30
0.0
 11
659.31593050169818
 21
-373.59163096371617
 31
0.0
  0
ARC
  5
260
100
AcDbEntity
  8
ARJ70-1002
370
              15
390
0
  6
STYLE_13
 62
               7
100
AcDbCircle
 10
506.84610695738797
 20
-791.40416234417648
 30
0.0
 40
8.0000000000002132
100
AcDbArc
 50
125.35435825079276
 51
180.0
  0
ARC
  5
261
100
AcDbEntity
  8
ARJ70-1002
370
              15
390
0
  6
STYLE_13
 62
               7
100
AcDbCircle
 10
503.84610695740298
 20
-777.59065223085349
 30
0.0
 40
4.999999999999817
100
AcDbArc
 50
305.37544757788538
 51
0.0
  0
LINE
  5
262
100
AcDbEntity
  8
ARJ70-1002
370
              15
390
0
  6
STYLE_13
 62
               7
100
AcDbLine
 10
508.82837935514385
 20
-735.14208507529452
 30
0.0
 11
508.82411152380996
 21
22.436966159813664
 31
0.0
  0
LINE
  5
263
100
AcDbEntity
  8
ARJ70-1002
370
              15
390
0
  6
STYLE_13
 62
               7
100
AcDbLine
 10
512.21812837767061
 20
-676.38029124190666
 30
0.0
 11
640.62388808100309
 21
-642.06242419103887
 31
0.0
  0
ARC
  5
264
100
AcDbEntity
  8
ARJ70-1002
370
              15
390
0
  6
STYLE_13
 62
               7
100
AcDbCircle
 10
514.17492243873562
 20
-680.98148206630435
 30
0.0
 40
4.9999999999998375
100
AcDbArc
 50
113.03907511982246
 51
180.02392817523418
  0
ARC
  5
265
100
AcDbEntity
  8
ARJ70-1002
370
              15
390
0
  6
STYLE_13
 62
               7
100
AcDbCircle
 10
638.66709401992421
 20
-637.46123336664073
 30
0.0
 40
4.9999999999999263
100
AcDbArc
 50
293.03907511982493
 51
358.69491583378215
  0
LINE
  5
266
100
AcDbEntity
  8
ARJ70-1002
370
              15
390
0
  6
STYLE_13
 62
               7
100
AcDbLine
 10
508.84610695740162
 20
75.104812950169389
 30
0.0
 11
508.82411152380996
 21
22.436966159813664
 31
0.0
  0
LINE
  5
267
100
AcDbEntity
  8
ARJ70-1002
370
              15
390
0
  6
STYLE_13
 62
               7
100
AcDbLine
 10
643.55329633018437
 20
-66.376398238209958
 30
0.0
 11
647.17059251542605
 21
-316.61222405481908
 31
0.0
  0
LINE
  5
268
100
AcDbEntity
  8
ARJ70-1002
370
              15
390
0
  6
STYLE_01
 62
               7
100
AcDbLine
 10
659.31593050169818
 20
-329.53575111857731
 30
0.0
 11
669.56850879709543
 21
-329.53575111857731
 31
0.0
  0
LINE
  5
269
100
AcDbEntity
  8
ARJ70-1002
370
              15
390
0
  6
STYLE_01
 62
               7
100
AcDbLine
 10
647.17059251542605
 20
-316.61222405481908
 30
0.0
 11
659.31593050169818
 21
-329.53575111857731
 31
0.0
  0
LINE
  5
26A
100
AcDbEntity
  8
ARJ70-1002
370
              15
390
0
  6
STYLE_13
 62
               7
100
AcDbLine
 10
512.21812837767061
 20
-26.105548038777442
 30
0.0
 11
640.61841202452626
 21
-60.891145783011325
 31
0.0
  0
ARC
  5
26B
100
AcDbEntity
  8
ARJ70-1002
370
              15
390
0
  6
STYLE_13
 62
               7
100
AcDbCircle
 10
514.17492243873562
 20
-21.504357214364745
 30
0.0
 40
4.9999999999998419
100
AcDbArc
 50
179.97607182476582
 51
246.96092488017854
  0
ARC
  5
26C
100
AcDbEntity
  8
ARJ70-1002
370
              15
390
0
  6
STYLE_13
 62
               7
100
AcDbCircle
 10
638.59346087865003
 20
-65.743917422115146
 30
0.0
 40
4.9999999999999147
100
AcDbArc
 50
1.3050841662179062
 51
66.960924880175142
  0
LINE
  5
26D
100
AcDbEntity
  8
ARJ70-1002
370
              15
390
0
  6
STYLE_13
 62
               7
100
AcDbLine
 10
502.21705368710286
 20
82.393611129558622
 30
0.0
 11
505.49043052060574
 21
80.069453792075592
 31
0.0
  0
ARC
  5
26E
100
AcDbEntity
  8
ARJ70-1002
370
              15
390
0
  6
STYLE_13
 62
               7
100
AcDbCircle
 10
506.84610695738797
 20
88.918323063491471
 30
0.0
 40
8.0
100
AcDbArc
 50
180.0
 51
234.64564174938747
  0
ARC
  5
26F
100
AcDbEntity
  8
ARJ70-1002
370
              15
390
0
  6
STYLE_13
 62
               7
100
AcDbCircle
 10
500.85897595967776
 20
73.546446153715578
 30
0.0
 40
8.0
100
AcDbArc
 50
0.0
 51
54.624552421617125
  0
CIRCLE
  5
270
100
AcDbEntity
  8
ARJ70-1002
370
              15
390
0
  6
STYLE_13
 62
               7
100
AcDbCircle
 10
573.74806592640459
 20
-674.82525226360099
 30
0.0
 40
10.0
  0
CIRCLE
  5
271
100
AcDbEntity
  8
ARJ70-1002
370
              15
390
0
  6
STYLE_13
 62
               7
100
AcDbCircle
 10
573.74806592640459
 20
-491.82525226360099
 30
0.0
 40
10.0
  0
CIRCLE
  5
272
100
AcDbEntity
  8
ARJ70-1002
370
              15
390
0
  6
STYLE_13
 62
               7
100
AcDbCircle
 10
573.74806592640459
 20
-211.82525226360099
 30
0.0
 40
10.0
  0
CIRCLE
  5
273
100
AcDbEntity
  8
ARJ70-1002
370
              15
390
0
  6
STYLE_13
 62
               7
100
AcDbCircle
 10
573.74806592640459
 20
-28.825252263600987
 30
0.0
 40
10.0
  0
INSERT
  5
274
100
AcDbEntity
  8
ARJ70-1002
390
0
 62
               7
100
AcDbBlockReference
  2
グループ-1
 10
1592.1379009009454
 20
1164.814664889416
 30
0.0
  0
ARC
  5
275
100
AcDbEntity
  8
ARJ70-1002
370
              15
390
0
  6
Continuous
 62
               7
100
AcDbCircle
 10
506.87614459586143
 20
1151.217339614677
 30
0.0
 40
8.0194191322393102
100
AcDbArc
 50
93.751930566895012
 51
179.8448265930316
  0
LINE
  5
276
100
AcDbEntity
  8
ARJ70-1002
370
              15
390
0
  6
STYLE_13
 62
               7
100
AcDbLine
 10
508.86797023971781
 20
1138.3315743754442
 30
0.0
 11
508.66707054382346
 21
657.2792523388697
 31
0.0
  0
LINE
  5
277
100
AcDbEntity
  8
ARJ70-1002
370
              15
390
0
  6
STYLE_13
 62
               7
100
AcDbLine
 10
502.2389169694186
 20
1145.6203725548335
 30
0.0
 11
505.51229380292193
 21
1143.2962152173504
 31
0.0
  0
ARC
  5
278
100
AcDbEntity
  8
ARJ70-1002
370
              15
390
0
  6
STYLE_13
 62
               7
100
AcDbCircle
 10
506.86797023970371
 20
1152.1450844887663
 30
0.0
 40
8.0
100
AcDbArc
 50
180.0
 51
234.6456417493888
  0
ARC
  5
279
100
AcDbEntity
  8
ARJ70-1002
370
              15
390
0
  6
STYLE_13
 62
               7
100
AcDbCircle
 10
500.88083924199395
 20
1136.7732075789904
 30
0.0
 40
8.0
100
AcDbArc
 50
0.0
 51
54.624552421619796
  0
INSERT
  5
27A
100
AcDbEntity
  8
ARJ70-1002
390
0
 62
               7
100
AcDbBlockReference
  2
グループ-2
 10
1592.1379009009454
 20
1164.814664889416
 30
0.0
  0
LINE
  5
27B
100
AcDbEntity
  8
ARJ70-1002
370
              15
390
0
  6
STYLE_13
 62
               7
100
AcDbLine
 10
505.46202865158921
 20
650.7544711188533
 30
0.0
 11
502.1886518180861
 21
648.43031378137027
 31
0.0
  0
ARC
  5
27C
100
AcDbEntity
  8
ARJ70-1002
370
              15
390
0
  6
STYLE_13
 62
               7
100
AcDbCircle
 10
500.8329753813041
 20
657.27918305278604
 30
0.0
 40
7.9999999999998312
100
AcDbArc
 50
305.35435825061302
 51
0.0
  0
ARC
  5
27D
100
AcDbEntity
  8
ARJ70-1002
370
              15
390
0
  6
STYLE_13
 62
               7
100
AcDbCircle
 10
506.82010637901408
 20
641.90730614301026
 30
0.0
 40
8.0000000000000941
100
AcDbArc
 50
125.37544757838155
 51
180.0
  0
ARC
  5
27E
100
AcDbEntity
  8
ARJ70-1002
370
              15
390
0
  6
Continuous
 62
               7
100
AcDbCircle
 10
1159.231451381504
 20
172.67491224873515
 30
0.0
 40
543.45740440961538
100
AcDbArc
 50
194.72806414581277
 51
205.17334223034536
  0
ARC
  5
27F
100
AcDbEntity
  8
ARJ70-1002
370
              15
390
0
  6
Continuous
 62
               7
100
AcDbCircle
 10
1159.231451381504
 20
-876.32541677593667
 30
0.0
 40
543.45740440961515
100
AcDbArc
 50
154.82665776965473
 51
165.27193585418732
  0
LINE
  5
280
100
AcDbEntity
  8
ARJ70-1002
370
               5
390
0
  6
STYLE_03
 62
               7
100
AcDbLine
 10
644.02917019009919
 20
876.12252480383825
 30
0.0
 11
644.02917019009919
 21
953.91888809510385
 31
0.0
  0
DIMENSION
  5
281
100
AcDbEntity
  8
ARJ70-1002
370
               5
390
0
  6
Continuous
 62
               7
100
AcDbDimension
  2
*D27
 10
643.93836705302454
 20
909.0
 30
0.0
 11
456.0
 21
914.0
 31
0.0
 70
             128
 71
               5
 72
               1
 41
1.0
 42
0.0
  3
tform線あり
100
AcDbAlignedDimension
 13
498.93836705302442
 23
885.0
 33
0.0
 14
643.93836705302454
 24
885.0
 34
0.0
100
AcDbRotatedDimension
1001
ACAD
1000
DSTYLE
1002
{
1070
             279
1070
               2
1070
             340
1005
3E
1070
             174
1070
               0
1070
             147
1040
5.0
1002
}
  0
LINE
  5
282
100
AcDbEntity
  8
ARJ70-1002
370
              15
390
0
  6
STYLE_13
 62
               7
100
AcDbLine
 10
508.86797023971781
 20
1138.3315743754442
 30
0.0
 11
508.66707054382346
 21
657.2792523388697
 31
0.0
  0
DIMENSION
  5
283
100
AcDbEntity
  8
ARJ70-1002
370
               5
390
0
  6
Continuous
 62
               7
100
AcDbDimension
  2
*D28
 10
508.82010637901408
 20
1025.8750000000109
 30
0.0
 11
456.0
 21
1030.8750000000109
 31
0.0
 70
             128
 71
               5
 72
               1
 41
1.0
 42
0.0
  3
tform線あり
100
AcDbAlignedDimension
 13
498.82010637901408
 23
1024.0
 33
0.0
 14
508.82010637901408
 24
1023.8256364945748
 34
0.0
100
AcDbRotatedDimension
1001
ACAD
1000
DSTYLE
1002
{
1070
             279
1070
               2
1070
             340
1005
3E
1070
             174
1070
               0
1070
             147
1040
5.0
1002
}
  0
ENDSEC
  0
SECTION
  2
OBJECTS
  0
DICTIONARY
  5
19
100
AcDbDictionary
280
               0
281
               1
  3
ACAD_GROUP
350
1A
  3
ACAD_MLINESTYLE
350
1B
  3
ACAD_LAYOUT
350
1E
  3
ACAD_PLOTSETTINGS
350
22
  3
ACAD_PLOTSTYLENAME
350
1F
  0
DICTIONARY
  5
1A
102
{ACAD_REACTORS
330
19
102
}
100
AcDbDictionary
280
               0
281
               1
  0
DICTIONARY
  5
1B
102
{ACAD_REACTORS
330
19
102
}
100
AcDbDictionary
280
               0
281
               1
  3
Standard
350
1C
  0
MLINESTYLE
  5
1C
102
{ACAD_REACTORS
330
1B
102
}
100
AcDbMlineStyle
  2
Standard
 70
               0
  3

 62
               0
 51
90.0
 52
90.0
 71
               2
 49
0.5
 62
             256
  6
ByLayer
 49
-0.5
 62
             256
  6
ByLayer
  0
ACDBDICTIONARYWDFLT
  5
1F
102
{ACAD_REACTORS
330
19
102
}
100
AcDbDictionary
281
               1
  3
Normal
350
1D
100
AcDbDictionaryWithDefault
340
1D
  0
ACDBPLACEHOLDER
  5
1D
102
{ACAD_REACTORS
330
1F
102
}
  0
LAYOUT
  5
20
102
{ACAD_REACTORS
330
1E
102
}
100
AcDbPlotSettings
  1

  2

  4

  6

 40
0.0
 41
0.0
 42
0.0
 43
0.0
 44
0.0
 45
0.0
 46
0.0
 47
0.0
 48
0.0
 49
0.0
140
0.0
141
0.0
142
1.0
143
1.0
 70
            1024
 72
               0
 73
               0
 74
               0
  7

 75
               0
147
1.0
148
0.0
149
0.0
100
AcDbLayout
  1
Model
 70
               0
 71
               0
 10
0.0
 20
0.0
 11
0.0
 21
0.0
 12
0.0
 22
0.0
 32
0.0
 14
0.0
 24
0.0
 34
0.0
 15
0.0
 25
0.0
 35
0.0
146
0.0
 13
0.0
 23
0.0
 33
0.0
 16
0.0
 26
0.0
 36
0.0
 17
0.0
 27
0.0
 37
0.0
 76
               0
330
A
331
0
345
0
346
0
  0
LAYOUT
  5
21
102
{ACAD_REACTORS
330
1E
102
}
100
AcDbPlotSettings
  1

  2

  4

  6

 40
0.0
 41
0.0
 42
0.0
 43
0.0
 44
0.0
 45
0.0
 46
0.0
 47
0.0
 48
0.0
 49
0.0
140
0.0
141
0.0
142
1.0
143
1.0
 70
               0
 72
               0
 73
               0
 74
               0
  7

 75
               0
147
1.0
148
0.0
149
0.0
100
AcDbLayout
  1
Layout1
 70
               0
 71
               0
 10
0.0
 20
0.0
 11
0.0
 21
0.0
 12
0.0
 22
0.0
 32
0.0
 14
0.0
 24
0.0
 34
0.0
 15
0.0
 25
0.0
 35
0.0
146
0.0
 13
0.0
 23
0.0
 33
0.0
 16
0.0
 26
0.0
 36
0.0
 17
0.0
 27
0.0
 37
0.0
 76
               0
330
B
331
0
345
0
346
0
  0
DICTIONARY
  5
1E
102
{ACAD_REACTORS
330
19
102
}
100
AcDbDictionary
280
               0
281
               1
  3
Layout1
350
21
  3
Model
350
20
  0
DICTIONARY
  5
22
102
{ACAD_REACTORS
330
19
102
}
100
AcDbDictionary
280
               0
281
               1
  0
ENDSEC
  0
EOF
