  0
SECTION
  2
HEADER
  9
$ACADVER
  1
AC1015
  9
$ACADMAINTVER
 70
               6
  9
$DWGCODEPAGE
  3
ANSI_932
  9
$INSBASE
 10
0.0
 20
0.0
 30
0.0
  9
$EXTMIN
 10
-975.00000000024193
 20
-1418.7614075562064
 30
-14.834305555555552
  9
$EXTMAX
 10
975.0000000002417
 20
1418.761407556206
 30
14.834305555555552
  9
$LIMMIN
 10
0.0
 20
0.0
  9
$LIMMAX
 10
0.0
 20
0.0
  9
$ORTHOMODE
 70
               0
  9
$REGENMODE
 70
               1
  9
$FILLMODE
 70
               1
  9
$QTEXTMODE
 70
               0
  9
$MIRRTEXT
 70
               1
  9
$LTSCALE
 40
25.399999999999999
  9
$ATTMODE
 70
               1
  9
$TEXTSIZE
 40
0.2
  9
$TRACEWID
 40
1.0
  9
$TEXTSTYLE
  7
Standard
  9
$CLAYER
  8
ARJ70-1003
  9
$CELTYPE
  6
Continuous
  9
$CECOLOR
 62
             256
  9
$CELTSCALE
 40
1.0
  9
$DISPSILH
 70
               0
  9
$DIMSCALE
 40
1.0
  9
$DIMASZ
 40
31.75
  9
$DIMEXO
 40
0.0
  9
$DIMDLI
 40
6.9999999999999396
  9
$DIMRND
 40
0.0
  9
$DIMDLE
 40
0.0
  9
$DIMEXE
 40
19.999999999996199
  9
$DIMTP
 40
0.0
  9
$DIMTM
 40
0.0
  9
$DIMTXT
 40
24.432617187500004
  9
$DIMCEN
 40
0.0
  9
$DIMTSZ
 40
0.0
  9
$DIMTOL
 70
               0
  9
$DIMLIM
 70
               0
  9
$DIMTIH
 70
               0
  9
$DIMTOH
 70
               0
  9
$DIMSE1
 70
               0
  9
$DIMSE2
 70
               0
  9
$DIMTAD
 70
               1
  9
$DIMZIN
 70
              11
  9
$DIMBLK
  1
VW_FILLEDARROW
  9
$DIMASO
 70
               1
  9
$DIMSHO
 70
               1
  9
$DIMPOST
  1
<>
  9
$DIMAPOST
  1
[]
  9
$DIMALT
 70
               0
  9
$DIMALTD
 70
               1
  9
$DIMALTF
 40
1.0
  9
$DIMLFAC
 40
1.0
  9
$DIMTOFL
 70
               0
  9
$DIMTVP
 40
0.0
  9
$DIMTIX
 70
               1
  9
$DIMSOXD
 70
               0
  9
$DIMSAH
 70
               0
  9
$DIMBLK1
  1

  9
$DIMBLK2
  1

  9
$DIMSTYLE
  2
JIS
  9
$DIMCLRD
 70
               0
  9
$DIMCLRE
 70
               0
  9
$DIMCLRT
 70
               0
  9
$DIMTFAC
 40
1.0
  9
$DIMGAP
 40
1.00000000000108
  9
$DIMJUST
 70
               0
  9
$DIMSD1
 70
               0
  9
$DIMSD2
 70
               0
  9
$DIMTOLJ
 70
               1
  9
$DIMTZIN
 70
              11
  9
$DIMALTZ
 70
              11
  9
$DIMALTTZ
 70
              11
  9
$DIMUPT
 70
               0
  9
$DIMDEC
 70
               1
  9
$DIMTDEC
 70
               1
  9
$DIMALTU
 70
               2
  9
$DIMALTTD
 70
               2
  9
$DIMTXSTY
  7
ＭＳ ゴシック
  9
$DIMAUNIT
 70
               0
  9
$DIMADEC
 70
               2
  9
$DIMALTRND
 40
0.0
  9
$DIMAZIN
 70
               0
  9
$DIMDSEP
 70
              46
  9
$DIMATFIT
 70
               0
  9
$DIMFRAC
 70
               2
  9
$DIMLDRBLK
  1

  9
$DIMLUNIT
 70
               2
  9
$DIMLWD
 70
              -2
  9
$DIMLWE
 70
              -2
  9
$DIMTMOVE
 70
               0
  9
$LUNITS
 70
               2
  9
$LUPREC
 70
               4
  9
$SKETCHINC
 40
0.1
  9
$FILLETRAD
 40
0.0
  9
$AUNITS
 70
               0
  9
$AUPREC
 70
               0
  9
$MENU
  1
acad
  9
$ELEVATION
 40
0.0
  9
$PELEVATION
 40
0.0
  9
$THICKNESS
 40
0.0
  9
$LIMCHECK
 70
               0
  9
$CHAMFERA
 40
0.0
  9
$CHAMFERB
 40
0.0
  9
$CHAMFERC
 40
0.0
  9
$CHAMFERD
 40
0.0
  9
$SKPOLY
 70
               0
  9
$TDCREATE
 40
2455988.716273148
  9
$TDUCREATE
 40
0.000000000
  9
$TDUPDATE
 40
2455988.716273148
  9
$TDUUPDATE
 40
0.000000000
  9
$TDINDWG
 40
0.0000000000
  9
$TDUSRTIMER
 40
0.0000000000
  9
$USRTIMER
 70
               1
  9
$ANGBASE
 50
0.0
  9
$ANGDIR
 70
               0
  9
$PDMODE
 70
               1
  9
$PDSIZE
 40
-2.0
  9
$PLINEWID
 40
0.0
  9
$SPLFRAME
 70
               0
  9
$SPLINETYPE
 70
               6
  9
$SPLINESEGS
 70
               8
  9
$HANDSEED
  5
291
  9
$SURFTAB1
 70
               6
  9
$SURFTAB2
 70
               6
  9
$SURFTYPE
 70
               6
  9
$SURFU
 70
               6
  9
$SURFV
 70
               6
  9
$UCSBASE
  2

  9
$UCSNAME
  2

  9
$UCSORG
 10
0.0
 20
0.0
 30
0.0
  9
$UCSXDIR
 10
1.0
 20
0.0
 30
0.0
  9
$UCSYDIR
 10
0.0
 20
1.0
 30
0.0
  9
$UCSORTHOREF
  2

  9
$UCSORTHOVIEW
 70
               0
  9
$UCSORGTOP
 10
0.0
 20
0.0
 30
0.0
  9
$UCSORGBOTTOM
 10
0.0
 20
0.0
 30
0.0
  9
$UCSORGLEFT
 10
0.0
 20
0.0
 30
0.0
  9
$UCSORGRIGHT
 10
0.0
 20
0.0
 30
0.0
  9
$UCSORGFRONT
 10
0.0
 20
0.0
 30
0.0
  9
$UCSORGBACK
 10
0.0
 20
0.0
 30
0.0
  9
$PUCSBASE
  2

  9
$PUCSNAME
  2

  9
$PUCSORG
 10
0.0
 20
0.0
 30
0.0
  9
$PUCSXDIR
 10
1.0
 20
0.0
 30
0.0
  9
$PUCSYDIR
 10
0.0
 20
1.0
 30
0.0
  9
$PUCSORTHOREF
  2

  9
$PUCSORTHOVIEW
 70
               0
  9
$PUCSORGTOP
 10
0.0
 20
0.0
 30
0.0
  9
$PUCSORGBOTTOM
 10
0.0
 20
0.0
 30
0.0
  9
$PUCSORGLEFT
 10
0.0
 20
0.0
 30
0.0
  9
$PUCSORGRIGHT
 10
0.0
 20
0.0
 30
0.0
  9
$PUCSORGFRONT
 10
0.0
 20
0.0
 30
0.0
  9
$PUCSORGBACK
 10
0.0
 20
0.0
 30
0.0
  9
$USERI1
 70
               0
  9
$USERI2
 70
               0
  9
$USERI3
 70
               0
  9
$USERI4
 70
               0
  9
$USERI5
 70
               0
  9
$USERR1
 40
0.0
  9
$USERR2
 40
0.0
  9
$USERR3
 40
0.0
  9
$USERR4
 40
0.0
  9
$USERR5
 40
0.0
  9
$WORLDVIEW
 70
               1
  9
$SHADEDGE
 70
               3
  9
$SHADEDIF
 70
              70
  9
$TILEMODE
 70
               1
  9
$MAXACTVP
 70
              64
  9
$PINSBASE
 10
0.0
 20
0.0
 30
0.0
  9
$PLIMCHECK
 70
               0
  9
$PEXTMIN
 10
1.0000000000000000E+20
 20
1.0000000000000000E+20
 30
1.0000000000000000E+20
  9
$PEXTMAX
 10
-1.0000000000000000E+20
 20
-1.0000000000000000E+20
 30
-1.0000000000000000E+20
  9
$PLIMMIN
 10
0.0
 20
0.0
  9
$PLIMMAX
 10
12.0
 20
9.0
  9
$UNITMODE
 70
               0
  9
$VISRETAIN
 70
               0
  9
$PLINEGEN
 70
               1
  9
$PSLTSCALE
 70
               0
  9
$TREEDEPTH
 70
            3020
  9
$CMLSTYLE
  2
Standard
  9
$CMLJUST
 70
               0
  9
$CMLSCALE
 40
1.0
  9
$PROXYGRAPHICS
 70
               0
  9
$MEASUREMENT
 70
               1
  9
$CELWEIGHT
370
               0
  9
$ENDCAPS
280
               0
  9
$JOINSTYLE
280
               0
  9
$LWDISPLAY
290
               1
  9
$INSUNITS
 70
               4
  9
$HYPERLINKBASE
  1

  9
$STYLESHEET
  1

  9
$XEDIT
290
               1
  9
$CEPSNTYPE
380
               0
  9
$PSTYLEMODE
290
               1
  9
$FINGERPRINTGUID
  2

  9
$VERSIONGUID
  2

  9
$EXTNAMES
290
               1
  9
$PSVPSCALE
 40
0.0
  0
ENDSEC
  0
SECTION
  2
CLASSES
  0
CLASS
  1
LWPOLYLINE
  2
AcDbPolyline
  3
AutoCAD 2000
 90
        0
280
               0
281
               1
  0
CLASS
  1
IMAGE
  2
AcDbRasterImage
  3
ISM
 90
      127
280
               0
281
               1
  0
CLASS
  1
OLE2FRAME
  2
AcDbOle2Frame
  3
AutoCAD 2000
 90
        0
280
               0
281
               1
  0
CLASS
  1
HATCH
  2
AcDbHatch
  3
AutoCAD 2000
 90
        0
280
               0
281
               1
  0
CLASS
  1
DICTIONARYVAR
  2
AcDbDictionaryVar
  3
AutoCAD 2000
 90
        0
280
               0
281
               0
  0
CLASS
  1
RASTERVARIABLES
  2
AcDbRasterVariables
  3
ISM
 90
        0
280
               0
281
               0
  0
CLASS
  1
IMAGEDEF
  2
AcDbRasterImageDef
  3
ISM
 90
        0
280
               0
281
               0
  0
CLASS
  1
IMAGEDEF_REACTOR
  2
AcDbRasterImageDefReactor
  3
ISM
 90
        1
280
               0
281
               0
  0
CLASS
  1
IDBUFFER
  2
AcDbIdBuffer
  3
AutoCAD 2000
 90
        0
280
               0
281
               0
  0
CLASS
  1
SPATIAL_FILTER
  2
AcDbSpatialFilter
  3
AutoCAD 2000
 90
        0
280
               0
281
               0
  0
CLASS
  1
XRECORD
  2
AcDbXrecord
  3
AutoCAD 2000
 90
        0
280
               0
281
               0
  0
CLASS
  1
SORTENTSTABLE
  2
AcDbSortentsTable
  3
AutoCAD 2000
 90
        0
280
               0
281
               0
  0
CLASS
  1
LAYER_INDEX
  2
AcDbLayerIndex
  3
AutoCAD 2000
 90
        0
280
               0
281
               0
  0
CLASS
  1
SPATIAL_INDEX
  2
AcDbSpatialIndex
  3
AutoCAD 2000
 90
        0
280
               0
281
               0
  0
CLASS
  1
OBJECT_PTR
  2
CAseDLPNTableRecord
  3
"ASE-LPNTableRecord"
 90
        1
280
               0
281
               0
  0
CLASS
  1
LAYOUT
  2
AcDbLayout
  3
AutoCAD 2000
 90
        0
280
               0
281
               0
  0
CLASS
  1
PLOTSETTINGS
  2
AcDbPlotSettings
  3
AutoCAD 2000
 90
        0
280
               0
281
               0
  0
CLASS
  1
ACDBDICTIONARYWDFLT
  2
AcDbDictionaryWithDefault
  3
AutoCAD 2000
 90
        0
280
               0
281
               0
  0
CLASS
  1
ACDBPLACEHOLDER
  2
AcDbPlaceHolder
  3
AutoCAD 2000
 90
        0
280
               0
281
               0
  0
ENDSEC
  0
SECTION
  2
TABLES
  0
TABLE
  2
VPORT
  5
7
100
AcDbSymbolTable
 70
               1
  0
VPORT
  5
15
100
AcDbSymbolTableRecord
100
AcDbViewportTableRecord
  2
*ACTIVE
 70
               0
 10
0.0
 20
0.0
 11
1.0
 21
1.0
 12
-0.0000000000001137
 22
-0.0000000000002274
 13
0.0
 23
0.0
 14
1.0
 24
1.0
 15
0.0
 25
0.0
 16
0.0
 26
0.0
 36
1.0
 17
0.0
 27
0.0
 37
0.0
 40
2837.5228151124124
 41
0.688564
 42
50.0
 43
0.0
 44
0.0
 50
0.0
 51
0.0
 71
               0
 72
            2000
 73
               1
 74
               1
 75
               0
 76
               0
 77
               0
 78
               0
281
               0
 65
               0
110
0.0
120
0.0
130
0.0
111
1.0
121
0.0
131
0.0
112
0.0
122
1.0
132
0.0
345
0
346
0
 79
               0
146
0.0
  0
ENDTAB
  0
TABLE
  2
LTYPE
  5
4
100
AcDbSymbolTable
 70
              16
  0
LTYPE
  5
11
100
AcDbSymbolTableRecord
100
AcDbLinetypeTableRecord
  2
ByBlock
 70
              64
  3

 72
              65
 73
               0
 40
0.0
  0
LTYPE
  5
12
100
AcDbSymbolTableRecord
100
AcDbLinetypeTableRecord
  2
ByLayer
 70
              64
  3

 72
              65
 73
               0
 40
0.0
  0
LTYPE
  5
13
100
AcDbSymbolTableRecord
100
AcDbLinetypeTableRecord
  2
Continuous
 70
              64
  3
Solid line
 72
              65
 73
               0
 40
0.0
  0
LTYPE
  5
40
100
AcDbSymbolTableRecord
100
AcDbLinetypeTableRecord
  2
STYLE_01
 70
               0
  3

 72
              65
 73
               2
 40
1.1811023622047245
 49
0.4724409448818898
 74
               0
 49
-0.7086614173228347
 74
               0
  0
LTYPE
  5
41
100
AcDbSymbolTableRecord
100
AcDbLinetypeTableRecord
  2
STYLE_02
 70
               0
  3

 72
              65
 73
               2
 40
0.0590551181102362
 49
0.0393700787401574
 74
               0
 49
-0.0196850393700788
 74
               0
  0
LTYPE
  5
42
100
AcDbSymbolTableRecord
100
AcDbLinetypeTableRecord
  2
STYLE_03
 70
               0
  3

 72
              65
 73
               2
 40
0.7499999999999998
 49
0.5
 74
               0
 49
-0.2499999999999998
 74
               0
  0
LTYPE
  5
43
100
AcDbSymbolTableRecord
100
AcDbLinetypeTableRecord
  2
STYLE_04
 70
               0
  3

 72
              65
 73
               4
 40
1.9999999999999998
 49
1.25
 74
               0
 49
-0.2499999999999999
 74
               0
 49
0.2499999999999999
 74
               0
 49
-0.2499999999999999
 74
               0
  0
LTYPE
  5
44
100
AcDbSymbolTableRecord
100
AcDbLinetypeTableRecord
  2
STYLE_05
 70
               0
  3

 72
              65
 73
               2
 40
0.41656
 49
0.13885
 74
               0
 49
-0.27771
 74
               0
  0
LTYPE
  5
45
100
AcDbSymbolTableRecord
100
AcDbLinetypeTableRecord
  2
STYLE_06
 70
               0
  3

 72
              65
 73
               4
 40
2.0832800000000002
 49
1.25
 74
               0
 49
-0.41656
 74
               0
 49
0.1388600000000001
 74
               0
 49
-0.2778600000000001
 74
               0
  0
LTYPE
  5
46
100
AcDbSymbolTableRecord
100
AcDbLinetypeTableRecord
  2
STYLE_07
 70
               0
  3

 72
              65
 73
               6
 40
3.75
 49
1.25
 74
               0
 49
-0.41656
 74
               0
 49
1.2500000000000002
 74
               0
 49
-0.4167199999999999
 74
               0
 49
0.1388600000000001
 74
               0
 49
-0.2778599999999998
 74
               0
  0
LTYPE
  5
47
100
AcDbSymbolTableRecord
100
AcDbLinetypeTableRecord
  2
STYLE_08
 70
               0
  3

 72
              65
 73
               6
 40
2.5
 49
1.25
 74
               0
 49
-0.41656
 74
               0
 49
0.1388600000000001
 74
               0
 49
-0.2778600000000001
 74
               0
 49
0.1388599999999998
 74
               0
 49
-0.2778600000000001
 74
               0
  0
LTYPE
  5
48
100
AcDbSymbolTableRecord
100
AcDbLinetypeTableRecord
  2
STYLE_09
 70
               0
  3

 72
              65
 73
               4
 40
10.0
 49
7.5
 74
               0
 49
-0.5555699999999997
 74
               0
 49
1.3888600000000006
 74
               0
 49
-0.5555699999999997
 74
               0
  0
LTYPE
  5
49
100
AcDbSymbolTableRecord
100
AcDbLinetypeTableRecord
  2
STYLE_10
 70
               0
  3

 72
              65
 73
               6
 40
11.875
 49
7.5
 74
               0
 49
-0.5555699999999997
 74
               0
 49
1.3888600000000006
 74
               0
 49
-0.5555699999999997
 74
               0
 49
1.25
 74
               0
 49
-0.625
 74
               0
  0
LTYPE
  5
4A
100
AcDbSymbolTableRecord
100
AcDbLinetypeTableRecord
  2
STYLE_11
 70
               0
  3

 72
              65
 73
               2
 40
0.1388889763779528
 49
0.0694444881889764
 74
               0
 49
-0.0694444881889764
 74
               0
  0
LTYPE
  5
4B
100
AcDbSymbolTableRecord
100
AcDbLinetypeTableRecord
  2
STYLE_12
 70
               0
  3

 72
              65
 73
               2
 40
0.3472222222222222
 49
0.2083333333333333
 74
               0
 49
-0.1388888888888889
 74
               0
  0
LTYPE
  5
4C
100
AcDbSymbolTableRecord
100
AcDbLinetypeTableRecord
  2
STYLE_13
 70
               0
  3

 72
              65
 73
               2
 40
0.7874015748031495
 49
0.3937007874015748
 74
               0
 49
-0.3937007874015748
 74
               0
  0
ENDTAB
  0
TABLE
  2
LAYER
  5
2
100
AcDbSymbolTable
 70
               5
  0
LAYER
  5
14
100
AcDbSymbolTableRecord
100
AcDbLayerTableRecord
  2
0
 70
               0
 62
               7
  6
Continuous
290
               1
370
              -3
390
1D
  0
LAYER
  5
4D
100
AcDbSymbolTableRecord
100
AcDbLayerTableRecord
  2
Defpoints
 70
               0
 62
               7
  6
Continuous
290
               0
370
              -3
390
1D
  0
LAYER
  5
4E
100
AcDbSymbolTableRecord
100
AcDbLayerTableRecord
  2
template
 70
               0
 62
               7
  6
Continuous
290
               1
370
              -3
390
1D
  0
LAYER
  5
4F
100
AcDbSymbolTableRecord
100
AcDbLayerTableRecord
  2
notes
 70
               0
 62
               7
  6
Continuous
290
               1
370
              -3
390
1D
  0
LAYER
  5
50
100
AcDbSymbolTableRecord
100
AcDbLayerTableRecord
  2
ARJ70-1003
 70
               0
 62
               7
  6
Continuous
290
               1
370
              -3
390
1D
  0
ENDTAB
  0
TABLE
  2
STYLE
  5
3
100
AcDbSymbolTable
 70
               2
  0
STYLE
  5
17
100
AcDbSymbolTableRecord
100
AcDbTextStyleTableRecord
  2
Standard
 70
               0
 40
0.0
 41
1.0
 50
0.0
 71
               0
 42
0.0
  3
txt
  4
BIGFONT.SHX
  0
STYLE
  5
3F
100
AcDbSymbolTableRecord
100
AcDbTextStyleTableRecord
  2
ＭＳ ゴシック
 70
               0
 40
0.0
 41
1.0
 50
0.0
 71
               0
 42
0.0
  3

  4
ＭＳ ゴシック
1001
ACAD
1000
ＭＳ ゴシック
1071
        0
  0
ENDTAB
  0
TABLE
  2
VIEW
  5
5
100
AcDbSymbolTable
 70
               0
  0
ENDTAB
  0
TABLE
  2
UCS
  5
6
100
AcDbSymbolTable
 70
               0
  0
ENDTAB
  0
TABLE
  2
APPID
  5
8
100
AcDbSymbolTable
 70
               1
  0
APPID
  5
16
100
AcDbSymbolTableRecord
100
AcDbRegAppTableRecord
  2
ACAD
 70
               0
  0
ENDTAB
  0
TABLE
  2
DIMSTYLE
  5
9
100
AcDbSymbolTable
 70
               3
100
AcDbDimStyleTable
 71
               0
  0
DIMSTYLE
105
18
100
AcDbSymbolTableRecord
100
AcDbDimStyleTableRecord
  2
Standard
 70
               0
  3

  4

 40
1.0
 41
0.18
 42
0.0625
 43
0.38
 44
0.18
 45
0.0
 46
0.0
 47
0.0
 48
0.0
 71
               0
 72
               0
 73
               1
 74
               1
 75
               0
 76
               0
 77
               0
 78
               0
 79
               0
140
0.18
141
0.09
142
0.0
143
25.399999999999999
144
1.0
145
0.0
146
1.0
147
0.09
148
0.0
170
               0
171
               2
172
               0
173
               0
174
               0
175
               0
176
               0
177
               0
178
               0
179
               0
271
               4
272
               4
273
               2
274
               2
275
               0
276
               0
277
               2
278
              46
279
               0
280
               0
281
               0
282
               0
283
               1
284
               0
285
               0
286
               0
288
               0
289
               3
340
17
341
0
342
0
343
0
344
0
371
              -2
372
              -2
  0
DIMSTYLE
105
59
100
AcDbSymbolTableRecord
100
AcDbDimStyleTableRecord
  2
tform線あり
 70
               0
  3
<>
  4
[]
 40
1.0
 41
3.999755859375
 42
24.999999999999996
 43
0.9999999999999999
 44
0.0
 45
0.0
 46
0.0
 47
0.0
 48
0.0
 71
               0
 72
               0
 73
               0
 74
               0
 75
               0
 76
               0
 77
               1
 78
              11
 79
               0
140
24.432617187500004
141
0.0
142
0.0
143
1.0
144
1.0
145
0.0
146
1.0
147
0.4999999999999999
148
0.0
170
               0
171
               1
172
               0
173
               0
174
               1
175
               0
176
               0
177
               0
178
               0
179
               2
271
               1
272
               1
273
               2
274
               2
275
               0
276
               2
277
               2
278
              46
279
               0
280
               0
281
               0
282
               0
283
               1
284
              11
285
              11
286
              11
288
               0
289
               0
340
3F
341
51
342
51
343
0
344
0
371
              -2
372
              -2
  0
DIMSTYLE
105
5E
100
AcDbSymbolTableRecord
100
AcDbDimStyleTableRecord
  2
JIS
 70
               0
  3
<>
  4
[]
 40
1.0
 41
31.75
 42
0.0
 43
6.9999999999999396
 44
19.999999999996199
 45
0.0
 46
0.0
 47
0.0
 48
0.0
 71
               0
 72
               0
 73
               0
 74
               0
 75
               0
 76
               0
 77
               1
 78
              11
 79
               0
140
24.432617187500004
141
0.0
142
0.0
143
1.0
144
1.0
145
0.0
146
1.0
147
1.00000000000108
148
0.0
170
               0
171
               1
172
               0
173
               0
174
               1
175
               0
176
               0
177
               0
178
               0
179
               2
271
               1
272
               1
273
               2
274
               2
275
               0
276
               2
277
               2
278
              46
279
               0
280
               0
281
               0
282
               0
283
               1
284
              11
285
              11
286
              11
288
               0
289
               0
340
3F
341
5A
342
5A
343
0
344
0
371
              -2
372
              -2
  0
ENDTAB
  0
TABLE
  2
BLOCK_RECORD
  5
1
100
AcDbSymbolTable
 70
              30
  0
BLOCK_RECORD
  5
A
100
AcDbSymbolTableRecord
100
AcDbBlockTableRecord
  2
*MODEL_SPACE
340
20
  0
BLOCK_RECORD
  5
B
100
AcDbSymbolTableRecord
100
AcDbBlockTableRecord
  2
*PAPER_SPACE
340
21
  0
BLOCK_RECORD
  5
51
100
AcDbSymbolTableRecord
100
AcDbBlockTableRecord
  2
_DOT
340
0
  0
BLOCK_RECORD
  5
5A
100
AcDbSymbolTableRecord
100
AcDbBlockTableRecord
  2
VW_FILLEDARROW
340
0
  0
BLOCK_RECORD
  5
23
100
AcDbSymbolTableRecord
100
AcDbBlockTableRecord
  2
グループ
340
0
102
{BLKREFS
331
1B2
102
}
  0
BLOCK_RECORD
  5
24
100
AcDbSymbolTableRecord
100
AcDbBlockTableRecord
  2
*D3
340
0
  0
BLOCK_RECORD
  5
25
100
AcDbSymbolTableRecord
100
AcDbBlockTableRecord
  2
*D4
340
0
  0
BLOCK_RECORD
  5
26
100
AcDbSymbolTableRecord
100
AcDbBlockTableRecord
  2
*D5
340
0
  0
BLOCK_RECORD
  5
27
100
AcDbSymbolTableRecord
100
AcDbBlockTableRecord
  2
*D6
340
0
  0
BLOCK_RECORD
  5
28
100
AcDbSymbolTableRecord
100
AcDbBlockTableRecord
  2
*D7
340
0
  0
BLOCK_RECORD
  5
29
100
AcDbSymbolTableRecord
100
AcDbBlockTableRecord
  2
*D8
340
0
  0
BLOCK_RECORD
  5
2A
100
AcDbSymbolTableRecord
100
AcDbBlockTableRecord
  2
*D9
340
0
  0
BLOCK_RECORD
  5
2B
100
AcDbSymbolTableRecord
100
AcDbBlockTableRecord
  2
*D10
340
0
  0
BLOCK_RECORD
  5
2C
100
AcDbSymbolTableRecord
100
AcDbBlockTableRecord
  2
*D11
340
0
  0
BLOCK_RECORD
  5
2D
100
AcDbSymbolTableRecord
100
AcDbBlockTableRecord
  2
*D12
340
0
  0
BLOCK_RECORD
  5
2E
100
AcDbSymbolTableRecord
100
AcDbBlockTableRecord
  2
*D13
340
0
  0
BLOCK_RECORD
  5
2F
100
AcDbSymbolTableRecord
100
AcDbBlockTableRecord
  2
*D14
340
0
  0
BLOCK_RECORD
  5
30
100
AcDbSymbolTableRecord
100
AcDbBlockTableRecord
  2
*D15
340
0
  0
BLOCK_RECORD
  5
31
100
AcDbSymbolTableRecord
100
AcDbBlockTableRecord
  2
*D16
340
0
  0
BLOCK_RECORD
  5
32
100
AcDbSymbolTableRecord
100
AcDbBlockTableRecord
  2
*D17
340
0
  0
BLOCK_RECORD
  5
33
100
AcDbSymbolTableRecord
100
AcDbBlockTableRecord
  2
*D18
340
0
  0
BLOCK_RECORD
  5
34
100
AcDbSymbolTableRecord
100
AcDbBlockTableRecord
  2
*D19
340
0
  0
BLOCK_RECORD
  5
35
100
AcDbSymbolTableRecord
100
AcDbBlockTableRecord
  2
*D20
340
0
  0
BLOCK_RECORD
  5
36
100
AcDbSymbolTableRecord
100
AcDbBlockTableRecord
  2
*D21
340
0
  0
BLOCK_RECORD
  5
37
100
AcDbSymbolTableRecord
100
AcDbBlockTableRecord
  2
*D22
340
0
  0
BLOCK_RECORD
  5
38
100
AcDbSymbolTableRecord
100
AcDbBlockTableRecord
  2
グループ-1
340
0
102
{BLKREFS
331
276
102
}
  0
BLOCK_RECORD
  5
39
100
AcDbSymbolTableRecord
100
AcDbBlockTableRecord
  2
グループ-2
340
0
102
{BLKREFS
331
284
102
}
  0
BLOCK_RECORD
  5
3A
100
AcDbSymbolTableRecord
100
AcDbBlockTableRecord
  2
*D25
340
0
  0
BLOCK_RECORD
  5
3B
100
AcDbSymbolTableRecord
100
AcDbBlockTableRecord
  2
グループ-3
340
0
102
{BLKREFS
331
286
102
}
  0
BLOCK_RECORD
  5
3C
100
AcDbSymbolTableRecord
100
AcDbBlockTableRecord
  2
*D27
340
0
  0
BLOCK_RECORD
  5
3D
100
AcDbSymbolTableRecord
100
AcDbBlockTableRecord
  2
*D28
340
0
  0
BLOCK_RECORD
  5
3E
100
AcDbSymbolTableRecord
100
AcDbBlockTableRecord
  2
*D29
340
0
  0
ENDTAB
  0
ENDSEC
  0
SECTION
  2
BLOCKS
  0
BLOCK
  5
D
100
AcDbEntity
  8
0
390
0
100
AcDbBlockBegin
  2
*MODEL_SPACE
 70
               0
 10
0.0
 20
0.0
 30
0.0
  3
*MODEL_SPACE
  1

  0
ENDBLK
  5
E
100
AcDbEntity
  8
0
390
0
100
AcDbBlockEnd
  0
BLOCK
  5
F
100
AcDbEntity
 67
               1
  8
0
390
0
100
AcDbBlockBegin
  2
*PAPER_SPACE
 70
               0
 10
0.0
 20
0.0
 30
0.0
  3
*PAPER_SPACE
  1

  0
ENDBLK
  5
10
100
AcDbEntity
 67
               1
  8
0
390
0
100
AcDbBlockEnd
  0
BLOCK
  5
52
100
AcDbEntity
  8
0
390
0
100
AcDbBlockBegin
  2
_DOT
 70
               0
 10
0.0
 20
0.0
 30
0.0
  3
_DOT
  1

  0
POLYLINE
  5
53
100
AcDbEntity
  8
0
370
              -2
390
0
  6
ByBlock
 62
               0
100
AcDb2dPolyline
 66
               1
 10
0.0
 20
0.0
 30
0.0
 70
               1
 40
0.5
 41
0.5
  0
VERTEX
  5
54
100
AcDbEntity
  8
0
370
              -2
390
0
  6
ByBlock
 62
               0
100
AcDbVertex
100
AcDb2dVertex
 10
-0.25
 20
0.0
 30
0.0
 42
1.0
  0
VERTEX
  5
55
100
AcDbEntity
  8
0
370
              -2
390
0
  6
ByBlock
 62
               0
100
AcDbVertex
100
AcDb2dVertex
 10
0.25
 20
0.0
 30
0.0
 42
1.0
  0
SEQEND
  5
56
100
AcDbEntity
  8
0
390
0
  0
LINE
  5
57
100
AcDbEntity
  8
0
370
              -2
390
0
  6
ByBlock
 62
               0
100
AcDbLine
 10
-0.5
 20
0.0
 30
0.0
 11
-1.0
 21
0.0
 31
0.0
  0
ENDBLK
  5
58
100
AcDbEntity
  8
0
390
0
100
AcDbBlockEnd
  0
BLOCK
  5
5B
100
AcDbEntity
  8
0
370
              -2
390
0
  6
ByBlock
 62
               0
100
AcDbBlockBegin
  2
VW_FILLEDARROW
 70
               0
 10
0.0
 20
0.0
 30
0.0
  3
VW_FILLEDARROW
  1

  0
SOLID
  5
5C
100
AcDbEntity
  8
0
370
              -2
390
0
 62
               0
100
AcDbTrace
 10
0.0
 20
0.0
 30
0.0
 11
-0.9921874999999999
 21
-0.2658558393652545
 31
0.0
 12
-0.9921874999999999
 22
0.2658558393652548
 32
0.0
 13
-0.9921874999999999
 23
0.2658558393652548
 33
0.0
  0
ENDBLK
  5
5D
100
AcDbEntity
  8
0
390
0
100
AcDbBlockEnd
  0
BLOCK
  5
5F
100
AcDbEntity
  8
template
390
0
100
AcDbBlockBegin
  2
グループ
 70
               0
 10
0.0
 20
0.0
 30
0.0
  3
グループ
  1

  0
LWPOLYLINE
  5
60
100
AcDbEntity
  8
0
370
              15
390
0
  6
Continuous
 62
               7
100
AcDbPolyline
 90
        8
 70
             129
 10
-678.61136641705957
 20
-2478.4404535860081
 10
-678.61136641705957
 20
-2484.4378422795839
 10
-688.11256333506094
 20
-2484.4378422795839
 10
-688.11256333506094
 20
-2508.8888055430921
 10
-696.4679405968443
 20
-2508.8888055430921
 10
-696.4679405968443
 20
-2484.4378422795839
 10
-705.80089754315372
 20
-2484.4378422795839
 10
-705.80089754315372
 20
-2478.4404535860081
  0
LWPOLYLINE
  5
61
100
AcDbEntity
  8
0
370
              15
390
0
  6
Continuous
 62
               7
100
AcDbPolyline
 90
      101
 70
             128
 10
-665.88307458650229
 20
-2479.1687020789445
 10
-665.86772455772109
 20
-2479.1643413222605
 42
-0.0222221607821854
 10
-665.57771998104522
 20
-2479.0957168570144
 10
-665.56192621704497
 20
-2479.0927134339163
 42
-0.014688356558675
 10
-665.2992235118279
 20
-2479.0507102469683
 42
-0.0127458844196961
 10
-665.03458454469035
 20
-2479.0231732788975
 10
-664.97212946636205
 20
-2479.0182798563078
 42
-0.0198099018564147
 10
-664.58128035688537
 20
-2479.0031946989111
 10
-664.52946888744077
 20
-2479.0032484745761
 42
-0.0147617382760664
 10
-664.03484542645731
 20
-2479.0183684998215
 10
-663.96215397160154
 20
-2479.0227411067076
 42
-0.0162624549010256
 10
-663.57200034212815
 20
-2479.0589739819807
 10
-663.45046795084761
 20
-2479.07426054098
 42
-0.0080020874638546
 10
-663.30488891977689
 20
-2479.0949433882456
 10
-663.26656944918454
 20
-2479.101014666056
 42
-0.0053821929680496
 10
-663.19808534386607
 20
-2479.112622189878
 10
-663.92449104306502
 20
-2481.2935506455919
 42
0.0108667757375363
 10
-663.99180811319138
 20
-2481.2803635303731
 10
-664.02927613638599
 20
-2481.2738657877776
 42
0.0170663203313866
 10
-664.17249292330587
 20
-2481.2540361904853
 10
-664.24036825598409
 20
-2481.2469890198986
 42
0.0220162375273474
 10
-664.52074766383691
 20
-2481.2303066591289
 10
-664.59860323089026
 20
-2481.2291072918624
 42
0.0282606915785893
 10
-664.93423955446974
 20
-2481.2429105688311
 10
-664.97815282824922
 20
-2481.2472105588354
 42
0.0169677213690567
 10
-665.22407732320039
 20
-2481.2797476083865
 42
0.0190576269858658
 10
-665.46698528577554
 20
-2481.3298944804915
 10
-665.47324447389178
 20
-2481.3314374546021
 42
0.0213685642861744
 10
-665.72362895836943
 20
-2481.4046377397071
 10
-665.72911885328608
 20
-2481.4065007357663
 42
0.0237595297579192
 10
-665.98261373818275
 20
-2481.5061852576614
 10
-665.98771581221331
 20
-2481.50847703314
 42
0.0261857468824073
 10
-666.23988658844269
 20
-2481.6380133705143
 10
-666.25031277753305
 20
-2481.6440788449845
 42
0.0272553062009763
 10
-666.48674255276978
 20
-2481.7994510509275
 10
-666.52150556627942
 20
-2481.8251121990197
 42
0.0325996893188125
 10
-666.67166090993101
 20
-2481.9518600719907
 10
-666.69537033905624
 20
-2481.9746781005056
 42
0.0138050960639793
 10
-666.78725349526371
 20
-2482.0681277620552
 42
0.0125280103822861
 10
-666.8740960280943
 20
-2482.1662910886525
 10
-666.89777647300502
 20
-2482.1944495868429
 42
0.0205218024712232
 10
-667.02287654851807
 20
-2482.3562429010717
 10
-667.04534288900572
 20
-2482.3879026308991
 42
0.0163110129588659
 10
-667.20105326825842
 20
-2482.62323306597
 10
-667.2037771643088
 20
-2482.6276568279545
 42
0.0131897341901863
 10
-667.35057768521483
 20
-2482.8807889203181
 10
-667.35227778058174
 20
-2482.8839071594543
 42
0.010789557607835
 10
-667.49005448279149
 20
-2483.1501223690875
 10
-667.49078737231753
 20
-2483.1516166017359
 42
0.0091371507214165
 10
-667.61926732096708
 20
-2483.4261417994962
 10
-667.6490129523761
 20
-2483.4928483066547
 42
0.0135418326353667
 10
-667.82072689144763
 20
-2483.9077860919233
 10
-667.85433169988198
 20
-2483.9956522342045
 42
0.0092834542411492
 10
-668.0255607598026
 20
-2484.46955073251
 10
-668.05117788751977
 20
-2484.5447918023024
 42
0.0054261043579126
 10
-668.15881603581306
 20
-2484.8725557753683
 10
-668.17634202200816
 20
-2484.9279439376542
 42
0.0008225090822498
 10
-668.24501207382013
 20
-2485.1462126957472
 10
-669.22970120575405
 20
-2488.1711039890038
 10
-665.99707736567939
 20
-2488.1711039890038
 10
-666.50126979553238
 20
-2490.0755822873566
 10
-669.75732607751775
 20
-2490.0755822873566
 10
-675.58647510987134
 20
-2508.8888053533615
 10
-677.41157272018131
 20
-2508.8888053533615
 10
-671.57689468468084
 20
-2490.0755822873566
 10
-673.98201105371913
 20
-2490.0755822873566
 10
-673.47781862386614
 20
-2488.1711039890038
 10
-671.04926981291715
 20
-2488.1711039890038
 10
-670.18911489472953
 20
-2485.5346909883051
 42
-0.0005863560603281
 10
-670.15238021652976
 20
-2485.4178645680308
 10
-670.07629238286404
 20
-2485.1768722686279
 42
-0.0087522378930166
 10
-669.87682423940817
 20
-2484.5815961814847
 10
-669.78455996399271
 20
-2484.3214560129668
 42
-0.0077400953824698
 10
-669.52662630486225
 20
-2483.6284513354203
 10
-669.51086133328329
 20
-2483.588020452034
 42
-0.0082369946333113
 10
-669.26377686267165
 20
-2482.9839413858385
 42
-0.0085725238360505
 10
-668.99653076666993
 20
-2482.3885153465535
 10
-668.89490116566049
 20
-2482.1720942445641
 42
-0.0168109410597164
 10
-668.60795673693224
 20
-2481.6108867184621
 10
-668.48211334648272
 20
-2481.3839226854816
 42
-0.0007817726883589
 10
-668.42782899641657
 20
-2481.2863784404335
 10
-668.42770069040273
 20
-2481.2861487317032
 42
-0.0036626142161462
 10
-668.37281282637719
 20
-2481.1895508517282
 42
-0.0080221150659503
 10
-668.31568857097
 20
-2481.0942716169743
 10
-668.28498861960975
 20
-2481.0448806678532
 42
-0.0202139325600191
 10
-668.15733287980458
 20
-2480.8568990671738
 10
-668.10326541461541
 20
-2480.7838202029311
 42
-0.0249323791785942
 10
-667.84410262089636
 20
-2480.4677749607772
 10
-667.81996280676935
 20
-2480.4411606878643
 42
-0.0242132121546944
 10
-667.4802820652277
 20
-2480.1012772016602
 10
-667.43237049247716
 20
-2480.0577680654742
 42
-0.0251017527861342
 10
-667.14838879183549
 20
-2479.8247753197093
 10
-667.14694331502392
 20
-2479.8237060621318
 42
-0.0130868069028824
 10
-666.84868266506487
 20
-2479.6149255935879
 10
-666.84712084592661
 20
-2479.6138921533156
 42
-0.0290329526401115
 10
-666.53600970452931
 20
-2479.4330666516839
 10
-666.50616414253375
 20
-2479.4179642688396
 42
-0.0160250190030914
 10
-666.24025972877803
 20
-2479.2939481586309
 42
-0.026760037478608
 10
-665.96498365131163
 20
-2479.1931998380824
 10
-665.93824773178926
 20
-2479.1850072792563
 42
-0.0049981587705056
 10
-665.88307458650229
 20
-2479.1687020789445
 42
-0.0049981587705056
  0
LWPOLYLINE
  5
62
100
AcDbEntity
  8
0
370
              15
390
0
  6
Continuous
 62
               7
100
AcDbPolyline
 90
      118
 70
             128
 10
-646.06870702205447
 20
-2488.2450873168314
 10
-644.19358509755398
 20
-2488.2450873168314
 10
-645.03162400315409
 20
-2490.9266538432316
 42
-0.0010587229288629
 10
-645.00016818761321
 20
-2490.8897493099121
 10
-644.94197409695039
 20
-2490.8217670537006
 42
-0.0071874740409116
 10
-644.79159887884589
 20
-2490.6511263616644
 10
-644.64987610559069
 20
-2490.4948902203582
 42
-0.014811805351692
 10
-644.19974681288136
 20
-2490.0272763743474
 10
-644.1125244779754
 20
-2489.9418790534896
 42
-0.0086273358700441
 10
-643.77697567696828
 20
-2489.6245034194753
 10
-643.73314196074739
 20
-2489.5844537751473
 42
-0.0103138323106969
 10
-643.47511825850847
 20
-2489.3582906378042
 10
-643.4293438521828
 20
-2489.3198085905451
 42
-0.0060206748566268
 10
-643.25649578806929
 20
-2489.1780139397893
 10
-643.25446465718403
 20
-2489.1763882341584
 42
-0.0067069027307221
 10
-643.08217184252021
 20
-2489.042237600363
 10
-643.07962307658806
 20
-2489.0403074304832
 42
-0.0076184352027168
 10
-642.90871781072269
 20
-2488.9149325552439
 42
-0.0089652861680165
 10
-642.73375684798054
 20
-2488.7952992949058
 10
-642.69740512784779
 20
-2488.7713880814304
 42
-0.0156916245944933
 10
-642.5014456306842
 20
-2488.651125594954
 42
-0.002329901106058
 10
-642.30118358671666
 20
-2488.5379476554203
 10
-642.28579945432352
 20
-2488.5293476603483
 42
-0.0107669341486361
 10
-642.05156262922958
 20
-2488.4049475270026
 10
-642.02929782814749
 20
-2488.3937307770489
 42
-0.007805804589196
 10
-641.74570771018136
 20
-2488.2563693214038
 10
-641.73580062248652
 20
-2488.2517601935419
 42
-0.0181829330480451
 10
-641.42549121787488
 20
-2488.1208964524481
 10
-641.37143577529662
 20
-2488.1003813325001
 42
-0.0208411536023815
 10
-641.02235080785317
 20
-2487.9842908700098
 10
-641.00799470773154
 20
-2487.9801724250578
 42
-0.022279981713375
 10
-640.67927491380919
 20
-2487.901530858916
 10
-640.67038595057306
 20
-2487.8998188483311
 42
-0.0215509523890645
 10
-640.3539149822916
 20
-2487.8529031597964
 10
-640.3114330212436
 20
-2487.8484656330056
 42
-0.0182545924874542
 10
-640.07732424193705
 20
-2487.8326218076149
 10
-640.03792322559457
 20
-2487.831397262536
 42
-0.0072962856525288
 10
-639.88200034590113
 20
-2487.8288279340136
 10
-639.85290067533106
 20
-2487.8287730986099
 42
-0.0059227516330896
 10
-639.75515117618374
 20
-2487.8297468104001
 10
-639.72590895859264
 20
-2487.8303845770065
 42
-0.0011833111864031
 10
-639.68665767497873
 20
-2487.8313335813132
 10
-640.48204427058658
 20
-2490.3700675264122
 42
0.0143932051418381
 10
-640.50844565293721
 20
-2490.359868556367
 10
-640.515717625354
 20
-2490.3572973375099
 42
0.0234388603576909
 10
-640.55754849129323
 20
-2490.3446781017924
 10
-640.56623015419859
 20
-2490.3424971397894
 42
0.0199162742973793
 10
-640.62651898827744
 20
-2490.3298804044548
 10
-640.64733292608503
 20
-2490.3263832050261
 42
0.0293643550656876
 10
-640.75040778484413
 20
-2490.3152331593728
 10
-640.77509296556468
 20
-2490.3140215423541
 42
0.021460668687729
 10
-640.92823388151237
 20
-2490.3130829819365
 10
-640.93760579233526
 20
-2490.3134278934808
 42
0.0167564054180751
 10
-641.10912598345021
 20
-2490.3255049358495
 10
-641.11758577620253
 20
-2490.326386276276
 42
0.0137677553253113
 10
-641.30493908946573
 20
-2490.3511355848195
 10
-641.31229082897494
 20
-2490.3523135047876
 42
0.011849726148383
 10
-641.51278859308059
 20
-2490.3893308549777
 10
-641.51893860032374
 20
-2490.3906177176968
 42
0.0106421143903423
 10
-641.72981948761583
 20
-2490.4394500932735
 10
-641.73472829599791
 20
-2490.4406974359567
 42
0.0099746379696237
 10
-641.95318676514546
 20
-2490.5008719642674
 10
-642.01473480533036
 20
-2490.5191538429021
 42
0.0191613675861604
 10
-642.35071926785417
 20
-2490.6331312231919
 10
-642.43877904058706
 20
-2490.6668181335112
 42
0.0205274080147334
 10
-642.82408581249251
 20
-2490.8326465413397
 10
-642.88173509447176
 20
-2490.860314505911
 42
0.0181256912187956
 10
-643.14001203514158
 20
-2490.99599832489
 10
-643.1929674184646
 20
-2491.0263159381097
 42
0.0140709242425269
 10
-643.33792235308442
 20
-2491.1148106115393
 10
-643.36417122169973
 20
-2491.1318674302529
 42
0.0086667884394337
 10
-643.45309738324499
 20
-2491.1918700981373
 42
0.0036408192026716
 10
-643.54053062126843
 20
-2491.2540509559226
 10
-643.57575749574676
 20
-2491.2794919018424
 42
0.0052260781267395
 10
-643.73198619313905
 20
-2491.3948242884776
 10
-643.74819304939751
 20
-2491.4070523990949
 42
0.0050024435900466
 10
-643.93419639245531
 20
-2491.5503349673563
 10
-643.94951454897159
 20
-2491.5623809898029
 42
0.0136138710277418
 10
-644.15995581729555
 20
-2491.7373474947153
 10
-644.19362369309033
 20
-2491.7669264674305
 42
0.0172815186906694
 10
-644.45802723475038
 20
-2492.0159231400507
 10
-644.46058958059598
 20
-2492.018508957201
 42
0.0189403858004934
 10
-644.71117137917622
 20
-2492.2913142220068
 10
-644.74380287271254
 20
-2492.3296581535046
 42
0.0185044199501378
 10
-644.93575931168994
 20
-2492.5729067346256
 42
0.0088565243881694
 10
-645.11421941831338
 20
-2492.8264231547673
 10
-645.12339739796766
 20
-2492.8399645345357
 42
0.0157195347247514
 10
-645.3066180043063
 20
-2493.1294867438578
 10
-645.35270094623172
 20
-2493.2076389408699
 42
0.0095451879785
 10
-645.51778649636958
 20
-2493.5002335832287
 10
-645.5289344153
 20
-2493.5209042553624
 42
0.0100351706231296
 10
-645.66097816445904
 20
-2493.7779598158513
 42
0.0086935915436894
 10
-645.78330931625305
 20
-2494.0397929612532
 10
-645.78663005766862
 20
-2494.0472352842276
 42
0.0072580174874443
 10
-645.90697650961567
 20
-2494.3278272758175
 10
-645.91023814291907
 20
-2494.3357473018286
 42
0.0060005122593156
 10
-646.02943881126112
 20
-2494.6353569724333
 10
-646.03264978960283
 20
-2494.6437185003383
 42
0.0049017786985779
 10
-646.15154994846046
 20
-2494.9626474809425
 10
-646.15471575485094
 20
-2494.9714004181728
 42
0.0039415167597001
 10
-646.27415203290855
 20
-2495.3099424805873
 10
-646.27728313556031
 20
-2495.3190456814623
 42
0.0031035838784237
 10
-646.39808792125382
 20
-2495.6774855432386
 10
-646.40119796578324
 20
-2495.6869061646107
 42
0.0025070747131645
 10
-646.52409931709508
 20
-2496.0655533815457
 10
-646.56139321352362
 20
-2496.1824450468075
 42
0.0029081910289106
 10
-646.75341151133682
 20
-2496.7966087051045
 10
-646.79421467985208
 20
-2496.9298319473751
 42
0.0009266453736833
 10
-647.06263205416417
 20
-2497.8120564072919
 10
-647.08351952681653
 20
-2497.8811682865671
 42
-0.000580999366786
 10
-647.36085620739755
 20
-2498.7949763931738
 10
-647.42713800566855
 20
-2499.012461325327
 42
-0.001201870817727
 10
-647.57412231510057
 20
-2499.4906239898542
 10
-647.62644216666502
 20
-2499.6593831307146
 42
-0.0002691059606135
 10
-647.67001164783574
 20
-2499.799650751062
 10
-650.5029675461235
 20
-2508.8888053533615
 10
-652.32095643810203
 20
-2508.8888053533615
 10
-646.06870702205447
 20
-2488.2450873168314
  0
SPLINE
  5
63
100
AcDbEntity
  8
0
370
              15
390
0
  6
Continuous
 62
               7
100
AcDbSpline
210
0.0
220
0.0
230
1.0
 70
              13
 71
               2
 72
             782
 73
             779
 74
               0
 42
0.000001
 43
0.000001
 40
0.0
 40
0.0
 40
0.0
 40
1.0
 40
1.0
 40
2.0
 40
2.0
 40
3.0
 40
3.0
 40
4.0
 40
4.0
 40
5.0
 40
5.0
 40
6.0
 40
6.0
 40
7.0
 40
7.0
 40
8.0
 40
8.0
 40
9.0
 40
9.0
 40
10.0
 40
10.0
 40
11.0
 40
11.0
 40
12.0
 40
12.0
 40
13.0
 40
13.0
 40
14.0
 40
14.0
 40
15.0
 40
15.0
 40
16.0
 40
16.0
 40
17.0
 40
17.0
 40
18.0
 40
18.0
 40
19.0
 40
19.0
 40
20.0
 40
20.0
 40
21.0
 40
21.0
 40
22.0
 40
22.0
 40
23.0
 40
23.0
 40
24.0
 40
24.0
 40
25.0
 40
25.0
 40
26.0
 40
26.0
 40
27.0
 40
27.0
 40
28.0
 40
28.0
 40
29.0
 40
29.0
 40
30.0
 40
30.0
 40
31.0
 40
31.0
 40
32.0
 40
32.0
 40
33.0
 40
33.0
 40
34.0
 40
34.0
 40
35.0
 40
35.0
 40
36.0
 40
36.0
 40
37.0
 40
37.0
 40
38.0
 40
38.0
 40
39.0
 40
39.0
 40
40.0
 40
40.0
 40
41.0
 40
41.0
 40
42.0
 40
42.0
 40
43.0
 40
43.0
 40
44.0
 40
44.0
 40
45.0
 40
45.0
 40
46.0
 40
46.0
 40
47.0
 40
47.0
 40
48.0
 40
48.0
 40
49.0
 40
49.0
 40
50.0
 40
50.0
 40
51.0
 40
51.0
 40
52.0
 40
52.0
 40
53.0
 40
53.0
 40
54.0
 40
54.0
 40
55.0
 40
55.0
 40
56.0
 40
56.0
 40
57.0
 40
57.0
 40
58.0
 40
58.0
 40
59.0
 40
59.0
 40
60.0
 40
60.0
 40
61.0
 40
61.0
 40
62.0
 40
62.0
 40
63.0
 40
63.0
 40
64.0
 40
64.0
 40
65.0
 40
65.0
 40
66.0
 40
66.0
 40
67.0
 40
67.0
 40
68.0
 40
68.0
 40
69.0
 40
69.0
 40
70.0
 40
70.0
 40
71.0
 40
71.0
 40
72.0
 40
72.0
 40
73.0
 40
73.0
 40
74.0
 40
74.0
 40
75.0
 40
75.0
 40
76.0
 40
76.0
 40
77.0
 40
77.0
 40
78.0
 40
78.0
 40
79.0
 40
79.0
 40
80.0
 40
80.0
 40
81.0
 40
81.0
 40
82.0
 40
82.0
 40
83.0
 40
83.0
 40
84.0
 40
84.0
 40
85.0
 40
85.0
 40
86.0
 40
86.0
 40
87.0
 40
87.0
 40
88.0
 40
88.0
 40
89.0
 40
89.0
 40
90.0
 40
90.0
 40
91.0
 40
91.0
 40
92.0
 40
92.0
 40
93.0
 40
93.0
 40
94.0
 40
94.0
 40
95.0
 40
95.0
 40
96.0
 40
96.0
 40
97.0
 40
97.0
 40
98.0
 40
98.0
 40
99.0
 40
99.0
 40
100.0
 40
100.0
 40
101.0
 40
101.0
 40
102.0
 40
102.0
 40
103.0
 40
103.0
 40
104.0
 40
104.0
 40
105.0
 40
105.0
 40
106.0
 40
106.0
 40
107.0
 40
107.0
 40
108.0
 40
108.0
 40
109.0
 40
109.0
 40
110.0
 40
110.0
 40
111.0
 40
111.0
 40
112.0
 40
112.0
 40
113.0
 40
113.0
 40
114.0
 40
114.0
 40
115.0
 40
115.0
 40
116.0
 40
116.0
 40
117.0
 40
117.0
 40
118.0
 40
118.0
 40
119.0
 40
119.0
 40
120.0
 40
120.0
 40
121.0
 40
121.0
 40
122.0
 40
122.0
 40
123.0
 40
123.0
 40
124.0
 40
124.0
 40
125.0
 40
125.0
 40
126.0
 40
126.0
 40
127.0
 40
127.0
 40
128.0
 40
128.0
 40
129.0
 40
129.0
 40
130.0
 40
130.0
 40
131.0
 40
131.0
 40
132.0
 40
132.0
 40
133.0
 40
133.0
 40
134.0
 40
134.0
 40
135.0
 40
135.0
 40
136.0
 40
136.0
 40
137.0
 40
137.0
 40
138.0
 40
138.0
 40
139.0
 40
139.0
 40
140.0
 40
140.0
 40
141.0
 40
141.0
 40
142.0
 40
142.0
 40
143.0
 40
143.0
 40
144.0
 40
144.0
 40
145.0
 40
145.0
 40
146.0
 40
146.0
 40
147.0
 40
147.0
 40
148.0
 40
148.0
 40
149.0
 40
149.0
 40
150.0
 40
150.0
 40
151.0
 40
151.0
 40
152.0
 40
152.0
 40
153.0
 40
153.0
 40
154.0
 40
154.0
 40
155.0
 40
155.0
 40
156.0
 40
156.0
 40
157.0
 40
157.0
 40
158.0
 40
158.0
 40
159.0
 40
159.0
 40
160.0
 40
160.0
 40
161.0
 40
161.0
 40
162.0
 40
162.0
 40
163.0
 40
163.0
 40
164.0
 40
164.0
 40
165.0
 40
165.0
 40
166.0
 40
166.0
 40
167.0
 40
167.0
 40
168.0
 40
168.0
 40
169.0
 40
169.0
 40
170.0
 40
170.0
 40
171.0
 40
171.0
 40
172.0
 40
172.0
 40
173.0
 40
173.0
 40
174.0
 40
174.0
 40
175.0
 40
175.0
 40
176.0
 40
176.0
 40
177.0
 40
177.0
 40
178.0
 40
178.0
 40
179.0
 40
179.0
 40
180.0
 40
180.0
 40
181.0
 40
181.0
 40
182.0
 40
182.0
 40
183.0
 40
183.0
 40
184.0
 40
184.0
 40
185.0
 40
185.0
 40
186.0
 40
186.0
 40
187.0
 40
187.0
 40
188.0
 40
188.0
 40
189.0
 40
189.0
 40
190.0
 40
190.0
 40
191.0
 40
191.0
 40
192.0
 40
192.0
 40
193.0
 40
193.0
 40
194.0
 40
194.0
 40
195.0
 40
195.0
 40
196.0
 40
196.0
 40
197.0
 40
197.0
 40
198.0
 40
198.0
 40
199.0
 40
199.0
 40
200.0
 40
200.0
 40
201.0
 40
201.0
 40
202.0
 40
202.0
 40
203.0
 40
203.0
 40
204.0
 40
204.0
 40
205.0
 40
205.0
 40
206.0
 40
206.0
 40
207.0
 40
207.0
 40
208.0
 40
208.0
 40
209.0
 40
209.0
 40
210.0
 40
210.0
 40
211.0
 40
211.0
 40
212.0
 40
212.0
 40
213.0
 40
213.0
 40
214.0
 40
214.0
 40
215.0
 40
215.0
 40
216.0
 40
216.0
 40
217.0
 40
217.0
 40
218.0
 40
218.0
 40
219.0
 40
219.0
 40
220.0
 40
220.0
 40
221.0
 40
221.0
 40
222.0
 40
222.0
 40
223.0
 40
223.0
 40
224.0
 40
224.0
 40
225.0
 40
225.0
 40
226.0
 40
226.0
 40
227.0
 40
227.0
 40
228.0
 40
228.0
 40
229.0
 40
229.0
 40
230.0
 40
230.0
 40
231.0
 40
231.0
 40
232.0
 40
232.0
 40
233.0
 40
233.0
 40
234.0
 40
234.0
 40
235.0
 40
235.0
 40
236.0
 40
236.0
 40
237.0
 40
237.0
 40
238.0
 40
238.0
 40
239.0
 40
239.0
 40
240.0
 40
240.0
 40
241.0
 40
241.0
 40
242.0
 40
242.0
 40
243.0
 40
243.0
 40
244.0
 40
244.0
 40
245.0
 40
245.0
 40
246.0
 40
246.0
 40
247.0
 40
247.0
 40
248.0
 40
248.0
 40
249.0
 40
249.0
 40
250.0
 40
250.0
 40
251.0
 40
251.0
 40
252.0
 40
252.0
 40
253.0
 40
253.0
 40
254.0
 40
254.0
 40
255.0
 40
255.0
 40
256.0
 40
256.0
 40
257.0
 40
257.0
 40
258.0
 40
258.0
 40
259.0
 40
259.0
 40
260.0
 40
260.0
 40
261.0
 40
261.0
 40
262.0
 40
262.0
 40
263.0
 40
263.0
 40
264.0
 40
264.0
 40
265.0
 40
265.0
 40
266.0
 40
266.0
 40
267.0
 40
267.0
 40
268.0
 40
268.0
 40
269.0
 40
269.0
 40
270.0
 40
270.0
 40
271.0
 40
271.0
 40
272.0
 40
272.0
 40
273.0
 40
273.0
 40
274.0
 40
274.0
 40
275.0
 40
275.0
 40
276.0
 40
276.0
 40
277.0
 40
277.0
 40
278.0
 40
278.0
 40
279.0
 40
279.0
 40
280.0
 40
280.0
 40
281.0
 40
281.0
 40
282.0
 40
282.0
 40
283.0
 40
283.0
 40
284.0
 40
284.0
 40
285.0
 40
285.0
 40
286.0
 40
286.0
 40
287.0
 40
287.0
 40
288.0
 40
288.0
 40
289.0
 40
289.0
 40
290.0
 40
290.0
 40
291.0
 40
291.0
 40
292.0
 40
292.0
 40
293.0
 40
293.0
 40
294.0
 40
294.0
 40
295.0
 40
295.0
 40
296.0
 40
296.0
 40
297.0
 40
297.0
 40
298.0
 40
298.0
 40
299.0
 40
299.0
 40
300.0
 40
300.0
 40
301.0
 40
301.0
 40
302.0
 40
302.0
 40
303.0
 40
303.0
 40
304.0
 40
304.0
 40
305.0
 40
305.0
 40
306.0
 40
306.0
 40
307.0
 40
307.0
 40
308.0
 40
308.0
 40
309.0
 40
309.0
 40
310.0
 40
310.0
 40
311.0
 40
311.0
 40
312.0
 40
312.0
 40
313.0
 40
313.0
 40
314.0
 40
314.0
 40
315.0
 40
315.0
 40
316.0
 40
316.0
 40
317.0
 40
317.0
 40
318.0
 40
318.0
 40
319.0
 40
319.0
 40
320.0
 40
320.0
 40
321.0
 40
321.0
 40
322.0
 40
322.0
 40
323.0
 40
323.0
 40
324.0
 40
324.0
 40
325.0
 40
325.0
 40
326.0
 40
326.0
 40
327.0
 40
327.0
 40
328.0
 40
328.0
 40
329.0
 40
329.0
 40
330.0
 40
330.0
 40
331.0
 40
331.0
 40
332.0
 40
332.0
 40
333.0
 40
333.0
 40
334.0
 40
334.0
 40
335.0
 40
335.0
 40
336.0
 40
336.0
 40
337.0
 40
337.0
 40
338.0
 40
338.0
 40
339.0
 40
339.0
 40
340.0
 40
340.0
 40
341.0
 40
341.0
 40
342.0
 40
342.0
 40
343.0
 40
343.0
 40
344.0
 40
344.0
 40
345.0
 40
345.0
 40
346.0
 40
346.0
 40
347.0
 40
347.0
 40
348.0
 40
348.0
 40
349.0
 40
349.0
 40
350.0
 40
350.0
 40
351.0
 40
351.0
 40
352.0
 40
352.0
 40
353.0
 40
353.0
 40
354.0
 40
354.0
 40
355.0
 40
355.0
 40
356.0
 40
356.0
 40
357.0
 40
357.0
 40
358.0
 40
358.0
 40
359.0
 40
359.0
 40
360.0
 40
360.0
 40
361.0
 40
361.0
 40
362.0
 40
362.0
 40
363.0
 40
363.0
 40
364.0
 40
364.0
 40
365.0
 40
365.0
 40
366.0
 40
366.0
 40
367.0
 40
367.0
 40
368.0
 40
368.0
 40
369.0
 40
369.0
 40
370.0
 40
370.0
 40
371.0
 40
371.0
 40
372.0
 40
372.0
 40
373.0
 40
373.0
 40
374.0
 40
374.0
 40
375.0
 40
375.0
 40
376.0
 40
376.0
 40
377.0
 40
377.0
 40
378.0
 40
378.0
 40
379.0
 40
379.0
 40
380.0
 40
380.0
 40
381.0
 40
381.0
 40
382.0
 40
382.0
 40
383.0
 40
383.0
 40
384.0
 40
384.0
 40
385.0
 40
385.0
 40
386.0
 40
386.0
 40
387.0
 40
387.0
 40
388.0
 40
388.0
 40
389.0
 40
389.0
 40
389.0
 10
-635.74000257132207
 20
-2488.2341609534692
 30
0.0
 41
1.0
 10
-634.92157846260193
 20
-2488.2341609534692
 30
0.0
 41
1.0
 10
-634.10315435388179
 20
-2488.2341609534692
 30
0.0
 41
1.0
 10
-634.51690808939816
 20
-2489.5767872177189
 30
0.0
 41
1.0
 10
-634.93066182491452
 20
-2490.9194134819686
 30
0.0
 41
1.0
 10
-634.91232232975233
 20
-2490.8907127090652
 30
0.0
 41
0.9999957264442906
 10
-634.89381533292612
 20
-2490.862119658922
 30
0.0
 41
1.0
 10
-634.86338600878366
 20
-2490.8151067805384
 30
0.0
 41
1.0
 10
-634.8329566846412
 20
-2490.7680939021548
 30
0.0
 41
1.0
 10
-634.75359103953417
 20
-2490.6454750952507
 30
0.0
 41
0.99953940690817
 10
-634.66693264798266
 20
-2490.5278970335094
 30
0.0
 41
1.0
 10
-634.63117578572201
 20
-2490.4793821409144
 30
0.0
 41
1.0
 10
-634.59541892346135
 20
-2490.4308672483194
 30
0.0
 41
1.0
 10
-634.46169225564381
 20
-2490.2494269731933
 30
0.0
 41
0.9994460617143344
 10
-634.316191774358
 20
-2490.0772845755459
 30
0.0
 41
1.0
 10
-634.31180359338418
 20
-2490.072092895165
 30
0.0
 41
1.0
 10
-634.30741541241048
 20
-2490.0669012147837
 30
0.0
 41
1.0
 10
-634.17069129307231
 20
-2489.9051421778986
 30
0.0
 41
0.9994359394934518
 10
-634.02341706271886
 20
-2489.7529259767316
 30
0.0
 41
1.0
 10
-634.02103370876591
 20
-2489.7504626463588
 30
0.0
 41
1.0
 10
-634.01865035481296
 20
-2489.7479993159859
 30
0.0
 41
1.0
 10
-633.87614283237019
 20
-2489.6007097755692
 30
0.0
 41
0.9995293688566947
 10
-633.7248711513846
 20
-2489.4624365634031
 30
0.0
 41
1.0
 10
-633.70557739211915
 20
-2489.4448006777502
 30
0.0
 41
1.0
 10
-633.6862836328537
 20
-2489.4271647920973
 30
0.0
 41
1.0
 10
-633.57359947040129
 20
-2489.3241633512389
 30
0.0
 41
0.9997087614803422
 10
-633.4560765814465
 20
-2489.2267190704415
 30
0.0
 41
1.0
 10
-633.43691050827715
 20
-2489.2108274919383
 30
0.0
 41
1.0
 10
-633.41774443510769
 20
-2489.1949359134355
 30
0.0
 41
1.0
 10
-633.33855369249466
 20
-2489.1292747896464
 30
0.0
 41
0.9999595338697105
 10
-633.25819442163697
 20
-2489.0650490589883
 30
0.0
 41
1.0
 10
-633.17783515076962
 20
-2489.0008233283229
 30
0.0
 41
0.9999749417514815
 10
-633.09657461641916
 20
-2488.9377417743713
 30
0.0
 41
1.0
 10
-633.07558847026257
 20
-2488.9214504870743
 30
0.0
 41
1.0
 10
-633.05460232410599
 20
-2488.9051591997777
 30
0.0
 41
1.0
 10
-632.97003443880249
 20
-2488.8395101899359
 30
0.0
 41
0.9999792037116032
 10
-632.88462683903595
 20
-2488.7749574082941
 30
0.0
 41
1.0
 10
-632.86380201313546
 20
-2488.7592175860445
 30
0.0
 41
1.0
 10
-632.84297718723496
 20
-2488.743477763795
 30
0.0
 41
1.0
 10
-632.79921923927861
 20
-2488.7104046266595
 30
0.0
 41
0.9999993374281797
 10
-632.75553755312353
 20
-2488.6772308312266
 30
0.0
 41
1.0
 10
-632.71185586698573
 20
-2488.6440570358068
 30
0.0
 41
0.9999160953816967
 10
-632.66732945606282
 20
-2488.6120259706058
 30
0.0
 41
1.0
 10
-632.63450756864233
 20
-2488.5884148150199
 30
0.0
 41
1.0
 10
-632.60168568122185
 20
-2488.5648036594343
 30
0.0
 41
1.0
 10
-632.49151549546377
 20
-2488.4855502830665
 30
0.0
 41
0.998096452723121
 10
-632.37242650196288
 20
-2488.4204628102102
 30
0.0
 41
1.0
 10
-632.3353938950338
 20
-2488.4002228306167
 30
0.0
 41
1.0
 10
-632.29836128810484
 20
-2488.3799828510232
 30
0.0
 41
1.0
 10
-632.1190342748331
 20
-2488.2819726003231
 30
0.0
 41
0.9984572810573472
 10
-631.92994570847418
 20
-2488.2044503389766
 30
0.0
 41
1.0
 10
-631.92629943908196
 20
-2488.2029554466399
 30
0.0
 41
1.0
 10
-631.92265316968985
 20
-2488.2014605543036
 30
0.0
 41
1.0
 10
-631.74085714211947
 20
-2488.1269280776314
 30
0.0
 41
0.9987838528033235
 10
-631.5526044835558
 20
-2488.0706624374643
 30
0.0
 41
1.0
 10
-631.54836653435689
 20
-2488.0693957837739
 30
0.0
 41
1.0
 10
-631.54412858515798
 20
-2488.0681291300839
 30
0.0
 41
1.0
 10
-631.36435182499542
 20
-2488.0143967972986
 30
0.0
 41
0.9990652816207274
 10
-631.18060589328047
 20
-2487.9763931177567
 30
0.0
 41
1.0
 10
-631.17541749224438
 20
-2487.9753200146492
 30
0.0
 41
1.0
 10
-631.1702290912084
 20
-2487.9742469115417
 30
0.0
 41
1.0
 10
-630.9968599615604
 20
-2487.9383894382145
 30
0.0
 41
0.9992909934271445
 10
-630.82128419510695
 20
-2487.9156790057482
 30
0.0
 41
1.0
 10
-630.64570842865407
 20
-2487.8929685732819
 30
0.0
 41
0.9994553539448063
 10
-630.46901699556645
 20
-2487.8818892690761
 30
0.0
 41
1.0
 10
-630.43358258776175
 20
-2487.8796673810275
 30
0.0
 41
1.0
 10
-630.39814817995716
 20
-2487.8774454929794
 30
0.0
 41
1.0
 10
-630.23192241339109
 20
-2487.8670224305683
 30
0.0
 41
0.9990928098293721
 10
-630.06541262149199
 20
-2487.8707820718028
 30
0.0
 41
1.0
 10
-630.02685078622142
 20
-2487.871652763336
 30
0.0
 41
1.0
 10
-629.98828895095085
 20
-2487.8725234548688
 30
0.0
 41
1.0
 10
-629.89890282959038
 20
-2487.8745417130372
 30
0.0
 41
0.9998382089204284
 10
-629.80964714680317
 20
-2487.8797738395651
 30
0.0
 41
1.0
 10
-629.80921724058601
 20
-2487.8797990404673
 30
0.0
 41
1.0
 10
-629.80878733436884
 20
-2487.8798242413695
 30
0.0
 41
1.0
 10
-629.72039146402017
 20
-2487.8850059660926
 30
0.0
 41
0.9997558016757224
 10
-629.63231088681619
 20
-2487.8940884814597
 30
0.0
 41
1.0
 10
-629.6318347483832
 20
-2487.8941375789427
 30
0.0
 41
1.0
 10
-629.63135860995021
 20
-2487.8941866764253
 30
0.0
 41
1.0
 10
-629.54423030961209
 20
-2487.9031709968267
 30
0.0
 41
0.9996565144181669
 10
-629.45769245627321
 20
-2487.9167083035154
 30
0.0
 41
1.0
 10
-629.45722653089547
 20
-2487.9167811892466
 30
0.0
 41
1.0
 10
-629.45676060551784
 20
-2487.9168540749783
 30
0.0
 41
1.0
 10
-629.37115460293069
 20
-2487.9302456102046
 30
0.0
 41
0.9995321806867472
 10
-629.28652752260291
 20
-2487.9488460986336
 30
0.0
 41
1.0
 10
-629.28613832803353
 20
-2487.9489316410991
 30
0.0
 41
1.0
 10
-629.28574913346426
 20
-2487.9490171835641
 30
0.0
 41
1.0
 10
-629.20190044227729
 20
-2487.9674465870621
 30
0.0
 41
0.9993819199218447
 10
-629.11955390807884
 20
-2487.9917219703234
 30
0.0
 41
1.0
 10
-629.11931547458175
 20
-2487.9917922594323
 30
0.0
 41
1.0
 10
-629.11907704108467
 20
-2487.9918625485416
 30
0.0
 41
1.0
 10
-629.03720737388369
 20
-2488.0159973535838
 30
0.0
 41
0.9992088568505552
 10
-628.9575148548945
 20
-2488.0465625893785
 30
0.0
 41
1.0
 10
-628.87783386401554
 20
-2488.0771221901114
 30
0.0
 41
0.9990226101771603
 10
-628.80116319410877
 20
-2488.1145996217265
 30
0.0
 41
1.0
 10
-628.72450405231052
 20
-2488.1520714182802
 30
0.0
 41
0.9988424273972908
 10
-628.6518004250961
 20
-2488.1967361935349
 30
0.0
 41
1.0
 10
-628.65153271671818
 20
-2488.1969006576064
 30
0.0
 41
1.0
 10
-628.65126500834026
 20
-2488.1970651216775
 30
0.0
 41
1.0
 10
-628.57802596436807
 20
-2488.2420588250757
 30
0.0
 41
0.9986928844492262
 10
-628.50976309765838
 20
-2488.294294559355
 30
0.0
 41
1.0
 10
-628.50918180543579
 20
-2488.2947393725826
 30
0.0
 41
1.0
 10
-628.5086005132132
 20
-2488.2951841858103
 30
0.0
 41
1.0
 10
-628.43917506205764
 20
-2488.3483095465454
 30
0.0
 41
0.9986007262275756
 10
-628.37574889229052
 20
-2488.4084703162393
 30
0.0
 41
1.0
 10
-628.37485447683321
 20
-2488.4093186840746
 30
0.0
 41
1.0
 10
-628.37396006137601
 20
-2488.4101670519094
 30
0.0
 41
1.0
 10
-628.30874506069631
 20
-2488.4720245572721
 30
0.0
 41
0.998558149138073
 10
-628.25053744899378
 20
-2488.5405170475451
 30
0.0
 41
1.0
 10
-628.24127899539815
 20
-2488.5514114052467
 30
0.0
 41
1.0
 10
-628.23202054180251
 20
-2488.5623057629482
 30
0.0
 41
1.0
 10
-628.15529602290928
 20
-2488.6525869686247
 30
0.0
 41
0.9970460233525992
 10
-628.09330412174995
 20
-2488.7535540528047
 30
0.0
 41
1.0
 10
-628.07883475667086
 20
-2488.7771205118852
 30
0.0
 41
1.0
 10
-628.06436539159188
 20
-2488.8006869709652
 30
0.0
 41
1.0
 10
-628.02462869157898
 20
-2488.8654066949966
 30
0.0
 41
0.9988468816633406
 10
-627.99128232082671
 20
-2488.9336391474262
 30
0.0
 41
1.0
 10
-627.98424629833335
 20
-2488.9480360685675
 30
0.0
 41
1.0
 10
-627.97721027583987
 20
-2488.9624329897092
 30
0.0
 41
1.0
 10
-627.9579359500749
 20
-2489.0018715998549
 30
0.0
 41
0.9998431189998368
 10
-627.94007062258038
 20
-2489.0419681542949
 30
0.0
 41
1.0
 10
-627.92220529508563
 20
-2489.0820647087348
 30
0.0
 41
0.9999989990182534
 10
-627.90422657166141
 20
-2489.1221105463242
 30
0.0
 41
1.0
 10
-627.89805426006819
 20
-2489.1358587631348
 30
0.0
 41
1.0
 10
-627.89188194847497
 20
-2489.149606979945
 30
0.0
 41
1.0
 10
-627.86155860186739
 20
-2489.2171492511479
 30
0.0
 41
0.9998790356322148
 10
-627.83335072172667
 20
-2489.2856020030922
 30
0.0
 41
1.0
 10
-627.82651554044401
 20
-2489.3021891045155
 30
0.0
 41
1.0
 10
-627.81968035916145
 20
-2489.3187762059392
 30
0.0
 41
1.0
 10
-627.79612269678114
 20
-2489.3759441608249
 30
0.0
 41
0.9998227574561754
 10
-627.77473394838921
 20
-2489.4339584691088
 30
0.0
 41
1.0
 10
-627.75334519999888
 20
-2489.4919727773886
 30
0.0
 41
0.9996797971041695
 10
-627.73491891503886
 20
-2489.5509948965091
 30
0.0
 41
1.0
 10
-627.73101511231403
 20
-2489.5634993546755
 30
0.0
 41
1.0
 10
-627.72711130958919
 20
-2489.5760038128424
 30
0.0
 41
1.0
 10
-627.70087741917951
 20
-2489.6600348482962
 30
0.0
 41
0.9979274938737631
 10
-627.68565289569915
 20
-2489.746739206957
 30
0.0
 41
1.0
 10
-627.6834292084377
 20
-2489.7594032077791
 30
0.0
 41
1.0
 10
-627.68120552117637
 20
-2489.7720672086011
 30
0.0
 41
1.0
 10
-627.67027558147765
 20
-2489.8343137158895
 30
0.0
 41
0.9994985982134887
 10
-627.66330741630077
 20
-2489.8971272170334
 30
0.0
 41
1.0
 10
-627.656339251124
 20
-2489.9599407181772
 30
0.0
 41
0.9996372611202326
 10
-627.65276338535637
 20
-2490.023038296863
 30
0.0
 41
1.0
 10
-627.65259480786722
 20
-2490.0260129139424
 30
0.0
 41
1.0
 10
-627.65242623037807
 20
-2490.0289875310218
 30
0.0
 41
1.0
 10
-627.64851320963203
 20
-2490.0980343438664
 30
0.0
 41
0.9997730630735888
 10
-627.64754489614393
 20
-2490.167185167898
 30
0.0
 41
1.0
 10
-627.6474877897258
 20
-2490.1712633470415
 30
0.0
 41
1.0
 10
-627.64743068330768
 20
-2490.1753415261855
 30
0.0
 41
1.0
 10
-627.64634815698321
 20
-2490.2526487084979
 30
0.0
 41
0.9998772614070197
 10
-627.64768824371436
 20
-2490.3299518550566
 30
0.0
 41
1.0
 10
-627.64777750691314
 20
-2490.3351010188971
 30
0.0
 41
1.0
 10
-627.64786677011193
 20
-2490.3402501827377
 30
0.0
 41
1.0
 10
-627.64938538323986
 20
-2490.4278516569616
 30
0.0
 41
0.9999415567324613
 10
-627.65279769348717
 20
-2490.515399818647
 30
0.0
 41
1.0
 10
-627.65303901416257
 20
-2490.5215912783842
 30
0.0
 41
1.0
 10
-627.65328033483797
 20
-2490.5277827381219
 30
0.0
 41
1.0
 10
-627.65717528643495
 20
-2490.6277138192595
 30
0.0
 41
0.9999716810428423
 10
-627.66257386955385
 20
-2490.7275749575047
 30
0.0
 41
1.0
 10
-627.66578666834198
 20
-2490.7870042071536
 30
0.0
 41
1.0
 10
-627.66899946713022
 20
-2490.846433456803
 30
0.0
 41
1.0
 10
-627.67707337628201
 20
-2490.9957818580801
 30
0.0
 41
0.9999819129896698
 10
-627.68694316789947
 20
-2491.145022335807
 30
0.0
 41
1.0
 10
-627.69681295951591
 20
-2491.2942628135183
 30
0.0
 41
1.0
 10
-627.69925228007992
 20
-2491.3314558593679
 30
0.0
 41
1.0
 10
-627.67655404623417
 20
-2491.2927148620092
 30
0.0
 41
0.9999982128093331
 10
-627.6537094875066
 20
-2491.2540599680997
 30
0.0
 41
1.0
 10
-627.62679992761593
 20
-2491.2085267540347
 30
0.0
 41
1.0
 10
-627.59989036772527
 20
-2491.1629935399696
 30
0.0
 41
1.0
 10
-627.52322668919805
 20
-2491.0332722178982
 30
0.0
 41
0.9998609190056856
 10
-627.4422793763373
 20
-2490.9061798359708
 30
0.0
 41
1.0
 10
-627.41263105485416
 20
-2490.8596301030111
 30
0.0
 41
1.0
 10
-627.38298273337102
 20
-2490.8130803700519
 30
0.0
 41
1.0
 10
-627.30071051313689
 20
-2490.6839078000612
 30
0.0
 41
0.9999067609730249
 10
-627.21494150367266
 20
-2490.5570301106204
 30
0.0
 41
1.0
 10
-627.21253680047278
 20
-2490.5534728445673
 30
0.0
 41
1.0
 10
-627.21013209727289
 20
-2490.5499155785137
 30
0.0
 41
1.0
 10
-627.12917249421332
 20
-2490.4301524211864
 30
0.0
 41
0.9998784952150729
 10
-627.04451888452672
 20
-2490.3129712044702
 30
0.0
 41
1.0
 10
-626.95986527484331
 20
-2490.1957899877584
 30
0.0
 41
0.9998532968283702
 10
-626.8712476540212
 20
-2490.0815770792892
 30
0.0
 41
1.0
 10
-626.85128586503095
 20
-2490.0558497582701
 30
0.0
 41
1.0
 10
-626.83132407604069
 20
-2490.0301224372511
 30
0.0
 41
1.0
 10
-626.71284002628272
 20
-2489.8774168262835
 30
0.0
 41
0.9991551975795727
 10
-626.58221557665888
 20
-2489.7349572641988
 30
0.0
 41
1.0
 10
-626.5787059606771
 20
-2489.7311296625721
 30
0.0
 41
1.0
 10
-626.57519634469543
 20
-2489.7273020609459
 30
0.0
 41
1.0
 10
-626.45159112703527
 20
-2489.5924977021145
 30
0.0
 41
0.9997418144179806
 10
-626.32198898733509
 20
-2489.463448291503
 30
0.0
 41
1.0
 10
-626.19238684763468
 20
-2489.3343988808911
 30
0.0
 41
0.9989238204633888
 10
-626.0513842993829
 20
-2489.2179139188515
 30
0.0
 41
1.0
 10
-626.00613662124317
 20
-2489.1805339272428
 30
0.0
 41
1.0
 10
-625.96088894310344
 20
-2489.143153935634
 30
0.0
 41
1.0
 10
-625.8206488858815
 20
-2489.0272988823426
 30
0.0
 41
0.9990825084096351
 10
-625.67100895327781
 20
-2488.9238698845102
 30
0.0
 41
1.0
 10
-625.66096358922209
 20
-2488.9169266714316
 30
0.0
 41
1.0
 10
-625.65091822516649
 20
-2488.9099834583531
 30
0.0
 41
1.0
 10
-625.52136902067605
 20
-2488.8204408866791
 30
0.0
 41
0.9998164899827388
 10
-625.38848481729724
 20
-2488.7359266451608
 30
0.0
 41
1.0
 10
-625.3766392567702
 20
-2488.7283928786346
 30
0.0
 41
1.0
 10
-625.36479369624317
 20
-2488.720859112108
 30
0.0
 41
1.0
 10
-625.2556006139198
 20
-2488.6514124036439
 30
0.0
 41
0.9997473449130768
 10
-625.14339665667171
 20
-2488.5869434458286
 30
0.0
 41
1.0
 10
-625.03119269942067
 20
-2488.522474488012
 30
0.0
 41
0.9999327861146454
 10
-624.9175240886583
 20
-2488.4606244963311
 30
0.0
 41
1.0
 10
-624.91697208609776
 20
-2488.4603241376522
 30
0.0
 41
1.0
 10
-624.91642008353733
 20
-2488.4600237789732
 30
0.0
 41
1.0
 10
-624.80164746765138
 20
-2488.3975730699331
 30
0.0
 41
0.9996956420483374
 10
-624.68393414180866
 20
-2488.3408596029572
 30
0.0
 41
1.0
 10
-624.65349373691765
 20
-2488.3261936262279
 30
0.0
 41
1.0
 10
-624.62305333202664
 20
-2488.3115276494987
 30
0.0
 41
1.0
 10
-624.52007622528458
 20
-2488.2619139910557
 30
0.0
 41
0.9998070570176822
 10
-624.41522983634309
 20
-2488.2163834041544
 30
0.0
 41
1.0
 10
-624.31038344740796
 20
-2488.1708528172553
 30
0.0
 41
0.9997827436147514
 10
-624.20373051080549
 20
-2488.1297316459463
 30
0.0
 41
1.0
 10
-624.18450766116712
 20
-2488.1223200723116
 30
0.0
 41
1.0
 10
-624.16528481152886
 20
-2488.1149084986764
 30
0.0
 41
1.0
 10
-624.02018617565102
 20
-2488.0589641800984
 30
0.0
 41
0.9988031841977606
 10
-623.87031581304291
 20
-2488.0174641159297
 30
0.0
 41
1.0
 10
-623.84539856468359
 20
-2488.010564370124
 30
0.0
 41
1.0
 10
-623.82048131632439
 20
-2488.0036646243184
 30
0.0
 41
1.0
 10
-623.6532112906774
 20
-2487.9573464819118
 30
0.0
 41
0.9984748040550698
 10
-623.48185438202904
 20
-2487.9297522496468
 30
0.0
 41
1.0
 10
-623.47711524578426
 20
-2487.9289890891341
 30
0.0
 41
1.0
 10
-623.47237610953948
 20
-2487.928225928621
 30
0.0
 41
1.0
 10
-623.31049747338409
 20
-2487.9021580173817
 30
0.0
 41
0.9984436495478652
 10
-623.14672272965504
 20
-2487.8942800635632
 30
0.0
 41
1.0
 10
-623.12502552151886
 20
-2487.8932363763633
 30
0.0
 41
1.0
 10
-623.1033283133828
 20
-2487.8921926891635
 30
0.0
 41
1.0
 10
-622.98294798592588
 20
-2487.8864021097447
 30
0.0
 41
0.9987954789336409
 10
-622.86257974102114
 20
-2487.892438637487
 30
0.0
 41
1.0
 10
-622.84261494853581
 20
-2487.8934398818251
 30
0.0
 41
1.0
 10
-622.82265015605049
 20
-2487.8944411261632
 30
0.0
 41
1.0
 10
-622.74221149612026
 20
-2487.8984751652283
 30
0.0
 41
0.9997941595875605
 10
-622.66200271801677
 20
-2487.9057692311503
 30
0.0
 41
1.0
 10
-622.58179393991702
 20
-2487.9130632970719
 30
0.0
 41
0.999858946623688
 10
-622.50187539305853
 20
-2487.9230471515225
 30
0.0
 41
1.0
 10
-622.46946919125423
 20
-2487.9270955084412
 30
0.0
 41
1.0
 10
-622.43706298944994
 20
-2487.9311438653599
 30
0.0
 41
1.0
 10
-622.2923320389782
 20
-2487.9492244336484
 30
0.0
 41
0.9993495063249813
 10
-622.14928079521133
 20
-2487.9776901433902
 30
0.0
 41
1.0
 10
-622.11634709805821
 20
-2487.9842436066056
 30
0.0
 41
1.0
 10
-622.08341340090499
 20
-2487.9907970698205
 30
0.0
 41
1.0
 10
-621.97411957770237
 20
-2488.0125454039553
 30
0.0
 41
0.9996788715561656
 10
-621.86606800574896
 20
-2488.0398032033177
 30
0.0
 41
1.0
 10
-621.86400500320985
 20
-2488.0403236298907
 30
0.0
 41
1.0
 10
-621.86194200067075
 20
-2488.0408440564634
 30
0.0
 41
1.0
 10
-621.75801643379316
 20
-2488.0670610026805
 30
0.0
 41
0.9995480654492727
 10
-621.65585419856302
 20
-2488.099475959305
 30
0.0
 41
1.0
 10
-621.65416455643583
 20
-2488.1000120642184
 30
0.0
 41
1.0
 10
-621.65247491430864
 20
-2488.1005481691318
 30
0.0
 41
1.0
 10
-621.55369196333606
 20
-2488.1318909159281
 30
0.0
 41
0.9993867959455305
 10
-621.45734480489023
 20
-2488.1700702852195
 30
0.0
 41
1.0
 10
-621.45610185580676
 20
-2488.1705628271152
 30
0.0
 41
1.0
 10
-621.45485890672319
 20
-2488.1710553690109
 30
0.0
 41
1.0
 10
-621.36099764644962
 20
-2488.2082496545086
 30
0.0
 41
0.9992050256522356
 10
-621.27039797141401
 20
-2488.252803553748
 30
0.0
 41
1.0
 10
-621.26966328870117
 20
-2488.2531648462091
 30
0.0
 41
1.0
 10
-621.26892860598832
 20
-2488.2535261386702
 30
0.0
 41
1.0
 10
-621.17979829638068
 20
-2488.2973574529865
 30
0.0
 41
0.9990222350740547
 10
-621.09488823498737
 20
-2488.3488907206847
 30
0.0
 41
1.0
 10
-621.0947043497049
 20
-2488.349002323589
 30
0.0
 41
1.0
 10
-621.09452046442243
 20
-2488.3491139264938
 30
0.0
 41
1.0
 10
-621.00997817359405
 20
-2488.400423988383
 30
0.0
 41
0.9988642743805497
 10
-620.93070363897527
 20
-2488.4595481759084
 30
0.0
 41
1.0
 10
-620.85142910435536
 20
-2488.5186723634347
 30
0.0
 41
0.998768123331175
 10
-620.77840532007656
 20
-2488.5853630548381
 30
0.0
 41
1.0
 10
-620.77807639211255
 20
-2488.5856634560505
 30
0.0
 41
1.0
 10
-620.77774746414866
 20
-2488.5859638572629
 30
0.0
 41
1.0
 10
-620.70406582394185
 20
-2488.653255351091
 30
0.0
 41
0.998749657089727
 10
-620.63747201861486
 20
-2488.7275681651781
 30
0.0
 41
1.0
 10
-620.63669984885405
 20
-2488.7284298385366
 30
0.0
 41
1.0
 10
-620.63592767909336
 20
-2488.7292915118946
 30
0.0
 41
1.0
 10
-620.56778953424691
 20
-2488.805327672696
 30
0.0
 41
0.9988147669829754
 10
-620.50736728002244
 20
-2488.8876286795362
 30
0.0
 41
1.0
 10
-620.50624795394356
 20
-2488.8891533108904
 30
0.0
 41
1.0
 10
-620.50512862786468
 20
-2488.8906779422446
 30
0.0
 41
1.0
 10
-620.44246772148404
 20
-2488.9760282117909
 30
0.0
 41
0.9989452636214911
 10
-620.38790080852255
 20
-2489.0667669009486
 30
0.0
 41
1.0
 10
-620.38655208243654
 20
-2489.0690096819753
 30
0.0
 41
1.0
 10
-620.38520335635053
 20
-2489.0712524630021
 30
0.0
 41
1.0
 10
-620.32793899121793
 20
-2489.166476714212
 30
0.0
 41
0.9991046436069691
 10
-620.27892977789577
 20
-2489.2662011472389
 30
0.0
 41
1.0
 10
-620.27746591630603
 20
-2489.2691798273108
 30
0.0
 41
1.0
 10
-620.2760020547164
 20
-2489.2721585073828
 30
0.0
 41
1.0
 10
-620.22406511821544
 20
-2489.3778403005526
 30
0.0
 41
0.9992763831101699
 10
-620.18031198966059
 20
-2489.4871643625079
 30
0.0
 41
1.0
 10
-620.17883271999699
 20
-2489.4908605500423
 30
0.0
 41
1.0
 10
-620.17735345033338
 20
-2489.4945567375762
 30
0.0
 41
1.0
 10
-620.13064178245111
 20
-2489.6112731745998
 30
0.0
 41
0.9994163472882751
 10
-620.09200875125953
 20
-2489.7309067630699
 30
0.0
 41
1.0
 10
-620.09077059901551
 20
-2489.7347409068439
 30
0.0
 41
1.0
 10
-620.08953244677161
 20
-2489.7385750506178
 30
0.0
 41
1.0
 10
-620.04964888575262
 20
-2489.8620811121
 30
0.0
 41
0.9997268055891063
 10
-620.01558082983843
 20
-2489.9873161440582
 30
0.0
 41
1.0
 10
-620.01465064956813
 20
-2489.9907355101695
 30
0.0
 41
1.0
 10
-620.01372046929782
 20
-2489.9941548762813
 30
0.0
 41
1.0
 10
-619.98151277392685
 20
-2490.1125511760069
 30
0.0
 41
0.9996701319000181
 10
-619.95542715715578
 20
-2490.232445129272
 30
0.0
 41
1.0
 10
-619.92934154038517
 20
-2490.3523390825349
 30
0.0
 41
0.999578545110911
 10
-619.91025796304552
 20
-2490.4735448435672
 30
0.0
 41
1.0
 10
-619.90603818087175
 20
-2490.5003459983327
 30
0.0
 41
1.0
 10
-619.90181839869797
 20
-2490.5271471530978
 30
0.0
 41
1.0
 10
-619.8752434227597
 20
-2490.6959331268004
 30
0.0
 41
0.9979925101216383
 10
-619.87021783683372
 20
-2490.8667244548919
 30
0.0
 41
1.0
 10
-619.86939302440908
 20
-2490.894755178374
 30
0.0
 41
1.0
 10
-619.86856821198444
 20
-2490.9227859018561
 30
0.0
 41
1.0
 10
-619.86519225090785
 20
-2491.0375157829876
 30
0.0
 41
0.9995314902263944
 10
-619.86884244304633
 20
-2491.1522372667355
 30
0.0
 41
1.0
 10
-619.87249263518481
 20
-2491.2669587504847
 30
0.0
 41
0.9996245486944584
 10
-619.88242173031574
 20
-2491.3813080216096
 30
0.0
 41
1.0
 10
-619.88258477831005
 20
-2491.3831857777459
 30
0.0
 41
1.0
 10
-619.88274782630447
 20
-2491.3850635338822
 30
0.0
 41
1.0
 10
-619.89300301742401
 20
-2491.5031683172774
 30
0.0
 41
0.9997286095001993
 10
-619.90874834099463
 20
-2491.620667226171
 30
0.0
 41
1.0
 10
-619.90914183364498
 20
-2491.6236036508731
 30
0.0
 41
1.0
 10
-619.90953532629533
 20
-2491.6265400755751
 30
0.0
 41
1.0
 10
-619.9260676351679
 20
-2491.7499118338792
 30
0.0
 41
0.9998265533968797
 10
-619.94718309389964
 20
-2491.8725823086602
 30
0.0
 41
1.0
 10
-619.94785963603692
 20
-2491.8765126871685
 30
0.0
 41
1.0
 10
-619.94853617817421
 20
-2491.8804430656769
 30
0.0
 41
1.0
 10
-619.97100472118279
 20
-2492.0109742974864
 30
0.0
 41
0.999902253085292
 10
-619.99711418579193
 20
-2492.1408262661203
 30
0.0
 41
1.0
 10
-619.99809282695719
 20
-2492.1456934085068
 30
0.0
 41
1.0
 10
-619.99907146812234
 20
-2492.1505605508933
 30
0.0
 41
1.0
 10
-620.02713821506381
 20
-2492.290146804311
 30
0.0
 41
0.9999524761935462
 10
-620.05792118389729
 20
-2492.4291592974678
 30
0.0
 41
1.0
 10
-620.05919729107313
 20
-2492.4349220567719
 30
0.0
 41
1.0
 10
-620.06047339824886
 20
-2492.4406848160756
 30
0.0
 41
1.0
 10
-620.09380858143538
 20
-2492.5912228278476
 30
0.0
 41
0.9999813588714371
 10
-620.12897958223243
 20
-2492.741342540508
 30
0.0
 41
1.0
 10
-620.13053350768814
 20
-2492.7479751309265
 30
0.0
 41
1.0
 10
-620.13208743314385
 20
-2492.7546077213456
 30
0.0
 41
1.0
 10
-620.17036628485721
 20
-2492.9179926148636
 30
0.0
 41
0.9999955237631079
 10
-620.20962216283272
 20
-2493.0811455184507
 30
0.0
 41
1.0
 10
-620.22190379846734
 20
-2493.1321897089747
 30
0.0
 41
1.0
 10
-620.23418543410185
 20
-2493.1832338994991
 30
0.0
 41
1.0
 10
-620.29800458333671
 20
-2493.4484751840937
 30
0.0
 41
0.9999993604677944
 10
-620.36242353052728
 20
-2493.7135714348719
 30
0.0
 41
1.0
 10
-620.36714236606986
 20
-2493.7329903428945
 30
0.0
 41
1.0
 10
-620.37186120161255
 20
-2493.7524092509166
 30
0.0
 41
1.0
 10
-620.44571781987759
 20
-2494.0563433176926
 30
0.0
 41
0.9999659914727388
 10
-620.52457741576018
 20
-2494.3590178642426
 30
0.0
 41
1.0
 10
-620.5295301046898
 20
-2494.3780270014213
 30
0.0
 41
1.0
 10
-620.53448279361942
 20
-2494.3970361385996
 30
0.0
 41
1.0
 10
-620.62324776736477
 20
-2494.7377289595197
 30
0.0
 41
0.9999441976024514
 10
-620.7191908003266
 20
-2495.0764703848126
 30
0.0
 41
1.0
 10
-620.73589131875292
 20
-2495.135434097343
 30
0.0
 41
1.0
 10
-620.75259183717912
 20
-2495.194397809873
 30
0.0
 41
1.0
 10
-620.88193590699461
 20
-2495.6510666602308
 30
0.0
 41
0.9999625120735634
 10
-621.01916867431896
 20
-2496.1054271942289
 30
0.0
 41
1.0
 10
-621.05495861740212
 20
-2496.2239232208567
 30
0.0
 41
1.0
 10
-621.09074856048528
 20
-2496.342419247484
 30
0.0
 41
1.0
 10
-621.16526876451962
 20
-2496.5891463255648
 30
0.0
 41
0.9999793386301911
 10
-621.24295478766157
 20
-2496.8348949648157
 30
0.0
 41
1.0
 10
-621.32064081079875
 20
-2497.0806436040516
 30
0.0
 41
1.0
 10
-621.3314203696707
 20
-2497.1146615084267
 30
0.0
 41
1.0
 10
-623.18179342294002
 20
-2503.0017334308941
 30
0.0
 41
1.0
 10
-625.03216647620934
 20
-2508.8888053533615
 30
0.0
 41
1.0
 10
-625.99342316623256
 20
-2508.8888053533615
 30
0.0
 41
1.0
 10
-626.95467985625578
 20
-2508.8888053533615
 30
0.0
 41
1.0
 10
-625.33573507757751
 20
-2503.7407768515718
 30
0.0
 41
1.0
 10
-623.71679029889924
 20
-2498.5927483497821
 30
0.0
 41
1.0
 10
-623.67162447572355
 20
-2498.4487171275082
 30
0.0
 41
1.0
 10
-623.62645865254785
 20
-2498.3046859052342
 30
0.0
 41
1.0
 10
-623.45615423518598
 20
-2497.7615948760758
 30
0.0
 41
0.9999911657903726
 10
-623.2904214235075
 20
-2497.2170913447167
 30
0.0
 41
1.0
 10
-623.26072548000673
 20
-2497.119527404665
 30
0.0
 41
1.0
 10
-623.23102953650596
 20
-2497.0219634646132
 30
0.0
 41
1.0
 10
-623.12468861181662
 20
-2496.6725878133175
 30
0.0
 41
0.9999952428160474
 10
-623.02050502250199
 20
-2496.3225627890033
 30
0.0
 41
1.0
 10
-623.01544555217163
 20
-2496.3055645147351
 30
0.0
 41
1.0
 10
-623.01038608184126
 20
-2496.2885662404674
 30
0.0
 41
1.0
 10
-622.91632143316826
 20
-2495.9725377646255
 30
0.0
 41
0.999993168749777
 10
-622.82459559530321
 20
-2495.6558225513832
 30
0.0
 41
1.0
 10
-622.81966033084655
 20
-2495.6387818421217
 30
0.0
 41
1.0
 10
-622.81472506638977
 20
-2495.6217411328603
 30
0.0
 41
1.0
 10
-622.73286975743599
 20
-2495.3391073381335
 30
0.0
 41
0.9999893840820648
 10
-622.6536225309726
 20
-2495.0557312088663
 30
0.0
 41
1.0
 10
-622.57437530450727
 20
-2494.7723550795918
 30
0.0
 41
0.9999833980065147
 10
-622.49839906377065
 20
-2494.4880844965801
 30
0.0
 41
1.0
 10
-622.48939512705044
 20
-2494.4543956181096
 30
0.0
 41
1.0
 10
-622.48039119033024
 20
-2494.4207067396387
 30
0.0
 41
1.0
 10
-622.41142664146332
 20
-2494.1626709073389
 30
0.0
 41
0.9999233658068779
 10
-622.34887167024203
 20
-2493.9030067486133
 30
0.0
 41
1.0
 10
-622.28631669902165
 20
-2493.6433425898908
 30
0.0
 41
1.0
 10
-622.24683328016431
 20
-2493.4795359254645
 30
0.0
 41
1.0
 10
-622.24185467618804
 20
-2493.4588809635979
 30
0.0
 41
1.0
 10
-622.23687607221177
 20
-2493.4382260017319
 30
0.0
 41
1.0
 10
-622.20734986130742
 20
-2493.3157292610404
 30
0.0
 41
0.9999868670863261
 10
-622.17908077731113
 20
-2493.1929363153927
 30
0.0
 41
1.0
 10
-622.17518329015184
 20
-2493.1760067279683
 30
0.0
 41
1.0
 10
-622.17128580299243
 20
-2493.159077140544
 30
0.0
 41
1.0
 10
-622.15081169331597
 20
-2493.0701433697509
 30
0.0
 41
0.9999778173345228
 10
-622.13152409519967
 20
-2492.9809447525167
 30
0.0
 41
1.0
 10
-622.11223649708268
 20
-2492.8917461352803
 30
0.0
 41
0.9999602692862259
 10
-622.09454213845231
 20
-2492.8022178468545
 30
0.0
 41
1.0
 10
-622.09133830637529
 20
-2492.7860073919719
 30
0.0
 41
1.0
 10
-622.08813447429816
 20
-2492.7697969370888
 30
0.0
 41
1.0
 10
-622.06403245151182
 20
-2492.6478477388891
 30
0.0
 41
0.9995617985320822
 10
-622.04718910429347
 20
-2492.524685991189
 30
0.0
 41
1.0
 10
-622.04472461438672
 20
-2492.5066651738198
 30
0.0
 41
1.0
 10
-622.04226012447987
 20
-2492.488644356451
 30
0.0
 41
1.0
 10
-622.02197686343106
 20
-2492.3403293067504
 30
0.0
 41
0.9991121410637422
 10
-622.01425150984392
 20
-2492.1908332079465
 30
0.0
 41
1.0
 10
-622.01333271981946
 20
-2492.1730533713699
 30
0.0
 41
1.0
 10
-622.012413929795
 20
-2492.1552735347932
 30
0.0
 41
1.0
 10
-622.00652615625665
 20
-2492.0413371091377
 30
0.0
 41
0.9989792494907585
 10
-622.01094524837367
 20
-2491.9273342732422
 30
0.0
 41
1.0
 10
-622.01159322024228
 20
-2491.9106180273166
 30
0.0
 41
1.0
 10
-622.01224119211076
 20
-2491.8939017813909
 30
0.0
 41
1.0
 10
-622.01536434049058
 20
-2491.8133314373476
 30
0.0
 41
0.9997820295393588
 10
-622.02184833786646
 20
-2491.7329617155997
 30
0.0
 41
1.0
 10
-622.02833233524177
 20
-2491.6525919938599
 30
0.0
 41
0.9998335105974737
 10
-622.03774453075346
 20
-2491.5725123774073
 30
0.0
 41
1.0
 10
-622.03933945542985
 20
-2491.5589426469232
 30
0.0
 41
1.0
 10
-622.04093438010636
 20
-2491.5453729164392
 30
0.0
 41
1.0
 10
-622.05353642497096
 20
-2491.4381538390203
 30
0.0
 41
0.9996876457879049
 10
-622.07148033776923
 20
-2491.3316984113062
 30
0.0
 41
1.0
 10
-622.07371200091438
 20
-2491.3184586760653
 30
0.0
 41
1.0
 10
-622.07594366405954
 20
-2491.3052189408245
 30
0.0
 41
1.0
 10
-622.08973948548112
 20
-2491.2233727968642
 30
0.0
 41
0.9995547496494436
 10
-622.10839280737378
 20
-2491.142495299674
 30
0.0
 41
1.0
 10
-622.10876676424505
 20
-2491.1408738889691
 30
0.0
 41
1.0
 10
-622.1091407211162
 20
-2491.1392524782641
 30
0.0
 41
1.0
 10
-622.12704612926609
 20
-2491.0616178024848
 30
0.0
 41
0.9994899427175361
 10
-622.14987103794624
 20
-2490.9852845196483
 30
0.0
 41
1.0
 10
-622.15032956468735
 20
-2490.9837510698585
 30
0.0
 41
1.0
 10
-622.15078809142858
 20
-2490.9822176200687
 30
0.0
 41
1.0
 10
-622.17269594662639
 20
-2490.9089512368123
 30
0.0
 41
0.99937848775919
 10
-622.19971158173189
 20
-2490.8374105316552
 30
0.0
 41
1.0
 10
-622.20024327270903
 20
-2490.8360025489342
 30
0.0
 41
1.0
 10
-622.20077496368617
 20
-2490.8345945662131
 30
0.0
 41
1.0
 10
-622.22672721683864
 20
-2490.765869826495
 30
0.0
 41
0.9992430832252294
 10
-622.2579437519978
 20
-2490.6993706744279
 30
0.0
 41
1.0
 10
-622.25852586805388
 20
-2490.698130619312
 30
0.0
 41
1.0
 10
-622.25910798410996
 20
-2490.6968905641957
 30
0.0
 41
1.0
 10
-622.28916028715616
 20
-2490.6328715223631
 30
0.0
 41
0.9990789632802166
 10
-622.32459091393389
 20
-2490.5716649106098
 30
0.0
 41
1.0
 10
-622.32518662011626
 20
-2490.5706358247498
 30
0.0
 41
1.0
 10
-622.32578232629862
 20
-2490.5696067388899
 30
0.0
 41
1.0
 10
-622.3600215407107
 20
-2490.5104582988592
 30
0.0
 41
0.9988874801120832
 10
-622.39968081674192
 20
-2490.4547985864424
 30
0.0
 41
1.0
 10
-622.40023634280533
 20
-2490.454018934769
 30
0.0
 41
1.0
 10
-622.40079186886885
 20
-2490.4532392830952
 30
0.0
 41
1.0
 10
-622.43934009277348
 20
-2490.3991388740251
 30
0.0
 41
0.9986762060693115
 10
-622.48324256404953
 20
-2490.3492851595856
 30
0.0
 41
1.0
 10
-622.48368652438194
 20
-2490.3487810177689
 30
0.0
 41
1.0
 10
-622.48413048471423
 20
-2490.3482768759523
 30
0.0
 41
1.0
 10
-622.52714503532525
 20
-2490.2994314451466
 30
0.0
 41
0.9984621642485669
 10
-622.57530259210375
 20
-2490.2556481446754
 30
0.0
 41
1.0
 10
-622.57554922662109
 20
-2490.2554239125111
 30
0.0
 41
1.0
 10
-622.57579586113843
 20
-2490.2551996803468
 30
0.0
 41
1.0
 10
-622.62346014888351
 20
-2490.2118648442033
 30
0.0
 41
0.9982724693856874
 10
-622.67587878072277
 20
-2490.1744204936863
 30
0.0
 41
1.0
 10
-622.7282974125643
 20
-2490.1369761431679
 30
0.0
 41
0.9981399180154305
 10
-622.7848834759576
 20
-2490.1061896237247
 30
0.0
 41
1.0
 10
-622.78492913803598
 20
-2490.1061647805677
 30
0.0
 41
1.0
 10
-622.78497480011424
 20
-2490.1061399374107
 30
0.0
 41
1.0
 10
-622.84165218766339
 20
-2490.075303731654
 30
0.0
 41
0.998092708684021
 10
-622.90169753872829
 20
-2490.0516869228018
 30
0.0
 41
1.0
 10
-622.90213770844161
 20
-2490.051513796926
 30
0.0
 41
1.0
 10
-622.90257787815494
 20
-2490.0513406710506
 30
0.0
 41
1.0
 10
-622.96350356864571
 20
-2490.0273776104477
 30
0.0
 41
0.9981411356562169
 10
-623.02689209004484
 20
-2490.0110049689424
 30
0.0
 41
1.0
 10
-623.02777420674613
 20
-2490.0107771267367
 30
0.0
 41
1.0
 10
-623.02865632344742
 20
-2490.0105492845314
 30
0.0
 41
1.0
 10
-623.09380907825141
 20
-2489.9937209586142
 30
0.0
 41
0.998303181293423
 10
-623.16047650724886
 20
-2489.9845815974377
 30
0.0
 41
1.0
 10
-623.16934753264627
 20
-2489.9833654787672
 30
0.0
 41
1.0
 10
-623.1782185580438
 20
-2489.9821493600971
 30
0.0
 41
1.0
 10
-623.23256820055121
 20
-2489.9746986301052
 30
0.0
 41
0.9983887708263312
 10
-623.28741204984794
 20
-2489.9734539564715
 30
0.0
 41
1.0
 10
-623.29547545507955
 20
-2489.9732709585965
 30
0.0
 41
1.0
 10
-623.30353886031116
 20
-2489.9730879607214
 30
0.0
 41
1.0
 10
-623.34225589915513
 20
-2489.9722092828379
 30
0.0
 41
0.9998869563078813
 10
-623.38098185234389
 20
-2489.972495152198
 30
0.0
 41
1.0
 10
-623.41970780554652
 20
-2489.9727810215577
 30
0.0
 41
0.9999972320059177
 10
-623.45843198475745
 20
-2489.9732491210866
 30
0.0
 41
1.0
 10
-623.47778500133745
 20
-2489.973483061176
 30
0.0
 41
1.0
 10
-623.49713801791745
 20
-2489.9737170012654
 30
0.0
 41
1.0
 10
-623.57456823028281
 20
-2489.9746529809731
 30
0.0
 41
0.9997304945087344
 10
-623.65187153651459
 20
-2489.9791820747587
 30
0.0
 41
1.0
 10
-623.66092117822461
 20
-2489.979712280749
 30
0.0
 41
1.0
 10
-623.66997081993463
 20
-2489.9802424867394
 30
0.0
 41
1.0
 10
-623.76537340958487
 20
-2489.9858319925061
 30
0.0
 41
0.9997888306416825
 10
-623.86046574543138
 20
-2489.9953369569953
 30
0.0
 41
1.0
 10
-623.86918680700023
 20
-2489.9962086716268
 30
0.0
 41
1.0
 10
-623.87790786856908
 20
-2489.9970803862589
 30
0.0
 41
1.0
 10
-623.99044232755841
 20
-2490.0083287800121
 30
0.0
 41
0.998417023819109
 10
-624.10100147491028
 20
-2490.0321448619479
 30
0.0
 41
1.0
 10
-624.13738260589594
 20
-2490.0399818977539
 30
0.0
 41
1.0
 10
-624.17376373688171
 20
-2490.0478189335599
 30
0.0
 41
1.0
 10
-624.28895480530275
 20
-2490.0726328000696
 30
0.0
 41
0.9976592854198422
 10
-624.39968297170776
 20
-2490.112931477217
 30
0.0
 41
1.0
 10
-624.51041113811209
 20
-2490.1532301543643
 30
0.0
 41
0.9993255074352977
 10
-624.61788293690131
 20
-2490.2015470528559
 30
0.0
 41
1.0
 10
-624.62250811582544
 20
-2490.2036264290559
 30
0.0
 41
1.0
 10
-624.62713329474968
 20
-2490.205705805256
 30
0.0
 41
1.0
 10
-624.74385545138477
 20
-2490.2581814561468
 30
0.0
 41
0.9976475078276496
 10
-624.85230279569487
 20
-2490.3261294458039
 30
0.0
 41
1.0
 10
-624.87064518983323
 20
-2490.3376219246206
 30
0.0
 41
1.0
 10
-624.88898758397158
 20
-2490.3491144034374
 30
0.0
 41
1.0
 10
-624.97318977552129
 20
-2490.4018715242041
 30
0.0
 41
0.9995131336406081
 10
-625.05393749047721
 20
-2490.4597777361569
 30
0.0
 41
1.0
 10
-625.13468520543529
 20
-2490.517683948111
 30
0.0
 41
0.9995810107607968
 10
-625.21194685316527
 20
-2490.5801656305771
 30
0.0
 41
1.0
 10
-625.21491688437459
 20
-2490.582567502041
 30
0.0
 41
1.0
 10
-625.2178869155839
 20
-2490.5849693735049
 30
0.0
 41
1.0
 10
-625.30108862573456
 20
-2490.6522547989002
 30
0.0
 41
0.9996617837953378
 10
-625.38067931286741
 20
-2490.7237752544584
 30
0.0
 41
1.0
 10
-625.39281006374483
 20
-2490.7346759874495
 30
0.0
 41
1.0
 10
-625.40494081462225
 20
-2490.7455767204406
 30
0.0
 41
1.0
 10
-625.47321634202001
 20
-2490.8069293359144
 30
0.0
 41
0.9997267750052548
 10
-625.53854985030353
 20
-2490.8714058724399
 30
0.0
 41
1.0
 10
-625.60388335858283
 20
-2490.9358824089613
 30
0.0
 41
0.9999667288958849
 10
-625.66815630173335
 20
-2491.0014162158595
 30
0.0
 41
1.0
 10
-625.73698374950868
 20
-2491.071593874618
 30
0.0
 41
1.0
 10
-625.8058111972839
 20
-2491.141771533376
 30
0.0
 41
1.0
 10
-626.00773903598042
 20
-2491.347660657786
 30
0.0
 41
0.998820533517454
 10
-626.18874465296176
 20
-2491.5721648898493
 30
0.0
 41
1.0
 10
-626.21938461786556
 20
-2491.6101681402779
 30
0.0
 41
1.0
 10
-626.25002458276936
 20
-2491.6481713907069
 30
0.0
 41
1.0
 10
-626.49231012955681
 20
-2491.948682123626
 30
0.0
 41
0.9997077826754752
 10
-626.71978808066092
 20
-2492.2605519178405
 30
0.0
 41
1.0
 10
-626.72151149579258
 20
-2492.2629147012217
 30
0.0
 41
1.0
 10
-626.72323491092425
 20
-2492.2652774846028
 30
0.0
 41
1.0
 10
-626.95415969229077
 20
-2492.5818728455783
 30
0.0
 41
0.9989147567078741
 10
-627.15462319517496
 20
-2492.9185823067646
 30
0.0
 41
1.0
 10
-627.17936434048124
 20
-2492.9601388873161
 30
0.0
 41
1.0
 10
-627.20410548578764
 20
-2493.0016954678676
 30
0.0
 41
1.0
 10
-627.35931678442455
 20
-2493.2623968523194
 30
0.0
 41
0.9997476598181222
 10
-627.50266177193475
 20
-2493.5298066009036
 30
0.0
 41
1.0
 10
-627.64600675944507
 20
-2493.7972163494883
 30
0.0
 41
0.9996258967110399
 10
-627.77451501137637
 20
-2494.0720642861115
 30
0.0
 41
1.0
 10
-627.78771492082558
 20
-2494.1002956862062
 30
0.0
 41
1.0
 10
-627.80091483027479
 20
-2494.1285270863009
 30
0.0
 41
1.0
 10
-627.94112355127299
 20
-2494.4283994842503
 30
0.0
 41
0.9998735413944138
 10
-628.07172489799518
 20
-2494.7325790837222
 30
0.0
 41
1.0
 10
-628.07516772605572
 20
-2494.7405976691871
 30
0.0
 41
1.0
 10
-628.07861055411627
 20
-2494.7486162546516
 30
0.0
 41
1.0
 10
-628.20232624471521
 20
-2495.036758683189
 30
0.0
 41
0.9999377418859988
 10
-628.31958104689033
 20
-2495.327590150865
 30
0.0
 41
1.0
 10
-628.43683584906444
 20
-2495.6184216185384
 30
0.0
 41
0.9999508299510328
 10
-628.54829979244425
 20
-2495.9115212953643
 30
0.0
 41
1.0
 10
-628.5513805611065
 20
-2495.9196223213276
 30
0.0
 41
1.0
 10
-628.55446132976863
 20
-2495.9277233472903
 30
0.0
 41
1.0
 10
-628.67208681047282
 20
-2496.2370250760423
 30
0.0
 41
0.9999609228428967
 10
-628.78422541334419
 20
-2496.5483580920527
 30
0.0
 41
1.0
 10
-628.78718142369416
 20
-2496.5565649324635
 30
0.0
 41
1.0
 10
-628.79013743404425
 20
-2496.5647717728739
 30
0.0
 41
1.0
 10
-628.90818805761933
 20
-2496.8925184697155
 30
0.0
 41
0.9999674607403585
 10
-629.02093558368676
 20
-2497.222127089708
 30
0.0
 41
1.0
 10
-629.07233397424829
 20
-2497.3723862853967
 30
0.0
 41
1.0
 10
-629.12373236480983
 20
-2497.5226454810854
 30
0.0
 41
1.0
 10
-629.23974297156963
 20
-2497.861793463594
 30
0.0
 41
0.9999287532305805
 10
-629.34762437553923
 20
-2498.2036142025659
 30
0.0
 41
1.0
 10
-629.39410163167736
 20
-2498.3508767469339
 30
0.0
 41
1.0
 10
-629.4405788878156
 20
-2498.4981392913023
 30
0.0
 41
1.0
 10
-629.45550577948961
 20
-2498.5454349414767
 30
0.0
 41
0.9999998222879397
 10
-629.47037628824069
 20
-2498.5927483497821
 30
0.0
 41
1.0
 10
-631.09103242503602
 20
-2503.7407768515718
 30
0.0
 41
1.0
 10
-632.71168856183135
 20
-2508.8888053533615
 30
0.0
 41
1.0
 10
-633.6169970057224
 20
-2508.8888053533615
 30
0.0
 41
1.0
 10
-634.52230544961344
 20
-2508.8888053533615
 30
0.0
 41
1.0
 10
-632.67022103822706
 20
-2503.0017334308941
 30
0.0
 41
1.0
 10
-630.81813662684067
 20
-2497.1146615084267
 30
0.0
 41
1.0
 10
-630.80801486853738
 20
-2497.0826182949763
 30
0.0
 41
1.0
 10
-630.73540719968764
 20
-2496.8523187531505
 30
0.0
 41
1.0
 10
-630.66279953083949
 20
-2496.6220192113296
 30
0.0
 41
0.9999825681978236
 10
-630.59291649162458
 20
-2496.3908783162528
 30
0.0
 41
1.0
 10
-630.54462542946658
 20
-2496.231153732766
 30
0.0
 41
1.0
 10
-630.49633436730846
 20
-2496.0714291492786
 30
0.0
 41
1.0
 10
-630.39918201399496
 20
-2495.7500939275146
 30
0.0
 41
0.9999672528964114
 10
-630.30724320836703
 20
-2495.42722838191
 30
0.0
 41
1.0
 10
-630.30445432469787
 20
-2495.4174345365223
 30
0.0
 41
1.0
 10
-630.30166544102872
 20
-2495.4076406911345
 30
0.0
 41
1.0
 10
-630.21530440274455
 20
-2495.1043628363245
 30
0.0
 41
0.9999899749153076
 10
-630.13166279320899
 20
-2494.8003237478711
 30
0.0
 41
1.0
 10
-630.12155687419045
 20
-2494.763588510189
 30
0.0
 41
1.0
 10
-630.11145095517179
 20
-2494.726853272507
 30
0.0
 41
1.0
 10
-630.04802118367434
 20
-2494.4962846594212
 30
0.0
 41
0.9999214200505071
 10
-629.99039175529538
 20
-2494.2641983172093
 30
0.0
 41
1.0
 10
-629.9776259031147
 20
-2494.212787431813
 30
0.0
 41
1.0
 10
-629.96486005093402
 20
-2494.1613765464172
 30
0.0
 41
1.0
 10
-629.93276232692187
 20
-2494.0321119750206
 30
0.0
 41
0.9999828681677314
 10
-629.90218007492217
 20
-2493.9024805005324
 30
0.0
 41
1.0
 10
-629.87159782292883
 20
-2493.7728490260715
 30
0.0
 41
0.9999389844474436
 10
-629.84388683413636
 20
-2493.6425735701578
 30
0.0
 41
1.0
 10
-629.8367490904169
 20
-2493.6090174663241
 30
0.0
 41
1.0
 10
-629.82961134669745
 20
-2493.5754613624904
 30
0.0
 41
1.0
 10
-629.78762487046811
 20
-2493.3780736989179
 30
0.0
 41
0.9998933699440935
 10
-629.75142060606618
 20
-2493.1795440911615
 30
0.0
 41
1.0
 10
-629.7500477808494
 20
-2493.1720160704626
 30
0.0
 41
1.0
 10
-629.74867495563262
 20
-2493.1644880497638
 30
0.0
 41
1.0
 10
-629.70972504079725
 20
-2492.9509024006097
 30
0.0
 41
0.9996850305193575
 10
-629.68154136453882
 20
-2492.7356313951714
 30
0.0
 41
1.0
 10
-629.67954633116972
 20
-2492.720393041051
 30
0.0
 41
1.0
 10
-629.67755129780062
 20
-2492.7051546869307
 30
0.0
 41
1.0
 10
-629.65014343534222
 20
-2492.4958094597796
 30
0.0
 41
0.9994697936706637
 10
-629.63641887612243
 20
-2492.285124264446
 30
0.0
 41
1.0
 10
-629.63594180687278
 20
-2492.2778007922352
 30
0.0
 41
1.0
 10
-629.63546473762312
 20
-2492.2704773200248
 30
0.0
 41
1.0
 10
-629.62269431690288
 20
-2492.0744390691157
 30
0.0
 41
0.9991804893137197
 10
-629.6258226331754
 20
-2491.8780102191422
 30
0.0
 41
1.0
 10
-629.62590651199753
 20
-2491.872743417729
 30
0.0
 41
1.0
 10
-629.62599039081965
 20
-2491.8674766163158
 30
0.0
 41
1.0
 10
-629.62895094944793
 20
-2491.6815813691683
 30
0.0
 41
0.9988448329320899
 10
-629.64974249507191
 20
-2491.4968287793354
 30
0.0
 41
1.0
 10
-629.65133656877504
 20
-2491.4826639235635
 30
0.0
 41
1.0
 10
-629.65293064247817
 20
-2491.4684990677911
 30
0.0
 41
1.0
 10
-629.670534040696
 20
-2491.3120761894988
 30
0.0
 41
0.9985503209458092
 10
-629.70485031299518
 20
-2491.1584520054125
 30
0.0
 41
1.0
 10
-629.71243630506638
 20
-2491.1244916780115
 30
0.0
 41
1.0
 10
-629.72002229713769
 20
-2491.0905313506109
 30
0.0
 41
1.0
 10
-629.73916658529504
 20
-2491.0048278213212
 30
0.0
 41
0.9991036781370193
 10
-629.76549144694559
 20
-2490.9210507339981
 30
0.0
 41
1.0
 10
-629.76947367240132
 20
-2490.908377571488
 30
0.0
 41
1.0
 10
-629.77345589785705
 20
-2490.8957044089784
 30
0.0
 41
1.0
 10
-629.79181630859659
 20
-2490.8372736466736
 30
0.0
 41
0.9998874504368653
 10
-629.81192151627579
 20
-2490.77942004445
 30
0.0
 41
1.0
 10
-629.8320267239543
 20
-2490.7215664422283
 30
0.0
 41
0.9994041637545938
 10
-629.85607533688813
 20
-2490.6652377383398
 30
0.0
 41
1.0
 10
-629.86027212111276
 20
-2490.6554076738562
 30
0.0
 41
1.0
 10
-629.8644689053375
 20
-2490.6455776093726
 30
0.0
 41
1.0
 10
-629.89234773633268
 20
-2490.5802774434046
 30
0.0
 41
0.9991846840702502
 10
-629.92540409302524
 20
-2490.5174394121254
 30
0.0
 41
1.0
 10
-629.92654069942046
 20
-2490.5152787956704
 30
0.0
 41
1.0
 10
-629.92767730581568
 20
-2490.5131181792153
 30
0.0
 41
1.0
 10
-629.95846044971859
 20
-2490.4546013808449
 30
0.0
 41
0.9989253167924966
 10
-629.99452987377276
 20
-2490.3991864524551
 30
0.0
 41
1.0
 10
-629.99558399844727
 20
-2490.3975669576921
 30
0.0
 41
1.0
 10
-629.99663812312167
 20
-2490.3959474629296
 30
0.0
 41
1.0
 10
-630.03059929782705
 20
-2490.3437715240648
 30
0.0
 41
0.9986467172832469
 10
-630.06979645046499
 20
-2490.2954054904353
 30
0.0
 41
1.0
 10
-630.07067057916538
 20
-2490.2943268881572
 30
0.0
 41
1.0
 10
-630.07154470786577
 20
-2490.2932482858796
 30
0.0
 41
1.0
 10
-630.10899360310236
 20
-2490.2470394568063
 30
0.0
 41
0.9984001104270265
 10
-630.15142033361985
 20
-2490.2053543494371
 30
0.0
 41
1.0
 10
-630.15200747172912
 20
-2490.2047774745561
 30
0.0
 41
1.0
 10
-630.15259460983839
 20
-2490.204200599675
 30
0.0
 41
1.0
 10
-630.19384706413689
 20
-2490.1636692420684
 30
0.0
 41
0.9982442159083033
 10
-630.23960316547232
 20
-2490.128300680808
 30
0.0
 41
1.0
 10
-630.23981796093358
 20
-2490.1281346481651
 30
0.0
 41
1.0
 10
-630.24003275639495
 20
-2490.1279686155221
 30
0.0
 41
1.0
 10
-630.28535926680775
 20
-2490.0929321195476
 30
0.0
 41
0.9982450060835688
 10
-630.33451024587953
 20
-2490.0635003365142
 30
0.0
 41
1.0
 10
-630.38366122495108
 20
-2490.0340685534807
 30
0.0
 41
0.9983922639635511
 10
-630.43582753111582
 20
-2490.0103889188267
 30
0.0
 41
1.0
 10
-630.43605440844044
 20
-2490.0102859333451
 30
0.0
 41
1.0
 10
-630.43628128576506
 20
-2490.0101829478635
 30
0.0
 41
1.0
 10
-630.48890134657881
 20
-2489.9862973422464
 30
0.0
 41
0.9986517147147604
 10
-630.54371431944753
 20
-2489.9679962231248
 30
0.0
 41
1.0
 10
-630.54439224087514
 20
-2489.9677698766936
 30
0.0
 41
1.0
 10
-630.54507016230286
 20
-2489.967543530262
 30
0.0
 41
1.0
 10
-630.60123897802907
 20
-2489.9487897182767
 30
0.0
 41
0.9989435598957727
 10
-630.65889236518262
 20
-2489.9352720160418
 30
0.0
 41
1.0
 10
-630.65997248476197
 20
-2489.9350187657892
 30
0.0
 41
1.0
 10
-630.66105260434119
 20
-2489.934765515537
 30
0.0
 41
1.0
 10
-630.72086623065104
 20
-2489.9207413127974
 30
0.0
 41
0.9992249241241038
 10
-630.78159773954383
 20
-2489.9114659700826
 30
0.0
 41
1.0
 10
-630.78301142783926
 20
-2489.9112500616739
 30
0.0
 41
1.0
 10
-630.7844251161348
 20
-2489.9110341532655
 30
0.0
 41
1.0
 10
-630.84798400161833
 20
-2489.9013269937341
 30
0.0
 41
0.9994396597833457
 10
-630.91204993815961
 20
-2489.8958940713878
 30
0.0
 41
1.0
 10
-630.93119060563299
 20
-2489.8942709036696
 30
0.0
 41
1.0
 10
-630.95033127310649
 20
-2489.8926477359514
 30
0.0
 41
1.0
 10
-631.05267854459646
 20
-2489.8839684781683
 30
0.0
 41
0.9987693403121403
 10
-631.15538216818084
 20
-2489.885471541621
 30
0.0
 41
1.0
 10
-631.16563650241005
 20
-2489.8856216133954
 30
0.0
 41
1.0
 10
-631.17589083663938
 20
-2489.8857716851699
 30
0.0
 41
1.0
 10
-631.28544660281852
 20
-2489.8873750294574
 30
0.0
 41
0.9989753644966876
 10
-631.39440860283571
 20
-2489.8988780363825
 30
0.0
 41
1.0
 10
-631.50337060285369
 20
-2489.9103810433076
 30
0.0
 41
0.9983190067305898
 10
-631.61026941382045
 20
-2489.9344160350947
 30
0.0
 41
1.0
 10
-631.61917036542604
 20
-2489.9364173136573
 30
0.0
 41
1.0
 10
-631.62807131703153
 20
-2489.9384185922195
 30
0.0
 41
1.0
 10
-631.75277203121072
 20
-2489.9664561411314
 30
0.0
 41
0.9985539388302184
 10
-631.87374178489017
 20
-2490.0077198171775
 30
0.0
 41
1.0
 10
-631.87608721584968
 20
-2490.0085198609931
 30
0.0
 41
1.0
 10
-631.87843264680919
 20
-2490.0093199048088
 30
0.0
 41
1.0
 10
-632.00409326240504
 20
-2490.0521836684852
 30
0.0
 41
0.9988468746493657
 10
-632.12506360470275
 20
-2490.1069017535465
 30
0.0
 41
1.0
 10
-632.12824642669375
 20
-2490.1083414281075
 30
0.0
 41
1.0
 10
-632.13142924868475
 20
-2490.1097811026684
 30
0.0
 41
1.0
 10
-632.25876523496424
 20
-2490.1673785368516
 30
0.0
 41
0.9991322885919621
 10
-632.38086581902223
 20
-2490.2353738690344
 30
0.0
 41
1.0
 10
-632.39846783006385
 20
-2490.2451760710228
 30
0.0
 41
1.0
 10
-632.41606984110547
 20
-2490.2549782730116
 30
0.0
 41
1.0
 10
-632.51824652216214
 20
-2490.3118783887921
 30
0.0
 41
0.9993860037849295
 10
-632.61618752623667
 20
-2490.3757944043814
 30
0.0
 41
1.0
 10
-632.62180583909549
 20
-2490.3794608990802
 30
0.0
 41
1.0
 10
-632.62742415195419
 20
-2490.3831273937794
 30
0.0
 41
1.0
 10
-632.71412853031825
 20
-2490.4397104199757
 30
0.0
 41
0.9998821494952929
 10
-632.79905490612305
 20
-2490.4989286500468
 30
0.0
 41
1.0
 10
-632.88398128193433
 20
-2490.5581468801224
 30
0.0
 41
0.9997976482744115
 10
-632.96645691233152
 20
-2490.620733288159
 30
0.0
 41
1.0
 10
-632.98109317714068
 20
-2490.631839977942
 30
0.0
 41
1.0
 10
-632.99572944194983
 20
-2490.642946667725
 30
0.0
 41
1.0
 10
-633.10747760196421
 20
-2490.7277464553272
 30
0.0
 41
0.9998091630799894
 10
-633.21582787999535
 20
-2490.8168468060308
 30
0.0
 41
1.0
 10
-633.22883363247092
 20
-2490.8275419064753
 30
0.0
 41
1.0
 10
-633.24183938494639
 20
-2490.8382370069198
 30
0.0
 41
1.0
 10
-633.37620116792607
 20
-2490.9487275585107
 30
0.0
 41
0.9995035112316242
 10
-633.50333704568993
 20
-2491.0674613755268
 30
0.0
 41
1.0
 10
-633.51298435607691
 20
-2491.0764711216843
 30
0.0
 41
1.0
 10
-633.52263166646378
 20
-2491.0854808678419
 30
0.0
 41
1.0
 10
-633.64605472922835
 20
-2491.2007472395981
 30
0.0
 41
0.9994630424300126
 10
-633.76166313501449
 20
-2491.3238499828353
 30
0.0
 41
1.0
 10
-633.76534597378725
 20
-2491.3277715623499
 30
0.0
 41
1.0
 10
-633.76902881256001
 20
-2491.3316931418644
 30
0.0
 41
1.0
 10
-633.87727154079766
 20
-2491.4469527260694
 30
0.0
 41
0.9995160693749583
 10
-633.97813757033032
 20
-2491.5687201439428
 30
0.0
 41
1.0
 10
-633.98007129040991
 20
-2491.5710545681495
 30
0.0
 41
1.0
 10
-633.9820050104895
 20
-2491.5733889923563
 30
0.0
 41
1.0
 10
-634.0790035998599
 20
-2491.690487561812
 30
0.0
 41
0.9996561470514895
 10
-634.16972981852882
 20
-2491.8125103242642
 30
0.0
 41
1.0
 10
-634.17588748443222
 20
-2491.820792113308
 30
0.0
 41
1.0
 10
-634.18204515033563
 20
-2491.8290739023523
 30
0.0
 41
1.0
 10
-634.26045603719717
 20
-2491.9345330867154
 30
0.0
 41
0.999834905517388
 10
-634.33498331912665
 20
-2492.0427716703771
 30
0.0
 41
1.0
 10
-634.40951060105567
 20
-2492.1510102540378
 30
0.0
 41
0.999972810957254
 10
-634.48243349697043
 20
-2492.2603361795977
 30
0.0
 41
1.0
 10
-634.48374871238161
 20
-2492.2623079490995
 30
0.0
 41
1.0
 10
-634.48506392779268
 20
-2492.2642797186008
 30
0.0
 41
1.0
 10
-634.5606172545356
 20
-2492.377549183173
 30
0.0
 41
0.999997214739047
 10
-634.63563506489152
 20
-2492.4911740259831
 30
0.0
 41
1.0
 10
-634.64060660751829
 20
-2492.4987041144623
 30
0.0
 41
1.0
 10
-634.64557815014518
 20
-2492.5062342029414
 30
0.0
 41
1.0
 10
-634.73053904576511
 20
-2492.6349192227253
 30
0.0
 41
0.9999371979006126
 10
-634.8125943951618
 20
-2492.7654761364897
 30
0.0
 41
1.0
 10
-634.81610327952683
 20
-2492.7710590645602
 30
0.0
 41
1.0
 10
-634.81961216389186
 20
-2492.7766419926302
 30
0.0
 41
1.0
 10
-634.90868528202429
 20
-2492.9183647625437
 30
0.0
 41
0.9998272025610367
 10
-634.99242867290468
 20
-2493.0633006392832
 30
0.0
 41
1.0
 10
-635.00764384492811
 20
-2493.0896337537388
 30
0.0
 41
1.0
 10
-635.02285901695154
 20
-2493.1159668681944
 30
0.0
 41
1.0
 10
-635.13703275188107
 20
-2493.3135689738483
 30
0.0
 41
0.9995217214838222
 10
-635.23877244143762
 20
-2493.5178513017122
 30
0.0
 41
1.0
 10
-635.24641600407381
 20
-2493.5331987514173
 30
0.0
 41
1.0
 10
-635.25405956671
 20
-2493.5485462011225
 30
0.0
 41
1.0
 10
-635.34096485929729
 20
-2493.7230426591991
 30
0.0
 41
0.9998269762607267
 10
-635.4213193255689
 20
-2493.9006509459232
 30
0.0
 41
1.0
 10
-635.50167379183699
 20
-2494.0782592326391
 30
0.0
 41
0.9998944747387895
 10
-635.5768345864044
 20
-2494.2581269582743
 30
0.0
 41
1.0
 10
-635.5817882559943
 20
-2494.269981613189
 30
0.0
 41
1.0
 10
-635.58674192558431
 20
-2494.2818362681032
 30
0.0
 41
1.0
 10
-635.66738898614074
 20
-2494.4748332081303
 30
0.0
 41
0.9999506734413548
 10
-635.7441865150447
 20
-2494.6693940129858
 30
0.0
 41
1.0
 10
-635.7587864803146
 20
-2494.7063819347891
 30
0.0
 41
1.0
 10
-635.77338644558449
 20
-2494.7433698565924
 30
0.0
 41
1.0
 10
-635.82098404394083
 20
-2494.8639548178207
 30
0.0
 41
0.99999123939433
 10
-635.8675704879704
 20
-2494.9849340205378
 30
0.0
 41
1.0
 10
-635.91415693200361
 20
-2495.105913223264
 30
0.0
 41
0.9999927113938126
 10
-635.95981822638896
 20
-2495.227244630742
 30
0.0
 41
1.0
 10
-635.97378665778558
 20
-2495.264361612738
 30
0.0
 41
1.0
 10
-635.9877550891822
 20
-2495.3014785947335
 30
0.0
 41
1.0
 10
-636.0613532463708
 20
-2495.4970439662288
 30
0.0
 41
0.999948755095177
 10
-636.13097687134461
 20
-2495.6940593314166
 30
0.0
 41
1.0
 10
-636.15457048128201
 20
-2495.7608226417105
 30
0.0
 41
1.0
 10
-636.17816409121951
 20
-2495.8275859520049
 30
0.0
 41
1.0
 10
-636.27284972558277
 20
-2496.0955197868088
 30
0.0
 41
0.9999808436944383
 10
-636.36421131423026
 20
-2496.3646052180907
 30
0.0
 41
1.0
 10
-636.45557290287343
 20
-2496.6336906493611
 30
0.0
 41
0.9999873932923081
 10
-636.54422761158673
 20
-2496.9036800043605
 30
0.0
 41
1.0
 10
-636.56431996845731
 20
-2496.9648693371173
 30
0.0
 41
1.0
 10
-636.584412325328
 20
-2497.0260586698741
 30
0.0
 41
1.0
 10
-636.71325174777917
 20
-2497.4184266903767
 30
0.0
 41
0.9999794883029107
 10
-636.83705453274433
 20
-2497.8124128966756
 30
0.0
 41
1.0
 10
-636.84820679218183
 20
-2497.8479035069122
 30
0.0
 41
1.0
 10
-636.85935905161921
 20
-2497.8833941171492
 30
0.0
 41
1.0
 10
-637.00191721550755
 20
-2498.337066869205
 30
0.0
 41
0.9999982761841372
 10
-637.14278965552944
 20
-2498.7912658913551
 30
0.0
 41
1.0
 10
-638.73092998810239
 20
-2503.8400356223583
 30
0.0
 41
1.0
 10
-640.31907032067534
 20
-2508.8888053533615
 30
0.0
 41
1.0
 10
-641.26782093215184
 20
-2508.8888053533615
 30
0.0
 41
1.0
 10
-642.21657154362833
 20
-2508.8888053533615
 30
0.0
 41
1.0
 10
-638.9782870574752
 20
-2498.5614831534153
 30
0.0
 41
1.0
 10
-635.74000257132207
 20
-2488.2341609534692
 30
0.0
 41
1.0
  0
LWPOLYLINE
  5
64
100
AcDbEntity
  8
0
370
              15
390
0
  6
Continuous
 62
               7
100
AcDbPolyline
 90
      232
 70
             128
 10
-661.44354834514957
 20
-2489.3185037849839
 42
0.0004370800681639
 10
-661.49642551923625
 20
-2489.3871704242606
 10
-661.53570975034813
 20
-2489.4382775371373
 42
0.0030481992164357
 10
-661.66604846747214
 20
-2489.6099992294889
 10
-661.70456013921716
 20
-2489.6613860132697
 42
0.0042058245747748
 10
-661.90854518988954
 20
-2489.9383917583464
 10
-661.96095031238815
 20
-2490.0108246051241
 42
0.0120948898746717
 10
-662.25699422915045
 20
-2490.4415742096735
 10
-662.35318672827225
 20
-2490.5890549448982
 42
0.0141601263949343
 10
-662.65683077519384
 20
-2491.084724281633
 10
-662.69636804262404
 20
-2491.1535682490721
 42
0.007113108130054
 10
-662.90164036585861
 20
-2491.5230710479032
 42
0.0068458791008101
 10
-663.09651989270048
 20
-2491.8981626113764
 10
-663.10333175515984
 20
-2491.911724325103
 42
0.006412088029812
 10
-663.3014740052032
 20
-2492.3191488000216
 10
-663.30900869072025
 20
-2492.335160656743
 42
0.0058857236437624
 10
-663.51176408259016
 20
-2492.779536767775
 10
-663.51993900888533
 20
-2492.7980269214117
 42
0.0053189741895687
 10
-663.72864332155234
 20
-2493.2839903953268
 10
-663.73739112723501
 20
-2493.3049722735259
 42
0.0047503650421195
 10
-663.95336485338623
 20
-2493.8371717067362
 10
-663.96263310173413
 20
-2493.8606480828435
 42
0.0042071762169724
 10
-664.18718048546305
 20
-2494.4437416769151
 10
-664.19692988781094
 20
-2494.4697078517829
 42
0.0036680086491372
 10
-664.43138453112431
 20
-2495.108343236318
 10
-664.44159231097069
 20
-2495.1367917706589
 42
0.0032573142621416
 10
-664.68722459693811
 20
-2495.8356444304154
 10
-664.75587511777564
 20
-2496.0351075144595
 42
0.0026133366649377
 10
-665.10432031653613
 20
-2497.064970798137
 10
-665.16757710403954
 20
-2497.255201633538
 42
0.0020592950748561
 10
-665.38144017300397
 20
-2497.9073052861431
 10
-665.38449196416605
 20
-2497.9167417745498
 42
0.0025609928531381
 10
-665.58631246565233
 20
-2498.5518869969187
 10
-665.58890383277901
 20
-2498.5601893378589
 42
0.0031362356234521
 10
-665.7783946184561
 20
-2499.1809521940386
 10
-665.78052566138524
 20
-2499.1880935002555
 42
0.0037229918036963
 10
-665.95732604831005
 20
-2499.797078802224
 10
-665.95900463751582
 20
-2499.8030256923962
 42
0.0043077623705221
 10
-666.12274543958097
 20
-2500.4028444241676
 42
0.0047654161822496
 10
-666.27557416209527
 20
-2501.0055305130627
 10
-666.31003877093622
 20
-2501.1470922902195
 42
0.0112969368448625
 10
-666.50590312908025
 20
-2502.0387844508437
 10
-666.53390951817687
 20
-2502.1816124969414
 42
0.0130056762571627
 10
-666.73474676182354
 20
-2503.3685535685863
 10
-666.75528651197078
 20
-2503.5126316820642
 42
0.0138721532144906
 10
-666.85898951650847
 20
-2504.419461167889
 10
-666.87828500441606
 20
-2504.64295888981
 42
0.007125469701207
 10
-666.91163165033845
 20
-2505.1061458986615
 10
-666.91659262450173
 20
-2505.1921498932252
 42
0.0028881799196326
 10
-666.93173091779113
 20
-2505.483891603064
 42
0.006029729713258
 10
-666.94166311756692
 20
-2505.7758405391842
 10
-666.94272539923395
 20
-2505.8242329111108
 42
0.0229523164141186
 10
-666.93499437144851
 20
-2506.1469877573954
 10
-666.93076859792791
 20
-2506.2073912914161
 42
0.0123673300695161
 10
-666.91168995140993
 20
-2506.4085120165864
 42
0.0128577674462783
 10
-666.88249456100459
 20
-2506.6084098665078
 10
-666.87536868761686
 20
-2506.6497386811102
 42
0.0285717853779474
 10
-666.81087468592102
 20
-2506.9278548324241
 10
-666.79720616225461
 20
-2506.9745096019005
 42
0.0316283099143376
 10
-666.68139558234066
 20
-2507.2935241037271
 10
-666.67834689058463
 20
-2507.3005104760537
 42
0.0338984824275413
 10
-666.52891517961757
 20
-2507.5880764402418
 10
-666.52660645024844
 20
-2507.5918674695163
 42
0.0350228718320107
 10
-666.34424615957391
 20
-2507.8489194541944
 10
-666.34336090779823
 20
-2507.849998531959
 42
0.0347476747542773
 10
-666.12893622055958
 20
-2508.0771835791784
 42
0.0331337701915988
 10
-665.8856928948137
 20
-2508.2733122412551
 10
-665.88459279629637
 20
-2508.2740849444285
 42
0.0305233319083823
 10
-665.61604810072174
 20
-2508.43921311452
 10
-665.61281805622161
 20
-2508.4409371263823
 42
0.027374448114745
 10
-665.32026434465024
 20
-2508.5770752702715
 10
-665.31515980950985
 20
-2508.5791188547423
 42
0.024096440620159
 10
-664.99968273385639
 20
-2508.6881025810262
 10
-664.99309940465423
 20
-2508.6900273206988
 42
0.0209636179815498
 10
-664.65569925200532
 20
-2508.7734954686298
 10
-664.64806679155276
 20
-2508.7750473816322
 42
0.0181388704688718
 10
-664.289744399553
 20
-2508.8344634748464
 10
-664.28146355117565
 20
-2508.8355296586633
 42
0.0156086547583683
 10
-663.90327618698632
 20
-2508.8722658452402
 10
-663.8600809346616
 20
-2508.8751043477191
 42
0.0137148329029506
 10
-663.53240778936083
 20
-2508.8876246029704
 10
-663.48647159942652
 20
-2508.8881190360853
 42
0.0051057823878782
 10
-663.25032601284306
 20
-2508.8882492904945
 42
0.0052256693312137
 10
-663.01422872906028
 20
-2508.8835004660305
 10
-662.94400194531568
 20
-2508.8813535000163
 42
0.0161507179044122
 10
-662.5682648672132
 20
-2508.85770312969
 10
-662.54825190684164
 20
-2508.8557929344024
 42
0.0101216737839228
 10
-662.13422468533975
 20
-2508.8078000040355
 10
-662.10017139592378
 20
-2508.8031523072273
 42
0.0245291776396643
 10
-661.62338174037507
 20
-2508.7140772291514
 10
-661.53855842484631
 20
-2508.6938813088045
 42
0.0143509212559419
 10
-661.18192732090915
 20
-2508.5980766750263
 42
0.0156557857039537
 10
-660.83171125618344
 20
-2508.4810654592079
 10
-660.82421004168714
 20
-2508.4782952974533
 42
0.0170137333628222
 10
-660.4676140460009
 20
-2508.3326376825803
 10
-660.46051012359817
 20
-2508.3294498470186
 42
0.0183105364412762
 10
-660.10116045543703
 20
-2508.152114805197
 10
-660.09421369079314
 20
-2508.1483643703223
 42
0.0194899958153925
 10
-659.73573294980383
 20
-2507.9363853884279
 10
-659.72871907047261
 20
-2507.9318600461365
 42
0.02048698529473
 10
-659.37470476837962
 20
-2507.6823400310518
 10
-659.36743915979127
 20
-2507.6767599657023
 42
0.021251693855905
 10
-659.02144922868411
 20
-2507.386855968809
 10
-658.97493253460459
 20
-2507.3443886587115
 42
0.0215248918255282
 10
-658.71490636571957
 20
-2507.0856243797193
 10
-658.66987663134
 20
-2507.0367802583705
 42
0.0114578554947014
 10
-658.5150844776615
 20
-2506.8609573249114
 10
-658.50388994167258
 20
-2506.8476385613635
 42
0.0061531305140122
 10
-658.37741529568007
 20
-2506.6933490280603
 42
0.0006325587133244
 10
-658.25303681154037
 20
-2506.5373456523989
 10
-658.22999667647741
 20
-2506.5083721317251
 42
0.0041897761542497
 10
-658.06154127248954
 20
-2506.2928527556433
 10
-658.00307915261305
 20
-2506.2167514086782
 42
0.0092993880033976
 10
-657.72646722539287
 20
-2505.8424726448002
 10
-657.64407273218865
 20
-2505.7265356412245
 42
0.0159321727097805
 10
-657.29746624954782
 20
-2505.2043614204695
 10
-657.25311011415931
 20
-2505.1326818562197
 42
0.0085547317003947
 10
-657.01859834883339
 20
-2504.7388069069948
 42
0.0084601156902201
 10
-656.79762217138898
 20
-2504.3371800579594
 10
-656.78950669756045
 20
-2504.3218203756896
 42
0.0081429654282052
 10
-656.56625742712231
 20
-2503.8820988631473
 10
-656.55739726293882
 20
-2503.8639200211292
 42
0.0076574581330979
 10
-656.33098975237033
 20
-2503.3807371458729
 10
-656.32151011164819
 20
-2503.3596726675732
 42
0.0070682724203183
 10
-656.09106520383875
 20
-2502.8276353627862
 10
-656.0810749198597
 20
-2502.8036461737806
 42
0.006455951444391
 10
-655.84574171167878
 20
-2502.2173339072642
 10
-655.83533235351274
 20
-2502.1903989818193
 42
0.0058311413910207
 10
-655.59428561674963
 20
-2501.5443668874336
 10
-655.58353053936276
 20
-2501.5144825462748
 42
0.0052312425816298
 10
-655.33594926132139
 20
-2500.8032801324375
 10
-655.32490542494247
 20
-2500.7704534203708
 42
0.0046680544800736
 10
-655.06997699720853
 20
-2499.9886271046166
 10
-655.02798484716766
 20
-2499.8556438673322
 42
0.0041666856437413
 10
-654.82469883476983
 20
-2499.192675092318
 10
-654.78703639409855
 20
-2499.0660939846398
 42
0.0015170975163815
 10
-654.66584981569281
 20
-2498.6542256331709
 42
-0.0004887993118731
 10
-654.54551004255325
 20
-2498.2421072210723
 10
-654.46903278507466
 20
-2497.9811498351878
 42
0.0002583378930268
 10
-654.19581821495626
 20
-2497.0470931318237
 10
-654.1140453654466
 20
-2496.7669938724698
 42
0.0006636169665146
 10
-653.92017760542217
 20
-2496.0996409488389
 10
-653.91508095107508
 20
-2496.082009365959
 42
0.0010589131325228
 10
-653.73363225015851
 20
-2495.4492780229102
 10
-653.72865017967035
 20
-2495.4317651158635
 42
0.001565552446268
 10
-653.56037997249564
 20
-2494.833148436689
 10
-653.55554977208476
 20
-2494.8157562777678
 42
0.0021640440477254
 10
-653.40125980009429
 20
-2494.2507292597347
 10
-653.39662558066311
 20
-2494.2334645297365
 42
0.0028763871851182
 10
-653.25710986261106
 20
-2493.701496578894
 10
-653.25272399844368
 20
-2493.6843726007392
 42
0.0037310511950606
 10
-653.12876730660787
 20
-2493.1849250067157
 10
-653.1246920863199
 20
-2493.167964735474
 42
0.0047652197757075
 10
-653.01706818581056
 20
-2492.700486967165
 10
-653.01337758648685
 20
-2492.6837274120135
 42
0.0060276699299628
 10
-652.92284748733232
 20
-2492.2476516168708
 10
-652.91962879704306
 20
-2492.2311504025611
 42
0.0075824337768157
 10
-652.8469394876272
 20
-2491.8258832381357
 10
-652.84429411024712
 20
-2491.8097282906865
 42
0.0095130624623685
 10
-652.79017887461646
 20
-2491.4346389376133
 10
-652.78319265073424
 20
-2491.3787053794977
 42
0.0121054653212008
 10
-652.75660132015651
 20
-2491.1138095510228
 10
-652.75573483039705
 20
-2491.1024061080948
 42
0.0069050827385233
 10
-652.74064601235909
 20
-2490.8594648812496
 10
-652.73951071269039
 20
-2490.8359386242018
 42
0.016906397667168
 10
-652.73668343370969
 20
-2490.6397458969041
 10
-652.73785408524077
 20
-2490.5794101355468
 42
0.0052007733050953
 10
-652.7401075338355
 20
-2490.5038167454027
 42
0.0054038123386582
 10
-652.76007104567225
 20
-2490.3837984493989
 10
-652.76515690154406
 20
-2490.3551399628118
 42
0.0112050460437973
 10
-652.8005412636054
 20
-2490.1788135244637
 10
-652.81836622564401
 20
-2490.0992719377518
 42
0.0240764468004077
 10
-652.90926359178786
 20
-2489.7690349022555
 10
-652.92782235460504
 20
-2489.7124147372497
 42
0.02568123318457
 10
-653.07118527479156
 20
-2489.3406905309994
 10
-653.07659470061128
 20
-2489.3285591960134
 42
0.0268360501221218
 10
-653.24602194146314
 20
-2488.9975660619889
 10
-653.25155834909879
 20
-2488.9880463916757
 42
0.0274670231729129
 10
-653.44375932551225
 20
-2488.6957590167594
 10
-653.44914062547434
 20
-2488.688479869219
 42
0.0275035967096535
 10
-653.66071350503694
 20
-2488.4329639789139
 10
-653.66578300600463
 20
-2488.4274848912823
 42
0.0269557673524039
 10
-653.89318654944213
 20
-2488.2068426053211
 10
-653.89792960722571
 20
-2488.2027126508592
 42
0.0259124802221186
 10
-654.13748443865529
 20
-2488.0150221237081
 10
-654.14201528383796
 20
-2488.0118366213774
 42
0.0245162152997282
 10
-654.38993163693317
 20
-2487.8551036122672
 10
-654.39445818325407
 20
-2487.8525434150683
 42
0.0229282588839712
 10
-654.64687774008485
 20
-2487.7246752225674
 10
-654.65165823392374
 20
-2487.7225229228043
 42
0.0212984135689439
 10
-654.90469618638303
 20
-2487.6213240055631
 10
-654.91000047135117
 20
-2487.6194604428038
 42
0.0197555462354862
 10
-655.15977880907553
 20
-2487.5426450248383
 42
0.0183511896777791
 10
-655.41470753453837
 20
-2487.485062117873
 10
-655.50107273126355
 20
-2487.4688593274877
 42
0.0338057877148474
 10
-655.78658008052093
 20
-2487.4350509223477
 10
-655.87758548555701
 20
-2487.4304712670864
 42
0.0091990524478969
 10
-655.9834325941963
 20
-2487.4270954111639
 42
0.0028333980804495
 10
-656.08934651017466
 20
-2487.4262673036474
 10
-656.09026196323862
 20
-2487.4262653338233
 42
-0.0023619827819611
 10
-656.19800797833102
 20
-2487.4255244927454
 10
-656.2344131485213
 20
-2487.4251021862819
 42
0.0008824598477985
 10
-656.41496913841377
 20
-2487.4233264080431
 10
-656.45883057077731
 20
-2487.4229724465181
 42
0.0038132665759867
 10
-656.72711346663834
 20
-2487.4228535104512
 10
-656.74364712144938
 20
-2487.4229722765949
 42
0.0060665569345692
 10
-657.04492761306267
 20
-2487.4287925760163
 10
-657.05917794506581
 20
-2487.4292408839833
 42
0.0080356953333699
 10
-657.38863666140253
 20
-2487.4449086060504
 10
-657.40070667649229
 20
-2487.4456771889909
 42
0.0098996399102166
 10
-657.7534697611361
 20
-2487.4751624181881
 10
-657.76351547051831
 20
-2487.476202714387
 42
0.0117740981365322
 10
-658.13467232885932
 20
-2487.5234949619153
 10
-658.14289502535007
 20
-2487.5247400784874
 42
0.0137435215141497
 10
-658.52748384484778
 20
-2487.5938370520516
 10
-658.53414088395834
 20
-2487.5952229482828
 42
0.0158359869379361
 10
-658.92713797776037
 20
-2487.6901150367635
 10
-658.93255116462728
 20
-2487.6916049776341
 42
0.0180554124023709
 10
-659.32886620923568
 20
-2487.8162429938711
 10
-659.33342299732317
 20
-2487.8178590301391
 42
0.0203657431281553
 10
-659.72790051513255
 20
-2487.9761193716536
 10
-659.73204405414231
 20
-2487.9779809930965
 42
0.022681968466162
 10
-660.11948011034997
 20
-2488.1736235717694
 10
-660.12367990136477
 20
-2488.1759891636875
 42
0.0248634984605074
 10
-660.49886184254444
 20
-2488.4126158096342
 10
-660.54705677132779
 20
-2488.4464728514595
 42
0.0267044190884031
 10
-660.82134946824567
 20
-2488.6619132273286
 42
0.0139303002202844
 10
-661.07751663418833
 20
-2488.8991520682448
 10
-661.08237001990506
 20
-2488.9039047311007
 42
0.0283460963431067
 10
-661.32644261413157
 20
-2489.1716353915444
 10
-661.36611111928937
 20
-2489.2204369690185
 42
0.0070695364812246
 10
-661.44354834514957
 20
-2489.3185037849839
 42
0.0070695364812246
  0
LWPOLYLINE
  5
65
100
AcDbEntity
  8
0
370
              15
390
0
  6
Continuous
 62
               7
100
AcDbPolyline
 90
      226
 70
             128
 10
-664.97236878239414
 20
-2505.0400925911686
 42
-0.0026277636754222
 10
-664.97244666619599
 20
-2504.973320665441
 10
-664.97222930796374
 20
-2504.9201654479821
 42
-0.0088680296719844
 10
-664.96845269167056
 20
-2504.7471496655794
 10
-664.96610633255818
 20
-2504.6878696401254
 42
-0.0077381705633568
 10
-664.95006022179484
 20
-2504.3966091443317
 10
-664.94919231062136
 20
-2504.3843209106421
 42
-0.0068872530504576
 10
-664.92256023087259
 20
-2504.069099158567
 10
-664.92135600668712
 20
-2504.0568581795542
 42
-0.0062130021502891
 10
-664.88376228985931
 20
-2503.7179884883117
 10
-664.88225838632457
 20
-2503.705814616399
 42
-0.0056726929665729
 10
-664.8333365268212
 20
-2503.3436193942816
 10
-664.83156308117736
 20
-2503.3315255940406
 42
-0.0052341884479694
 10
-664.77095249491788
 20
-2502.9463323385216
 10
-664.76893450614148
 20
-2502.9343274085304
 42
-0.0049768450185784
 10
-664.69619582471637
 20
-2502.5264828411023
 10
-664.67194680999341
 20
-2502.3979348580915
 42
-0.0089029805618959
 10
-664.534865958198
 20
-2501.7361594106692
 10
-664.50212058287957
 20
-2501.5911279801458
 42
-0.00803182571005
 10
-664.27257196853895
 20
-2500.6454183482915
 10
-664.26058704209095
 20
-2500.5992877131021
 42
-0.0074265721320693
 10
-663.97657550324209
 20
-2499.5692231347252
 10
-663.95669596012374
 20
-2499.50108907413
 42
-0.0069711922702833
 10
-663.62939138161778
 20
-2498.4348213338039
 10
-663.56943943451222
 20
-2498.2487999754326
 42
-0.0052070422894824
 10
-663.34001420925301
 20
-2497.5615278984019
 10
-663.32273301708642
 20
-2497.5115006178012
 42
-0.0009167004449377
 10
-663.11964112979126
 20
-2496.9270447696308
 42
-0.0025162726941256
 10
-662.91254349952408
 20
-2496.3440035054555
 10
-662.87531888772389
 20
-2496.2408539595644
 42
-0.0028212681462723
 10
-662.62714296876015
 20
-2495.565123327392
 10
-662.61731220600996
 20
-2495.5388158827163
 42
-0.0031964916821284
 10
-662.38101994834665
 20
-2494.9186111205881
 10
-662.37138549434485
 20
-2494.8938011304376
 42
-0.0036281836444104
 10
-662.14627953324703
 20
-2494.3263604495519
 10
-662.13684112309215
 20
-2494.3030630180551
 42
-0.0041269166841947
 10
-661.92222342643049
 20
-2493.7856221220709
 10
-661.88959047001072
 20
-2493.7087436757129
 42
-0.0047472213050235
 10
-661.73254566445553
 20
-2493.3483222078262
 10
-661.72565158324585
 20
-2493.3329016104908
 42
-0.0025651659993746
 10
-661.57729354939761
 20
-2493.0055735547458
 42
-0.0057144635003585
 10
-661.42354385562635
 20
-2492.6807638813834
 10
-661.39551315022243
 20
-2492.6232554989842
 42
-0.0065388068367704
 10
-661.21204612248471
 20
-2492.2590230023238
 10
-661.20358766670699
 20
-2492.2427634229557
 42
-0.0074510843030031
 10
-661.02740542082825
 20
-2491.9160751418317
 10
-661.01922575029914
 20
-2491.9014343645663
 42
-0.0084648979847268
 10
-660.84959189719734
 20
-2491.6095253536018
 10
-660.84173577070749
 20
-2491.5965183619478
 42
-0.0095638542809187
 10
-660.67790032311564
 20
-2491.3366294899724
 10
-660.67042537944565
 20
-2491.3252601285199
 42
-0.0107191626819602
 10
-660.51162379905577
 20
-2491.094648893973
 10
-660.50460706532203
 20
-2491.0849128016048
 42
-0.0118458573887306
 10
-660.35005896681173
 20
-2490.8808406062976
 42
-0.0129184518196751
 10
-660.18560634321386
 20
-2490.6846800901308
 10
-660.15546157084566
 20
-2490.6505540112253
 42
-0.0217742579636371
 10
-659.97884924851292
 20
-2490.4673472409777
 10
-659.96810370405376
 20
-2490.4571304077758
 42
-0.0097266568654923
 10
-659.80204608519648
 20
-2490.3052828333375
 42
-0.0187720905712052
 10
-659.62769850930783
 20
-2490.1632139799494
 10
-659.59699251863424
 20
-2490.1400548975535
 42
-0.0179428207517979
 10
-659.36457179863623
 20
-2489.9775027204405
 10
-659.36091947171894
 20
-2489.9751387855517
 42
-0.017004787770009
 10
-659.12515583418985
 20
-2489.8336782714014
 10
-659.12137284544235
 20
-2489.8315799663646
 42
-0.0160190788356014
 10
-658.88446429780811
 20
-2489.709928664377
 42
-0.0151102861489148
 10
-658.64043251535475
 20
-2489.6032458883192
 10
-658.58804601315001
 20
-2489.5822057554274
 42
-0.0271945441891873
 10
-658.22938345409568
 20
-2489.4603409447222
 10
-658.16031865360503
 20
-2489.4409914034554
 42
-0.0237596594021231
 10
-657.74452180658113
 20
-2489.3455406914736
 10
-657.67645895284454
 20
-2489.3332860033456
 42
-0.0213715440550725
 10
-657.3905840214054
 20
-2489.2943389718371
 10
-657.33043685520477
 20
-2489.2887492571376
 42
-0.0101465655809468
 10
-657.16294432319387
 20
-2489.276605713872
 10
-657.15360393698427
 20
-2489.276118798874
 42
-0.0100375910879966
 10
-657.00444983643297
 20
-2489.2713429809492
 10
-656.99419056674719
 20
-2489.2712205419348
 42
-0.0103625633380591
 10
-656.86548257209756
 20
-2489.2723519754613
 10
-656.84321692082949
 20
-2489.2730093339264
 42
-0.0115689250258454
 10
-656.75916618330189
 20
-2489.2774388401717
 42
-0.0072438037430332
 10
-656.67532790386588
 20
-2489.2850280399211
 10
-656.65852739438992
 20
-2489.2867945826456
 42
-0.0217917313123828
 10
-656.54195763107975
 20
-2489.3042144753658
 10
-656.47635754050327
 20
-2489.3169610837822
 42
-0.0332943556761208
 10
-656.27196537548184
 20
-2489.3710013750879
 10
-656.24179280694318
 20
-2489.3811694522024
 42
-0.0184824084791096
 10
-656.10328775046651
 20
-2489.4336204675928
 42
-0.0198002050689314
 10
-655.96921340995812
 20
-2489.4965045277963
 10
-655.9673267725891
 20
-2489.4974823146722
 42
-0.0212242342988992
 10
-655.83518783018724
 20
-2489.5732450534656
 10
-655.83337253464447
 20
-2489.5743908556738
 42
-0.0226090605772964
 10
-655.70486863342921
 20
-2489.6638704992338
 10
-655.70302419168615
 20
-2489.6652827522257
 42
-0.0238457052245216
 10
-655.57984211039241
 20
-2489.7692786480889
 10
-655.57788938183398
 20
-2489.7710935258542
 42
-0.0248160564169123
 10
-655.46168787453507
 20
-2489.8903681270613
 10
-655.45958424113155
 20
-2489.8927534607674
 42
-0.0254109591437964
 10
-655.35197902326468
 20
-2490.0280418467332
 10
-655.34973100135153
 20
-2490.0311833951323
 42
-0.0255528488270074
 10
-655.25228432255278
 20
-2490.1832104493674
 10
-655.24995322263726
 20
-2490.187292060974
 42
-0.025214679326599
 10
-655.16417219662856
 20
-2490.3567943069702
 10
-655.1618699574708
 20
-2490.3619763888837
 42
-0.0244265635907861
 10
-655.08921526370943
 20
-2490.54972296093
 10
-655.07996886224078
 20
-2490.577588379268
 42
-0.0231319612933703
 10
-655.03404608324831
 20
-2490.7408894260698
 42
-0.011213042434912
 10
-654.99941006070981
 20
-2490.9070930262619
 10
-654.99820753559811
 20
-2490.9135896131456
 42
-0.0210527881221065
 10
-654.97252106022722
 20
-2491.0946452585863
 10
-654.96901046540529
 20
-2491.130050807134
 42
-0.0190029892430671
 10
-654.95356899186049
 20
-2491.3835866534046
 10
-654.9527590154164
 20
-2491.4190622677756
 42
-0.0137974553658086
 10
-654.95430786825227
 20
-2491.7440936745065
 10
-654.95515332320804
 20
-2491.7702124191019
 42
-0.008133663421084
 10
-654.97001265843096
 20
-2492.0755598867008
 42
-0.0073526923568723
 10
-654.99432119180506
 20
-2492.3803081309829
 10
-654.99558261558809
 20
-2492.393644805652
 42
-0.0066886138684887
 10
-655.03131820163378
 20
-2492.7242308491495
 10
-655.03297529110364
 20
-2492.7378524681408
 42
-0.0061359187371476
 10
-655.08082589315393
 20
-2493.094616448238
 10
-655.08286339422716
 20
-2493.10851125107
 42
-0.005669861005351
 10
-655.14351372499414
 20
-2493.4917898199042
 10
-655.14591915831784
 20
-2493.5059489391388
 42
-0.0052721077277471
 10
-655.22005135911661
 20
-2493.9160762788101
 10
-655.22281450795958
 20
-2493.9304929142027
 42
-0.0049289272171476
 10
-655.31110862605954
 20
-2494.3678014253246
 10
-655.3142211207421
 20
-2494.3824702781408
 42
-0.0047415956718143
 10
-655.4174591122727
 20
-2494.8472670355432
 10
-655.4522273226346
 20
-2494.9970741309348
 42
-0.0084404470896085
 10
-655.64224376620655
 20
-2495.7572981554658
 10
-655.64837045419222
 20
-2495.7801622796196
 42
-0.0039635940259148
 10
-655.86982413847682
 20
-2496.5811511438701
 10
-655.88320093365542
 20
-2496.6280827604587
 42
-0.0072475040835556
 10
-656.15064782151899
 20
-2497.5173024768496
 10
-656.22086014834565
 20
-2497.7390428268195
 42
-0.0051345458826356
 10
-656.50761952040443
 20
-2498.6133680146318
 10
-656.52914578716945
 20
-2498.6767942817546
 42
-0.0019150016609207
 10
-656.78467919403897
 20
-2499.4203434019878
 10
-656.79114679843292
 20
-2499.4389308669024
 42
-0.0021524362742404
 10
-657.03962484949875
 20
-2500.1432566886174
 10
-657.04883527019604
 20
-2500.1690102669213
 42
-0.002433128682991
 10
-657.2850905292305
 20
-2500.8196095750372
 10
-657.29413848177705
 20
-2500.8441528813805
 42
-0.0027449721790877
 10
-657.51875305261706
 20
-2501.4432827603159
 10
-657.52764306001029
 20
-2501.4666053501705
 42
-0.0031083229766614
 10
-657.74118554661959
 20
-2502.0165293877476
 10
-657.7499216782935
 20
-2502.0386191036014
 42
-0.0035311343281028
 10
-657.95296286388725
 20
-2502.5416022293357
 10
-657.96154820303252
 20
-2502.56244495284
 42
-0.0040245640942825
 10
-658.15466000682932
 20
-2503.0207542754388
 10
-658.16309612043597
 20
-2503.0403336435193
 42
-0.0046015135852171
 10
-658.3468524135958
 20
-2503.4562386731532
 10
-658.3551385914202
 20
-2503.4745358125965
 42
-0.0052768638275286
 10
-658.53011611037959
 20
-2503.8503086968753
 10
-658.53824832100815
 20
-2503.8673020354217
 42
-0.0060672675641425
 10
-658.7050279337725
 20
-2504.2052176585325
 10
-658.71299741425196
 20
-2504.2208829175256
 42
-0.0069904648870908
 10
-658.87216580825566
 20
-2504.5232187241936
 10
-658.87995720786614
 20
-2504.5375292734202
 42
-0.008063702275965
 10
-659.03210906821164
 20
-2504.8065645765741
 10
-659.03969810084209
 20
-2504.8194924421737
 42
-0.0093006455694665
 10
-659.18543877737443
 20
-2505.0575068406779
 10
-659.19278944411587
 20
-2505.0690248098472
 42
-0.0107060778034515
 10
-659.33273798755704
 20
-2505.2782951272302
 10
-659.33979975583725
 20
-2505.2883806697969
 42
-0.0122723111424483
 10
-659.47459347403469
 20
-2505.4711739992849
 10
-659.47491969758755
 20
-2505.4715943870929
 42
-0.0141836319616906
 10
-659.61850130056314
 20
-2505.6461641449241
 10
-659.6254490562128
 20
-2505.654139145186
 42
-0.0175957477219678
 10
-659.76535522424979
 20
-2505.8037600335938
 42
-0.0080466359663794
 10
-659.9128189892873
 20
-2505.9460825617521
 10
-659.95885353379686
 20
-2505.9891029998362
 42
-0.026960026039432
 10
-660.21213377977665
 20
-2506.2014262583439
 10
-660.27870091607679
 20
-2506.2513776729697
 42
-0.0178362839765141
 10
-660.51864540573274
 20
-2506.4183955992216
 10
-660.52589037672806
 20
-2506.4230641114232
 42
-0.0174650732645606
 10
-660.76222657417543
 20
-2506.5639250763857
 42
-0.0169240130158743
 10
-661.00769282003853
 20
-2506.688217336166
 10
-661.0536789755904
 20
-2506.7095792917303
 42
-0.0318883036840436
 10
-661.40402983121101
 20
-2506.8459176012407
 10
-661.47239536637596
 20
-2506.8676182217159
 42
-0.0284435909905188
 10
-661.84844549266631
 20
-2506.9638356571904
 10
-661.88360365316339
 20
-2506.9707292530188
 42
-0.02439093410053
 10
-662.19704711408372
 20
-2507.0164502840489
 10
-662.24732784085404
 20
-2507.0212958309507
 42
-0.0196639292930156
 10
-662.46292341838193
 20
-2507.0335441164643
 10
-662.51474748953592
 20
-2507.0344473772011
 42
-0.01005015106922
 10
-662.62717077120919
 20
-2507.0341469788477
 10
-662.65883063255876
 20
-2507.0334259069623
 42
-0.0019752031087855
 10
-662.70792296923514
 20
-2507.0321137467527
 10
-662.7106832724653
 20
-2507.0320290549262
 42
0.0065378752027665
 10
-662.75425984721255
 20
-2507.0312621637117
 42
-0.0167974694673561
 10
-662.79779067015284
 20
-2507.0296022651851
 10
-662.801870009406
 20
-2507.0293092542906
 42
-0.0081283276240706
 10
-662.85342980713108
 20
-2507.0247622606539
 10
-662.86516938102318
 20
-2507.0235343430741
 42
-0.0126703440186042
 10
-662.93988767682265
 20
-2507.0137995520017
 10
-662.962675544494
 20
-2507.0102412960873
 42
-0.0117852088416941
 10
-663.08221453032957
 20
-2506.9886783009297
 10
-663.13759498208924
 20
-2506.9773347606956
 42
-0.025177459229583
 10
-663.36443902109784
 20
-2506.9188367512625
 10
-663.40915821093722
 20
-2506.904869931931
 42
-0.0146525199891709
 10
-663.59555119848551
 20
-2506.8406034047293
 42
-0.0166929435847152
 10
-663.7775288546203
 20
-2506.764796271671
 10
-663.78218548588552
 20
-2506.7626713710606
 42
-0.0191684358427418
 10
-663.96736911713117
 20
-2506.6694352872732
 10
-663.97070170289203
 20
-2506.6675940397176
 42
-0.0221181781829138
 10
-664.15401200679332
 20
-2506.5554605413477
 10
-664.15636181080276
 20
-2506.5538762433562
 42
-0.0254984685390975
 10
-664.33265196118771
 20
-2506.4214650933864
 10
-664.35513410889189
 20
-2506.4027127844483
 42
-0.0292492648792491
 10
-664.47990304773316
 20
-2506.2856199848065
 42
-0.0159048957488874
 10
-664.59374304518315
 20
-2506.1575999932079
 10
-664.59506183576264
 20
-2506.1560183801876
 42
-0.0343813379565384
 10
-664.6976990973875
 20
-2506.0141470544204
 10
-664.72919062875064
 20
-2505.9636436623227
 42
-0.0369117275695992
 10
-664.81508313064728
 20
-2505.8001664213757
 42
-0.0191751379927691
 10
-664.88227651620377
 20
-2505.6277618153695
 10
-664.88403983996318
 20
-2505.6226684706949
 42
-0.0378178042215086
 10
-664.93383455874653
 20
-2505.4337276946158
 10
-664.93982985447713
 20
-2505.401167076418
 42
-0.0184846046499594
 10
-664.96054705377151
 20
-2505.2594142558719
 42
-0.0179866351245172
 10
-664.97088005884609
 20
-2505.1165234427954
 10
-664.97093650129204
 20
-2505.1149657561778
 42
-0.0085497186140322
 10
-664.97236878239414
 20
-2505.0400925911686
 42
-0.0085497186140322
  0
ENDBLK
  5
66
100
AcDbEntity
  8
template
390
0
100
AcDbBlockEnd
  0
BLOCK
  5
67
100
AcDbEntity
  8
notes
390
0
100
AcDbBlockBegin
  2
*D3
 70
               1
 10
0.0
 20
0.0
 30
0.0
  3
*D3
  1

  0
LINE
  5
68
100
AcDbEntity
  8
0
370
              -2
390
0
  6
Continuous
 62
               0
100
AcDbLine
 10
-556.50782168316391
 20
-869.93649732610334
 30
0.0
 11
-769.50782168316118
 21
-869.93649732610334
 31
0.0
  0
LINE
  5
69
100
AcDbEntity
  8
0
370
              -2
390
0
  6
Continuous
 62
               0
100
AcDbLine
 10
-556.50782168316391
 20
330.06350267389735
 30
0.0
 11
-769.50782168316118
 21
330.06350267389735
 31
0.0
  0
LINE
  5
6A
100
AcDbEntity
  8
0
370
              -2
390
0
  6
Continuous
 62
               0
100
AcDbLine
 10
-769.50782168316118
 20
-869.93649732610334
 30
0.0
 11
-769.50782168316118
 21
330.06350267389735
 31
0.0
  0
CIRCLE
  5
6B
102
{ACAD_REACTORS
330
6C
102
}
100
AcDbEntity
  8
0
370
              -2
390
0
  6
Continuous
 62
               0
100
AcDbCircle
 10
-769.50782168316118
 20
-869.93649732610334
 30
0.0
 40
1.9998779296875
  0
HATCH
  5
6C
100
AcDbEntity
  8
0
370
              -2
390
0
  6
Continuous
 62
               0
100
AcDbHatch
 10
0.0
 20
0.0
 30
0.0
210
0.0
220
0.0
230
1.0
  2
SOLID
 70
               1
 71
               1
 91
        1
 92
        1
 93
        1
 72
               2
 10
-769.50782168316118
 20
-869.93649732610334
 40
1.9998779296875
 50
0.0
 51
360.0
 73
               0
 97
        1
330
6B
 75
               0
 76
               1
 98
        1
 10
0.0
 20
0.0
  0
CIRCLE
  5
6D
102
{ACAD_REACTORS
330
6E
102
}
100
AcDbEntity
  8
0
370
              -2
390
0
  6
Continuous
 62
               0
100
AcDbCircle
 10
-769.50782168316118
 20
330.06350267389735
 30
0.0
 40
1.9998779296875
  0
HATCH
  5
6E
100
AcDbEntity
  8
0
370
              -2
390
0
  6
Continuous
 62
               0
100
AcDbHatch
 10
0.0
 20
0.0
 30
0.0
210
0.0
220
0.0
230
1.0
  2
SOLID
 70
               1
 71
               1
 91
        1
 92
        1
 93
        1
 72
               2
 10
-769.50782168316118
 20
330.06350267389735
 40
1.9998779296875
 50
0.0
 51
360.0
 73
               0
 97
        1
330
6D
 75
               0
 76
               1
 98
        1
 10
0.0
 20
0.0
  0
MTEXT
  5
6F
100
AcDbEntity
  8
0
390
0
 62
               0
100
AcDbMText
 10
-803.38543887066135
 20
-301.68649732610311
 30
0.0
 40
24.432617187500004
 41
0.0
 71
               1
 72
               1
  1
1200
  7
ＭＳ ゴシック
 11
0.0
 21
1.0
 31
0.0
 73
               1
 44
0.7828267384257843
  0
POINT
  5
70
100
AcDbEntity
  8
Defpoints
370
               0
390
0
 62
               0
100
AcDbPoint
 10
-531.50782168316391
 20
330.06350267389735
 30
0.0
  0
POINT
  5
71
100
AcDbEntity
  8
Defpoints
370
               0
390
0
 62
               0
100
AcDbPoint
 10
-531.50782168316391
 20
-869.93649732610334
 30
0.0
  0
POINT
  5
72
100
AcDbEntity
  8
Defpoints
370
               0
390
0
 62
               0
100
AcDbPoint
 10
-769.50782168316118
 20
-869.93649732610334
 30
0.0
  0
ENDBLK
  5
73
100
AcDbEntity
  8
notes
390
0
100
AcDbBlockEnd
  0
BLOCK
  5
74
100
AcDbEntity
  8
notes
390
0
100
AcDbBlockBegin
  2
*D4
 70
               1
 10
0.0
 20
0.0
 30
0.0
  3
*D4
  1

  0
LINE
  5
75
100
AcDbEntity
  8
0
370
              -2
390
0
  6
Continuous
 62
               0
100
AcDbLine
 10
-506.89336459669448
 20
-369.93649732610288
 30
0.0
 11
-669.50782168316118
 21
-369.93649732610288
 31
0.0
  0
LINE
  5
76
100
AcDbEntity
  8
0
370
              -2
390
0
  6
Continuous
 62
               0
100
AcDbLine
 10
-512.01209261510894
 20
-269.93649732610265
 30
0.0
 11
-669.50782168316118
 21
-269.93649732610265
 31
0.0
  0
LINE
  5
77
100
AcDbEntity
  8
0
370
              -2
390
0
  6
Continuous
 62
               0
100
AcDbLine
 10
-669.50782168316118
 20
-369.93649732610288
 30
0.0
 11
-669.50782168316118
 21
-269.93649732610265
 31
0.0
  0
CIRCLE
  5
78
102
{ACAD_REACTORS
330
79
102
}
100
AcDbEntity
  8
0
370
              -2
390
0
  6
Continuous
 62
               0
100
AcDbCircle
 10
-669.50782168316118
 20
-369.93649732610288
 30
0.0
 40
1.9998779296875
  0
HATCH
  5
79
100
AcDbEntity
  8
0
370
              -2
390
0
  6
Continuous
 62
               0
100
AcDbHatch
 10
0.0
 20
0.0
 30
0.0
210
0.0
220
0.0
230
1.0
  2
SOLID
 70
               1
 71
               1
 91
        1
 92
        1
 93
        1
 72
               2
 10
-669.50782168316118
 20
-369.93649732610288
 40
1.9998779296875
 50
0.0
 51
360.0
 73
               0
 97
        1
330
78
 75
               0
 76
               1
 98
        1
 10
0.0
 20
0.0
  0
CIRCLE
  5
7A
102
{ACAD_REACTORS
330
7B
102
}
100
AcDbEntity
  8
0
370
              -2
390
0
  6
Continuous
 62
               0
100
AcDbCircle
 10
-669.50782168316118
 20
-269.93649732610265
 30
0.0
 40
1.9998779296875
  0
HATCH
  5
7B
100
AcDbEntity
  8
0
370
              -2
390
0
  6
Continuous
 62
               0
100
AcDbHatch
 10
0.0
 20
0.0
 30
0.0
210
0.0
220
0.0
230
1.0
  2
SOLID
 70
               1
 71
               1
 91
        1
 92
        1
 93
        1
 72
               2
 10
-669.50782168316118
 20
-269.93649732610265
 40
1.9998779296875
 50
0.0
 51
360.0
 73
               0
 97
        1
330
7A
 75
               0
 76
               1
 98
        1
 10
0.0
 20
0.0
  0
MTEXT
  5
7C
100
AcDbEntity
  8
0
390
0
 62
               0
100
AcDbMText
 10
-703.38543887066135
 20
-343.74899900827813
 30
0.0
 40
24.432617187500004
 41
0.0
 71
               1
 72
               1
  1
100
  7
ＭＳ ゴシック
 11
0.0
 21
1.0
 31
0.0
 73
               1
 44
0.7828267384257843
  0
POINT
  5
7D
100
AcDbEntity
  8
Defpoints
370
               0
390
0
 62
               0
100
AcDbPoint
 10
-487.01209261510894
 20
-269.93649732610265
 30
0.0
  0
POINT
  5
7E
100
AcDbEntity
  8
Defpoints
370
               0
390
0
 62
               0
100
AcDbPoint
 10
-481.89336459669448
 20
-369.93649732610288
 30
0.0
  0
POINT
  5
7F
100
AcDbEntity
  8
Defpoints
370
               0
390
0
 62
               0
100
AcDbPoint
 10
-669.50782168316118
 20
-369.93649732610288
 30
0.0
  0
ENDBLK
  5
80
100
AcDbEntity
  8
notes
390
0
100
AcDbBlockEnd
  0
BLOCK
  5
81
100
AcDbEntity
  8
notes
390
0
100
AcDbBlockBegin
  2
*D5
 70
               1
 10
0.0
 20
0.0
 30
0.0
  3
*D5
  1

  0
LINE
  5
82
100
AcDbEntity
  8
0
370
              -2
390
0
  6
Continuous
 62
               0
100
AcDbLine
 10
-512.01209261510894
 20
-269.93649732610265
 30
0.0
 11
-669.50782168316073
 21
-269.93649732610265
 31
0.0
  0
LINE
  5
83
100
AcDbEntity
  8
0
370
              -2
390
0
  6
Continuous
 62
               0
100
AcDbLine
 10
-506.89336459669448
 20
-169.93649732610265
 30
0.0
 11
-669.50782168316073
 21
-169.93649732610265
 31
0.0
  0
LINE
  5
84
100
AcDbEntity
  8
0
370
              -2
390
0
  6
Continuous
 62
               0
100
AcDbLine
 10
-669.50782168316073
 20
-269.93649732610265
 30
0.0
 11
-669.50782168316073
 21
-169.93649732610265
 31
0.0
  0
CIRCLE
  5
85
102
{ACAD_REACTORS
330
86
102
}
100
AcDbEntity
  8
0
370
              -2
390
0
  6
Continuous
 62
               0
100
AcDbCircle
 10
-669.50782168316073
 20
-269.93649732610265
 30
0.0
 40
1.9998779296875
  0
HATCH
  5
86
100
AcDbEntity
  8
0
370
              -2
390
0
  6
Continuous
 62
               0
100
AcDbHatch
 10
0.0
 20
0.0
 30
0.0
210
0.0
220
0.0
230
1.0
  2
SOLID
 70
               1
 71
               1
 91
        1
 92
        1
 93
        1
 72
               2
 10
-669.50782168316073
 20
-269.93649732610265
 40
1.9998779296875
 50
0.0
 51
360.0
 73
               0
 97
        1
330
85
 75
               0
 76
               1
 98
        1
 10
0.0
 20
0.0
  0
CIRCLE
  5
87
102
{ACAD_REACTORS
330
88
102
}
100
AcDbEntity
  8
0
370
              -2
390
0
  6
Continuous
 62
               0
100
AcDbCircle
 10
-669.50782168316073
 20
-169.93649732610265
 30
0.0
 40
1.9998779296875
  0
HATCH
  5
88
100
AcDbEntity
  8
0
370
              -2
390
0
  6
Continuous
 62
               0
100
AcDbHatch
 10
0.0
 20
0.0
 30
0.0
210
0.0
220
0.0
230
1.0
  2
SOLID
 70
               1
 71
               1
 91
        1
 92
        1
 93
        1
 72
               2
 10
-669.50782168316073
 20
-169.93649732610265
 40
1.9998779296875
 50
0.0
 51
360.0
 73
               0
 97
        1
330
87
 75
               0
 76
               1
 98
        1
 10
0.0
 20
0.0
  0
MTEXT
  5
89
100
AcDbEntity
  8
0
390
0
 62
               0
100
AcDbMText
 10
-703.38543887066089
 20
-235.1748335671266
 30
0.0
 40
24.432617187500004
 41
0.0
 71
               1
 72
               1
  1
100
  7
ＭＳ ゴシック
 11
0.0
 21
1.0
 31
0.0
 73
               1
 44
0.7828267384257843
  0
POINT
  5
8A
100
AcDbEntity
  8
Defpoints
370
               0
390
0
 62
               0
100
AcDbPoint
 10
-481.89336459669448
 20
-169.93649732610265
 30
0.0
  0
POINT
  5
8B
100
AcDbEntity
  8
Defpoints
370
               0
390
0
 62
               0
100
AcDbPoint
 10
-487.01209261510894
 20
-269.93649732610265
 30
0.0
  0
POINT
  5
8C
100
AcDbEntity
  8
Defpoints
370
               0
390
0
 62
               0
100
AcDbPoint
 10
-669.50782168316073
 20
-269.93649732610265
 30
0.0
  0
ENDBLK
  5
8D
100
AcDbEntity
  8
notes
390
0
100
AcDbBlockEnd
  0
BLOCK
  5
8E
100
AcDbEntity
  8
notes
390
0
100
AcDbBlockBegin
  2
*D6
 70
               1
 10
0.0
 20
0.0
 30
0.0
  3
*D6
  1

  0
LINE
  5
8F
100
AcDbEntity
  8
0
370
              -2
390
0
  6
Continuous
 62
               0
100
AcDbLine
 10
-591.50782168315845
 20
270.04052747328433
 30
0.0
 11
-719.50782168316118
 21
270.04052747328433
 31
0.0
  0
LINE
  5
90
100
AcDbEntity
  8
0
370
              -2
390
0
  6
Continuous
 62
               0
100
AcDbLine
 10
-589.50780366092704
 20
-809.91352212548304
 30
0.0
 11
-719.50782168316118
 21
-809.91352212548304
 31
0.0
  0
LINE
  5
91
100
AcDbEntity
  8
0
370
              -2
390
0
  6
Continuous
 62
               0
100
AcDbLine
 10
-719.50782168316118
 20
270.04052747328433
 30
0.0
 11
-719.50782168316118
 21
-809.91352212548304
 31
0.0
  0
CIRCLE
  5
92
102
{ACAD_REACTORS
330
93
102
}
100
AcDbEntity
  8
0
370
              -2
390
0
  6
Continuous
 62
               0
100
AcDbCircle
 10
-719.50782168316118
 20
270.04052747328433
 30
0.0
 40
1.9998779296875
  0
HATCH
  5
93
100
AcDbEntity
  8
0
370
              -2
390
0
  6
Continuous
 62
               0
100
AcDbHatch
 10
0.0
 20
0.0
 30
0.0
210
0.0
220
0.0
230
1.0
  2
SOLID
 70
               1
 71
               1
 91
        1
 92
        1
 93
        1
 72
               2
 10
-719.50782168316118
 20
270.04052747328433
 40
1.9998779296875
 50
0.0
 51
360.0
 73
               0
 97
        1
330
92
 75
               0
 76
               1
 98
        1
 10
0.0
 20
0.0
  0
CIRCLE
  5
94
102
{ACAD_REACTORS
330
95
102
}
100
AcDbEntity
  8
0
370
              -2
390
0
  6
Continuous
 62
               0
100
AcDbCircle
 10
-719.50782168316118
 20
-809.91352212548304
 30
0.0
 40
1.9998779296875
  0
HATCH
  5
95
100
AcDbEntity
  8
0
370
              -2
390
0
  6
Continuous
 62
               0
100
AcDbHatch
 10
0.0
 20
0.0
 30
0.0
210
0.0
220
0.0
230
1.0
  2
SOLID
 70
               1
 71
               1
 91
        1
 92
        1
 93
        1
 72
               2
 10
-719.50782168316118
 20
-809.91352212548304
 40
1.9998779296875
 50
0.0
 51
360.0
 73
               0
 97
        1
330
94
 75
               0
 76
               1
 98
        1
 10
0.0
 20
0.0
  0
MTEXT
  5
96
100
AcDbEntity
  8
0
390
0
 62
               0
100
AcDbMText
 10
-753.38543887066135
 20
-301.68649732609947
 30
0.0
 40
24.432617187500004
 41
0.0
 71
               1
 72
               1
  1
1080
  7
ＭＳ ゴシック
 11
0.0
 21
1.0
 31
0.0
 73
               1
 44
0.7828267384257843
  0
POINT
  5
97
100
AcDbEntity
  8
Defpoints
370
               0
390
0
 62
               0
100
AcDbPoint
 10
-564.50780366092704
 20
-809.91352212548304
 30
0.0
  0
POINT
  5
98
100
AcDbEntity
  8
Defpoints
370
               0
390
0
 62
               0
100
AcDbPoint
 10
-566.50782168315845
 20
270.04052747328433
 30
0.0
  0
POINT
  5
99
100
AcDbEntity
  8
Defpoints
370
               0
390
0
 62
               0
100
AcDbPoint
 10
-719.50782168316118
 20
270.04052747328433
 30
0.0
  0
ENDBLK
  5
9A
100
AcDbEntity
  8
notes
390
0
100
AcDbBlockEnd
  0
BLOCK
  5
9B
100
AcDbEntity
  8
notes
390
0
100
AcDbBlockBegin
  2
*D7
 70
               1
 10
0.0
 20
0.0
 30
0.0
  3
*D7
  1

  0
LINE
  5
9C
100
AcDbEntity
  8
0
370
              -2
390
0
  6
Continuous
 62
               0
100
AcDbLine
 10
5.4921783168399543
 20
-569.93649732610334
 30
0.0
 11
78.329727630764637
 21
-569.93649732610334
 31
0.0
  0
LINE
  5
9D
100
AcDbEntity
  8
0
370
              -2
390
0
  6
Continuous
 62
               0
100
AcDbLine
 10
5.4921783168399543
 20
30.063502673897347
 30
0.0
 11
78.329727630764637
 21
30.063502673897347
 31
0.0
  0
LINE
  5
9E
100
AcDbEntity
  8
0
370
              -2
390
0
  6
Continuous
 62
               0
100
AcDbLine
 10
78.329727630764637
 20
-569.93649732610334
 30
0.0
 11
78.329727630764637
 21
30.063502673897347
 31
0.0
  0
CIRCLE
  5
9F
102
{ACAD_REACTORS
330
A0
102
}
100
AcDbEntity
  8
0
370
              -2
390
0
  6
Continuous
 62
               0
100
AcDbCircle
 10
78.329727630764637
 20
-569.93649732610334
 30
0.0
 40
1.9998779296875
  0
HATCH
  5
A0
100
AcDbEntity
  8
0
370
              -2
390
0
  6
Continuous
 62
               0
100
AcDbHatch
 10
0.0
 20
0.0
 30
0.0
210
0.0
220
0.0
230
1.0
  2
SOLID
 70
               1
 71
               1
 91
        1
 92
        1
 93
        1
 72
               2
 10
78.329727630764637
 20
-569.93649732610334
 40
1.9998779296875
 50
0.0
 51
360.0
 73
               0
 97
        1
330
9F
 75
               0
 76
               1
 98
        1
 10
0.0
 20
0.0
  0
CIRCLE
  5
A1
102
{ACAD_REACTORS
330
A2
102
}
100
AcDbEntity
  8
0
370
              -2
390
0
  6
Continuous
 62
               0
100
AcDbCircle
 10
78.329727630764637
 20
30.063502673897347
 30
0.0
 40
1.9998779296875
  0
HATCH
  5
A2
100
AcDbEntity
  8
0
370
              -2
390
0
  6
Continuous
 62
               0
100
AcDbHatch
 10
0.0
 20
0.0
 30
0.0
210
0.0
220
0.0
230
1.0
  2
SOLID
 70
               1
 71
               1
 91
        1
 92
        1
 93
        1
 72
               2
 10
78.329727630764637
 20
30.063502673897347
 40
1.9998779296875
 50
0.0
 51
360.0
 73
               0
 97
        1
330
A1
 75
               0
 76
               1
 98
        1
 10
0.0
 20
0.0
  0
MTEXT
  5
A3
100
AcDbEntity
  8
0
390
0
 62
               0
100
AcDbMText
 10
44.452110443264701
 20
-293.74899900827859
 30
0.0
 40
24.432617187500004
 41
0.0
 71
               1
 72
               1
  1
600
  7
ＭＳ ゴシック
 11
0.0
 21
1.0
 31
0.0
 73
               1
 44
0.7828267384257843
  0
POINT
  5
A4
100
AcDbEntity
  8
Defpoints
370
               0
390
0
 62
               0
100
AcDbPoint
 10
-19.507821683160046
 20
30.063502673897347
 30
0.0
  0
POINT
  5
A5
100
AcDbEntity
  8
Defpoints
370
               0
390
0
 62
               0
100
AcDbPoint
 10
-19.507821683160046
 20
-569.93649732610334
 30
0.0
  0
POINT
  5
A6
100
AcDbEntity
  8
Defpoints
370
               0
390
0
 62
               0
100
AcDbPoint
 10
78.329727630764637
 20
-569.93649732610334
 30
0.0
  0
ENDBLK
  5
A7
100
AcDbEntity
  8
notes
390
0
100
AcDbBlockEnd
  0
BLOCK
  5
A8
100
AcDbEntity
  8
notes
390
0
100
AcDbBlockBegin
  2
*D8
 70
               1
 10
0.0
 20
0.0
 30
0.0
  3
*D8
  1

  0
LINE
  5
A9
100
AcDbEntity
  8
0
370
              -2
390
0
  6
Continuous
 62
               0
100
AcDbLine
 10
5.4921783168399543
 20
30.063502673897347
 30
0.0
 11
78.329727630764637
 21
30.063502673897347
 31
0.0
  0
LINE
  5
AA
100
AcDbEntity
  8
0
370
              -2
390
0
  6
Continuous
 62
               0
100
AcDbLine
 10
-12.507821683163684
 20
330.06350267389735
 30
0.0
 11
78.329727630764637
 21
330.06350267389735
 31
0.0
  0
LINE
  5
AB
100
AcDbEntity
  8
0
370
              -2
390
0
  6
Continuous
 62
               0
100
AcDbLine
 10
78.329727630764637
 20
30.063502673897347
 30
0.0
 11
78.329727630764637
 21
330.06350267389735
 31
0.0
  0
CIRCLE
  5
AC
102
{ACAD_REACTORS
330
AD
102
}
100
AcDbEntity
  8
0
370
              -2
390
0
  6
Continuous
 62
               0
100
AcDbCircle
 10
78.329727630764637
 20
30.063502673897347
 30
0.0
 40
1.9998779296875
  0
HATCH
  5
AD
100
AcDbEntity
  8
0
370
              -2
390
0
  6
Continuous
 62
               0
100
AcDbHatch
 10
0.0
 20
0.0
 30
0.0
210
0.0
220
0.0
230
1.0
  2
SOLID
 70
               1
 71
               1
 91
        1
 92
        1
 93
        1
 72
               2
 10
78.329727630764637
 20
30.063502673897347
 40
1.9998779296875
 50
0.0
 51
360.0
 73
               0
 97
        1
330
AC
 75
               0
 76
               1
 98
        1
 10
0.0
 20
0.0
  0
CIRCLE
  5
AE
102
{ACAD_REACTORS
330
AF
102
}
100
AcDbEntity
  8
0
370
              -2
390
0
  6
Continuous
 62
               0
100
AcDbCircle
 10
78.329727630764637
 20
330.06350267389735
 30
0.0
 40
1.9998779296875
  0
HATCH
  5
AF
100
AcDbEntity
  8
0
370
              -2
390
0
  6
Continuous
 62
               0
100
AcDbHatch
 10
0.0
 20
0.0
 30
0.0
210
0.0
220
0.0
230
1.0
  2
SOLID
 70
               1
 71
               1
 91
        1
 92
        1
 93
        1
 72
               2
 10
78.329727630764637
 20
330.06350267389735
 40
1.9998779296875
 50
0.0
 51
360.0
 73
               0
 97
        1
330
AE
 75
               0
 76
               1
 98
        1
 10
0.0
 20
0.0
  0
MTEXT
  5
B0
100
AcDbEntity
  8
0
390
0
 62
               0
100
AcDbMText
 10
44.452110443264701
 20
156.25100099172187
 30
0.0
 40
24.432617187500004
 41
0.0
 71
               1
 72
               1
  1
300
  7
ＭＳ ゴシック
 11
0.0
 21
1.0
 31
0.0
 73
               1
 44
0.7828267384257843
  0
POINT
  5
B1
100
AcDbEntity
  8
Defpoints
370
               0
390
0
 62
               0
100
AcDbPoint
 10
-37.507821683163684
 20
330.06350267389735
 30
0.0
  0
POINT
  5
B2
100
AcDbEntity
  8
Defpoints
370
               0
390
0
 62
               0
100
AcDbPoint
 10
-19.507821683160046
 20
30.063502673897347
 30
0.0
  0
POINT
  5
B3
100
AcDbEntity
  8
Defpoints
370
               0
390
0
 62
               0
100
AcDbPoint
 10
78.329727630764637
 20
30.063502673897347
 30
0.0
  0
ENDBLK
  5
B4
100
AcDbEntity
  8
notes
390
0
100
AcDbBlockEnd
  0
BLOCK
  5
B5
100
AcDbEntity
  8
notes
390
0
100
AcDbBlockBegin
  2
*D9
 70
               1
 10
0.0
 20
0.0
 30
0.0
  3
*D9
  1

  0
LINE
  5
B6
100
AcDbEntity
  8
0
370
              -2
390
0
  6
Continuous
 62
               0
100
AcDbLine
 10
560.01336707165251
 20
-670.0
 30
0.0
 11
430.01336707160272
 21
-670.0
 31
0.0
  0
LINE
  5
B7
100
AcDbEntity
  8
0
370
              -2
390
0
  6
Continuous
 62
               0
100
AcDbLine
 10
560.01336707165251
 20
-410.0
 30
0.0
 11
430.01336707160272
 21
-410.0
 31
0.0
  0
LINE
  5
B8
100
AcDbEntity
  8
0
370
              -2
390
0
  6
Continuous
 62
               0
100
AcDbLine
 10
430.01336707160272
 20
-670.0
 30
0.0
 11
430.01336707160272
 21
-410.0
 31
0.0
  0
CIRCLE
  5
B9
102
{ACAD_REACTORS
330
BA
102
}
100
AcDbEntity
  8
0
370
              -2
390
0
  6
Continuous
 62
               0
100
AcDbCircle
 10
430.01336707160272
 20
-670.0
 30
0.0
 40
1.9998779296875
  0
HATCH
  5
BA
100
AcDbEntity
  8
0
370
              -2
390
0
  6
Continuous
 62
               0
100
AcDbHatch
 10
0.0
 20
0.0
 30
0.0
210
0.0
220
0.0
230
1.0
  2
SOLID
 70
               1
 71
               1
 91
        1
 92
        1
 93
        1
 72
               2
 10
430.01336707160272
 20
-670.0
 40
1.9998779296875
 50
0.0
 51
360.0
 73
               0
 97
        1
330
B9
 75
               0
 76
               1
 98
        1
 10
0.0
 20
0.0
  0
CIRCLE
  5
BB
102
{ACAD_REACTORS
330
BC
102
}
100
AcDbEntity
  8
0
370
              -2
390
0
  6
Continuous
 62
               0
100
AcDbCircle
 10
430.01336707160272
 20
-410.0
 30
0.0
 40
1.9998779296875
  0
HATCH
  5
BC
100
AcDbEntity
  8
0
370
              -2
390
0
  6
Continuous
 62
               0
100
AcDbHatch
 10
0.0
 20
0.0
 30
0.0
210
0.0
220
0.0
230
1.0
  2
SOLID
 70
               1
 71
               1
 91
        1
 92
        1
 93
        1
 72
               2
 10
430.01336707160272
 20
-410.0
 40
1.9998779296875
 50
0.0
 51
360.0
 73
               0
 97
        1
330
BB
 75
               0
 76
               1
 98
        1
 10
0.0
 20
0.0
  0
MTEXT
  5
BD
100
AcDbEntity
  8
0
390
0
 62
               0
100
AcDbMText
 10
396.13574988410278
 20
-563.81250168217548
 30
0.0
 40
24.432617187500004
 41
0.0
 71
               1
 72
               1
  1
260
  7
ＭＳ ゴシック
 11
0.0
 21
1.0
 31
0.0
 73
               1
 44
0.7828267384257843
  0
POINT
  5
BE
100
AcDbEntity
  8
Defpoints
370
               0
390
0
 62
               0
100
AcDbPoint
 10
585.01336707165251
 20
-410.0
 30
0.0
  0
POINT
  5
BF
100
AcDbEntity
  8
Defpoints
370
               0
390
0
 62
               0
100
AcDbPoint
 10
585.01336707165251
 20
-670.0
 30
0.0
  0
POINT
  5
C0
100
AcDbEntity
  8
Defpoints
370
               0
390
0
 62
               0
100
AcDbPoint
 10
430.01336707160272
 20
-670.0
 30
0.0
  0
ENDBLK
  5
C1
100
AcDbEntity
  8
notes
390
0
100
AcDbBlockEnd
  0
BLOCK
  5
C2
100
AcDbEntity
  8
notes
390
0
100
AcDbBlockBegin
  2
*D10
 70
               1
 10
0.0
 20
0.0
 30
0.0
  3
*D10
  1

  0
LINE
  5
C3
100
AcDbEntity
  8
0
370
              -2
390
0
  6
Continuous
 62
               0
100
AcDbLine
 10
560.01336707165251
 20
-410.0
 30
0.0
 11
430.01336707160272
 21
-410.0
 31
0.0
  0
LINE
  5
C4
100
AcDbEntity
  8
0
370
              -2
390
0
  6
Continuous
 62
               0
100
AcDbLine
 10
560.01336707165251
 20
-130.0
 30
0.0
 11
430.01336707160272
 21
-130.0
 31
0.0
  0
LINE
  5
C5
100
AcDbEntity
  8
0
370
              -2
390
0
  6
Continuous
 62
               0
100
AcDbLine
 10
430.01336707160272
 20
-410.0
 30
0.0
 11
430.01336707160272
 21
-130.0
 31
0.0
  0
CIRCLE
  5
C6
102
{ACAD_REACTORS
330
C7
102
}
100
AcDbEntity
  8
0
370
              -2
390
0
  6
Continuous
 62
               0
100
AcDbCircle
 10
430.01336707160272
 20
-410.0
 30
0.0
 40
1.9998779296875
  0
HATCH
  5
C7
100
AcDbEntity
  8
0
370
              -2
390
0
  6
Continuous
 62
               0
100
AcDbHatch
 10
0.0
 20
0.0
 30
0.0
210
0.0
220
0.0
230
1.0
  2
SOLID
 70
               1
 71
               1
 91
        1
 92
        1
 93
        1
 72
               2
 10
430.01336707160272
 20
-410.0
 40
1.9998779296875
 50
0.0
 51
360.0
 73
               0
 97
        1
330
C6
 75
               0
 76
               1
 98
        1
 10
0.0
 20
0.0
  0
CIRCLE
  5
C8
102
{ACAD_REACTORS
330
C9
102
}
100
AcDbEntity
  8
0
370
              -2
390
0
  6
Continuous
 62
               0
100
AcDbCircle
 10
430.01336707160272
 20
-130.0
 30
0.0
 40
1.9998779296875
  0
HATCH
  5
C9
100
AcDbEntity
  8
0
370
              -2
390
0
  6
Continuous
 62
               0
100
AcDbHatch
 10
0.0
 20
0.0
 30
0.0
210
0.0
220
0.0
230
1.0
  2
SOLID
 70
               1
 71
               1
 91
        1
 92
        1
 93
        1
 72
               2
 10
430.01336707160272
 20
-130.0
 40
1.9998779296875
 50
0.0
 51
360.0
 73
               0
 97
        1
330
C8
 75
               0
 76
               1
 98
        1
 10
0.0
 20
0.0
  0
MTEXT
  5
CA
100
AcDbEntity
  8
0
390
0
 62
               0
100
AcDbMText
 10
396.13574988410278
 20
-293.81250168217548
 30
0.0
 40
24.432617187500004
 41
0.0
 71
               1
 72
               1
  1
280
  7
ＭＳ ゴシック
 11
0.0
 21
1.0
 31
0.0
 73
               1
 44
0.7828267384257843
  0
POINT
  5
CB
100
AcDbEntity
  8
Defpoints
370
               0
390
0
 62
               0
100
AcDbPoint
 10
585.01336707165251
 20
-130.0
 30
0.0
  0
POINT
  5
CC
100
AcDbEntity
  8
Defpoints
370
               0
390
0
 62
               0
100
AcDbPoint
 10
585.01336707165251
 20
-410.0
 30
0.0
  0
POINT
  5
CD
100
AcDbEntity
  8
Defpoints
370
               0
390
0
 62
               0
100
AcDbPoint
 10
430.01336707160272
 20
-410.0
 30
0.0
  0
ENDBLK
  5
CE
100
AcDbEntity
  8
notes
390
0
100
AcDbBlockEnd
  0
BLOCK
  5
CF
100
AcDbEntity
  8
notes
390
0
100
AcDbBlockBegin
  2
*D11
 70
               1
 10
0.0
 20
0.0
 30
0.0
  3
*D11
  1

  0
LINE
  5
D0
100
AcDbEntity
  8
0
370
              -2
390
0
  6
Continuous
 62
               0
100
AcDbLine
 10
560.01336707165251
 20
-130.0
 30
0.0
 11
430.01336707160272
 21
-130.0
 31
0.0
  0
LINE
  5
D1
100
AcDbEntity
  8
0
370
              -2
390
0
  6
Continuous
 62
               0
100
AcDbLine
 10
560.01336707165251
 20
130.0
 30
0.0
 11
430.01336707160272
 21
130.0
 31
0.0
  0
LINE
  5
D2
100
AcDbEntity
  8
0
370
              -2
390
0
  6
Continuous
 62
               0
100
AcDbLine
 10
430.01336707160272
 20
-130.0
 30
0.0
 11
430.01336707160272
 21
130.0
 31
0.0
  0
CIRCLE
  5
D3
102
{ACAD_REACTORS
330
D4
102
}
100
AcDbEntity
  8
0
370
              -2
390
0
  6
Continuous
 62
               0
100
AcDbCircle
 10
430.01336707160272
 20
-130.0
 30
0.0
 40
1.9998779296875
  0
HATCH
  5
D4
100
AcDbEntity
  8
0
370
              -2
390
0
  6
Continuous
 62
               0
100
AcDbHatch
 10
0.0
 20
0.0
 30
0.0
210
0.0
220
0.0
230
1.0
  2
SOLID
 70
               1
 71
               1
 91
        1
 92
        1
 93
        1
 72
               2
 10
430.01336707160272
 20
-130.0
 40
1.9998779296875
 50
0.0
 51
360.0
 73
               0
 97
        1
330
D3
 75
               0
 76
               1
 98
        1
 10
0.0
 20
0.0
  0
CIRCLE
  5
D5
102
{ACAD_REACTORS
330
D6
102
}
100
AcDbEntity
  8
0
370
              -2
390
0
  6
Continuous
 62
               0
100
AcDbCircle
 10
430.01336707160272
 20
130.0
 30
0.0
 40
1.9998779296875
  0
HATCH
  5
D6
100
AcDbEntity
  8
0
370
              -2
390
0
  6
Continuous
 62
               0
100
AcDbHatch
 10
0.0
 20
0.0
 30
0.0
210
0.0
220
0.0
230
1.0
  2
SOLID
 70
               1
 71
               1
 91
        1
 92
        1
 93
        1
 72
               2
 10
430.01336707160272
 20
130.0
 40
1.9998779296875
 50
0.0
 51
360.0
 73
               0
 97
        1
330
D5
 75
               0
 76
               1
 98
        1
 10
0.0
 20
0.0
  0
MTEXT
  5
D7
100
AcDbEntity
  8
0
390
0
 62
               0
100
AcDbMText
 10
396.13574988410278
 20
-23.81250168217548
 30
0.0
 40
24.432617187500004
 41
0.0
 71
               1
 72
               1
  1
260
  7
ＭＳ ゴシック
 11
0.0
 21
1.0
 31
0.0
 73
               1
 44
0.7828267384257843
  0
POINT
  5
D8
100
AcDbEntity
  8
Defpoints
370
               0
390
0
 62
               0
100
AcDbPoint
 10
585.01336707165251
 20
130.0
 30
0.0
  0
POINT
  5
D9
100
AcDbEntity
  8
Defpoints
370
               0
390
0
 62
               0
100
AcDbPoint
 10
585.01336707165251
 20
-130.0
 30
0.0
  0
POINT
  5
DA
100
AcDbEntity
  8
Defpoints
370
               0
390
0
 62
               0
100
AcDbPoint
 10
430.01336707160272
 20
-130.0
 30
0.0
  0
ENDBLK
  5
DB
100
AcDbEntity
  8
notes
390
0
100
AcDbBlockEnd
  0
BLOCK
  5
DC
100
AcDbEntity
  8
notes
390
0
100
AcDbBlockBegin
  2
*D12
 70
               1
 10
0.0
 20
0.0
 30
0.0
  3
*D12
  1

  0
LINE
  5
DD
100
AcDbEntity
  8
0
370
              -2
390
0
  6
Continuous
 62
               0
100
AcDbLine
 10
560.01336707165251
 20
-670.0
 30
0.0
 11
430.01336707160272
 21
-670.0
 31
0.0
  0
LINE
  5
DE
100
AcDbEntity
  8
0
370
              -2
390
0
  6
Continuous
 62
               0
100
AcDbLine
 10
560.01336707165251
 20
-870.0
 30
0.0
 11
430.01336707160272
 21
-870.0
 31
0.0
  0
LINE
  5
DF
100
AcDbEntity
  8
0
370
              -2
390
0
  6
Continuous
 62
               0
100
AcDbLine
 10
430.01336707160272
 20
-670.0
 30
0.0
 11
430.01336707160272
 21
-870.0
 31
0.0
  0
CIRCLE
  5
E0
102
{ACAD_REACTORS
330
E1
102
}
100
AcDbEntity
  8
0
370
              -2
390
0
  6
Continuous
 62
               0
100
AcDbCircle
 10
430.01336707160272
 20
-670.0
 30
0.0
 40
1.9998779296875
  0
HATCH
  5
E1
100
AcDbEntity
  8
0
370
              -2
390
0
  6
Continuous
 62
               0
100
AcDbHatch
 10
0.0
 20
0.0
 30
0.0
210
0.0
220
0.0
230
1.0
  2
SOLID
 70
               1
 71
               1
 91
        1
 92
        1
 93
        1
 72
               2
 10
430.01336707160272
 20
-670.0
 40
1.9998779296875
 50
0.0
 51
360.0
 73
               0
 97
        1
330
E0
 75
               0
 76
               1
 98
        1
 10
0.0
 20
0.0
  0
CIRCLE
  5
E2
102
{ACAD_REACTORS
330
E3
102
}
100
AcDbEntity
  8
0
370
              -2
390
0
  6
Continuous
 62
               0
100
AcDbCircle
 10
430.01336707160272
 20
-870.0
 30
0.0
 40
1.9998779296875
  0
HATCH
  5
E3
100
AcDbEntity
  8
0
370
              -2
390
0
  6
Continuous
 62
               0
100
AcDbHatch
 10
0.0
 20
0.0
 30
0.0
210
0.0
220
0.0
230
1.0
  2
SOLID
 70
               1
 71
               1
 91
        1
 92
        1
 93
        1
 72
               2
 10
430.01336707160272
 20
-870.0
 40
1.9998779296875
 50
0.0
 51
360.0
 73
               0
 97
        1
330
E2
 75
               0
 76
               1
 98
        1
 10
0.0
 20
0.0
  0
MTEXT
  5
E4
100
AcDbEntity
  8
0
390
0
 62
               0
100
AcDbMText
 10
396.13574988410278
 20
-793.81250168217548
 30
0.0
 40
24.432617187500004
 41
0.0
 71
               1
 72
               1
  1
200
  7
ＭＳ ゴシック
 11
0.0
 21
1.0
 31
0.0
 73
               1
 44
0.7828267384257843
  0
POINT
  5
E5
100
AcDbEntity
  8
Defpoints
370
               0
390
0
 62
               0
100
AcDbPoint
 10
585.01336707165251
 20
-870.0
 30
0.0
  0
POINT
  5
E6
100
AcDbEntity
  8
Defpoints
370
               0
390
0
 62
               0
100
AcDbPoint
 10
585.01336707165251
 20
-670.0
 30
0.0
  0
POINT
  5
E7
100
AcDbEntity
  8
Defpoints
370
               0
390
0
 62
               0
100
AcDbPoint
 10
430.01336707160272
 20
-670.0
 30
0.0
  0
ENDBLK
  5
E8
100
AcDbEntity
  8
notes
390
0
100
AcDbBlockEnd
  0
BLOCK
  5
E9
100
AcDbEntity
  8
notes
390
0
100
AcDbBlockBegin
  2
*D13
 70
               1
 10
0.0
 20
0.0
 30
0.0
  3
*D13
  1

  0
LINE
  5
EA
100
AcDbEntity
  8
0
370
              -2
390
0
  6
Continuous
 62
               0
100
AcDbLine
 10
532.62045311058023
 20
695.42133130207014
 30
0.0
 11
532.62045311058023
 21
610.23939301807991
 31
0.0
  0
LINE
  5
EB
100
AcDbEntity
  8
0
370
              -2
390
0
  6
Continuous
 62
               0
100
AcDbLine
 10
607.54493866863527
 20
690.2393930180798
 30
0.0
 11
607.54493866863527
 21
610.23939301807991
 31
0.0
  0
LINE
  5
EC
100
AcDbEntity
  8
0
370
              -2
390
0
  6
Continuous
 62
               0
100
AcDbLine
 10
532.62045311058023
 20
610.23939301807991
 30
0.0
 11
607.54493866863527
 21
610.23939301807991
 31
0.0
  0
CIRCLE
  5
ED
102
{ACAD_REACTORS
330
EE
102
}
100
AcDbEntity
  8
0
370
              -2
390
0
  6
Continuous
 62
               0
100
AcDbCircle
 10
532.62045311058023
 20
610.23939301807991
 30
0.0
 40
1.9998779296875
  0
HATCH
  5
EE
100
AcDbEntity
  8
0
370
              -2
390
0
  6
Continuous
 62
               0
100
AcDbHatch
 10
0.0
 20
0.0
 30
0.0
210
0.0
220
0.0
230
1.0
  2
SOLID
 70
               1
 71
               1
 91
        1
 92
        1
 93
        1
 72
               2
 10
532.62045311058023
 20
610.23939301807991
 40
1.9998779296875
 50
0.0
 51
360.0
 73
               0
 97
        1
330
ED
 75
               0
 76
               1
 98
        1
 10
0.0
 20
0.0
  0
CIRCLE
  5
EF
102
{ACAD_REACTORS
330
F0
102
}
100
AcDbEntity
  8
0
370
              -2
390
0
  6
Continuous
 62
               0
100
AcDbCircle
 10
607.54493866863527
 20
610.23939301807991
 30
0.0
 40
1.9998779296875
  0
HATCH
  5
F0
100
AcDbEntity
  8
0
370
              -2
390
0
  6
Continuous
 62
               0
100
AcDbHatch
 10
0.0
 20
0.0
 30
0.0
210
0.0
220
0.0
230
1.0
  2
SOLID
 70
               1
 71
               1
 91
        1
 92
        1
 93
        1
 72
               2
 10
607.54493866863527
 20
610.23939301807991
 40
1.9998779296875
 50
0.0
 51
360.0
 73
               0
 97
        1
330
EF
 75
               0
 76
               1
 98
        1
 10
0.0
 20
0.0
  0
MTEXT
  5
F1
100
AcDbEntity
  8
0
390
0
 62
               0
100
AcDbMText
 10
554.20769588960775
 20
644.11701020557996
 30
0.0
 40
24.432617187500004
 41
0.0
 71
               1
 72
               1
  1
75
  7
ＭＳ ゴシック
 73
               1
 44
0.7828267384257843
  0
POINT
  5
F2
100
AcDbEntity
  8
Defpoints
370
               0
390
0
 62
               0
100
AcDbPoint
 10
607.54493866863527
 20
715.2393930180798
 30
0.0
  0
POINT
  5
F3
100
AcDbEntity
  8
Defpoints
370
               0
390
0
 62
               0
100
AcDbPoint
 10
532.62045311058023
 20
720.42133130207014
 30
0.0
  0
POINT
  5
F4
100
AcDbEntity
  8
Defpoints
370
               0
390
0
 62
               0
100
AcDbPoint
 10
532.62045311058023
 20
610.23939301807991
 30
0.0
  0
ENDBLK
  5
F5
100
AcDbEntity
  8
notes
390
0
100
AcDbBlockEnd
  0
BLOCK
  5
F6
100
AcDbEntity
  8
notes
390
0
100
AcDbBlockBegin
  2
*D14
 70
               1
 10
0.0
 20
0.0
 30
0.0
  3
*D14
  1

  0
LINE
  5
F7
100
AcDbEntity
  8
0
370
              -2
390
0
  6
Continuous
 62
               0
100
AcDbLine
 10
607.54493866863527
 20
690.2393930180798
 30
0.0
 11
607.54493866863527
 21
610.23939301807991
 31
0.0
  0
LINE
  5
F8
100
AcDbEntity
  8
0
370
              -2
390
0
  6
Continuous
 62
               0
100
AcDbLine
 10
667.46162291884775
 20
748.46294391483673
 30
0.0
 11
667.46162291884775
 21
610.23939301807991
 31
0.0
  0
LINE
  5
F9
100
AcDbEntity
  8
0
370
              -2
390
0
  6
Continuous
 62
               0
100
AcDbLine
 10
607.54493866863527
 20
610.23939301807991
 30
0.0
 11
667.46162291884775
 21
610.23939301807991
 31
0.0
  0
CIRCLE
  5
FA
102
{ACAD_REACTORS
330
FB
102
}
100
AcDbEntity
  8
0
370
              -2
390
0
  6
Continuous
 62
               0
100
AcDbCircle
 10
607.54493866863527
 20
610.23939301807991
 30
0.0
 40
1.9998779296875
  0
HATCH
  5
FB
100
AcDbEntity
  8
0
370
              -2
390
0
  6
Continuous
 62
               0
100
AcDbHatch
 10
0.0
 20
0.0
 30
0.0
210
0.0
220
0.0
230
1.0
  2
SOLID
 70
               1
 71
               1
 91
        1
 92
        1
 93
        1
 72
               2
 10
607.54493866863527
 20
610.23939301807991
 40
1.9998779296875
 50
0.0
 51
360.0
 73
               0
 97
        1
330
FA
 75
               0
 76
               1
 98
        1
 10
0.0
 20
0.0
  0
CIRCLE
  5
FC
102
{ACAD_REACTORS
330
FD
102
}
100
AcDbEntity
  8
0
370
              -2
390
0
  6
Continuous
 62
               0
100
AcDbCircle
 10
667.46162291884775
 20
610.23939301807991
 30
0.0
 40
1.9998779296875
  0
HATCH
  5
FD
100
AcDbEntity
  8
0
370
              -2
390
0
  6
Continuous
 62
               0
100
AcDbHatch
 10
0.0
 20
0.0
 30
0.0
210
0.0
220
0.0
230
1.0
  2
SOLID
 70
               1
 71
               1
 91
        1
 92
        1
 93
        1
 72
               2
 10
667.46162291884775
 20
610.23939301807991
 40
1.9998779296875
 50
0.0
 51
360.0
 73
               0
 97
        1
330
FC
 75
               0
 76
               1
 98
        1
 10
0.0
 20
0.0
  0
MTEXT
  5
FE
100
AcDbEntity
  8
0
390
0
 62
               0
100
AcDbMText
 10
621.62828079374151
 20
644.11701020557996
 30
0.0
 40
24.432617187500004
 41
0.0
 71
               1
 72
               1
  1
60
  7
ＭＳ ゴシック
 73
               1
 44
0.7828267384257843
  0
POINT
  5
FF
100
AcDbEntity
  8
Defpoints
370
               0
390
0
 62
               0
100
AcDbPoint
 10
667.46162291884775
 20
773.46294391483673
 30
0.0
  0
POINT
  5
100
100
AcDbEntity
  8
Defpoints
370
               0
390
0
 62
               0
100
AcDbPoint
 10
607.54493866863527
 20
715.2393930180798
 30
0.0
  0
POINT
  5
101
100
AcDbEntity
  8
Defpoints
370
               0
390
0
 62
               0
100
AcDbPoint
 10
607.54493866863527
 20
610.23939301807991
 30
0.0
  0
ENDBLK
  5
102
100
AcDbEntity
  8
notes
390
0
100
AcDbBlockEnd
  0
BLOCK
  5
103
100
AcDbEntity
  8
notes
390
0
100
AcDbBlockBegin
  2
*D15
 70
               1
 10
0.0
 20
0.0
 30
0.0
  3
*D15
  1

  0
LINE
  5
104
100
AcDbEntity
  8
0
370
              -2
390
0
  6
Continuous
 62
               0
100
AcDbLine
 10
667.46162291884775
 20
748.46294391483673
 30
0.0
 11
667.46162291884775
 21
610.23939301807991
 31
0.0
  0
LINE
  5
105
100
AcDbEntity
  8
0
370
              -2
390
0
  6
Continuous
 62
               0
100
AcDbLine
 10
712.46162291884434
 20
938.96380923818765
 30
0.0
 11
712.46162291884434
 21
610.23939301807991
 31
0.0
  0
LINE
  5
106
100
AcDbEntity
  8
0
370
              -2
390
0
  6
Continuous
 62
               0
100
AcDbLine
 10
667.46162291884775
 20
610.23939301807991
 30
0.0
 11
712.46162291884434
 21
610.23939301807991
 31
0.0
  0
CIRCLE
  5
107
102
{ACAD_REACTORS
330
108
102
}
100
AcDbEntity
  8
0
370
              -2
390
0
  6
Continuous
 62
               0
100
AcDbCircle
 10
667.46162291884775
 20
610.23939301807991
 30
0.0
 40
1.9998779296875
  0
HATCH
  5
108
100
AcDbEntity
  8
0
370
              -2
390
0
  6
Continuous
 62
               0
100
AcDbHatch
 10
0.0
 20
0.0
 30
0.0
210
0.0
220
0.0
230
1.0
  2
SOLID
 70
               1
 71
               1
 91
        1
 92
        1
 93
        1
 72
               2
 10
667.46162291884775
 20
610.23939301807991
 40
1.9998779296875
 50
0.0
 51
360.0
 73
               0
 97
        1
330
107
 75
               0
 76
               1
 98
        1
 10
0.0
 20
0.0
  0
CIRCLE
  5
109
102
{ACAD_REACTORS
330
10A
102
}
100
AcDbEntity
  8
0
370
              -2
390
0
  6
Continuous
 62
               0
100
AcDbCircle
 10
712.46162291884434
 20
610.23939301807991
 30
0.0
 40
1.9998779296875
  0
HATCH
  5
10A
100
AcDbEntity
  8
0
370
              -2
390
0
  6
Continuous
 62
               0
100
AcDbHatch
 10
0.0
 20
0.0
 30
0.0
210
0.0
220
0.0
230
1.0
  2
SOLID
 70
               1
 71
               1
 91
        1
 92
        1
 93
        1
 72
               2
 10
712.46162291884434
 20
610.23939301807991
 40
1.9998779296875
 50
0.0
 51
360.0
 73
               0
 97
        1
330
109
 75
               0
 76
               1
 98
        1
 10
0.0
 20
0.0
  0
MTEXT
  5
10B
100
AcDbEntity
  8
0
390
0
 62
               0
100
AcDbMText
 10
674.08662291884605
 20
644.11701020557996
 30
0.0
 40
24.432617187500004
 41
0.0
 71
               1
 72
               1
  1
45
  7
ＭＳ ゴシック
 73
               1
 44
0.7828267384257843
  0
POINT
  5
10C
100
AcDbEntity
  8
Defpoints
370
               0
390
0
 62
               0
100
AcDbPoint
 10
712.46162291884434
 20
963.96380923818765
 30
0.0
  0
POINT
  5
10D
100
AcDbEntity
  8
Defpoints
370
               0
390
0
 62
               0
100
AcDbPoint
 10
667.46162291884775
 20
773.46294391483673
 30
0.0
  0
POINT
  5
10E
100
AcDbEntity
  8
Defpoints
370
               0
390
0
 62
               0
100
AcDbPoint
 10
667.46162291884775
 20
610.23939301807991
 30
0.0
  0
ENDBLK
  5
10F
100
AcDbEntity
  8
notes
390
0
100
AcDbBlockEnd
  0
BLOCK
  5
110
100
AcDbEntity
  8
notes
390
0
100
AcDbBlockBegin
  2
*D16
 70
               1
 10
0.0
 20
0.0
 30
0.0
  3
*D16
  1

  0
LINE
  5
111
100
AcDbEntity
  8
0
370
              -2
390
0
  6
Continuous
 62
               0
100
AcDbLine
 10
-569.50782168316209
 20
292.04052747328433
 30
0.0
 11
-569.50782168316209
 21
427.90105198782339
 31
0.0
  0
LINE
  5
112
100
AcDbEntity
  8
0
370
              -2
390
0
  6
Continuous
 62
               0
100
AcDbLine
 10
-19.507821683163684
 20
337.06350267389735
 30
0.0
 11
-19.507821683163684
 21
427.90105198782339
 31
0.0
  0
LINE
  5
113
100
AcDbEntity
  8
0
370
              -2
390
0
  6
Continuous
 62
               0
100
AcDbLine
 10
-569.50782168316209
 20
427.90105198782339
 30
0.0
 11
-19.507821683163684
 21
427.90105198782339
 31
0.0
  0
CIRCLE
  5
114
102
{ACAD_REACTORS
330
115
102
}
100
AcDbEntity
  8
0
370
              -2
390
0
  6
Continuous
 62
               0
100
AcDbCircle
 10
-569.50782168316209
 20
427.90105198782339
 30
0.0
 40
1.9998779296875
  0
HATCH
  5
115
100
AcDbEntity
  8
0
370
              -2
390
0
  6
Continuous
 62
               0
100
AcDbHatch
 10
0.0
 20
0.0
 30
0.0
210
0.0
220
0.0
230
1.0
  2
SOLID
 70
               1
 71
               1
 91
        1
 92
        1
 93
        1
 72
               2
 10
-569.50782168316209
 20
427.90105198782339
 40
1.9998779296875
 50
0.0
 51
360.0
 73
               0
 97
        1
330
114
 75
               0
 76
               1
 98
        1
 10
0.0
 20
0.0
  0
CIRCLE
  5
116
102
{ACAD_REACTORS
330
117
102
}
100
AcDbEntity
  8
0
370
              -2
390
0
  6
Continuous
 62
               0
100
AcDbCircle
 10
-19.507821683163684
 20
427.90105198782339
 30
0.0
 40
1.9998779296875
  0
HATCH
  5
117
100
AcDbEntity
  8
0
370
              -2
390
0
  6
Continuous
 62
               0
100
AcDbHatch
 10
0.0
 20
0.0
 30
0.0
210
0.0
220
0.0
230
1.0
  2
SOLID
 70
               1
 71
               1
 91
        1
 92
        1
 93
        1
 72
               2
 10
-19.507821683163684
 20
427.90105198782339
 40
1.9998779296875
 50
0.0
 51
360.0
 73
               0
 97
        1
330
116
 75
               0
 76
               1
 98
        1
 10
0.0
 20
0.0
  0
MTEXT
  5
118
100
AcDbEntity
  8
0
390
0
 62
               0
100
AcDbMText
 10
-318.32032336533848
 20
461.77866917532344
 30
0.0
 40
24.432617187500004
 41
0.0
 71
               1
 72
               1
  1
550
  7
ＭＳ ゴシック
 73
               1
 44
0.7828267384257843
  0
POINT
  5
119
100
AcDbEntity
  8
Defpoints
370
               0
390
0
 62
               0
100
AcDbPoint
 10
-19.507821683163684
 20
312.06350267389735
 30
0.0
  0
POINT
  5
11A
100
AcDbEntity
  8
Defpoints
370
               0
390
0
 62
               0
100
AcDbPoint
 10
-569.50782168316209
 20
267.04052747328433
 30
0.0
  0
POINT
  5
11B
100
AcDbEntity
  8
Defpoints
370
               0
390
0
 62
               0
100
AcDbPoint
 10
-569.50782168316209
 20
427.90105198782339
 30
0.0
  0
ENDBLK
  5
11C
100
AcDbEntity
  8
notes
390
0
100
AcDbBlockEnd
  0
BLOCK
  5
11D
100
AcDbEntity
  8
notes
390
0
100
AcDbBlockBegin
  2
*D17
 70
               1
 10
0.0
 20
0.0
 30
0.0
  3
*D17
  1

  0
LINE
  5
11E
100
AcDbEntity
  8
0
370
              -2
390
0
  6
Continuous
 62
               0
100
AcDbLine
 10
530.04669819213518
 20
344.90921791332289
 30
0.0
 11
530.04669819213518
 21
427.90105198782339
 31
0.0
  0
LINE
  5
11F
100
AcDbEntity
  8
0
370
              -2
390
0
  6
Continuous
 62
               0
100
AcDbLine
 10
710.0
 20
-213.83439196238214
 30
0.0
 11
710.0
 21
427.90105198782339
 31
0.0
  0
LINE
  5
120
100
AcDbEntity
  8
0
370
              -2
390
0
  6
Continuous
 62
               0
100
AcDbLine
 10
530.04669819213518
 20
427.90105198782339
 30
0.0
 11
710.0
 21
427.90105198782339
 31
0.0
  0
CIRCLE
  5
121
102
{ACAD_REACTORS
330
122
102
}
100
AcDbEntity
  8
0
370
              -2
390
0
  6
Continuous
 62
               0
100
AcDbCircle
 10
530.04669819213518
 20
427.90105198782339
 30
0.0
 40
1.9998779296875
  0
HATCH
  5
122
100
AcDbEntity
  8
0
370
              -2
390
0
  6
Continuous
 62
               0
100
AcDbHatch
 10
0.0
 20
0.0
 30
0.0
210
0.0
220
0.0
230
1.0
  2
SOLID
 70
               1
 71
               1
 91
        1
 92
        1
 93
        1
 72
               2
 10
530.04669819213518
 20
427.90105198782339
 40
1.9998779296875
 50
0.0
 51
360.0
 73
               0
 97
        1
330
121
 75
               0
 76
               1
 98
        1
 10
0.0
 20
0.0
  0
CIRCLE
  5
123
102
{ACAD_REACTORS
330
124
102
}
100
AcDbEntity
  8
0
370
              -2
390
0
  6
Continuous
 62
               0
100
AcDbCircle
 10
710.0
 20
427.90105198782339
 30
0.0
 40
1.9998779296875
  0
HATCH
  5
124
100
AcDbEntity
  8
0
370
              -2
390
0
  6
Continuous
 62
               0
100
AcDbHatch
 10
0.0
 20
0.0
 30
0.0
210
0.0
220
0.0
230
1.0
  2
SOLID
 70
               1
 71
               1
 91
        1
 92
        1
 93
        1
 72
               2
 10
710.0
 20
427.90105198782339
 40
1.9998779296875
 50
0.0
 51
360.0
 73
               0
 97
        1
330
123
 75
               0
 76
               1
 98
        1
 10
0.0
 20
0.0
  0
MTEXT
  5
125
100
AcDbEntity
  8
0
390
0
 62
               0
100
AcDbMText
 10
596.21084741389211
 20
461.77866917532344
 30
0.0
 40
24.432617187500004
 41
0.0
 71
               1
 72
               1
  1
180
  7
ＭＳ ゴシック
 73
               1
 44
0.7828267384257843
  0
POINT
  5
126
100
AcDbEntity
  8
Defpoints
370
               0
390
0
 62
               0
100
AcDbPoint
 10
710.0
 20
-238.83439196238214
 30
0.0
  0
POINT
  5
127
100
AcDbEntity
  8
Defpoints
370
               0
390
0
 62
               0
100
AcDbPoint
 10
530.04669819213518
 20
319.90921791332289
 30
0.0
  0
POINT
  5
128
100
AcDbEntity
  8
Defpoints
370
               0
390
0
 62
               0
100
AcDbPoint
 10
530.04669819213518
 20
427.90105198782339
 30
0.0
  0
ENDBLK
  5
129
100
AcDbEntity
  8
notes
390
0
100
AcDbBlockEnd
  0
BLOCK
  5
12A
100
AcDbEntity
  8
notes
390
0
100
AcDbBlockBegin
  2
*D18
 70
               1
 10
0.0
 20
0.0
 30
0.0
  3
*D18
  1

  0
LINE
  5
12B
100
AcDbEntity
  8
0
370
              -2
390
0
  6
Continuous
 62
               0
100
AcDbLine
 10
728.41280904463633
 20
1260.5120843347347
 30
0.0
 11
803.41280904463633
 21
1260.5120843347347
 31
0.0
  0
LINE
  5
12C
100
AcDbEntity
  8
0
370
              -2
390
0
  6
Continuous
 62
               0
100
AcDbLine
 10
737.46162291884434
 20
995.51208433473471
 30
0.0
 11
803.41280904463633
 21
995.51208433473471
 31
0.0
  0
LINE
  5
12D
100
AcDbEntity
  8
0
370
              -2
390
0
  6
Continuous
 62
               0
100
AcDbLine
 10
803.41280904463633
 20
1260.5120843347347
 30
0.0
 11
803.41280904463633
 21
995.51208433473471
 31
0.0
  0
CIRCLE
  5
12E
102
{ACAD_REACTORS
330
12F
102
}
100
AcDbEntity
  8
0
370
              -2
390
0
  6
Continuous
 62
               0
100
AcDbCircle
 10
803.41280904463633
 20
1260.5120843347347
 30
0.0
 40
1.9998779296875
  0
HATCH
  5
12F
100
AcDbEntity
  8
0
370
              -2
390
0
  6
Continuous
 62
               0
100
AcDbHatch
 10
0.0
 20
0.0
 30
0.0
210
0.0
220
0.0
230
1.0
  2
SOLID
 70
               1
 71
               1
 91
        1
 92
        1
 93
        1
 72
               2
 10
803.41280904463633
 20
1260.5120843347347
 40
1.9998779296875
 50
0.0
 51
360.0
 73
               0
 97
        1
330
12E
 75
               0
 76
               1
 98
        1
 10
0.0
 20
0.0
  0
CIRCLE
  5
130
102
{ACAD_REACTORS
330
131
102
}
100
AcDbEntity
  8
0
370
              -2
390
0
  6
Continuous
 62
               0
100
AcDbCircle
 10
803.41280904463633
 20
995.51208433473471
 30
0.0
 40
1.9998779296875
  0
HATCH
  5
131
100
AcDbEntity
  8
0
370
              -2
390
0
  6
Continuous
 62
               0
100
AcDbHatch
 10
0.0
 20
0.0
 30
0.0
210
0.0
220
0.0
230
1.0
  2
SOLID
 70
               1
 71
               1
 91
        1
 92
        1
 93
        1
 72
               2
 10
803.41280904463633
 20
995.51208433473471
 40
1.9998779296875
 50
0.0
 51
360.0
 73
               0
 97
        1
330
130
 75
               0
 76
               1
 98
        1
 10
0.0
 20
0.0
  0
MTEXT
  5
132
100
AcDbEntity
  8
0
390
0
 62
               0
100
AcDbMText
 10
769.53519185713628
 20
1104.1995826525592
 30
0.0
 40
24.432617187500004
 41
0.0
 71
               1
 72
               1
  1
265
  7
ＭＳ ゴシック
 11
0.0
 21
1.0
 31
0.0
 73
               1
 44
0.7828267384257843
  0
POINT
  5
133
100
AcDbEntity
  8
Defpoints
370
               0
390
0
 62
               0
100
AcDbPoint
 10
712.46162291884434
 20
995.51208433473471
 30
0.0
  0
POINT
  5
134
100
AcDbEntity
  8
Defpoints
370
               0
390
0
 62
               0
100
AcDbPoint
 10
703.41280904463633
 20
1260.5120843347347
 30
0.0
  0
POINT
  5
135
100
AcDbEntity
  8
Defpoints
370
               0
390
0
 62
               0
100
AcDbPoint
 10
803.41280904463633
 20
1260.5120843347347
 30
0.0
  0
ENDBLK
  5
136
100
AcDbEntity
  8
notes
390
0
100
AcDbBlockEnd
  0
BLOCK
  5
137
100
AcDbEntity
  8
notes
390
0
100
AcDbBlockBegin
  2
*D19
 70
               1
 10
0.0
 20
0.0
 30
0.0
  3
*D19
  1

  0
LINE
  5
138
100
AcDbEntity
  8
0
370
              -2
390
0
  6
Continuous
 62
               0
100
AcDbLine
 10
-569.50782168316209
 20
-831.91352212549077
 30
0.0
 11
-569.50782168316209
 21
-969.93649732610311
 31
0.0
  0
LINE
  5
139
100
AcDbEntity
  8
0
370
              -2
390
0
  6
Continuous
 62
               0
100
AcDbLine
 10
-409.48307756217287
 20
-894.93649732610311
 30
0.0
 11
-409.48307756217287
 21
-969.93649732610311
 31
0.0
  0
LINE
  5
13A
100
AcDbEntity
  8
0
370
              -2
390
0
  6
Continuous
 62
               0
100
AcDbLine
 10
-569.50782168316209
 20
-969.93649732610311
 30
0.0
 11
-409.48307756217287
 21
-969.93649732610311
 31
0.0
  0
CIRCLE
  5
13B
102
{ACAD_REACTORS
330
13C
102
}
100
AcDbEntity
  8
0
370
              -2
390
0
  6
Continuous
 62
               0
100
AcDbCircle
 10
-569.50782168316209
 20
-969.93649732610311
 30
0.0
 40
1.9998779296875
  0
HATCH
  5
13C
100
AcDbEntity
  8
0
370
              -2
390
0
  6
Continuous
 62
               0
100
AcDbHatch
 10
0.0
 20
0.0
 30
0.0
210
0.0
220
0.0
230
1.0
  2
SOLID
 70
               1
 71
               1
 91
        1
 92
        1
 93
        1
 72
               2
 10
-569.50782168316209
 20
-969.93649732610311
 40
1.9998779296875
 50
0.0
 51
360.0
 73
               0
 97
        1
330
13B
 75
               0
 76
               1
 98
        1
 10
0.0
 20
0.0
  0
CIRCLE
  5
13D
102
{ACAD_REACTORS
330
13E
102
}
100
AcDbEntity
  8
0
370
              -2
390
0
  6
Continuous
 62
               0
100
AcDbCircle
 10
-409.48307756217287
 20
-969.93649732610311
 30
0.0
 40
1.9998779296875
  0
HATCH
  5
13E
100
AcDbEntity
  8
0
370
              -2
390
0
  6
Continuous
 62
               0
100
AcDbHatch
 10
0.0
 20
0.0
 30
0.0
210
0.0
220
0.0
230
1.0
  2
SOLID
 70
               1
 71
               1
 91
        1
 92
        1
 93
        1
 72
               2
 10
-409.48307756217287
 20
-969.93649732610311
 40
1.9998779296875
 50
0.0
 51
360.0
 73
               0
 97
        1
330
13D
 75
               0
 76
               1
 98
        1
 10
0.0
 20
0.0
  0
MTEXT
  5
13F
100
AcDbEntity
  8
0
390
0
 62
               0
100
AcDbMText
 10
-513.30795130484285
 20
-936.05888013860294
 30
0.0
 40
24.432617187500004
 41
0.0
 71
               1
 72
               1
  1
160
  7
ＭＳ ゴシック
 73
               1
 44
0.7828267384257843
  0
POINT
  5
140
100
AcDbEntity
  8
Defpoints
370
               0
390
0
 62
               0
100
AcDbPoint
 10
-409.48307756217287
 20
-869.93649732610334
 30
0.0
  0
POINT
  5
141
100
AcDbEntity
  8
Defpoints
370
               0
390
0
 62
               0
100
AcDbPoint
 10
-569.50782168316209
 20
-806.91352212549077
 30
0.0
  0
POINT
  5
142
100
AcDbEntity
  8
Defpoints
370
               0
390
0
 62
               0
100
AcDbPoint
 10
-569.50782168316209
 20
-969.93649732610311
 30
0.0
  0
ENDBLK
  5
143
100
AcDbEntity
  8
notes
390
0
100
AcDbBlockEnd
  0
BLOCK
  5
144
100
AcDbEntity
  8
notes
390
0
100
AcDbBlockBegin
  2
*D20
 70
               1
 10
0.0
 20
0.0
 30
0.0
  3
*D20
  1

  0
LINE
  5
145
100
AcDbEntity
  8
0
370
              -2
390
0
  6
Continuous
 62
               0
100
AcDbLine
 10
-409.48307756217287
 20
-899.9278100550905
 30
0.0
 11
-409.48307756217287
 21
-969.93649732610311
 31
0.0
  0
LINE
  5
146
100
AcDbEntity
  8
0
370
              -2
390
0
  6
Continuous
 62
               0
100
AcDbLine
 10
-94.483077562172866
 20
-894.93649732610311
 30
0.0
 11
-94.483077562172866
 21
-969.93649732610311
 31
0.0
  0
LINE
  5
147
100
AcDbEntity
  8
0
370
              -2
390
0
  6
Continuous
 62
               0
100
AcDbLine
 10
-409.48307756217287
 20
-969.93649732610311
 30
0.0
 11
-94.483077562172866
 21
-969.93649732610311
 31
0.0
  0
CIRCLE
  5
148
102
{ACAD_REACTORS
330
149
102
}
100
AcDbEntity
  8
0
370
              -2
390
0
  6
Continuous
 62
               0
100
AcDbCircle
 10
-409.48307756217287
 20
-969.93649732610311
 30
0.0
 40
1.9998779296875
  0
HATCH
  5
149
100
AcDbEntity
  8
0
370
              -2
390
0
  6
Continuous
 62
               0
100
AcDbHatch
 10
0.0
 20
0.0
 30
0.0
210
0.0
220
0.0
230
1.0
  2
SOLID
 70
               1
 71
               1
 91
        1
 92
        1
 93
        1
 72
               2
 10
-409.48307756217287
 20
-969.93649732610311
 40
1.9998779296875
 50
0.0
 51
360.0
 73
               0
 97
        1
330
148
 75
               0
 76
               1
 98
        1
 10
0.0
 20
0.0
  0
CIRCLE
  5
14A
102
{ACAD_REACTORS
330
14B
102
}
100
AcDbEntity
  8
0
370
              -2
390
0
  6
Continuous
 62
               0
100
AcDbCircle
 10
-94.483077562172866
 20
-969.93649732610311
 30
0.0
 40
1.9998779296875
  0
HATCH
  5
14B
100
AcDbEntity
  8
0
370
              -2
390
0
  6
Continuous
 62
               0
100
AcDbHatch
 10
0.0
 20
0.0
 30
0.0
210
0.0
220
0.0
230
1.0
  2
SOLID
 70
               1
 71
               1
 91
        1
 92
        1
 93
        1
 72
               2
 10
-94.483077562172866
 20
-969.93649732610311
 40
1.9998779296875
 50
0.0
 51
360.0
 73
               0
 97
        1
330
14A
 75
               0
 76
               1
 98
        1
 10
0.0
 20
0.0
  0
MTEXT
  5
14C
100
AcDbEntity
  8
0
390
0
 62
               0
100
AcDbMText
 10
-275.79557924434835
 20
-936.05888013860294
 30
0.0
 40
24.432617187500004
 41
0.0
 71
               1
 72
               1
  1
315
  7
ＭＳ ゴシック
 73
               1
 44
0.7828267384257843
  0
POINT
  5
14D
100
AcDbEntity
  8
Defpoints
370
               0
390
0
 62
               0
100
AcDbPoint
 10
-94.483077562172866
 20
-869.93649732610334
 30
0.0
  0
POINT
  5
14E
100
AcDbEntity
  8
Defpoints
370
               0
390
0
 62
               0
100
AcDbPoint
 10
-409.48307756217287
 20
-874.9278100550905
 30
0.0
  0
POINT
  5
14F
100
AcDbEntity
  8
Defpoints
370
               0
390
0
 62
               0
100
AcDbPoint
 10
-409.48307756217287
 20
-969.93649732610311
 30
0.0
  0
ENDBLK
  5
150
100
AcDbEntity
  8
notes
390
0
100
AcDbBlockEnd
  0
BLOCK
  5
151
100
AcDbEntity
  8
notes
390
0
100
AcDbBlockBegin
  2
*D21
 70
               1
 10
0.0
 20
0.0
 30
0.0
  3
*D21
  1

  0
LINE
  5
152
100
AcDbEntity
  8
0
370
              -2
390
0
  6
Continuous
 62
               0
100
AcDbLine
 10
604.99052940153729
 20
-889.93747085199061
 30
0.0
 11
604.99052940153729
 21
-969.93442498699369
 31
0.0
  0
LINE
  5
153
100
AcDbEntity
  8
0
370
              -2
390
0
  6
Continuous
 62
               0
100
AcDbLine
 10
530.0133670713883
 20
-884.77806788734711
 30
0.0
 11
530.0133670713883
 21
-969.93442498699369
 31
0.0
  0
LINE
  5
154
100
AcDbEntity
  8
0
370
              -2
390
0
  6
Continuous
 62
               0
100
AcDbLine
 10
604.99052940153729
 20
-969.93442498699369
 30
0.0
 11
530.0133670713883
 21
-969.93442498699369
 31
0.0
  0
CIRCLE
  5
155
102
{ACAD_REACTORS
330
156
102
}
100
AcDbEntity
  8
0
370
              -2
390
0
  6
Continuous
 62
               0
100
AcDbCircle
 10
604.99052940153729
 20
-969.93442498699369
 30
0.0
 40
1.9998779296875
  0
HATCH
  5
156
100
AcDbEntity
  8
0
370
              -2
390
0
  6
Continuous
 62
               0
100
AcDbHatch
 10
0.0
 20
0.0
 30
0.0
210
0.0
220
0.0
230
1.0
  2
SOLID
 70
               1
 71
               1
 91
        1
 92
        1
 93
        1
 72
               2
 10
604.99052940153729
 20
-969.93442498699369
 40
1.9998779296875
 50
0.0
 51
360.0
 73
               0
 97
        1
330
155
 75
               0
 76
               1
 98
        1
 10
0.0
 20
0.0
  0
CIRCLE
  5
157
102
{ACAD_REACTORS
330
158
102
}
100
AcDbEntity
  8
0
370
              -2
390
0
  6
Continuous
 62
               0
100
AcDbCircle
 10
530.0133670713883
 20
-969.93442498699369
 30
0.0
 40
1.9998779296875
  0
HATCH
  5
158
100
AcDbEntity
  8
0
370
              -2
390
0
  6
Continuous
 62
               0
100
AcDbHatch
 10
0.0
 20
0.0
 30
0.0
210
0.0
220
0.0
230
1.0
  2
SOLID
 70
               1
 71
               1
 91
        1
 92
        1
 93
        1
 72
               2
 10
530.0133670713883
 20
-969.93442498699369
 40
1.9998779296875
 50
0.0
 51
360.0
 73
               0
 97
        1
330
157
 75
               0
 76
               1
 98
        1
 10
0.0
 20
0.0
  0
MTEXT
  5
159
100
AcDbEntity
  8
0
390
0
 62
               0
100
AcDbMText
 10
551.62694823646279
 20
-936.05680779949353
 30
0.0
 40
24.432617187500004
 41
0.0
 71
               1
 72
               1
  1
75
  7
ＭＳ ゴシック
 73
               1
 44
0.7828267384257843
  0
POINT
  5
15A
100
AcDbEntity
  8
Defpoints
370
               0
390
0
 62
               0
100
AcDbPoint
 10
530.0133670713883
 20
-859.77806788734711
 30
0.0
  0
POINT
  5
15B
100
AcDbEntity
  8
Defpoints
370
               0
390
0
 62
               0
100
AcDbPoint
 10
604.99052940153729
 20
-864.93747085199061
 30
0.0
  0
POINT
  5
15C
100
AcDbEntity
  8
Defpoints
370
               0
390
0
 62
               0
100
AcDbPoint
 10
604.99052940153729
 20
-969.93442498699369
 30
0.0
  0
ENDBLK
  5
15D
100
AcDbEntity
  8
notes
390
0
100
AcDbBlockEnd
  0
BLOCK
  5
15E
100
AcDbEntity
  8
notes
390
0
100
AcDbBlockBegin
  2
*D22
 70
               1
 10
0.0
 20
0.0
 30
0.0
  3
*D22
  1

  0
LINE
  5
15F
100
AcDbEntity
  8
0
370
              -2
390
0
  6
Continuous
 62
               0
100
AcDbLine
 10
-456.84342320833957
 20
-257.86360142404283
 30
0.0
 11
-373.4189234545247
 21
-178.36233188495453
 31
0.0
  0
CIRCLE
  5
160
102
{ACAD_REACTORS
330
161
102
}
100
AcDbEntity
  8
0
370
              -2
390
0
  6
Continuous
 62
               0
100
AcDbCircle
 10
-456.84342320833957
 20
-257.86360142404283
 30
0.0
 40
1.9998779296875
  0
HATCH
  5
161
100
AcDbEntity
  8
0
370
              -2
390
0
  6
Continuous
 62
               0
100
AcDbHatch
 10
0.0
 20
0.0
 30
0.0
210
0.0
220
0.0
230
1.0
  2
SOLID
 70
               1
 71
               1
 91
        1
 92
        1
 93
        1
 72
               2
 10
-456.84342320833957
 20
-257.86360142404283
 40
1.9998779296875
 50
0.0
 51
360.0
 73
               0
 97
        1
330
160
 75
               0
 76
               1
 98
        1
 10
0.0
 20
0.0
  0
LINE
  5
162
100
AcDbEntity
  8
0
370
              -2
390
0
  6
Continuous
 62
               0
100
AcDbLine
 10
-373.4189234545247
 20
-178.36233188495453
 30
0.0
 11
-249.9189234545247
 21
-178.36233188495453
 31
0.0
  0
MTEXT
  5
163
100
AcDbEntity
  8
0
390
0
 62
               0
100
AcDbMText
 10
-313.4189234545247
 20
-144.48471469745459
 30
0.0
 40
24.432617187500004
 41
0.0
 71
               1
 72
               1
  1
φ35
  7
ＭＳ ゴシック
 73
               1
 44
0.7828267384257843
  0
POINT
  5
164
100
AcDbEntity
  8
Defpoints
370
               0
390
0
 62
               0
100
AcDbPoint
 10
-482.18076202187922
 20
-282.00939322816248
 30
0.0
  0
POINT
  5
165
100
AcDbEntity
  8
Defpoints
370
               0
390
0
 62
               0
100
AcDbPoint
 10
-456.84342320833957
 20
-257.86360142404283
 30
0.0
  0
ENDBLK
  5
166
100
AcDbEntity
  8
notes
390
0
100
AcDbBlockEnd
  0
BLOCK
  5
167
100
AcDbEntity
  8
ARJ70-1003
390
0
100
AcDbBlockBegin
  2
グループ-1
 70
               0
 10
0.0
 20
0.0
 30
0.0
  3
グループ-1
  1

  0
LINE
  5
168
100
AcDbEntity
  8
0
370
              15
390
0
  6
Continuous
 62
               7
100
AcDbLine
 10
-862.96496849225719
 20
-192.75103823904033
 30
0.0
 11
-853.57825130129027
 21
-192.75103823904033
 31
0.0
  0
LINE
  5
169
100
AcDbEntity
  8
0
370
              15
390
0
  6
Continuous
 62
               7
100
AcDbLine
 10
-862.96496849224923
 20
-129.75103823904033
 30
0.0
 11
-853.57825130129027
 21
-129.75103823904033
 31
0.0
  0
ENDBLK
  5
16A
100
AcDbEntity
  8
ARJ70-1003
390
0
100
AcDbBlockEnd
  0
BLOCK
  5
16B
100
AcDbEntity
  8
ARJ70-1003
390
0
100
AcDbBlockBegin
  2
グループ-2
 70
               0
 10
0.0
 20
0.0
 30
0.0
  3
グループ-2
  1

  0
CIRCLE
  5
16C
100
AcDbEntity
  8
0
370
              15
390
0
  6
STYLE_13
 62
               7
100
AcDbCircle
 10
-2025.5476959032972
 20
-1526.6513448033309
 30
0.0
 40
15.0
  0
CIRCLE
  5
16D
100
AcDbEntity
  8
0
370
              15
390
0
  6
STYLE_13
 62
               7
100
AcDbCircle
 10
-2025.5476959032972
 20
-1326.6513448033306
 30
0.0
 40
15.0
  0
ENDBLK
  5
16E
100
AcDbEntity
  8
ARJ70-1003
390
0
100
AcDbBlockEnd
  0
BLOCK
  5
16F
100
AcDbEntity
  8
ARJ70-1003
390
0
100
AcDbBlockBegin
  2
*D25
 70
               1
 10
0.0
 20
0.0
 30
0.0
  3
*D25
  1

  0
LINE
  5
170
100
AcDbEntity
  8
0
370
              -2
390
0
  6
Continuous
 62
               0
100
AcDbLine
 10
-459.50782168316255
 20
-144.93649732610265
 30
0.0
 11
-459.50782168316255
 21
-93.125
 31
0.0
  0
LINE
  5
171
100
AcDbEntity
  8
0
370
              -2
390
0
  6
Continuous
 62
               0
100
AcDbLine
 10
-569.50782168316209
 20
-144.93649732610265
 30
0.0
 11
-569.50782168316209
 21
-93.125
 31
0.0
  0
LINE
  5
172
100
AcDbEntity
  8
0
370
              -2
390
0
  6
Continuous
 62
               0
100
AcDbLine
 10
-569.50782168316209
 20
-93.125
 30
0.0
 11
-649.62500336435096
 21
-93.125
 31
0.0
  0
LINE
  5
173
100
AcDbEntity
  8
0
370
              -2
390
0
  6
Continuous
 62
               0
100
AcDbLine
 10
-459.50782168316255
 20
-93.125
 30
0.0
 11
-569.50782168316209
 21
-93.125
 31
0.0
  0
CIRCLE
  5
174
102
{ACAD_REACTORS
330
175
102
}
100
AcDbEntity
  8
0
370
              -2
390
0
  6
Continuous
 62
               0
100
AcDbCircle
 10
-459.50782168316255
 20
-93.125
 30
0.0
 40
1.9998779296875
  0
HATCH
  5
175
100
AcDbEntity
  8
0
370
              -2
390
0
  6
Continuous
 62
               0
100
AcDbHatch
 10
0.0
 20
0.0
 30
0.0
210
0.0
220
0.0
230
1.0
  2
SOLID
 70
               1
 71
               1
 91
        1
 92
        1
 93
        1
 72
               2
 10
-459.50782168316255
 20
-93.125
 40
1.9998779296875
 50
0.0
 51
360.0
 73
               0
 97
        1
330
174
 75
               0
 76
               1
 98
        1
 10
0.0
 20
0.0
  0
CIRCLE
  5
176
102
{ACAD_REACTORS
330
177
102
}
100
AcDbEntity
  8
0
370
              -2
390
0
  6
Continuous
 62
               0
100
AcDbCircle
 10
-569.50782168316209
 20
-93.125
 30
0.0
 40
1.9998779296875
  0
HATCH
  5
177
100
AcDbEntity
  8
0
370
              -2
390
0
  6
Continuous
 62
               0
100
AcDbHatch
 10
0.0
 20
0.0
 30
0.0
210
0.0
220
0.0
230
1.0
  2
SOLID
 70
               1
 71
               1
 91
        1
 92
        1
 93
        1
 72
               2
 10
-569.50782168316209
 20
-93.125
 40
1.9998779296875
 50
0.0
 51
360.0
 73
               0
 97
        1
330
176
 75
               0
 76
               1
 98
        1
 10
0.0
 20
0.0
  0
MTEXT
  5
178
100
AcDbEntity
  8
0
390
0
 62
               0
100
AcDbMText
 10
-649.62500336435096
 20
-59.247382812500064
 30
0.0
 40
24.432617187500004
 41
0.0
 71
               1
 72
               1
  1
110
  7
ＭＳ ゴシック
 73
               1
 44
0.7828267384257843
  0
POINT
  5
179
100
AcDbEntity
  8
Defpoints
370
               0
390
0
 62
               0
100
AcDbPoint
 10
-569.50782168316209
 20
-169.93649732610265
 30
0.0
  0
POINT
  5
17A
100
AcDbEntity
  8
Defpoints
370
               0
390
0
 62
               0
100
AcDbPoint
 10
-459.50782168316255
 20
-169.93649732610265
 30
0.0
  0
POINT
  5
17B
100
AcDbEntity
  8
Defpoints
370
               0
390
0
 62
               0
100
AcDbPoint
 10
-459.50782168316255
 20
-93.125
 30
0.0
  0
ENDBLK
  5
17C
100
AcDbEntity
  8
ARJ70-1003
390
0
100
AcDbBlockEnd
  0
BLOCK
  5
17D
100
AcDbEntity
  8
ARJ70-1003
390
0
100
AcDbBlockBegin
  2
グループ-3
 70
               0
 10
0.0
 20
0.0
 30
0.0
  3
グループ-3
  1

  0
LINE
  5
17E
100
AcDbEntity
  8
0
370
              15
390
0
  6
Continuous
 62
               7
100
AcDbLine
 10
-1023.4194211095544
 20
21.297236857928738
 30
0.0
 11
-1008.4194211095544
 21
21.297236857928738
 31
0.0
  0
LINE
  5
17F
100
AcDbEntity
  8
0
370
              15
390
0
  6
Continuous
 62
               7
100
AcDbLine
 10
-1023.4194211095544
 20
-13.702763142071262
 30
0.0
 11
-1008.4194211095544
 21
-13.702763142071262
 31
0.0
  0
ENDBLK
  5
180
100
AcDbEntity
  8
ARJ70-1003
390
0
100
AcDbBlockEnd
  0
BLOCK
  5
181
100
AcDbEntity
  8
ARJ70-1003
390
0
100
AcDbBlockBegin
  2
*D27
 70
               1
 10
0.0
 20
0.0
 30
0.0
  3
*D27
  1

  0
LINE
  5
182
100
AcDbEntity
  8
0
370
              -2
390
0
  6
Continuous
 62
               0
100
AcDbLine
 10
531.0
 20
1160.5
 30
0.0
 11
462.0
 21
1160.5
 31
0.0
  0
LINE
  5
183
100
AcDbEntity
  8
0
370
              -2
390
0
  6
Continuous
 62
               0
100
AcDbLine
 10
531.0
 20
1260.5
 30
0.0
 11
462.0
 21
1260.5
 31
0.0
  0
LINE
  5
184
100
AcDbEntity
  8
0
370
              -2
390
0
  6
Continuous
 62
               0
100
AcDbLine
 10
462.0
 20
1160.5
 30
0.0
 11
462.0
 21
1260.5
 31
0.0
  0
CIRCLE
  5
185
102
{ACAD_REACTORS
330
186
102
}
100
AcDbEntity
  8
0
370
              -2
390
0
  6
Continuous
 62
               0
100
AcDbCircle
 10
462.0
 20
1160.5
 30
0.0
 40
1.9998779296875
  0
HATCH
  5
186
100
AcDbEntity
  8
0
370
              -2
390
0
  6
Continuous
 62
               0
100
AcDbHatch
 10
0.0
 20
0.0
 30
0.0
210
0.0
220
0.0
230
1.0
  2
SOLID
 70
               1
 71
               1
 91
        1
 92
        1
 93
        1
 72
               2
 10
462.0
 20
1160.5
 40
1.9998779296875
 50
0.0
 51
360.0
 73
               0
 97
        1
330
185
 75
               0
 76
               1
 98
        1
 10
0.0
 20
0.0
  0
CIRCLE
  5
187
102
{ACAD_REACTORS
330
188
102
}
100
AcDbEntity
  8
0
370
              -2
390
0
  6
Continuous
 62
               0
100
AcDbCircle
 10
462.0
 20
1260.5
 30
0.0
 40
1.9998779296875
  0
HATCH
  5
188
100
AcDbEntity
  8
0
370
              -2
390
0
  6
Continuous
 62
               0
100
AcDbHatch
 10
0.0
 20
0.0
 30
0.0
210
0.0
220
0.0
230
1.0
  2
SOLID
 70
               1
 71
               1
 91
        1
 92
        1
 93
        1
 72
               2
 10
462.0
 20
1260.5
 40
1.9998779296875
 50
0.0
 51
360.0
 73
               0
 97
        1
330
187
 75
               0
 76
               1
 98
        1
 10
0.0
 20
0.0
  0
MTEXT
  5
189
100
AcDbEntity
  8
0
390
0
 62
               0
100
AcDbMText
 10
428.12238281250006
 20
1186.6874983178245
 30
0.0
 40
24.432617187500004
 41
0.0
 71
               1
 72
               1
  1
100
  7
ＭＳ ゴシック
 11
0.0
 21
1.0
 31
0.0
 73
               1
 44
0.7828267384257843
  0
POINT
  5
18A
100
AcDbEntity
  8
Defpoints
370
               0
390
0
 62
               0
100
AcDbPoint
 10
556.0
 20
1260.5
 30
0.0
  0
POINT
  5
18B
100
AcDbEntity
  8
Defpoints
370
               0
390
0
 62
               0
100
AcDbPoint
 10
556.0
 20
1160.5
 30
0.0
  0
POINT
  5
18C
100
AcDbEntity
  8
Defpoints
370
               0
390
0
 62
               0
100
AcDbPoint
 10
462.0
 20
1160.5
 30
0.0
  0
ENDBLK
  5
18D
100
AcDbEntity
  8
ARJ70-1003
390
0
100
AcDbBlockEnd
  0
BLOCK
  5
18E
100
AcDbEntity
  8
ARJ70-1003
390
0
100
AcDbBlockBegin
  2
*D28
 70
               1
 10
0.0
 20
0.0
 30
0.0
  3
*D28
  1

  0
LINE
  5
18F
100
AcDbEntity
  8
0
370
              -2
390
0
  6
Continuous
 62
               0
100
AcDbLine
 10
677.63106512466129
 20
980.74858341830088
 30
0.0
 11
677.63106512466129
 21
982.34722222222217
 31
0.0
  0
LINE
  5
190
100
AcDbEntity
  8
0
370
              -2
390
0
  6
Continuous
 62
               0
100
AcDbLine
 10
532.63106512466129
 20
980.74858341830088
 30
0.0
 11
532.63106512466129
 21
982.34722222222217
 31
0.0
  0
LINE
  5
191
100
AcDbEntity
  8
0
370
              -2
390
0
  6
Continuous
 62
               0
100
AcDbLine
 10
532.63106512466129
 20
982.34722222222217
 30
0.0
 11
458.37499663564904
 21
982.34722222222217
 31
0.0
  0
LINE
  5
192
100
AcDbEntity
  8
0
370
              -2
390
0
  6
Continuous
 62
               0
100
AcDbLine
 10
677.63106512466129
 20
982.34722222222217
 30
0.0
 11
532.63106512466129
 21
982.34722222222217
 31
0.0
  0
CIRCLE
  5
193
102
{ACAD_REACTORS
330
194
102
}
100
AcDbEntity
  8
0
370
              -2
390
0
  6
Continuous
 62
               0
100
AcDbCircle
 10
677.63106512466129
 20
982.34722222222217
 30
0.0
 40
1.9998779296875
  0
HATCH
  5
194
100
AcDbEntity
  8
0
370
              -2
390
0
  6
Continuous
 62
               0
100
AcDbHatch
 10
0.0
 20
0.0
 30
0.0
210
0.0
220
0.0
230
1.0
  2
SOLID
 70
               1
 71
               1
 91
        1
 92
        1
 93
        1
 72
               2
 10
677.63106512466129
 20
982.34722222222217
 40
1.9998779296875
 50
0.0
 51
360.0
 73
               0
 97
        1
330
193
 75
               0
 76
               1
 98
        1
 10
0.0
 20
0.0
  0
CIRCLE
  5
195
102
{ACAD_REACTORS
330
196
102
}
100
AcDbEntity
  8
0
370
              -2
390
0
  6
Continuous
 62
               0
100
AcDbCircle
 10
532.63106512466129
 20
982.34722222222217
 30
0.0
 40
1.9998779296875
  0
HATCH
  5
196
100
AcDbEntity
  8
0
370
              -2
390
0
  6
Continuous
 62
               0
100
AcDbHatch
 10
0.0
 20
0.0
 30
0.0
210
0.0
220
0.0
230
1.0
  2
SOLID
 70
               1
 71
               1
 91
        1
 92
        1
 93
        1
 72
               2
 10
532.63106512466129
 20
982.34722222222217
 40
1.9998779296875
 50
0.0
 51
360.0
 73
               0
 97
        1
330
195
 75
               0
 76
               1
 98
        1
 10
0.0
 20
0.0
  0
MTEXT
  5
197
100
AcDbEntity
  8
0
390
0
 62
               0
100
AcDbMText
 10
458.37499663564904
 20
1016.2248394097222
 30
0.0
 40
24.432617187500004
 41
0.0
 71
               1
 72
               1
  1
145
  7
ＭＳ ゴシック
 73
               1
 44
0.7828267384257843
  0
POINT
  5
198
100
AcDbEntity
  8
Defpoints
370
               0
390
0
 62
               0
100
AcDbPoint
 10
532.63106512466129
 20
955.74858341830088
 30
0.0
  0
POINT
  5
199
100
AcDbEntity
  8
Defpoints
370
               0
390
0
 62
               0
100
AcDbPoint
 10
677.63106512466129
 20
955.74858341830088
 30
0.0
  0
POINT
  5
19A
100
AcDbEntity
  8
Defpoints
370
               0
390
0
 62
               0
100
AcDbPoint
 10
677.63106512466129
 20
982.34722222222217
 30
0.0
  0
ENDBLK
  5
19B
100
AcDbEntity
  8
ARJ70-1003
390
0
100
AcDbBlockEnd
  0
BLOCK
  5
19C
100
AcDbEntity
  8
ARJ70-1003
390
0
100
AcDbBlockBegin
  2
*D29
 70
               1
 10
0.0
 20
0.0
 30
0.0
  3
*D29
  1

  0
LINE
  5
19D
100
AcDbEntity
  8
0
370
              -2
390
0
  6
Continuous
 62
               0
100
AcDbLine
 10
542.6233945162885
 20
1084.0
 30
0.0
 11
542.6233945162885
 21
1106.875
 31
0.0
  0
LINE
  5
19E
100
AcDbEntity
  8
0
370
              -2
390
0
  6
Continuous
 62
               0
100
AcDbLine
 10
532.62045311058023
 20
1083.9997237964715
 30
0.0
 11
532.62045311058023
 21
1106.875
 31
0.0
  0
LINE
  5
19F
100
AcDbEntity
  8
0
370
              -2
390
0
  6
Continuous
 62
               0
100
AcDbLine
 10
532.62045311058023
 20
1106.875
 30
0.0
 11
455.25
 21
1106.875
 31
0.0
  0
LINE
  5
1A0
100
AcDbEntity
  8
0
370
              -2
390
0
  6
Continuous
 62
               0
100
AcDbLine
 10
542.6233945162885
 20
1106.875
 30
0.0
 11
532.62045311058023
 21
1106.875
 31
0.0
  0
CIRCLE
  5
1A1
102
{ACAD_REACTORS
330
1A2
102
}
100
AcDbEntity
  8
0
370
              -2
390
0
  6
Continuous
 62
               0
100
AcDbCircle
 10
542.6233945162885
 20
1106.875
 30
0.0
 40
1.9998779296875
  0
HATCH
  5
1A2
100
AcDbEntity
  8
0
370
              -2
390
0
  6
Continuous
 62
               0
100
AcDbHatch
 10
0.0
 20
0.0
 30
0.0
210
0.0
220
0.0
230
1.0
  2
SOLID
 70
               1
 71
               1
 91
        1
 92
        1
 93
        1
 72
               2
 10
542.6233945162885
 20
1106.875
 40
1.9998779296875
 50
0.0
 51
360.0
 73
               0
 97
        1
330
1A1
 75
               0
 76
               1
 98
        1
 10
0.0
 20
0.0
  0
CIRCLE
  5
1A3
102
{ACAD_REACTORS
330
1A4
102
}
100
AcDbEntity
  8
0
370
              -2
390
0
  6
Continuous
 62
               0
100
AcDbCircle
 10
532.62045311058023
 20
1106.875
 30
0.0
 40
1.9998779296875
  0
HATCH
  5
1A4
100
AcDbEntity
  8
0
370
              -2
390
0
  6
Continuous
 62
               0
100
AcDbHatch
 10
0.0
 20
0.0
 30
0.0
210
0.0
220
0.0
230
1.0
  2
SOLID
 70
               1
 71
               1
 91
        1
 92
        1
 93
        1
 72
               2
 10
532.62045311058023
 20
1106.875
 40
1.9998779296875
 50
0.0
 51
360.0
 73
               0
 97
        1
330
1A3
 75
               0
 76
               1
 98
        1
 10
0.0
 20
0.0
  0
MTEXT
  5
1A5
100
AcDbEntity
  8
0
390
0
 62
               0
100
AcDbMText
 10
455.25
 20
1140.7526171874999
 30
0.0
 40
24.432617187500004
 41
0.0
 71
               1
 72
               1
  1
10
  7
ＭＳ ゴシック
 73
               1
 44
0.7828267384257843
  0
POINT
  5
1A6
100
AcDbEntity
  8
Defpoints
370
               0
390
0
 62
               0
100
AcDbPoint
 10
532.62045311058023
 20
1108.9997237964715
 30
0.0
  0
POINT
  5
1A7
100
AcDbEntity
  8
Defpoints
370
               0
390
0
 62
               0
100
AcDbPoint
 10
542.6233945162885
 20
1109.0
 30
0.0
  0
POINT
  5
1A8
100
AcDbEntity
  8
Defpoints
370
               0
390
0
 62
               0
100
AcDbPoint
 10
542.6233945162885
 20
1106.875
 30
0.0
  0
ENDBLK
  5
1A9
100
AcDbEntity
  8
ARJ70-1003
390
0
100
AcDbBlockEnd
  0
ENDSEC
  0
SECTION
  2
ENTITIES
  0
MTEXT
  5
1AA
100
AcDbEntity
  8
template
390
0
 62
               7
100
AcDbMText
 10
-967.99999999975807
 20
-1134.6535143187939
 30
0.0
 40
16.288411458333332
 41
0.0
 71
               1
 72
               1
  1
品名
  7
ＭＳ ゴシック
 73
               1
 44
0.7828267384257843
  0
MTEXT
  5
1AB
100
AcDbEntity
  8
template
390
0
 62
               7
100
AcDbMText
 10
-967.99999999975807
 20
-1219.6535143187939
 30
0.0
 40
16.288411458333332
 41
0.0
 71
               1
 72
               1
  1
仕様
  7
ＭＳ ゴシック
 73
               1
 44
0.7828267384257843
  0
LINE
  5
1AC
100
AcDbEntity
  8
template
370
               5
390
0
  6
Continuous
 62
               7
100
AcDbLine
 10
974.99999999975967
 20
-1211.238592443794
 30
0.0
 11
-975.00000000024193
 21
-1211.238592443794
 31
0.0
  0
LWPOLYLINE
  5
1AD
100
AcDbEntity
  8
template
370
               5
390
0
  6
Continuous
 62
               7
100
AcDbPolyline
 90
        5
 70
             128
 10
975.0000000002417
 20
1418.761407556206
 10
-974.99999999975807
 20
1418.761407556206
 10
-974.99999999975807
 20
-1381.238592443794
 10
975.0000000002417
 20
-1381.238592443794
 10
975.0000000002417
 20
1418.761407556206
  0
LINE
  5
1AE
100
AcDbEntity
  8
template
370
               5
390
0
  6
Continuous
 62
               7
100
AcDbLine
 10
974.99999999975967
 20
-1126.238592443794
 30
0.0
 11
-975.00000000024193
 21
-1126.238592443794
 31
0.0
  0
LINE
  5
1AF
100
AcDbEntity
  8
template
370
               5
390
0
  6
Continuous
 62
               7
100
AcDbLine
 10
975.0000000002417
 20
-1296.238592443794
 30
0.0
 11
222.0000000002417
 21
-1296.238592443794
 31
0.0
  0
MTEXT
  5
1B0
100
AcDbEntity
  8
template
390
0
 62
               7
100
AcDbMText
 10
-974.99999999955435
 20
-1393.0924145006511
 30
0.0
 40
21.717881944444446
 41
0.0
 71
               1
 72
               1
  1
120221SH
  7
ＭＳ ゴシック
 73
               1
 44
0.7828267384257843
  0
MTEXT
  5
1B1
100
AcDbEntity
  8
template
390
0
 62
               7
100
AcDbMText
 10
251.87140625250117
 20
-1326.1489869171014
 30
0.0
 40
24.432617187500004
 41
0.0
 71
               1
 72
               1
  1
大洋金物株式会社 ティーフォルム事業部
  7
ＭＳ ゴシック
 73
               1
 44
0.7828267384257843
  0
INSERT
  5
1B2
100
AcDbEntity
  8
template
390
0
 62
               7
100
AcDbBlockReference
  2
グループ
 10
1566.0398742201346
 20
1156.714847477228
 30
0.0
  0
MTEXT
  5
1B3
100
AcDbEntity
  8
template
390
0
 62
               7
100
AcDbMText
 10
784.00000000050181
 20
-1248.2359752562938
 30
0.0
 40
24.432617187500004
 41
0.0
 71
               1
 72
               1
  1
1:10
  7
ＭＳ ゴシック
 73
               1
 44
0.7828267384257843
  0
MTEXT
  5
1B4
100
AcDbEntity
  8
template
390
0
 62
               7
100
AcDbMText
 10
731.00000000050181
 20
-1219.6535143187939
 30
0.0
 40
16.288411458333332
 41
0.0
 71
               1
 72
               1
  1
縮尺
  7
ＭＳ ゴシック
 73
               1
 44
0.7828267384257843
  0
LINE
  5
1B5
100
AcDbEntity
  8
template
370
               5
390
0
  6
Continuous
 62
               7
100
AcDbLine
 10
724.00000000050181
 20
-1296.238592443794
 30
0.0
 11
724.00000000050181
 21
-1211.238592443794
 31
0.0
  0
MTEXT
  5
1B6
100
AcDbEntity
  8
template
390
0
 62
               7
100
AcDbMText
 10
480.00000000050181
 20
-1219.6535143187939
 30
0.0
 40
16.288411458333332
 41
0.0
 71
               1
 72
               1
  1
容量
  7
ＭＳ ゴシック
 73
               1
 44
0.7828267384257843
  0
MTEXT
  5
1B7
100
AcDbEntity
  8
template
390
0
 62
               7
100
AcDbMText
 10
533.00000000050181
 20
-1248.1742309993642
 30
0.0
 40
23.9074177654294
 41
0.0
 71
               1
 72
               1
  1
7L
  7
ＭＳ ゴシック
 73
               1
 44
0.7828267384257843
  0
LINE
  5
1B8
100
AcDbEntity
  8
template
370
               5
390
0
  6
Continuous
 62
               7
100
AcDbLine
 10
473.00000000050181
 20
-1296.238592443794
 30
0.0
 11
473.00000000050181
 21
-1211.238592443794
 31
0.0
  0
MTEXT
  5
1B9
100
AcDbEntity
  8
template
390
0
 62
               7
100
AcDbMText
 10
229.00000000050181
 20
-1134.6535143187939
 30
0.0
 40
16.288411458333332
 41
0.0
 71
               1
 72
               1
  1
品番
  7
ＭＳ ゴシック
 73
               1
 44
0.7828267384257843
  0
MTEXT
  5
1BA
100
AcDbEntity
  8
template
390
0
 62
               7
100
AcDbMText
 10
229.00000000050181
 20
-1219.6535143187939
 30
0.0
 40
16.288411458333332
 41
0.0
 71
               1
 72
               1
  1
重量
  7
ＭＳ ゴシック
 73
               1
 44
0.7828267384257843
  0
MTEXT
  5
1BB
100
AcDbEntity
  8
template
390
0
 62
               7
100
AcDbMText
 10
282.00000000050181
 20
-1163.2359752562938
 30
0.0
 40
24.432617187500004
 41
0.0
 71
               1
 72
               1
  1
ARJ70-1003(旧品番:AQI70-1003)
  7
ＭＳ ゴシック
 73
               1
 44
0.7828267384257843
  0
MTEXT
  5
1BC
100
AcDbEntity
  8
template
390
0
 62
               7
100
AcDbMText
 10
282.00000000050181
 20
-1248.2359752562938
 30
0.0
 40
24.432617187500004
 41
0.0
 71
               1
 72
               1
  1
38kg
  7
ＭＳ ゴシック
 73
               1
 44
0.7828267384257843
  0
LINE
  5
1BD
100
AcDbEntity
  8
template
370
               5
390
0
  6
Continuous
 62
               7
100
AcDbLine
 10
222.00000000050181
 20
-1381.238592443794
 30
0.0
 11
222.00000000050181
 21
-1126.238592443794
 31
0.0
  0
MTEXT
  5
1BE
100
AcDbEntity
  8
template
390
0
 62
               7
100
AcDbMText
 10
-914.99999999975807
 20
-1163.2359752562938
 30
0.0
 40
24.432617187500004
 41
0.0
 71
               1
 72
               1
  1
洗面器 -POZZI GINORI,Novecento-
  7
ＭＳ ゴシック
 73
               1
 44
0.7828267384257843
  0
MTEXT
  5
1BF
100
AcDbEntity
  8
template
390
0
 62
               7
100
AcDbMText
 10
-914.99999999975807
 20
-1248.2359752562938
 30
0.0
 40
24.432617187500004
 41
0.0
 71
               1
 72
               1
  1
壁掛け/オーバーフロー付き/壁取付ボルト付属/陶器/ホワイト
  7
ＭＳ ゴシック
 73
               1
 44
1.3047112307096407
  0
DIMENSION
  5
1C0
100
AcDbEntity
  8
notes
370
               5
390
0
  6
Continuous
 62
               7
100
AcDbDimension
  2
*D3
 10
-769.50782168316118
 20
-869.93649732610334
 30
0.0
 11
-769.50782168316118
 21
-269.93649732610311
 31
0.0
 71
               5
 72
               1
 41
1.0
 42
0.0
  3
tform線あり
100
AcDbAlignedDimension
 13
-531.50782168316391
 23
330.06350267389735
 33
0.0
 14
-531.50782168316391
 24
-869.93649732610334
 34
0.0
 50
90.0
100
AcDbRotatedDimension
1001
ACAD
1000
DSTYLE
1002
{
1070
             279
1070
               2
1070
             340
1005
3F
1070
             147
1040
5.0
1002
}
  0
DIMENSION
  5
1C1
100
AcDbEntity
  8
notes
370
               5
390
0
  6
Continuous
 62
               7
100
AcDbDimension
  2
*D4
 10
-669.50782168316118
 20
-369.93649732610288
 30
0.0
 11
-669.50782168316118
 21
-319.93649732610265
 31
0.0
 71
               5
 72
               1
 41
1.0
 42
0.0
  3
tform線あり
100
AcDbAlignedDimension
 13
-487.01209261510894
 23
-269.93649732610265
 33
0.0
 14
-481.89336459669448
 24
-369.93649732610288
 34
0.0
 50
90.0
100
AcDbRotatedDimension
1001
ACAD
1000
DSTYLE
1002
{
1070
             279
1070
               2
1070
             340
1005
3F
1070
             147
1040
5.0
1002
}
  0
DIMENSION
  5
1C2
100
AcDbEntity
  8
notes
370
               5
390
0
  6
Continuous
 62
               7
100
AcDbDimension
  2
*D5
 10
-669.50782168316073
 20
-269.93649732610265
 30
0.0
 11
-674.50782168316073
 21
-211.36233188495112
 31
0.0
 70
             128
 71
               5
 72
               1
 41
1.0
 42
0.0
  3
tform線あり
100
AcDbAlignedDimension
 13
-481.89336459669448
 23
-169.93649732610265
 33
0.0
 14
-487.01209261510894
 24
-269.93649732610265
 34
0.0
 50
90.0
100
AcDbRotatedDimension
1001
ACAD
1000
DSTYLE
1002
{
1070
             279
1070
               2
1070
             340
1005
3F
1070
             147
1040
5.0
1002
}
  0
DIMENSION
  5
1C3
100
AcDbEntity
  8
notes
370
               5
390
0
  6
Continuous
 62
               7
100
AcDbDimension
  2
*D6
 10
-719.50782168316118
 20
270.04052747328433
 30
0.0
 11
-719.50782168316118
 21
-269.93649732609947
 31
0.0
 71
               5
 72
               1
 41
1.0
 42
0.0
  3
tform線あり
100
AcDbAlignedDimension
 13
-564.50780366092704
 23
-809.91352212548304
 33
0.0
 14
-566.50782168315845
 24
270.04052747328433
 34
0.0
 50
90.0
100
AcDbRotatedDimension
1001
ACAD
1000
DSTYLE
1002
{
1070
             279
1070
               2
1070
             340
1005
3F
1070
             147
1040
5.0
1002
}
  0
DIMENSION
  5
1C4
100
AcDbEntity
  8
notes
370
               5
390
0
  6
Continuous
 62
               7
100
AcDbDimension
  2
*D7
 10
78.329727630764637
 20
-569.93649732610334
 30
0.0
 11
78.329727630764637
 21
-269.93649732610311
 31
0.0
 71
               5
 72
               1
 41
1.0
 42
0.0
  3
tform線あり
100
AcDbAlignedDimension
 13
-19.507821683160046
 23
30.063502673897347
 33
0.0
 14
-19.507821683160046
 24
-569.93649732610334
 34
0.0
 50
90.0
100
AcDbRotatedDimension
1001
ACAD
1000
DSTYLE
1002
{
1070
             279
1070
               2
1070
             340
1005
3F
1070
             147
1040
5.0
1002
}
  0
DIMENSION
  5
1C5
100
AcDbEntity
  8
notes
370
               5
390
0
  6
Continuous
 62
               7
100
AcDbDimension
  2
*D8
 10
78.329727630764637
 20
30.063502673897347
 30
0.0
 11
78.329727630764637
 21
180.06350267389735
 31
0.0
 71
               5
 72
               1
 41
1.0
 42
0.0
  3
tform線あり
100
AcDbAlignedDimension
 13
-37.507821683163684
 23
330.06350267389735
 33
0.0
 14
-19.507821683160046
 24
30.063502673897347
 34
0.0
 50
90.0
100
AcDbRotatedDimension
1001
ACAD
1000
DSTYLE
1002
{
1070
             279
1070
               2
1070
             340
1005
3F
1070
             147
1040
5.0
1002
}
  0
DIMENSION
  5
1C6
100
AcDbEntity
  8
notes
370
               5
390
0
  6
Continuous
 62
               7
100
AcDbDimension
  2
*D9
 10
430.01336707160272
 20
-670.0
 30
0.0
 11
430.01336707160272
 21
-540.0
 31
0.0
 71
               5
 72
               1
 41
1.0
 42
0.0
  3
tform線あり
100
AcDbAlignedDimension
 13
585.01336707165251
 23
-410.0
 33
0.0
 14
585.01336707165251
 24
-670.0
 34
0.0
 50
90.0
100
AcDbRotatedDimension
1001
ACAD
1000
DSTYLE
1002
{
1070
             279
1070
               2
1070
             340
1005
3F
1070
             147
1040
5.0
1002
}
  0
DIMENSION
  5
1C7
100
AcDbEntity
  8
notes
370
               5
390
0
  6
Continuous
 62
               7
100
AcDbDimension
  2
*D10
 10
430.01336707160272
 20
-410.0
 30
0.0
 11
430.01336707160272
 21
-270.0
 31
0.0
 71
               5
 72
               1
 41
1.0
 42
0.0
  3
tform線あり
100
AcDbAlignedDimension
 13
585.01336707165251
 23
-130.0
 33
0.0
 14
585.01336707165251
 24
-410.0
 34
0.0
 50
90.0
100
AcDbRotatedDimension
1001
ACAD
1000
DSTYLE
1002
{
1070
             279
1070
               2
1070
             340
1005
3F
1070
             147
1040
5.0
1002
}
  0
DIMENSION
  5
1C8
100
AcDbEntity
  8
notes
370
               5
390
0
  6
Continuous
 62
               7
100
AcDbDimension
  2
*D11
 10
430.01336707160272
 20
-130.0
 30
0.0
 11
430.01336707160272
 21
0.0
 31
0.0
 71
               5
 72
               1
 41
1.0
 42
0.0
  3
tform線あり
100
AcDbAlignedDimension
 13
585.01336707165251
 23
130.0
 33
0.0
 14
585.01336707165251
 24
-130.0
 34
0.0
 50
90.0
100
AcDbRotatedDimension
1001
ACAD
1000
DSTYLE
1002
{
1070
             279
1070
               2
1070
             340
1005
3F
1070
             147
1040
5.0
1002
}
  0
DIMENSION
  5
1C9
100
AcDbEntity
  8
notes
370
               5
390
0
  6
Continuous
 62
               7
100
AcDbDimension
  2
*D12
 10
430.01336707160272
 20
-670.0
 30
0.0
 11
430.01336707160272
 21
-770.0
 31
0.0
 71
               5
 72
               1
 41
1.0
 42
0.0
  3
tform線あり
100
AcDbAlignedDimension
 13
585.01336707165251
 23
-870.0
 33
0.0
 14
585.01336707165251
 24
-670.0
 34
0.0
 50
90.0
100
AcDbRotatedDimension
1001
ACAD
1000
DSTYLE
1002
{
1070
             279
1070
               2
1070
             340
1005
3F
1070
             147
1040
5.0
1002
}
  0
DIMENSION
  5
1CA
100
AcDbEntity
  8
notes
370
               5
390
0
  6
Continuous
 62
               7
100
AcDbDimension
  2
*D13
 10
532.62045311058023
 20
610.23939301807991
 30
0.0
 11
570.08269588960775
 21
610.23939301807991
 31
0.0
 71
               5
 72
               1
 41
1.0
 42
0.0
  3
tform線あり
100
AcDbAlignedDimension
 13
607.54493866863527
 23
715.2393930180798
 33
0.0
 14
532.62045311058023
 24
720.42133130207014
 34
0.0
100
AcDbRotatedDimension
1001
ACAD
1000
DSTYLE
1002
{
1070
             271
1070
               0
1070
             279
1070
               2
1070
             340
1005
3F
1070
             147
1040
5.0
1002
}
  0
DIMENSION
  5
1CB
100
AcDbEntity
  8
notes
370
               5
390
0
  6
Continuous
 62
               7
100
AcDbDimension
  2
*D14
 10
607.54493866863527
 20
610.23939301807991
 30
0.0
 11
637.50328079374151
 21
610.23939301807991
 31
0.0
 71
               5
 72
               1
 41
1.0
 42
0.0
  3
tform線あり
100
AcDbAlignedDimension
 13
667.46162291884775
 23
773.46294391483673
 33
0.0
 14
607.54493866863527
 24
715.2393930180798
 34
0.0
100
AcDbRotatedDimension
1001
ACAD
1000
DSTYLE
1002
{
1070
             271
1070
               0
1070
             279
1070
               2
1070
             340
1005
3F
1070
             147
1040
5.0
1002
}
  0
DIMENSION
  5
1CC
100
AcDbEntity
  8
notes
370
               5
390
0
  6
Continuous
 62
               7
100
AcDbDimension
  2
*D15
 10
667.46162291884775
 20
610.23939301807991
 30
0.0
 11
689.96162291884605
 21
610.23939301807991
 31
0.0
 71
               5
 72
               1
 41
1.0
 42
0.0
  3
tform線あり
100
AcDbAlignedDimension
 13
712.46162291884434
 23
963.96380923818765
 33
0.0
 14
667.46162291884775
 24
773.46294391483673
 34
0.0
100
AcDbRotatedDimension
1001
ACAD
1000
DSTYLE
1002
{
1070
             271
1070
               0
1070
             279
1070
               2
1070
             340
1005
3F
1070
             147
1040
5.0
1002
}
  0
DIMENSION
  5
1CD
100
AcDbEntity
  8
notes
370
               5
390
0
  6
Continuous
 62
               7
100
AcDbDimension
  2
*D16
 10
-569.50782168316209
 20
427.90105198782339
 30
0.0
 11
-294.507821683163
 21
427.90105198782339
 31
0.0
 71
               5
 72
               1
 41
1.0
 42
0.0
  3
tform線あり
100
AcDbAlignedDimension
 13
-19.507821683163684
 23
312.06350267389735
 33
0.0
 14
-569.50782168316209
 24
267.04052747328433
 34
0.0
100
AcDbRotatedDimension
1001
ACAD
1000
DSTYLE
1002
{
1070
             279
1070
               2
1070
             340
1005
3F
1070
             147
1040
5.0
1002
}
  0
DIMENSION
  5
1CE
100
AcDbEntity
  8
notes
370
               5
390
0
  6
Continuous
 62
               7
100
AcDbDimension
  2
*D17
 10
530.04669819213518
 20
427.90105198782339
 30
0.0
 11
620.02334909606759
 21
427.90105198782339
 31
0.0
 71
               5
 72
               1
 41
1.0
 42
0.0
  3
tform線あり
100
AcDbAlignedDimension
 13
710.0
 23
-238.83439196238214
 33
0.0
 14
530.04669819213518
 24
319.90921791332289
 34
0.0
100
AcDbRotatedDimension
1001
ACAD
1000
DSTYLE
1002
{
1070
             279
1070
               2
1070
             340
1005
3F
1070
             147
1040
5.0
1002
}
  0
DIMENSION
  5
1CF
100
AcDbEntity
  8
notes
370
               5
390
0
  6
Continuous
 62
               7
100
AcDbDimension
  2
*D18
 10
803.41280904463633
 20
1260.5120843347347
 30
0.0
 11
803.41280904463633
 21
1128.0120843347347
 31
0.0
 71
               5
 72
               1
 41
1.0
 42
0.0
  3
tform線あり
100
AcDbAlignedDimension
 13
712.46162291884434
 23
995.51208433473471
 33
0.0
 14
703.41280904463633
 24
1260.5120843347347
 34
0.0
 50
90.0
100
AcDbRotatedDimension
1001
ACAD
1000
DSTYLE
1002
{
1070
             279
1070
               2
1070
             340
1005
3F
1070
             147
1040
5.0
1002
}
  0
DIMENSION
  5
1D0
100
AcDbEntity
  8
notes
370
               5
390
0
  6
Continuous
 62
               7
100
AcDbDimension
  2
*D19
 10
-569.50782168316209
 20
-969.93649732610311
 30
0.0
 11
-489.49544962266737
 21
-969.93649732610311
 31
0.0
 71
               5
 72
               1
 41
1.0
 42
0.0
  3
tform線あり
100
AcDbAlignedDimension
 13
-409.48307756217287
 23
-869.93649732610334
 33
0.0
 14
-569.50782168316209
 24
-806.91352212549077
 34
0.0
100
AcDbRotatedDimension
1001
ACAD
1000
DSTYLE
1002
{
1070
             279
1070
               2
1070
             340
1005
3F
1070
             147
1040
5.0
1002
}
  0
DIMENSION
  5
1D1
100
AcDbEntity
  8
notes
370
               5
390
0
  6
Continuous
 62
               7
100
AcDbDimension
  2
*D20
 10
-409.48307756217287
 20
-969.93649732610311
 30
0.0
 11
-251.98307756217287
 21
-969.93649732610311
 31
0.0
 71
               5
 72
               1
 41
1.0
 42
0.0
  3
tform線あり
100
AcDbAlignedDimension
 13
-94.483077562172866
 23
-869.93649732610334
 33
0.0
 14
-409.48307756217287
 24
-874.9278100550905
 34
0.0
100
AcDbRotatedDimension
1001
ACAD
1000
DSTYLE
1002
{
1070
             279
1070
               2
1070
             340
1005
3F
1070
             147
1040
5.0
1002
}
  0
DIMENSION
  5
1D2
100
AcDbEntity
  8
notes
370
               5
390
0
  6
Continuous
 62
               7
100
AcDbDimension
  2
*D21
 10
604.99052940153729
 20
-969.93442498699369
 30
0.0
 11
567.50194823646279
 21
-969.93442498699369
 31
0.0
 71
               5
 72
               1
 41
1.0
 42
0.0
  3
tform線あり
100
AcDbAlignedDimension
 13
530.0133670713883
 23
-859.77806788734711
 33
0.0
 14
604.99052940153729
 24
-864.93747085199061
 34
0.0
100
AcDbRotatedDimension
1001
ACAD
1000
DSTYLE
1002
{
1070
             279
1070
               2
1070
             340
1005
3F
1070
             147
1040
5.0
1002
}
  0
DIMENSION
  5
1D3
100
AcDbEntity
  8
notes
370
               5
390
0
  6
Continuous
 62
               7
100
AcDbDimension
  2
*D22
 10
-482.18076202187922
 20
-282.00939322816248
 30
0.0
 11
-313.41892345452538
 21
-178.36233188495407
 31
0.0
 70
               3
 71
               5
 72
               1
 41
1.0
 42
0.0
  3
tform線あり
100
AcDbDiametricDimension
 15
-456.84342320833957
 25
-257.86360142404283
 35
0.0
 40
115.23931194475698
1001
ACAD
1000
DSTYLE
1002
{
1070
             289
1070
               0
1070
             342
1005
51
1070
             340
1005
3F
1070
              73
1070
               1
1070
              74
1070
               1
1070
               3
1000

1070
             174
1070
               0
1070
             147
1040
5.0
1002
}
  0
MTEXT
  5
1D4
100
AcDbEntity
  8
notes
390
0
 62
               7
100
AcDbMText
 10
133.2391710495408
 20
-694.43869733832685
 30
0.0
 40
24.432617187500004
 41
829.97786807262037
 71
               1
 72
               1
  1
＝φ30もしくはφ35の水栓取付用穴あけ加工を承ります。\P   必要な場合、ご注文の際にご指示ください。
  7
ＭＳ ゴシック
 11
0.0
 21
1.0
 31
0.0
 73
               1
 44
1.0437689845677123
  0
MTEXT
  5
1D5
100
AcDbEntity
  8
notes
390
0
 62
               7
100
AcDbMText
 10
465.58875320879793
 20
168.70295660634361
 30
0.0
 40
24.432617187500004
 41
0.0
 71
               1
 72
               1
  1
壁取付ボルト穴(4ヶ所)
  7
ＭＳ ゴシック
 11
0.0
 21
1.0
 31
0.0
 73
               1
 44
0.7828267384257843
  0
LINE
  5
1D6
100
AcDbEntity
  8
notes
370
               5
390
0
  6
Continuous
 62
               7
100
AcDbLine
 10
605.01336707165251
 20
130.0
 30
0.0
 11
502.01602175228936
 21
182.63766811504888
 31
0.0
  0
CIRCLE
  5
1D7
100
AcDbEntity
  8
notes
370
              15
390
0
  6
STYLE_13
 62
               7
100
AcDbCircle
 10
146.2976550444364
 20
-722.46082926570648
 30
0.0
 40
15.0
  0
LINE
  5
1D8
100
AcDbEntity
  8
ARJ70-1003
370
              15
390
0
  6
Continuous
 62
               7
100
AcDbLine
 10
530.0133670713883
 20
-859.77806788734711
 30
0.0
 11
530.01336707168298
 21
319.90921791333699
 31
0.0
  0
LINE
  5
1D9
100
AcDbEntity
  8
ARJ70-1003
370
              15
390
0
  6
Continuous
 62
               7
100
AcDbLine
 10
664.99052940153729
 20
-804.94051857341424
 30
0.0
 11
664.99052940150091
 21
-421.33291380234823
 31
0.0
  0
ARC
  5
1DA
100
AcDbEntity
  8
ARJ70-1003
370
              15
390
0
  6
Continuous
 62
               7
100
AcDbCircle
 10
538.04669819183982
 20
-859.77806788733938
 30
0.0
 40
7.9999999999997726
100
AcDbArc
 50
180.0
 51
270.0
  0
LINE
  5
1DB
100
AcDbEntity
  8
ARJ70-1003
370
              15
390
0
  6
Continuous
 62
               7
100
AcDbLine
 10
599.81603191802128
 20
-869.93442498701211
 30
0.0
 11
537.50799205383032
 21
-867.75858028943344
 31
0.0
  0
ARC
  5
1DC
100
AcDbEntity
  8
ARJ70-1003
370
              15
390
0
  6
Continuous
 62
               7
100
AcDbCircle
 10
695.58140326316732
 20
-568.17875192343513
 30
0.0
 40
5.0000000000000435
100
AcDbArc
 50
285.51849411238669
 51
0.0
  0
LINE
  5
1DD
100
AcDbEntity
  8
ARJ70-1003
370
              15
390
0
  6
Continuous
 62
               7
100
AcDbLine
 10
664.9905294015141
 20
-454.89198556031783
 30
0.0
 11
664.99052940150818
 21
-421.33291380234823
 31
0.0
  0
LINE
  5
1DE
100
AcDbEntity
  8
ARJ70-1003
370
              15
390
0
  6
Continuous
 62
               7
100
AcDbLine
 10
604.99052940153729
 20
-419.94051857340014
 30
0.0
 11
604.99052940153729
 21
-864.93747085191785
 31
0.0
  0
LINE
  5
1DF
100
AcDbEntity
  8
ARJ70-1003
370
              15
390
0
  6
Continuous
 62
               7
100
AcDbLine
 10
665.04883872338712
 20
-581.90813975046353
 30
0.0
 11
696.91915029230529
 21
-572.99647263825796
 31
0.0
  0
LINE
  5
1E0
100
AcDbEntity
  8
ARJ70-1003
370
              15
390
0
  6
Continuous
 62
               7
100
AcDbLine
 10
604.99052940153729
 20
-864.93747085198333
 30
0.0
 11
604.99052940155229
 21
-863.39852660216434
 31
0.0
  0
ARC
  5
1E1
100
AcDbEntity
  8
ARJ70-1003
370
              15
390
0
  6
Continuous
 62
               7
100
AcDbCircle
 10
659.99052940153717
 20
-804.94051857341424
 30
0.0
 40
5.0
100
AcDbArc
 50
270.0
 51
0.0
  0
LINE
  5
1E2
100
AcDbEntity
  8
ARJ70-1003
370
              15
390
0
  6
Continuous
 62
               7
100
AcDbLine
 10
659.99052940153729
 20
-809.94051857341515
 30
0.0
 11
604.99052940153729
 21
-811.86116089546817
 31
0.0
  0
ARC
  5
1E3
100
AcDbEntity
  8
ARJ70-1003
370
              15
390
0
  6
Continuous
 62
               7
100
AcDbCircle
 10
599.99052940153717
 20
-864.93747085191785
 30
0.0
 40
5.0000000000001528
100
AcDbArc
 50
267.99999999999642
 51
359.99999999916622
  0
LINE
  5
1E4
100
AcDbEntity
  8
ARJ70-1003
370
              15
390
0
  6
Continuous
 62
               7
100
AcDbLine
 10
664.9905294015141
 20
-269.93442498700529
 30
0.0
 11
664.99052940149409
 21
-421.33291380234823
 31
0.0
  0
LINE
  5
1E5
100
AcDbEntity
  8
ARJ70-1003
370
              15
390
0
  6
Continuous
 62
               7
100
AcDbLine
 10
664.9905294015141
 20
-384.98905158649723
 30
0.0
 11
664.99052940150091
 21
-421.33291380234823
 31
0.0
  0
LINE
  5
1E6
100
AcDbEntity
  8
ARJ70-1003
370
              15
390
0
  6
Continuous
 62
               7
100
AcDbLine
 10
604.99052940153729
 20
-419.94051857341606
 30
0.0
 11
604.99052940153729
 21
-269.9344249870112
 31
0.0
  0
LINE
  5
1E7
100
AcDbEntity
  8
ARJ70-1003
370
              15
390
0
  6
Continuous
 62
               7
100
AcDbLine
 10
664.99052940180331
 20
265.07166859933409
 30
0.0
 11
664.99052940157731
 21
-118.53593617173533
 31
0.0
  0
LINE
  5
1E8
100
AcDbEntity
  8
ARJ70-1003
370
              15
390
0
  6
Continuous
 62
               7
100
AcDbLine
 10
700.8052935985769
 20
28.421227762654098
 30
0.0
 11
700.58140326316732
 21
-568.17875192343513
 31
0.0
  0
ARC
  5
1E9
100
AcDbEntity
  8
ARJ70-1003
370
              15
390
0
  6
Continuous
 62
               7
100
AcDbCircle
 10
538.04669819213518
 20
319.90921791332289
 30
0.0
 40
8.0
100
AcDbArc
 50
90.0
 51
180.0
  0
LINE
  5
1EA
100
AcDbEntity
  8
ARJ70-1003
370
              15
390
0
  6
Continuous
 62
               7
100
AcDbLine
 10
599.81603191831914
 20
330.06557501296606
 30
0.0
 11
537.50799205412909
 21
327.88973031541605
 31
0.0
  0
LINE
  5
1EB
100
AcDbEntity
  8
ARJ70-1003
370
              15
390
0
  6
Continuous
 62
               7
100
AcDbLine
 10
664.99052940160595
 20
-84.976864413765952
 30
0.0
 11
664.99052940158504
 21
-118.53593617173533
 31
0.0
  0
LINE
  5
1EC
100
AcDbEntity
  8
ARJ70-1003
370
              15
390
0
  6
Continuous
 62
               7
100
AcDbLine
 10
604.99052940161414
 20
-119.92833140064499
 30
0.0
 11
604.99052940183606
 21
325.0686208778709
 31
0.0
  0
LINE
  5
1ED
100
AcDbEntity
  8
ARJ70-1003
370
              15
390
0
  6
Continuous
 62
               7
100
AcDbLine
 10
604.99052940183606
 20
325.06862087793775
 30
0.0
 11
604.99052940184606
 21
323.52967662811784
 31
0.0
  0
ARC
  5
1EE
100
AcDbEntity
  8
ARJ70-1003
370
              15
390
0
  6
Continuous
 62
               7
100
AcDbCircle
 10
659.99052940180331
 20
265.07166859933898
 30
0.0
 40
5.0
100
AcDbArc
 50
0.0
 51
90.0
  0
LINE
  5
1EF
100
AcDbEntity
  8
ARJ70-1003
370
              15
390
0
  6
Continuous
 62
               7
100
AcDbLine
 10
659.99052940180695
 20
270.07166859933909
 30
0.0
 11
604.99052940180695
 21
271.99231092142168
 31
0.0
  0
ARC
  5
1F0
100
AcDbEntity
  8
ARJ70-1003
370
              15
390
0
  6
Continuous
 62
               7
100
AcDbCircle
 10
599.99052940183606
 20
325.0686208778709
 30
0.0
 40
5.0
100
AcDbArc
 50
0.0000000008337633
 51
92.000000000003681
  0
LINE
  5
1F1
100
AcDbEntity
  8
ARJ70-1003
370
              15
390
0
  6
Continuous
 62
               7
100
AcDbLine
 10
664.9905294015141
 20
-269.93442498707805
 30
0.0
 11
664.99052940157412
 21
-121.32072662961605
 31
0.0
  0
LINE
  5
1F2
100
AcDbEntity
  8
ARJ70-1003
370
              15
390
0
  6
Continuous
 62
               7
100
AcDbLine
 10
664.99052940157412
 20
-154.87979838758497
 30
0.0
 11
664.99052940158094
 21
-121.32072662961605
 31
0.0
  0
LINE
  5
1F3
100
AcDbEntity
  8
ARJ70-1003
370
              15
390
0
  6
Continuous
 62
               7
100
AcDbLine
 10
604.99052940161414
 20
-119.92833140063226
 30
0.0
 11
604.99052940153729
 21
-269.93442498703394
 31
0.0
  0
LINE
  5
1F4
100
AcDbEntity
  8
ARJ70-1003
370
              15
390
0
  6
Continuous
 62
               7
100
AcDbLine
 10
-19.507821683160046
 20
-269.93649732609492
 30
0.0
 11
-19.507821683163684
 21
-851.93649732610334
 31
0.0
  0
LINE
  5
1F5
100
AcDbEntity
  8
ARJ70-1003
370
              15
390
0
  6
Continuous
 62
               7
100
AcDbLine
 10
-45.035893316787451
 20
-269.93649732609492
 30
0.0
 11
-45.035893316791089
 21
-839.40842569247593
 31
0.0
  0
LINE
  5
1F6
100
AcDbEntity
  8
ARJ70-1003
370
              15
390
0
  6
Continuous
 62
               7
100
AcDbLine
 10
-36.194984303157298
 20
-269.93649732609492
 30
0.0
 11
-36.194984303159117
 21
-843.24933470610608
 31
0.0
  0
LINE
  5
1F7
100
AcDbEntity
  8
ARJ70-1003
370
              15
390
0
  6
Continuous
 62
               7
100
AcDbLine
 10
-21.670272369235363
 20
-269.93649732609492
 30
0.0
 11
-21.670272369239001
 21
-851.93649732610334
 31
0.0
  0
LINE
  5
1F8
100
AcDbEntity
  8
ARJ70-1003
370
              15
390
0
  6
Continuous
 62
               7
100
AcDbLine
 10
-531.50782168316391
 20
-869.93649732610334
 30
0.0
 11
-37.507821683163684
 21
-869.93649732610334
 31
0.0
  0
LINE
  5
1F9
100
AcDbEntity
  8
ARJ70-1003
370
              15
390
0
  6
Continuous
 62
               7
100
AcDbLine
 10
-531.50782168316391
 20
-867.77404664002802
 30
0.0
 11
-37.507821683163684
 21
-867.77404664002802
 31
0.0
  0
LINE
  5
1FA
100
AcDbEntity
  8
ARJ70-1003
370
              15
390
0
  6
Continuous
 62
               7
100
AcDbLine
 10
-399.48307756217287
 20
-569.93649732610334
 30
0.0
 11
-104.49192283226739
 21
-569.93649732610334
 31
0.0
  0
LINE
  5
1FB
100
AcDbEntity
  8
ARJ70-1003
370
              15
390
0
  6
Continuous
 62
               7
100
AcDbLine
 10
-409.48307756217605
 20
-269.93649732609492
 30
0.0
 11
-409.48307756217287
 21
-560.20528943794511
 31
0.0
  0
LINE
  5
1FC
100
AcDbEntity
  8
ARJ70-1003
370
              15
390
0
  6
Continuous
 62
               7
100
AcDbLine
 10
-549.50782168301748
 20
312.06357527461023
 30
0.0
 11
-549.50782168302476
 21
289.24017027056925
 31
0.0
  0
ARC
  5
1FD
100
AcDbEntity
  8
ARJ70-1003
370
              15
390
0
  6
Continuous
 62
               7
100
AcDbCircle
 10
-37.507821683163684
 20
-851.93649732610334
 30
0.0
 40
18.0
100
AcDbArc
 50
270.0
 51
0.0
  0
ARC
  5
1FE
100
AcDbEntity
  8
ARJ70-1003
370
              15
390
0
  6
Continuous
 62
               7
100
AcDbCircle
 10
-37.507821683163684
 20
-851.93649732610334
 30
0.0
 40
15.837549313924683
100
AcDbArc
 50
270.0
 51
0.0
  0
ARC
  5
1FF
100
AcDbEntity
  8
ARJ70-1003
370
              15
390
0
  6
Continuous
 62
               7
100
AcDbCircle
 10
-531.50782168316391
 20
-851.93649732610334
 30
0.0
 40
18.0
100
AcDbArc
 50
180.0
 51
270.0
  0
ARC
  5
200
100
AcDbEntity
  8
ARJ70-1003
370
              15
390
0
  6
Continuous
 62
               7
100
AcDbCircle
 10
-531.50782168316391
 20
-851.93649732610334
 30
0.0
 40
15.837549313924683
100
AcDbArc
 50
180.0
 51
270.0
  0
LINE
  5
201
100
AcDbEntity
  8
ARJ70-1003
370
              15
390
0
  6
Continuous
 62
               7
100
AcDbLine
 10
-94.487336574677556
 20
-269.93649732610265
 30
0.0
 11
-94.491922833515218
 21
-560.20544743826827
 31
0.0
  0
LINE
  5
202
100
AcDbEntity
  8
ARJ70-1003
370
              15
390
0
  6
Continuous
 62
               7
100
AcDbLine
 10
-569.50782168316209
 20
-806.91352212549077
 30
0.0
 11
-569.50782168315936
 21
-269.93649732610265
 31
0.0
  0
ARC
  5
203
100
AcDbEntity
  8
ARJ70-1003
370
              15
390
0
  6
Continuous
 62
               7
100
AcDbCircle
 10
-566.507821683163
 20
-806.91352212549077
 30
0.0
 40
3.0
100
AcDbArc
 50
180.0
 51
270.0000000000868
  0
LINE
  5
204
100
AcDbEntity
  8
ARJ70-1003
370
              15
390
0
  6
Continuous
 62
               7
100
AcDbLine
 10
-561.10832695395811
 20
-809.91352212548304
 30
0.0
 11
-566.50782168315845
 21
-809.91352212549077
 31
0.0
  0
CIRCLE
  5
205
100
AcDbEntity
  8
ARJ70-1003
370
              15
390
0
  6
Continuous
 62
               7
100
AcDbCircle
 10
-304.50782168321257
 20
-269.93649732610174
 30
0.0
 40
22.5
  0
CIRCLE
  5
206
100
AcDbEntity
  8
ARJ70-1003
370
              15
390
0
  6
Continuous
 62
               7
100
AcDbCircle
 10
-304.50782168321257
 20
-269.93649732610174
 30
0.0
 40
35.0
  0
ARC
  5
207
100
AcDbEntity
  8
ARJ70-1003
370
              15
390
0
  6
Continuous
 62
               7
100
AcDbCircle
 10
-104.49192283226739
 20
-559.93649732610334
 30
0.0
 40
10.0
100
AcDbArc
 50
270.0
 51
359.99909472479311
  0
ARC
  5
208
100
AcDbEntity
  8
ARJ70-1003
370
              15
390
0
  6
Continuous
 62
               7
100
AcDbCircle
 10
-399.48307756217287
 20
-559.93649732610334
 30
0.0
 40
10.0
100
AcDbArc
 50
180.0
 51
270.0
  0
CIRCLE
  5
209
100
AcDbEntity
  8
ARJ70-1003
370
              15
390
0
  6
Continuous
 62
               7
100
AcDbCircle
 10
-469.5120926151094
 20
-269.93649732610265
 30
0.0
 40
17.5
  0
LINE
  5
20A
100
AcDbEntity
  8
ARJ70-1003
370
              15
390
0
  6
Continuous
 62
               7
100
AcDbLine
 10
-19.507821683160046
 20
-269.93649732610993
 30
0.0
 11
-19.507821683163684
 21
312.06350267389735
 31
0.0
  0
LINE
  5
20B
100
AcDbEntity
  8
ARJ70-1003
370
              15
390
0
  6
Continuous
 62
               7
100
AcDbLine
 10
-21.670272369235363
 20
-269.93649732610993
 30
0.0
 11
-21.670272369239001
 21
312.06350267389735
 31
0.0
  0
LINE
  5
20C
100
AcDbEntity
  8
ARJ70-1003
370
              15
390
0
  6
Continuous
 62
               7
100
AcDbLine
 10
-531.50782168316391
 20
330.06350267389735
 30
0.0
 11
-37.507821683163684
 21
330.06350267389735
 31
0.0
  0
LINE
  5
20D
100
AcDbEntity
  8
ARJ70-1003
370
              15
390
0
  6
Continuous
 62
               7
100
AcDbLine
 10
-531.50782168316391
 20
327.90105198782339
 30
0.0
 11
-37.507821683163684
 21
327.90105198782339
 31
0.0
  0
LINE
  5
20E
100
AcDbEntity
  8
ARJ70-1003
370
              15
390
0
  6
Continuous
 62
               7
100
AcDbLine
 10
-409.48307756217605
 20
-269.93649732610993
 30
0.0
 11
-409.48307756217287
 21
20.332294785738213
 31
0.0
  0
LINE
  5
20F
100
AcDbEntity
  8
ARJ70-1003
370
              15
390
0
  6
Continuous
 62
               7
100
AcDbLine
 10
-549.507821683163
 20
-826.11352212548786
 30
0.0
 11
-549.507821683163
 21
-824.91352212548713
 31
0.0
  0
ARC
  5
210
100
AcDbEntity
  8
ARJ70-1003
370
              15
390
0
  6
Continuous
 62
               7
100
AcDbCircle
 10
-37.507821683163684
 20
312.06350267389735
 30
0.0
 40
18.0
100
AcDbArc
 50
0.0
 51
90.0
  0
ARC
  5
211
100
AcDbEntity
  8
ARJ70-1003
370
              15
390
0
  6
Continuous
 62
               7
100
AcDbCircle
 10
-37.507821683163684
 20
312.06350267389735
 30
0.0
 40
15.837549313924683
100
AcDbArc
 50
0.0
 51
90.0
  0
ARC
  5
212
100
AcDbEntity
  8
ARJ70-1003
370
              15
390
0
  6
Continuous
 62
               7
100
AcDbCircle
 10
-531.50782168316391
 20
312.06350267389735
 30
0.0
 40
18.0
100
AcDbArc
 50
90.0
 51
180.0
  0
LINE
  5
213
100
AcDbEntity
  8
ARJ70-1003
370
              15
390
0
  6
Continuous
 62
               7
100
AcDbLine
 10
-94.487336574677556
 20
-269.93649732610265
 30
0.0
 11
-94.491922833515218
 21
20.332452786061367
 31
0.0
  0
LINE
  5
214
100
AcDbEntity
  8
ARJ70-1003
370
              15
390
0
  6
Continuous
 62
               7
100
AcDbLine
 10
-549.507821683163
 20
-851.93649732610334
 30
0.0
 11
-549.5078216832012
 21
-821.51402739620903
 31
0.0
  0
LINE
  5
215
100
AcDbEntity
  8
ARJ70-1003
370
              15
390
0
  6
Continuous
 62
               7
100
AcDbLine
 10
-547.34537099708859
 20
-851.9364973260997
 30
0.0
 11
-547.34537099712134
 21
-826.11352212546967
 31
0.0
  0
LINE
  5
216
100
AcDbEntity
  8
ARJ70-1003
370
              15
390
0
  6
Continuous
 62
               7
100
AcDbLine
 10
-522.8206590631994
 20
-853.24933470610608
 30
0.0
 11
-46.194984303159117
 21
-853.24933470610608
 31
0.0
  0
ARC
  5
217
100
AcDbEntity
  8
ARJ70-1003
370
              15
390
0
  6
Continuous
 62
               7
100
AcDbCircle
 10
-522.82065906320031
 20
-843.24933470610608
 30
0.0
 40
10.0
100
AcDbArc
 50
180.0
 51
270.0
  0
ARC
  5
218
100
AcDbEntity
  8
ARJ70-1003
370
              15
390
0
  6
Continuous
 62
               7
100
AcDbCircle
 10
-46.194984303159117
 20
-843.24933470610608
 30
0.0
 40
10.0
100
AcDbArc
 50
270.0
 51
0.0
  0
LINE
  5
219
100
AcDbEntity
  8
ARJ70-1003
370
              15
390
0
  6
Continuous
 62
               7
100
AcDbLine
 10
-518.97975004957107
 20
-844.40842569247593
 30
0.0
 11
-50.035893316791089
 21
-844.40842569247593
 31
0.0
  0
ARC
  5
21A
100
AcDbEntity
  8
ARJ70-1003
370
              15
390
0
  6
Continuous
 62
               7
100
AcDbCircle
 10
-50.035893316791089
 20
-839.40842569247593
 30
0.0
 40
5.0
100
AcDbArc
 50
270.0
 51
0.0
  0
LINE
  5
21B
100
AcDbEntity
  8
ARJ70-1003
370
              15
390
0
  6
Continuous
 62
               7
100
AcDbLine
 10
-547.34537099712134
 20
-826.11352212546967
 30
0.0
 11
-547.34537099712134
 21
312.06350267389735
 31
0.0
  0
LINE
  5
21C
100
AcDbEntity
  8
ARJ70-1003
370
              15
390
0
  6
Continuous
 62
               7
100
AcDbLine
 10
-523.97975004957016
 20
-839.40842569247593
 30
0.0
 11
-523.97975004957016
 21
-269.93649732610265
 31
0.0
  0
ARC
  5
21D
100
AcDbEntity
  8
ARJ70-1003
370
              15
390
0
  6
Continuous
 62
               7
100
AcDbCircle
 10
-518.97975004957107
 20
-839.40842569247593
 30
0.0
 40
5.0
100
AcDbArc
 50
180.0
 51
270.0
  0
LINE
  5
21E
100
AcDbEntity
  8
ARJ70-1003
370
              15
390
0
  6
Continuous
 62
               7
100
AcDbLine
 10
-532.82065906320031
 20
-843.24933470610608
 30
0.0
 11
-532.82065906320031
 21
-269.93649732610265
 31
0.0
  0
ARC
  5
21F
100
AcDbEntity
  8
ARJ70-1003
370
              15
390
0
  6
Continuous
 62
               7
100
AcDbCircle
 10
-564.50782168319574
 20
285.04052747328433
 30
0.0
 40
15.0
100
AcDbArc
 50
270.0
 51
0.0
  0
ARC
  5
220
100
AcDbEntity
  8
ARJ70-1003
370
              15
390
0
  6
Continuous
 62
               7
100
AcDbCircle
 10
-564.50782168319574
 20
287.20297815935828
 30
0.0
 40
17.162450686075317
100
AcDbArc
 50
270.0
 51
0.0
  0
LINE
  5
221
100
AcDbEntity
  8
ARJ70-1003
370
              15
390
0
  6
Continuous
 62
               7
100
AcDbLine
 10
-549.507821683163
 20
286.24052747328324
 30
0.0
 11
-549.507821683163
 21
285.04052747328433
 31
0.0
  0
LINE
  5
222
100
AcDbEntity
  8
ARJ70-1003
370
              15
390
0
  6
Continuous
 62
               7
100
AcDbLine
 10
-549.507821683163
 20
312.06350267389735
 30
0.0
 11
-549.50782168319665
 21
286.24052747326732
 31
0.0
  0
ARC
  5
223
100
AcDbEntity
  8
ARJ70-1003
370
              15
390
0
  6
Continuous
 62
               7
100
AcDbCircle
 10
-531.50782168316391
 20
312.06350267389735
 30
0.0
 40
15.837549313924683
100
AcDbArc
 50
90.0
 51
180.0
  0
LINE
  5
224
100
AcDbEntity
  8
ARJ70-1003
370
              15
390
0
  6
Continuous
 62
               7
100
AcDbLine
 10
-45.035893316787451
 20
-269.93649732610993
 30
0.0
 11
-45.035893316791089
 21
299.53543104027131
 31
0.0
  0
LINE
  5
225
100
AcDbEntity
  8
ARJ70-1003
370
              15
390
0
  6
Continuous
 62
               7
100
AcDbLine
 10
-36.194984303157298
 20
-269.93649732610993
 30
0.0
 11
-36.194984303159117
 21
303.376340053901
 31
0.0
  0
LINE
  5
226
100
AcDbEntity
  8
ARJ70-1003
370
              15
390
0
  6
Continuous
 62
               7
100
AcDbLine
 10
-522.8206590631994
 20
313.37634005390237
 30
0.0
 11
-46.194984303159117
 21
313.37634005390237
 31
0.0
  0
ARC
  5
227
100
AcDbEntity
  8
ARJ70-1003
370
              15
390
0
  6
Continuous
 62
               7
100
AcDbCircle
 10
-522.8206590631994
 20
303.376340053901
 30
0.0
 40
10.0
100
AcDbArc
 50
90.0
 51
180.0
  0
ARC
  5
228
100
AcDbEntity
  8
ARJ70-1003
370
              15
390
0
  6
Continuous
 62
               7
100
AcDbCircle
 10
-46.194984303159117
 20
303.376340053901
 30
0.0
 40
10.0
100
AcDbArc
 50
0.0
 51
90.0
  0
LINE
  5
229
100
AcDbEntity
  8
ARJ70-1003
370
              15
390
0
  6
Continuous
 62
               7
100
AcDbLine
 10
-518.97975004957107
 20
304.53543104027131
 30
0.0
 11
-50.035893316791089
 21
304.53543104027131
 31
0.0
  0
ARC
  5
22A
100
AcDbEntity
  8
ARJ70-1003
370
              15
390
0
  6
Continuous
 62
               7
100
AcDbCircle
 10
-50.035893316791089
 20
299.53543104027131
 30
0.0
 40
5.0
100
AcDbArc
 50
0.0
 51
90.0
  0
LINE
  5
22B
100
AcDbEntity
  8
ARJ70-1003
370
              15
390
0
  6
Continuous
 62
               7
100
AcDbLine
 10
-523.97975004957016
 20
299.53543104027131
 30
0.0
 11
-523.97975004957016
 21
-269.93649732610265
 31
0.0
  0
ARC
  5
22C
100
AcDbEntity
  8
ARJ70-1003
370
              15
390
0
  6
Continuous
 62
               7
100
AcDbCircle
 10
-518.97975004957107
 20
299.53543104027131
 30
0.0
 40
5.0
100
AcDbArc
 50
90.0
 51
180.0
  0
LINE
  5
22D
100
AcDbEntity
  8
ARJ70-1003
370
              15
390
0
  6
Continuous
 62
               7
100
AcDbLine
 10
-532.82065906320031
 20
303.376340053901
 30
0.0
 11
-532.82065906320031
 21
-269.93649732610174
 31
0.0
  0
ARC
  5
22E
100
AcDbEntity
  8
ARJ70-1003
370
              15
390
0
  6
Continuous
 62
               7
100
AcDbCircle
 10
-561.10832695394174
 20
-821.51402739622404
 30
0.0
 40
11.600505270740541
100
AcDbArc
 50
0.0
 51
90.000000000076398
  0
ARC
  5
22F
100
AcDbEntity
  8
ARJ70-1003
370
              15
390
0
  6
Continuous
 62
               7
100
AcDbCircle
 10
-561.10832695393992
 20
-823.67647808230299
 30
0.0
 40
13.762955956821315
100
AcDbArc
 50
0.0
 51
90.000000000079467
  0
LINE
  5
230
100
AcDbEntity
  8
ARJ70-1003
370
              15
390
0
  6
Continuous
 62
               7
100
AcDbLine
 10
-399.48307756217287
 20
30.063502673897347
 30
0.0
 11
-104.49192283226739
 21
30.063502673897347
 31
0.0
  0
ARC
  5
231
100
AcDbEntity
  8
ARJ70-1003
370
              15
390
0
  6
Continuous
 62
               7
100
AcDbCircle
 10
-104.49192283226739
 20
20.063502673897347
 30
0.0
 40
9.9999999999999236
100
AcDbArc
 50
0.0009052752069621
 51
90.0
  0
ARC
  5
232
100
AcDbEntity
  8
ARJ70-1003
370
              15
390
0
  6
Continuous
 62
               7
100
AcDbCircle
 10
-399.48307756217287
 20
20.063502673897347
 30
0.0
 40
10.0
100
AcDbArc
 50
90.0
 51
180.0
  0
LINE
  5
233
100
AcDbEntity
  8
ARJ70-1003
370
              15
390
0
  6
Continuous
 62
               7
100
AcDbLine
 10
-569.50782168316209
 20
267.04052747328433
 30
0.0
 11
-569.50782168315936
 21
-269.93649732610265
 31
0.0
  0
LINE
  5
234
100
AcDbEntity
  8
ARJ70-1003
370
              15
390
0
  6
Continuous
 62
               7
100
AcDbLine
 10
-563.98397824771064
 20
270.04052747328433
 30
0.0
 11
-566.50782168315845
 21
270.04052747328433
 31
0.0
  0
ARC
  5
235
100
AcDbEntity
  8
ARJ70-1003
370
              15
390
0
  6
Continuous
 62
               7
100
AcDbCircle
 10
-566.50782168316209
 20
267.04052747328433
 30
0.0
 40
3.0
100
AcDbArc
 50
89.999999999930523
 51
180.0
  0
ARC
  5
236
100
AcDbEntity
  8
ARJ70-1003
370
              15
390
0
  6
Continuous
 62
               7
100
AcDbCircle
 10
-308.46160095068376
 20
-1281.1787666001087
 30
0.0
 40
752.05422018416175
100
AcDbArc
 50
74.263318451605059
 51
89.29530193757094
  0
ARC
  5
237
100
AcDbEntity
  8
ARJ70-1003
370
              15
390
0
  6
Continuous
 62
               7
100
AcDbCircle
 10
-299.31280183937315
 20
-741.88382548187269
 30
0.0
 40
212.70242094499253
100
AcDbArc
 50
89.972871894448446
 51
118.09539162118625
  0
ARC
  5
238
100
AcDbEntity
  8
ARJ70-1003
370
              15
390
0
  6
Continuous
 62
               7
100
AcDbCircle
 10
-308.46160095068376
 20
741.3057719479051
 30
0.0
 40
752.05422018416152
100
AcDbArc
 50
270.70469806242909
 51
285.73668154836821
  0
ARC
  5
239
100
AcDbEntity
  8
ARJ70-1003
370
              15
390
0
  6
Continuous
 62
               7
100
AcDbCircle
 10
-299.31280183937315
 20
202.01083082966625
 30
0.0
 40
212.70242094499281
100
AcDbArc
 50
241.90460837881375
 51
270.02712810552538
  0
LINE
  5
23A
100
AcDbEntity
  8
ARJ70-1003
370
              15
390
0
  6
Continuous
 62
               7
100
AcDbLine
 10
532.62045311058023
 20
720.40184370414784
 30
0.0
 11
532.62045311058023
 21
1230.8973405959648
 31
0.0
  0
LINE
  5
23B
100
AcDbEntity
  8
ARJ70-1003
370
              15
390
0
  6
Continuous
 62
               7
100
AcDbLine
 10
712.46162291884434
 20
963.96380923818765
 30
0.0
 11
712.46162291884434
 21
1026.9638092381877
 31
0.0
  0
LINE
  5
23C
100
AcDbEntity
  8
ARJ70-1003
370
              15
390
0
  6
Continuous
 62
               7
100
AcDbLine
 10
664.4616229825524
 20
770.46232562990474
 30
0.0
 11
607.54493866863641
 21
770.45964856551575
 31
0.0
  0
LINE
  5
23D
100
AcDbEntity
  8
ARJ70-1003
370
              15
390
0
  6
Continuous
 62
               7
100
AcDbLine
 10
667.46162291882933
 20
773.46294391485128
 30
0.0
 11
667.37119794633736
 21
1240.713237142171
 31
0.0
  0
LINE
  5
23E
100
AcDbEntity
  8
ARJ70-1003
370
              15
390
0
  6
Continuous
 62
               7
100
AcDbLine
 10
607.54493866863641
 20
715.2393930180798
 30
0.0
 11
607.54493866863641
 21
1236.0567435605433
 31
0.0
  0
LINE
  5
23F
100
AcDbEntity
  8
ARJ70-1003
370
              15
390
0
  6
Continuous
 62
               7
100
AcDbLine
 10
703.41280904463633
 20
1260.5120843347347
 30
0.0
 11
703.4128090446593
 21
1240.713237142171
 31
0.0
  0
LINE
  5
240
100
AcDbEntity
  8
ARJ70-1003
370
              15
390
0
  6
Continuous
 62
               7
100
AcDbLine
 10
552.38496418744444
 20
1260.5120843351567
 30
0.0
 11
552.38496418744444
 21
1244.0356679654312
 31
0.0
  0
ARC
  5
241
100
AcDbEntity
  8
ARJ70-1003
370
              15
390
0
  6
Continuous
 62
               7
100
AcDbCircle
 10
664.46162298256047
 20
773.46232562990474
 30
0.0
 40
3.0000000000001137
100
AcDbArc
 50
270.0
 51
0.011808372463463
  0
ARC
  5
242
100
AcDbEntity
  8
ARJ70-1003
370
              15
390
0
  6
Continuous
 62
               7
100
AcDbCircle
 10
547.38496418745126
 20
1244.0356679654312
 30
0.0
 40
5.0
100
AcDbArc
 50
270.0
 51
0.0
  0
ARC
  5
243
100
AcDbEntity
  8
ARJ70-1003
370
              15
390
0
  6
Continuous
 62
               7
100
AcDbCircle
 10
504.21533152655843
 20
947.42127218948292
 30
0.0
 40
199.16858358847406
100
AcDbArc
 50
325.04245628769598
 51
3.1920465467722461
  0
LINE
  5
244
100
AcDbEntity
  8
ARJ70-1003
370
              15
390
0
  6
Continuous
 62
               7
100
AcDbLine
 10
667.37001442438941
 20
1240.713237142171
 30
0.0
 11
703.4128090446593
 21
1240.713237142171
 31
0.0
  0
ARC
  5
245
100
AcDbEntity
  8
ARJ70-1003
370
              15
390
0
  6
Continuous
 62
               7
100
AcDbCircle
 10
446.38412766375154
 20
914.48833672085323
 30
0.0
 40
280.24657357723271
100
AcDbArc
 50
23.659543739142432
 51
37.941274684339866
  0
LINE
  5
246
100
AcDbEntity
  8
ARJ70-1003
370
              15
390
0
  6
Continuous
 62
               7
100
AcDbLine
 10
703.07490572788538
 20
1026.9638092381877
 30
0.0
 11
703.07490572787742
 21
958.56800991638295
 31
0.0
  0
ARC
  5
247
100
AcDbEntity
  8
ARJ70-1003
370
              15
390
0
  6
Continuous
 62
               7
100
AcDbCircle
 10
602.54493866863538
 20
715.2393930180798
 30
0.0
 40
4.9999999999998863
100
AcDbArc
 50
270.0
 51
0.0
  0
ARC
  5
248
100
AcDbEntity
  8
ARJ70-1003
370
              15
390
0
  6
Continuous
 62
               7
100
AcDbCircle
 10
540.62045311058046
 20
720.42133130207014
 30
0.0
 40
8.0000000000002274
100
AcDbArc
 50
180.0
 51
270.0
  0
LINE
  5
249
100
AcDbEntity
  8
ARJ70-1003
370
              15
390
0
  6
Continuous
 62
               7
100
AcDbLine
 10
602.54493866862845
 20
710.23939301807991
 30
0.0
 11
540.06240132092034
 21
712.42133130207014
 31
0.0
  0
ARC
  5
24A
100
AcDbEntity
  8
ARJ70-1003
370
              15
390
0
  6
Continuous
 62
               7
100
AcDbCircle
 10
540.62045311058728
 20
1230.8973405959648
 30
0.0
 40
8.0
100
AcDbArc
 50
90.0
 51
180.0
  0
LINE
  5
24B
100
AcDbEntity
  8
ARJ70-1003
370
              15
390
0
  6
Continuous
 62
               7
100
AcDbLine
 10
562.55564611818227
 20
1239.663334414751
 30
0.0
 11
540.06240132092034
 21
1238.8778529980725
 31
0.0
  0
LINE
  5
24C
100
AcDbEntity
  8
ARJ70-1003
370
              15
390
0
  6
Continuous
 62
               7
100
AcDbLine
 10
602.37044118511835
 20
1241.0536976956453
 30
0.0
 11
562.55564611818227
 21
1239.663334414751
 31
0.0
  0
ARC
  5
24D
100
AcDbEntity
  8
ARJ70-1003
370
              15
390
0
  6
Continuous
 62
               7
100
AcDbCircle
 10
602.54493866863527
 20
1236.0567435605433
 30
0.0
 40
5.0
100
AcDbArc
 50
0.0
 51
91.999999999792536
  0
ARC
  5
24E
100
AcDbEntity
  8
ARJ70-1003
370
              15
390
0
  6
STYLE_13
 62
               7
100
AcDbCircle
 10
550.2678841012214
 20
943.57333429950597
 30
0.0
 40
156.97892759554878
100
AcDbArc
 50
35.741730159468204
 51
91.757897432943906
  0
ARC
  5
24F
100
AcDbEntity
  8
ARJ70-1003
370
              15
390
0
  6
STYLE_13
 62
               7
100
AcDbCircle
 10
688.12143319756285
 20
1038.981307182532
 30
0.0
 40
11.080383836743442
100
AcDbArc
 50
199.57005569857941
 51
229.80389785988373
  0
ARC
  5
250
100
AcDbEntity
  8
ARJ70-1003
370
              15
390
0
  6
STYLE_13
 62
               7
100
AcDbCircle
 10
688.07136443996774
 20
952.03710713838484
 30
0.0
 40
11.080383836743559
100
AcDbArc
 50
130.19610214011587
 51
160.42994430142082
  0
ARC
  5
251
100
AcDbEntity
  8
ARJ70-1003
370
              15
390
0
  6
STYLE_13
 62
               7
100
AcDbCircle
 10
502.67475303623974
 20
953.35299921410808
 30
0.0
 40
174.97271205322429
100
AcDbArc
 50
284.27966885471824
 51
0.7844717683175873
  0
LINE
  5
252
100
AcDbEntity
  8
ARJ70-1003
370
              15
390
0
  6
STYLE_13
 62
               7
100
AcDbLine
 10
693.14740449486499
 20
1017.3938584871522
 30
0.0
 11
712.46162291884434
 21
1017.3674270401422
 31
0.0
  0
LINE
  5
253
100
AcDbEntity
  8
ARJ70-1003
370
              15
390
0
  6
STYLE_13
 62
               7
100
AcDbLine
 10
680.89215805221693
 20
1030.2909541038989
 30
0.0
 11
693.03749603848905
 21
1017.3674270401422
 31
0.0
  0
LINE
  5
254
100
AcDbEntity
  8
ARJ70-1003
370
              15
390
0
  6
STYLE_13
 62
               7
100
AcDbLine
 10
693.14740449486499
 20
973.28511574799234
 30
0.0
 11
712.46162291884434
 21
973.3115471950033
 31
0.0
  0
LINE
  5
255
100
AcDbEntity
  8
ARJ70-1003
370
              15
390
0
  6
STYLE_13
 62
               7
100
AcDbLine
 10
680.89215805221693
 20
960.38802013124507
 30
0.0
 11
693.03749603848905
 21
973.3115471950033
 31
0.0
  0
LINE
  5
256
100
AcDbEntity
  8
ARJ70-1003
370
              15
390
0
  6
Continuous
 62
               7
100
AcDbLine
 10
710.0
 20
-300.89027180752009
 30
0.0
 11
710.0
 21
-238.83439196238214
 31
0.0
  0
LINE
  5
257
100
AcDbEntity
  8
ARJ70-1003
370
              15
390
0
  6
STYLE_03
 62
               7
100
AcDbLine
 10
605.01336707155008
 20
-720.0
 30
0.0
 11
605.01336707155008
 21
180.0
 31
0.0
  0
LINE
  5
258
100
AcDbEntity
  8
ARJ70-1003
370
              15
390
0
  6
STYLE_13
 62
               7
100
AcDbLine
 10
625.01336707165251
 20
-670.0
 30
0.0
 11
585.01336707165251
 21
-670.0
 31
0.0
  0
LINE
  5
259
100
AcDbEntity
  8
ARJ70-1003
370
              15
390
0
  6
STYLE_13
 62
               7
100
AcDbLine
 10
625.01336707165251
 20
-410.0
 30
0.0
 11
585.01336707165251
 21
-410.0
 31
0.0
  0
LINE
  5
25A
100
AcDbEntity
  8
ARJ70-1003
370
              15
390
0
  6
STYLE_13
 62
               7
100
AcDbLine
 10
625.01336707165251
 20
-130.0
 30
0.0
 11
585.01336707165251
 21
-130.0
 31
0.0
  0
LINE
  5
25B
100
AcDbEntity
  8
ARJ70-1003
370
              15
390
0
  6
STYLE_13
 62
               7
100
AcDbLine
 10
625.01336707165251
 20
130.0
 30
0.0
 11
585.01336707165251
 21
130.0
 31
0.0
  0
LINE
  5
25C
100
AcDbEntity
  8
ARJ70-1003
370
              15
390
0
  6
Continuous
 62
               7
100
AcDbLine
 10
552.38496418744444
 20
1260.5120843351567
 30
0.0
 11
703.41280904463633
 21
1260.5120843347347
 31
0.0
  0
LINE
  5
25D
100
AcDbEntity
  8
ARJ70-1003
370
              15
390
0
  6
Continuous
 62
               7
100
AcDbLine
 10
530.0776923665228
 20
-833.50982942732753
 30
0.0
 11
530.00217792458375
 21
-493.67228011339557
 31
0.0
  0
LINE
  5
25E
100
AcDbEntity
  8
ARJ70-1003
370
              15
390
0
  6
STYLE_13
 62
               7
100
AcDbLine
 10
533.38018848948082
 20
-853.98852696768245
 30
0.0
 11
537.9087028132808
 21
-850.77319908797745
 31
0.0
  0
LINE
  5
25F
100
AcDbEntity
  8
ARJ70-1003
370
              15
390
0
  6
STYLE_13
 62
               7
100
AcDbLine
 10
674.81729465516776
 20
-529.61515866650029
 30
0.0
 11
678.50217792456181
 21
-313.82298812480053
 31
0.0
  0
LINE
  5
260
100
AcDbEntity
  8
ARJ70-1003
370
              15
390
0
  6
STYLE_01
 62
               7
100
AcDbLine
 10
690.64751591083393
 20
-295.0000000000075
 30
0.0
 11
700.79620304183993
 21
-294.9999999999925
 31
0.0
  0
LINE
  5
261
100
AcDbEntity
  8
ARJ70-1003
370
              15
390
0
  6
STYLE_01
 62
               7
100
AcDbLine
 10
678.50217792456181
 20
-307.00621358942476
 30
0.0
 11
690.64751591083393
 21
-294.0826865256679
 31
0.0
  0
ARC
  5
262
100
AcDbEntity
  8
ARJ70-1003
370
              15
390
0
  6
STYLE_13
 62
               7
100
AcDbCircle
 10
538.01404371270087
 20
-860.50982942732753
 30
0.0
 40
8.0000000000000817
100
AcDbArc
 50
125.35435825079144
 51
180.0
  0
LINE
  5
263
100
AcDbEntity
  8
ARJ70-1003
370
              15
390
0
  6
STYLE_13
 62
               7
100
AcDbLine
 10
543.4497137867919
 20
-565.2104973921721
 30
0.0
 11
671.77538575515575
 21
-534.10246926049126
 31
0.0
  0
ARC
  5
264
100
AcDbEntity
  8
ARJ70-1003
370
              15
390
0
  6
STYLE_01
 62
               7
100
AcDbCircle
 10
545.40650784787078
 20
-569.81168821657025
 30
0.0
 40
4.9999999999999263
100
AcDbArc
 50
113.03907511982487
 51
180.02392817523418
  0
ARC
  5
265
100
AcDbEntity
  8
ARJ70-1003
370
              15
390
0
  6
STYLE_13
 62
               7
100
AcDbCircle
 10
669.81859169408392
 20
-529.50127843608129
 30
0.0
 40
4.9999999999999263
100
AcDbArc
 50
293.03907511982493
 51
358.69491583378215
  0
LINE
  5
266
100
AcDbEntity
  8
ARJ70-1003
370
              15
390
0
  6
STYLE_13
 62
               7
100
AcDbLine
 10
540.08719668549224
 20
304.53543104027131
 30
0.0
 11
540.05569693294501
 21
229.10958711800527
 31
0.0
  0
LINE
  5
267
100
AcDbEntity
  8
ARJ70-1003
370
              15
390
0
  6
STYLE_13
 62
               7
100
AcDbLine
 10
674.81729465516776
 20
-10.212738975083312
 30
0.0
 11
678.50217792456181
 21
-225.92005415214749
 31
0.0
  0
LINE
  5
268
100
AcDbEntity
  8
ARJ70-1003
370
              15
390
0
  6
STYLE_01
 62
               7
100
AcDbLine
 10
690.74924161018953
 20
-243.0
 30
0.0
 11
700.79620304183993
 21
-243.00000000001501
 31
0.0
  0
LINE
  5
269
100
AcDbEntity
  8
ARJ70-1003
370
              15
390
0
  6
STYLE_01
 62
               7
100
AcDbLine
 10
678.50217792456181
 20
-232.2499162207107
 30
0.0
 11
690.64751591083393
 21
-245.17344328446893
 31
0.0
  0
LINE
  5
26A
100
AcDbEntity
  8
ARJ70-1003
370
              15
390
0
  6
STYLE_13
 62
               7
100
AcDbLine
 10
540.0599647642789
 20
239.3288667528002
 30
0.0
 11
539.60613485568979
 21
-847.36233188495112
 31
0.0
  0
LINE
  5
26B
100
AcDbEntity
  8
ARJ70-1003
370
              15
390
0
  6
STYLE_13
 62
               7
100
AcDbLine
 10
543.4497137867919
 20
25.382599750605095
 30
0.0
 11
671.77538575515575
 21
-5.725428381091433
 31
0.0
  0
ARC
  5
26C
100
AcDbEntity
  8
ARJ70-1003
370
              15
390
0
  6
STYLE_13
 62
               7
100
AcDbCircle
 10
545.40650784787078
 20
29.983790575003468
 30
0.0
 40
4.9999999999999556
100
AcDbArc
 50
179.97607182476582
 51
246.96092488017615
  0
ARC
  5
26D
100
AcDbEntity
  8
ARJ70-1003
370
              15
390
0
  6
STYLE_13
 62
               7
100
AcDbCircle
 10
669.81859169408392
 20
-10.326619205488214
 30
0.0
 40
4.9999999999999147
100
AcDbArc
 50
1.3050841662179062
 51
66.960924880175142
  0
LINE
  5
26E
100
AcDbEntity
  8
ARJ70-1003
370
              15
390
0
  6
STYLE_13
 62
               7
100
AcDbLine
 10
533.35457735848627
 20
313.35596795503375
 30
0.0
 11
536.62795419198915
 21
311.03181061755072
 31
0.0
  0
ARC
  5
26F
100
AcDbEntity
  8
ARJ70-1003
370
              15
390
0
  6
STYLE_01
 62
               7
100
AcDbCircle
 10
537.98363062877115
 20
319.8806798889666
 30
0.0
 40
7.9999999999997726
100
AcDbArc
 50
180.0
 51
234.6456417493892
  0
ARC
  5
270
100
AcDbEntity
  8
ARJ70-1003
370
              15
390
0
  6
STYLE_13
 62
               7
100
AcDbCircle
 10
531.99649963106117
 20
304.5088029791907
 30
0.0
 40
8.0000000000002274
100
AcDbArc
 50
0.0
 51
54.624552421616677
  0
LINE
  5
271
100
AcDbEntity
  8
ARJ70-1003
370
              15
390
0
  6
Continuous
 62
               7
100
AcDbLine
 10
700.79620304183993
 20
-300.89946106102866
 30
0.0
 11
709.98548441110177
 21
-300.89946106102866
 31
0.0
  0
ARC
  5
272
100
AcDbEntity
  8
ARJ70-1003
370
              15
390
0
  6
STYLE_13
 62
               7
100
AcDbCircle
 10
536.08497013076703
 20
-847.73781043651047
 30
0.0
 40
3.5411276682327264
100
AcDbArc
 50
300.99843527190052
 51
6.0867205355027636
  0
LINE
  5
273
100
AcDbEntity
  8
ARJ70-1003
370
              15
390
0
  6
Continuous
 62
               7
100
AcDbLine
 10
700.79620304183993
 20
-238.84358121592072
 30
0.0
 11
710.0
 21
-238.83439196238214
 31
0.0
  0
ARC
  5
274
100
AcDbEntity
  8
ARJ70-1003
370
              15
390
0
  6
Continuous
 62
               7
100
AcDbCircle
 10
695.8052935985769
 20
28.421227762654098
 30
0.0
 40
5.0
100
AcDbArc
 50
0.0
 51
74.481505887613309
  0
LINE
  5
275
100
AcDbEntity
  8
ARJ70-1003
370
              15
390
0
  6
Continuous
 62
               7
100
AcDbLine
 10
665.04883872338712
 20
42.150615589682502
 30
0.0
 11
697.14304062771623
 21
33.238948477486929
 31
0.0
  0
INSERT
  5
276
100
AcDbEntity
  8
ARJ70-1003
390
0
 62
               7
100
AcDbBlockReference
  2
グループ-1
 10
1566.0398742201346
 20
1156.714847477228
 30
0.0
  0
CIRCLE
  5
277
100
AcDbEntity
  8
ARJ70-1003
370
              15
390
0
  6
STYLE_13
 62
               7
100
AcDbCircle
 10
605.01336707165251
 20
130.0
 30
0.0
 40
10.0
  0
CIRCLE
  5
278
100
AcDbEntity
  8
ARJ70-1003
370
              15
390
0
  6
STYLE_13
 62
               7
100
AcDbCircle
 10
605.01336707165251
 20
-130.0
 30
0.0
 40
10.0
  0
CIRCLE
  5
279
100
AcDbEntity
  8
ARJ70-1003
370
              15
390
0
  6
STYLE_13
 62
               7
100
AcDbCircle
 10
605.01336707165251
 20
-410.0
 30
0.0
 40
10.0
  0
CIRCLE
  5
27A
100
AcDbEntity
  8
ARJ70-1003
370
              15
390
0
  6
STYLE_13
 62
               7
100
AcDbCircle
 10
605.01336707165251
 20
-670.0
 30
0.0
 40
10.0
  0
LINE
  5
27B
100
AcDbEntity
  8
ARJ70-1003
370
              15
390
0
  6
STYLE_13
 62
               7
100
AcDbLine
 10
542.63369548842229
 20
735.94169330134969
 30
0.0
 11
542.62046392265449
 21
1215.1338953813909
 31
0.0
  0
LINE
  5
27C
100
AcDbEntity
  8
ARJ70-1003
370
              15
390
0
  6
STYLE_13
 62
               7
100
AcDbLine
 10
535.99139984029512
 20
1224.372628662032
 30
0.0
 11
539.26477667379822
 21
1222.0484713245489
 31
0.0
  0
ARC
  5
27D
100
AcDbEntity
  8
ARJ70-1003
370
              15
390
0
  6
STYLE_01
 62
               7
100
AcDbCircle
 10
540.62045311058023
 20
1230.8973405959648
 30
0.0
 40
8.0
100
AcDbArc
 50
180.0
 51
234.64564174938747
  0
ARC
  5
27E
100
AcDbEntity
  8
ARJ70-1003
370
              15
390
0
  6
STYLE_13
 62
               7
100
AcDbCircle
 10
534.63332211287025
 20
1215.5254636861889
 30
0.0
 40
8.0
100
AcDbArc
 50
0.0
 51
54.624552421618439
  0
LINE
  5
27F
100
AcDbEntity
  8
ARJ70-1003
370
              15
390
0
  6
STYLE_13
 62
               7
100
AcDbLine
 10
535.99177946781651
 20
726.86810803071285
 30
0.0
 11
539.26515630131962
 21
729.19226536819588
 31
0.0
  0
ARC
  5
280
100
AcDbEntity
  8
ARJ70-1003
370
              15
390
0
  6
STYLE_01
 62
               7
100
AcDbCircle
 10
540.62083273810163
 20
720.34339609678
 30
0.0
 40
8.000000000000016
100
AcDbArc
 50
125.35435825061209
 51
180.0
  0
ARC
  5
281
100
AcDbEntity
  8
ARJ70-1003
370
              15
390
0
  6
STYLE_13
 62
               7
100
AcDbCircle
 10
534.63370174039164
 20
735.71527300655589
 30
0.0
 40
8.0
100
AcDbArc
 50
305.37544757838202
 51
0.0
  0
ARC
  5
282
100
AcDbEntity
  8
ARJ70-1003
370
              15
390
0
  6
Continuous
 62
               7
100
AcDbCircle
 10
545.62379858773841
 20
1103.3072037234524
 30
0.0
 40
3.0002468795001396
100
AcDbArc
 50
180.00158206429876
 51
266.8220551425174
  0
ARC
  5
283
100
AcDbEntity
  8
ARJ70-1003
370
              15
390
0
  6
Continuous
 62
               7
100
AcDbCircle
 10
545.63260992009054
 20
780.61919733186039
 30
0.0
 40
3.0002572330336346
100
AcDbArc
 50
108.49989711855797
 51
180.00158206429734
  0
INSERT
  5
284
100
AcDbEntity
  8
ARJ70-1003
390
0
 62
               7
100
AcDbBlockReference
  2
グループ-2
 10
1566.0398742201346
 20
1156.714847477228
 30
0.0
  0
DIMENSION
  5
285
100
AcDbEntity
  8
ARJ70-1003
370
               5
390
0
  6
Continuous
 62
               7
100
AcDbDimension
  2
*D25
 10
-459.50782168316255
 20
-93.125
 30
0.0
 11
-602.0
 21
-88.125
 31
0.0
 70
             128
 71
               5
 72
               1
 41
1.0
 42
0.0
  3
tform線あり
100
AcDbAlignedDimension
 13
-569.50782168316209
 23
-169.93649732610265
 33
0.0
 14
-459.50782168316255
 24
-169.93649732610265
 34
0.0
100
AcDbRotatedDimension
1001
ACAD
1000
DSTYLE
1002
{
1070
             279
1070
               2
1070
             340
1005
3F
1070
             174
1070
               0
1070
             147
1040
5.0
1002
}
  0
INSERT
  5
286
100
AcDbEntity
  8
ARJ70-1003
390
0
 62
               7
100
AcDbBlockReference
  2
グループ-3
 10
1566.0398742201346
 20
1156.714847477228
 30
0.0
  0
DIMENSION
  5
287
100
AcDbEntity
  8
ARJ70-1003
370
               5
390
0
  6
Continuous
 62
               7
100
AcDbDimension
  2
*D27
 10
462.0
 20
1160.5
 30
0.0
 11
462.0
 21
1210.5
 31
0.0
 71
               5
 72
               1
 41
1.0
 42
0.0
  3
tform線あり
100
AcDbAlignedDimension
 13
556.0
 23
1260.5
 33
0.0
 14
556.0
 24
1160.5
 34
0.0
 50
90.0
100
AcDbRotatedDimension
1001
ACAD
1000
DSTYLE
1002
{
1070
             279
1070
               2
1070
             340
1005
3F
1070
             147
1040
5.0
1002
}
  0
DIMENSION
  5
288
100
AcDbEntity
  8
ARJ70-1003
370
               5
390
0
  6
Continuous
 62
               7
100
AcDbDimension
  2
*D28
 10
677.63106512466129
 20
982.34722222222217
 30
0.0
 11
506.0
 21
987.34722222222217
 31
0.0
 70
             128
 71
               5
 72
               1
 41
1.0
 42
0.0
  3
tform線あり
100
AcDbAlignedDimension
 13
532.63106512466129
 23
955.74858341830088
 33
0.0
 14
677.63106512466129
 24
955.74858341830088
 34
0.0
100
AcDbRotatedDimension
1001
ACAD
1000
DSTYLE
1002
{
1070
             279
1070
               2
1070
             340
1005
3F
1070
             174
1070
               0
1070
             147
1040
5.0
1002
}
  0
POLYLINE
  5
289
100
AcDbEntity
  8
ARJ70-1003
370
               5
390
0
  6
Continuous
 62
               7
100
AcDb2dPolyline
 66
               1
 10
0.0
 20
0.0
 30
0.0
 70
               1
 75
               5
  0
VERTEX
  5
28A
100
AcDbEntity
  8
ARJ70-1003
370
               5
390
0
  6
Continuous
 62
               7
100
AcDbVertex
100
AcDb2dVertex
 10
736.61328280904104
 20
-238.36233188495112
 30
0.0
  0
VERTEX
  5
28B
100
AcDbEntity
  8
ARJ70-1003
370
               5
390
0
  6
Continuous
 62
               7
100
AcDbVertex
100
AcDb2dVertex
 10
746.0
 20
-238.36233188495112
 30
0.0
  0
VERTEX
  5
28C
100
AcDbEntity
  8
ARJ70-1003
370
               5
390
0
  6
Continuous
 62
               7
100
AcDbVertex
100
AcDb2dVertex
 10
746.0
 20
-301.36233188495112
 30
0.0
  0
VERTEX
  5
28D
100
AcDbEntity
  8
ARJ70-1003
370
               5
390
0
  6
Continuous
 62
               7
100
AcDbVertex
100
AcDb2dVertex
 10
736.61328280904104
 20
-301.36233188495112
 30
0.0
  0
SEQEND
  5
28E
100
AcDbEntity
  8
ARJ70-1003
370
               5
390
0
  6
Continuous
 62
               7
  0
LINE
  5
28F
100
AcDbEntity
  8
ARJ70-1003
370
               5
390
0
  6
STYLE_03
 62
               7
100
AcDbLine
 10
677.63106512466129
 20
955.74858341830088
 30
0.0
 11
677.68113388225652
 21
1035.2698309026159
 31
0.0
  0
DIMENSION
  5
290
100
AcDbEntity
  8
ARJ70-1003
370
               5
390
0
  6
Continuous
 62
               7
100
AcDbDimension
  2
*D29
 10
542.6233945162885
 20
1106.875
 30
0.0
 11
487.0
 21
1111.875
 31
0.0
 70
             128
 71
               5
 72
               1
 41
1.0
 42
0.0
  3
tform線あり
100
AcDbAlignedDimension
 13
532.62045311058023
 23
1108.9997237964715
 33
0.0
 14
542.6233945162885
 24
1109.0
 34
0.0
100
AcDbRotatedDimension
1001
ACAD
1000
DSTYLE
1002
{
1070
             279
1070
               2
1070
             340
1005
3F
1070
             174
1070
               0
1070
             147
1040
5.0
1002
}
  0
ENDSEC
  0
SECTION
  2
OBJECTS
  0
DICTIONARY
  5
19
100
AcDbDictionary
280
               0
281
               1
  3
ACAD_GROUP
350
1A
  3
ACAD_MLINESTYLE
350
1B
  3
ACAD_LAYOUT
350
1E
  3
ACAD_PLOTSETTINGS
350
22
  3
ACAD_PLOTSTYLENAME
350
1F
  0
DICTIONARY
  5
1A
102
{ACAD_REACTORS
330
19
102
}
100
AcDbDictionary
280
               0
281
               1
  0
DICTIONARY
  5
1B
102
{ACAD_REACTORS
330
19
102
}
100
AcDbDictionary
280
               0
281
               1
  3
Standard
350
1C
  0
MLINESTYLE
  5
1C
102
{ACAD_REACTORS
330
1B
102
}
100
AcDbMlineStyle
  2
Standard
 70
               0
  3

 62
               0
 51
90.0
 52
90.0
 71
               2
 49
0.5
 62
             256
  6
ByLayer
 49
-0.5
 62
             256
  6
ByLayer
  0
ACDBDICTIONARYWDFLT
  5
1F
102
{ACAD_REACTORS
330
19
102
}
100
AcDbDictionary
281
               1
  3
Normal
350
1D
100
AcDbDictionaryWithDefault
340
1D
  0
ACDBPLACEHOLDER
  5
1D
102
{ACAD_REACTORS
330
1F
102
}
  0
LAYOUT
  5
20
102
{ACAD_REACTORS
330
1E
102
}
100
AcDbPlotSettings
  1

  2

  4

  6

 40
0.0
 41
0.0
 42
0.0
 43
0.0
 44
0.0
 45
0.0
 46
0.0
 47
0.0
 48
0.0
 49
0.0
140
0.0
141
0.0
142
1.0
143
1.0
 70
            1024
 72
               0
 73
               0
 74
               0
  7

 75
               0
147
1.0
148
0.0
149
0.0
100
AcDbLayout
  1
Model
 70
               0
 71
               0
 10
0.0
 20
0.0
 11
0.0
 21
0.0
 12
0.0
 22
0.0
 32
0.0
 14
0.0
 24
0.0
 34
0.0
 15
0.0
 25
0.0
 35
0.0
146
0.0
 13
0.0
 23
0.0
 33
0.0
 16
0.0
 26
0.0
 36
0.0
 17
0.0
 27
0.0
 37
0.0
 76
               0
330
A
331
0
345
0
346
0
  0
LAYOUT
  5
21
102
{ACAD_REACTORS
330
1E
102
}
100
AcDbPlotSettings
  1

  2

  4

  6

 40
0.0
 41
0.0
 42
0.0
 43
0.0
 44
0.0
 45
0.0
 46
0.0
 47
0.0
 48
0.0
 49
0.0
140
0.0
141
0.0
142
1.0
143
1.0
 70
               0
 72
               0
 73
               0
 74
               0
  7

 75
               0
147
1.0
148
0.0
149
0.0
100
AcDbLayout
  1
Layout1
 70
               0
 71
               0
 10
0.0
 20
0.0
 11
0.0
 21
0.0
 12
0.0
 22
0.0
 32
0.0
 14
0.0
 24
0.0
 34
0.0
 15
0.0
 25
0.0
 35
0.0
146
0.0
 13
0.0
 23
0.0
 33
0.0
 16
0.0
 26
0.0
 36
0.0
 17
0.0
 27
0.0
 37
0.0
 76
               0
330
B
331
0
345
0
346
0
  0
DICTIONARY
  5
1E
102
{ACAD_REACTORS
330
19
102
}
100
AcDbDictionary
280
               0
281
               1
  3
Layout1
350
21
  3
Model
350
20
  0
DICTIONARY
  5
22
102
{ACAD_REACTORS
330
19
102
}
100
AcDbDictionary
280
               0
281
               1
  0
ENDSEC
  0
EOF
