  0
SECTION
  2
HEADER
  9
$ACADVER
  1
AC1015
  9
$ACADMAINTVER
 70
               6
  9
$DWGCODEPAGE
  3
ANSI_932
  9
$INSBASE
 10
0.0
 20
0.0
 30
0.0
  9
$EXTMIN
 10
-1050.0
 20
-1485.0
 30
-14.834305555555547
  9
$EXTMAX
 10
1050.0
 20
1485.0
 30
14.834305555555547
  9
$LIMMIN
 10
0.0
 20
0.0
  9
$LIMMAX
 10
0.0
 20
0.0
  9
$ORTHOMODE
 70
               0
  9
$REGENMODE
 70
               1
  9
$FILLMODE
 70
               1
  9
$QTEXTMODE
 70
               0
  9
$MIRRTEXT
 70
               1
  9
$LTSCALE
 40
5.0800000000000001
  9
$ATTMODE
 70
               1
  9
$TEXTSIZE
 40
0.2
  9
$TRACEWID
 40
1.0
  9
$TEXTSTYLE
  7
Standard
  9
$CLAYER
  8
notes
  9
$CELTYPE
  6
Continuous
  9
$CECOLOR
 62
             256
  9
$CELTSCALE
 40
1.0
  9
$DISPSILH
 70
               0
  9
$DIMSCALE
 40
1.0
  9
$DIMASZ
 40
31.75
  9
$DIMEXO
 40
0.0
  9
$DIMDLI
 40
6.9999999999999396
  9
$DIMRND
 40
0.0
  9
$DIMDLE
 40
0.0
  9
$DIMEXE
 40
19.999999999996199
  9
$DIMTP
 40
0.0
  9
$DIMTM
 40
0.0
  9
$DIMTXT
 40
24.432617187500004
  9
$DIMCEN
 40
0.0
  9
$DIMTSZ
 40
0.0
  9
$DIMTOL
 70
               0
  9
$DIMLIM
 70
               0
  9
$DIMTIH
 70
               0
  9
$DIMTOH
 70
               0
  9
$DIMSE1
 70
               0
  9
$DIMSE2
 70
               0
  9
$DIMTAD
 70
               1
  9
$DIMZIN
 70
              11
  9
$DIMBLK
  1
VW_FILLEDARROW
  9
$DIMASO
 70
               1
  9
$DIMSHO
 70
               1
  9
$DIMPOST
  1
<>
  9
$DIMAPOST
  1
[]
  9
$DIMALT
 70
               0
  9
$DIMALTD
 70
               1
  9
$DIMALTF
 40
1.0
  9
$DIMLFAC
 40
1.0
  9
$DIMTOFL
 70
               0
  9
$DIMTVP
 40
0.0
  9
$DIMTIX
 70
               1
  9
$DIMSOXD
 70
               0
  9
$DIMSAH
 70
               0
  9
$DIMBLK1
  1

  9
$DIMBLK2
  1

  9
$DIMSTYLE
  2
JIS
  9
$DIMCLRD
 70
               0
  9
$DIMCLRE
 70
               0
  9
$DIMCLRT
 70
               0
  9
$DIMTFAC
 40
1.0
  9
$DIMGAP
 40
1.00000000000108
  9
$DIMJUST
 70
               0
  9
$DIMSD1
 70
               0
  9
$DIMSD2
 70
               0
  9
$DIMTOLJ
 70
               1
  9
$DIMTZIN
 70
              11
  9
$DIMALTZ
 70
              11
  9
$DIMALTTZ
 70
              11
  9
$DIMUPT
 70
               0
  9
$DIMDEC
 70
               1
  9
$DIMTDEC
 70
               1
  9
$DIMALTU
 70
               2
  9
$DIMALTTD
 70
               2
  9
$DIMTXSTY
  7
ＭＳ ゴシック
  9
$DIMAUNIT
 70
               0
  9
$DIMADEC
 70
               2
  9
$DIMALTRND
 40
0.0
  9
$DIMAZIN
 70
               0
  9
$DIMDSEP
 70
              46
  9
$DIMATFIT
 70
               0
  9
$DIMFRAC
 70
               2
  9
$DIMLDRBLK
  1

  9
$DIMLUNIT
 70
               2
  9
$DIMLWD
 70
              -2
  9
$DIMLWE
 70
              -2
  9
$DIMTMOVE
 70
               0
  9
$LUNITS
 70
               2
  9
$LUPREC
 70
               4
  9
$SKETCHINC
 40
0.1
  9
$FILLETRAD
 40
0.0
  9
$AUNITS
 70
               0
  9
$AUPREC
 70
               0
  9
$MENU
  1
acad
  9
$ELEVATION
 40
0.0
  9
$PELEVATION
 40
0.0
  9
$THICKNESS
 40
0.0
  9
$LIMCHECK
 70
               0
  9
$CHAMFERA
 40
0.0
  9
$CHAMFERB
 40
0.0
  9
$CHAMFERC
 40
0.0
  9
$CHAMFERD
 40
0.0
  9
$SKPOLY
 70
               0
  9
$TDCREATE
 40
2455622.709293982
  9
$TDUCREATE
 40
0.000000000
  9
$TDUPDATE
 40
2455622.709293982
  9
$TDUUPDATE
 40
0.000000000
  9
$TDINDWG
 40
0.0000000000
  9
$TDUSRTIMER
 40
0.0000000000
  9
$USRTIMER
 70
               1
  9
$ANGBASE
 50
0.0
  9
$ANGDIR
 70
               0
  9
$PDMODE
 70
               1
  9
$PDSIZE
 40
-2.0
  9
$PLINEWID
 40
0.0
  9
$SPLFRAME
 70
               0
  9
$SPLINETYPE
 70
               6
  9
$SPLINESEGS
 70
               8
  9
$HANDSEED
  5
1CD
  9
$SURFTAB1
 70
               6
  9
$SURFTAB2
 70
               6
  9
$SURFTYPE
 70
               6
  9
$SURFU
 70
               6
  9
$SURFV
 70
               6
  9
$UCSBASE
  2

  9
$UCSNAME
  2

  9
$UCSORG
 10
0.0
 20
0.0
 30
0.0
  9
$UCSXDIR
 10
1.0
 20
0.0
 30
0.0
  9
$UCSYDIR
 10
0.0
 20
1.0
 30
0.0
  9
$UCSORTHOREF
  2

  9
$UCSORTHOVIEW
 70
               0
  9
$UCSORGTOP
 10
0.0
 20
0.0
 30
0.0
  9
$UCSORGBOTTOM
 10
0.0
 20
0.0
 30
0.0
  9
$UCSORGLEFT
 10
0.0
 20
0.0
 30
0.0
  9
$UCSORGRIGHT
 10
0.0
 20
0.0
 30
0.0
  9
$UCSORGFRONT
 10
0.0
 20
0.0
 30
0.0
  9
$UCSORGBACK
 10
0.0
 20
0.0
 30
0.0
  9
$PUCSBASE
  2

  9
$PUCSNAME
  2

  9
$PUCSORG
 10
0.0
 20
0.0
 30
0.0
  9
$PUCSXDIR
 10
1.0
 20
0.0
 30
0.0
  9
$PUCSYDIR
 10
0.0
 20
1.0
 30
0.0
  9
$PUCSORTHOREF
  2

  9
$PUCSORTHOVIEW
 70
               0
  9
$PUCSORGTOP
 10
0.0
 20
0.0
 30
0.0
  9
$PUCSORGBOTTOM
 10
0.0
 20
0.0
 30
0.0
  9
$PUCSORGLEFT
 10
0.0
 20
0.0
 30
0.0
  9
$PUCSORGRIGHT
 10
0.0
 20
0.0
 30
0.0
  9
$PUCSORGFRONT
 10
0.0
 20
0.0
 30
0.0
  9
$PUCSORGBACK
 10
0.0
 20
0.0
 30
0.0
  9
$USERI1
 70
               0
  9
$USERI2
 70
               0
  9
$USERI3
 70
               0
  9
$USERI4
 70
               0
  9
$USERI5
 70
               0
  9
$USERR1
 40
0.0
  9
$USERR2
 40
0.0
  9
$USERR3
 40
0.0
  9
$USERR4
 40
0.0
  9
$USERR5
 40
0.0
  9
$WORLDVIEW
 70
               1
  9
$SHADEDGE
 70
               3
  9
$SHADEDIF
 70
              70
  9
$TILEMODE
 70
               1
  9
$MAXACTVP
 70
              64
  9
$PINSBASE
 10
0.0
 20
0.0
 30
0.0
  9
$PLIMCHECK
 70
               0
  9
$PEXTMIN
 10
1.0000000000000000E+20
 20
1.0000000000000000E+20
 30
1.0000000000000000E+20
  9
$PEXTMAX
 10
-1.0000000000000000E+20
 20
-1.0000000000000000E+20
 30
-1.0000000000000000E+20
  9
$PLIMMIN
 10
0.0
 20
0.0
  9
$PLIMMAX
 10
12.0
 20
9.0
  9
$UNITMODE
 70
               0
  9
$VISRETAIN
 70
               0
  9
$PLINEGEN
 70
               1
  9
$PSLTSCALE
 70
               0
  9
$TREEDEPTH
 70
            3020
  9
$CMLSTYLE
  2
Standard
  9
$CMLJUST
 70
               0
  9
$CMLSCALE
 40
1.0
  9
$PROXYGRAPHICS
 70
               0
  9
$MEASUREMENT
 70
               1
  9
$CELWEIGHT
370
               0
  9
$ENDCAPS
280
               0
  9
$JOINSTYLE
280
               0
  9
$LWDISPLAY
290
               1
  9
$INSUNITS
 70
               4
  9
$HYPERLINKBASE
  1

  9
$STYLESHEET
  1

  9
$XEDIT
290
               1
  9
$CEPSNTYPE
380
               0
  9
$PSTYLEMODE
290
               1
  9
$FINGERPRINTGUID
  2

  9
$VERSIONGUID
  2

  9
$EXTNAMES
290
               1
  9
$PSVPSCALE
 40
0.0
  0
ENDSEC
  0
SECTION
  2
CLASSES
  0
CLASS
  1
LWPOLYLINE
  2
AcDbPolyline
  3
AutoCAD 2000
 90
        0
280
               0
281
               1
  0
CLASS
  1
IMAGE
  2
AcDbRasterImage
  3
ISM
 90
      127
280
               0
281
               1
  0
CLASS
  1
OLE2FRAME
  2
AcDbOle2Frame
  3
AutoCAD 2000
 90
        0
280
               0
281
               1
  0
CLASS
  1
HATCH
  2
AcDbHatch
  3
AutoCAD 2000
 90
        0
280
               0
281
               1
  0
CLASS
  1
DICTIONARYVAR
  2
AcDbDictionaryVar
  3
AutoCAD 2000
 90
        0
280
               0
281
               0
  0
CLASS
  1
RASTERVARIABLES
  2
AcDbRasterVariables
  3
ISM
 90
        0
280
               0
281
               0
  0
CLASS
  1
IMAGEDEF
  2
AcDbRasterImageDef
  3
ISM
 90
        0
280
               0
281
               0
  0
CLASS
  1
IMAGEDEF_REACTOR
  2
AcDbRasterImageDefReactor
  3
ISM
 90
        1
280
               0
281
               0
  0
CLASS
  1
IDBUFFER
  2
AcDbIdBuffer
  3
AutoCAD 2000
 90
        0
280
               0
281
               0
  0
CLASS
  1
SPATIAL_FILTER
  2
AcDbSpatialFilter
  3
AutoCAD 2000
 90
        0
280
               0
281
               0
  0
CLASS
  1
XRECORD
  2
AcDbXrecord
  3
AutoCAD 2000
 90
        0
280
               0
281
               0
  0
CLASS
  1
SORTENTSTABLE
  2
AcDbSortentsTable
  3
AutoCAD 2000
 90
        0
280
               0
281
               0
  0
CLASS
  1
LAYER_INDEX
  2
AcDbLayerIndex
  3
AutoCAD 2000
 90
        0
280
               0
281
               0
  0
CLASS
  1
SPATIAL_INDEX
  2
AcDbSpatialIndex
  3
AutoCAD 2000
 90
        0
280
               0
281
               0
  0
CLASS
  1
OBJECT_PTR
  2
CAseDLPNTableRecord
  3
"ASE-LPNTableRecord"
 90
        1
280
               0
281
               0
  0
CLASS
  1
LAYOUT
  2
AcDbLayout
  3
AutoCAD 2000
 90
        0
280
               0
281
               0
  0
CLASS
  1
PLOTSETTINGS
  2
AcDbPlotSettings
  3
AutoCAD 2000
 90
        0
280
               0
281
               0
  0
CLASS
  1
ACDBDICTIONARYWDFLT
  2
AcDbDictionaryWithDefault
  3
AutoCAD 2000
 90
        0
280
               0
281
               0
  0
CLASS
  1
ACDBPLACEHOLDER
  2
AcDbPlaceHolder
  3
AutoCAD 2000
 90
        0
280
               0
281
               0
  0
ENDSEC
  0
SECTION
  2
TABLES
  0
TABLE
  2
VPORT
  5
7
100
AcDbSymbolTable
 70
               1
  0
VPORT
  5
15
100
AcDbSymbolTableRecord
100
AcDbViewportTableRecord
  2
*ACTIVE
 70
               0
 10
0.0
 20
0.0
 11
1.0
 21
1.0
 12
0.0
 22
0.0
 13
0.0
 23
0.0
 14
1.0
 24
1.0
 15
0.0
 25
0.0
 16
0.0
 26
0.0
 36
1.0
 17
0.0
 27
0.0
 37
0.0
 40
2970.0
 41
0.688564
 42
50.0
 43
0.0
 44
0.0
 50
0.0
 51
0.0
 71
               0
 72
            2000
 73
               1
 74
               1
 75
               0
 76
               0
 77
               0
 78
               0
281
               0
 65
               0
110
0.0
120
0.0
130
0.0
111
1.0
121
0.0
131
0.0
112
0.0
122
1.0
132
0.0
345
0
346
0
 79
               0
146
0.0
  0
ENDTAB
  0
TABLE
  2
LTYPE
  5
4
100
AcDbSymbolTable
 70
              26
  0
LTYPE
  5
11
100
AcDbSymbolTableRecord
100
AcDbLinetypeTableRecord
  2
ByBlock
 70
              64
  3

 72
              65
 73
               0
 40
0.0
  0
LTYPE
  5
12
100
AcDbSymbolTableRecord
100
AcDbLinetypeTableRecord
  2
ByLayer
 70
              64
  3

 72
              65
 73
               0
 40
0.0
  0
LTYPE
  5
13
100
AcDbSymbolTableRecord
100
AcDbLinetypeTableRecord
  2
Continuous
 70
              64
  3
Solid line
 72
              65
 73
               0
 40
0.0
  0
LTYPE
  5
39
100
AcDbSymbolTableRecord
100
AcDbLinetypeTableRecord
  2
STYLE_01
 70
               0
  3

 72
              65
 73
               4
 40
2.0
 49
1.25
 74
               0
 49
-0.2500000000000001
 74
               0
 49
0.2500000000000001
 74
               0
 49
-0.2499999999999999
 74
               0
  0
LTYPE
  5
3A
100
AcDbSymbolTableRecord
100
AcDbLinetypeTableRecord
  2
STYLE_02
 70
               0
  3

 72
              65
 73
               4
 40
1.0
 49
0.5
 74
               0
 49
-0.25
 74
               0
 49
0.005
 74
               0
 49
-0.2450000000000001
 74
               0
  0
LTYPE
  5
3B
100
AcDbSymbolTableRecord
100
AcDbLinetypeTableRecord
  2
STYLE_03
 70
               0
  3

 72
              65
 73
               2
 40
0.75
 49
0.5
 74
               0
 49
-0.25
 74
               0
  0
LTYPE
  5
3C
100
AcDbSymbolTableRecord
100
AcDbLinetypeTableRecord
  2
STYLE_04
 70
               0
  3

 72
              65
 73
               2
 40
0.375
 49
0.25
 74
               0
 49
-0.125
 74
               0
  0
LTYPE
  5
3D
100
AcDbSymbolTableRecord
100
AcDbLinetypeTableRecord
  2
STYLE_05
 70
               0
  3

 72
              65
 73
               6
 40
1.7500000000000002
 49
0.5
 74
               0
 49
-0.25
 74
               0
 49
0.5000000000000001
 74
               0
 49
-0.2500000000000001
 74
               0
 49
0.005
 74
               0
 49
-0.2450000000000001
 74
               0
  0
LTYPE
  5
3E
100
AcDbSymbolTableRecord
100
AcDbLinetypeTableRecord
  2
STYLE_06
 70
               0
  3

 72
              65
 73
               6
 40
0.8750000000000001
 49
0.25
 74
               0
 49
-0.125
 74
               0
 49
0.2500000000000001
 74
               0
 49
-0.125
 74
               0
 49
0.005
 74
               0
 49
-0.1200000000000001
 74
               0
  0
LTYPE
  5
3F
100
AcDbSymbolTableRecord
100
AcDbLinetypeTableRecord
  2
STYLE_07
 70
               0
  3

 72
              65
 73
               6
 40
3.5000000000000004
 49
1.0
 74
               0
 49
-0.4999999999999999
 74
               0
 49
1.0000000000000002
 74
               0
 49
-0.5000000000000001
 74
               0
 49
0.0050000000000001
 74
               0
 49
-0.4949999999999999
 74
               0
  0
LTYPE
  5
40
100
AcDbSymbolTableRecord
100
AcDbLinetypeTableRecord
  2
STYLE_08
 70
               0
  3

 72
              65
 73
               4
 40
1.1249999999999998
 49
0.75
 74
               0
 49
-0.1249999999999999
 74
               0
 49
0.1249999999999999
 74
               0
 49
-0.1249999999999999
 74
               0
  0
LTYPE
  5
41
100
AcDbSymbolTableRecord
100
AcDbLinetypeTableRecord
  2
STYLE_09
 70
               0
  3

 72
              65
 73
               4
 40
4.0
 49
2.5
 74
               0
 49
-0.5000000000000001
 74
               0
 49
0.5000000000000001
 74
               0
 49
-0.4999999999999998
 74
               0
  0
LTYPE
  5
42
100
AcDbSymbolTableRecord
100
AcDbLinetypeTableRecord
  2
STYLE_10
 70
               0
  3

 72
              65
 73
               4
 40
0.5
 49
0.25
 74
               0
 49
-0.125
 74
               0
 49
0.005
 74
               0
 49
-0.12
 74
               0
  0
LTYPE
  5
43
100
AcDbSymbolTableRecord
100
AcDbLinetypeTableRecord
  2
STYLE_11
 70
               0
  3

 72
              65
 73
               4
 40
2.0
 49
1.0
 74
               0
 49
-0.4999999999999999
 74
               0
 49
0.005
 74
               0
 49
-0.4950000000000001
 74
               0
  0
LTYPE
  5
44
100
AcDbSymbolTableRecord
100
AcDbLinetypeTableRecord
  2
STYLE_12
 70
               0
  3

 72
              65
 73
               2
 40
0.375
 49
0.25
 74
               0
 49
-0.125
 74
               0
  0
LTYPE
  5
45
100
AcDbSymbolTableRecord
100
AcDbLinetypeTableRecord
  2
STYLE_13
 70
               0
  3

 72
              65
 73
               2
 40
1.5
 49
1.0
 74
               0
 49
-0.4999999999999999
 74
               0
  0
LTYPE
  5
46
100
AcDbSymbolTableRecord
100
AcDbLinetypeTableRecord
  2
STYLE_14
 70
               0
  3

 72
              65
 73
               6
 40
1.25
 49
0.5
 74
               0
 49
-0.25
 74
               0
 49
0.005
 74
               0
 49
-0.2450000000000001
 74
               0
 49
0.005
 74
               0
 49
-0.2450000000000001
 74
               0
  0
LTYPE
  5
47
100
AcDbSymbolTableRecord
100
AcDbLinetypeTableRecord
  2
STYLE_15
 70
               0
  3

 72
              65
 73
               6
 40
0.625
 49
0.25
 74
               0
 49
-0.125
 74
               0
 49
0.005
 74
               0
 49
-0.12
 74
               0
 49
0.005
 74
               0
 49
-0.1200000000000001
 74
               0
  0
LTYPE
  5
48
100
AcDbSymbolTableRecord
100
AcDbLinetypeTableRecord
  2
STYLE_16
 70
               0
  3

 72
              65
 73
               6
 40
2.5
 49
1.0
 74
               0
 49
-0.4999999999999999
 74
               0
 49
0.005
 74
               0
 49
-0.4950000000000001
 74
               0
 49
0.0050000000000001
 74
               0
 49
-0.4949999999999999
 74
               0
  0
LTYPE
  5
49
100
AcDbSymbolTableRecord
100
AcDbLinetypeTableRecord
  2
STYLE_17
 70
               0
  3

 72
              65
 73
               2
 40
0.25
 49
0.005
 74
               0
 49
-0.245
 74
               0
  0
LTYPE
  5
4A
100
AcDbSymbolTableRecord
100
AcDbLinetypeTableRecord
  2
STYLE_18
 70
               0
  3

 72
              65
 73
               2
 40
0.5
 49
0.005
 74
               0
 49
-0.4950000000000001
 74
               0
  0
LTYPE
  5
4B
100
AcDbSymbolTableRecord
100
AcDbLinetypeTableRecord
  2
STYLE_19
 70
               0
  3

 72
              65
 73
               2
 40
0.75
 49
0.5
 74
               0
 49
-0.25
 74
               0
  0
LTYPE
  5
4C
100
AcDbSymbolTableRecord
100
AcDbLinetypeTableRecord
  2
STYLE_20
 70
               0
  3

 72
              65
 73
               6
 40
2.5
 49
1.25
 74
               0
 49
-0.2500000000000001
 74
               0
 49
0.2500000000000001
 74
               0
 49
-0.2499999999999999
 74
               0
 49
0.2499999999999999
 74
               0
 49
-0.2499999999999999
 74
               0
  0
LTYPE
  5
4D
100
AcDbSymbolTableRecord
100
AcDbLinetypeTableRecord
  2
STYLE_21
 70
               0
  3

 72
              65
 73
               6
 40
1.25
 49
0.625
 74
               0
 49
-0.125
 74
               0
 49
0.125
 74
               0
 49
-0.1249999999999999
 74
               0
 49
0.1249999999999999
 74
               0
 49
-0.1249999999999999
 74
               0
  0
LTYPE
  5
4E
100
AcDbSymbolTableRecord
100
AcDbLinetypeTableRecord
  2
STYLE_22
 70
               0
  3

 72
              65
 73
               6
 40
5.0
 49
2.5
 74
               0
 49
-0.5000000000000001
 74
               0
 49
0.5000000000000001
 74
               0
 49
-0.4999999999999998
 74
               0
 49
0.4999999999999998
 74
               0
 49
-0.4999999999999998
 74
               0
  0
LTYPE
  5
4F
100
AcDbSymbolTableRecord
100
AcDbLinetypeTableRecord
  2
STYLE_23
 70
               0
  3

 72
              65
 73
               2
 40
3.9370078740157481
 49
1.9685039370078741
 74
               0
 49
-1.9685039370078741
 74
               0
  0
ENDTAB
  0
TABLE
  2
LAYER
  5
2
100
AcDbSymbolTable
 70
               5
  0
LAYER
  5
14
100
AcDbSymbolTableRecord
100
AcDbLayerTableRecord
  2
0
 70
               0
 62
               7
  6
Continuous
290
               1
370
              -3
390
1D
  0
LAYER
  5
50
100
AcDbSymbolTableRecord
100
AcDbLayerTableRecord
  2
Defpoints
 70
               0
 62
               7
  6
Continuous
290
               0
370
              -3
390
1D
  0
LAYER
  5
51
100
AcDbSymbolTableRecord
100
AcDbLayerTableRecord
  2
template
 70
               0
 62
               7
  6
Continuous
290
               1
370
              -3
390
1D
  0
LAYER
  5
52
100
AcDbSymbolTableRecord
100
AcDbLayerTableRecord
  2
notes
 70
               0
 62
               7
  6
Continuous
290
               1
370
              -3
390
1D
  0
LAYER
  5
53
100
AcDbSymbolTableRecord
100
AcDbLayerTableRecord
  2
ASN70-0001
 70
               0
 62
               7
  6
Continuous
290
               1
370
              -3
390
1D
  0
ENDTAB
  0
TABLE
  2
STYLE
  5
3
100
AcDbSymbolTable
 70
               2
  0
STYLE
  5
17
100
AcDbSymbolTableRecord
100
AcDbTextStyleTableRecord
  2
Standard
 70
               0
 40
0.0
 41
1.0
 50
0.0
 71
               0
 42
0.0
  3
txt
  4
BIGFONT.SHX
  0
STYLE
  5
38
100
AcDbSymbolTableRecord
100
AcDbTextStyleTableRecord
  2
ＭＳ ゴシック
 70
               0
 40
0.0
 41
1.0
 50
0.0
 71
               0
 42
0.0
  3

  4
ＭＳ ゴシック
1001
ACAD
1000
ＭＳ ゴシック
1071
        0
  0
ENDTAB
  0
TABLE
  2
VIEW
  5
5
100
AcDbSymbolTable
 70
               0
  0
ENDTAB
  0
TABLE
  2
UCS
  5
6
100
AcDbSymbolTable
 70
               0
  0
ENDTAB
  0
TABLE
  2
APPID
  5
8
100
AcDbSymbolTable
 70
               1
  0
APPID
  5
16
100
AcDbSymbolTableRecord
100
AcDbRegAppTableRecord
  2
ACAD
 70
               0
  0
ENDTAB
  0
TABLE
  2
DIMSTYLE
  5
9
100
AcDbSymbolTable
 70
               3
100
AcDbDimStyleTable
 71
               0
  0
DIMSTYLE
105
18
100
AcDbSymbolTableRecord
100
AcDbDimStyleTableRecord
  2
Standard
 70
               0
  3

  4

 40
1.0
 41
0.18
 42
0.0625
 43
0.38
 44
0.18
 45
0.0
 46
0.0
 47
0.0
 48
0.0
 71
               0
 72
               0
 73
               1
 74
               1
 75
               0
 76
               0
 77
               0
 78
               0
 79
               0
140
0.18
141
0.09
142
0.0
143
25.399999999999999
144
1.0
145
0.0
146
1.0
147
0.09
148
0.0
170
               0
171
               2
172
               0
173
               0
174
               0
175
               0
176
               0
177
               0
178
               0
179
               0
271
               4
272
               4
273
               2
274
               2
275
               0
276
               0
277
               2
278
              46
279
               0
280
               0
281
               0
282
               0
283
               1
284
               0
285
               0
286
               0
288
               0
289
               3
340
17
341
0
342
0
343
0
344
0
371
              -2
372
              -2
  0
DIMSTYLE
105
5C
100
AcDbSymbolTableRecord
100
AcDbDimStyleTableRecord
  2
tfrom線あり
 70
               0
  3
<>
  4
[]
 40
1.0
 41
3.999755859375
 42
24.999999999999996
 43
0.9999999999999999
 44
0.0
 45
0.0
 46
0.0
 47
0.0
 48
0.0
 71
               0
 72
               0
 73
               0
 74
               0
 75
               0
 76
               0
 77
               1
 78
              11
 79
               0
140
24.432617187500004
141
0.0
142
0.0
143
1.0
144
1.0
145
0.0
146
1.0
147
0.4999999999999999
148
0.0
170
               0
171
               1
172
               0
173
               0
174
               1
175
               0
176
               0
177
               0
178
               0
179
               2
271
               1
272
               1
273
               2
274
               2
275
               0
276
               2
277
               2
278
              46
279
               0
280
               0
281
               0
282
               0
283
               1
284
              11
285
              11
286
              11
288
               0
289
               0
340
38
341
54
342
54
343
0
344
0
371
              -2
372
              -2
  0
DIMSTYLE
105
61
100
AcDbSymbolTableRecord
100
AcDbDimStyleTableRecord
  2
JIS
 70
               0
  3
<>
  4
[]
 40
1.0
 41
31.75
 42
0.0
 43
6.9999999999999396
 44
19.999999999996199
 45
0.0
 46
0.0
 47
0.0
 48
0.0
 71
               0
 72
               0
 73
               0
 74
               0
 75
               0
 76
               0
 77
               1
 78
              11
 79
               0
140
24.432617187500004
141
0.0
142
0.0
143
1.0
144
1.0
145
0.0
146
1.0
147
1.00000000000108
148
0.0
170
               0
171
               1
172
               0
173
               0
174
               1
175
               0
176
               0
177
               0
178
               0
179
               2
271
               1
272
               1
273
               2
274
               2
275
               0
276
               2
277
               2
278
              46
279
               0
280
               0
281
               0
282
               0
283
               1
284
              11
285
              11
286
              11
288
               0
289
               0
340
38
341
5D
342
5D
343
0
344
0
371
              -2
372
              -2
  0
ENDTAB
  0
TABLE
  2
BLOCK_RECORD
  5
1
100
AcDbSymbolTable
 70
              23
  0
BLOCK_RECORD
  5
A
100
AcDbSymbolTableRecord
100
AcDbBlockTableRecord
  2
*MODEL_SPACE
340
20
  0
BLOCK_RECORD
  5
B
100
AcDbSymbolTableRecord
100
AcDbBlockTableRecord
  2
*PAPER_SPACE
340
21
  0
BLOCK_RECORD
  5
54
100
AcDbSymbolTableRecord
100
AcDbBlockTableRecord
  2
_DOT
340
0
  0
BLOCK_RECORD
  5
5D
100
AcDbSymbolTableRecord
100
AcDbBlockTableRecord
  2
VW_FILLEDARROW
340
0
  0
BLOCK_RECORD
  5
23
100
AcDbSymbolTableRecord
100
AcDbBlockTableRecord
  2
グループ
340
0
102
{BLKREFS
331
154
102
}
  0
BLOCK_RECORD
  5
24
100
AcDbSymbolTableRecord
100
AcDbBlockTableRecord
  2
*D3
340
0
  0
BLOCK_RECORD
  5
25
100
AcDbSymbolTableRecord
100
AcDbBlockTableRecord
  2
*D4
340
0
  0
BLOCK_RECORD
  5
26
100
AcDbSymbolTableRecord
100
AcDbBlockTableRecord
  2
*D5
340
0
  0
BLOCK_RECORD
  5
27
100
AcDbSymbolTableRecord
100
AcDbBlockTableRecord
  2
*D6
340
0
  0
BLOCK_RECORD
  5
28
100
AcDbSymbolTableRecord
100
AcDbBlockTableRecord
  2
*D7
340
0
  0
BLOCK_RECORD
  5
29
100
AcDbSymbolTableRecord
100
AcDbBlockTableRecord
  2
*D8
340
0
  0
BLOCK_RECORD
  5
2A
100
AcDbSymbolTableRecord
100
AcDbBlockTableRecord
  2
*D9
340
0
  0
BLOCK_RECORD
  5
2B
100
AcDbSymbolTableRecord
100
AcDbBlockTableRecord
  2
*D10
340
0
  0
BLOCK_RECORD
  5
2C
100
AcDbSymbolTableRecord
100
AcDbBlockTableRecord
  2
*D11
340
0
  0
BLOCK_RECORD
  5
2D
100
AcDbSymbolTableRecord
100
AcDbBlockTableRecord
  2
*D12
340
0
  0
BLOCK_RECORD
  5
2E
100
AcDbSymbolTableRecord
100
AcDbBlockTableRecord
  2
*D13
340
0
  0
BLOCK_RECORD
  5
2F
100
AcDbSymbolTableRecord
100
AcDbBlockTableRecord
  2
*D14
340
0
  0
BLOCK_RECORD
  5
30
100
AcDbSymbolTableRecord
100
AcDbBlockTableRecord
  2
*D15
340
0
  0
BLOCK_RECORD
  5
31
100
AcDbSymbolTableRecord
100
AcDbBlockTableRecord
  2
*D16
340
0
  0
BLOCK_RECORD
  5
32
100
AcDbSymbolTableRecord
100
AcDbBlockTableRecord
  2
*D17
340
0
  0
BLOCK_RECORD
  5
33
100
AcDbSymbolTableRecord
100
AcDbBlockTableRecord
  2
*D18
340
0
  0
BLOCK_RECORD
  5
34
100
AcDbSymbolTableRecord
100
AcDbBlockTableRecord
  2
グループ-1
340
0
102
{BLKREFS
331
141
102
}
  0
BLOCK_RECORD
  5
35
100
AcDbSymbolTableRecord
100
AcDbBlockTableRecord
  2
グループ-2
340
0
102
{BLKREFS
331
144
102
}
  0
BLOCK_RECORD
  5
36
100
AcDbSymbolTableRecord
100
AcDbBlockTableRecord
  2
グループ-3
340
0
102
{BLKREFS
331
179
102
}
  0
BLOCK_RECORD
  5
37
100
AcDbSymbolTableRecord
100
AcDbBlockTableRecord
  2
グループ-4
340
0
102
{BLKREFS
331
1CC
102
}
  0
ENDTAB
  0
ENDSEC
  0
SECTION
  2
BLOCKS
  0
BLOCK
  5
D
100
AcDbEntity
  8
0
390
0
100
AcDbBlockBegin
  2
*MODEL_SPACE
 70
               0
 10
0.0
 20
0.0
 30
0.0
  3
*MODEL_SPACE
  1

  0
ENDBLK
  5
E
100
AcDbEntity
  8
0
390
0
100
AcDbBlockEnd
  0
BLOCK
  5
F
100
AcDbEntity
 67
               1
  8
0
390
0
100
AcDbBlockBegin
  2
*PAPER_SPACE
 70
               0
 10
0.0
 20
0.0
 30
0.0
  3
*PAPER_SPACE
  1

  0
ENDBLK
  5
10
100
AcDbEntity
 67
               1
  8
0
390
0
100
AcDbBlockEnd
  0
BLOCK
  5
55
100
AcDbEntity
  8
0
390
0
100
AcDbBlockBegin
  2
_DOT
 70
               0
 10
0.0
 20
0.0
 30
0.0
  3
_DOT
  1

  0
POLYLINE
  5
56
100
AcDbEntity
  8
0
370
              -2
390
0
  6
ByBlock
 62
               0
100
AcDb2dPolyline
 66
               1
 10
0.0
 20
0.0
 30
0.0
 70
               1
 40
0.5
 41
0.5
  0
VERTEX
  5
57
100
AcDbEntity
  8
0
370
              -2
390
0
  6
ByBlock
 62
               0
100
AcDbVertex
100
AcDb2dVertex
 10
-0.25
 20
0.0
 30
0.0
 42
1.0
  0
VERTEX
  5
58
100
AcDbEntity
  8
0
370
              -2
390
0
  6
ByBlock
 62
               0
100
AcDbVertex
100
AcDb2dVertex
 10
0.25
 20
0.0
 30
0.0
 42
1.0
  0
SEQEND
  5
59
100
AcDbEntity
  8
0
390
0
  0
LINE
  5
5A
100
AcDbEntity
  8
0
370
              -2
390
0
  6
ByBlock
 62
               0
100
AcDbLine
 10
-0.5
 20
0.0
 30
0.0
 11
-1.0
 21
0.0
 31
0.0
  0
ENDBLK
  5
5B
100
AcDbEntity
  8
0
390
0
100
AcDbBlockEnd
  0
BLOCK
  5
5E
100
AcDbEntity
  8
0
370
              -2
390
0
  6
ByBlock
 62
               0
100
AcDbBlockBegin
  2
VW_FILLEDARROW
 70
               0
 10
0.0
 20
0.0
 30
0.0
  3
VW_FILLEDARROW
  1

  0
SOLID
  5
5F
100
AcDbEntity
  8
0
370
              -2
390
0
 62
               0
100
AcDbTrace
 10
0.0
 20
0.0
 30
0.0
 11
-0.9921874999999999
 21
-0.2658558393652545
 31
0.0
 12
-0.9921874999999999
 22
0.2658558393652548
 32
0.0
 13
-0.9921874999999999
 23
0.2658558393652548
 33
0.0
  0
ENDBLK
  5
60
100
AcDbEntity
  8
0
390
0
100
AcDbBlockEnd
  0
BLOCK
  5
62
100
AcDbEntity
  8
template
390
0
100
AcDbBlockBegin
  2
グループ
 70
               0
 10
0.0
 20
0.0
 30
0.0
  3
グループ
  1

  0
LWPOLYLINE
  5
63
100
AcDbEntity
  8
0
370
              15
390
0
  6
Continuous
 62
               7
100
AcDbPolyline
 90
        8
 70
             129
 10
-21031.305816780237
 20
40761.162671448517
 10
-21031.305816780237
 20
40755.165282754941
 10
-21040.807013698239
 20
40755.165282754941
 10
-21040.807013698239
 20
40730.714319491439
 10
-21049.162390960024
 20
40730.714319491439
 10
-21049.162390960024
 20
40755.165282754941
 10
-21058.495347906333
 20
40755.165282754941
 10
-21058.495347906333
 20
40761.162671448517
  0
LWPOLYLINE
  5
64
100
AcDbEntity
  8
0
370
              15
390
0
  6
Continuous
 62
               7
100
AcDbPolyline
 90
      101
 70
             128
 10
-21018.57752494968
 20
40760.434422955586
 10
-21018.562174920869
 20
40760.438783712278
 42
-0.0222221607882341
 10
-21018.272170344222
 20
40760.507408177509
 10
-21018.256376580182
 20
40760.510411600611
 42
-0.0146883565707162
 10
-21017.993673875004
 20
40760.552414787555
 42
-0.0127458844158414
 10
-21017.729034907621
 20
40760.579951755652
 10
-21017.66657982954
 20
40760.584845178222
 42
-0.0198099018736019
 10
-21017.275730720212
 20
40760.599930335615
 10
-21017.223919250617
 20
40760.599876559951
 42
-0.0147617382692243
 10
-21016.72929578953
 20
40760.584756534707
 10
-21016.656604334716
 20
40760.580383927816
 42
-0.0162624548994037
 10
-21016.266450705305
 20
40760.544151052542
 10
-21016.144918314309
 20
40760.528864493586
 42
-0.0080020874804047
 10
-21015.999339282956
 20
40760.508181646277
 10
-21015.961019812719
 20
40760.502110368529
 42
-0.0053821929450793
 10
-21015.892535707044
 20
40760.490502844652
 10
-21016.618941406243
 20
40758.309574388935
 42
0.0108667757861089
 10
-21016.686258476358
 20
40758.322761504154
 10
-21016.723726499564
 20
40758.329259246748
 42
0.0170663203508411
 10
-21016.86694328651
 20
40758.349088844043
 10
-21016.934818619164
 20
40758.356136014627
 42
0.022016237541629
 10
-21017.215198027148
 20
40758.372818375406
 10
-21017.293053594083
 20
40758.374017742666
 42
0.0282606915785772
 10
-21017.628689917648
 20
40758.360214465698
 10
-21017.672603191397
 20
40758.355914475695
 42
0.0169677213689253
 10
-21017.918527686379
 20
40758.323377426146
 42
0.0190576269762042
 10
-21018.161435648904
 20
40758.273230554048
 10
-21018.167694837073
 20
40758.271687579923
 42
0.0213685642915165
 10
-21018.418079321425
 20
40758.19848729486
 10
-21018.423569216466
 20
40758.196624298762
 42
0.0237595297603059
 10
-21018.677064101419
 20
40758.096939776842
 10
-21018.682166175393
 20
40758.094648001388
 42
0.0261857468774349
 10
-21018.934336951566
 20
40757.965111664045
 10
-21018.944763140789
 20
40757.959046189499
 42
0.0272553062083196
 10
-21019.181192915948
 20
40757.803673983602
 10
-21019.215955929438
 20
40757.778012835523
 42
0.032599689321607
 10
-21019.36611127311
 20
40757.651264962537
 10
-21019.38982070229
 20
40757.628446933966
 42
0.0138050961058267
 10
-21019.481703858444
 20
40757.534997272473
 42
0.0125280103848122
 10
-21019.568546391354
 20
40757.43683394578
 10
-21019.592226836183
 20
40757.408675447688
 42
0.0205218024824725
 10
-21019.717326911679
 20
40757.246882133477
 10
-21019.739793252185
 20
40757.215222403625
 42
0.0163110129465963
 10
-21019.895503631298
 20
40756.979891968775
 10
-21019.898227527487
 20
40756.975468206569
 42
0.0131897342077592
 10
-21020.045028048404
 20
40756.722336114188
 10
-21020.04672814376
 20
40756.71921787507
 42
0.0107895576183953
 10
-21020.184504845987
 20
40756.453002665396
 10
-21020.185237735495
 20
40756.451508432787
 42
0.0091371507131642
 10
-21020.313717684152
 20
40756.176983235018
 10
-21020.343463315556
 20
40756.110276727872
 42
0.013541832646171
 10
-21020.515177254681
 20
40755.69533894246
 10
-21020.548782063132
 20
40755.607472800133
 42
0.0092834542340714
 10
-21020.720011122983
 20
40755.133574302017
 10
-21020.745628250694
 20
40755.058333232242
 42
0.0054261043579407
 10
-21020.85326639899
 20
40754.730569259162
 10
-21020.870792384747
 20
40754.675181098261
 42
0.0008225091019401
 10
-21020.939462437
 20
40754.456912338777
 10
-21021.924151568932
 20
40751.432021045526
 10
-21018.691527728857
 20
40751.432021045526
 10
-21019.195720158714
 20
40749.527542747172
 10
-21022.451776440696
 20
40749.527542747172
 10
-21028.280925473049
 20
40730.714319681167
 10
-21030.106023083361
 20
40730.714319681167
 10
-21024.271345047859
 20
40749.527542747172
 10
-21026.676461416901
 20
40749.527542747172
 10
-21026.172268987044
 20
40751.432021045526
 10
-21023.743720176095
 20
40751.432021045526
 10
-21022.883565257907
 20
40754.068434046225
 42
-0.0005863560427192
 10
-21022.846830579263
 20
40754.185260467915
 10
-21022.770742746041
 20
40754.426252765901
 42
-0.0087522379022986
 10
-21022.571274602633
 20
40755.021528852914
 10
-21022.479010327159
 20
40755.281669021606
 42
-0.0077400953771335
 10
-21022.22107666804
 20
40755.974673699107
 10
-21022.205311696525
 20
40756.01510458233
 42
-0.0082369946355308
 10
-21021.958227225849
 20
40756.619183648691
 42
-0.0085725238349736
 10
-21021.690981129821
 20
40757.214609688039
 10
-21021.589351528819
 20
40757.431030790009
 42
-0.0168109410579073
 10
-21021.302407100113
 20
40757.992238316059
 10
-21021.176563709625
 20
40758.219202349108
 42
-0.0007817727094391
 10
-21021.122279359595
 20
40758.316746594093
 10
-21021.122151053296
 20
40758.316976303337
 42
-0.0036626142396225
 10
-21021.067263189558
 20
40758.413574182799
 42
-0.0080221150328238
 10
-21021.010138934278
 20
40758.508853417341
 10
-21020.979438982788
 20
40758.558244366679
 42
-0.0202139325640619
 10
-21020.851783242982
 20
40758.746225967356
 10
-21020.797715777793
 20
40758.819304831602
 42
-0.0249323791654784
 10
-21020.538552984082
 20
40759.135350073753
 10
-21020.514413169949
 20
40759.161964346669
 42
-0.0242132121601538
 10
-21020.174732428495
 20
40759.501847832791
 10
-21020.126820855661
 20
40759.545356969051
 42
-0.0251017527863102
 10
-21019.842839155011
 20
40759.778349714819
 10
-21019.841393678129
 20
40759.779418972445
 42
-0.0130868069018064
 10
-21019.543133028244
 20
40759.988199440937
 10
-21019.541571209171
 20
40759.989232881162
 42
-0.0290329526422077
 10
-21019.230460067709
 20
40760.170058382842
 10
-21019.200614505811
 20
40760.185160765635
 42
-0.0160250190147607
 10
-21018.934710091955
 20
40760.309176875897
 42
-0.0267600374709751
 10
-21018.659434014462
 20
40760.409925196458
 10
-21018.632698094967
 20
40760.418117755275
 42
-0.0049981586636743
 10
-21018.57752494968
 20
40760.434422955586
 42
-0.0049981586636743
  0
LWPOLYLINE
  5
65
100
AcDbEntity
  8
0
370
              15
390
0
  6
Continuous
 62
               7
100
AcDbPolyline
 90
      118
 70
             128
 10
-20998.763157385234
 20
40751.358037717699
 10
-20996.888035460735
 20
40751.358037717699
 10
-20997.726074366336
 20
40748.676471191298
 42
-0.0010587229330968
 10
-20997.694618550649
 20
40748.713375724787
 10
-20997.636424460128
 20
40748.781357980828
 42
-0.0071874740259252
 10
-20997.486049241837
 20
40748.951998673074
 10
-20997.34432646877
 20
40749.108234814172
 42
-0.0148118053548528
 10
-20996.894197176087
 20
40749.575848660148
 10
-20996.806974840976
 20
40749.66124598121
 42
-0.0086273358622442
 10
-20996.471426040145
 20
40749.978621615053
 10
-20996.427592323937
 20
40750.018671259371
 42
-0.010313832304599
 10
-20996.169568621688
 20
40750.244834396726
 10
-20996.123794215218
 20
40750.283316444104
 42
-0.0060206748365909
 10
-20995.95094615125
 20
40750.425111094737
 10
-20995.948915020523
 20
40750.42673680024
 42
-0.0067069027394515
 10
-20995.776622205696
 20
40750.560887434163
 10
-20995.774073439719
 20
40750.562817604077
 42
-0.0076184351837805
 10
-20995.6031681739
 20
40750.688192479283
 42
-0.008965286178158
 10
-20995.428207211262
 20
40750.807825739554
 10
-20995.391855491176
 20
40750.831736952998
 42
-0.0156916246171883
 10
-20995.195895993864
 20
40750.951999439574
 42
-0.0023299010793102
 10
-20994.995633949711
 20
40751.065177379212
 10
-20994.980249817505
 20
40751.073777374178
 42
-0.0107669341574881
 10
-20994.746012992418
 20
40751.198177507518
 10
-20994.723748191325
 20
40751.209394257479
 42
-0.0078058045975176
 10
-20994.440158073485
 20
40751.346755713064
 10
-20994.430250985664
 20
40751.351364840986
 42
-0.0181829330388933
 10
-20994.119941580946
 20
40751.482228582121
 10
-20994.065886138407
 20
40751.502743702054
 42
-0.0208411535963881
 10
-20993.716801171031
 20
40751.618834164517
 10
-20993.702445071034
 20
40751.622952609432
 42
-0.0222799817234224
 10
-20993.373725276986
 20
40751.701594175611
 10
-20993.364836313714
 20
40751.703306186202
 42
-0.0215509523840214
 10
-20993.048365345472
 20
40751.750221874732
 10
-20993.005883384463
 20
40751.754659401522
 42
-0.0182545924908273
 10
-20992.771774605113
 20
40751.770503226915
 10
-20992.732373588697
 20
40751.771727771993
 42
-0.0072962856617784
 10
-20992.576450709079
 20
40751.774297100514
 10
-20992.547351038516
 20
40751.774351935914
 42
-0.0059227516361186
 10
-20992.449601539363
 20
40751.773378224127
 10
-20992.420359321917
 20
40751.772740457527
 42
-0.0011833112074607
 10
-20992.381108038157
 20
40751.771791453211
 10
-20993.176494633764
 20
40749.233057508114
 42
0.01439320521167
 10
-20993.202896016079
 20
40749.243256478148
 10
-20993.210167988531
 20
40749.245827697021
 42
0.0234388603431639
 10
-20993.251998854459
 20
40749.258446932734
 10
-20993.260680517378
 20
40749.260627894735
 42
0.0199162743305058
 10
-20993.320969351549
 20
40749.273244630087
 10
-20993.341783289263
 20
40749.276741829497
 42
0.0293643550708499
 10
-20993.444858147974
 20
40749.287891875152
 10
-20993.469543328742
 20
40749.289103492178
 42
0.0214606686837161
 10
-20993.622684244765
 20
40749.290042052591
 10
-20993.632056155515
 20
40749.289697141052
 42
0.016756405369153
 10
-20993.80357634644
 20
40749.277620098706
 10
-20993.812036139381
 20
40749.276738758257
 42
0.0137677553237754
 10
-20993.999389452631
 20
40749.251989449709
 10
-20994.006741192155
 20
40749.250811529739
 42
0.0118497261713545
 10
-20994.207238956355
 20
40749.21379417953
 10
-20994.213388963501
 20
40749.212507316828
 42
0.0106421144079412
 10
-20994.424269850912
 20
40749.163674941221
 10
-20994.429178659178
 20
40749.162427598567
 42
0.009974637991588
 10
-20994.647637128408
 20
40749.102253070232
 10
-20994.709185168511
 20
40749.083971191627
 42
0.0191613675912572
 10
-20995.045169631041
 20
40748.969993811334
 10
-20995.133229403749
 20
40748.936306901021
 42
0.0205274080129399
 10
-20995.51853617567
 20
40748.770478493185
 10
-20995.57618545767
 20
40748.742810528609
 42
0.0181256911998644
 10
-20995.834462398321
 20
40748.607126709641
 10
-20995.887417781574
 20
40748.576809096463
 42
0.0140709242237235
 10
-20996.032372716261
 20
40748.48831442299
 10
-20996.058621585078
 20
40748.471257604142
 42
0.0086667884554856
 10
-20996.147547746426
 20
40748.411254936393
 42
0.0036408191639825
 10
-20996.234980984533
 20
40748.349074078542
 10
-20996.270207858928
 20
40748.323633132684
 42
0.0052260781191519
 10
-20996.426436556099
 20
40748.208300746213
 10
-20996.442643412578
 20
40748.19607263543
 42
0.0050024435707404
 10
-20996.628646755507
 20
40748.052790067275
 10
-20996.643964912149
 20
40748.040744044731
 42
0.0136138710192517
 10
-20996.8544061803
 20
40747.865777539962
 10
-20996.888074056267
 20
40747.8361985671
 42
0.0172815186905817
 10
-20997.152477597963
 20
40747.58720189445
 10
-20997.155039943777
 20
40747.584616077329
 42
0.0189403857972164
 10
-20997.40562174228
 20
40747.311810812607
 10
-20997.438253235883
 20
40747.27346688103
 42
0.0185044199709577
 10
-20997.63020967487
 20
40747.0302182999
 42
0.0088565243928168
 10
-20997.80866978148
 20
40746.776701879782
 10
-20997.817847761147
 20
40746.763160499991
 42
0.0157195347088769
 10
-20998.001068367492
 20
40746.473638290656
 10
-20998.047151309489
 20
40746.395486093519
 42
0.0095451879784498
 10
-20998.212236859552
 20
40746.102891451301
 10
-20998.223384778299
 20
40746.082220779514
 42
0.0100351706137455
 10
-20998.35542852764
 20
40745.825165218674
 42
0.0086935915327832
 10
-20998.47775967939
 20
40745.563332073369
 10
-20998.481080420846
 20
40745.5558897503
 42
0.0072580174846674
 10
-20998.601426872865
 20
40745.275297758533
 10
-20998.604688506097
 20
40745.2673777327
 42
0.0060005122636377
 10
-20998.723889174351
 20
40744.967768062321
 10
-20998.727100152781
 20
40744.959406534188
 42
0.004901778686043
 10
-20998.846000311794
 20
40744.640477553163
 10
-20998.849166118031
 20
40744.631724616353
 42
0.0039415167598956
 10
-20998.968602396173
 20
40744.293182553687
 10
-20998.971733498736
 20
40744.284079353063
 42
0.0031035838857819
 10
-20999.092538284483
 20
40743.925639491135
 10
-20999.095648328963
 20
40743.916218869912
 42
0.0025070747176649
 10
-20999.218549680274
 20
40743.537571652996
 10
-20999.255843576706
 20
40743.420679987714
 42
0.0029081910225875
 10
-20999.447861874629
 20
40742.806516329059
 10
-20999.488665043031
 20
40742.673293087151
 42
0.0009266453721183
 10
-20999.757082417011
 20
40741.791068628321
 10
-20999.777969890416
 20
40741.721956746565
 42
-0.0005809993636092
 10
-21000.055306570575
 20
40740.808148641358
 10
-21000.121588368525
 20
40740.59066371026
 42
-0.0012018708169245
 10
-21000.26857267828
 20
40740.11250104467
 10
-21000.320892528714
 20
40739.943741907467
 42
-0.0002691059761876
 10
-21000.364462011014
 20
40739.803474283464
 10
-21003.197417909301
 20
40730.714319681167
 10
-21005.015406801282
 20
40730.714319681167
 10
-20998.763157385234
 20
40751.358037717699
  0
SPLINE
  5
66
100
AcDbEntity
  8
0
370
              15
390
0
  6
Continuous
 62
               7
100
AcDbSpline
210
0.0
220
0.0
230
1.0
 70
              13
 71
               2
 72
             782
 73
             779
 74
               0
 42
0.000001
 43
0.000001
 40
0.0
 40
0.0
 40
0.0
 40
1.0
 40
1.0
 40
2.0
 40
2.0
 40
3.0
 40
3.0
 40
4.0
 40
4.0
 40
5.0
 40
5.0
 40
6.0
 40
6.0
 40
7.0
 40
7.0
 40
8.0
 40
8.0
 40
9.0
 40
9.0
 40
10.0
 40
10.0
 40
11.0
 40
11.0
 40
12.0
 40
12.0
 40
13.0
 40
13.0
 40
14.0
 40
14.0
 40
15.0
 40
15.0
 40
16.0
 40
16.0
 40
17.0
 40
17.0
 40
18.0
 40
18.0
 40
19.0
 40
19.0
 40
20.0
 40
20.0
 40
21.0
 40
21.0
 40
22.0
 40
22.0
 40
23.0
 40
23.0
 40
24.0
 40
24.0
 40
25.0
 40
25.0
 40
26.0
 40
26.0
 40
27.0
 40
27.0
 40
28.0
 40
28.0
 40
29.0
 40
29.0
 40
30.0
 40
30.0
 40
31.0
 40
31.0
 40
32.0
 40
32.0
 40
33.0
 40
33.0
 40
34.0
 40
34.0
 40
35.0
 40
35.0
 40
36.0
 40
36.0
 40
37.0
 40
37.0
 40
38.0
 40
38.0
 40
39.0
 40
39.0
 40
40.0
 40
40.0
 40
41.0
 40
41.0
 40
42.0
 40
42.0
 40
43.0
 40
43.0
 40
44.0
 40
44.0
 40
45.0
 40
45.0
 40
46.0
 40
46.0
 40
47.0
 40
47.0
 40
48.0
 40
48.0
 40
49.0
 40
49.0
 40
50.0
 40
50.0
 40
51.0
 40
51.0
 40
52.0
 40
52.0
 40
53.0
 40
53.0
 40
54.0
 40
54.0
 40
55.0
 40
55.0
 40
56.0
 40
56.0
 40
57.0
 40
57.0
 40
58.0
 40
58.0
 40
59.0
 40
59.0
 40
60.0
 40
60.0
 40
61.0
 40
61.0
 40
62.0
 40
62.0
 40
63.0
 40
63.0
 40
64.0
 40
64.0
 40
65.0
 40
65.0
 40
66.0
 40
66.0
 40
67.0
 40
67.0
 40
68.0
 40
68.0
 40
69.0
 40
69.0
 40
70.0
 40
70.0
 40
71.0
 40
71.0
 40
72.0
 40
72.0
 40
73.0
 40
73.0
 40
74.0
 40
74.0
 40
75.0
 40
75.0
 40
76.0
 40
76.0
 40
77.0
 40
77.0
 40
78.0
 40
78.0
 40
79.0
 40
79.0
 40
80.0
 40
80.0
 40
81.0
 40
81.0
 40
82.0
 40
82.0
 40
83.0
 40
83.0
 40
84.0
 40
84.0
 40
85.0
 40
85.0
 40
86.0
 40
86.0
 40
87.0
 40
87.0
 40
88.0
 40
88.0
 40
89.0
 40
89.0
 40
90.0
 40
90.0
 40
91.0
 40
91.0
 40
92.0
 40
92.0
 40
93.0
 40
93.0
 40
94.0
 40
94.0
 40
95.0
 40
95.0
 40
96.0
 40
96.0
 40
97.0
 40
97.0
 40
98.0
 40
98.0
 40
99.0
 40
99.0
 40
100.0
 40
100.0
 40
101.0
 40
101.0
 40
102.0
 40
102.0
 40
103.0
 40
103.0
 40
104.0
 40
104.0
 40
105.0
 40
105.0
 40
106.0
 40
106.0
 40
107.0
 40
107.0
 40
108.0
 40
108.0
 40
109.0
 40
109.0
 40
110.0
 40
110.0
 40
111.0
 40
111.0
 40
112.0
 40
112.0
 40
113.0
 40
113.0
 40
114.0
 40
114.0
 40
115.0
 40
115.0
 40
116.0
 40
116.0
 40
117.0
 40
117.0
 40
118.0
 40
118.0
 40
119.0
 40
119.0
 40
120.0
 40
120.0
 40
121.0
 40
121.0
 40
122.0
 40
122.0
 40
123.0
 40
123.0
 40
124.0
 40
124.0
 40
125.0
 40
125.0
 40
126.0
 40
126.0
 40
127.0
 40
127.0
 40
128.0
 40
128.0
 40
129.0
 40
129.0
 40
130.0
 40
130.0
 40
131.0
 40
131.0
 40
132.0
 40
132.0
 40
133.0
 40
133.0
 40
134.0
 40
134.0
 40
135.0
 40
135.0
 40
136.0
 40
136.0
 40
137.0
 40
137.0
 40
138.0
 40
138.0
 40
139.0
 40
139.0
 40
140.0
 40
140.0
 40
141.0
 40
141.0
 40
142.0
 40
142.0
 40
143.0
 40
143.0
 40
144.0
 40
144.0
 40
145.0
 40
145.0
 40
146.0
 40
146.0
 40
147.0
 40
147.0
 40
148.0
 40
148.0
 40
149.0
 40
149.0
 40
150.0
 40
150.0
 40
151.0
 40
151.0
 40
152.0
 40
152.0
 40
153.0
 40
153.0
 40
154.0
 40
154.0
 40
155.0
 40
155.0
 40
156.0
 40
156.0
 40
157.0
 40
157.0
 40
158.0
 40
158.0
 40
159.0
 40
159.0
 40
160.0
 40
160.0
 40
161.0
 40
161.0
 40
162.0
 40
162.0
 40
163.0
 40
163.0
 40
164.0
 40
164.0
 40
165.0
 40
165.0
 40
166.0
 40
166.0
 40
167.0
 40
167.0
 40
168.0
 40
168.0
 40
169.0
 40
169.0
 40
170.0
 40
170.0
 40
171.0
 40
171.0
 40
172.0
 40
172.0
 40
173.0
 40
173.0
 40
174.0
 40
174.0
 40
175.0
 40
175.0
 40
176.0
 40
176.0
 40
177.0
 40
177.0
 40
178.0
 40
178.0
 40
179.0
 40
179.0
 40
180.0
 40
180.0
 40
181.0
 40
181.0
 40
182.0
 40
182.0
 40
183.0
 40
183.0
 40
184.0
 40
184.0
 40
185.0
 40
185.0
 40
186.0
 40
186.0
 40
187.0
 40
187.0
 40
188.0
 40
188.0
 40
189.0
 40
189.0
 40
190.0
 40
190.0
 40
191.0
 40
191.0
 40
192.0
 40
192.0
 40
193.0
 40
193.0
 40
194.0
 40
194.0
 40
195.0
 40
195.0
 40
196.0
 40
196.0
 40
197.0
 40
197.0
 40
198.0
 40
198.0
 40
199.0
 40
199.0
 40
200.0
 40
200.0
 40
201.0
 40
201.0
 40
202.0
 40
202.0
 40
203.0
 40
203.0
 40
204.0
 40
204.0
 40
205.0
 40
205.0
 40
206.0
 40
206.0
 40
207.0
 40
207.0
 40
208.0
 40
208.0
 40
209.0
 40
209.0
 40
210.0
 40
210.0
 40
211.0
 40
211.0
 40
212.0
 40
212.0
 40
213.0
 40
213.0
 40
214.0
 40
214.0
 40
215.0
 40
215.0
 40
216.0
 40
216.0
 40
217.0
 40
217.0
 40
218.0
 40
218.0
 40
219.0
 40
219.0
 40
220.0
 40
220.0
 40
221.0
 40
221.0
 40
222.0
 40
222.0
 40
223.0
 40
223.0
 40
224.0
 40
224.0
 40
225.0
 40
225.0
 40
226.0
 40
226.0
 40
227.0
 40
227.0
 40
228.0
 40
228.0
 40
229.0
 40
229.0
 40
230.0
 40
230.0
 40
231.0
 40
231.0
 40
232.0
 40
232.0
 40
233.0
 40
233.0
 40
234.0
 40
234.0
 40
235.0
 40
235.0
 40
236.0
 40
236.0
 40
237.0
 40
237.0
 40
238.0
 40
238.0
 40
239.0
 40
239.0
 40
240.0
 40
240.0
 40
241.0
 40
241.0
 40
242.0
 40
242.0
 40
243.0
 40
243.0
 40
244.0
 40
244.0
 40
245.0
 40
245.0
 40
246.0
 40
246.0
 40
247.0
 40
247.0
 40
248.0
 40
248.0
 40
249.0
 40
249.0
 40
250.0
 40
250.0
 40
251.0
 40
251.0
 40
252.0
 40
252.0
 40
253.0
 40
253.0
 40
254.0
 40
254.0
 40
255.0
 40
255.0
 40
256.0
 40
256.0
 40
257.0
 40
257.0
 40
258.0
 40
258.0
 40
259.0
 40
259.0
 40
260.0
 40
260.0
 40
261.0
 40
261.0
 40
262.0
 40
262.0
 40
263.0
 40
263.0
 40
264.0
 40
264.0
 40
265.0
 40
265.0
 40
266.0
 40
266.0
 40
267.0
 40
267.0
 40
268.0
 40
268.0
 40
269.0
 40
269.0
 40
270.0
 40
270.0
 40
271.0
 40
271.0
 40
272.0
 40
272.0
 40
273.0
 40
273.0
 40
274.0
 40
274.0
 40
275.0
 40
275.0
 40
276.0
 40
276.0
 40
277.0
 40
277.0
 40
278.0
 40
278.0
 40
279.0
 40
279.0
 40
280.0
 40
280.0
 40
281.0
 40
281.0
 40
282.0
 40
282.0
 40
283.0
 40
283.0
 40
284.0
 40
284.0
 40
285.0
 40
285.0
 40
286.0
 40
286.0
 40
287.0
 40
287.0
 40
288.0
 40
288.0
 40
289.0
 40
289.0
 40
290.0
 40
290.0
 40
291.0
 40
291.0
 40
292.0
 40
292.0
 40
293.0
 40
293.0
 40
294.0
 40
294.0
 40
295.0
 40
295.0
 40
296.0
 40
296.0
 40
297.0
 40
297.0
 40
298.0
 40
298.0
 40
299.0
 40
299.0
 40
300.0
 40
300.0
 40
301.0
 40
301.0
 40
302.0
 40
302.0
 40
303.0
 40
303.0
 40
304.0
 40
304.0
 40
305.0
 40
305.0
 40
306.0
 40
306.0
 40
307.0
 40
307.0
 40
308.0
 40
308.0
 40
309.0
 40
309.0
 40
310.0
 40
310.0
 40
311.0
 40
311.0
 40
312.0
 40
312.0
 40
313.0
 40
313.0
 40
314.0
 40
314.0
 40
315.0
 40
315.0
 40
316.0
 40
316.0
 40
317.0
 40
317.0
 40
318.0
 40
318.0
 40
319.0
 40
319.0
 40
320.0
 40
320.0
 40
321.0
 40
321.0
 40
322.0
 40
322.0
 40
323.0
 40
323.0
 40
324.0
 40
324.0
 40
325.0
 40
325.0
 40
326.0
 40
326.0
 40
327.0
 40
327.0
 40
328.0
 40
328.0
 40
329.0
 40
329.0
 40
330.0
 40
330.0
 40
331.0
 40
331.0
 40
332.0
 40
332.0
 40
333.0
 40
333.0
 40
334.0
 40
334.0
 40
335.0
 40
335.0
 40
336.0
 40
336.0
 40
337.0
 40
337.0
 40
338.0
 40
338.0
 40
339.0
 40
339.0
 40
340.0
 40
340.0
 40
341.0
 40
341.0
 40
342.0
 40
342.0
 40
343.0
 40
343.0
 40
344.0
 40
344.0
 40
345.0
 40
345.0
 40
346.0
 40
346.0
 40
347.0
 40
347.0
 40
348.0
 40
348.0
 40
349.0
 40
349.0
 40
350.0
 40
350.0
 40
351.0
 40
351.0
 40
352.0
 40
352.0
 40
353.0
 40
353.0
 40
354.0
 40
354.0
 40
355.0
 40
355.0
 40
356.0
 40
356.0
 40
357.0
 40
357.0
 40
358.0
 40
358.0
 40
359.0
 40
359.0
 40
360.0
 40
360.0
 40
361.0
 40
361.0
 40
362.0
 40
362.0
 40
363.0
 40
363.0
 40
364.0
 40
364.0
 40
365.0
 40
365.0
 40
366.0
 40
366.0
 40
367.0
 40
367.0
 40
368.0
 40
368.0
 40
369.0
 40
369.0
 40
370.0
 40
370.0
 40
371.0
 40
371.0
 40
372.0
 40
372.0
 40
373.0
 40
373.0
 40
374.0
 40
374.0
 40
375.0
 40
375.0
 40
376.0
 40
376.0
 40
377.0
 40
377.0
 40
378.0
 40
378.0
 40
379.0
 40
379.0
 40
380.0
 40
380.0
 40
381.0
 40
381.0
 40
382.0
 40
382.0
 40
383.0
 40
383.0
 40
384.0
 40
384.0
 40
385.0
 40
385.0
 40
386.0
 40
386.0
 40
387.0
 40
387.0
 40
388.0
 40
388.0
 40
389.0
 40
389.0
 40
389.0
 10
-20988.4344529345
 20
40751.368964081055
 30
0.0
 41
1.0
 10
-20987.616028825782
 20
40751.368964081055
 30
0.0
 41
1.0
 10
-20986.79760471706
 20
40751.368964081055
 30
0.0
 41
1.0
 10
-20987.211358452576
 20
40750.026337816802
 30
0.0
 41
1.0
 10
-20987.625112188092
 20
40748.683711552556
 30
0.0
 41
1.0
 10
-20987.606772692816
 20
40748.712412325644
 30
0.0
 41
0.9999957264366489
 10
-20987.588265696442
 20
40748.741005375086
 30
0.0
 41
1.0
 10
-20987.557836372129
 20
40748.788018253734
 30
0.0
 41
1.0
 10
-20987.527407047819
 20
40748.835031132374
 30
0.0
 41
1.0
 10
-20987.448041402778
 20
40748.957649939191
 30
0.0
 41
0.9995394069070275
 10
-20987.361383011281
 20
40749.075228000853
 30
0.0
 41
1.0
 10
-20987.325626148984
 20
40749.123742893498
 30
0.0
 41
1.0
 10
-20987.289869286687
 20
40749.172257786144
 30
0.0
 41
1.0
 10
-20987.156142618853
 20
40749.353698061306
 30
0.0
 41
0.9994460617137047
 10
-20987.010642137539
 20
40749.525840458984
 30
0.0
 41
1.0
 10
-20987.006253956599
 20
40749.531032139326
 30
0.0
 41
1.0
 10
-20987.001865775655
 20
40749.536223819669
 30
0.0
 41
1.0
 10
-20986.865141656315
 20
40749.69798285656
 30
0.0
 41
0.9994359394927106
 10
-20986.717867425898
 20
40749.850199057793
 30
0.0
 41
1.0
 10
-20986.715484071945
 20
40749.852662388163
 30
0.0
 41
1.0
 10
-20986.713100717996
 20
40749.855125718539
 30
0.0
 41
1.0
 10
-20986.570593195516
 20
40750.00241525899
 30
0.0
 41
0.9995293688571223
 10
-20986.419321514564
 20
40750.140688471125
 30
0.0
 41
1.0
 10
-20986.400027755357
 20
40750.158324356729
 30
0.0
 41
1.0
 10
-20986.380733996153
 20
40750.175960242326
 30
0.0
 41
1.0
 10
-20986.268049833678
 20
40750.278961683209
 30
0.0
 41
0.9997087614804944
 10
-20986.150526944628
 20
40750.376405964082
 30
0.0
 41
1.0
 10
-20986.131360871455
 20
40750.392297542581
 30
0.0
 41
1.0
 10
-20986.112194798287
 20
40750.408189121088
 30
0.0
 41
1.0
 10
-20986.033004055582
 20
40750.473850244955
 30
0.0
 41
0.9999595338692019
 10
-20985.952644784818
 20
40750.538075975535
 30
0.0
 41
1.0
 10
-20985.872285514077
 20
40750.602301706109
 30
0.0
 41
0.9999749417495808
 10
-20985.791024979593
 20
40750.665383260159
 30
0.0
 41
1.0
 10
-20985.770038833412
 20
40750.681674547479
 30
0.0
 41
1.0
 10
-20985.749052687228
 20
40750.697965834792
 30
0.0
 41
1.0
 10
-20985.664484801957
 20
40750.763614844611
 30
0.0
 41
0.9999792037125496
 10
-20985.579077202216
 20
40750.828167626234
 30
0.0
 41
1.0
 10
-20985.558252376417
 20
40750.843907448405
 30
0.0
 41
1.0
 10
-20985.537427550618
 20
40750.859647270576
 30
0.0
 41
1.0
 10
-20985.493669601798
 20
40750.892720408367
 30
0.0
 41
0.9999993373924198
 10
-20985.449987916301
 20
40750.925894203305
 30
0.0
 41
1.0
 10
-20985.406306230037
 20
40750.95906799881
 30
0.0
 41
0.99991609538209
 10
-20985.361779818999
 20
40750.991099064093
 30
0.0
 41
1.0
 10
-20985.328957931699
 20
40751.014710219592
 30
0.0
 41
1.0
 10
-20985.296136044402
 20
40751.03832137509
 30
0.0
 41
1.0
 10
-20985.185965858647
 20
40751.117574751464
 30
0.0
 41
0.9980964527207482
 10
-20985.066876865145
 20
40751.182662224317
 30
0.0
 41
1.0
 10
-20985.029844258206
 20
40751.202902203921
 30
0.0
 41
1.0
 10
-20984.992811651264
 20
40751.223142183517
 30
0.0
 41
1.0
 10
-20984.813484637991
 20
40751.321152434211
 30
0.0
 41
0.9984572810576349
 10
-20984.624396071653
 20
40751.398674695549
 30
0.0
 41
1.0
 10
-20984.620749802314
 20
40751.400169587869
 30
0.0
 41
1.0
 10
-20984.617103532972
 20
40751.401664480181
 30
0.0
 41
1.0
 10
-20984.435307505355
 20
40751.476196956879
 30
0.0
 41
0.9987838528027313
 10
-20984.247054846735
 20
40751.532462597068
 30
0.0
 41
1.0
 10
-20984.242816897535
 20
40751.533729250761
 30
0.0
 41
1.0
 10
-20984.238578948334
 20
40751.534995904447
 30
0.0
 41
1.0
 10
-20984.058802188189
 20
40751.588728237228
 30
0.0
 41
0.9990652816206319
 10
-20983.87505625646
 20
40751.626731916767
 30
0.0
 41
1.0
 10
-20983.869867855421
 20
40751.627805019874
 30
0.0
 41
1.0
 10
-20983.864679454386
 20
40751.628878122981
 30
0.0
 41
1.0
 10
-20983.691310324728
 20
40751.664735596314
 30
0.0
 41
0.9992909934264519
 10
-20983.515734558285
 20
40751.68744602878
 30
0.0
 41
1.0
 10
-20983.340158791783
 20
40751.710156461246
 30
0.0
 41
0.9994553539451264
 10
-20983.163467358645
 20
40751.721235765457
 30
0.0
 41
1.0
 10
-20983.128032950954
 20
40751.723457653497
 30
0.0
 41
1.0
 10
-20983.092598543259
 20
40751.725679541545
 30
0.0
 41
1.0
 10
-20982.92637277663
 20
40751.736102603958
 30
0.0
 41
0.9990928098300921
 10
-20982.759862984669
 20
40751.732342962729
 30
0.0
 41
1.0
 10
-20982.721301149293
 20
40751.731472271189
 30
0.0
 41
1.0
 10
-20982.682739313917
 20
40751.730601579657
 30
0.0
 41
1.0
 10
-20982.593353192664
 20
40751.728583321485
 30
0.0
 41
0.9998382089205503
 10
-20982.504097509984
 20
40751.72335119496
 30
0.0
 41
1.0
 10
-20982.503667603763
 20
40751.723325994055
 30
0.0
 41
1.0
 10
-20982.503237697547
 20
40751.723300793157
 30
0.0
 41
1.0
 10
-20982.414841827198
 20
40751.718119068435
 30
0.0
 41
0.9997558016753929
 10
-20982.326761249995
 20
40751.709036553068
 30
0.0
 41
1.0
 10
-20982.326285111445
 20
40751.708987455568
 30
0.0
 41
1.0
 10
-20982.325808972895
 20
40751.708938358075
 30
0.0
 41
1.0
 10
-20982.238680672683
 20
40751.699954037686
 30
0.0
 41
0.9996565144189947
 10
-20982.152142819454
 20
40751.686416731012
 30
0.0
 41
1.0
 10
-20982.151676894035
 20
40751.686343845271
 30
0.0
 41
1.0
 10
-20982.151210968615
 20
40751.686270959537
 30
0.0
 41
1.0
 10
-20982.065604966068
 20
40751.672879424317
 30
0.0
 41
0.9995321806867824
 10
-20981.980977885782
 20
40751.654278935894
 30
0.0
 41
1.0
 10
-20981.980588691251
 20
40751.654193393435
 30
0.0
 41
1.0
 10
-20981.98019949672
 20
40751.654107850984
 30
0.0
 41
1.0
 10
-20981.896350805509
 20
40751.635678447477
 30
0.0
 41
0.9993819199229319
 10
-20981.814004271258
 20
40751.611403064206
 30
0.0
 41
1.0
 10
-20981.813765837775
 20
40751.611332775101
 30
0.0
 41
1.0
 10
-20981.813527404294
 20
40751.611262485996
 30
0.0
 41
1.0
 10
-20981.731657737077
 20
40751.587127680948
 30
0.0
 41
0.9992088568509432
 10
-20981.651965218072
 20
40751.556562445148
 30
0.0
 41
1.0
 10
-20981.572284227193
 20
40751.526002844417
 30
0.0
 41
0.9990226101774152
 10
-20981.495613557287
 20
40751.488525412802
 30
0.0
 41
1.0
 10
-20981.418954415491
 20
40751.451053616249
 30
0.0
 41
0.9988424273967278
 10
-20981.346250788287
 20
40751.406388841002
 30
0.0
 41
1.0
 10
-20981.345983079904
 20
40751.406224376929
 30
0.0
 41
1.0
 10
-20981.345715371521
 20
40751.40605991285
 30
0.0
 41
1.0
 10
-20981.272476327504
 20
40751.361066209414
 30
0.0
 41
0.998692884452776
 10
-20981.20421346078
 20
40751.308830475129
 30
0.0
 41
1.0
 10
-20981.203632168588
 20
40751.30838566192
 30
0.0
 41
1.0
 10
-20981.203050876393
 20
40751.307940848717
 30
0.0
 41
1.0
 10
-20981.133625425246
 20
40751.254815487991
 30
0.0
 41
0.998600726227757
 10
-20981.070199255482
 20
40751.194654718303
 30
0.0
 41
1.0
 10
-20981.069304840021
 20
40751.193806350464
 30
0.0
 41
1.0
 10
-20981.068410424556
 20
40751.192957982625
 30
0.0
 41
1.0
 10
-20981.003195423862
 20
40751.131100477251
 30
0.0
 41
0.9985581491373965
 10
-20980.944987812156
 20
40751.062607986969
 30
0.0
 41
1.0
 10
-20980.935729358571
 20
40751.051713629276
 30
0.0
 41
1.0
 10
-20980.926470904982
 20
40751.040819271584
 30
0.0
 41
1.0
 10
-20980.849746386073
 20
40750.950538065881
 30
0.0
 41
0.9970460233558527
 10
-20980.787754484914
 20
40750.849570981707
 30
0.0
 41
1.0
 10
-20980.773285119838
 20
40750.826004522627
 30
0.0
 41
1.0
 10
-20980.758815754758
 20
40750.802438063547
 30
0.0
 41
1.0
 10
-20980.71907905475
 20
40750.737718339522
 30
0.0
 41
0.9988468816638078
 10
-20980.685732684004
 20
40750.669485887105
 30
0.0
 41
1.0
 10
-20980.678696661529
 20
40750.655088965999
 30
0.0
 41
1.0
 10
-20980.671660639055
 20
40750.640692044901
 30
0.0
 41
1.0
 10
-20980.652386313268
 20
40750.60125343471
 30
0.0
 41
0.9998431189997721
 10
-20980.634520985761
 20
40750.561156880234
 30
0.0
 41
1.0
 10
-20980.616655658978
 20
40750.521060327403
 30
0.0
 41
0.9999989989651703
 10
-20980.598676935315
 20
40750.481014489262
 30
0.0
 41
1.0
 10
-20980.592504623484
 20
40750.467266271924
 30
0.0
 41
1.0
 10
-20980.586332311654
 20
40750.453518054579
 30
0.0
 41
1.0
 10
-20980.556008965039
 20
40750.385975783363
 30
0.0
 41
0.9998790356323269
 10
-20980.527801084889
 20
40750.317523031401
 30
0.0
 41
1.0
 10
-20980.520965903634
 20
40750.300935930041
 30
0.0
 41
1.0
 10
-20980.514130722378
 20
40750.284348828682
 30
0.0
 41
1.0
 10
-20980.490573059946
 20
40750.227180873662
 30
0.0
 41
0.9998227574564772
 10
-20980.469184311565
 20
40750.169166565422
 30
0.0
 41
1.0
 10
-20980.447795563192
 20
40750.111152257181
 30
0.0
 41
0.9996797971052367
 10
-20980.429369278238
 20
40750.052130138087
 30
0.0
 41
1.0
 10
-20980.425465475502
 20
40750.039625679885
 30
0.0
 41
1.0
 10
-20980.421561672767
 20
40750.02712122169
 30
0.0
 41
1.0
 10
-20980.39532778236
 20
40749.943090186251
 30
0.0
 41
0.997927493871455
 10
-20980.380103258878
 20
40749.856385827552
 30
0.0
 41
1.0
 10
-20980.377879571613
 20
40749.843721826721
 30
0.0
 41
1.0
 10
-20980.375655884349
 20
40749.831057825882
 30
0.0
 41
1.0
 10
-20980.364725944662
 20
40749.768811318667
 30
0.0
 41
0.9994985982141145
 10
-20980.357757779479
 20
40749.705997817495
 30
0.0
 41
1.0
 10
-20980.350789614302
 20
40749.643184316403
 30
0.0
 41
0.9996372611186992
 10
-20980.347213748537
 20
40749.580086737769
 30
0.0
 41
1.0
 10
-20980.347045171045
 20
40749.577112120634
 30
0.0
 41
1.0
 10
-20980.346876593554
 20
40749.574137503507
 30
0.0
 41
1.0
 10
-20980.342963572803
 20
40749.50509069048
 30
0.0
 41
0.9997730630737631
 10
-20980.341995259321
 20
40749.435939866438
 30
0.0
 41
1.0
 10
-20980.341938152902
 20
40749.431861687393
 30
0.0
 41
1.0
 10
-20980.341881046486
 20
40749.427783508349
 30
0.0
 41
1.0
 10
-20980.340798520159
 20
40749.350476326195
 30
0.0
 41
0.9998772614068547
 10
-20980.342138606888
 20
40749.273173179783
 30
0.0
 41
1.0
 10
-20980.342227870089
 20
40749.268024015786
 30
0.0
 41
1.0
 10
-20980.342317133291
 20
40749.262874851789
 30
0.0
 41
1.0
 10
-20980.343835746411
 20
40749.175273377848
 30
0.0
 41
0.9999415567325857
 10
-20980.34724805666
 20
40749.08772521613
 30
0.0
 41
1.0
 10
-20980.347489377338
 20
40749.081533756267
 30
0.0
 41
1.0
 10
-20980.34773069802
 20
40749.075342296404
 30
0.0
 41
1.0
 10
-20980.351625649622
 20
40748.975411215026
 30
0.0
 41
0.9999716810427329
 10
-20980.35702423273
 20
40748.875550077064
 30
0.0
 41
1.0
 10
-20980.360237031513
 20
40748.816120827512
 30
0.0
 41
1.0
 10
-20980.363449830296
 20
40748.756691577953
 30
0.0
 41
1.0
 10
-20980.371523739468
 20
40748.607343176249
 30
0.0
 41
0.9999819129899897
 10
-20980.381393531075
 20
40748.458102698722
 30
0.0
 41
1.0
 10
-20980.391263322694
 20
40748.308862221013
 30
0.0
 41
1.0
 10
-20980.393702643261
 20
40748.271669175163
 30
0.0
 41
1.0
 10
-20980.371004410139
 20
40748.310410171282
 30
0.0
 41
0.9999982128133694
 10
-20980.348159852081
 20
40748.34906506406
 30
0.0
 41
1.0
 10
-20980.32125029149
 20
40748.394598279308
 30
0.0
 41
1.0
 10
-20980.294340730903
 20
40748.440131494557
 30
0.0
 41
1.0
 10
-20980.21767705222
 20
40748.569852816872
 30
0.0
 41
0.9998609190063408
 10
-20980.136729739203
 20
40748.696945199044
 30
0.0
 41
1.0
 10
-20980.107081417707
 20
40748.743494932016
 30
0.0
 41
1.0
 10
-20980.077433096216
 20
40748.790044664995
 30
0.0
 41
1.0
 10
-20979.99516087614
 20
40748.919217234725
 30
0.0
 41
0.9999067609737211
 10
-20979.909391866851
 20
40749.046094923906
 30
0.0
 41
1.0
 10
-20979.906987163686
 20
40749.049652189904
 30
0.0
 41
1.0
 10
-20979.90458246052
 20
40749.053209455909
 30
0.0
 41
1.0
 10
-20979.823622857424
 20
40749.172972613298
 30
0.0
 41
0.9998784952145758
 10
-20979.738969247708
 20
40749.290153830058
 30
0.0
 41
1.0
 10
-20979.654315638032
 20
40749.407335046766
 30
0.0
 41
0.9998532968282262
 10
-20979.565698017213
 20
40749.521547955228
 30
0.0
 41
1.0
 10
-20979.545736228189
 20
40749.547275276287
 30
0.0
 41
1.0
 10
-20979.52577443916
 20
40749.573002597353
 30
0.0
 41
1.0
 10
-20979.407290389423
 20
40749.725708208287
 30
0.0
 41
0.9991551975804094
 10
-20979.276665939837
 20
40749.868167770328
 30
0.0
 41
1.0
 10
-20979.273156323827
 20
40749.871995371985
 30
0.0
 41
1.0
 10
-20979.269646707813
 20
40749.875822973649
 30
0.0
 41
1.0
 10
-20979.146041490178
 20
40750.010627332442
 30
0.0
 41
0.9997418144186202
 10
-20979.016439350511
 20
40750.139676743027
 30
0.0
 41
1.0
 10
-20978.886837210845
 20
40750.268726153605
 30
0.0
 41
0.9989238204633619
 10
-20978.745834662623
 20
40750.385211115623
 30
0.0
 41
1.0
 10
-20978.700586984443
 20
40750.422591107264
 30
0.0
 41
1.0
 10
-20978.65533930626
 20
40750.459971098906
 30
0.0
 41
1.0
 10
-20978.515099249027
 20
40750.575826152206
 30
0.0
 41
0.9990825084096193
 10
-20978.365459316454
 20
40750.679255150018
 30
0.0
 41
1.0
 10
-20978.355413952446
 20
40750.686198363066
 30
0.0
 41
1.0
 10
-20978.345368588438
 20
40750.693141576114
 30
0.0
 41
1.0
 10
-20978.215819383899
 20
40750.782684147824
 30
0.0
 41
0.999816489983088
 10
-20978.082935180479
 20
40750.867198389373
 30
0.0
 41
1.0
 10
-20978.071089619989
 20
40750.874732155877
 30
0.0
 41
1.0
 10
-20978.059244059499
 20
40750.882265922381
 30
0.0
 41
1.0
 10
-20977.950050977139
 20
40750.951712630864
 30
0.0
 41
0.9997473449129769
 10
-20977.837847019851
 20
40751.016181588697
 30
0.0
 41
1.0
 10
-20977.725643062608
 20
40751.080650546508
 30
0.0
 41
0.9999327861140187
 10
-20977.611974451844
 20
40751.14250053819
 30
0.0
 41
1.0
 10
-20977.611422449278
 20
40751.142800896872
 30
0.0
 41
1.0
 10
-20977.610870446715
 20
40751.143101255555
 30
0.0
 41
1.0
 10
-20977.496097830834
 20
40751.205551964595
 30
0.0
 41
0.9996956420486737
 10
-20977.378384504947
 20
40751.262265431593
 30
0.0
 41
1.0
 10
-20977.347944100089
 20
40751.276931408305
 30
0.0
 41
1.0
 10
-20977.317503695231
 20
40751.291597385018
 30
0.0
 41
1.0
 10
-20977.214526588476
 20
40751.341211043466
 30
0.0
 41
0.9998070570174462
 10
-20977.109680199523
 20
40751.386741630369
 30
0.0
 41
1.0
 10
-20977.004833810573
 20
40751.432272217273
 30
0.0
 41
0.9997827436146468
 10
-20976.898180873955
 20
40751.473393388587
 30
0.0
 41
1.0
 10
-20976.878958024332
 20
40751.480804962222
 30
0.0
 41
1.0
 10
-20976.859735174708
 20
40751.48821653585
 30
0.0
 41
1.0
 10
-20976.714636538851
 20
40751.544160854428
 30
0.0
 41
0.9988031841966494
 10
-20976.564766176256
 20
40751.585660918587
 30
0.0
 41
1.0
 10
-20976.539848927903
 20
40751.592560664394
 30
0.0
 41
1.0
 10
-20976.514931679551
 20
40751.599460410202
 30
0.0
 41
1.0
 10
-20976.347661653876
 20
40751.645778552615
 30
0.0
 41
0.998474804055299
 10
-20976.176304745208
 20
40751.673372784877
 30
0.0
 41
1.0
 10
-20976.171565608911
 20
40751.674135945403
 30
0.0
 41
1.0
 10
-20976.166826472614
 20
40751.674899105921
 30
0.0
 41
1.0
 10
-20976.004947836507
 20
40751.700967017146
 30
0.0
 41
0.9984436495494589
 10
-20975.841173092835
 20
40751.70884497097
 30
0.0
 41
1.0
 10
-20975.819475884731
 20
40751.709888658166
 30
0.0
 41
1.0
 10
-20975.797778676628
 20
40751.71093234537
 30
0.0
 41
1.0
 10
-20975.677398349133
 20
40751.716722924786
 30
0.0
 41
0.9987954789335313
 10
-20975.557030104199
 20
40751.71068639704
 30
0.0
 41
1.0
 10
-20975.537065311706
 20
40751.709685152702
 30
0.0
 41
1.0
 10
-20975.51710051921
 20
40751.708683908364
 30
0.0
 41
1.0
 10
-20975.43666185929
 20
40751.704649869302
 30
0.0
 41
0.9997941595869292
 10
-20975.356453081196
 20
40751.697355803379
 30
0.0
 41
1.0
 10
-20975.276244303153
 20
40751.690061737463
 30
0.0
 41
0.9998589466240707
 10
-20975.196325756351
 20
40751.680077883022
 30
0.0
 41
1.0
 10
-20975.163919554492
 20
40751.676029526097
 30
0.0
 41
1.0
 10
-20975.13151335263
 20
40751.671981169173
 30
0.0
 41
1.0
 10
-20974.986782402095
 20
40751.653900600868
 30
0.0
 41
0.9993495063256194
 10
-20974.843731158275
 20
40751.625434891117
 30
0.0
 41
1.0
 10
-20974.810797461301
 20
40751.618881427938
 30
0.0
 41
1.0
 10
-20974.777863764324
 20
40751.612327964758
 30
0.0
 41
1.0
 10
-20974.668569941012
 20
40751.590579630603
 30
0.0
 41
0.9996788715559376
 10
-20974.560518368926
 20
40751.563321831214
 30
0.0
 41
1.0
 10
-20974.558455366361
 20
40751.562801404638
 30
0.0
 41
1.0
 10
-20974.556392363796
 20
40751.562280978054
 30
0.0
 41
1.0
 10
-20974.452466796949
 20
40751.536064031839
 30
0.0
 41
0.9995480654500265
 10
-20974.35030456174
 20
40751.503649075225
 30
0.0
 41
1.0
 10
-20974.348614919654
 20
40751.503112970327
 30
0.0
 41
1.0
 10
-20974.346925277565
 20
40751.502576865423
 30
0.0
 41
1.0
 10
-20974.248142326556
 20
40751.47123411861
 30
0.0
 41
0.99938679594705
 10
-20974.151795168069
 20
40751.433054749308
 30
0.0
 41
1.0
 10
-20974.150552218991
 20
40751.43256220741
 30
0.0
 41
1.0
 10
-20974.149309269917
 20
40751.43206966552
 30
0.0
 41
1.0
 10
-20974.055448009618
 20
40751.394875380014
 30
0.0
 41
0.9992050256523626
 10
-20973.964848334592
 20
40751.350321480786
 30
0.0
 41
1.0
 10
-20973.964113651891
 20
40751.34996018833
 30
0.0
 41
1.0
 10
-20973.963378969191
 20
40751.349598895875
 30
0.0
 41
1.0
 10
-20973.874248659587
 20
40751.305767581558
 30
0.0
 41
0.9990222350743845
 10
-20973.789338598166
 20
40751.254234313848
 30
0.0
 41
1.0
 10
-20973.789154712893
 20
40751.254122710947
 30
0.0
 41
1.0
 10
-20973.78897082762
 20
40751.254011108053
 30
0.0
 41
1.0
 10
-20973.704428536788
 20
40751.202701046153
 30
0.0
 41
0.9988642743820115
 10
-20973.625154002155
 20
40751.143576858623
 30
0.0
 41
1.0
 10
-20973.54587946754
 20
40751.084452671093
 30
0.0
 41
0.9987681233319404
 10
-20973.472855683256
 20
40751.017761979689
 30
0.0
 41
1.0
 10
-20973.472526755293
 20
40751.017461578478
 30
0.0
 41
1.0
 10
-20973.47219782733
 20
40751.017161177268
 30
0.0
 41
1.0
 10
-20973.398516187113
 20
40750.949869683434
 30
0.0
 41
0.9987496570898227
 10
-20973.331922381774
 20
40750.87555686933
 30
0.0
 41
1.0
 10
-20973.331150212023
 20
40750.874695195984
 30
0.0
 41
1.0
 10
-20973.330378042272
 20
40750.873833522637
 30
0.0
 41
1.0
 10
-20973.262239897424
 20
40750.797797361825
 30
0.0
 41
0.9988147669845731
 10
-20973.201817643188
 20
40750.715496354976
 30
0.0
 41
1.0
 10
-20973.200698317116
 20
40750.713971723628
 30
0.0
 41
1.0
 10
-20973.199578991043
 20
40750.712447092286
 30
0.0
 41
1.0
 10
-20973.136918084652
 20
40750.627096822725
 30
0.0
 41
0.998945263621467
 10
-20973.082351171681
 20
40750.53635813354
 30
0.0
 41
1.0
 10
-20973.081002445604
 20
40750.53411535253
 30
0.0
 41
1.0
 10
-20973.079653719527
 20
40750.531872571519
 30
0.0
 41
1.0
 10
-20973.02238935441
 20
40750.436648320341
 30
0.0
 41
0.9991046436061231
 10
-20972.973380141098
 20
40750.336923887335
 30
0.0
 41
1.0
 10
-20972.971916279497
 20
40750.33394520724
 30
0.0
 41
1.0
 10
-20972.970452417896
 20
40750.330966527144
 30
0.0
 41
1.0
 10
-20972.918515481419
 20
40750.225284734042
 30
0.0
 41
0.9992763831087368
 10
-20972.874762352858
 20
40750.115960672068
 30
0.0
 41
1.0
 10
-20972.873283083187
 20
40750.112264484516
 30
0.0
 41
1.0
 10
-20972.871803813512
 20
40750.108568296957
 30
0.0
 41
1.0
 10
-20972.825092145631
 20
40749.991851859937
 30
0.0
 41
0.9994163472874499
 10
-20972.786459114446
 20
40749.872218271477
 30
0.0
 41
1.0
 10
-20972.7852209622
 20
40749.868384127694
 30
0.0
 41
1.0
 10
-20972.783982809957
 20
40749.864549983919
 30
0.0
 41
1.0
 10
-20972.74409924895
 20
40749.741043922499
 30
0.0
 41
0.9997268055881883
 10
-20972.710031193019
 20
40749.61580889047
 30
0.0
 41
1.0
 10
-20972.709101012751
 20
40749.612389524365
 30
0.0
 41
1.0
 10
-20972.708170832484
 20
40749.608970158268
 30
0.0
 41
1.0
 10
-20972.675963137113
 20
40749.490573858529
 30
0.0
 41
0.9996701319005096
 10
-20972.649877520336
 20
40749.37067990526
 30
0.0
 41
1.0
 10
-20972.623791903559
 20
40749.250785951976
 30
0.0
 41
0.9995785451107184
 10
-20972.604708326216
 20
40749.129580190907
 30
0.0
 41
1.0
 10
-20972.600488544042
 20
40749.10277903614
 30
0.0
 41
1.0
 10
-20972.596268761867
 20
40749.075977881374
 30
0.0
 41
1.0
 10
-20972.569693785939
 20
40748.907191907696
 30
0.0
 41
0.9979925101222993
 10
-20972.564668200015
 20
40748.736400579633
 30
0.0
 41
1.0
 10
-20972.563843387594
 20
40748.708369856227
 30
0.0
 41
1.0
 10
-20972.563018575169
 20
40748.680339132821
 30
0.0
 41
1.0
 10
-20972.559642614084
 20
40748.565609251556
 30
0.0
 41
0.9995314902252332
 10
-20972.563292806226
 20
40748.450887767787
 30
0.0
 41
1.0
 10
-20972.566942998368
 20
40748.336166283996
 30
0.0
 41
0.9996245486949777
 10
-20972.576872093512
 20
40748.221817012702
 30
0.0
 41
1.0
 10
-20972.577035141498
 20
40748.219939256676
 30
0.0
 41
1.0
 10
-20972.577198189483
 20
40748.218061500651
 30
0.0
 41
1.0
 10
-20972.587453380595
 20
40748.099956717335
 30
0.0
 41
0.9997286095005538
 10
-20972.603198704172
 20
40747.982457808357
 30
0.0
 41
1.0
 10
-20972.603592196821
 20
40747.979521383655
 30
0.0
 41
1.0
 10
-20972.603985689471
 20
40747.976584958953
 30
0.0
 41
1.0
 10
-20972.620517998374
 20
40747.853213200498
 30
0.0
 41
0.9998265533976987
 10
-20972.6416334571
 20
40747.730542725745
 30
0.0
 41
1.0
 10
-20972.642309999224
 20
40747.726612347295
 30
0.0
 41
1.0
 10
-20972.642986541352
 20
40747.722681968851
 30
0.0
 41
1.0
 10
-20972.665455084367
 20
40747.592150737015
 30
0.0
 41
0.9999022530855776
 10
-20972.691564548979
 20
40747.462298768362
 30
0.0
 41
1.0
 10
-20972.69254319014
 20
40747.457431625997
 30
0.0
 41
1.0
 10
-20972.693521831301
 20
40747.452564483632
 30
0.0
 41
1.0
 10
-20972.721588578297
 20
40747.312978229995
 30
0.0
 41
0.9999524761936651
 10
-20972.7523715471
 20
40747.173965736962
 30
0.0
 41
1.0
 10
-20972.753647654266
 20
40747.168202977708
 30
0.0
 41
1.0
 10
-20972.754923761429
 20
40747.162440218453
 30
0.0
 41
1.0
 10
-20972.788258944529
 20
40747.01190220705
 30
0.0
 41
0.9999813588723021
 10
-20972.823429945238
 20
40746.861782494743
 30
0.0
 41
1.0
 10
-20972.824983870778
 20
40746.85514990396
 30
0.0
 41
1.0
 10
-20972.826537796322
 20
40746.848517313178
 30
0.0
 41
1.0
 10
-20972.864816648085
 20
40746.685132419458
 30
0.0
 41
0.999995523774316
 10
-20972.904072526118
 20
40746.52197951563
 30
0.0
 41
1.0
 10
-20972.916354161702
 20
40746.470935325327
 30
0.0
 41
1.0
 10
-20972.928635797281
 20
40746.419891135025
 30
0.0
 41
1.0
 10
-20972.99245494658
 20
40746.15464985017
 30
0.0
 41
0.9999993604645302
 10
-20973.056873893816
 20
40745.889553599205
 30
0.0
 41
1.0
 10
-20973.061592729304
 20
40745.870134691409
 30
0.0
 41
1.0
 10
-20973.066311564791
 20
40745.850715783614
 30
0.0
 41
1.0
 10
-20973.140168183036
 20
40745.546781716912
 30
0.0
 41
0.999965991473174
 10
-20973.219027778905
 20
40745.244107170409
 30
0.0
 41
1.0
 10
-20973.223980467854
 20
40745.225098033166
 30
0.0
 41
1.0
 10
-20973.228933156799
 20
40745.206088895924
 30
0.0
 41
1.0
 10
-20973.317698130486
 20
40744.865396075205
 30
0.0
 41
0.9999441976023125
 10
-20973.413641163483
 20
40744.526654649795
 30
0.0
 41
1.0
 10
-20973.43034168192
 20
40744.467690937221
 30
0.0
 41
1.0
 10
-20973.447042200358
 20
40744.408727224654
 30
0.0
 41
1.0
 10
-20973.576386270161
 20
40743.952058374336
 30
0.0
 41
0.9999625120736428
 10
-20973.71361903748
 20
40743.497697840365
 30
0.0
 41
1.0
 10
-20973.749408980628
 20
40743.379201813528
 30
0.0
 41
1.0
 10
-20973.785198923772
 20
40743.260705786684
 30
0.0
 41
1.0
 10
-20973.859719127682
 20
40743.01397870903
 30
0.0
 41
0.9999793386316007
 10
-20973.937405150842
 20
40742.768230069712
 30
0.0
 41
1.0
 10
-20974.015091173977
 20
40742.522481430475
 30
0.0
 41
1.0
 10
-20974.02587073285
 20
40742.488463526104
 30
0.0
 41
1.0
 10
-20975.876243786119
 20
40736.601391603632
 30
0.0
 41
1.0
 10
-20977.726616839387
 20
40730.714319681167
 30
0.0
 41
1.0
 10
-20978.687873529409
 20
40730.714319681167
 30
0.0
 41
1.0
 10
-20979.649130219434
 20
40730.714319681167
 30
0.0
 41
1.0
 10
-20978.030185440755
 20
40735.862348182956
 30
0.0
 41
1.0
 10
-20976.411240662077
 20
40741.010376684746
 30
0.0
 41
1.0
 10
-20976.36607483885
 20
40741.154407907183
 30
0.0
 41
1.0
 10
-20976.320909015623
 20
40741.29843912962
 30
0.0
 41
1.0
 10
-20976.150604598311
 20
40741.841530158621
 30
0.0
 41
0.9999911657917942
 10
-20975.984871786684
 20
40742.386033689814
 30
0.0
 41
1.0
 10
-20975.955175843239
 20
40742.483597629682
 30
0.0
 41
1.0
 10
-20975.925479899794
 20
40742.581161569549
 30
0.0
 41
1.0
 10
-20975.819138975057
 20
40742.930537221
 30
0.0
 41
0.9999952428157227
 10
-20975.71495538568
 20
40743.280562245527
 30
0.0
 41
1.0
 10
-20975.709895915523
 20
40743.297560519211
 30
0.0
 41
1.0
 10
-20975.704836445366
 20
40743.314558792896
 30
0.0
 41
1.0
 10
-20975.610771796666
 20
40743.630587268832
 30
0.0
 41
0.9999931687497657
 10
-20975.519045958481
 20
40743.947302483146
 30
0.0
 41
1.0
 10
-20975.514110693875
 20
40743.964343192929
 30
0.0
 41
1.0
 10
-20975.509175429266
 20
40743.981383902712
 30
0.0
 41
1.0
 10
-20975.42732012046
 20
40744.264017696922
 30
0.0
 41
0.9999893840791684
 10
-20975.34807289415
 20
40744.547393825662
 30
0.0
 41
1.0
 10
-20975.268825667685
 20
40744.83076995494
 30
0.0
 41
0.9999833980067506
 10
-20975.19284942693
 20
40745.11504053801
 30
0.0
 41
1.0
 10
-20975.183845490221
 20
40745.14872941644
 30
0.0
 41
1.0
 10
-20975.174841553511
 20
40745.182418294869
 30
0.0
 41
1.0
 10
-20975.105877004611
 20
40745.440454127318
 30
0.0
 41
0.9999233658066928
 10
-20975.04332203342
 20
40745.700118285917
 30
0.0
 41
1.0
 10
-20974.980767062199
 20
40745.959782444639
 30
0.0
 41
1.0
 10
-20974.94128364334
 20
40746.123589109062
 30
0.0
 41
1.0
 10
-20974.936305039351
 20
40746.14424407098
 30
0.0
 41
1.0
 10
-20974.931326435362
 20
40746.164899032905
 30
0.0
 41
1.0
 10
-20974.901800224474
 20
40746.287395773543
 30
0.0
 41
0.9999868670858674
 10
-20974.873531140489
 20
40746.410188719135
 30
0.0
 41
1.0
 10
-20974.869633653383
 20
40746.42711830631
 30
0.0
 41
1.0
 10
-20974.865736166281
 20
40746.444047893492
 30
0.0
 41
1.0
 10
-20974.845262056486
 20
40746.532981664794
 30
0.0
 41
0.9999778173345036
 10
-20974.825974458377
 20
40746.622180282007
 30
0.0
 41
1.0
 10
-20974.806686860229
 20
40746.711378899396
 30
0.0
 41
0.9999602692859009
 10
-20974.78899250157
 20
40746.800907187971
 30
0.0
 41
1.0
 10
-20974.785788669524
 20
40746.817117642706
 30
0.0
 41
1.0
 10
-20974.782584837478
 20
40746.83332809744
 30
0.0
 41
1.0
 10
-20974.758482814676
 20
40746.955277295689
 30
0.0
 41
0.9995617985304516
 10
-20974.741639467476
 20
40747.078439043318
 30
0.0
 41
1.0
 10
-20974.739174977563
 20
40747.096459860739
 30
0.0
 41
1.0
 10
-20974.736710487647
 20
40747.114480678159
 30
0.0
 41
1.0
 10
-20974.716427226609
 20
40747.262795727824
 30
0.0
 41
0.9991121410648333
 10
-20974.708701873024
 20
40747.412291826578
 30
0.0
 41
1.0
 10
-20974.707783082995
 20
40747.430071663199
 30
0.0
 41
1.0
 10
-20974.70686429297
 20
40747.447851499812
 30
0.0
 41
1.0
 10
-20974.700976519431
 20
40747.561787925428
 30
0.0
 41
0.9989792494894737
 10
-20974.705395611552
 20
40747.675790761285
 30
0.0
 41
1.0
 10
-20974.706043583421
 20
40747.692507007268
 30
0.0
 41
1.0
 10
-20974.706691555293
 20
40747.709223253252
 30
0.0
 41
1.0
 10
-20974.709814703678
 20
40747.789793597251
 30
0.0
 41
0.9997820295403206
 10
-20974.716298701045
 20
40747.870163318934
 30
0.0
 41
1.0
 10
-20974.722782698416
 20
40747.950533040581
 30
0.0
 41
0.9998335105986016
 10
-20974.732194893932
 20
40748.030612657138
 30
0.0
 41
1.0
 10
-20974.733789818609
 20
40748.044182387617
 30
0.0
 41
1.0
 10
-20974.735384743282
 20
40748.057752118089
 30
0.0
 41
1.0
 10
-20974.747986788152
 20
40748.164971195525
 30
0.0
 41
0.999687645788116
 10
-20974.765930700953
 20
40748.271426623258
 30
0.0
 41
1.0
 10
-20974.768162364089
 20
40748.284666358435
 30
0.0
 41
1.0
 10
-20974.770394027222
 20
40748.29790609362
 30
0.0
 41
1.0
 10
-20974.784189848637
 20
40748.379752237561
 30
0.0
 41
0.9995547496490821
 10
-20974.802843170553
 20
40748.460629734851
 30
0.0
 41
1.0
 10
-20974.803217127424
 20
40748.462251145553
 30
0.0
 41
1.0
 10
-20974.803591084295
 20
40748.463872556262
 30
0.0
 41
1.0
 10
-20974.821496492452
 20
40748.541507232098
 30
0.0
 41
0.9994899427150606
 10
-20974.844321401124
 20
40748.617840514882
 30
0.0
 41
1.0
 10
-20974.844779927858
 20
40748.619373964655
 30
0.0
 41
1.0
 10
-20974.845238454593
 20
40748.620907414421
 30
0.0
 41
1.0
 10
-20974.867146309785
 20
40748.694173797652
 30
0.0
 41
0.9993784877610052
 10
-20974.894161944911
 20
40748.765714502872
 30
0.0
 41
1.0
 10
-20974.894693635884
 20
40748.767122485573
 30
0.0
 41
1.0
 10
-20974.895225326854
 20
40748.768530468282
 30
0.0
 41
1.0
 10
-20974.921177579996
 20
40748.837255207982
 30
0.0
 41
0.9992430832258852
 10
-20974.952394115178
 20
40748.903754360101
 30
0.0
 41
1.0
 10
-20974.952976231238
 20
40748.904994415221
 30
0.0
 41
1.0
 10
-20974.953558347297
 20
40748.906234470349
 30
0.0
 41
1.0
 10
-20974.983610650339
 20
40748.970253512183
 30
0.0
 41
0.9990789632798628
 10
-20975.019041277112
 20
40749.031460123922
 30
0.0
 41
1.0
 10
-20975.019636983292
 20
40749.032489209785
 30
0.0
 41
1.0
 10
-20975.020232689476
 20
40749.033518295641
 30
0.0
 41
1.0
 10
-20975.054471903906
 20
40749.092666735698
 30
0.0
 41
0.9988874801137599
 10
-20975.094131179918
 20
40749.148326448085
 30
0.0
 41
1.0
 10
-20975.094686705976
 20
40749.14910609975
 30
0.0
 41
1.0
 10
-20975.095242232033
 20
40749.149885751416
 30
0.0
 41
1.0
 10
-20975.133790455933
 20
40749.203986160479
 30
0.0
 41
0.9986762060706129
 10
-20975.177692927227
 20
40749.253839874946
 30
0.0
 41
1.0
 10
-20975.17813688756
 20
40749.254344016765
 30
0.0
 41
1.0
 10
-20975.178580847893
 20
40749.254848158576
 30
0.0
 41
1.0
 10
-20975.221595398489
 20
40749.303693589369
 30
0.0
 41
0.9984621642480077
 10
-20975.269752955282
 20
40749.347476889852
 30
0.0
 41
1.0
 10
-20975.2699995898
 20
40749.347701122017
 30
0.0
 41
1.0
 10
-20975.270246224314
 20
40749.347925354181
 30
0.0
 41
1.0
 10
-20975.317910512047
 20
40749.391260190307
 30
0.0
 41
0.9982724693899521
 10
-20975.370329143901
 20
40749.428704540842
 30
0.0
 41
1.0
 10
-20975.422747775727
 20
40749.466148891348
 30
0.0
 41
0.998139918014488
 10
-20975.479333839143
 20
40749.496935410803
 30
0.0
 41
1.0
 10
-20975.479379501216
 20
40749.496960253964
 30
0.0
 41
1.0
 10
-20975.479425163292
 20
40749.496985097117
 30
0.0
 41
1.0
 10
-20975.536102550846
 20
40749.527821302872
 30
0.0
 41
0.9980927086865878
 10
-20975.596147901928
 20
40749.551438111732
 30
0.0
 41
1.0
 10
-20975.596588071632
 20
40749.551611237606
 30
0.0
 41
1.0
 10
-20975.597028241333
 20
40749.551784363473
 30
0.0
 41
1.0
 10
-20975.657953931812
 20
40749.575747424082
 30
0.0
 41
0.998141135651933
 10
-20975.721342453202
 20
40749.592120065579
 30
0.0
 41
1.0
 10
-20975.722224569916
 20
40749.59234790779
 30
0.0
 41
1.0
 10
-20975.723106686626
 20
40749.592575749994
 30
0.0
 41
1.0
 10
-20975.788259441411
 20
40749.609404075905
 30
0.0
 41
0.9983031812915233
 10
-20975.854926870383
 20
40749.618543437078
 30
0.0
 41
1.0
 10
-20975.863797895778
 20
40749.619759555746
 30
0.0
 41
1.0
 10
-20975.872668921169
 20
40749.620975674421
 30
0.0
 41
1.0
 10
-20975.9270185637
 20
40749.628426404415
 30
0.0
 41
0.9983887708291227
 10
-20975.981862413028
 20
40749.629671078059
 30
0.0
 41
1.0
 10
-20975.989925818052
 20
40749.629854075931
 30
0.0
 41
1.0
 10
-20975.997989223073
 20
40749.630037073803
 30
0.0
 41
1.0
 10
-20976.036706262126
 20
40749.630915751681
 30
0.0
 41
0.9998869563113254
 10
-20976.075432215523
 20
40749.630629882333
 30
0.0
 41
1.0
 10
-20976.114158167878
 20
40749.630344012978
 30
0.0
 41
0.9999972320049135
 10
-20976.152882346243
 20
40749.629875913459
 30
0.0
 41
1.0
 10
-20976.172235363669
 20
40749.629641973355
 30
0.0
 41
1.0
 10
-20976.191588381094
 20
40749.629408033259
 30
0.0
 41
1.0
 10
-20976.269018593521
 20
40749.628472053555
 30
0.0
 41
0.9997304945078785
 10
-20976.346321899822
 20
40749.623942959763
 30
0.0
 41
1.0
 10
-20976.355371541467
 20
40749.623412753775
 30
0.0
 41
1.0
 10
-20976.364421183112
 20
40749.622882547788
 30
0.0
 41
1.0
 10
-20976.45982377269
 20
40749.617293042029
 30
0.0
 41
0.999788830642111
 10
-20976.554916108464
 20
40749.607788077548
 30
0.0
 41
1.0
 10
-20976.563637170104
 20
40749.606916362914
 30
0.0
 41
1.0
 10
-20976.572358231748
 20
40749.606044648273
 30
0.0
 41
1.0
 10
-20976.684892690737
 20
40749.594796254518
 30
0.0
 41
0.9984170238195071
 10
-20976.795451838083
 20
40749.570980172582
 30
0.0
 41
1.0
 10
-20976.831832969037
 20
40749.56314313678
 30
0.0
 41
1.0
 10
-20976.868214099995
 20
40749.555306100985
 30
0.0
 41
1.0
 10
-20976.983405168456
 20
40749.530492234466
 30
0.0
 41
0.9976592854226138
 10
-20977.094133334886
 20
40749.490193557314
 30
0.0
 41
1.0
 10
-20977.204861501297
 20
40749.449894880156
 30
0.0
 41
0.9993255074354158
 10
-20977.31233330012
 20
40749.401577981647
 30
0.0
 41
1.0
 10
-20977.316958479023
 20
40749.39949860546
 30
0.0
 41
1.0
 10
-20977.321583657926
 20
40749.397419229266
 30
0.0
 41
1.0
 10
-20977.438305814565
 20
40749.344943578377
 30
0.0
 41
0.9976475078251162
 10
-20977.54675315888
 20
40749.276995588712
 30
0.0
 41
1.0
 10
-20977.565095553044
 20
40749.265503109884
 30
0.0
 41
1.0
 10
-20977.583437947211
 20
40749.254010631048
 30
0.0
 41
1.0
 10
-20977.667640138734
 20
40749.201253510306
 30
0.0
 41
0.9995131336396887
 10
-20977.748387853655
 20
40749.143347298377
 30
0.0
 41
1.0
 10
-20977.829135568642
 20
40749.085441086398
 30
0.0
 41
0.9995810107603539
 10
-20977.906397216342
 20
40749.022959403948
 30
0.0
 41
1.0
 10
-20977.90936724755
 20
40749.02055753248
 30
0.0
 41
1.0
 10
-20977.912337278762
 20
40749.018155661019
 30
0.0
 41
1.0
 10
-20977.995538988969
 20
40748.950870235574
 30
0.0
 41
0.9996617837950961
 10
-20978.075129676163
 20
40748.879349779963
 30
0.0
 41
1.0
 10
-20978.087260426968
 20
40748.868449047033
 30
0.0
 41
1.0
 10
-20978.09939117777
 20
40748.85754831411
 30
0.0
 41
1.0
 10
-20978.167666705183
 20
40748.796195698618
 30
0.0
 41
0.9997267750057495
 10
-20978.233000213484
 20
40748.731719162082
 30
0.0
 41
1.0
 10
-20978.298333721705
 20
40748.667242625626
 30
0.0
 41
0.9999667288960199
 10
-20978.362606664778
 20
40748.601708818802
 30
0.0
 41
1.0
 10
-20978.431434112619
 20
40748.531531159977
 30
0.0
 41
1.0
 10
-20978.500261560461
 20
40748.461353501152
 30
0.0
 41
1.0
 10
-20978.702189399115
 20
40748.255464376787
 30
0.0
 41
0.9988205335182204
 10
-20978.8831950161
 20
40748.03096014473
 30
0.0
 41
1.0
 10
-20978.913834981024
 20
40747.992956894275
 30
0.0
 41
1.0
 10
-20978.944474945947
 20
40747.954953643821
 30
0.0
 41
1.0
 10
-20979.186760492765
 20
40747.654442910862
 30
0.0
 41
0.9997077826754263
 10
-20979.414238443955
 20
40747.342573116519
 30
0.0
 41
1.0
 10
-20979.415961859027
 20
40747.340210333219
 30
0.0
 41
1.0
 10
-20979.4176852741
 20
40747.337847549919
 30
0.0
 41
1.0
 10
-20979.648610055454
 20
40747.02125218897
 30
0.0
 41
0.9989147567078553
 10
-20979.8490735583
 20
40746.684542727853
 30
0.0
 41
1.0
 10
-20979.873814703591
 20
40746.64298614733
 30
0.0
 41
1.0
 10
-20979.898555848882
 20
40746.601429566799
 30
0.0
 41
1.0
 10
-20980.053767147601
 20
40746.340728182222
 30
0.0
 41
0.9997476598179516
 10
-20980.197112135116
 20
40746.073318433628
 30
0.0
 41
1.0
 10
-20980.340457122653
 20
40745.805908684983
 30
0.0
 41
0.9996258967112286
 10
-20980.468965374563
 20
40745.531060748399
 30
0.0
 41
1.0
 10
-20980.482165283989
 20
40745.502829348348
 30
0.0
 41
1.0
 10
-20980.495365193416
 20
40745.474597948305
 30
0.0
 41
1.0
 10
-20980.635573914478
 20
40745.17472555022
 30
0.0
 41
0.9998735413945501
 10
-20980.766175261175
 20
40744.870545950806
 30
0.0
 41
1.0
 10
-20980.769618089224
 20
40744.862527365367
 30
0.0
 41
1.0
 10
-20980.773060917272
 20
40744.854508779928
 30
0.0
 41
1.0
 10
-20980.89677660794
 20
40744.566366351231
 30
0.0
 41
0.9999377418859952
 10
-20981.014031410068
 20
40744.275534883665
 30
0.0
 41
1.0
 10
-20981.13128621229
 20
40743.984703415859
 30
0.0
 41
0.9999508299510214
 10
-20981.242750155594
 20
40743.691603739244
 30
0.0
 41
1.0
 10
-20981.245830924272
 20
40743.683502713247
 30
0.0
 41
1.0
 10
-20981.248911692946
 20
40743.675401687244
 30
0.0
 41
1.0
 10
-20981.366537173653
 20
40743.36609995849
 30
0.0
 41
0.9999609228425055
 10
-20981.478675776663
 20
40743.054766942085
 30
0.0
 41
1.0
 10
-20981.481631786941
 20
40743.046560101866
 30
0.0
 41
1.0
 10
-20981.484587797222
 20
40743.038353261654
 30
0.0
 41
1.0
 10
-20981.602638420776
 20
40742.710606564855
 30
0.0
 41
0.9999674607405782
 10
-20981.715385946834
 20
40742.380997944907
 30
0.0
 41
1.0
 10
-20981.7667843374
 20
40742.230738749204
 30
0.0
 41
1.0
 10
-20981.818182727966
 20
40742.080479553508
 30
0.0
 41
1.0
 10
-20981.934193334782
 20
40741.74133157084
 30
0.0
 41
0.9999287532307614
 10
-20982.042074738718
 20
40741.399510831965
 30
0.0
 41
1.0
 10
-20982.088551995417
 20
40741.252248285818
 30
0.0
 41
1.0
 10
-20982.135029252117
 20
40741.104985739672
 30
0.0
 41
1.0
 10
-20982.149956142381
 20
40741.05769009397
 30
0.0
 41
0.9999998223870402
 10
-20982.16482665142
 20
40741.010376684746
 30
0.0
 41
1.0
 10
-20983.785482788215
 20
40735.862348182956
 30
0.0
 41
1.0
 10
-20985.406138925009
 20
40730.714319681167
 30
0.0
 41
1.0
 10
-20986.311447368898
 20
40730.714319681167
 30
0.0
 41
1.0
 10
-20987.216755812791
 20
40730.714319681167
 30
0.0
 41
1.0
 10
-20985.364671401403
 20
40736.601391603632
 30
0.0
 41
1.0
 10
-20983.512586990018
 20
40742.488463526104
 30
0.0
 41
1.0
 10
-20983.502465231715
 20
40742.520506739551
 30
0.0
 41
1.0
 10
-20983.429857562864
 20
40742.750806281372
 30
0.0
 41
1.0
 10
-20983.357249893925
 20
40742.981105823499
 30
0.0
 41
0.9999825681963791
 10
-20983.287366854795
 20
40743.2122467183
 30
0.0
 41
1.0
 10
-20983.239075792677
 20
40743.371971301647
 30
0.0
 41
1.0
 10
-20983.190784730563
 20
40743.531695885002
 30
0.0
 41
1.0
 10
-20983.093632377208
 20
40743.853031106904
 30
0.0
 41
0.9999672528962171
 10
-20983.001693571547
 20
40744.175896652625
 30
0.0
 41
1.0
 10
-20982.998904687782
 20
40744.185690498343
 30
0.0
 41
1.0
 10
-20982.996115804021
 20
40744.195484344054
 30
0.0
 41
1.0
 10
-20982.909754765722
 20
40744.498762198906
 30
0.0
 41
0.9999899749165591
 10
-20982.826113156385
 20
40744.802801286656
 30
0.0
 41
1.0
 10
-20982.816007237354
 20
40744.839536524385
 30
0.0
 41
1.0
 10
-20982.805901318323
 20
40744.876271762114
 30
0.0
 41
1.0
 10
-20982.742471546837
 20
40745.106840375156
 30
0.0
 41
0.9999214200504343
 10
-20982.684842118477
 20
40745.338926717319
 30
0.0
 41
1.0
 10
-20982.672076266259
 20
40745.390337602861
 30
0.0
 41
1.0
 10
-20982.659310414045
 20
40745.441748488403
 30
0.0
 41
1.0
 10
-20982.627212690135
 20
40745.57101305938
 30
0.0
 41
0.999982868166578
 10
-20982.5966304381
 20
40745.700644533994
 30
0.0
 41
1.0
 10
-20982.566048186061
 20
40745.830276008644
 30
0.0
 41
0.999938984447442
 10
-20982.538337197304
 20
40745.960551464421
 30
0.0
 41
1.0
 10
-20982.531199453588
 20
40745.994107568229
 30
0.0
 41
1.0
 10
-20982.524061709875
 20
40746.027663672037
 30
0.0
 41
1.0
 10
-20982.482075233613
 20
40746.225051335758
 30
0.0
 41
0.9998933699438511
 10
-20982.44587096923
 20
40746.423580943432
 30
0.0
 41
1.0
 10
-20982.444498144017
 20
40746.431108964098
 30
0.0
 41
1.0
 10
-20982.443125318809
 20
40746.438636984763
 30
0.0
 41
1.0
 10
-20982.40417540399
 20
40746.652222633849
 30
0.0
 41
0.9996850305202075
 10
-20982.375991727735
 20
40746.867493639205
 30
0.0
 41
1.0
 10
-20982.373996694361
 20
40746.882731993363
 30
0.0
 41
1.0
 10
-20982.372001660988
 20
40746.89797034752
 30
0.0
 41
1.0
 10
-20982.34459379852
 20
40747.107315574773
 30
0.0
 41
0.999469793671201
 10
-20982.3308692393
 20
40747.318000770087
 30
0.0
 41
1.0
 10
-20982.33039217005
 20
40747.32532424228
 30
0.0
 41
1.0
 10
-20982.329915100803
 20
40747.33264771448
 30
0.0
 41
1.0
 10
-20982.317144680084
 20
40747.528685965393
 30
0.0
 41
0.9991804893146727
 10
-20982.320272996352
 20
40747.725114815388
 30
0.0
 41
1.0
 10
-20982.320356875174
 20
40747.730381616755
 30
0.0
 41
1.0
 10
-20982.320440753996
 20
40747.735648418129
 30
0.0
 41
1.0
 10
-20982.323401312628
 20
40747.921543665354
 30
0.0
 41
0.9988448329325607
 10
-20982.344192858251
 20
40748.106296255195
 30
0.0
 41
1.0
 10
-20982.345786931954
 20
40748.120461110957
 30
0.0
 41
1.0
 10
-20982.347381005653
 20
40748.134625966712
 30
0.0
 41
1.0
 10
-20982.364984403874
 20
40748.291048845022
 30
0.0
 41
0.9985503209459098
 10
-20982.399300676174
 20
40748.444673029117
 30
0.0
 41
1.0
 10
-20982.406886668243
 20
40748.478633356513
 30
0.0
 41
1.0
 10
-20982.414472660315
 20
40748.512593683918
 30
0.0
 41
1.0
 10
-20982.433616948478
 20
40748.598297213204
 30
0.0
 41
0.9991036781394354
 10
-20982.459941810124
 20
40748.68207430053
 30
0.0
 41
1.0
 10
-20982.463924035568
 20
40748.694747463
 30
0.0
 41
1.0
 10
-20982.467906261008
 20
40748.707420625462
 30
0.0
 41
1.0
 10
-20982.48626667176
 20
40748.765851387812
 30
0.0
 41
0.9998874504365281
 10
-20982.506371879455
 20
40748.823704990078
 30
0.0
 41
1.0
 10
-20982.526477087111
 20
40748.881558592249
 30
0.0
 41
0.99940416375423
 10
-20982.550525700051
 20
40748.937887296161
 30
0.0
 41
1.0
 10
-20982.554722484289
 20
40748.947717360672
 30
0.0
 41
1.0
 10
-20982.558919268526
 20
40748.957547425183
 30
0.0
 41
1.0
 10
-20982.586798099517
 20
40749.022847591128
 30
0.0
 41
0.9991846840721
 10
-20982.619854456203
 20
40749.085685622398
 30
0.0
 41
1.0
 10
-20982.620991062606
 20
40749.087846238872
 30
0.0
 41
1.0
 10
-20982.622127669012
 20
40749.090006855346
 30
0.0
 41
1.0
 10
-20982.652910812893
 20
40749.148523653676
 30
0.0
 41
0.9989253167913009
 10
-20982.688980236951
 20
40749.203938582068
 30
0.0
 41
1.0
 10
-20982.690034361629
 20
40749.205558076836
 30
0.0
 41
1.0
 10
-20982.69108848631
 20
40749.207177571603
 30
0.0
 41
1.0
 10
-20982.725049660992
 20
40749.259353510439
 30
0.0
 41
0.9986467172839665
 10
-20982.764246813644
 20
40749.307719544093
 30
0.0
 41
1.0
 10
-20982.765120942349
 20
40749.308798146376
 30
0.0
 41
1.0
 10
-20982.765995071055
 20
40749.309876748666
 30
0.0
 41
1.0
 10
-20982.803443966281
 20
40749.356085577725
 30
0.0
 41
0.9984001104238932
 10
-20982.845870696798
 20
40749.397770685093
 30
0.0
 41
1.0
 10
-20982.846457834901
 20
40749.398347559967
 30
0.0
 41
1.0
 10
-20982.847044973001
 20
40749.398924434841
 30
0.0
 41
1.0
 10
-20982.888297427322
 20
40749.439455792461
 30
0.0
 41
0.9982442159070895
 10
-20982.93405352865
 20
40749.474824353718
 30
0.0
 41
1.0
 10
-20982.934268324134
 20
40749.474990386378
 30
0.0
 41
1.0
 10
-20982.934483119614
 20
40749.475156419037
 30
0.0
 41
1.0
 10
-20982.979809630004
 20
40749.510192914997
 30
0.0
 41
0.9982450060809954
 10
-20983.028960609059
 20
40749.539624698016
 30
0.0
 41
1.0
 10
-20983.078111588125
 20
40749.56905648105
 30
0.0
 41
0.9983922639615105
 10
-20983.130277894317
 20
40749.592736115716
 30
0.0
 41
1.0
 10
-20983.130504771631
 20
40749.592839101191
 30
0.0
 41
1.0
 10
-20983.130731648944
 20
40749.592942086667
 30
0.0
 41
1.0
 10
-20983.183351709795
 20
40749.616827692298
 30
0.0
 41
0.9986517147112057
 10
-20983.238164682676
 20
40749.635128811417
 30
0.0
 41
1.0
 10
-20983.238842604078
 20
40749.635355157836
 30
0.0
 41
1.0
 10
-20983.23952052548
 20
40749.635581504263
 30
0.0
 41
1.0
 10
-20983.295689341165
 20
40749.654335316234
 30
0.0
 41
0.9989435598954963
 10
-20983.353342728293
 20
40749.667853018465
 30
0.0
 41
1.0
 10
-20983.354422847908
 20
40749.668106268728
 30
0.0
 41
1.0
 10
-20983.355502967519
 20
40749.66835951899
 30
0.0
 41
1.0
 10
-20983.415316593833
 20
40749.682383721731
 30
0.0
 41
0.9992249241226368
 10
-20983.476048102715
 20
40749.69165906444
 30
0.0
 41
1.0
 10
-20983.477461791015
 20
40749.69187497285
 30
0.0
 41
1.0
 10
-20983.478875479312
 20
40749.692090881261
 30
0.0
 41
1.0
 10
-20983.542434364841
 20
40749.701798040798
 30
0.0
 41
0.9994396597828144
 10
-20983.606500301448
 20
40749.707230963148
 30
0.0
 41
1.0
 10
-20983.625640968865
 20
40749.708854130862
 30
0.0
 41
1.0
 10
-20983.644781636285
 20
40749.710477298577
 30
0.0
 41
1.0
 10
-20983.747128907769
 20
40749.719156556363
 30
0.0
 41
0.9987693403095296
 10
-20983.849832531349
 20
40749.717653492902
 30
0.0
 41
1.0
 10
-20983.860086865563
 20
40749.717503421125
 30
0.0
 41
1.0
 10
-20983.870341199774
 20
40749.717353349355
 30
0.0
 41
1.0
 10
-20983.979896965975
 20
40749.715750005067
 30
0.0
 41
0.9989753644963419
 10
-20984.088858966014
 20
40749.704246998139
 30
0.0
 41
1.0
 10
-20984.197820966012
 20
40749.692743991218
 30
0.0
 41
0.9983190067303046
 10
-20984.304719776967
 20
40749.668708999438
 30
0.0
 41
1.0
 10
-20984.313620728586
 20
40749.666707720869
 30
0.0
 41
1.0
 10
-20984.322521680209
 20
40749.664706442309
 30
0.0
 41
1.0
 10
-20984.447222394396
 20
40749.636668893399
 30
0.0
 41
0.998553938829077
 10
-20984.568192148079
 20
40749.595405217347
 30
0.0
 41
1.0
 10
-20984.570537579035
 20
40749.594605173537
 30
0.0
 41
1.0
 10
-20984.572883009987
 20
40749.59380512972
 30
0.0
 41
1.0
 10
-20984.69854362556
 20
40749.550941366047
 30
0.0
 41
0.9988468746497385
 10
-20984.819513967821
 20
40749.496223281007
 30
0.0
 41
1.0
 10
-20984.822696789841
 20
40749.494783606431
 30
0.0
 41
1.0
 10
-20984.825879611861
 20
40749.493343931856
 30
0.0
 41
1.0
 10
-20984.953215598096
 20
40749.4357464977
 30
0.0
 41
0.9991322885914397
 10
-20985.075316182145
 20
40749.367751165526
 30
0.0
 41
1.0
 10
-20985.092918193208
 20
40749.35794896353
 30
0.0
 41
1.0
 10
-20985.110520204267
 20
40749.348146761527
 30
0.0
 41
1.0
 10
-20985.212696885334
 20
40749.291246645742
 30
0.0
 41
0.9993860037860157
 10
-20985.310637889415
 20
40749.22733063015
 30
0.0
 41
1.0
 10
-20985.316256202237
 20
40749.223664135476
 30
0.0
 41
1.0
 10
-20985.321874515059
 20
40749.219997640801
 30
0.0
 41
1.0
 10
-20985.408578893457
 20
40749.163414614581
 30
0.0
 41
0.9998821494951493
 10
-20985.493505269304
 20
40749.104196384476
 30
0.0
 41
1.0
 10
-20985.578431645048
 20
40749.044978154445
 30
0.0
 41
0.9997976482742308
 10
-20985.660907275469
 20
40748.982391746395
 30
0.0
 41
1.0
 10
-20985.675543540296
 20
40748.971285056599
 30
0.0
 41
1.0
 10
-20985.690179805126
 20
40748.960178366804
 30
0.0
 41
1.0
 10
-20985.801927965043
 20
40748.875378579272
 30
0.0
 41
0.9998091630807345
 10
-20985.910278243067
 20
40748.786278228588
 30
0.0
 41
1.0
 10
-20985.923283995595
 20
40748.775583128096
 30
0.0
 41
1.0
 10
-20985.936289748126
 20
40748.76488802761
 30
0.0
 41
1.0
 10
-20986.070651531129
 20
40748.654397475999
 30
0.0
 41
0.9995035112313474
 10
-20986.197787408968
 20
40748.535663658906
 30
0.0
 41
1.0
 10
-20986.207434719276
 20
40748.526653912821
 30
0.0
 41
1.0
 10
-20986.217082029587
 20
40748.517644166735
 30
0.0
 41
1.0
 10
-20986.340505092383
 20
40748.402377794955
 30
0.0
 41
0.9994630424301406
 10
-20986.456113498192
 20
40748.279275051696
 30
0.0
 41
1.0
 10
-20986.459796337018
 20
40748.275353472127
 30
0.0
 41
1.0
 10
-20986.463479175847
 20
40748.27143189255
 30
0.0
 41
1.0
 10
-20986.571721904063
 20
40748.156172308365
 30
0.0
 41
0.9995160693737912
 10
-20986.672587933506
 20
40748.034404890583
 30
0.0
 41
1.0
 10
-20986.674521653535
 20
40748.032070466434
 30
0.0
 41
1.0
 10
-20986.676455373567
 20
40748.029736042292
 30
0.0
 41
1.0
 10
-20986.773453962953
 20
40747.912637472815
 30
0.0
 41
0.9996561470524222
 10
-20986.864180181707
 20
40747.790614710262
 30
0.0
 41
1.0
 10
-20986.870337847697
 20
40747.782332921095
 30
0.0
 41
1.0
 10
-20986.876495513687
 20
40747.774051131935
 30
0.0
 41
1.0
 10
-20986.95490640046
 20
40747.668591947695
 30
0.0
 41
0.9998349055168038
 10
-20987.029433682306
 20
40747.560353364148
 30
0.0
 41
1.0
 10
-20987.103960964407
 20
40747.452114780244
 30
0.0
 41
0.9999728109558227
 10
-20987.176883860247
 20
40747.342788854781
 30
0.0
 41
1.0
 10
-20987.17819907561
 20
40747.340817085351
 30
0.0
 41
1.0
 10
-20987.179514290972
 20
40747.338845315928
 30
0.0
 41
1.0
 10
-20987.255067617705
 20
40747.225575851371
 30
0.0
 41
0.9999972147455126
 10
-20987.330085427369
 20
40747.111951009603
 30
0.0
 41
1.0
 10
-20987.335056970347
 20
40747.104420920594
 30
0.0
 41
1.0
 10
-20987.340028513325
 20
40747.096890831584
 30
0.0
 41
1.0
 10
-20987.424989408959
 20
40746.968205811783
 30
0.0
 41
0.999937197900481
 10
-20987.507044758513
 20
40746.837648897759
 30
0.0
 41
1.0
 10
-20987.510553642795
 20
40746.832065969822
 30
0.0
 41
1.0
 10
-20987.514062527072
 20
40746.826483041892
 30
0.0
 41
1.0
 10
-20987.603135645255
 20
40746.684760271899
 30
0.0
 41
0.9998272025609558
 10
-20987.686879036093
 20
40746.53982439523
 30
0.0
 41
1.0
 10
-20987.702094208114
 20
40746.513491280784
 30
0.0
 41
1.0
 10
-20987.717309380132
 20
40746.487158166332
 30
0.0
 41
1.0
 10
-20987.831483115006
 20
40746.289556060765
 30
0.0
 41
0.9995217214847307
 10
-20987.933222804524
 20
40746.085273732999
 30
0.0
 41
1.0
 10
-20987.940866367149
 20
40746.069926283322
 30
0.0
 41
1.0
 10
-20987.948509929774
 20
40746.054578833639
 30
0.0
 41
1.0
 10
-20988.035415222417
 20
40745.880082375443
 30
0.0
 41
0.9998269762611045
 10
-20988.115769688746
 20
40745.702474088605
 30
0.0
 41
1.0
 10
-20988.196124155023
 20
40745.524865801861
 30
0.0
 41
0.9998944747389832
 10
-20988.271284949602
 20
40745.344998076216
 30
0.0
 41
1.0
 10
-20988.276238619241
 20
40745.333143421187
 30
0.0
 41
1.0
 10
-20988.28119228888
 20
40745.32128876615
 30
0.0
 41
1.0
 10
-20988.361839349378
 20
40745.128291826266
 30
0.0
 41
0.9999506734410608
 10
-20988.438636878222
 20
40744.933731021541
 30
0.0
 41
1.0
 10
-20988.453236843332
 20
40744.896743100144
 30
0.0
 41
1.0
 10
-20988.467836808442
 20
40744.859755178746
 30
0.0
 41
1.0
 10
-20988.515434406967
 20
40744.739170217093
 30
0.0
 41
0.9999912393945669
 10
-20988.562020851146
 20
40744.618191013986
 30
0.0
 41
1.0
 10
-20988.608607295148
 20
40744.497211811344
 30
0.0
 41
0.999992711395195
 10
-20988.654268589835
 20
40744.375880403066
 30
0.0
 41
1.0
 10
-20988.668237021098
 20
40744.33876342143
 30
0.0
 41
1.0
 10
-20988.682205452358
 20
40744.301646439795
 30
0.0
 41
1.0
 10
-20988.755803609674
 20
40744.106081067963
 30
0.0
 41
0.999948755094608
 10
-20988.825427234642
 20
40743.90906570277
 30
0.0
 41
1.0
 10
-20988.849020844595
 20
40743.842302392426
 30
0.0
 41
1.0
 10
-20988.872614454551
 20
40743.775539082082
 30
0.0
 41
1.0
 10
-20988.967300088847
 20
40743.507605247483
 30
0.0
 41
0.9999808436935044
 10
-20989.058661677409
 20
40743.238519816441
 30
0.0
 41
1.0
 10
-20989.150023266244
 20
40742.969434384599
 30
0.0
 41
0.9999873932893013
 10
-20989.238677974932
 20
40742.699445029662
 30
0.0
 41
1.0
 10
-20989.258770331719
 20
40742.638255697158
 30
0.0
 41
1.0
 10
-20989.278862688509
 20
40742.577066364654
 30
0.0
 41
1.0
 10
-20989.407702110857
 20
40742.184698344456
 30
0.0
 41
0.999979488303822
 10
-20989.53150489572
 20
40741.790712138492
 30
0.0
 41
1.0
 10
-20989.542657155136
 20
40741.755221528321
 30
0.0
 41
1.0
 10
-20989.553809414552
 20
40741.719730918157
 30
0.0
 41
1.0
 10
-20989.696367578563
 20
40741.266058165696
 30
0.0
 41
0.9999982761844894
 10
-20989.837240018707
 20
40740.81185914317
 30
0.0
 41
1.0
 10
-20991.42538035128
 20
40735.763089412168
 30
0.0
 41
1.0
 10
-20993.013520683853
 20
40730.714319681167
 30
0.0
 41
1.0
 10
-20993.962271295328
 20
40730.714319681167
 30
0.0
 41
1.0
 10
-20994.911021906806
 20
40730.714319681167
 30
0.0
 41
1.0
 10
-20991.672737420653
 20
40741.041641881107
 30
0.0
 41
1.0
 10
-20988.4344529345
 20
40751.368964081055
 30
0.0
 41
1.0
  0
LWPOLYLINE
  5
67
100
AcDbEntity
  8
0
370
              15
390
0
  6
Continuous
 62
               7
100
AcDbPolyline
 90
      232
 70
             128
 10
-21014.137998708327
 20
40750.284621249542
 42
0.0004370800951366
 10
-21014.1908758797
 20
40750.215954613792
 10
-21014.230160113526
 20
40750.164847497392
 42
0.0030481992288243
 10
-21014.360498831305
 20
40749.993125804169
 10
-21014.399010502399
 20
40749.941739021262
 42
0.0042058245733872
 10
-21014.602995552879
 20
40749.664733276448
 10
-21014.655400675569
 20
40749.592300429402
 42
0.012094889870852
 10
-21014.951444592229
 20
40749.161550825003
 10
-21015.047637091524
 20
40749.014070089514
 42
0.0141601264055048
 10
-21015.351281138373
 20
40748.518400752895
 10
-21015.390818405758
 20
40748.449556785534
 42
0.0071131081331099
 10
-21015.596090729035
 20
40748.080053986625
 42
0.0068458790894588
 10
-21015.790970255799
 20
40747.704962423304
 10
-21015.797782118338
 20
40747.691400709424
 42
0.0064120880330698
 10
-21015.995924368304
 20
40747.28397623467
 10
-21016.0034590539
 20
40747.267964377781
 42
0.0058857236447399
 10
-21016.206214445752
 20
40746.823588266787
 10
-21016.214389372064
 20
40746.805098113116
 42
0.0053189741892478
 10
-21016.423093684578
 20
40746.319134639562
 10
-21016.431841490412
 20
40746.298152761003
 42
0.0047503650554233
 10
-21016.647815216711
 20
40745.765953327413
 10
-21016.65708346491
 20
40745.74247695168
 42
0.0042071762157634
 10
-21016.881630848755
 20
40745.159383357313
 10
-21016.891380250989
 20
40745.133417182748
 42
0.0036680086565513
 10
-21017.125834894425
 20
40744.494781797875
 10
-21017.136042674148
 20
40744.466333263874
 42
0.0032573142667708
 10
-21017.38167496031
 20
40743.767480603557
 10
-21017.45032548083
 20
40743.568017520432
 42
0.0026133366597759
 10
-21017.798770679714
 20
40742.53815423639
 10
-21017.862027467163
 20
40742.347923401147
 42
0.0020592950820738
 10
-21018.07589053618
 20
40741.695819748384
 10
-21018.078942327465
 20
40741.686383259592
 42
0.0025609928601828
 10
-21018.280762828828
 20
40741.051238037609
 10
-21018.283354196188
 20
40741.042935695921
 42
0.0031362356245916
 10
-21018.472844981632
 20
40740.422172840495
 10
-21018.474976024612
 20
40740.41503153411
 42
0.0037229918028371
 10
-21018.651776411491
 20
40739.806046232305
 10
-21018.653455000713
 20
40739.800099342079
 42
0.0043077623760024
 10
-21018.81719580276
 20
40739.200280610356
 42
0.0047654161828015
 10
-21018.970024525293
 20
40738.597594521394
 10
-21019.004489134117
 20
40738.456032744303
 42
0.0112969368420835
 10
-21019.200353492219
 20
40737.564340583893
 10
-21019.228359881356
 20
40737.421512537585
 42
0.0130056762531554
 10
-21019.429197125002
 20
40736.234571465946
 10
-21019.449736875133
 20
40736.090493352596
 42
0.0138721532121398
 10
-21019.553439879688
 20
40735.183663866643
 10
-21019.57273536759
 20
40734.960166144774
 42
0.0071254697020641
 10
-21019.606082013517
 20
40734.49697913586
 10
-21019.611042987672
 20
40734.410975141458
 42
0.0028881799170138
 10
-21019.626181280968
 20
40734.119233431462
 42
0.0060297297035612
 10
-21019.636113480752
 20
40733.827284495215
 10
-21019.637175762418
 20
40733.778892123271
 42
0.0229523164318881
 10
-21019.629444734626
 20
40733.456137277128
 10
-21019.625218961108
 20
40733.395733743127
 42
0.0123673300580139
 10
-21019.606140314587
 20
40733.194613017942
 42
0.0128577674458538
 10
-21019.576944924218
 20
40732.994715168206
 10
-21019.569819050797
 20
40732.953386353416
 42
0.0285717853649931
 10
-21019.5053250491
 20
40732.675270202111
 10
-21019.491656525432
 20
40732.62861543263
 42
0.0316283099137505
 10
-21019.37584594552
 20
40732.309600930806
 10
-21019.372797253771
 20
40732.302614558488
 42
0.0338984824111207
 10
-21019.223365542799
 20
40732.015048594287
 10
-21019.221056813429
 20
40732.011257565006
 42
0.0350228718303566
 10
-21019.038696522752
 20
40731.754205580335
 10
-21019.037811270966
 20
40731.753126502554
 42
0.0347476747562331
 10
-21018.823386583739
 20
40731.525941455351
 42
0.0331337701997184
 10
-21018.58014325799
 20
40731.329812793279
 10
-21018.579043159472
 20
40731.329040090102
 42
0.0305233319243448
 10
-21018.310498463903
 20
40731.163911920012
 10
-21018.307268419398
 20
40731.162187908143
 42
0.0273744481175131
 10
-21018.014714707781
 20
40731.02604976423
 10
-21018.009610172689
 20
40731.024006179781
 42
0.0240964406011632
 10
-21017.694133097084
 20
40730.915022453511
 10
-21017.687549767834
 20
40730.913097713827
 42
0.0209636179865931
 10
-21017.350149615027
 20
40730.829629565866
 10
-21017.342517154731
 20
40730.828077652899
 42
0.0181388704653474
 10
-21016.984194762692
 20
40730.768661559669
 10
-21016.975913914353
 20
40730.767595375859
 42
0.0156086547591657
 10
-21016.597726550157
 20
40730.730859189287
 10
-21016.55453129777
 20
40730.728020686802
 42
0.0137148329098629
 10
-21016.226858152542
 20
40730.715500431557
 10
-21016.180921962008
 20
40730.715005998434
 42
0.0051057823805931
 10
-21015.944776376025
 20
40730.71487574403
 42
0.0052256693221541
 10
-21015.708679092411
 20
40730.71962456849
 10
-21015.638452308493
 20
40730.72177153451
 42
0.0161507178982663
 10
-21015.26271523055
 20
40730.745421904823
 10
-21015.242702270021
 20
40730.747332100123
 42
0.0101216737813434
 10
-21014.828675048586
 20
40730.795325030478
 10
-21014.794621759102
 20
40730.799972727298
 42
0.0245291776386926
 10
-21014.317832103607
 20
40730.889047805365
 10
-21014.233008788175
 20
40730.909243725691
 42
0.0143509212463613
 10
-21013.876377684086
 20
40731.005048359497
 42
0.0156557857020242
 10
-21013.526161619488
 20
40731.122059575275
 10
-21013.518660404865
 20
40731.124829737077
 42
0.0170137333557911
 10
-21013.162064409255
 20
40731.270487351911
 10
-21013.154960486776
 20
40731.273675187505
 42
0.018310536422482
 10
-21012.795610818761
 20
40731.451010229248
 10
-21012.788664053973
 20
40731.454760664201
 42
0.0194899958110631
 10
-21012.430183312961
 20
40731.666739646113
 10
-21012.423169433652
 20
40731.671264988392
 42
0.0204869852879382
 10
-21012.069155131569
 20
40731.920785003465
 10
-21012.061889522971
 20
40731.926365068823
 42
0.0212516938463556
 10
-21011.715899591916
 20
40732.21626906567
 10
-21011.669382897711
 20
40732.258736375887
 42
0.0215248918360152
 10
-21011.409356728898
 20
40732.517500654809
 10
-21011.364326994633
 20
40732.566344776031
 42
0.0114578554665134
 10
-21011.20953484084
 20
40732.742167709614
 10
-21011.198340304585
 20
40732.755486473478
 42
0.0061531305250473
 10
-21011.071865658861
 20
40732.909776006469
 42
0.0006325587182278
 10
-21010.947487175537
 20
40733.065779381104
 10
-21010.924447039659
 20
40733.094752902805
 42
0.0041897761780303
 10
-21010.7559916352
 20
40733.310272279487
 10
-21010.69752951579
 20
40733.38637362585
 42
0.0092993879953698
 10
-21010.420917588777
 20
40733.760652389443
 10
-21010.338523095434
 20
40733.876589393214
 42
0.0159321726999791
 10
-21009.991916612729
 20
40734.398763614059
 10
-21009.947560477489
 20
40734.470443178063
 42
0.0085547316944767
 10
-21009.713048712012
 20
40734.864318127533
 42
0.0084601156978549
 10
-21009.492072534395
 20
40735.265944976898
 10
-21009.48395706074
 20
40735.281304658842
 42
0.0081429654203532
 10
-21009.260707790498
 20
40735.721026170984
 10
-21009.251847626118
 20
40735.7392050134
 42
0.007657458127279
 10
-21009.025440115442
 20
40736.222387888891
 10
-21009.015960474826
 20
40736.243452366951
 42
0.0070682724249616
 10
-21008.785515567099
 20
40736.775489671549
 10
-21008.775525283039
 20
40736.799478860747
 42
0.0064559514453918
 10
-21008.540192074863
 20
40737.38579112725
 10
-21008.529782716691
 20
40737.412726052709
 42
0.0058311413992255
 10
-21008.288735979844
 20
40738.05875814733
 10
-21008.277980902541
 20
40738.088642488248
 42
0.0052312425748921
 10
-21008.030399624622
 20
40738.799844901725
 10
-21008.019355788121
 20
40738.83267161416
 42
0.0046680544794136
 10
-21007.764427360424
 20
40739.61449792979
 10
-21007.722435210359
 20
40739.747481167156
 42
0.0041666856468323
 10
-21007.519149197949
 20
40740.41044994221
 10
-21007.481486757122
 20
40740.537031050408
 42
0.0015170975254606
 10
-21007.360300178872
 20
40740.948899401352
 42
-0.0004887993086933
 10
-21007.239960404993
 20
40741.361017815972
 10
-21007.163483148252
 20
40741.621975199341
 42
0.0002583378937252
 10
-21006.890268579416
 20
40742.556031898319
 10
-21006.808495728514
 20
40742.836131162454
 42
0.0006636169700593
 10
-21006.6146279686
 20
40743.50348408569
 10
-21006.60953131377
 20
40743.521115670243
 42
0.0010589131372933
 10
-21006.42808261334
 20
40744.153847011621
 10
-21006.423100542706
 20
40744.171359919179
 42
0.0015655524546716
 10
-21006.254830335674
 20
40744.76997659784
 10
-21006.250000135267
 20
40744.787368756741
 42
0.0021640440423289
 10
-21006.095710163274
 20
40745.352395774797
 10
-21006.091075943812
 20
40745.369660504904
 42
0.0028763871885535
 10
-21005.951560225789
 20
40745.901628455635
 10
-21005.947174361732
 20
40745.918752433361
 42
0.0037310511909428
 10
-21005.823217669786
 20
40746.418200027809
 10
-21005.819142449549
 20
40746.435160298839
 42
0.0047652197784352
 10
-21005.711518548989
 20
40746.90263806736
 10
-21005.707827949627
 20
40746.919397622689
 42
0.006027669934164
 10
-21005.617297850513
 20
40747.355473417658
 10
-21005.61407916027
 20
40747.371974631729
 42
0.0075824337801915
 10
-21005.541389850809
 20
40747.777241796386
 10
-21005.538744473393
 20
40747.793396744062
 42
0.0095130624694493
 10
-21005.484629237799
 20
40748.168486096911
 10
-21005.477643013895
 20
40748.224419655184
 42
0.0121054653356958
 10
-21005.451051683336
 20
40748.489315483501
 10
-21005.450185193589
 20
40748.500718926269
 42
0.0069050827345251
 10
-21005.435096375539
 20
40748.743660153275
 10
-21005.433961075869
 20
40748.767186410332
 42
0.0169063976524384
 10
-21005.43113379689
 20
40748.963379137625
 10
-21005.432304448412
 20
40749.023714898627
 42
0.0052007732096934
 10
-21005.434557897013
 20
40749.099308289122
 42
0.005403812356306
 10
-21005.454521408879
 20
40749.219326585306
 10
-21005.459607264722
 20
40749.247985071721
 42
0.0112050460692093
 10
-21005.494991626783
 20
40749.424311510054
 10
-21005.512816588824
 20
40749.503853096772
 42
0.0240764468130686
 10
-21005.603713954966
 20
40749.834090132274
 10
-21005.622272717781
 20
40749.890710297266
 42
0.0256812331765097
 10
-21005.76563563797
 20
40750.262434503529
 10
-21005.771045063775
 20
40750.274565838488
 42
0.0268360501214639
 10
-21005.940472304639
 20
40750.605558972537
 10
-21005.946008712268
 20
40750.615078642833
 42
0.0274670231838801
 10
-21006.138209688688
 20
40750.907366017767
 10
-21006.143590988642
 20
40750.9146451653
 42
0.0275035967096672
 10
-21006.355163868215
 20
40751.170161055612
 10
-21006.360233369163
 20
40751.175640143221
 42
0.0269557673465141
 10
-21006.58763691262
 20
40751.39628242921
 10
-21006.592379970411
 20
40751.400412383678
 42
0.0259124802187918
 10
-21006.831934801834
 20
40751.58810291082
 10
-21006.83646564704
 20
40751.591288413169
 42
0.0245162152906573
 10
-21007.08438200011
 20
40751.74802142226
 10
-21007.088908546459
 20
40751.750581619475
 42
0.0229282588788277
 10
-21007.341328103263
 20
40751.878449811964
 10
-21007.346108597027
 20
40751.880602111691
 42
0.021298413569819
 10
-21007.599146549561
 20
40751.98180102896
 10
-21007.604450834508
 20
40751.983664591709
 42
0.0197555462353177
 10
-21007.854229172255
 20
40752.060480009692
 42
0.0183511896668958
 10
-21008.109157897714
 20
40752.118062916656
 10
-21008.195523094455
 20
40752.134265707042
 42
0.03380578771065
 10
-21008.481030443701
 20
40752.168074112182
 10
-21008.572035848752
 20
40752.17265376744
 42
0.0091990524420279
 10
-21008.677882957378
 20
40752.176029623362
 42
0.0028333981027823
 10
-21008.783796874264
 20
40752.176857730883
 10
-21008.784712326418
 20
40752.176859700703
 42
-0.0023619827945349
 10
-21008.892458341699
 20
40752.177600541785
 10
-21008.928863511697
 20
40752.178022848246
 42
0.0008824598429234
 10
-21009.109419498189
 20
40752.179798626457
 10
-21009.153280933955
 20
40752.180152588015
 42
0.0038132665667877
 10
-21009.421563829925
 20
40752.180271524077
 10
-21009.438097484628
 20
40752.180152757937
 42
0.0060665569351572
 10
-21009.739377976504
 20
40752.174332458504
 10
-21009.753628308245
 20
40752.173884150543
 42
0.0080356953477856
 10
-21010.08308702485
 20
40752.158216428463
 10
-21010.095157039672
 20
40752.157447845537
 42
0.0098996399052079
 10
-21010.447920124298
 20
40752.127962616338
 10
-21010.457965833695
 20
40752.126922320138
 42
0.011774098140352
 10
-21010.829122692281
 20
40752.079630072578
 10
-21010.837345388529
 20
40752.078384956039
 42
0.0137435215094022
 10
-21011.221934207875
 20
40752.00928798251
 10
-21011.228591247134
 20
40752.007902086247
 42
0.0158359869511002
 10
-21011.62158834107
 20
40751.913009997726
 10
-21011.627001527806
 20
40751.911520056892
 42
0.0180554124123291
 10
-21012.023316572446
 20
40751.786882040644
 10
-21012.027873360501
 20
40751.785266004386
 42
0.0203657431307012
 10
-21012.42235087834
 20
40751.627005662864
 10
-21012.426494417319
 20
40751.625144041434
 42
0.0226819684617544
 10
-21012.813930473505
 20
40751.429501462764
 10
-21012.818130264543
 20
40751.427135870836
 42
0.0248634984697297
 10
-21013.193312205716
 20
40751.1905092249
 10
-21013.241507134499
 20
40751.156652183068
 42
0.0267044190982138
 10
-21013.515799831424
 20
40750.9412118072
 42
0.0139303002122027
 10
-21013.77196699749
 20
40750.70397296617
 10
-21013.776820383086
 20
40750.699220303432
 42
0.028346096337785
 10
-21014.020892977325
 20
40750.431489642964
 10
-21014.060561482467
 20
40750.382688065511
 42
0.0070695364517329
 10
-21014.137998708327
 20
40750.284621249542
 42
0.0070695364517329
  0
LWPOLYLINE
  5
68
100
AcDbEntity
  8
0
370
              15
390
0
  6
Continuous
 62
               7
100
AcDbPolyline
 90
      226
 70
             128
 10
-21017.666819145576
 20
40734.563032443359
 42
-0.002627763638215
 10
-21017.666897029376
 20
40734.629804369812
 10
-21017.666679671143
 20
40734.682959586542
 42
-0.0088680296352128
 10
-21017.662903054847
 20
40734.855975368977
 10
-21017.660556695737
 20
40734.9152553944
 42
-0.0077381705711565
 10
-21017.644510584978
 20
40735.20651589011
 10
-21017.6436426738
 20
40735.218804123884
 42
-0.0068872530496515
 10
-21017.617010594051
 20
40735.534025875982
 10
-21017.615806369868
 20
40735.546266854974
 42
-0.0062130021495809
 10
-21017.578212653007
 20
40735.88513654648
 10
-21017.576708749504
 20
40735.897310418128
 42
-0.0056726929827569
 10
-21017.527786890052
 20
40736.259505639886
 10
-21017.526013444356
 20
40736.271599440486
 42
-0.0052341884493694
 10
-21017.465402858088
 20
40736.656792696042
 10
-21017.463384869319
 20
40736.668797626
 42
-0.0049768450257203
 10
-21017.390646187887
 20
40737.07664219346
 10
-21017.366397173173
 20
40737.205190176435
 42
-0.0089029805625359
 10
-21017.229316321376
 20
40737.866965623849
 10
-21017.196570946056
 20
40738.011997054382
 42
-0.0080318257066867
 10
-21016.967022331701
 20
40738.957706686306
 10
-21016.955037405271
 20
40739.003837321427
 42
-0.0074265721309394
 10
-21016.671025866483
 20
40740.033901899595
 10
-21016.651146323267
 20
40740.102035960517
 42
-0.0069711922738782
 10
-21016.323841744794
 20
40741.168303700724
 10
-21016.263889797643
 20
40741.354325059234
 42
-0.0052070422886507
 10
-21016.034464572433
 20
40742.041597136122
 10
-21016.017183380573
 20
40742.091624415836
 42
-0.0009167004426063
 10
-21015.814091492968
 20
40742.676080264893
 42
-0.0025162726948481
 10
-21015.606993862588
 20
40743.259121529394
 10
-21015.569769250858
 20
40743.362271075086
 42
-0.0028212681445678
 10
-21015.321593331937
 20
40744.038001707137
 10
-21015.311762569305
 20
40744.064309151494
 42
-0.0031964916919647
 10
-21015.075470311524
 20
40744.68451391394
 10
-21015.065835857415
 20
40744.709323904368
 42
-0.0036281836443951
 10
-21014.840729896423
 20
40745.276764584982
 10
-21014.831291486207
 20
40745.300062016628
 42
-0.0041269166841055
 10
-21014.616673789609
 20
40745.817502912454
 10
-21014.584040833277
 20
40745.894381358608
 42
-0.0047472213111499
 10
-21014.426996027636
 20
40746.254802826705
 10
-21014.420101946638
 20
40746.270223423562
 42
-0.0025651660002456
 10
-21014.271743912577
 20
40746.597551479783
 42
-0.0057144634913863
 10
-21014.117994218817
 20
40746.92236115312
 10
-21014.089963513325
 20
40746.979869535702
 42
-0.0065388068360434
 10
-21013.906496485663
 20
40747.344102032206
 10
-21013.898038029925
 20
40747.3603616115
 42
-0.0074510842971675
 10
-21013.721855784006
 20
40747.687049892702
 10
-21013.713676113384
 20
40747.701690670132
 42
-0.0084648979820144
 10
-21013.544042260375
 20
40747.993599680922
 10
-21013.536186133737
 20
40748.006606672825
 42
-0.0095638542603002
 10
-21013.372350686295
 20
40748.266495544551
 10
-21013.364875742547
 20
40748.277864906122
 42
-0.0107191626743984
 10
-21013.206074162234
 20
40748.50847614056
 10
-21013.199057428501
 20
40748.518212232928
 42
-0.0118458574038636
 10
-21013.04450932999
 20
40748.72228442823
 42
-0.0129184518036945
 10
-21012.880056706326
 20
40748.918444944466
 10
-21012.849911934009
 20
40748.952571023314
 42
-0.0217742579716037
 10
-21012.673299611692
 20
40749.135777793548
 10
-21012.662554067156
 20
40749.145994626822
 42
-0.0097266568504027
 10
-21012.496496448373
 20
40749.297842201195
 42
-0.0187720905891368
 10
-21012.322148872543
 20
40749.439911054535
 10
-21012.291442881866
 20
40749.463070136939
 42
-0.0179428207548859
 10
-21012.059022161815
 20
40749.625622314081
 10
-21012.055369834852
 20
40749.627986248997
 42
-0.0170047877757913
 10
-21011.819606197369
 20
40749.769446763123
 10
-21011.815823208493
 20
40749.77154506823
 42
-0.0160190788523651
 10
-21011.578914660986
 20
40749.893196370147
 42
-0.0151102861383739
 10
-21011.334882878509
 20
40749.99987914622
 10
-21011.282496376327
 20
40750.020919279101
 42
-0.0271945441928742
 10
-21010.923833817295
 20
40750.142784089803
 10
-21010.854769016663
 20
40750.162133631115
 42
-0.0237596593878426
 10
-21010.438972169759
 20
40750.257584343053
 10
-21010.370909316101
 20
40750.269839031163
 42
-0.0213715440586909
 10
-21010.085034384581
 20
40750.308786062691
 10
-21010.024887218446
 20
40750.314375777387
 42
-0.0101465655825245
 10
-21009.857394686373
 20
40750.326519320661
 10
-21009.848054299913
 20
40750.327006235668
 42
-0.01003759107828
 10
-21009.698900199612
 20
40750.331782053574
 10
-21009.688640930235
 20
40750.331904492588
 42
-0.0103625633792773
 10
-21009.559932935277
 20
40750.33077305906
 10
-21009.537667284261
 20
40750.330115700606
 42
-0.0115689250598926
 10
-21009.453616546481
 20
40750.325686194352
 42
-0.0072438037924697
 10
-21009.369778267024
 20
40750.318096994604
 10
-21009.352977757568
 20
40750.316330451882
 42
-0.0217917312837848
 10
-21009.236407994216
 20
40750.298910559155
 10
-21009.170807903709
 20
40750.286163950754
 42
-0.0332943556770183
 10
-21008.966415738661
 20
40750.232123659443
 10
-21008.936243170163
 20
40750.221955582339
 42
-0.0184824084848202
 10
-21008.797738113644
 20
40750.169504566933
 42
-0.0198002050479359
 10
-21008.663663773092
 20
40750.106620506711
 10
-21008.661777135771
 20
40750.105642719856
 42
-0.0212242343211151
 10
-21008.529638193384
 20
40750.02987998107
 10
-21008.527822897824
 20
40750.02873417885
 42
-0.0226090605758943
 10
-21008.399318996555
 20
40749.939254535253
 10
-21008.397474554862
 20
40749.937842282299
 42
-0.0238457051978504
 10
-21008.274292473565
 20
40749.833846386435
 10
-21008.27233974501
 20
40749.832031508675
 42
-0.0248160564024302
 10
-21008.156138237719
 20
40749.712756907473
 10
-21008.154034604311
 20
40749.710371573761
 42
-0.0254109591283731
 10
-21008.046429386439
 20
40749.575083187789
 10
-21008.04418136453
 20
40749.571941639399
 42
-0.0255528488422194
 10
-21007.946734685745
 20
40749.419914585182
 10
-21007.944403585818
 20
40749.415832973551
 42
-0.0252146793664413
 10
-21007.858622559801
 20
40749.246330727539
 10
-21007.85632032065
 20
40749.24114864564
 42
-0.0244265636129636
 10
-21007.783665626903
 20
40749.053402073645
 10
-21007.774419225421
 20
40749.025536655259
 42
-0.0231319612714018
 10
-21007.728496446427
 20
40748.862235608452
 42
-0.0112130424252207
 10
-21007.6938604239
 20
40748.696032008331
 10
-21007.692657898777
 20
40748.689535421378
 42
-0.0210527881499529
 10
-21007.666971423409
 20
40748.508479775985
 10
-21007.663460828582
 20
40748.473074227397
 42
-0.0190029892354033
 10
-21007.648019355041
 20
40748.219538381207
 10
-21007.647209378596
 20
40748.184062766755
 42
-0.0137974553605542
 10
-21007.648758231426
 20
40747.859031360174
 10
-21007.649603686386
 20
40747.832912615471
 42
-0.0081336634162737
 10
-21007.664463021611
 20
40747.52756514783
 42
-0.0073526923499457
 10
-21007.688771555011
 20
40747.222816903268
 10
-21007.690032978768
 20
40747.209480228878
 42
-0.0066886138679647
 10
-21007.725768564807
 20
40746.878894185422
 10
-21007.727425654284
 20
40746.865272566385
 42
-0.0061359187439835
 10
-21007.775276256343
 20
40746.508508586237
 10
-21007.777313757408
 20
40746.494613783463
 42
-0.0056698609993168
 10
-21007.837964088169
 20
40746.111335214635
 10
-21007.840369521495
 20
40746.097176095391
 42
-0.0052721077193083
 10
-21007.914501722335
 20
40745.687048755528
 10
-21007.917264871139
 20
40745.672632120331
 42
-0.0049289272319703
 10
-21008.005558989225
 20
40745.23532360926
 10
-21008.00867148392
 20
40745.220654756384
 42
-0.0047415956801023
 10
-21008.111909475301
 20
40744.755857999633
 10
-21008.146677685814
 20
40744.606050903589
 42
-0.0084404470944192
 10
-21008.336694129361
 20
40743.845826879158
 10
-21008.342820817372
 20
40743.822962754908
 42
-0.0039635940286495
 10
-21008.564274501539
 20
40743.021973891067
 10
-21008.577651296833
 20
40742.975042274069
 42
-0.007247504078711
 10
-21008.845098184724
 20
40742.085822557594
 10
-21008.915310511431
 20
40741.864082208005
 42
-0.0051345458836925
 10
-21009.202069883584
 20
40740.989757019895
 10
-21009.223596150547
 20
40740.926330752191
 42
-0.0019150016637036
 10
-21009.479129557218
 20
40740.182781632539
 10
-21009.48559716142
 20
40740.164194168181
 42
-0.0021524362802463
 10
-21009.734075212677
 20
40739.459868345912
 10
-21009.743285633413
 20
40739.4341147675
 42
-0.0024331286842944
 10
-21009.979540892411
 20
40738.783515459494
 10
-21009.988588845023
 20
40738.758972152973
 42
-0.0027449721874121
 10
-21010.213203415798
 20
40738.15984227421
 10
-21010.222093423054
 20
40738.136519684718
 42
-0.0031083229718572
 10
-21010.435635909798
 20
40737.586595646775
 10
-21010.444372041547
 20
40737.564505930735
 42
-0.0035311343269788
 10
-21010.647413227067
 20
40737.06152280519
 10
-21010.655998566333
 20
40737.040680081394
 42
-0.0040245640886391
 10
-21010.849110370007
 20
40736.58237075909
 10
-21010.857546483527
 20
40736.56279139121
 42
-0.0046015135950559
 10
-21011.041302776772
 20
40736.146886361377
 10
-21011.049588954393
 20
40736.128589222382
 42
-0.0052768638307401
 10
-21011.22456647356
 20
40735.752816337656
 10
-21011.23269868426
 20
40735.735822998955
 42
-0.0060672675599343
 10
-21011.399478296953
 20
40735.397907375998
 10
-21011.407447777387
 20
40735.382242117099
 42
-0.0069904648873172
 10
-21011.566616171433
 20
40735.079906310333
 10
-21011.574407571217
 20
40735.065595760789
 42
-0.0080637022652927
 10
-21011.726559431394
 20
40734.796560457951
 10
-21011.734148464267
 20
40734.783632591942
 42
-0.0093006455530824
 10
-21011.879889140553
 20
40734.54561819385
 10
-21011.887239807089
 20
40734.534100224999
 42
-0.0107060778083847
 10
-21012.027188350738
 20
40734.324829907302
 10
-21012.034250119032
 20
40734.31474436471
 42
-0.0122723111561497
 10
-21012.169043837213
 20
40734.131951035248
 10
-21012.169370060758
 20
40734.13153064745
 42
-0.0141836319638904
 10
-21012.312951663742
 20
40733.956960889605
 10
-21012.319899419352
 20
40733.948985889394
 42
-0.0175957477296036
 10
-21012.45980558743
 20
40733.79936500093
 42
-0.0080466359593211
 10
-21012.607269352706
 20
40733.657042472551
 10
-21012.653303896976
 20
40733.614022034686
 42
-0.0269600260413338
 10
-21012.906584142969
 20
40733.401698776179
 10
-21012.973151279231
 20
40733.351747361579
 42
-0.0178362839804133
 10
-21013.213095768911
 20
40733.184729435307
 10
-21013.220340739845
 20
40733.180060923143
 42
-0.0174650732714968
 10
-21013.456676937356
 20
40733.039199958141
 42
-0.0169240130245504
 10
-21013.702143183164
 20
40732.914907698389
 10
-21013.748129338768
 20
40732.893545742802
 42
-0.0318883036927154
 10
-21014.098480194432
 20
40732.757207433278
 10
-21014.166845729651
 20
40732.735506812787
 42
-0.0284435909881555
 10
-21014.542895855844
 20
40732.639289377337
 10
-21014.578054016245
 20
40732.632395781526
 42
-0.02439093410334
 10
-21014.891497477263
 20
40732.586674750477
 10
-21014.941778203895
 20
40732.581829203591
 42
-0.0196639293181385
 10
-21015.15737378156
 20
40732.569580918062
 10
-21015.209197852757
 20
40732.568677657327
 42
-0.0100501510688373
 10
-21015.32162113439
 20
40732.568978055679
 10
-21015.353280996078
 20
40732.569699127576
 42
-0.001975203137979
 10
-21015.402373332414
 20
40732.571011287771
 10
-21015.405133635675
 20
40732.571095979598
 42
0.006537875345405
 10
-21015.448710210389
 20
40732.571862870813
 42
-0.0167974694153243
 10
-21015.492241033447
 20
40732.573522769351
 10
-21015.496320372586
 20
40732.573815780241
 42
-0.0081283276298796
 10
-21015.547880170398
 20
40732.578362773886
 10
-21015.559619744199
 20
40732.579590691457
 42
-0.0126703440046845
 10
-21015.634338040134
 20
40732.589325482542
 10
-21015.657125907674
 20
40732.592883738442
 42
-0.0117852088717362
 10
-21015.776664893507
 20
40732.614446733598
 10
-21015.832045345269
 20
40732.625790273829
 42
-0.025177459235629
 10
-21016.05888938421
 20
40732.684288283242
 10
-21016.103608574238
 20
40732.698255102638
 42
-0.0146525199898842
 10
-21016.290001561665
 20
40732.762521629804
 42
-0.0166929435988132
 10
-21016.471979217738
 20
40732.838328762831
 10
-21016.476635849067
 20
40732.84045366347
 42
-0.0191684358367699
 10
-21016.661819480356
 20
40732.933689747289
 10
-21016.665152066071
 20
40732.935530994815
 42
-0.0221181781975548
 10
-21016.84846237001
 20
40733.047664493206
 10
-21016.85081217398
 20
40733.049248791169
 42
-0.0254984685552973
 10
-21017.027102324329
 20
40733.181659941118
 10
-21017.04958447205
 20
40733.200412250066
 42
-0.0292492648874648
 10
-21017.174353410912
 20
40733.317505049723
 42
-0.0159048957486437
 10
-21017.28819340836
 20
40733.445525041316
 10
-21017.289512198942
 20
40733.447106654341
 42
-0.0343813379402002
 10
-21017.392149460553
 20
40733.588977980085
 10
-21017.423640991921
 20
40733.639481372193
 42
-0.0369117275607399
 10
-21017.509533493823
 20
40733.802958613152
 42
-0.019175138019868
 10
-21017.576726879386
 20
40733.975363219171
 10
-21017.578490203141
 20
40733.980456563833
 42
-0.0378178042453494
 10
-21017.628284921921
 20
40734.169397339887
 10
-21017.634280217673
 20
40734.201957958197
 42
-0.0184846046528079
 10
-21017.654997416954
 20
40734.343710778659
 42
-0.0179866351379285
 10
-21017.665330422024
 20
40734.486601591656
 10
-21017.665386864472
 20
40734.488159278349
 42
-0.0085497186007222
 10
-21017.666819145576
 20
40734.563032443359
 42
-0.0085497186007222
  0
ENDBLK
  5
69
100
AcDbEntity
  8
template
390
0
100
AcDbBlockEnd
  0
BLOCK
  5
6A
100
AcDbEntity
  8
notes
390
0
100
AcDbBlockBegin
  2
*D3
 70
               1
 10
0.0
 20
0.0
 30
0.0
  3
*D3
  1

  0
LINE
  5
6B
100
AcDbEntity
  8
0
370
              -2
390
0
  6
Continuous
 62
               0
100
AcDbLine
 10
485.00000000001091
 20
-98.320833333331393
 30
0.0
 11
485.00000000001091
 21
-23.320833333331393
 31
0.0
  0
LINE
  5
6C
100
AcDbEntity
  8
0
370
              -2
390
0
  6
Continuous
 62
               0
100
AcDbLine
 10
585.0
 20
-98.320833333331393
 30
0.0
 11
585.0
 21
-23.320833333331393
 31
0.0
  0
LINE
  5
6D
100
AcDbEntity
  8
0
370
              -2
390
0
  6
Continuous
 62
               0
100
AcDbLine
 10
485.00000000001091
 20
-23.320833333331393
 30
0.0
 11
585.0
 21
-23.320833333331393
 31
0.0
  0
CIRCLE
  5
6E
102
{ACAD_REACTORS
330
6F
102
}
100
AcDbEntity
  8
0
370
              -2
390
0
  6
Continuous
 62
               0
100
AcDbCircle
 10
485.00000000001091
 20
-23.320833333331393
 30
0.0
 40
1.9998779296875
  0
HATCH
  5
6F
100
AcDbEntity
  8
0
370
              -2
390
0
  6
Continuous
 62
               0
100
AcDbHatch
 10
0.0
 20
0.0
 30
0.0
210
0.0
220
0.0
230
1.0
  2
SOLID
 70
               1
 71
               1
 91
        1
 92
        1
 93
        1
 72
               2
 10
485.00000000001091
 20
-23.320833333331393
 40
1.9998779296875
 50
0.0
 51
360.0
 73
               0
 97
        1
330
6E
 75
               0
 76
               1
 98
        1
 10
0.0
 20
0.0
  0
CIRCLE
  5
70
102
{ACAD_REACTORS
330
71
102
}
100
AcDbEntity
  8
0
370
              -2
390
0
  6
Continuous
 62
               0
100
AcDbCircle
 10
585.0
 20
-23.320833333331393
 30
0.0
 40
1.9998779296875
  0
HATCH
  5
71
100
AcDbEntity
  8
0
370
              -2
390
0
  6
Continuous
 62
               0
100
AcDbHatch
 10
0.0
 20
0.0
 30
0.0
210
0.0
220
0.0
230
1.0
  2
SOLID
 70
               1
 71
               1
 91
        1
 92
        1
 93
        1
 72
               2
 10
585.0
 20
-23.320833333331393
 40
1.9998779296875
 50
0.0
 51
360.0
 73
               0
 97
        1
330
70
 75
               0
 76
               1
 98
        1
 10
0.0
 20
0.0
  0
MTEXT
  5
72
100
AcDbEntity
  8
0
390
0
 62
               0
100
AcDbMText
 10
511.18749831783134
 20
10.556783854168316
 30
0.0
 40
24.432617187500004
 41
0.0
 71
               1
 72
               1
  1
100
  7
ＭＳ ゴシック
 73
               1
 44
0.7828267384257843
  0
POINT
  5
73
100
AcDbEntity
  8
Defpoints
370
               0
390
0
 62
               0
100
AcDbPoint
 10
585.0
 20
-123.32083333333139
 30
0.0
  0
POINT
  5
74
100
AcDbEntity
  8
Defpoints
370
               0
390
0
 62
               0
100
AcDbPoint
 10
485.00000000001091
 20
-123.32083333333139
 30
0.0
  0
POINT
  5
75
100
AcDbEntity
  8
Defpoints
370
               0
390
0
 62
               0
100
AcDbPoint
 10
485.00000000001091
 20
-23.320833333331393
 30
0.0
  0
ENDBLK
  5
76
100
AcDbEntity
  8
notes
390
0
100
AcDbBlockEnd
  0
BLOCK
  5
77
100
AcDbEntity
  8
notes
390
0
100
AcDbBlockBegin
  2
*D4
 70
               1
 10
0.0
 20
0.0
 30
0.0
  3
*D4
  1

  0
LINE
  5
78
100
AcDbEntity
  8
0
370
              -2
390
0
  6
Continuous
 62
               0
100
AcDbLine
 10
485.00000000000364
 20
407.05247936491651
 30
0.0
 11
485.00000000000364
 21
329.76575557339675
 31
0.0
  0
LINE
  5
79
100
AcDbEntity
  8
0
370
              -2
390
0
  6
Continuous
 62
               0
100
AcDbLine
 10
560.0
 20
437.98210899456899
 30
0.0
 11
560.0
 21
329.76575557339675
 31
0.0
  0
LINE
  5
7A
100
AcDbEntity
  8
0
370
              -2
390
0
  6
Continuous
 62
               0
100
AcDbLine
 10
485.00000000000364
 20
329.76575557339675
 30
0.0
 11
560.0
 21
329.76575557339675
 31
0.0
  0
CIRCLE
  5
7B
102
{ACAD_REACTORS
330
7C
102
}
100
AcDbEntity
  8
0
370
              -2
390
0
  6
Continuous
 62
               0
100
AcDbCircle
 10
485.00000000000364
 20
329.76575557339675
 30
0.0
 40
1.9998779296875
  0
HATCH
  5
7C
100
AcDbEntity
  8
0
370
              -2
390
0
  6
Continuous
 62
               0
100
AcDbHatch
 10
0.0
 20
0.0
 30
0.0
210
0.0
220
0.0
230
1.0
  2
SOLID
 70
               1
 71
               1
 91
        1
 92
        1
 93
        1
 72
               2
 10
485.00000000000364
 20
329.76575557339675
 40
1.9998779296875
 50
0.0
 51
360.0
 73
               0
 97
        1
330
7B
 75
               0
 76
               1
 98
        1
 10
0.0
 20
0.0
  0
CIRCLE
  5
7D
102
{ACAD_REACTORS
330
7E
102
}
100
AcDbEntity
  8
0
370
              -2
390
0
  6
Continuous
 62
               0
100
AcDbCircle
 10
560.0
 20
329.76575557339675
 30
0.0
 40
1.9998779296875
  0
HATCH
  5
7E
100
AcDbEntity
  8
0
370
              -2
390
0
  6
Continuous
 62
               0
100
AcDbHatch
 10
0.0
 20
0.0
 30
0.0
210
0.0
220
0.0
230
1.0
  2
SOLID
 70
               1
 71
               1
 91
        1
 92
        1
 93
        1
 72
               2
 10
560.0
 20
329.76575557339675
 40
1.9998779296875
 50
0.0
 51
360.0
 73
               0
 97
        1
330
7D
 75
               0
 76
               1
 98
        1
 10
0.0
 20
0.0
  0
MTEXT
  5
7F
100
AcDbEntity
  8
0
390
0
 62
               0
100
AcDbMText
 10
506.625
 20
363.64337276089645
 30
0.0
 40
24.432617187500004
 41
0.0
 71
               1
 72
               1
  1
75
  7
ＭＳ ゴシック
 73
               1
 44
0.7828267384257843
  0
POINT
  5
80
100
AcDbEntity
  8
Defpoints
370
               0
390
0
 62
               0
100
AcDbPoint
 10
560.0
 20
462.98210899456899
 30
0.0
  0
POINT
  5
81
100
AcDbEntity
  8
Defpoints
370
               0
390
0
 62
               0
100
AcDbPoint
 10
485.00000000000364
 20
432.05247936491651
 30
0.0
  0
POINT
  5
82
100
AcDbEntity
  8
Defpoints
370
               0
390
0
 62
               0
100
AcDbPoint
 10
485.00000000000364
 20
329.76575557339675
 30
0.0
  0
ENDBLK
  5
83
100
AcDbEntity
  8
notes
390
0
100
AcDbBlockEnd
  0
BLOCK
  5
84
100
AcDbEntity
  8
notes
390
0
100
AcDbBlockBegin
  2
*D5
 70
               1
 10
0.0
 20
0.0
 30
0.0
  3
*D5
  1

  0
LINE
  5
85
100
AcDbEntity
  8
0
370
              -2
390
0
  6
Continuous
 62
               0
100
AcDbLine
 10
560.0
 20
437.98210899456899
 30
0.0
 11
560.0
 21
329.76575557340402
 31
0.0
  0
LINE
  5
86
100
AcDbEntity
  8
0
370
              -2
390
0
  6
Continuous
 62
               0
100
AcDbLine
 10
584.99999999993815
 20
498.81145607328654
 30
0.0
 11
584.99999999993815
 21
329.76575557340402
 31
0.0
  0
LINE
  5
87
100
AcDbEntity
  8
0
370
              -2
390
0
  6
Continuous
 62
               0
100
AcDbLine
 10
584.99999999993815
 20
329.76575557340402
 30
0.0
 11
623.29222417288111
 21
329.76575557340402
 31
0.0
  0
LINE
  5
88
100
AcDbEntity
  8
0
370
              -2
390
0
  6
Continuous
 62
               0
100
AcDbLine
 10
560.0
 20
329.76575557340402
 30
0.0
 11
584.99999999993815
 21
329.76575557340402
 31
0.0
  0
CIRCLE
  5
89
102
{ACAD_REACTORS
330
8A
102
}
100
AcDbEntity
  8
0
370
              -2
390
0
  6
Continuous
 62
               0
100
AcDbCircle
 10
560.0
 20
329.76575557340402
 30
0.0
 40
1.9998779296875
  0
HATCH
  5
8A
100
AcDbEntity
  8
0
370
              -2
390
0
  6
Continuous
 62
               0
100
AcDbHatch
 10
0.0
 20
0.0
 30
0.0
210
0.0
220
0.0
230
1.0
  2
SOLID
 70
               1
 71
               1
 91
        1
 92
        1
 93
        1
 72
               2
 10
560.0
 20
329.76575557340402
 40
1.9998779296875
 50
0.0
 51
360.0
 73
               0
 97
        1
330
89
 75
               0
 76
               1
 98
        1
 10
0.0
 20
0.0
  0
CIRCLE
  5
8B
102
{ACAD_REACTORS
330
8C
102
}
100
AcDbEntity
  8
0
370
              -2
390
0
  6
Continuous
 62
               0
100
AcDbCircle
 10
584.99999999993815
 20
329.76575557340402
 30
0.0
 40
1.9998779296875
  0
HATCH
  5
8C
100
AcDbEntity
  8
0
370
              -2
390
0
  6
Continuous
 62
               0
100
AcDbHatch
 10
0.0
 20
0.0
 30
0.0
210
0.0
220
0.0
230
1.0
  2
SOLID
 70
               1
 71
               1
 91
        1
 92
        1
 93
        1
 72
               2
 10
584.99999999993815
 20
329.76575557340402
 40
1.9998779296875
 50
0.0
 51
360.0
 73
               0
 97
        1
330
8B
 75
               0
 76
               1
 98
        1
 10
0.0
 20
0.0
  0
MTEXT
  5
8D
100
AcDbEntity
  8
0
390
0
 62
               0
100
AcDbMText
 10
591.54222417288111
 20
363.64337276090373
 30
0.0
 40
24.432617187500004
 41
0.0
 71
               1
 72
               1
  1
25
  7
ＭＳ ゴシック
 73
               1
 44
0.7828267384257843
  0
POINT
  5
8E
100
AcDbEntity
  8
Defpoints
370
               0
390
0
 62
               0
100
AcDbPoint
 10
584.99999999993815
 20
523.81145607328654
 30
0.0
  0
POINT
  5
8F
100
AcDbEntity
  8
Defpoints
370
               0
390
0
 62
               0
100
AcDbPoint
 10
560.0
 20
462.98210899456899
 30
0.0
  0
POINT
  5
90
100
AcDbEntity
  8
Defpoints
370
               0
390
0
 62
               0
100
AcDbPoint
 10
560.0
 20
329.76575557340402
 30
0.0
  0
ENDBLK
  5
91
100
AcDbEntity
  8
notes
390
0
100
AcDbBlockEnd
  0
BLOCK
  5
92
100
AcDbEntity
  8
notes
390
0
100
AcDbBlockBegin
  2
*D6
 70
               1
 10
0.0
 20
0.0
 30
0.0
  3
*D6
  1

  0
LINE
  5
93
100
AcDbEntity
  8
0
370
              -2
390
0
  6
Continuous
 62
               0
100
AcDbLine
 10
485.00000000001091
 20
705.20895928482059
 30
0.0
 11
485.00000000001091
 21
690.04229261815635
 31
0.0
  0
LINE
  5
94
100
AcDbEntity
  8
0
370
              -2
390
0
  6
Continuous
 62
               0
100
AcDbLine
 10
550.00000000001091
 20
705.20895928482059
 30
0.0
 11
550.00000000001091
 21
690.04229261815635
 31
0.0
  0
LINE
  5
95
100
AcDbEntity
  8
0
370
              -2
390
0
  6
Continuous
 62
               0
100
AcDbLine
 10
485.00000000001091
 20
690.04229261815635
 30
0.0
 11
350.97557172486995
 21
690.04229261815635
 31
0.0
  0
LINE
  5
96
100
AcDbEntity
  8
0
370
              -2
390
0
  6
Continuous
 62
               0
100
AcDbLine
 10
485.00000000001091
 20
690.04229261815635
 30
0.0
 11
550.00000000001091
 21
690.04229261815635
 31
0.0
  0
CIRCLE
  5
97
102
{ACAD_REACTORS
330
98
102
}
100
AcDbEntity
  8
0
370
              -2
390
0
  6
Continuous
 62
               0
100
AcDbCircle
 10
485.00000000001091
 20
690.04229261815635
 30
0.0
 40
1.9998779296875
  0
HATCH
  5
98
100
AcDbEntity
  8
0
370
              -2
390
0
  6
Continuous
 62
               0
100
AcDbHatch
 10
0.0
 20
0.0
 30
0.0
210
0.0
220
0.0
230
1.0
  2
SOLID
 70
               1
 71
               1
 91
        1
 92
        1
 93
        1
 72
               2
 10
485.00000000001091
 20
690.04229261815635
 40
1.9998779296875
 50
0.0
 51
360.0
 73
               0
 97
        1
330
97
 75
               0
 76
               1
 98
        1
 10
0.0
 20
0.0
  0
CIRCLE
  5
99
102
{ACAD_REACTORS
330
9A
102
}
100
AcDbEntity
  8
0
370
              -2
390
0
  6
Continuous
 62
               0
100
AcDbCircle
 10
550.00000000001091
 20
690.04229261815635
 30
0.0
 40
1.9998779296875
  0
HATCH
  5
9A
100
AcDbEntity
  8
0
370
              -2
390
0
  6
Continuous
 62
               0
100
AcDbHatch
 10
0.0
 20
0.0
 30
0.0
210
0.0
220
0.0
230
1.0
  2
SOLID
 70
               1
 71
               1
 91
        1
 92
        1
 93
        1
 72
               2
 10
550.00000000001091
 20
690.04229261815635
 40
1.9998779296875
 50
0.0
 51
360.0
 73
               0
 97
        1
330
99
 75
               0
 76
               1
 98
        1
 10
0.0
 20
0.0
  0
MTEXT
  5
9B
100
AcDbEntity
  8
0
390
0
 62
               0
100
AcDbMText
 10
350.97557172486995
 20
723.91990980565606
 30
0.0
 40
24.432617187500004
 41
0.0
 71
               1
 72
               1
  1
65(深さ)
  7
ＭＳ ゴシック
 73
               1
 44
0.7828267384257843
  0
POINT
  5
9C
100
AcDbEntity
  8
Defpoints
370
               0
390
0
 62
               0
100
AcDbPoint
 10
550.00000000001091
 20
680.20895928482059
 30
0.0
  0
POINT
  5
9D
100
AcDbEntity
  8
Defpoints
370
               0
390
0
 62
               0
100
AcDbPoint
 10
485.00000000001091
 20
680.20895928482059
 30
0.0
  0
POINT
  5
9E
100
AcDbEntity
  8
Defpoints
370
               0
390
0
 62
               0
100
AcDbPoint
 10
485.00000000001091
 20
690.04229261815635
 30
0.0
  0
ENDBLK
  5
9F
100
AcDbEntity
  8
notes
390
0
100
AcDbBlockEnd
  0
BLOCK
  5
A0
100
AcDbEntity
  8
notes
390
0
100
AcDbBlockBegin
  2
*D7
 70
               1
 10
0.0
 20
0.0
 30
0.0
  3
*D7
  1

  0
LINE
  5
A1
100
AcDbEntity
  8
0
370
              -2
390
0
  6
Continuous
 62
               0
100
AcDbLine
 10
610.0
 20
962.93105580814154
 30
0.0
 11
735.0
 21
962.93105580814154
 31
0.0
  0
LINE
  5
A2
100
AcDbEntity
  8
0
370
              -2
390
0
  6
Continuous
 62
               0
100
AcDbLine
 10
610.0
 20
515.93105580814154
 30
0.0
 11
735.0
 21
515.93105580814154
 31
0.0
  0
LINE
  5
A3
100
AcDbEntity
  8
0
370
              -2
390
0
  6
Continuous
 62
               0
100
AcDbLine
 10
735.0
 20
962.93105580814154
 30
0.0
 11
735.0
 21
515.93105580814154
 31
0.0
  0
CIRCLE
  5
A4
102
{ACAD_REACTORS
330
A5
102
}
100
AcDbEntity
  8
0
370
              -2
390
0
  6
Continuous
 62
               0
100
AcDbCircle
 10
735.0
 20
962.93105580814154
 30
0.0
 40
1.9998779296875
  0
HATCH
  5
A5
100
AcDbEntity
  8
0
370
              -2
390
0
  6
Continuous
 62
               0
100
AcDbHatch
 10
0.0
 20
0.0
 30
0.0
210
0.0
220
0.0
230
1.0
  2
SOLID
 70
               1
 71
               1
 91
        1
 92
        1
 93
        1
 72
               2
 10
735.0
 20
962.93105580814154
 40
1.9998779296875
 50
0.0
 51
360.0
 73
               0
 97
        1
330
A4
 75
               0
 76
               1
 98
        1
 10
0.0
 20
0.0
  0
CIRCLE
  5
A6
102
{ACAD_REACTORS
330
A7
102
}
100
AcDbEntity
  8
0
370
              -2
390
0
  6
Continuous
 62
               0
100
AcDbCircle
 10
735.0
 20
515.93105580814154
 30
0.0
 40
1.9998779296875
  0
HATCH
  5
A7
100
AcDbEntity
  8
0
370
              -2
390
0
  6
Continuous
 62
               0
100
AcDbHatch
 10
0.0
 20
0.0
 30
0.0
210
0.0
220
0.0
230
1.0
  2
SOLID
 70
               1
 71
               1
 91
        1
 92
        1
 93
        1
 72
               2
 10
735.0
 20
515.93105580814154
 40
1.9998779296875
 50
0.0
 51
360.0
 73
               0
 97
        1
330
A6
 75
               0
 76
               1
 98
        1
 10
0.0
 20
0.0
  0
MTEXT
  5
A8
100
AcDbEntity
  8
0
390
0
 62
               0
100
AcDbMText
 10
701.12238281250029
 20
715.61855412596924
 30
0.0
 40
24.432617187500004
 41
0.0
 71
               1
 72
               1
  1
447
  7
ＭＳ ゴシック
 11
0.0
 21
1.0
 31
0.0
 73
               1
 44
0.7828267384257843
  0
POINT
  5
A9
100
AcDbEntity
  8
Defpoints
370
               0
390
0
 62
               0
100
AcDbPoint
 10
585.0
 20
515.93105580814154
 30
0.0
  0
POINT
  5
AA
100
AcDbEntity
  8
Defpoints
370
               0
390
0
 62
               0
100
AcDbPoint
 10
585.0
 20
962.93105580814154
 30
0.0
  0
POINT
  5
AB
100
AcDbEntity
  8
Defpoints
370
               0
390
0
 62
               0
100
AcDbPoint
 10
735.0
 20
962.93105580814154
 30
0.0
  0
ENDBLK
  5
AC
100
AcDbEntity
  8
notes
390
0
100
AcDbBlockEnd
  0
BLOCK
  5
AD
100
AcDbEntity
  8
notes
390
0
100
AcDbBlockBegin
  2
*D8
 70
               1
 10
0.0
 20
0.0
 30
0.0
  3
*D8
  1

  0
LINE
  5
AE
100
AcDbEntity
  8
0
370
              -2
390
0
  6
Continuous
 62
               0
100
AcDbLine
 10
610.0
 20
962.93105580814154
 30
0.0
 11
685.0
 21
962.93105580814154
 31
0.0
  0
LINE
  5
AF
100
AcDbEntity
  8
0
370
              -2
390
0
  6
Continuous
 62
               0
100
AcDbLine
 10
610.0
 20
757.93105580814154
 30
0.0
 11
685.0
 21
757.93105580814154
 31
0.0
  0
LINE
  5
B0
100
AcDbEntity
  8
0
370
              -2
390
0
  6
Continuous
 62
               0
100
AcDbLine
 10
685.0
 20
962.93105580814154
 30
0.0
 11
685.0
 21
757.93105580814154
 31
0.0
  0
CIRCLE
  5
B1
102
{ACAD_REACTORS
330
B2
102
}
100
AcDbEntity
  8
0
370
              -2
390
0
  6
Continuous
 62
               0
100
AcDbCircle
 10
685.0
 20
962.93105580814154
 30
0.0
 40
1.9998779296875
  0
HATCH
  5
B2
100
AcDbEntity
  8
0
370
              -2
390
0
  6
Continuous
 62
               0
100
AcDbHatch
 10
0.0
 20
0.0
 30
0.0
210
0.0
220
0.0
230
1.0
  2
SOLID
 70
               1
 71
               1
 91
        1
 92
        1
 93
        1
 72
               2
 10
685.0
 20
962.93105580814154
 40
1.9998779296875
 50
0.0
 51
360.0
 73
               0
 97
        1
330
B1
 75
               0
 76
               1
 98
        1
 10
0.0
 20
0.0
  0
CIRCLE
  5
B3
102
{ACAD_REACTORS
330
B4
102
}
100
AcDbEntity
  8
0
370
              -2
390
0
  6
Continuous
 62
               0
100
AcDbCircle
 10
685.0
 20
757.93105580814154
 30
0.0
 40
1.9998779296875
  0
HATCH
  5
B4
100
AcDbEntity
  8
0
370
              -2
390
0
  6
Continuous
 62
               0
100
AcDbHatch
 10
0.0
 20
0.0
 30
0.0
210
0.0
220
0.0
230
1.0
  2
SOLID
 70
               1
 71
               1
 91
        1
 92
        1
 93
        1
 72
               2
 10
685.0
 20
757.93105580814154
 40
1.9998779296875
 50
0.0
 51
360.0
 73
               0
 97
        1
330
B3
 75
               0
 76
               1
 98
        1
 10
0.0
 20
0.0
  0
MTEXT
  5
B5
100
AcDbEntity
  8
0
390
0
 62
               0
100
AcDbMText
 10
651.12238281250029
 20
836.61855412596924
 30
0.0
 40
24.432617187500004
 41
0.0
 71
               1
 72
               1
  1
205
  7
ＭＳ ゴシック
 11
0.0
 21
1.0
 31
0.0
 73
               1
 44
0.7828267384257843
  0
POINT
  5
B6
100
AcDbEntity
  8
Defpoints
370
               0
390
0
 62
               0
100
AcDbPoint
 10
585.0
 20
757.93105580814154
 30
0.0
  0
POINT
  5
B7
100
AcDbEntity
  8
Defpoints
370
               0
390
0
 62
               0
100
AcDbPoint
 10
585.0
 20
962.93105580814154
 30
0.0
  0
POINT
  5
B8
100
AcDbEntity
  8
Defpoints
370
               0
390
0
 62
               0
100
AcDbPoint
 10
685.0
 20
962.93105580814154
 30
0.0
  0
ENDBLK
  5
B9
100
AcDbEntity
  8
notes
390
0
100
AcDbBlockEnd
  0
BLOCK
  5
BA
100
AcDbEntity
  8
notes
390
0
100
AcDbBlockBegin
  2
*D9
 70
               1
 10
0.0
 20
0.0
 30
0.0
  3
*D9
  1

  0
LINE
  5
BB
100
AcDbEntity
  8
0
370
              -2
390
0
  6
Continuous
 62
               0
100
AcDbLine
 10
560.0
 20
962.93105580814154
 30
0.0
 11
385.00000000001091
 21
962.93105580814154
 31
0.0
  0
LINE
  5
BC
100
AcDbEntity
  8
0
370
              -2
390
0
  6
Continuous
 62
               0
100
AcDbLine
 10
460.00000000000364
 20
872.93105580814154
 30
0.0
 11
385.00000000001091
 21
872.93105580814154
 31
0.0
  0
LINE
  5
BD
100
AcDbEntity
  8
0
370
              -2
390
0
  6
Continuous
 62
               0
100
AcDbLine
 10
385.00000000001091
 20
962.93105580814154
 30
0.0
 11
385.00000000001091
 21
872.93105580814154
 31
0.0
  0
CIRCLE
  5
BE
102
{ACAD_REACTORS
330
BF
102
}
100
AcDbEntity
  8
0
370
              -2
390
0
  6
Continuous
 62
               0
100
AcDbCircle
 10
385.00000000001091
 20
962.93105580814154
 30
0.0
 40
1.9998779296875
  0
HATCH
  5
BF
100
AcDbEntity
  8
0
370
              -2
390
0
  6
Continuous
 62
               0
100
AcDbHatch
 10
0.0
 20
0.0
 30
0.0
210
0.0
220
0.0
230
1.0
  2
SOLID
 70
               1
 71
               1
 91
        1
 92
        1
 93
        1
 72
               2
 10
385.00000000001091
 20
962.93105580814154
 40
1.9998779296875
 50
0.0
 51
360.0
 73
               0
 97
        1
330
BE
 75
               0
 76
               1
 98
        1
 10
0.0
 20
0.0
  0
CIRCLE
  5
C0
102
{ACAD_REACTORS
330
C1
102
}
100
AcDbEntity
  8
0
370
              -2
390
0
  6
Continuous
 62
               0
100
AcDbCircle
 10
385.00000000001091
 20
872.93105580814154
 30
0.0
 40
1.9998779296875
  0
HATCH
  5
C1
100
AcDbEntity
  8
0
370
              -2
390
0
  6
Continuous
 62
               0
100
AcDbHatch
 10
0.0
 20
0.0
 30
0.0
210
0.0
220
0.0
230
1.0
  2
SOLID
 70
               1
 71
               1
 91
        1
 92
        1
 93
        1
 72
               2
 10
385.00000000001091
 20
872.93105580814154
 40
1.9998779296875
 50
0.0
 51
360.0
 73
               0
 97
        1
330
C0
 75
               0
 76
               1
 98
        1
 10
0.0
 20
0.0
  0
MTEXT
  5
C2
100
AcDbEntity
  8
0
390
0
 62
               0
100
AcDbMText
 10
351.1223828125112
 20
902.05605580814154
 30
0.0
 40
24.432617187500004
 41
0.0
 71
               1
 72
               1
  1
90
  7
ＭＳ ゴシック
 11
0.0
 21
1.0
 31
0.0
 73
               1
 44
0.7828267384257843
  0
POINT
  5
C3
100
AcDbEntity
  8
Defpoints
370
               0
390
0
 62
               0
100
AcDbPoint
 10
485.00000000000364
 20
872.93105580814154
 30
0.0
  0
POINT
  5
C4
100
AcDbEntity
  8
Defpoints
370
               0
390
0
 62
               0
100
AcDbPoint
 10
585.0
 20
962.93105580814154
 30
0.0
  0
POINT
  5
C5
100
AcDbEntity
  8
Defpoints
370
               0
390
0
 62
               0
100
AcDbPoint
 10
385.00000000001091
 20
962.93105580814154
 30
0.0
  0
ENDBLK
  5
C6
100
AcDbEntity
  8
notes
390
0
100
AcDbBlockEnd
  0
BLOCK
  5
C7
100
AcDbEntity
  8
notes
390
0
100
AcDbBlockBegin
  2
*D10
 70
               1
 10
0.0
 20
0.0
 30
0.0
  3
*D10
  1

  0
LINE
  5
C8
100
AcDbEntity
  8
0
370
              -2
390
0
  6
Continuous
 62
               0
100
AcDbLine
 10
-394.15890475230844
 20
-123.32083333333139
 30
0.0
 11
-714.16525131171875
 21
-123.32083333333139
 31
0.0
  0
LINE
  5
C9
100
AcDbEntity
  8
0
370
              -2
390
0
  6
Continuous
 62
               0
100
AcDbLine
 10
-394.15890475230844
 20
-823.32083333333139
 30
0.0
 11
-714.16525131171875
 21
-823.32083333333139
 31
0.0
  0
LINE
  5
CA
100
AcDbEntity
  8
0
370
              -2
390
0
  6
Continuous
 62
               0
100
AcDbLine
 10
-714.16525131171875
 20
-123.32083333333139
 30
0.0
 11
-714.16525131171875
 21
-823.32083333333139
 31
0.0
  0
CIRCLE
  5
CB
102
{ACAD_REACTORS
330
CC
102
}
100
AcDbEntity
  8
0
370
              -2
390
0
  6
Continuous
 62
               0
100
AcDbCircle
 10
-714.16525131171875
 20
-123.32083333333139
 30
0.0
 40
1.9998779296875
  0
HATCH
  5
CC
100
AcDbEntity
  8
0
370
              -2
390
0
  6
Continuous
 62
               0
100
AcDbHatch
 10
0.0
 20
0.0
 30
0.0
210
0.0
220
0.0
230
1.0
  2
SOLID
 70
               1
 71
               1
 91
        1
 92
        1
 93
        1
 72
               2
 10
-714.16525131171875
 20
-123.32083333333139
 40
1.9998779296875
 50
0.0
 51
360.0
 73
               0
 97
        1
330
CB
 75
               0
 76
               1
 98
        1
 10
0.0
 20
0.0
  0
CIRCLE
  5
CD
102
{ACAD_REACTORS
330
CE
102
}
100
AcDbEntity
  8
0
370
              -2
390
0
  6
Continuous
 62
               0
100
AcDbCircle
 10
-714.16525131171875
 20
-823.32083333333139
 30
0.0
 40
1.9998779296875
  0
HATCH
  5
CE
100
AcDbEntity
  8
0
370
              -2
390
0
  6
Continuous
 62
               0
100
AcDbHatch
 10
0.0
 20
0.0
 30
0.0
210
0.0
220
0.0
230
1.0
  2
SOLID
 70
               1
 71
               1
 91
        1
 92
        1
 93
        1
 72
               2
 10
-714.16525131171875
 20
-823.32083333333139
 40
1.9998779296875
 50
0.0
 51
360.0
 73
               0
 97
        1
330
CD
 75
               0
 76
               1
 98
        1
 10
0.0
 20
0.0
  0
MTEXT
  5
CF
100
AcDbEntity
  8
0
390
0
 62
               0
100
AcDbMText
 10
-748.04286849921846
 20
-497.13333501550369
 30
0.0
 40
24.432617187500004
 41
0.0
 71
               1
 72
               1
  1
700
  7
ＭＳ ゴシック
 11
0.0
 21
1.0
 31
0.0
 73
               1
 44
0.7828267384257843
  0
POINT
  5
D0
100
AcDbEntity
  8
Defpoints
370
               0
390
0
 62
               0
100
AcDbPoint
 10
-369.15890475230844
 20
-823.32083333333139
 30
0.0
  0
POINT
  5
D1
100
AcDbEntity
  8
Defpoints
370
               0
390
0
 62
               0
100
AcDbPoint
 10
-369.15890475230844
 20
-123.32083333333139
 30
0.0
  0
POINT
  5
D2
100
AcDbEntity
  8
Defpoints
370
               0
390
0
 62
               0
100
AcDbPoint
 10
-714.16525131171875
 20
-123.32083333333139
 30
0.0
  0
ENDBLK
  5
D3
100
AcDbEntity
  8
notes
390
0
100
AcDbBlockEnd
  0
BLOCK
  5
D4
100
AcDbEntity
  8
notes
390
0
100
AcDbBlockBegin
  2
*D11
 70
               1
 10
0.0
 20
0.0
 30
0.0
  3
*D11
  1

  0
LINE
  5
D5
100
AcDbEntity
  8
0
370
              -2
390
0
  6
Continuous
 62
               0
100
AcDbLine
 10
-227.40505623236822
 20
-808.32083333333139
 30
0.0
 11
20.560372128878953
 21
-808.32083333333139
 31
0.0
  0
LINE
  5
D6
100
AcDbEntity
  8
0
370
              -2
390
0
  6
Continuous
 62
               0
100
AcDbLine
 10
-226.34162372993524
 20
-138.32302597343369
 30
0.0
 11
20.560372128878953
 21
-138.32302597343369
 31
0.0
  0
LINE
  5
D7
100
AcDbEntity
  8
0
370
              -2
390
0
  6
Continuous
 62
               0
100
AcDbLine
 10
20.560372128878953
 20
-808.32083333333139
 30
0.0
 11
20.560372128878953
 21
-138.32302597343369
 31
0.0
  0
CIRCLE
  5
D8
102
{ACAD_REACTORS
330
D9
102
}
100
AcDbEntity
  8
0
370
              -2
390
0
  6
Continuous
 62
               0
100
AcDbCircle
 10
20.560372128878953
 20
-808.32083333333139
 30
0.0
 40
1.9998779296875
  0
HATCH
  5
D9
100
AcDbEntity
  8
0
370
              -2
390
0
  6
Continuous
 62
               0
100
AcDbHatch
 10
0.0
 20
0.0
 30
0.0
210
0.0
220
0.0
230
1.0
  2
SOLID
 70
               1
 71
               1
 91
        1
 92
        1
 93
        1
 72
               2
 10
20.560372128878953
 20
-808.32083333333139
 40
1.9998779296875
 50
0.0
 51
360.0
 73
               0
 97
        1
330
D8
 75
               0
 76
               1
 98
        1
 10
0.0
 20
0.0
  0
CIRCLE
  5
DA
102
{ACAD_REACTORS
330
DB
102
}
100
AcDbEntity
  8
0
370
              -2
390
0
  6
Continuous
 62
               0
100
AcDbCircle
 10
20.560372128878953
 20
-138.32302597343369
 30
0.0
 40
1.9998779296875
  0
HATCH
  5
DB
100
AcDbEntity
  8
0
370
              -2
390
0
  6
Continuous
 62
               0
100
AcDbHatch
 10
0.0
 20
0.0
 30
0.0
210
0.0
220
0.0
230
1.0
  2
SOLID
 70
               1
 71
               1
 91
        1
 92
        1
 93
        1
 72
               2
 10
20.560372128878953
 20
-138.32302597343369
 40
1.9998779296875
 50
0.0
 51
360.0
 73
               0
 97
        1
330
DA
 75
               0
 76
               1
 98
        1
 10
0.0
 20
0.0
  0
MTEXT
  5
DC
100
AcDbEntity
  8
0
390
0
 62
               0
100
AcDbMText
 10
-13.317245058620756
 20
-497.13443133555847
 30
0.0
 40
24.432617187500004
 41
0.0
 71
               1
 72
               1
  1
670
  7
ＭＳ ゴシック
 11
0.0
 21
1.0
 31
0.0
 73
               1
 44
0.7828267384257843
  0
POINT
  5
DD
100
AcDbEntity
  8
Defpoints
370
               0
390
0
 62
               0
100
AcDbPoint
 10
-251.34162372993524
 20
-138.32302597343369
 30
0.0
  0
POINT
  5
DE
100
AcDbEntity
  8
Defpoints
370
               0
390
0
 62
               0
100
AcDbPoint
 10
-252.40505623236822
 20
-808.32083333333139
 30
0.0
  0
POINT
  5
DF
100
AcDbEntity
  8
Defpoints
370
               0
390
0
 62
               0
100
AcDbPoint
 10
20.560372128878953
 20
-808.32083333333139
 30
0.0
  0
ENDBLK
  5
E0
100
AcDbEntity
  8
notes
390
0
100
AcDbBlockEnd
  0
BLOCK
  5
E1
100
AcDbEntity
  8
notes
390
0
100
AcDbBlockBegin
  2
*D12
 70
               1
 10
0.0
 20
0.0
 30
0.0
  3
*D12
  1

  0
LINE
  5
E2
100
AcDbEntity
  8
0
370
              -2
390
0
  6
Continuous
 62
               0
100
AcDbLine
 10
-484.43390529474345
 20
-807.17449539934023
 30
0.0
 11
-484.43390529474345
 21
-923.32083333333139
 31
0.0
  0
LINE
  5
E3
100
AcDbEntity
  8
0
370
              -2
390
0
  6
Continuous
 62
               0
100
AcDbLine
 10
-94.433905294743454
 20
-620.06602003833541
 30
0.0
 11
-94.433905294743454
 21
-923.32083333333139
 31
0.0
  0
LINE
  5
E4
100
AcDbEntity
  8
0
370
              -2
390
0
  6
Continuous
 62
               0
100
AcDbLine
 10
-484.43390529474345
 20
-923.32083333333139
 30
0.0
 11
-94.433905294743454
 21
-923.32083333333139
 31
0.0
  0
CIRCLE
  5
E5
102
{ACAD_REACTORS
330
E6
102
}
100
AcDbEntity
  8
0
370
              -2
390
0
  6
Continuous
 62
               0
100
AcDbCircle
 10
-484.43390529474345
 20
-923.32083333333139
 30
0.0
 40
1.9998779296875
  0
HATCH
  5
E6
100
AcDbEntity
  8
0
370
              -2
390
0
  6
Continuous
 62
               0
100
AcDbHatch
 10
0.0
 20
0.0
 30
0.0
210
0.0
220
0.0
230
1.0
  2
SOLID
 70
               1
 71
               1
 91
        1
 92
        1
 93
        1
 72
               2
 10
-484.43390529474345
 20
-923.32083333333139
 40
1.9998779296875
 50
0.0
 51
360.0
 73
               0
 97
        1
330
E5
 75
               0
 76
               1
 98
        1
 10
0.0
 20
0.0
  0
CIRCLE
  5
E7
102
{ACAD_REACTORS
330
E8
102
}
100
AcDbEntity
  8
0
370
              -2
390
0
  6
Continuous
 62
               0
100
AcDbCircle
 10
-94.433905294743454
 20
-923.32083333333139
 30
0.0
 40
1.9998779296875
  0
HATCH
  5
E8
100
AcDbEntity
  8
0
370
              -2
390
0
  6
Continuous
 62
               0
100
AcDbHatch
 10
0.0
 20
0.0
 30
0.0
210
0.0
220
0.0
230
1.0
  2
SOLID
 70
               1
 71
               1
 91
        1
 92
        1
 93
        1
 72
               2
 10
-94.433905294743454
 20
-923.32083333333139
 40
1.9998779296875
 50
0.0
 51
360.0
 73
               0
 97
        1
330
E7
 75
               0
 76
               1
 98
        1
 10
0.0
 20
0.0
  0
MTEXT
  5
E9
100
AcDbEntity
  8
0
390
0
 62
               0
100
AcDbMText
 10
-313.24640697691939
 20
-889.44321614583168
 30
0.0
 40
24.432617187500004
 41
0.0
 71
               1
 72
               1
  1
390
  7
ＭＳ ゴシック
 73
               1
 44
0.7828267384257843
  0
POINT
  5
EA
100
AcDbEntity
  8
Defpoints
370
               0
390
0
 62
               0
100
AcDbPoint
 10
-94.433905294743454
 20
-595.06602003833541
 30
0.0
  0
POINT
  5
EB
100
AcDbEntity
  8
Defpoints
370
               0
390
0
 62
               0
100
AcDbPoint
 10
-484.43390529474345
 20
-782.17449539934023
 30
0.0
  0
POINT
  5
EC
100
AcDbEntity
  8
Defpoints
370
               0
390
0
 62
               0
100
AcDbPoint
 10
-484.43390529474345
 20
-923.32083333333139
 30
0.0
  0
ENDBLK
  5
ED
100
AcDbEntity
  8
notes
390
0
100
AcDbBlockEnd
  0
BLOCK
  5
EE
100
AcDbEntity
  8
notes
390
0
100
AcDbBlockBegin
  2
*D13
 70
               1
 10
0.0
 20
0.0
 30
0.0
  3
*D13
  1

  0
LINE
  5
EF
100
AcDbEntity
  8
0
370
              -2
390
0
  6
Continuous
 62
               0
100
AcDbLine
 10
-79.439627871124685
 20
-424.45656669956225
 30
0.0
 11
-79.439627871124685
 21
-23.320833333331393
 31
0.0
  0
LINE
  5
F0
100
AcDbEntity
  8
0
370
              -2
390
0
  6
Continuous
 62
               0
100
AcDbLine
 10
-614.43962787112469
 20
-423.32083333333867
 30
0.0
 11
-614.43962787112469
 21
-23.320833333331393
 31
0.0
  0
LINE
  5
F1
100
AcDbEntity
  8
0
370
              -2
390
0
  6
Continuous
 62
               0
100
AcDbLine
 10
-79.439627871124685
 20
-23.320833333331393
 30
0.0
 11
-614.43962787112469
 21
-23.320833333331393
 31
0.0
  0
CIRCLE
  5
F2
102
{ACAD_REACTORS
330
F3
102
}
100
AcDbEntity
  8
0
370
              -2
390
0
  6
Continuous
 62
               0
100
AcDbCircle
 10
-79.439627871124685
 20
-23.320833333331393
 30
0.0
 40
1.9998779296875
  0
HATCH
  5
F3
100
AcDbEntity
  8
0
370
              -2
390
0
  6
Continuous
 62
               0
100
AcDbHatch
 10
0.0
 20
0.0
 30
0.0
210
0.0
220
0.0
230
1.0
  2
SOLID
 70
               1
 71
               1
 91
        1
 92
        1
 93
        1
 72
               2
 10
-79.439627871124685
 20
-23.320833333331393
 40
1.9998779296875
 50
0.0
 51
360.0
 73
               0
 97
        1
330
F2
 75
               0
 76
               1
 98
        1
 10
0.0
 20
0.0
  0
CIRCLE
  5
F4
102
{ACAD_REACTORS
330
F5
102
}
100
AcDbEntity
  8
0
370
              -2
390
0
  6
Continuous
 62
               0
100
AcDbCircle
 10
-614.43962787112469
 20
-23.320833333331393
 30
0.0
 40
1.9998779296875
  0
HATCH
  5
F5
100
AcDbEntity
  8
0
370
              -2
390
0
  6
Continuous
 62
               0
100
AcDbHatch
 10
0.0
 20
0.0
 30
0.0
210
0.0
220
0.0
230
1.0
  2
SOLID
 70
               1
 71
               1
 91
        1
 92
        1
 93
        1
 72
               2
 10
-614.43962787112469
 20
-23.320833333331393
 40
1.9998779296875
 50
0.0
 51
360.0
 73
               0
 97
        1
330
F4
 75
               0
 76
               1
 98
        1
 10
0.0
 20
0.0
  0
MTEXT
  5
F6
100
AcDbEntity
  8
0
390
0
 62
               0
100
AcDbMText
 10
-370.75212955330062
 20
10.556783854168316
 30
0.0
 40
24.432617187500004
 41
0.0
 71
               1
 72
               1
  1
535
  7
ＭＳ ゴシック
 73
               1
 44
0.7828267384257843
  0
POINT
  5
F7
100
AcDbEntity
  8
Defpoints
370
               0
390
0
 62
               0
100
AcDbPoint
 10
-614.43962787112469
 20
-448.32083333333867
 30
0.0
  0
POINT
  5
F8
100
AcDbEntity
  8
Defpoints
370
               0
390
0
 62
               0
100
AcDbPoint
 10
-79.439627871124685
 20
-449.45656669956225
 30
0.0
  0
POINT
  5
F9
100
AcDbEntity
  8
Defpoints
370
               0
390
0
 62
               0
100
AcDbPoint
 10
-79.439627871124685
 20
-23.320833333331393
 30
0.0
  0
ENDBLK
  5
FA
100
AcDbEntity
  8
notes
390
0
100
AcDbBlockEnd
  0
BLOCK
  5
FB
100
AcDbEntity
  8
notes
390
0
100
AcDbBlockBegin
  2
*D14
 70
               1
 10
0.0
 20
0.0
 30
0.0
  3
*D14
  1

  0
LINE
  5
FC
100
AcDbEntity
  8
0
370
              -2
390
0
  6
Continuous
 62
               0
100
AcDbLine
 10
-484.43390529474345
 20
-807.17449539934023
 30
0.0
 11
-484.43390529474345
 21
-923.32083333333139
 31
0.0
  0
LINE
  5
FD
100
AcDbEntity
  8
0
370
              -2
390
0
  6
Continuous
 62
               0
100
AcDbLine
 10
-569.4338219992278
 20
-700.11589984739112
 30
0.0
 11
-569.4338219992278
 21
-923.32083333333139
 31
0.0
  0
LINE
  5
FE
100
AcDbEntity
  8
0
370
              -2
390
0
  6
Continuous
 62
               0
100
AcDbLine
 10
-484.43390529474345
 20
-923.32083333333139
 30
0.0
 11
-569.4338219992278
 21
-923.32083333333139
 31
0.0
  0
CIRCLE
  5
FF
102
{ACAD_REACTORS
330
100
102
}
100
AcDbEntity
  8
0
370
              -2
390
0
  6
Continuous
 62
               0
100
AcDbCircle
 10
-484.43390529474345
 20
-923.32083333333139
 30
0.0
 40
1.9998779296875
  0
HATCH
  5
100
100
AcDbEntity
  8
0
370
              -2
390
0
  6
Continuous
 62
               0
100
AcDbHatch
 10
0.0
 20
0.0
 30
0.0
210
0.0
220
0.0
230
1.0
  2
SOLID
 70
               1
 71
               1
 91
        1
 92
        1
 93
        1
 72
               2
 10
-484.43390529474345
 20
-923.32083333333139
 40
1.9998779296875
 50
0.0
 51
360.0
 73
               0
 97
        1
330
FF
 75
               0
 76
               1
 98
        1
 10
0.0
 20
0.0
  0
CIRCLE
  5
101
102
{ACAD_REACTORS
330
102
102
}
100
AcDbEntity
  8
0
370
              -2
390
0
  6
Continuous
 62
               0
100
AcDbCircle
 10
-569.4338219992278
 20
-923.32083333333139
 30
0.0
 40
1.9998779296875
  0
HATCH
  5
102
100
AcDbEntity
  8
0
370
              -2
390
0
  6
Continuous
 62
               0
100
AcDbHatch
 10
0.0
 20
0.0
 30
0.0
210
0.0
220
0.0
230
1.0
  2
SOLID
 70
               1
 71
               1
 91
        1
 92
        1
 93
        1
 72
               2
 10
-569.4338219992278
 20
-923.32083333333139
 40
1.9998779296875
 50
0.0
 51
360.0
 73
               0
 97
        1
330
101
 75
               0
 76
               1
 98
        1
 10
0.0
 20
0.0
  0
MTEXT
  5
103
100
AcDbEntity
  8
0
390
0
 62
               0
100
AcDbMText
 10
-542.80886364698381
 20
-889.44321614583168
 30
0.0
 40
24.432617187500004
 41
0.0
 71
               1
 72
               1
  1
85
  7
ＭＳ ゴシック
 73
               1
 44
0.7828267384257843
  0
POINT
  5
104
100
AcDbEntity
  8
Defpoints
370
               0
390
0
 62
               0
100
AcDbPoint
 10
-569.4338219992278
 20
-675.11589984739112
 30
0.0
  0
POINT
  5
105
100
AcDbEntity
  8
Defpoints
370
               0
390
0
 62
               0
100
AcDbPoint
 10
-484.43390529474345
 20
-782.17449539934023
 30
0.0
  0
POINT
  5
106
100
AcDbEntity
  8
Defpoints
370
               0
390
0
 62
               0
100
AcDbPoint
 10
-484.43390529474345
 20
-923.32083333333139
 30
0.0
  0
ENDBLK
  5
107
100
AcDbEntity
  8
notes
390
0
100
AcDbBlockEnd
  0
BLOCK
  5
108
100
AcDbEntity
  8
notes
390
0
100
AcDbBlockBegin
  2
*D15
 70
               1
 10
0.0
 20
0.0
 30
0.0
  3
*D15
  1

  0
LINE
  5
109
100
AcDbEntity
  8
0
370
              -2
390
0
  6
Continuous
 62
               0
100
AcDbLine
 10
-569.4338219992278
 20
-698.11589984739112
 30
0.0
 11
-569.4338219992278
 21
-923.32083333332412
 31
0.0
  0
LINE
  5
10A
100
AcDbEntity
  8
0
370
              -2
390
0
  6
Continuous
 62
               0
100
AcDbLine
 10
-614.4338219992278
 20
-498.32083333333867
 30
0.0
 11
-614.4338219992278
 21
-923.32083333332412
 31
0.0
  0
LINE
  5
10B
100
AcDbEntity
  8
0
370
              -2
390
0
  6
Continuous
 62
               0
100
AcDbLine
 10
-569.4338219992278
 20
-923.32083333332412
 30
0.0
 11
-614.4338219992278
 21
-923.32083333332412
 31
0.0
  0
CIRCLE
  5
10C
102
{ACAD_REACTORS
330
10D
102
}
100
AcDbEntity
  8
0
370
              -2
390
0
  6
Continuous
 62
               0
100
AcDbCircle
 10
-569.4338219992278
 20
-923.32083333332412
 30
0.0
 40
1.9998779296875
  0
HATCH
  5
10D
100
AcDbEntity
  8
0
370
              -2
390
0
  6
Continuous
 62
               0
100
AcDbHatch
 10
0.0
 20
0.0
 30
0.0
210
0.0
220
0.0
230
1.0
  2
SOLID
 70
               1
 71
               1
 91
        1
 92
        1
 93
        1
 72
               2
 10
-569.4338219992278
 20
-923.32083333332412
 40
1.9998779296875
 50
0.0
 51
360.0
 73
               0
 97
        1
330
10C
 75
               0
 76
               1
 98
        1
 10
0.0
 20
0.0
  0
CIRCLE
  5
10E
102
{ACAD_REACTORS
330
10F
102
}
100
AcDbEntity
  8
0
370
              -2
390
0
  6
Continuous
 62
               0
100
AcDbCircle
 10
-614.4338219992278
 20
-923.32083333332412
 30
0.0
 40
1.9998779296875
  0
HATCH
  5
10F
100
AcDbEntity
  8
0
370
              -2
390
0
  6
Continuous
 62
               0
100
AcDbHatch
 10
0.0
 20
0.0
 30
0.0
210
0.0
220
0.0
230
1.0
  2
SOLID
 70
               1
 71
               1
 91
        1
 92
        1
 93
        1
 72
               2
 10
-614.4338219992278
 20
-923.32083333332412
 40
1.9998779296875
 50
0.0
 51
360.0
 73
               0
 97
        1
330
10E
 75
               0
 76
               1
 98
        1
 10
0.0
 20
0.0
  0
MTEXT
  5
110
100
AcDbEntity
  8
0
390
0
 62
               0
100
AcDbMText
 10
-607.8088219992278
 20
-889.44321614582441
 30
0.0
 40
24.432617187500004
 41
0.0
 71
               1
 72
               1
  1
45
  7
ＭＳ ゴシック
 73
               1
 44
0.7828267384257843
  0
POINT
  5
111
100
AcDbEntity
  8
Defpoints
370
               0
390
0
 62
               0
100
AcDbPoint
 10
-614.4338219992278
 20
-473.32083333333867
 30
0.0
  0
POINT
  5
112
100
AcDbEntity
  8
Defpoints
370
               0
390
0
 62
               0
100
AcDbPoint
 10
-569.4338219992278
 20
-673.11589984739112
 30
0.0
  0
POINT
  5
113
100
AcDbEntity
  8
Defpoints
370
               0
390
0
 62
               0
100
AcDbPoint
 10
-569.4338219992278
 20
-923.32083333332412
 30
0.0
  0
ENDBLK
  5
114
100
AcDbEntity
  8
notes
390
0
100
AcDbBlockEnd
  0
BLOCK
  5
115
100
AcDbEntity
  8
notes
390
0
100
AcDbBlockBegin
  2
*D16
 70
               1
 10
0.0
 20
0.0
 30
0.0
  3
*D16
  1

  0
LINE
  5
116
100
AcDbEntity
  8
0
370
              -2
390
0
  6
Continuous
 62
               0
100
AcDbLine
 10
-614.4777223359888
 20
793.41271878718544
 30
0.0
 11
-614.4777223359888
 21
912.0
 31
0.0
  0
LINE
  5
117
100
AcDbEntity
  8
0
370
              -2
390
0
  6
Continuous
 62
               0
100
AcDbLine
 10
-559.45777582712253
 20
792.93348424988653
 30
0.0
 11
-559.45777582712253
 21
912.0
 31
0.0
  0
LINE
  5
118
100
AcDbEntity
  8
0
370
              -2
390
0
  6
Continuous
 62
               0
100
AcDbLine
 10
-614.4777223359888
 20
912.0
 30
0.0
 11
-559.45777582712253
 21
912.0
 31
0.0
  0
CIRCLE
  5
119
102
{ACAD_REACTORS
330
11A
102
}
100
AcDbEntity
  8
0
370
              -2
390
0
  6
Continuous
 62
               0
100
AcDbCircle
 10
-614.4777223359888
 20
912.0
 30
0.0
 40
1.9998779296875
  0
HATCH
  5
11A
100
AcDbEntity
  8
0
370
              -2
390
0
  6
Continuous
 62
               0
100
AcDbHatch
 10
0.0
 20
0.0
 30
0.0
210
0.0
220
0.0
230
1.0
  2
SOLID
 70
               1
 71
               1
 91
        1
 92
        1
 93
        1
 72
               2
 10
-614.4777223359888
 20
912.0
 40
1.9998779296875
 50
0.0
 51
360.0
 73
               0
 97
        1
330
119
 75
               0
 76
               1
 98
        1
 10
0.0
 20
0.0
  0
CIRCLE
  5
11B
102
{ACAD_REACTORS
330
11C
102
}
100
AcDbEntity
  8
0
370
              -2
390
0
  6
Continuous
 62
               0
100
AcDbCircle
 10
-559.45777582712253
 20
912.0
 30
0.0
 40
1.9998779296875
  0
HATCH
  5
11C
100
AcDbEntity
  8
0
370
              -2
390
0
  6
Continuous
 62
               0
100
AcDbHatch
 10
0.0
 20
0.0
 30
0.0
210
0.0
220
0.0
230
1.0
  2
SOLID
 70
               1
 71
               1
 91
        1
 92
        1
 93
        1
 72
               2
 10
-559.45777582712253
 20
912.0
 40
1.9998779296875
 50
0.0
 51
360.0
 73
               0
 97
        1
330
11B
 75
               0
 76
               1
 98
        1
 10
0.0
 20
0.0
  0
MTEXT
  5
11D
100
AcDbEntity
  8
0
390
0
 62
               0
100
AcDbMText
 10
-602.08142028563816
 20
945.87761718749971
 30
0.0
 40
24.432617187500004
 41
0.0
 71
               1
 72
               1
  1
55
  7
ＭＳ ゴシック
 73
               1
 44
0.7828267384257843
  0
POINT
  5
11E
100
AcDbEntity
  8
Defpoints
370
               0
390
0
 62
               0
100
AcDbPoint
 10
-559.45777582712253
 20
767.93348424988653
 30
0.0
  0
POINT
  5
11F
100
AcDbEntity
  8
Defpoints
370
               0
390
0
 62
               0
100
AcDbPoint
 10
-614.4777223359888
 20
768.41271878718544
 30
0.0
  0
POINT
  5
120
100
AcDbEntity
  8
Defpoints
370
               0
390
0
 62
               0
100
AcDbPoint
 10
-614.4777223359888
 20
912.0
 30
0.0
  0
ENDBLK
  5
121
100
AcDbEntity
  8
notes
390
0
100
AcDbBlockEnd
  0
BLOCK
  5
122
100
AcDbEntity
  8
notes
390
0
100
AcDbBlockBegin
  2
*D17
 70
               1
 10
0.0
 20
0.0
 30
0.0
  3
*D17
  1

  0
LINE
  5
123
100
AcDbEntity
  8
0
370
              -2
390
0
  6
Continuous
 62
               0
100
AcDbLine
 10
-559.45777582712253
 20
792.93348424988653
 30
0.0
 11
-559.45777582712253
 21
912.0
 31
0.0
  0
LINE
  5
124
100
AcDbEntity
  8
0
370
              -2
390
0
  6
Continuous
 62
               0
100
AcDbLine
 10
-359.45777582712253
 20
792.93348424988653
 30
0.0
 11
-359.45777582712253
 21
912.0
 31
0.0
  0
LINE
  5
125
100
AcDbEntity
  8
0
370
              -2
390
0
  6
Continuous
 62
               0
100
AcDbLine
 10
-559.45777582712253
 20
912.0
 30
0.0
 11
-359.45777582712253
 21
912.0
 31
0.0
  0
CIRCLE
  5
126
102
{ACAD_REACTORS
330
127
102
}
100
AcDbEntity
  8
0
370
              -2
390
0
  6
Continuous
 62
               0
100
AcDbCircle
 10
-559.45777582712253
 20
912.0
 30
0.0
 40
1.9998779296875
  0
HATCH
  5
127
100
AcDbEntity
  8
0
370
              -2
390
0
  6
Continuous
 62
               0
100
AcDbHatch
 10
0.0
 20
0.0
 30
0.0
210
0.0
220
0.0
230
1.0
  2
SOLID
 70
               1
 71
               1
 91
        1
 92
        1
 93
        1
 72
               2
 10
-559.45777582712253
 20
912.0
 40
1.9998779296875
 50
0.0
 51
360.0
 73
               0
 97
        1
330
126
 75
               0
 76
               1
 98
        1
 10
0.0
 20
0.0
  0
CIRCLE
  5
128
102
{ACAD_REACTORS
330
129
102
}
100
AcDbEntity
  8
0
370
              -2
390
0
  6
Continuous
 62
               0
100
AcDbCircle
 10
-359.45777582712253
 20
912.0
 30
0.0
 40
1.9998779296875
  0
HATCH
  5
129
100
AcDbEntity
  8
0
370
              -2
390
0
  6
Continuous
 62
               0
100
AcDbHatch
 10
0.0
 20
0.0
 30
0.0
210
0.0
220
0.0
230
1.0
  2
SOLID
 70
               1
 71
               1
 91
        1
 92
        1
 93
        1
 72
               2
 10
-359.45777582712253
 20
912.0
 40
1.9998779296875
 50
0.0
 51
360.0
 73
               0
 97
        1
330
128
 75
               0
 76
               1
 98
        1
 10
0.0
 20
0.0
  0
MTEXT
  5
12A
100
AcDbEntity
  8
0
390
0
 62
               0
100
AcDbMText
 10
-483.27027750929847
 20
945.87761718749971
 30
0.0
 40
24.432617187500004
 41
0.0
 71
               1
 72
               1
  1
200
  7
ＭＳ ゴシック
 73
               1
 44
0.7828267384257843
  0
POINT
  5
12B
100
AcDbEntity
  8
Defpoints
370
               0
390
0
 62
               0
100
AcDbPoint
 10
-359.45777582712253
 20
767.93348424988653
 30
0.0
  0
POINT
  5
12C
100
AcDbEntity
  8
Defpoints
370
               0
390
0
 62
               0
100
AcDbPoint
 10
-559.45777582712253
 20
767.93348424988653
 30
0.0
  0
POINT
  5
12D
100
AcDbEntity
  8
Defpoints
370
               0
390
0
 62
               0
100
AcDbPoint
 10
-559.45777582712253
 20
912.0
 30
0.0
  0
ENDBLK
  5
12E
100
AcDbEntity
  8
notes
390
0
100
AcDbBlockEnd
  0
BLOCK
  5
12F
100
AcDbEntity
  8
notes
390
0
100
AcDbBlockBegin
  2
*D18
 70
               1
 10
0.0
 20
0.0
 30
0.0
  3
*D18
  1

  0
LINE
  5
130
100
AcDbEntity
  8
0
370
              -2
390
0
  6
Continuous
 62
               0
100
AcDbLine
 10
-334.45777582712253
 20
767.93348424988653
 30
0.0
 11
-261.20642028563816
 21
767.93348424988653
 31
0.0
  0
LINE
  5
131
100
AcDbEntity
  8
0
370
              -2
390
0
  6
Continuous
 62
               0
100
AcDbLine
 10
-334.45777582712253
 20
667.93348424988653
 30
0.0
 11
-261.20642028563816
 21
667.93348424988653
 31
0.0
  0
LINE
  5
132
100
AcDbEntity
  8
0
370
              -2
390
0
  6
Continuous
 62
               0
100
AcDbLine
 10
-261.20642028563816
 20
767.93348424988653
 30
0.0
 11
-261.20642028563816
 21
667.93348424988653
 31
0.0
  0
CIRCLE
  5
133
102
{ACAD_REACTORS
330
134
102
}
100
AcDbEntity
  8
0
370
              -2
390
0
  6
Continuous
 62
               0
100
AcDbCircle
 10
-261.20642028563816
 20
767.93348424988653
 30
0.0
 40
1.9998779296875
  0
HATCH
  5
134
100
AcDbEntity
  8
0
370
              -2
390
0
  6
Continuous
 62
               0
100
AcDbHatch
 10
0.0
 20
0.0
 30
0.0
210
0.0
220
0.0
230
1.0
  2
SOLID
 70
               1
 71
               1
 91
        1
 92
        1
 93
        1
 72
               2
 10
-261.20642028563816
 20
767.93348424988653
 40
1.9998779296875
 50
0.0
 51
360.0
 73
               0
 97
        1
330
133
 75
               0
 76
               1
 98
        1
 10
0.0
 20
0.0
  0
CIRCLE
  5
135
102
{ACAD_REACTORS
330
136
102
}
100
AcDbEntity
  8
0
370
              -2
390
0
  6
Continuous
 62
               0
100
AcDbCircle
 10
-261.20642028563816
 20
667.93348424988653
 30
0.0
 40
1.9998779296875
  0
HATCH
  5
136
100
AcDbEntity
  8
0
370
              -2
390
0
  6
Continuous
 62
               0
100
AcDbHatch
 10
0.0
 20
0.0
 30
0.0
210
0.0
220
0.0
230
1.0
  2
SOLID
 70
               1
 71
               1
 91
        1
 92
        1
 93
        1
 72
               2
 10
-261.20642028563816
 20
667.93348424988653
 40
1.9998779296875
 50
0.0
 51
360.0
 73
               0
 97
        1
330
135
 75
               0
 76
               1
 98
        1
 10
0.0
 20
0.0
  0
MTEXT
  5
137
100
AcDbEntity
  8
0
390
0
 62
               0
100
AcDbMText
 10
-295.08403747313787
 20
694.12098256771424
 30
0.0
 40
24.432617187500004
 41
0.0
 71
               1
 72
               1
  1
100
  7
ＭＳ ゴシック
 11
0.0
 21
1.0
 31
0.0
 73
               1
 44
0.7828267384257843
  0
POINT
  5
138
100
AcDbEntity
  8
Defpoints
370
               0
390
0
 62
               0
100
AcDbPoint
 10
-359.45777582712253
 20
667.93348424988653
 30
0.0
  0
POINT
  5
139
100
AcDbEntity
  8
Defpoints
370
               0
390
0
 62
               0
100
AcDbPoint
 10
-359.45777582712253
 20
767.93348424988653
 30
0.0
  0
POINT
  5
13A
100
AcDbEntity
  8
Defpoints
370
               0
390
0
 62
               0
100
AcDbPoint
 10
-261.20642028563816
 20
767.93348424988653
 30
0.0
  0
ENDBLK
  5
13B
100
AcDbEntity
  8
notes
390
0
100
AcDbBlockEnd
  0
BLOCK
  5
13C
100
AcDbEntity
  8
notes
390
0
100
AcDbBlockBegin
  2
グループ-1
 70
               0
 10
0.0
 20
0.0
 30
0.0
  3
グループ-1
  1

  0
MTEXT
  5
13D
100
AcDbEntity
  8
0
390
0
 62
               7
100
AcDbMText
 10
-21845.195335351873
 20
41392.769235908294
 30
0.0
 40
24.432617187500004
 41
842.88315656391467
 71
               1
 72
               1
  1
＝φ30もしくはφ35の水栓取付用穴あけ加工を承ります。\P   必要な場合、ご注文の際にご指示ください。
  7
ＭＳ ゴシック
 11
0.0
 21
1.0
 31
0.0
 73
               1
 44
1.0437689845677123
  0
CIRCLE
  5
13E
100
AcDbEntity
  8
0
370
              15
390
0
  6
STYLE_23
 62
               7
100
AcDbCircle
 10
-21832.650991249979
 20
41368.306766729744
 30
0.0
 40
17.5
  0
ENDBLK
  5
13F
100
AcDbEntity
  8
notes
390
0
100
AcDbBlockEnd
  0
BLOCK
  5
140
100
AcDbEntity
  8
notes
390
0
100
AcDbBlockBegin
  2
グループ-2
 70
               0
 10
0.0
 20
0.0
 30
0.0
  3
グループ-2
  1

  0
INSERT
  5
141
100
AcDbEntity
  8
0
390
0
 62
               7
100
AcDbBlockReference
  2
グループ-1
 10
0.0
 20
0.0
 30
0.0
  0
ENDBLK
  5
142
100
AcDbEntity
  8
notes
390
0
100
AcDbBlockEnd
  0
BLOCK
  5
143
100
AcDbEntity
  8
notes
390
0
100
AcDbBlockBegin
  2
グループ-3
 70
               0
 10
0.0
 20
0.0
 30
0.0
  3
グループ-3
  1

  0
INSERT
  5
144
100
AcDbEntity
  8
0
390
0
 62
               7
100
AcDbBlockReference
  2
グループ-2
 10
0.0
 20
0.0
 30
0.0
  0
ENDBLK
  5
145
100
AcDbEntity
  8
notes
390
0
100
AcDbBlockEnd
  0
BLOCK
  5
146
100
AcDbEntity
  8
ASN70-0001
390
0
100
AcDbBlockBegin
  2
グループ-4
 70
               0
 10
0.0
 20
0.0
 30
0.0
  3
グループ-4
  1

  0
CIRCLE
  5
147
100
AcDbEntity
  8
0
370
              15
390
0
  6
Continuous
 62
               7
100
AcDbCircle
 10
-22327.893229335619
 20
41622.331559138867
 30
0.0
 40
25.0
  0
CIRCLE
  5
148
100
AcDbEntity
  8
0
370
              15
390
0
  6
Continuous
 62
               7
100
AcDbCircle
 10
-22327.893229335619
 20
41622.331559138867
 30
0.0
 40
33.0
  0
ENDBLK
  5
149
100
AcDbEntity
  8
ASN70-0001
390
0
100
AcDbBlockEnd
  0
ENDSEC
  0
SECTION
  2
ENTITIES
  0
MTEXT
  5
14A
100
AcDbEntity
  8
template
390
0
 62
               7
100
AcDbMText
 10
-967.99999999975989
 20
-1147.4176292336997
 30
0.0
 40
16.288411458333332
 41
0.0
 71
               1
 72
               1
  1
品名
  7
ＭＳ ゴシック
 73
               1
 44
0.7828267384257843
  0
MTEXT
  5
14B
100
AcDbEntity
  8
template
390
0
 62
               7
100
AcDbMText
 10
-967.99999999975989
 20
-1232.4176292336997
 30
0.0
 40
16.288411458333332
 41
0.0
 71
               1
 72
               1
  1
仕様
  7
ＭＳ ゴシック
 73
               1
 44
0.7828267384257843
  0
MTEXT
  5
14C
100
AcDbEntity
  8
template
390
0
 62
               7
100
AcDbMText
 10
-914.99999999975989
 20
-1176.0000901711974
 30
0.0
 40
24.432617187500004
 41
0.0
 71
               1
 72
               1
  1
洗面器 -NIC DESIGN,Slim-
  7
ＭＳ ゴシック
 73
               1
 44
0.7828267384257843
  0
LINE
  5
14D
100
AcDbEntity
  8
template
370
               5
390
0
  6
Continuous
 62
               7
100
AcDbLine
 10
974.99999999975626
 20
-1224.0027073586971
 30
0.0
 11
-975.00000000024374
 21
-1224.0027073586971
 31
0.0
  0
LWPOLYLINE
  5
14E
100
AcDbEntity
  8
template
370
               5
390
0
  6
Continuous
 62
               7
100
AcDbPolyline
 90
        5
 70
             128
 10
975.00000000024011
 20
1405.9972926413029
 10
-974.99999999975989
 20
1405.9972926413029
 10
-974.99999999975989
 20
-1394.0027073586971
 10
975.00000000024011
 20
-1394.0027073586971
 10
975.00000000024011
 20
1405.9972926413029
  0
LINE
  5
14F
100
AcDbEntity
  8
template
370
               5
390
0
  6
Continuous
 62
               7
100
AcDbLine
 10
974.99999999975626
 20
-1139.0027073586971
 30
0.0
 11
-975.00000000024374
 21
-1139.0027073586971
 31
0.0
  0
LINE
  5
150
100
AcDbEntity
  8
template
370
               5
390
0
  6
Continuous
 62
               7
100
AcDbLine
 10
975.00000000024011
 20
-1309.0027073586971
 30
0.0
 11
222.00000000024011
 21
-1309.0027073586971
 31
0.0
  0
MTEXT
  5
151
100
AcDbEntity
  8
template
390
0
 62
               7
100
AcDbMText
 10
-914.99999999975989
 20
-1261.0000901711974
 30
0.0
 40
24.432617187500004
 41
0.0
 71
               1
 72
               1
  1
カウンタートップ/オーバーフローなし/陶器/ホワイト
  7
ＭＳ ゴシック
 73
               1
 44
1.1307497332816883
  0
MTEXT
  5
152
100
AcDbEntity
  8
template
390
0
 62
               7
100
AcDbMText
 10
-974.99999999955617
 20
-1405.856529415556
 30
0.0
 40
21.717881944444446
 41
0.0
 71
               1
 72
               1
  1
100917SH
  7
ＭＳ ゴシック
 73
               1
 44
0.7828267384257843
  0
MTEXT
  5
153
100
AcDbEntity
  8
template
390
0
 62
               7
100
AcDbMText
 10
251.87140625249958
 20
-1338.9131018320113
 30
0.0
 40
24.432617187500004
 41
0.0
 71
               1
 72
               1
  1
大洋金物株式会社 ティーフォルム事業部
  7
ＭＳ ゴシック
 73
               1
 44
0.7828267384257843
  0
INSERT
  5
154
100
AcDbEntity
  8
template
390
0
 62
               7
100
AcDbBlockReference
  2
グループ
 10
21918.734324583311
 20
-42095.652392472206
 30
0.0
  0
MTEXT
  5
155
100
AcDbEntity
  8
template
390
0
 62
               7
100
AcDbMText
 10
784.0000000004984
 20
-1261.0000901711974
 30
0.0
 40
24.432617187500004
 41
0.0
 71
               1
 72
               1
  1
1:10
  7
ＭＳ ゴシック
 73
               1
 44
0.7828267384257843
  0
MTEXT
  5
156
100
AcDbEntity
  8
template
390
0
 62
               7
100
AcDbMText
 10
731.0000000004984
 20
-1232.4176292336997
 30
0.0
 40
16.288411458333332
 41
0.0
 71
               1
 72
               1
  1
縮尺
  7
ＭＳ ゴシック
 73
               1
 44
0.7828267384257843
  0
LINE
  5
157
100
AcDbEntity
  8
template
370
               5
390
0
  6
Continuous
 62
               7
100
AcDbLine
 10
724.0000000004984
 20
-1309.0027073586971
 30
0.0
 11
724.0000000004984
 21
-1224.0027073586971
 31
0.0
  0
MTEXT
  5
158
100
AcDbEntity
  8
template
390
0
 62
               7
100
AcDbMText
 10
480.0000000004984
 20
-1232.4176292336997
 30
0.0
 40
16.288411458333332
 41
0.0
 71
               1
 72
               1
  1
容量
  7
ＭＳ ゴシック
 73
               1
 44
0.7828267384257843
  0
MTEXT
  5
159
100
AcDbEntity
  8
template
390
0
 62
               7
100
AcDbMText
 10
533.0000000004984
 20
-1261.0000901711974
 30
0.0
 40
24.432617187500004
 41
0.0
 71
               1
 72
               1
  1
9.2L
  7
ＭＳ ゴシック
 73
               1
 44
0.7828267384257843
  0
LINE
  5
15A
100
AcDbEntity
  8
template
370
               5
390
0
  6
Continuous
 62
               7
100
AcDbLine
 10
473.0000000004984
 20
-1309.0027073586971
 30
0.0
 11
473.0000000004984
 21
-1224.0027073586971
 31
0.0
  0
MTEXT
  5
15B
100
AcDbEntity
  8
template
390
0
 62
               7
100
AcDbMText
 10
229.0000000004984
 20
-1147.4176292336997
 30
0.0
 40
16.288411458333332
 41
0.0
 71
               1
 72
               1
  1
品番
  7
ＭＳ ゴシック
 73
               1
 44
0.7828267384257843
  0
MTEXT
  5
15C
100
AcDbEntity
  8
template
390
0
 62
               7
100
AcDbMText
 10
229.0000000004984
 20
-1232.4176292336997
 30
0.0
 40
16.288411458333332
 41
0.0
 71
               1
 72
               1
  1
重量
  7
ＭＳ ゴシック
 73
               1
 44
0.7828267384257843
  0
MTEXT
  5
15D
100
AcDbEntity
  8
template
390
0
 62
               7
100
AcDbMText
 10
282.0000000004984
 20
-1176.0000901711974
 30
0.0
 40
24.432617187500004
 41
0.0
 71
               1
 72
               1
  1
ASN70-0001
  7
ＭＳ ゴシック
 73
               1
 44
0.7828267384257843
  0
MTEXT
  5
15E
100
AcDbEntity
  8
template
390
0
 62
               7
100
AcDbMText
 10
282.0000000004984
 20
-1261.0000901711974
 30
0.0
 40
24.432617187500004
 41
0.0
 71
               1
 72
               1
  1
12kg
  7
ＭＳ ゴシック
 73
               1
 44
0.7828267384257843
  0
LINE
  5
15F
100
AcDbEntity
  8
template
370
               5
390
0
  6
Continuous
 62
               7
100
AcDbLine
 10
222.0000000004984
 20
-1394.0027073586971
 30
0.0
 11
222.0000000004984
 21
-1139.0027073586971
 31
0.0
  0
LWPOLYLINE
  5
160
100
AcDbEntity
  8
template
370
               5
390
0
  6
Continuous
 62
               7
100
AcDbPolyline
 90
        5
 70
             128
 10
975.00000000024011
 20
1405.9972926413029
 10
-974.99999999975989
 20
1405.9972926413029
 10
-974.99999999975989
 20
-1394.0027073586971
 10
975.00000000024011
 20
-1394.0027073586971
 10
975.00000000024011
 20
1405.9972926413029
  0
MTEXT
  5
161
100
AcDbEntity
  8
notes
390
0
 62
               7
100
AcDbMText
 10
-772.20903747313787
 20
607.125
 30
0.0
 40
24.432617187500004
 41
0.0
 71
               1
 72
               1
  1
カウンター切込寸法
  7
ＭＳ ゴシック
 11
0.0
 21
1.0
 31
0.0
 73
               1
 44
0.7828267384257843
  0
POLYLINE
  5
162
100
AcDbEntity
  8
notes
370
               5
390
0
  6
Continuous
 62
               7
100
AcDb2dPolyline
 66
               1
 10
0.0
 20
0.0
 30
0.0
 70
               1
 75
               5
  0
VERTEX
  5
163
100
AcDbEntity
  8
notes
370
               5
390
0
  6
Continuous
 62
               7
100
AcDbVertex
100
AcDb2dVertex
 10
-559.45777582712253
 20
767.93348424988653
 30
0.0
  0
VERTEX
  5
164
100
AcDbEntity
  8
notes
370
               5
390
0
  6
Continuous
 62
               7
100
AcDbVertex
100
AcDb2dVertex
 10
-359.45777582712253
 20
767.93348424988653
 30
0.0
  0
VERTEX
  5
165
100
AcDbEntity
  8
notes
370
               5
390
0
  6
Continuous
 62
               7
100
AcDbVertex
100
AcDb2dVertex
 10
-359.45777582712253
 20
667.93348424988653
 30
0.0
  0
VERTEX
  5
166
100
AcDbEntity
  8
notes
370
               5
390
0
  6
Continuous
 62
               7
100
AcDbVertex
100
AcDb2dVertex
 10
-559.45777582712253
 20
667.93348424988653
 30
0.0
  0
SEQEND
  5
167
100
AcDbEntity
  8
notes
370
               5
390
0
  6
Continuous
 62
               7
  0
DIMENSION
  5
168
100
AcDbEntity
  8
notes
370
               5
390
0
  6
Continuous
 62
               7
100
AcDbDimension
  2
*D3
 10
485.00000000001091
 20
-23.320833333331393
 30
0.0
 11
535.00000000000728
 21
-23.320833333331393
 31
0.0
 71
               5
 72
               1
 41
1.0
 42
0.0
  3
tfrom線あり
100
AcDbAlignedDimension
 13
585.0
 23
-123.32083333333139
 33
0.0
 14
485.00000000001091
 24
-123.32083333333139
 34
0.0
100
AcDbRotatedDimension
1001
ACAD
1000
DSTYLE
1002
{
1070
             279
1070
               2
1070
             340
1005
38
1070
             147
1040
5.0
1002
}
  0
DIMENSION
  5
169
100
AcDbEntity
  8
notes
370
               5
390
0
  6
Continuous
 62
               7
100
AcDbDimension
  2
*D4
 10
485.00000000000364
 20
329.76575557339675
 30
0.0
 11
522.5
 21
329.76575557339675
 31
0.0
 71
               5
 72
               1
 41
1.0
 42
0.0
  3
tfrom線あり
100
AcDbAlignedDimension
 13
560.0
 23
462.98210899456899
 33
0.0
 14
485.00000000000364
 24
432.05247936491651
 34
0.0
100
AcDbRotatedDimension
1001
ACAD
1000
DSTYLE
1002
{
1070
             279
1070
               2
1070
             340
1005
38
1070
             147
1040
5.0
1002
}
  0
DIMENSION
  5
16A
100
AcDbEntity
  8
notes
370
               5
390
0
  6
Continuous
 62
               7
100
AcDbDimension
  2
*D5
 10
560.0
 20
329.76575557340402
 30
0.0
 11
591.54222417288111
 21
334.76575557340402
 31
0.0
 70
             128
 71
               5
 72
               1
 41
1.0
 42
0.0
  3
tfrom線あり
100
AcDbAlignedDimension
 13
584.99999999993815
 23
523.81145607328654
 33
0.0
 14
560.0
 24
462.98210899456899
 34
0.0
100
AcDbRotatedDimension
1001
ACAD
1000
DSTYLE
1002
{
1070
             279
1070
               2
1070
             340
1005
38
1070
             174
1070
               0
1070
             147
1040
5.0
1002
}
  0
DIMENSION
  5
16B
100
AcDbEntity
  8
notes
370
               5
390
0
  6
Continuous
 62
               7
100
AcDbDimension
  2
*D6
 10
485.00000000001091
 20
690.04229261815635
 30
0.0
 11
477.97557172486995
 21
695.04229261815635
 31
0.0
 70
             128
 71
               5
 72
               1
 41
1.0
 42
0.0
  3
tfrom線あり
100
AcDbAlignedDimension
 13
550.00000000001091
 23
680.20895928482059
 33
0.0
 14
485.00000000001091
 24
680.20895928482059
 34
0.0
100
AcDbRotatedDimension
1001
ACAD
1000
DSTYLE
1002
{
1070
             279
1070
               2
1070
             340
1005
38
1070
               3
1000
<>(深さ)
1070
             174
1070
               0
1070
             147
1040
5.0
1002
}
  0
DIMENSION
  5
16C
100
AcDbEntity
  8
notes
370
               5
390
0
  6
Continuous
 62
               7
100
AcDbDimension
  2
*D7
 10
735.0
 20
962.93105580814154
 30
0.0
 11
735.0
 21
739.43105580814154
 31
0.0
 71
               5
 72
               1
 41
1.0
 42
0.0
  3
tfrom線あり
100
AcDbAlignedDimension
 13
585.0
 23
515.93105580814154
 33
0.0
 14
585.0
 24
962.93105580814154
 34
0.0
 50
90.0
100
AcDbRotatedDimension
1001
ACAD
1000
DSTYLE
1002
{
1070
             279
1070
               2
1070
             340
1005
38
1070
             147
1040
5.0
1002
}
  0
DIMENSION
  5
16D
100
AcDbEntity
  8
notes
370
               5
390
0
  6
Continuous
 62
               7
100
AcDbDimension
  2
*D8
 10
685.0
 20
962.93105580814154
 30
0.0
 11
685.0
 21
860.43105580814154
 31
0.0
 71
               5
 72
               1
 41
1.0
 42
0.0
  3
tfrom線あり
100
AcDbAlignedDimension
 13
585.0
 23
757.93105580814154
 33
0.0
 14
585.0
 24
962.93105580814154
 34
0.0
 50
90.0
100
AcDbRotatedDimension
1001
ACAD
1000
DSTYLE
1002
{
1070
             279
1070
               2
1070
             340
1005
38
1070
             147
1040
5.0
1002
}
  0
DIMENSION
  5
16E
100
AcDbEntity
  8
notes
370
               5
390
0
  6
Continuous
 62
               7
100
AcDbDimension
  2
*D9
 10
385.00000000001091
 20
962.93105580814154
 30
0.0
 11
385.00000000001091
 21
917.93105580814154
 31
0.0
 71
               5
 72
               1
 41
1.0
 42
0.0
  3
tfrom線あり
100
AcDbAlignedDimension
 13
485.00000000000364
 23
872.93105580814154
 33
0.0
 14
585.0
 24
962.93105580814154
 34
0.0
 50
90.0
100
AcDbRotatedDimension
1001
ACAD
1000
DSTYLE
1002
{
1070
             279
1070
               2
1070
             340
1005
38
1070
             147
1040
5.0
1002
}
  0
DIMENSION
  5
16F
100
AcDbEntity
  8
notes
370
               5
390
0
  6
Continuous
 62
               7
100
AcDbDimension
  2
*D10
 10
-714.16525131171875
 20
-123.32083333333139
 30
0.0
 11
-714.16525131171875
 21
-473.32083333333139
 31
0.0
 71
               5
 72
               1
 41
1.0
 42
0.0
  3
tfrom線あり
100
AcDbAlignedDimension
 13
-369.15890475230844
 23
-823.32083333333139
 33
0.0
 14
-369.15890475230844
 24
-123.32083333333139
 34
0.0
 50
90.0
100
AcDbRotatedDimension
1001
ACAD
1000
DSTYLE
1002
{
1070
             279
1070
               2
1070
             340
1005
38
1070
             147
1040
5.0
1002
}
  0
DIMENSION
  5
170
100
AcDbEntity
  8
notes
370
               5
390
0
  6
Continuous
 62
               7
100
AcDbDimension
  2
*D11
 10
20.560372128878953
 20
-808.32083333333139
 30
0.0
 11
20.560372128878953
 21
-473.32192965338618
 31
0.0
 71
               5
 72
               1
 41
1.0
 42
0.0
  3
tfrom線あり
100
AcDbAlignedDimension
 13
-251.34162372993524
 23
-138.32302597343369
 33
0.0
 14
-252.40505623236822
 24
-808.32083333333139
 34
0.0
 50
90.0
100
AcDbRotatedDimension
1001
ACAD
1000
DSTYLE
1002
{
1070
             279
1070
               2
1070
             340
1005
38
1070
             147
1040
5.0
1002
}
  0
DIMENSION
  5
171
100
AcDbEntity
  8
notes
370
               5
390
0
  6
Continuous
 62
               7
100
AcDbDimension
  2
*D12
 10
-484.43390529474345
 20
-923.32083333333139
 30
0.0
 11
-289.43390529474345
 21
-923.32083333333139
 31
0.0
 71
               5
 72
               1
 41
1.0
 42
0.0
  3
tfrom線あり
100
AcDbAlignedDimension
 13
-94.433905294743454
 23
-595.06602003833541
 33
0.0
 14
-484.43390529474345
 24
-782.17449539934023
 34
0.0
100
AcDbRotatedDimension
1001
ACAD
1000
DSTYLE
1002
{
1070
             279
1070
               2
1070
             340
1005
38
1070
             147
1040
5.0
1002
}
  0
DIMENSION
  5
172
100
AcDbEntity
  8
notes
370
               5
390
0
  6
Continuous
 62
               7
100
AcDbDimension
  2
*D13
 10
-79.439627871124685
 20
-23.320833333331393
 30
0.0
 11
-346.93962787112469
 21
-23.320833333331393
 31
0.0
 71
               5
 72
               1
 41
1.0
 42
0.0
  3
tfrom線あり
100
AcDbAlignedDimension
 13
-614.43962787112469
 23
-448.32083333333867
 33
0.0
 14
-79.439627871124685
 24
-449.45656669956225
 34
0.0
100
AcDbRotatedDimension
1001
ACAD
1000
DSTYLE
1002
{
1070
             279
1070
               2
1070
             340
1005
38
1070
             147
1040
5.0
1002
}
  0
DIMENSION
  5
173
100
AcDbEntity
  8
notes
370
               5
390
0
  6
Continuous
 62
               7
100
AcDbDimension
  2
*D14
 10
-484.43390529474345
 20
-923.32083333333139
 30
0.0
 11
-526.93386364698381
 21
-923.32083333333139
 31
0.0
 71
               5
 72
               1
 41
1.0
 42
0.0
  3
tfrom線あり
100
AcDbAlignedDimension
 13
-569.4338219992278
 23
-675.11589984739112
 33
0.0
 14
-484.43390529474345
 24
-782.17449539934023
 34
0.0
100
AcDbRotatedDimension
1001
ACAD
1000
DSTYLE
1002
{
1070
             279
1070
               2
1070
             340
1005
38
1070
             147
1040
5.0
1002
}
  0
DIMENSION
  5
174
100
AcDbEntity
  8
notes
370
               5
390
0
  6
Continuous
 62
               7
100
AcDbDimension
  2
*D15
 10
-569.4338219992278
 20
-923.32083333332412
 30
0.0
 11
-591.9338219992278
 21
-923.32083333332412
 31
0.0
 71
               5
 72
               1
 41
1.0
 42
0.0
  3
tfrom線あり
100
AcDbAlignedDimension
 13
-614.4338219992278
 23
-473.32083333333867
 33
0.0
 14
-569.4338219992278
 24
-673.11589984739112
 34
0.0
100
AcDbRotatedDimension
1001
ACAD
1000
DSTYLE
1002
{
1070
             279
1070
               2
1070
             340
1005
38
1070
             147
1040
5.0
1002
}
  0
DIMENSION
  5
175
100
AcDbEntity
  8
notes
370
               5
390
0
  6
Continuous
 62
               7
100
AcDbDimension
  2
*D16
 10
-614.4777223359888
 20
912.0
 30
0.0
 11
-586.20642028563816
 21
917.0
 31
0.0
 70
             128
 71
               5
 72
               1
 41
1.0
 42
0.0
  3
tfrom線あり
100
AcDbAlignedDimension
 13
-559.45777582712253
 23
767.93348424988653
 33
0.0
 14
-614.4777223359888
 24
768.41271878718544
 34
0.0
100
AcDbRotatedDimension
1001
ACAD
1000
DSTYLE
1002
{
1070
             279
1070
               2
1070
             340
1005
38
1070
             147
1040
5.0
1002
}
  0
DIMENSION
  5
176
100
AcDbEntity
  8
notes
370
               5
390
0
  6
Continuous
 62
               7
100
AcDbDimension
  2
*D17
 10
-559.45777582712253
 20
912.0
 30
0.0
 11
-459.45777582712253
 21
912.0
 31
0.0
 71
               5
 72
               1
 41
1.0
 42
0.0
  3
tfrom線あり
100
AcDbAlignedDimension
 13
-359.45777582712253
 23
767.93348424988653
 33
0.0
 14
-559.45777582712253
 24
767.93348424988653
 34
0.0
100
AcDbRotatedDimension
1001
ACAD
1000
DSTYLE
1002
{
1070
             279
1070
               2
1070
             340
1005
38
1070
             147
1040
5.0
1002
}
  0
DIMENSION
  5
177
100
AcDbEntity
  8
notes
370
               5
390
0
  6
Continuous
 62
               7
100
AcDbDimension
  2
*D18
 10
-261.20642028563816
 20
767.93348424988653
 30
0.0
 11
-261.20642028563816
 21
717.93348424988653
 31
0.0
 71
               5
 72
               1
 41
1.0
 42
0.0
  3
tfrom線あり
100
AcDbAlignedDimension
 13
-359.45777582712253
 23
667.93348424988653
 33
0.0
 14
-359.45777582712253
 24
767.93348424988653
 34
0.0
 50
90.0
100
AcDbRotatedDimension
1001
ACAD
1000
DSTYLE
1002
{
1070
             279
1070
               2
1070
             340
1005
38
1070
             147
1040
5.0
1002
}
  0
MTEXT
  5
178
100
AcDbEntity
  8
notes
390
0
 62
               7
100
AcDbMText
 10
71.455716145832412
 20
352.61414226949273
 30
0.0
 40
24.432617187500004
 41
764.7717154610109
 71
               1
 72
               1
  1
※陶器製品には寸法公差があります。\P  洗面器の収め方をご確認の上、必ず現物を合わせて\P  カウンターに切込を行ってください。
  7
ＭＳ ゴシック
 11
0.0
 21
1.0
 31
0.0
 73
               1
 44
1.0437689845677123
  0
INSERT
  5
179
100
AcDbEntity
  8
notes
390
0
 62
               7
100
AcDbBlockReference
  2
グループ-3
 10
21918.734324583311
 20
-42095.652392472206
 30
0.0
  0
SPLINE
  5
17A
100
AcDbEntity
  8
notes
370
               5
390
0
  6
Continuous
 62
               7
100
AcDbSpline
210
0.0
220
0.0
230
1.0
 70
               8
 71
               2
 72
               7
 73
               4
 74
               0
 42
0.000001
 43
0.000001
 40
0.0
 40
0.0
 40
0.0
 40
1.0
 40
2.0
 40
2.0
 40
2.0
 10
-322.37411065529523
 20
-138.32915044471883
 30
0.0
 10
-226.3418832060961
 20
-140.96428957825992
 30
0.0
 10
-94.433905294743454
 20
-342.0
 30
0.0
 10
-94.180873994158901
 20
-473.32083333333867
 30
0.0
  0
SPLINE
  5
17B
100
AcDbEntity
  8
notes
370
               5
390
0
  6
Continuous
 62
               7
100
AcDbSpline
210
0.0
220
0.0
230
1.0
 70
               8
 71
               2
 72
               7
 73
               4
 74
               0
 42
0.000001
 43
0.000001
 40
0.0
 40
0.0
 40
0.0
 40
1.0
 40
2.0
 40
2.0
 40
2.0
 10
-322.37411065529523
 20
-808.3125162219585
 30
0.0
 10
-226.3418832060961
 20
-805.67737708841742
 30
0.0
 10
-94.433905294743454
 20
-604.64166666667734
 30
0.0
 10
-94.180873994158901
 20
-473.32083333333867
 30
0.0
  0
LINE
  5
17C
100
AcDbEntity
  8
ASN70-0001
370
              15
390
0
  6
Continuous
 62
               7
100
AcDbLine
 10
485.0
 20
432.05247936491651
 30
0.0
 11
485.0
 21
442.97616129232483
 31
0.0
  0
LINE
  5
17D
100
AcDbEntity
  8
ASN70-0001
370
              15
390
0
  6
Continuous
 62
               7
100
AcDbLine
 10
585.0
 20
962.93105580814154
 30
0.0
 11
486.47936367395596
 21
918.87047967342369
 31
0.0
  0
LINE
  5
17E
100
AcDbEntity
  8
ASN70-0001
370
              15
390
0
  6
Continuous
 62
               7
100
AcDbLine
 10
558.51039314195441
 20
460.69538520304923
 30
0.0
 11
488.51039314196169
 21
429.76575557340402
 31
0.0
  0
LINE
  5
17F
100
AcDbEntity
  8
ASN70-0001
370
              15
390
0
  6
Continuous
 62
               7
100
AcDbLine
 10
-324.43672493517079
 20
-823.32083333332412
 30
0.0
 11
-369.15890475230844
 21
-823.32083333332412
 31
0.0
  0
LINE
  5
180
100
AcDbEntity
  8
ASN70-0001
370
              15
390
0
  6
Continuous
 62
               7
100
AcDbLine
 10
493.00000000000364
 20
909.78192933832906
 30
0.0
 11
493.00000000000364
 21
900.80639951557532
 31
0.0
  0
LINE
  5
181
100
AcDbEntity
  8
ASN70-0001
370
              15
390
0
  6
Continuous
 62
               7
100
AcDbLine
 10
485.0
 20
916.58830932703131
 30
0.0
 11
485.00000000000364
 21
900.80639951557532
 31
0.0
  0
LINE
  5
182
100
AcDbEntity
  8
ASN70-0001
370
              15
390
0
  6
Continuous
 62
               7
100
AcDbLine
 10
498.44020306882521
 20
841.20895928481332
 30
0.0
 11
498.44020306882521
 21
833.20895928482059
 31
0.0
  0
LINE
  5
183
100
AcDbEntity
  8
ASN70-0001
370
              15
390
0
  6
Continuous
 62
               7
100
AcDbLine
 10
498.44020306882521
 20
833.20895928482787
 30
0.0
 11
487.50000000001091
 21
833.20895928482059
 31
0.0
  0
LINE
  5
184
100
AcDbEntity
  8
ASN70-0001
370
              15
390
0
  6
Continuous
 62
               7
100
AcDbLine
 10
495.5
 20
841.20895928481332
 30
0.0
 11
498.44020306882521
 21
841.20895928481332
 31
0.0
  0
LINE
  5
185
100
AcDbEntity
  8
ASN70-0001
370
              15
390
0
  6
Continuous
 62
               7
100
AcDbLine
 10
493.00000000000364
 20
892.0
 30
0.0
 11
485.00000000000364
 21
892.0
 31
0.0
  0
LINE
  5
186
100
AcDbEntity
  8
ASN70-0001
370
              15
390
0
  6
Continuous
 62
               7
100
AcDbLine
 10
492.99999999999636
 20
857.0
 30
0.0
 11
485.00000000000364
 21
857.00000000000728
 31
0.0
  0
LINE
  5
187
100
AcDbEntity
  8
ASN70-0001
370
              15
390
0
  6
Continuous
 62
               7
100
AcDbLine
 10
485.00000000000364
 20
865.8063995155826
 30
0.0
 11
485.00000000001091
 21
835.70895928482059
 31
0.0
  0
LINE
  5
188
100
AcDbEntity
  8
ASN70-0001
370
              15
390
0
  6
Continuous
 62
               7
100
AcDbLine
 10
492.99999999999636
 20
865.80639951557532
 30
0.0
 11
493.00000000000364
 21
843.70895928481332
 31
0.0
  0
LINE
  5
189
100
AcDbEntity
  8
ASN70-0001
370
              15
390
0
  6
Continuous
 62
               7
100
AcDbLine
 10
485.00000000000364
 20
900.80639951557532
 30
0.0
 11
485.00000000000364
 21
865.8063995155826
 31
0.0
  0
LINE
  5
18A
100
AcDbEntity
  8
ASN70-0001
370
              15
390
0
  6
Continuous
 62
               7
100
AcDbLine
 10
493.00000000000364
 20
900.80639951557532
 30
0.0
 11
493.00000000000364
 21
865.8063995155826
 31
0.0
  0
LINE
  5
18B
100
AcDbEntity
  8
ASN70-0001
370
              15
390
0
  6
Continuous
 62
               7
100
AcDbLine
 10
560.0
 20
504.48977448383084
 30
0.0
 11
584.99999999993815
 21
515.53835268285184
 31
0.0
  0
LINE
  5
18C
100
AcDbEntity
  8
ASN70-0001
370
              15
390
0
  6
Continuous
 62
               7
100
AcDbLine
 10
552.0
 20
491.86806513320334
 30
0.0
 11
552.0
 21
724.0
 31
0.0
  0
ARC
  5
18D
100
AcDbEntity
  8
ASN70-0001
370
              15
390
0
  6
Continuous
 62
               7
100
AcDbCircle
 10
524.8908821042387
 20
491.86806513320334
 30
0.0
 40
27.10911789575335
100
AcDbArc
 50
293.86216126628648
 51
0.0
  0
LINE
  5
18E
100
AcDbEntity
  8
ASN70-0001
370
              15
390
0
  6
Continuous
 62
               7
100
AcDbLine
 10
584.99999999993815
 20
523.81145607328654
 30
0.0
 11
562.50000000000728
 21
523.81145607329381
 31
0.0
  0
LINE
  5
18F
100
AcDbEntity
  8
ASN70-0001
370
              15
390
0
  6
Continuous
 62
               7
100
AcDbLine
 10
560.0
 20
462.98210899456899
 30
0.0
 11
560.00000000000364
 21
504.48977448383084
 31
0.0
  0
LINE
  5
190
100
AcDbEntity
  8
ASN70-0001
370
              15
390
0
  6
Continuous
 62
               7
100
AcDbLine
 10
524.8908821042387
 20
833.20895928482059
 30
0.0
 11
510.14732393480153
 21
833.20895928482059
 31
0.0
  0
ARC
  5
191
100
AcDbEntity
  8
ASN70-0001
370
              15
390
0
  6
Continuous
 62
               7
100
AcDbCircle
 10
524.8908821042387
 20
806.09984138905565
 30
0.0
 40
27.109117895764939
100
AcDbArc
 50
0.0
 51
90.0
  0
LINE
  5
192
100
AcDbEntity
  8
ASN70-0001
370
              15
390
0
  6
Continuous
 62
               7
100
AcDbLine
 10
585.0
 20
782.0
 30
0.0
 11
560.0
 21
782.0
 31
0.0
  0
LINE
  5
193
100
AcDbEntity
  8
ASN70-0001
370
              15
390
0
  6
Continuous
 62
               7
100
AcDbLine
 10
585.0
 20
732.00000000000728
 30
0.0
 11
560.0
 21
732.0
 31
0.0
  0
LINE
  5
194
100
AcDbEntity
  8
ASN70-0001
370
              15
390
0
  6
Continuous
 62
               7
100
AcDbLine
 10
524.8908821042387
 20
841.20895928482059
 30
0.0
 11
510.14732393480153
 21
841.20895928482787
 31
0.0
  0
ARC
  5
195
100
AcDbEntity
  8
ASN70-0001
370
              15
390
0
  6
Continuous
 62
               7
100
AcDbCircle
 10
524.8908821042387
 20
806.09984138905565
 30
0.0
 40
35.109117895764939
100
AcDbArc
 50
0.0
 51
90.0
  0
LINE
  5
196
100
AcDbEntity
  8
ASN70-0001
370
              15
390
0
  6
Continuous
 62
               7
100
AcDbLine
 10
585.0
 20
724.0
 30
0.0
 11
563.31370849899031
 21
724.0
 31
0.0
  0
LINE
  5
197
100
AcDbEntity
  8
ASN70-0001
370
              15
390
0
  6
Continuous
 62
               7
100
AcDbLine
 10
560.0
 20
782.0
 30
0.0
 11
552.0
 21
789.99999999999272
 31
0.0
  0
LINE
  5
198
100
AcDbEntity
  8
ASN70-0001
370
              15
390
0
  6
Continuous
 62
               7
100
AcDbLine
 10
560.0
 20
732.0
 30
0.0
 11
552.0
 21
724.0
 31
0.0
  0
LINE
  5
199
100
AcDbEntity
  8
ASN70-0001
370
              15
390
0
  6
Continuous
 62
               7
100
AcDbLine
 10
552.0
 20
750.93395874407724
 30
0.0
 11
552.0
 21
806.86478198376426
 31
0.0
  0
LINE
  5
19A
100
AcDbEntity
  8
ASN70-0001
370
              15
390
0
  6
Continuous
 62
               7
100
AcDbLine
 10
560.0
 20
754.24766724307119
 30
0.0
 11
560.0
 21
806.86478198375698
 31
0.0
  0
LINE
  5
19B
100
AcDbEntity
  8
ASN70-0001
370
              15
390
0
  6
Continuous
 62
               7
100
AcDbLine
 10
585.0
 20
782.0
 30
0.0
 11
584.99999999999636
 21
790.0
 31
0.0
  0
LINE
  5
19C
100
AcDbEntity
  8
ASN70-0001
370
              15
390
0
  6
Continuous
 62
               7
100
AcDbLine
 10
585.0
 20
724.0
 30
0.0
 11
585.0
 21
732.0
 31
0.0
  0
LINE
  5
19D
100
AcDbEntity
  8
ASN70-0001
370
              15
390
0
  6
Continuous
 62
               7
100
AcDbLine
 10
584.99999999999636
 20
790.0
 30
0.0
 11
563.31370849899031
 21
790.0
 31
0.0
  0
LINE
  5
19E
100
AcDbEntity
  8
ASN70-0001
370
              15
390
0
  6
Continuous
 62
               7
100
AcDbLine
 10
552.0
 20
790.0
 30
0.0
 11
552.0
 21
724.0
 31
0.0
  0
LINE
  5
19F
100
AcDbEntity
  8
ASN70-0001
370
              15
390
0
  6
Continuous
 62
               7
100
AcDbLine
 10
563.31370849899031
 20
790.0
 30
0.0
 11
560.0
 21
793.31370849898667
 31
0.0
  0
LINE
  5
1A0
100
AcDbEntity
  8
ASN70-0001
370
              15
390
0
  6
Continuous
 62
               7
100
AcDbLine
 10
563.31370849899031
 20
724.0
 30
0.0
 11
560.00000000001091
 21
720.68629150101333
 31
0.0
  0
LINE
  5
1A1
100
AcDbEntity
  8
ASN70-0001
370
              15
390
0
  6
Continuous
 62
               7
100
AcDbLine
 10
510.14732393480153
 20
841.20895928482787
 30
0.0
 11
510.14732393480153
 21
833.20895928482059
 31
0.0
  0
LINE
  5
1A2
100
AcDbEntity
  8
ASN70-0001
370
              15
390
0
  6
Continuous
 62
               7
100
AcDbLine
 10
560.0
 20
782.0
 30
0.0
 11
560.0
 21
732.0
 31
0.0
  0
LINE
  5
1A3
100
AcDbEntity
  8
ASN70-0001
370
              15
390
0
  6
Continuous
 62
               7
100
AcDbLine
 10
585.0
 20
782.0
 30
0.0
 11
585.0
 21
732.0
 31
0.0
  0
LINE
  5
1A4
100
AcDbEntity
  8
ASN70-0001
370
              15
390
0
  6
Continuous
 62
               7
100
AcDbLine
 10
535.85754272899067
 20
467.07619897053519
 30
0.0
 11
486.48960685804559
 21
445.26288508384459
 31
0.0
  0
LINE
  5
1A5
100
AcDbEntity
  8
ASN70-0001
370
              15
390
0
  6
Continuous
 62
               7
100
AcDbLine
 10
560.00000000000364
 20
526.31145607328654
 30
0.0
 11
560.00000000001091
 21
720.68629150101333
 31
0.0
  0
CIRCLE
  5
1A6
100
AcDbEntity
  8
ASN70-0001
370
              15
390
0
  6
STYLE_23
 62
               7
100
AcDbCircle
 10
-524.13134552379779
 20
-473.32083333333867
 30
0.0
 40
17.5
  0
LINE
  5
1A7
100
AcDbEntity
  8
ASN70-0001
370
              15
390
0
  6
Continuous
 62
               7
100
AcDbLine
 10
585.0
 20
954.16746809804317
 30
0.0
 11
585.0
 21
962.93105580814154
 31
0.0
  0
LINE
  5
1A8
100
AcDbEntity
  8
ASN70-0001
370
              15
390
0
  6
Continuous
 62
               7
100
AcDbLine
 10
584.99999999993815
 20
523.81145607328654
 30
0.0
 11
584.99999999993815
 21
515.53835268285184
 31
0.0
  0
LINE
  5
1A9
100
AcDbEntity
  8
ASN70-0001
370
              15
390
0
  6
Continuous
 62
               7
100
AcDbLine
 10
585.0
 20
954.16746809804317
 30
0.0
 11
584.99999999999636
 21
750.93395874408452
 31
0.0
  0
LINE
  5
1AA
100
AcDbEntity
  8
ASN70-0001
370
              15
390
0
  6
Continuous
 62
               7
100
AcDbLine
 10
585.0
 20
728.0
 30
0.0
 11
584.99999999993815
 21
523.81145607328654
 31
0.0
  0
LINE
  5
1AB
100
AcDbEntity
  8
ASN70-0001
370
              15
390
0
  6
Continuous
 62
               7
100
AcDbLine
 10
485.00000000001091
 20
833.20895928482059
 30
0.0
 11
485.0
 21
444.60469953508436
 31
0.0
  0
POLYLINE
  5
1AC
100
AcDbEntity
  8
ASN70-0001
370
              15
390
0
  6
Continuous
 62
               7
100
AcDb2dPolyline
 66
               1
 10
0.0
 20
0.0
 30
0.0
 70
               1
 75
               5
  0
VERTEX
  5
1AD
100
AcDbEntity
  8
ASN70-0001
370
              15
390
0
  6
Continuous
 62
               7
100
AcDbVertex
100
AcDb2dVertex
 10
485.00000000001091
 20
-823.32083333333139
 30
0.0
  0
VERTEX
  5
1AE
100
AcDbEntity
  8
ASN70-0001
370
              15
390
0
  6
Continuous
 62
               7
100
AcDbVertex
100
AcDb2dVertex
 10
485.00000000001091
 20
-123.32083333333139
 30
0.0
  0
VERTEX
  5
1AF
100
AcDbEntity
  8
ASN70-0001
370
              15
390
0
  6
Continuous
 62
               7
100
AcDbVertex
100
AcDb2dVertex
 10
585.0
 20
-123.32083333333139
 30
0.0
  0
VERTEX
  5
1B0
100
AcDbEntity
  8
ASN70-0001
370
              15
390
0
  6
Continuous
 62
               7
100
AcDbVertex
100
AcDb2dVertex
 10
585.0
 20
-823.32083333333139
 30
0.0
  0
SEQEND
  5
1B1
100
AcDbEntity
  8
ASN70-0001
370
              15
390
0
  6
Continuous
 62
               7
  0
LINE
  5
1B2
100
AcDbEntity
  8
ASN70-0001
370
              15
390
0
  6
Continuous
 62
               7
100
AcDbLine
 10
560.0
 20
-823.32083333333139
 30
0.0
 11
560.0
 21
-123.32083333333139
 31
0.0
  0
LINE
  5
1B3
100
AcDbEntity
  8
ASN70-0001
370
              15
390
0
  6
Continuous
 62
               7
100
AcDbLine
 10
-324.43672493517079
 20
-823.32083333333139
 30
0.0
 11
-369.15890475230844
 21
-823.32083333333139
 31
0.0
  0
LINE
  5
1B4
100
AcDbEntity
  8
ASN70-0001
370
              15
390
0
  6
Continuous
 62
               7
100
AcDbLine
 10
-324.43672493517079
 20
-123.32083333333139
 30
0.0
 11
-369.15890475230844
 21
-123.32083333333139
 31
0.0
  0
SPLINE
  5
1B5
100
AcDbEntity
  8
ASN70-0001
370
              15
390
0
  6
Continuous
 62
               7
100
AcDbSpline
210
0.0
220
0.0
230
1.0
 70
               9
 71
               2
 72
              32
 73
              29
 74
               0
 42
0.000001
 43
0.000001
 40
0.0
 40
0.0
 40
0.0
 40
1.0
 40
2.0
 40
3.0
 40
4.0
 40
5.0
 40
6.0
 40
6.0
 40
7.0
 40
8.0
 40
9.0
 40
10.0
 40
11.0
 40
12.0
 40
12.0
 40
13.0
 40
14.0
 40
15.0
 40
16.0
 40
17.0
 40
18.0
 40
18.0
 40
19.0
 40
20.0
 40
21.0
 40
22.0
 40
23.0
 40
24.0
 40
24.0
 40
24.0
 10
-324.43672493517442
 20
-823.32083333333139
 30
0.0
 10
-275.92858509501457
 20
-822.61348123149219
 30
0.0
 10
-213.05174854427969
 20
-786.62749446089583
 30
0.0
 10
-175.29032189096688
 20
-752.82182910813572
 30
0.0
 10
-142.15548615779335
 20
-709.3622742325897
 30
0.0
 10
-101.60107241324658
 20
-631.48792174366099
 30
0.0
 10
-79.416495051365928
 20
-523.79959337643959
 30
0.0
 10
-79.439627871124685
 20
-473.32083333333867
 30
0.0
 10
-79.405990590581496
 20
-422.78815969771676
 30
0.0
 10
-101.48986392850566
 20
-314.92833288230031
 30
0.0
 10
-148.3478598485126
 20
-225.06998002193723
 30
0.0
 10
-193.71458486647316
 20
-175.58249627979967
 30
0.0
 10
-233.04975904313687
 20
-147.0925309853701
 30
0.0
 10
-288.01108003621994
 20
-123.48032950285415
 30
0.0
 10
-324.43672493517442
 20
-123.32083333333867
 30
0.0
 10
-372.94486477533428
 20
-124.0281854351706
 30
0.0
 10
-435.82170132606916
 20
-160.01417220577423
 30
0.0
 10
-473.58312797938197
 20
-193.81983755852707
 30
0.0
 10
-506.7179637125555
 20
-237.27939243408036
 30
0.0
 10
-547.27237745710227
 20
-315.15374492300907
 30
0.0
 10
-569.45695481898656
 20
-422.84207329023047
 30
0.0
 10
-569.4338219992278
 20
-473.32083333333867
 30
0.0
 10
-569.46745927976735
 20
-523.85350696896057
 30
0.0
 10
-547.38358594184319
 20
-631.71333378436975
 30
0.0
 10
-500.52559002183625
 20
-721.57168664474011
 30
0.0
 10
-455.15886500387205
 20
-771.05917038686312
 30
0.0
 10
-415.82369082721561
 20
-799.54913568129996
 30
0.0
 10
-360.86236983412891
 20
-823.16133716381592
 30
0.0
 10
-324.43672493517442
 20
-823.32083333333139
 30
0.0
  0
SPLINE
  5
1B6
100
AcDbEntity
  8
ASN70-0001
370
              15
390
0
  6
Continuous
 62
               7
100
AcDbSpline
210
0.0
220
0.0
230
1.0
 70
               8
 71
               2
 72
              21
 73
              18
 74
               0
 42
0.000001
 43
0.000001
 40
0.0
 40
0.0
 40
0.0
 40
1.0
 40
2.0
 40
3.0
 40
4.0
 40
5.0
 40
6.0
 40
7.0
 40
7.0
 40
8.0
 40
9.0
 40
10.0
 40
11.0
 40
12.0
 40
13.0
 40
14.0
 40
15.0
 40
15.0
 40
15.0
 10
-324.43672492914993
 20
-138.32106236106483
 30
0.0
 10
-341.49221458477041
 20
-138.46988304919068
 30
0.0
 10
-371.41771931327457
 20
-151.7916350457308
 30
0.0
 10
-397.7592887410101
 20
-174.08575079521688
 30
0.0
 10
-422.26172881056482
 20
-206.50204059829412
 30
0.0
 10
-443.73219571770096
 20
-248.01052019294002
 30
0.0
 10
-470.23831882742161
 20
-323.26921848596248
 30
0.0
 10
-484.46449749428939
 20
-425.27209218167263
 30
0.0
 10
-484.43390529474345
 20
-473.32322585544171
 30
0.0
 10
-484.47797317492586
 20
-521.39835278085229
 30
0.0
 10
-470.43397674306834
 20
-623.53587051232171
 30
0.0
 10
-443.76678873274432
 20
-698.67176101137738
 30
0.0
 10
-422.29963017960472
 20
-740.20164595867391
 30
0.0
 10
-397.78326575777828
 20
-772.64152425091015
 30
0.0
 10
-377.19196609544815
 20
-789.92716473551991
 30
0.0
 10
-357.90447680543366
 20
-802.17568377678253
 30
0.0
 10
-334.28707855190441
 20
-808.29791030135675
 30
0.0
 10
-324.43672493517442
 20
-808.32083333333139
 30
0.0
  0
SPLINE
  5
1B7
100
AcDbEntity
  8
ASN70-0001
370
              15
390
0
  6
Continuous
 62
               7
100
AcDbSpline
210
0.0
220
0.0
230
1.0
 70
               8
 71
               2
 72
              20
 73
              17
 74
               0
 42
0.000001
 43
0.000001
 40
0.0
 40
0.0
 40
0.0
 40
1.0
 40
2.0
 40
3.0
 40
4.0
 40
5.0
 40
6.0
 40
7.0
 40
7.0
 40
8.0
 40
9.0
 40
10.0
 40
11.0
 40
12.0
 40
13.0
 40
14.0
 40
14.0
 40
14.0
 10
-369.15890475230844
 20
-123.32083333333867
 30
0.0
 10
-403.61578178391574
 20
-123.50402229115571
 30
0.0
 10
-455.63213961493238
 20
-144.55529123374436
 30
0.0
 10
-493.21842500389175
 20
-170.03133525932935
 30
0.0
 10
-527.86584478292571
 20
-204.96515915517375
 30
0.0
 10
-557.91679480353559
 20
-248.14518404691626
 30
0.0
 10
-594.3045302431492
 20
-323.36337002978689
 30
0.0
 10
-614.17450080707567
 20
-425.59230006578582
 30
0.0
 10
-614.15600181636182
 20
-473.32083333333867
 30
0.0
 10
-614.18289495823774
 20
-521.09481569821219
 30
0.0
 10
-594.40303780042814
 20
-623.50666822351195
 30
0.0
 10
-557.92717605287544
 20
-698.53394215576554
 30
0.0
 10
-527.87205336552506
 20
-741.70613683781266
 30
0.0
 10
-493.21590836562245
 20
-776.63855401644832
 30
0.0
 10
-455.62351778534139
 20
-802.11172384535166
 30
0.0
 10
-403.49386374700771
 20
-823.19291296205483
 30
0.0
 10
-369.15890475230844
 20
-823.32083333333139
 30
0.0
  0
LINE
  5
1B8
100
AcDbEntity
  8
ASN70-0001
370
              15
390
0
  6
Continuous
 62
               7
100
AcDbLine
 10
585.0
 20
954.16746809804317
 30
0.0
 11
495.95872734790464
 21
914.34627003111382
 31
0.0
  0
LINE
  5
1B9
100
AcDbEntity
  8
ASN70-0001
370
              15
390
0
  6
Continuous
 62
               7
100
AcDbLine
 10
510.14732393480153
 20
841.20895928482787
 30
0.0
 11
498.44020306882521
 21
841.20895928482787
 31
0.0
  0
LINE
  5
1BA
100
AcDbEntity
  8
ASN70-0001
370
              15
390
0
  6
Continuous
 62
               7
100
AcDbLine
 10
510.14732393480153
 20
833.20895928482059
 30
0.0
 11
498.44020306882521
 21
833.20895928482059
 31
0.0
  0
ARC
  5
1BB
100
AcDbEntity
  8
ASN70-0001
370
              15
390
0
  6
Continuous
 62
               7
100
AcDbCircle
 10
498.00000000000364
 20
909.78192933832906
 30
0.0
 40
5.0000000000003224
100
AcDbArc
 50
114.09523419963867
 51
180.0
  0
ARC
  5
1BC
100
AcDbEntity
  8
ASN70-0001
370
              15
390
0
  6
Continuous
 62
               7
100
AcDbCircle
 10
495.5
 20
843.70895928481332
 30
0.0
 40
2.5
100
AcDbArc
 50
180.0
 51
270.0
  0
ARC
  5
1BD
100
AcDbEntity
  8
ASN70-0001
370
              15
390
0
  6
Continuous
 62
               7
100
AcDbCircle
 10
562.50000000000728
 20
526.31145607328654
 30
0.0
 40
2.500000000003638
100
AcDbArc
 50
180.0
 51
269.99999999991667
  0
ARC
  5
1BE
100
AcDbEntity
  8
ASN70-0001
370
              15
390
0
  6
Continuous
 62
               7
100
AcDbCircle
 10
487.50000000001091
 20
835.70895928482059
 30
0.0
 40
2.5
100
AcDbArc
 50
180.0
 51
270.0
  0
ARC
  5
1BF
100
AcDbEntity
  8
ASN70-0001
370
              15
390
0
  6
Continuous
 62
               7
100
AcDbCircle
 10
487.5
 20
916.58830932703131
 30
0.0
 40
2.5000000000001612
100
AcDbArc
 50
114.09523419963867
 51
180.0
  0
ARC
  5
1C0
100
AcDbEntity
  8
ASN70-0001
370
              15
390
0
  6
Continuous
 62
               7
100
AcDbCircle
 10
557.5
 20
462.98210899456899
 30
0.0
 40
2.500000000002204
100
AcDbArc
 50
293.83832729115738
 51
0.0
  0
ARC
  5
1C1
100
AcDbEntity
  8
ASN70-0001
370
              15
390
0
  6
Continuous
 62
               7
100
AcDbCircle
 10
487.5
 20
432.05247936491651
 30
0.0
 40
2.499999999996362
100
AcDbArc
 50
180.0
 51
293.83832729130103
  0
ARC
  5
1C2
100
AcDbEntity
  8
ASN70-0001
370
              15
390
0
  6
Continuous
 62
               7
100
AcDbCircle
 10
487.5
 20
442.97616129232483
 30
0.0
 40
2.500000000002204
100
AcDbArc
 50
113.83832729115734
 51
180.0
  0
LINE
  5
1C3
100
AcDbEntity
  8
ASN70-0001
370
               5
390
0
  6
STYLE_23
 62
               7
100
AcDbLine
 10
-324.7584454548014
 20
367.9339587440918
 30
0.0
 11
-369.48062527193906
 21
367.9339587440918
 31
0.0
  0
CIRCLE
  5
1C4
100
AcDbEntity
  8
ASN70-0001
370
               5
390
0
  6
STYLE_23
 62
               7
100
AcDbCircle
 10
-409.48062527193906
 20
717.93395874408452
 30
0.0
 40
33.0
  0
CIRCLE
  5
1C5
100
AcDbEntity
  8
ASN70-0001
370
               5
390
0
  6
STYLE_23
 62
               7
100
AcDbCircle
 10
-534.85306604342986
 20
717.93395874408452
 30
0.0
 40
17.5
  0
LINE
  5
1C6
100
AcDbEntity
  8
ASN70-0001
370
               5
390
0
  6
STYLE_23
 62
               7
100
AcDbLine
 10
-324.7584454548014
 20
367.93395874408452
 30
0.0
 11
-369.48062527193906
 21
367.93395874408452
 31
0.0
  0
LINE
  5
1C7
100
AcDbEntity
  8
ASN70-0001
370
               5
390
0
  6
STYLE_23
 62
               7
100
AcDbLine
 10
-324.7584454548014
 20
1067.9339587440845
 30
0.0
 11
-369.48062527193906
 21
1067.9339587440845
 31
0.0
  0
SPLINE
  5
1C8
100
AcDbEntity
  8
ASN70-0001
370
               5
390
0
  6
STYLE_23
 62
               7
100
AcDbSpline
210
0.0
220
0.0
230
1.0
 70
               9
 71
               2
 72
              32
 73
              29
 74
               0
 42
0.000001
 43
0.000001
 40
0.0
 40
0.0
 40
0.0
 40
1.0
 40
2.0
 40
3.0
 40
4.0
 40
5.0
 40
6.0
 40
6.0
 40
7.0
 40
8.0
 40
9.0
 40
10.0
 40
11.0
 40
12.0
 40
12.0
 40
13.0
 40
14.0
 40
15.0
 40
16.0
 40
17.0
 40
18.0
 40
18.0
 40
19.0
 40
20.0
 40
21.0
 40
22.0
 40
23.0
 40
24.0
 40
24.0
 40
24.0
 10
-324.7584454548014
 20
367.93395874408452
 30
0.0
 10
-276.25030561464519
 20
368.64131084592373
 30
0.0
 10
-213.37346906391031
 20
404.62729761652736
 30
0.0
 10
-175.61204241059386
 20
438.4329629692802
 30
0.0
 10
-142.47720667742396
 20
481.89251784482622
 30
0.0
 10
-101.92279293287356
 20
559.7668703337622
 30
0.0
 10
-79.738215570996545
 20
667.4551987009836
 30
0.0
 10
-79.761348390751664
 20
717.93395874408452
 30
0.0
 10
-79.727711110212113
 20
768.46663237970643
 30
0.0
 10
-101.81158444813263
 20
876.32645919512288
 30
0.0
 10
-148.66958036813958
 20
966.18481205548596
 30
0.0
 10
-194.03630538610378
 20
1015.6722957976162
 30
0.0
 10
-233.37147956276385
 20
1044.1622610920531
 30
0.0
 10
-288.33280055585055
 20
1067.7744625745618
 30
0.0
 10
-324.7584454548014
 20
1067.9339587440845
 30
0.0
 10
-373.26658529496126
 20
1067.2266066422453
 30
0.0
 10
-436.14342184569614
 20
1031.2406198716417
 30
0.0
 10
-473.90484849901259
 20
997.43495451889612
 30
0.0
 10
-507.03968423218248
 20
953.97539964333555
 30
0.0
 10
-547.59409797672924
 20
876.10104715440684
 30
0.0
 10
-569.77867533861354
 20
768.41271878718544
 30
0.0
 10
-569.75554251885842
 20
717.93395874408452
 30
0.0
 10
-569.78917979939797
 20
667.40128510846262
 30
0.0
 10
-547.70530646147017
 20
559.54145829304616
 30
0.0
 10
-500.84731054146687
 20
469.68310543268308
 30
0.0
 10
-455.48058552350267
 20
420.19562169056007
 30
0.0
 10
-416.14541134684623
 20
391.70565639611596
 30
0.0
 10
-361.18409035375953
 20
368.09345491360727
 30
0.0
 10
-324.7584454548014
 20
367.93395874408452
 30
0.0
  0
SPLINE
  5
1C9
100
AcDbEntity
  8
ASN70-0001
370
               5
390
0
  6
STYLE_23
 62
               7
100
AcDbSpline
210
0.0
220
0.0
230
1.0
 70
               8
 71
               2
 72
             936
 73
             933
 74
               0
 42
0.000001
 43
0.000001
 40
0.0
 40
0.0
 40
0.0
 40
1.0
 40
1.0
 40
2.0
 40
2.0
 40
3.0
 40
3.0
 40
4.0
 40
4.0
 40
5.0
 40
5.0
 40
6.0
 40
6.0
 40
7.0
 40
7.0
 40
8.0
 40
8.0
 40
9.0
 40
9.0
 40
10.0
 40
10.0
 40
11.0
 40
11.0
 40
12.0
 40
12.0
 40
13.0
 40
13.0
 40
14.0
 40
14.0
 40
15.0
 40
15.0
 40
16.0
 40
16.0
 40
17.0
 40
17.0
 40
18.0
 40
18.0
 40
19.0
 40
19.0
 40
20.0
 40
20.0
 40
21.0
 40
21.0
 40
22.0
 40
22.0
 40
23.0
 40
23.0
 40
24.0
 40
24.0
 40
25.0
 40
25.0
 40
26.0
 40
26.0
 40
27.0
 40
27.0
 40
28.0
 40
28.0
 40
29.0
 40
29.0
 40
30.0
 40
30.0
 40
31.0
 40
31.0
 40
32.0
 40
32.0
 40
33.0
 40
33.0
 40
34.0
 40
34.0
 40
35.0
 40
35.0
 40
36.0
 40
36.0
 40
37.0
 40
37.0
 40
38.0
 40
38.0
 40
39.0
 40
39.0
 40
40.0
 40
40.0
 40
41.0
 40
41.0
 40
42.0
 40
42.0
 40
43.0
 40
43.0
 40
44.0
 40
44.0
 40
45.0
 40
45.0
 40
46.0
 40
46.0
 40
47.0
 40
47.0
 40
48.0
 40
48.0
 40
49.0
 40
49.0
 40
50.0
 40
50.0
 40
51.0
 40
51.0
 40
52.0
 40
52.0
 40
53.0
 40
53.0
 40
54.0
 40
54.0
 40
55.0
 40
55.0
 40
56.0
 40
56.0
 40
57.0
 40
57.0
 40
58.0
 40
58.0
 40
59.0
 40
59.0
 40
60.0
 40
60.0
 40
61.0
 40
61.0
 40
62.0
 40
62.0
 40
63.0
 40
63.0
 40
64.0
 40
64.0
 40
65.0
 40
65.0
 40
66.0
 40
66.0
 40
67.0
 40
67.0
 40
68.0
 40
68.0
 40
69.0
 40
69.0
 40
70.0
 40
70.0
 40
71.0
 40
71.0
 40
72.0
 40
72.0
 40
73.0
 40
73.0
 40
74.0
 40
74.0
 40
75.0
 40
75.0
 40
76.0
 40
76.0
 40
77.0
 40
77.0
 40
78.0
 40
78.0
 40
79.0
 40
79.0
 40
80.0
 40
80.0
 40
81.0
 40
81.0
 40
82.0
 40
82.0
 40
83.0
 40
83.0
 40
84.0
 40
84.0
 40
85.0
 40
85.0
 40
86.0
 40
86.0
 40
87.0
 40
87.0
 40
88.0
 40
88.0
 40
89.0
 40
89.0
 40
90.0
 40
90.0
 40
91.0
 40
91.0
 40
92.0
 40
92.0
 40
93.0
 40
93.0
 40
94.0
 40
94.0
 40
95.0
 40
95.0
 40
96.0
 40
96.0
 40
97.0
 40
97.0
 40
98.0
 40
98.0
 40
99.0
 40
99.0
 40
100.0
 40
100.0
 40
101.0
 40
101.0
 40
102.0
 40
102.0
 40
103.0
 40
103.0
 40
104.0
 40
104.0
 40
105.0
 40
105.0
 40
106.0
 40
106.0
 40
107.0
 40
107.0
 40
108.0
 40
108.0
 40
109.0
 40
109.0
 40
110.0
 40
110.0
 40
111.0
 40
111.0
 40
112.0
 40
112.0
 40
113.0
 40
113.0
 40
114.0
 40
114.0
 40
115.0
 40
115.0
 40
116.0
 40
116.0
 40
117.0
 40
117.0
 40
118.0
 40
118.0
 40
119.0
 40
119.0
 40
120.0
 40
120.0
 40
121.0
 40
121.0
 40
122.0
 40
122.0
 40
123.0
 40
123.0
 40
124.0
 40
124.0
 40
125.0
 40
125.0
 40
126.0
 40
126.0
 40
127.0
 40
127.0
 40
128.0
 40
128.0
 40
129.0
 40
129.0
 40
130.0
 40
130.0
 40
131.0
 40
131.0
 40
132.0
 40
132.0
 40
133.0
 40
133.0
 40
134.0
 40
134.0
 40
135.0
 40
135.0
 40
136.0
 40
136.0
 40
137.0
 40
137.0
 40
138.0
 40
138.0
 40
139.0
 40
139.0
 40
140.0
 40
140.0
 40
141.0
 40
141.0
 40
142.0
 40
142.0
 40
143.0
 40
143.0
 40
144.0
 40
144.0
 40
145.0
 40
145.0
 40
146.0
 40
146.0
 40
147.0
 40
147.0
 40
148.0
 40
148.0
 40
149.0
 40
149.0
 40
150.0
 40
150.0
 40
151.0
 40
151.0
 40
152.0
 40
152.0
 40
153.0
 40
153.0
 40
154.0
 40
154.0
 40
155.0
 40
155.0
 40
156.0
 40
156.0
 40
157.0
 40
157.0
 40
158.0
 40
158.0
 40
159.0
 40
159.0
 40
160.0
 40
160.0
 40
161.0
 40
161.0
 40
162.0
 40
162.0
 40
163.0
 40
163.0
 40
164.0
 40
164.0
 40
165.0
 40
165.0
 40
166.0
 40
166.0
 40
167.0
 40
167.0
 40
168.0
 40
168.0
 40
169.0
 40
169.0
 40
170.0
 40
170.0
 40
171.0
 40
171.0
 40
172.0
 40
172.0
 40
173.0
 40
173.0
 40
174.0
 40
174.0
 40
175.0
 40
175.0
 40
176.0
 40
176.0
 40
177.0
 40
177.0
 40
178.0
 40
178.0
 40
179.0
 40
179.0
 40
180.0
 40
180.0
 40
181.0
 40
181.0
 40
182.0
 40
182.0
 40
183.0
 40
183.0
 40
184.0
 40
184.0
 40
185.0
 40
185.0
 40
186.0
 40
186.0
 40
187.0
 40
187.0
 40
188.0
 40
188.0
 40
189.0
 40
189.0
 40
190.0
 40
190.0
 40
191.0
 40
191.0
 40
192.0
 40
192.0
 40
193.0
 40
193.0
 40
194.0
 40
194.0
 40
195.0
 40
195.0
 40
196.0
 40
196.0
 40
197.0
 40
197.0
 40
198.0
 40
198.0
 40
199.0
 40
199.0
 40
200.0
 40
200.0
 40
201.0
 40
201.0
 40
202.0
 40
202.0
 40
203.0
 40
203.0
 40
204.0
 40
204.0
 40
205.0
 40
205.0
 40
206.0
 40
206.0
 40
207.0
 40
207.0
 40
208.0
 40
208.0
 40
209.0
 40
209.0
 40
210.0
 40
210.0
 40
211.0
 40
211.0
 40
212.0
 40
212.0
 40
213.0
 40
213.0
 40
214.0
 40
214.0
 40
215.0
 40
215.0
 40
216.0
 40
216.0
 40
217.0
 40
217.0
 40
218.0
 40
218.0
 40
219.0
 40
219.0
 40
220.0
 40
220.0
 40
221.0
 40
221.0
 40
222.0
 40
222.0
 40
223.0
 40
223.0
 40
224.0
 40
224.0
 40
225.0
 40
225.0
 40
226.0
 40
226.0
 40
227.0
 40
227.0
 40
228.0
 40
228.0
 40
229.0
 40
229.0
 40
230.0
 40
230.0
 40
231.0
 40
231.0
 40
232.0
 40
232.0
 40
233.0
 40
233.0
 40
234.0
 40
234.0
 40
235.0
 40
235.0
 40
236.0
 40
236.0
 40
237.0
 40
237.0
 40
238.0
 40
238.0
 40
239.0
 40
239.0
 40
240.0
 40
240.0
 40
241.0
 40
241.0
 40
242.0
 40
242.0
 40
243.0
 40
243.0
 40
244.0
 40
244.0
 40
245.0
 40
245.0
 40
246.0
 40
246.0
 40
247.0
 40
247.0
 40
248.0
 40
248.0
 40
249.0
 40
249.0
 40
250.0
 40
250.0
 40
251.0
 40
251.0
 40
252.0
 40
252.0
 40
253.0
 40
253.0
 40
254.0
 40
254.0
 40
255.0
 40
255.0
 40
256.0
 40
256.0
 40
257.0
 40
257.0
 40
258.0
 40
258.0
 40
259.0
 40
259.0
 40
260.0
 40
260.0
 40
261.0
 40
261.0
 40
262.0
 40
262.0
 40
263.0
 40
263.0
 40
264.0
 40
264.0
 40
265.0
 40
265.0
 40
266.0
 40
266.0
 40
267.0
 40
267.0
 40
268.0
 40
268.0
 40
269.0
 40
269.0
 40
270.0
 40
270.0
 40
271.0
 40
271.0
 40
272.0
 40
272.0
 40
273.0
 40
273.0
 40
274.0
 40
274.0
 40
275.0
 40
275.0
 40
276.0
 40
276.0
 40
277.0
 40
277.0
 40
278.0
 40
278.0
 40
279.0
 40
279.0
 40
280.0
 40
280.0
 40
281.0
 40
281.0
 40
282.0
 40
282.0
 40
283.0
 40
283.0
 40
284.0
 40
284.0
 40
285.0
 40
285.0
 40
286.0
 40
286.0
 40
287.0
 40
287.0
 40
288.0
 40
288.0
 40
289.0
 40
289.0
 40
290.0
 40
290.0
 40
291.0
 40
291.0
 40
292.0
 40
292.0
 40
293.0
 40
293.0
 40
294.0
 40
294.0
 40
295.0
 40
295.0
 40
296.0
 40
296.0
 40
297.0
 40
297.0
 40
298.0
 40
298.0
 40
299.0
 40
299.0
 40
300.0
 40
300.0
 40
301.0
 40
301.0
 40
302.0
 40
302.0
 40
303.0
 40
303.0
 40
304.0
 40
304.0
 40
305.0
 40
305.0
 40
306.0
 40
306.0
 40
307.0
 40
307.0
 40
308.0
 40
308.0
 40
309.0
 40
309.0
 40
310.0
 40
310.0
 40
311.0
 40
311.0
 40
312.0
 40
312.0
 40
313.0
 40
313.0
 40
314.0
 40
314.0
 40
315.0
 40
315.0
 40
316.0
 40
316.0
 40
317.0
 40
317.0
 40
318.0
 40
318.0
 40
319.0
 40
319.0
 40
320.0
 40
320.0
 40
321.0
 40
321.0
 40
322.0
 40
322.0
 40
323.0
 40
323.0
 40
324.0
 40
324.0
 40
325.0
 40
325.0
 40
326.0
 40
326.0
 40
327.0
 40
327.0
 40
328.0
 40
328.0
 40
329.0
 40
329.0
 40
330.0
 40
330.0
 40
331.0
 40
331.0
 40
332.0
 40
332.0
 40
333.0
 40
333.0
 40
334.0
 40
334.0
 40
335.0
 40
335.0
 40
336.0
 40
336.0
 40
337.0
 40
337.0
 40
338.0
 40
338.0
 40
339.0
 40
339.0
 40
340.0
 40
340.0
 40
341.0
 40
341.0
 40
342.0
 40
342.0
 40
343.0
 40
343.0
 40
344.0
 40
344.0
 40
345.0
 40
345.0
 40
346.0
 40
346.0
 40
347.0
 40
347.0
 40
348.0
 40
348.0
 40
349.0
 40
349.0
 40
350.0
 40
350.0
 40
351.0
 40
351.0
 40
352.0
 40
352.0
 40
353.0
 40
353.0
 40
354.0
 40
354.0
 40
355.0
 40
355.0
 40
356.0
 40
356.0
 40
357.0
 40
357.0
 40
358.0
 40
358.0
 40
359.0
 40
359.0
 40
360.0
 40
360.0
 40
361.0
 40
361.0
 40
362.0
 40
362.0
 40
363.0
 40
363.0
 40
364.0
 40
364.0
 40
365.0
 40
365.0
 40
366.0
 40
366.0
 40
367.0
 40
367.0
 40
368.0
 40
368.0
 40
369.0
 40
369.0
 40
370.0
 40
370.0
 40
371.0
 40
371.0
 40
372.0
 40
372.0
 40
373.0
 40
373.0
 40
374.0
 40
374.0
 40
375.0
 40
375.0
 40
376.0
 40
376.0
 40
377.0
 40
377.0
 40
378.0
 40
378.0
 40
379.0
 40
379.0
 40
380.0
 40
380.0
 40
381.0
 40
381.0
 40
382.0
 40
382.0
 40
383.0
 40
383.0
 40
384.0
 40
384.0
 40
385.0
 40
385.0
 40
386.0
 40
386.0
 40
387.0
 40
387.0
 40
388.0
 40
388.0
 40
389.0
 40
389.0
 40
390.0
 40
390.0
 40
391.0
 40
391.0
 40
392.0
 40
392.0
 40
393.0
 40
393.0
 40
394.0
 40
394.0
 40
395.0
 40
395.0
 40
396.0
 40
396.0
 40
397.0
 40
397.0
 40
398.0
 40
398.0
 40
399.0
 40
399.0
 40
400.0
 40
400.0
 40
401.0
 40
401.0
 40
402.0
 40
402.0
 40
403.0
 40
403.0
 40
404.0
 40
404.0
 40
405.0
 40
405.0
 40
406.0
 40
406.0
 40
407.0
 40
407.0
 40
408.0
 40
408.0
 40
409.0
 40
409.0
 40
410.0
 40
410.0
 40
411.0
 40
411.0
 40
412.0
 40
412.0
 40
413.0
 40
413.0
 40
414.0
 40
414.0
 40
415.0
 40
415.0
 40
416.0
 40
416.0
 40
417.0
 40
417.0
 40
418.0
 40
418.0
 40
419.0
 40
419.0
 40
420.0
 40
420.0
 40
421.0
 40
421.0
 40
422.0
 40
422.0
 40
423.0
 40
423.0
 40
424.0
 40
424.0
 40
425.0
 40
425.0
 40
426.0
 40
426.0
 40
427.0
 40
427.0
 40
428.0
 40
428.0
 40
429.0
 40
429.0
 40
430.0
 40
430.0
 40
431.0
 40
431.0
 40
432.0
 40
432.0
 40
433.0
 40
433.0
 40
434.0
 40
434.0
 40
435.0
 40
435.0
 40
436.0
 40
436.0
 40
437.0
 40
437.0
 40
438.0
 40
438.0
 40
439.0
 40
439.0
 40
440.0
 40
440.0
 40
441.0
 40
441.0
 40
442.0
 40
442.0
 40
443.0
 40
443.0
 40
444.0
 40
444.0
 40
445.0
 40
445.0
 40
446.0
 40
446.0
 40
447.0
 40
447.0
 40
448.0
 40
448.0
 40
449.0
 40
449.0
 40
450.0
 40
450.0
 40
451.0
 40
451.0
 40
452.0
 40
452.0
 40
453.0
 40
453.0
 40
454.0
 40
454.0
 40
455.0
 40
455.0
 40
456.0
 40
456.0
 40
457.0
 40
457.0
 40
458.0
 40
458.0
 40
459.0
 40
459.0
 40
460.0
 40
460.0
 40
461.0
 40
461.0
 40
462.0
 40
462.0
 40
463.0
 40
463.0
 40
464.0
 40
464.0
 40
465.0
 40
465.0
 40
466.0
 40
466.0
 40
466.0
 10
-324.7584454548014
 20
382.93395874408452
 30
0.0
 10
-312.42592054055785
 20
382.93395874408452
 30
0.0
 10
-306.25917882451176
 20
383.66315430906252
 30
0.0
 10
-300.09243710846567
 20
384.39234987404052
 30
0.0
 10
-285.74899629830179
 20
387.81461439975101
 30
0.0
 10
-271.40555548813791
 20
391.23687892545422
 30
0.0
 10
-263.27656983995257
 20
394.53040607274306
 30
0.0
 10
-255.14758419176724
 20
397.8239332200319
 30
0.0
 10
-239.47260104799716
 20
406.99597716735298
 30
0.0
 10
-223.79761790422708
 20
416.16802111468132
 30
0.0
 10
-216.25416577821306
 20
422.04838663733244
 30
0.0
 10
-208.71071365219905
 20
427.92875215998356
 30
0.0
 10
-194.62540282762347
 20
442.05275819466624
 30
0.0
 10
-180.54009200304426
 20
456.17676422934892
 30
0.0
 10
-174.00057306461895
 20
464.4195467601603
 30
0.0
 10
-167.46105412619363
 20
472.66232929097896
 30
0.0
 10
-155.7700323130739
 20
491.11889816057374
 30
0.0
 10
-144.07901049995417
 20
509.57546703017579
 30
0.0
 10
-138.92854603438172
 20
519.78776606057363
 30
0.0
 10
-133.77808156880928
 20
530.00006509097148
 30
0.0
 10
-125.16742016328135
 20
551.87512854937086
 30
0.0
 10
-116.55675875775341
 20
573.75019200777024
 30
0.0
 10
-113.09695079943049
 20
585.4116076312057
 30
0.0
 10
-109.63714284110392
 20
597.07302325464116
 30
0.0
 10
-104.60697278613225
 20
621.24192842785124
 30
0.0
 10
-99.576802731160569
 20
645.41083360105404
 30
0.0
 10
-98.006590496563149
 20
657.9171093814366
 30
0.0
 10
-96.436378261965729
 20
670.42338516181917
 30
0.0
 10
-95.274665186119819
 20
695.63200533197232
 30
0.0
 10
-94.112952110273909
 20
720.8406255021182
 30
0.0
 10
-94.521481306604983
 20
733.54180280234868
 30
0.0
 10
-94.930010502939695
 20
746.24298010257917
 30
0.0
 10
-97.702760849933838
 20
771.18118616124411
 30
0.0
 10
-100.47551119693162
 20
796.11939221990906
 30
0.0
 10
-102.83965824796542
 20
808.35524296604126
 30
0.0
 10
-105.20380529899921
 20
820.59109371217346
 30
0.0
 10
-111.75316183572431
 20
843.96317720246589
 30
0.0
 10
-118.30251837245305
 20
867.33526069275831
 30
0.0
 10
-122.48750515854044
 20
878.47023631894263
 30
0.0
 10
-126.6724919446242
 20
889.60521194512694
 30
0.0
 10
-136.62147249205736
 20
910.20104414618982
 30
0.0
 10
-146.57045303949053
 20
930.79687634725269
 30
0.0
 10
-152.33386487227835
 20
940.25630850314337
 30
0.0
 10
-158.09727670506618
 20
949.71574065903405
 30
0.0
 10
-170.8645759476567
 20
966.4868814389265
 30
0.0
 10
-183.63187519024359
 20
983.25802221881895
 30
0.0
 10
-190.63424922430568
 20
990.56832376632519
 30
0.0
 10
-197.6366232583714
 20
997.87862531382416
 30
0.0
 10
-212.47566791267309
 20
1010.0227330148846
 30
0.0
 10
-227.31471256697841
 20
1022.1668407159377
 30
0.0
 10
-235.14859058213915
 20
1027.0006441851801
 30
0.0
 10
-242.98246859730352
 20
1031.8344476544153
 30
0.0
 10
-259.07556452614881
 20
1038.8698832878945
 30
0.0
 10
-275.1686604549941
 20
1045.9053189213737
 30
0.0
 10
-283.42656575700312
 20
1048.1100312719718
 30
0.0
 10
-291.68447105901214
 20
1050.3147436225772
 30
0.0
 10
-302.72868383709283
 20
1051.4797508087431
 30
0.0
 10
-313.77289661517352
 20
1052.644757994909
 30
0.0
 10
-316.51928810172831
 20
1052.7892817759348
 30
0.0
 10
-319.26567958827945
 20
1052.9338055569606
 30
0.0
 10
-322.01206252154225
 20
1052.9337676499636
 30
0.0
 10
-324.7584454548014
 20
1052.9337297429738
 30
0.0
 10
-324.7584454548014
 20
382.93395874408452
 30
0.0
 10
-323.56513321295279
 20
382.93882700511313
 30
0.0
 10
-322.37182097110417
 20
382.94369526614173
 30
0.0
 10
-321.25372934143161
 20
382.95832787824475
 30
0.0
 10
-320.13563771175905
 20
382.97296049035504
 30
0.0
 10
-319.08577686379067
 20
382.99739919709828
 30
0.0
 10
-318.03591601582229
 20
383.02183790384152
 30
0.0
 10
-317.04729611909352
 20
383.05612444876897
 30
0.0
 10
-316.05867622236474
 20
383.09041099369642
 30
0.0
 10
-315.12430744640369
 20
383.13458712035936
 30
0.0
 10
-314.18993867044264
 20
383.17876324702229
 30
0.0
 10
-313.30283118478474
 20
383.23287069897196
 30
0.0
 10
-312.41572369912683
 20
383.28697815092164
 30
0.0
 10
-311.56888767329656
 20
383.35105867170932
 30
0.0
 10
-310.72205164746629
 20
383.41513919248973
 30
0.0
 10
-309.90849725100634
 20
383.48923452565941
 30
0.0
 10
-309.09494285454639
 20
383.56332985883637
 30
0.0
 10
-308.30768025697762
 20
383.64748174795386
 30
0.0
 10
-307.52041765940885
 20
383.73163363706408
 30
0.0
 10
-306.75245703027031
 20
383.82588382565882
 30
0.0
 10
-305.98449640112813
 20
383.92013401425356
 30
0.0
 10
-305.22884790994431
 20
384.02452424589865
 30
0.0
 10
-304.47319941876412
 20
384.12891447753645
 30
0.0
 10
-303.72287323507408
 20
384.24348649576859
 30
0.0
 10
-302.97254705138403
 20
384.35805851399346
 30
0.0
 10
-302.22055334471588
 20
384.48285406236391
 30
0.0
 10
-301.46855963804774
 20
384.60764961073437
 30
0.0
 10
-300.70790857793327
 20
384.74271043278713
 30
0.0
 10
-299.94725751782244
 20
384.87777125484718
 30
0.0
 10
-299.17095927379705
 20
385.02313909415534
 30
0.0
 10
-298.39466102976803
 20
385.16850693345623
 30
0.0
 10
-297.59744915215924
 20
385.32409523265233
 30
0.0
 10
-296.80023727455045
 20
385.4796835318557
 30
0.0
 10
-295.98373883689783
 20
385.6448925300574
 30
0.0
 10
-295.16724039924884
 20
385.81010152825911
 30
0.0
 10
-294.33480585589132
 20
385.98420316365809
 30
0.0
 10
-293.50237131253743
 20
386.15830479906435
 30
0.0
 10
-292.65735111782124
 20
386.34057100987411
 30
0.0
 10
-291.81233092310504
 20
386.52283722068387
 30
0.0
 10
-290.95807553136547
 20
386.71253994511062
 30
0.0
 10
-290.10382013962953
 20
386.90224266953737
 30
0.0
 10
-289.24368000520917
 20
387.09865384578734
 30
0.0
 10
-288.38353987078881
 20
387.29506502203003
 30
0.0
 10
-287.52086544803024
 20
387.49745658829488
 30
0.0
 10
-286.65819102526802
 20
387.69984815456701
 30
0.0
 10
-285.79633276850655
 20
387.90749204906751
 30
0.0
 10
-284.93447451174507
 20
388.11513594356802
 30
0.0
 10
-284.07678287531962
 20
388.32730410450313
 30
0.0
 10
-283.21909123889418
 20
388.53947226543823
 30
0.0
 10
-282.36891667715099
 20
388.75543663101416
 30
0.0
 10
-281.51874211540417
 20
388.97140099659737
 30
0.0
 10
-280.67943508267854
 20
389.19043350502034
 30
0.0
 10
-279.84012804995291
 20
389.40946601344331
 30
0.0
 10
-279.01503900058742
 20
389.63083860291954
 30
0.0
 10
-278.1899499512183
 20
389.85221119239577
 30
0.0
 10
-277.38242933955189
 20
390.07519580113149
 30
0.0
 10
-276.57490872788549
 20
390.29818040985992
 30
0.0
 10
-275.78830700825711
 20
390.52204897605407
 30
0.0
 10
-275.00170528862873
 20
390.74591754224821
 30
0.0
 10
-274.23937291538095
 20
390.96994200411427
 30
0.0
 10
-273.47704054213318
 20
391.19396646598034
 30
0.0
 10
-272.74109003202102
 20
391.41783675987972
 30
0.0
 10
-272.00513952190886
 20
391.6417070537791
 30
0.0
 10
-271.29273164135884
 20
391.8667851087157
 30
0.0
 10
-270.58032376080882
 20
392.09186316364503
 30
0.0
 10
-269.88738133866718
 20
392.31992890677793
 30
0.0
 10
-269.19443891652554
 20
392.54799464991811
 30
0.0
 10
-268.51688478162396
 20
392.78082800842094
 30
0.0
 10
-267.83933064672237
 20
393.01366136692377
 30
0.0
 10
-267.17308762791072
 20
393.25304226795561
 30
0.0
 10
-266.5068446091027
 20
393.49242316898744
 30
0.0
 10
-265.8478355352272
 20
393.74013153971464
 30
0.0
 10
-265.18882646134807
 20
393.98783991044183
 30
0.0
 10
-264.53297416124406
 20
394.24565567802347
 30
0.0
 10
-263.87712186114004
 20
394.5034714456051
 30
0.0
 10
-263.22034916364646
 20
394.77317453720752
 30
0.0
 10
-262.56357646615288
 20
395.04287762880995
 30
0.0
 10
-261.90180620011961
 20
395.32624797159951
 30
0.0
 10
-261.24003593408997
 20
395.60961831439636
 30
0.0
 10
-260.56919092835597
 20
395.90843583553942
 30
0.0
 10
-259.89834592262196
 20
396.20725335667521
 30
0.0
 10
-259.21434900603344
 20
396.52329798333085
 30
0.0
 10
-258.53035208944493
 20
396.83934260998649
 30
0.0
 10
-257.82912609083724
 20
397.17439426931378
 30
0.0
 10
-257.1279000922259
 20
397.50944592864107
 30
0.0
 10
-256.40536784044525
 20
397.86528454781364
 30
0.0
 10
-255.68283558866824
 20
398.22112316699349
 30
0.0
 10
-254.93491991255723
 20
398.59952867317043
 30
0.0
 10
-254.18700423644259
 20
398.97793417934736
 30
0.0
 10
-253.40962796484018
 20
399.380686499695
 30
0.0
 10
-252.63225169323778
 20
399.78343882004265
 30
0.0
 10
-251.82279138245576
 20
400.21156837805029
 30
0.0
 10
-251.01333107167375
 20
400.63969793605793
 30
0.0
 10
-250.17497818787524
 20
401.09123714052112
 30
0.0
 10
-249.33662530407673
 20
401.54277634497703
 30
0.0
 10
-248.47402504090132
 20
402.01500810100697
 30
0.0
 10
-247.61142477772592
 20
402.48723985703691
 30
0.0
 10
-246.72922232880592
 20
402.97744706975209
 30
0.0
 10
-245.84701987988592
 20
403.46765428247454
 30
0.0
 10
-244.94986043884637
 20
403.97311985700071
 30
0.0
 10
-244.05270099780682
 20
404.47858543152688
 30
0.0
 10
-243.14522975829459
 20
404.99659227298253
 30
0.0
 10
-242.23775851877872
 20
405.51459911443089
 30
0.0
 10
-241.32462067441884
 20
406.04243012793449
 30
0.0
 10
-240.41148283005896
 20
406.57026114143082
 30
0.0
 10
-239.49732357448374
 20
407.10519923209358
 30
0.0
 10
-238.58316431891217
 20
407.64013732275635
 30
0.0
 10
-237.67262884576485
 20
408.17946539569675
 30
0.0
 10
-236.76209337261389
 20
408.71879346864444
 30
0.0
 10
-235.85982687551586
 20
409.25979442898824
 30
0.0
 10
-234.95756037842148
 20
409.80079538933205
 30
0.0
 10
-234.06820805101597
 20
410.34075214219774
 30
0.0
 10
-233.17885572361047
 20
410.88070889506344
 30
0.0
 10
-232.30706275952616
 20
411.41690434556949
 30
0.0
 10
-231.43526979544185
 20
411.95309979607555
 30
0.0
 10
-230.5856813883147
 20
412.48281684933318
 30
0.0
 10
-229.7360929811839
 20
413.0125339025908
 30
0.0
 10
-228.91335432464621
 20
413.53305546372576
 30
0.0
 10
-228.09061566810851
 20
414.05357702486072
 30
0.0
 10
-227.29937195579259
 20
414.56218599899148
 30
0.0
 10
-226.50812824348031
 20
415.07079497312225
 30
0.0
 10
-225.75152585824617
 20
415.56579675988905
 30
0.0
 10
-224.99492347301202
 20
416.06079854665586
 30
0.0
 10
-224.27011355460127
 20
416.54458852381504
 30
0.0
 10
-223.54530363619415
 20
417.02837850097421
 30
0.0
 10
-222.84793851359427
 20
417.50437454080384
 30
0.0
 10
-222.15057339099076
 20
417.98037058063346
 30
0.0
 10
-221.47630539316015
 20
418.45199055540434
 30
0.0
 10
-220.80203739533317
 20
418.92361053017521
 30
0.0
 10
-220.14651885125204
 20
419.39427231216541
 30
0.0
 10
-219.49100030717455
 20
419.86493409415561
 30
0.0
 10
-218.84988354581583
 20
420.3380555556505
 30
0.0
 10
-218.20876678445711
 20
420.81117701714538
 30
0.0
 10
-217.57770413479375
 20
421.29017603041575
 30
0.0
 10
-216.94664148513039
 20
421.76917504369339
 30
0.0
 10
-216.32128527613168
 20
422.2574694810246
 30
0.0
 10
-215.69592906713297
 20
422.74576391834853
 30
0.0
 10
-215.07193162777912
 20
423.24677165201138
 30
0.0
 10
-214.44793418842528
 20
423.74777938566695
 30
0.0
 10
-213.82094784768196
 20
424.26491828793223
 30
0.0
 10
-213.19396150693865
 20
424.7820571902048
 30
0.0
 10
-212.55963859378244
 20
425.31874513336516
 30
0.0
 10
-211.92531568062623
 20
425.85543307652551
 30
0.0
 10
-211.27930852402642
 20
426.41508793285175
 30
0.0
 10
-210.63330136742661
 20
426.97474278917798
 30
0.0
 10
-209.97126229636342
 20
427.56078243094817
 30
0.0
 10
-209.30922322530023
 20
428.14682207271107
 30
0.0
 10
-208.62680456873932
 20
428.76266437219601
 30
0.0
 10
-207.9443859121784
 20
429.37850667168823
 30
0.0
 10
-207.23723999909271
 20
430.02756950117328
 30
0.0
 10
-206.53009408600701
 20
430.67663233065832
 30
0.0
 10
-205.79529354366241
 20
431.3610663928921
 30
0.0
 10
-205.06049300131781
 20
432.04550045512588
 30
0.0
 10
-204.30079165011557
 20
432.76238777473918
 30
0.0
 10
-203.54109029891333
 20
433.47927509435249
 30
0.0
 10
-202.76066225754403
 20
434.22443052646122
 30
0.0
 10
-201.98023421617472
 20
434.96958595856995
 30
0.0
 10
-201.18325360333256
 20
435.73882435826818
 30
0.0
 10
-200.3862729904904
 20
436.5080627579664
 30
0.0
 10
-199.57691392486595
 20
437.29719898036274
 30
0.0
 10
-198.7675548592415
 20
438.08633520275907
 30
0.0
 10
-197.94999145952534
 20
438.89118410296942
 30
0.0
 10
-197.13242805980917
 20
439.69603300317976
 30
0.0
 10
-196.3108344446955
 20
440.51240943630546
 30
0.0
 10
-195.48924082958183
 20
441.32878586942388
 30
0.0
 10
-194.66779111776123
 20
442.15250469056627
 30
0.0
 10
-193.84634140594426
 20
442.97622351170867
 30
0.0
 10
-193.02920971610729
 20
443.80309957598365
 30
0.0
 10
-192.21207802627396
 20
444.62997564025136
 30
0.0
 10
-191.40343847711483
 20
445.455823802753
 30
0.0
 10
-190.59479892795571
 20
446.28167196525465
 30
0.0
 10
-189.798825638165
 20
447.10230708109884
 30
0.0
 10
-189.00285234837429
 20
447.92294219694304
 30
0.0
 10
-188.22371943664257
 20
448.73417912123114
 30
0.0
 10
-187.44458652491085
 20
449.54541604551923
 30
0.0
 10
-186.68646810993596
 20
450.34306963335985
 30
0.0
 10
-185.92834969496107
 20
451.14072322120046
 30
0.0
 10
-185.19541989542631
 20
451.92060832770221
 30
0.0
 10
-184.46249009589519
 20
452.70049343419669
 30
0.0
 10
-183.75892303049477
 20
453.45842491446092
 30
0.0
 10
-183.05535596509435
 20
454.21635639473243
 30
0.0
 10
-182.38400303917297
 20
454.94964144331607
 30
0.0
 10
-181.71265011325522
 20
455.68292649189971
 30
0.0
 10
-181.07107187874863
 20
456.39484166116017
 30
0.0
 10
-180.42949364424203
 20
457.10675683042791
 30
0.0
 10
-179.81392793974373
 20
457.80207101217093
 30
0.0
 10
-179.19836223524544
 20
458.49738519392122
 30
0.0
 10
-178.60504689934169
 20
459.18086727995251
 30
0.0
 10
-178.01173156343793
 20
459.8643493659838
 30
0.0
 10
-177.4369044347186
 20
460.54076824810909
 30
0.0
 10
-176.86207730599926
 20
461.21718713023438
 30
0.0
 10
-176.30197622305786
 20
461.89131170025939
 30
0.0
 10
-175.74187514011646
 20
462.56543627028441
 30
0.0
 10
-175.1927379415356
 20
463.2420354200076
 30
0.0
 10
-174.64360074295473
 20
463.91863456973806
 30
0.0
 10
-174.10166526732792
 20
464.60247719097242
 30
0.0
 10
-173.5597297917011
 20
465.28631981220678
 30
0.0
 10
-173.02123387761458
 20
465.98217479675804
 30
0.0
 10
-172.48273796352805
 20
466.67802978130203
 30
0.0
 10
-171.94391944957169
 20
467.39066602096864
 30
0.0
 10
-171.40510093561898
 20
468.10330226063525
 30
0.0
 10
-170.86219766038994
 20
468.8374886472302
 30
0.0
 10
-170.31929438515726
 20
469.57167503382516
 30
0.0
 10
-169.76854418723451
 20
470.33218045914691
 30
0.0
 10
-169.21779398931176
 20
471.09268588446139
 30
0.0
 10
-168.6554347072888
 20
471.88427924032294
 30
0.0
 10
-168.09307542526585
 20
472.67587259617721
 30
0.0
 10
-167.51534489773621
 20
473.50332277436974
 30
0.0
 10
-166.93761437020294
 20
474.33077295256226
 30
0.0
 10
-166.34075043574558
 20
475.19884884490602
 30
0.0
 10
-165.74388650129185
 20
476.06692473724252
 30
0.0
 10
-165.1253314111018
 20
476.97868891128019
 30
0.0
 10
-164.5067763209081
 20
477.89045308532513
 30
0.0
 10
-163.86878997652093
 20
478.8421428116344
 30
0.0
 10
-163.23080363213376
 20
479.79383253794367
 30
0.0
 10
-162.57685034769383
 20
480.77997876283916
 30
0.0
 10
-161.92289706325755
 20
481.76612498773466
 30
0.0
 10
-161.25644115290925
 20
482.781258657531
 30
0.0
 10
-160.58998524256094
 20
483.79639232732734
 30
0.0
 10
-159.91449102043407
 20
484.83504438834643
 30
0.0
 10
-159.2389967983072
 20
485.87369644936553
 30
0.0
 10
-158.5579285785534
 20
486.93039784792199
 30
0.0
 10
-157.8768603587996
 20
487.98709924647846
 30
0.0
 10
-157.19368245555233
 20
489.05638092889421
 30
0.0
 10
-156.51050455230506
 20
490.12566261130996
 30
0.0
 10
-155.82868127970505
 20
491.20205552389234
 30
0.0
 10
-155.14685800710504
 20
492.27844843647472
 30
0.0
 10
-154.46985367929301
 20
493.3564835255529
 30
0.0
 10
-153.79284935148098
 20
494.43451861463109
 30
0.0
 10
-153.12412828259403
 20
495.50872682651971
 30
0.0
 10
-152.45540721370708
 20
496.58293503840832
 30
0.0
 10
-151.79843371788957
 20
497.647847319422
 30
0.0
 10
-151.14146022207206
 20
498.71275960043567
 30
0.0
 10
-150.49969861346108
 20
499.76290689688904
 30
0.0
 10
-149.8579370048501
 20
500.81305419334967
 30
0.0
 10
-149.23485159758638
 20
501.84296745157189
 30
0.0
 10
-148.61176619032267
 20
502.87288070978684
 30
0.0
 10
-148.01082129854694
 20
503.87709087608528
 30
0.0
 10
-147.40987640677122
 20
504.88130104238371
 30
0.0
 10
-146.83453634462057
 20
505.85433906308026
 30
0.0
 10
-146.25919628246993
 20
506.82737708377681
 30
0.0
 10
-145.71185411398619
 20
507.76566847755021
 30
0.0
 10
-145.16451194550245
 20
508.70395987133088
 30
0.0
 10
-144.64327573433184
 20
509.6115084463454
 30
0.0
 10
-144.12203952316122
 20
510.51905702136719
 30
0.0
 10
-143.6239460828474
 20
511.40176115814393
 30
0.0
 10
-143.12585264253357
 20
512.28446529492066
 30
0.0
 10
-142.64793878662022
 20
513.14822337398073
 30
0.0
 10
-142.17002493070322
 20
514.01198145304079
 30
0.0
 10
-141.709327472734
 20
514.86269185491983
 30
0.0
 10
-141.24863001476479
 20
515.7134022567916
 30
0.0
 10
-140.80218576828338
 20
516.55696336199617
 30
0.0
 10
-140.35574152179834
 20
517.40052446720074
 30
0.0
 10
-139.92058730035205
 20
518.24283465625922
 30
0.0
 10
-139.48543307890577
 20
519.08514484532498
 30
0.0
 10
-139.05860569603465
 20
519.93210249876574
 30
0.0
 10
-138.63177831316352
 20
520.77906015220651
 30
0.0
 10
-138.2103145824185
 20
521.63656365055067
 30
0.0
 10
-137.78885085167349
 20
522.49406714889483
 30
0.0
 10
-137.36978758659097
 20
523.36801487267076
 30
0.0
 10
-136.95072432150846
 20
524.24196259644668
 30
0.0
 10
-136.5310983356394
 20
525.13825292616821
 30
0.0
 10
-136.11147234977398
 20
526.03454325588973
 30
0.0
 10
-135.6883204566584
 20
526.95907457208523
 30
0.0
 10
-135.26516856354283
 20
527.88360588828073
 30
0.0
 10
-134.83552757673169
 20
528.84227657147858
 30
0.0
 10
-134.40588658991692
 20
529.80094725467643
 30
0.0
 10
-133.96679332295025
 20
530.79965568539774
 30
0.0
 10
-133.52770005598359
 20
531.79836411611177
 30
0.0
 10
-133.07619132240507
 20
532.84300867487764
 30
0.0
 10
-132.62468258882654
 20
533.88765323363623
 30
0.0
 10
-132.15871430364496
 20
534.98206892089365
 30
0.0
 10
-131.69274601846337
 20
536.07648460815108
 30
0.0
 10
-131.21395050255524
 20
537.21625290404336
 30
0.0
 10
-130.73515498664347
 20
538.35602119993564
 30
0.0
 10
-130.24608366234315
 20
539.53466020453925
 30
0.0
 10
-129.7570123380392
 20
540.71329920914286
 30
0.0
 10
-129.26021662768107
 20
541.924327022527
 30
0.0
 10
-128.76342091732295
 20
543.13535483591113
 30
0.0
 10
-128.261452243245
 20
544.37228955814498
 30
0.0
 10
-127.75948356916706
 20
545.60922428037884
 30
0.0
 10
-127.2548933537073
 20
546.86558401153161
 30
0.0
 10
-126.75030313824755
 20
548.12194374269166
 30
0.0
 10
-126.24564280374761
 20
549.39124658283981
 30
0.0
 10
-125.74098246924405
 20
550.66054942298069
 30
0.0
 10
-125.23880343803103
 20
551.93631347218616
 30
0.0
 10
-124.73662440681801
 20
553.21207752139162
 30
0.0
 10
-124.23947810123354
 20
554.48782087972359
 30
0.0
 10
-123.74233179565272
 20
555.76356423806283
 30
0.0
 10
-123.25276963803844
 20
557.03280500560504
 30
0.0
 10
-122.76320748042417
 20
558.30204577313998
 30
0.0
 10
-122.28378089311082
 20
559.55830204994709
 30
0.0
 10
-121.80435430579746
 20
560.8145583267542
 30
0.0
 10
-121.33761471112302
 20
562.05134821290267
 30
0.0
 10
-120.87087511644859
 20
563.28813809905114
 30
0.0
 10
-120.41937393675107
 20
564.49897969461017
 30
0.0
 10
-119.96787275705356
 20
565.7098212901692
 30
0.0
 10
-119.53416141467096
 20
566.88823269521527
 30
0.0
 10
-119.10045007228837
 20
568.06664410026133
 30
0.0
 10
-118.68707998955506
 20
569.20614341485634
 30
0.0
 10
-118.27370990682175
 20
570.34564272945136
 30
0.0
 10
-117.88247535714254
 20
571.44195040179329
 30
0.0
 10
-117.49124080746333
 20
572.5382580741425
 30
0.0
 10
-117.12090746849935
 20
573.59590394497354
 30
0.0
 10
-116.75057412953538
 20
574.65354981579731
 30
0.0
 10
-116.39915053001096
 20
575.67926607395202
 30
0.0
 10
-116.04772693048653
 20
576.70498233210674
 30
0.0
 10
-115.71322159913689
 20
577.70550116644881
 30
0.0
 10
-115.37871626778724
 20
578.70602000079089
 30
0.0
 10
-115.05913773333668
 20
579.68807360017672
 30
0.0
 10
-114.73955919888613
 20
580.67012719956256
 30
0.0
 10
-114.43291599005897
 20
581.64044775284856
 30
0.0
 10
-114.12627278123182
 20
582.61076830612728
 30
0.0
 10
-113.83057342675966
 20
583.57608800216258
 30
0.0
 10
-113.53487407228749
 20
584.5414076981906
 30
0.0
 10
-113.24812710089827
 20
585.50845872583159
 30
0.0
 10
-112.96138012950905
 20
586.47550975347258
 30
0.0
 10
-112.68159406992709
 20
587.4510243015684
 30
0.0
 10
-112.40180801034512
 20
588.42653884966421
 30
0.0
 10
-112.126991391302
 20
589.41724910707853
 30
0.0
 10
-111.85217477225888
 20
590.40795936449285
 30
0.0
 10
-111.58033612248255
 20
591.42059752007481
 30
0.0
 10
-111.30849747270622
 20
592.43323567565676
 30
0.0
 10
-111.037645320921
 20
593.47453391826275
 30
0.0
 10
-110.76679316913578
 20
594.51583216086874
 30
0.0
 10
-110.49493604406962
 20
595.59252267935517
 30
0.0
 10
-110.22307891900346
 20
596.6692131978416
 30
0.0
 10
-109.9482253493843
 20
597.7880281810576
 30
0.0
 10
-109.67337177976879
 20
598.90684316428087
 30
0.0
 10
-109.39353029432823
 20
600.07451480108284
 30
0.0
 10
-109.11368880888767
 20
601.24218643789209
 30
0.0
 10
-108.82744825908594
 20
602.46313129954797
 30
0.0
 10
-108.54120770928785
 20
603.68407616120385
 30
0.0
 10
-108.24947823755792
 20
604.95344834858406
 30
0.0
 10
-107.95774876582436
 20
606.22282053596427
 30
0.0
 10
-107.66202083731696
 20
607.53345853233623
 30
0.0
 10
-107.36629290880956
 20
608.8440965287009
 30
0.0
 10
-107.06805698868629
 20
610.18883881734655
 30
0.0
 10
-106.76982106856303
 20
611.53358110598492
 30
0.0
 10
-106.47056762198918
 20
612.90526617017895
 30
0.0
 10
-106.17131417541168
 20
614.27695123437297
 30
0.0
 10
-105.87253366754157
 20
615.66841755739006
 30
0.0
 10
-105.57375315966783
 20
617.05988388040714
 30
0.0
 10
-105.2769360556631
 20
618.46396994552197
 30
0.0
 10
-104.98011895166201
 20
619.86805601064407
 30
0.0
 10
-104.68675571668791
 20
621.27760030114587
 30
0.0
 10
-104.39339248171382
 20
622.68714459164039
 30
0.0
 10
-104.10497358092834
 20
624.09498559078929
 30
0.0
 10
-103.81655468014287
 20
625.50282658993819
 30
0.0
 10
-103.53457057870401
 20
626.90180278101616
 30
0.0
 10
-103.25258647726514
 20
628.30077897209412
 30
0.0
 10
-102.97852764033814
 20
629.68372883837583
 30
0.0
 10
-102.70446880341115
 20
631.06667870465753
 30
0.0
 10
-102.439825696154
 20
632.42644072942494
 30
0.0
 10
-102.17518258889686
 20
633.78620275419235
 30
0.0
 10
-101.92144567647483
 20
635.11561542072013
 30
0.0
 10
-101.66770876404917
 20
636.44502808724792
 30
0.0
 10
-101.4263685116166
 20
637.73692987881077
 30
0.0
 10
-101.18502825918404
 20
639.02883167037362
 30
0.0
 10
-100.95757513189892
 20
640.27606107024621
 30
0.0
 10
-100.73012200461744
 20
641.52329047011153
 30
0.0
 10
-100.51764736747282
 20
642.72108275627397
 30
0.0
 10
-100.30517273032456
 20
643.91887504243641
 30
0.0
 10
-100.10717154759186
 20
645.07205267167592
 30
0.0
 10
-99.909170364859165
 20
646.22523030091543
 30
0.0
 10
-99.724738500641251
 20
647.34101252472465
 30
0.0
 10
-99.5403066364197
 20
648.45679474854114
 30
0.0
 10
-99.36853995481215
 20
649.54240081841272
 30
0.0
 10
-99.196773273208237
 20
650.62800688828429
 30
0.0
 10
-99.036767638317542
 20
651.69065605570358
 30
0.0
 10
-98.87676200342321
 20
652.75330522312288
 30
0.0
 10
-98.727613279344951
 20
653.80021673958981
 30
0.0
 10
-98.578464555266692
 20
654.84712825605675
 30
0.0
 10
-98.439268606103724
 20
655.88552137305669
 30
0.0
 10
-98.300072656940756
 20
656.92391449005663
 30
0.0
 10
-98.169925346792297
 20
657.96100845908222
 30
0.0
 10
-98.039778036643838
 20
658.99810242810781
 30
0.0
 10
-97.917775229609106
 20
660.0411165006517
 30
0.0
 10
-97.795772422574373
 20
661.08413057319558
 30
0.0
 10
-97.681009982752585
 20
662.14028400074312
 30
0.0
 10
-97.566247542930796
 20
663.19643742829794
 30
0.0
 10
-97.457821334428445
 20
664.27294946234178
 30
0.0
 10
-97.349395125926094
 20
665.34946149639291
 30
0.0
 10
-97.24640101283876
 20
666.45355138843297
 30
0.0
 10
-97.143406899751426
 20
667.55764128047304
 30
0.0
 10
-97.044940746178327
 20
668.69652828199469
 30
0.0
 10
-96.946474592608865
 20
669.83541528351634
 30
0.0
 10
-96.851632262652856
 20
671.01631864600495
 30
0.0
 10
-96.756789932693209
 20
672.19722200849355
 30
0.0
 10
-96.664667290453508
 20
673.42736098344903
 30
0.0
 10
-96.572544648213807
 20
674.65749995840451
 30
0.0
 10
-96.482445617137273
 20
675.94164566096879
 30
0.0
 10
-96.392346586060739
 20
677.22579136353306
 30
0.0
 10
-96.304407326984801
 20
678.55892236345244
 30
0.0
 10
-96.216468067908863
 20
679.89205336337182
 30
0.0
 10
-96.131032801011315
 20
681.26670009405643
 30
0.0
 10
-96.045597534113767
 20
682.64134682474105
 30
0.0
 10
-95.96301047957968
 20
684.05003971959377
 30
0.0
 10
-95.880423425045592
 20
685.45873261445377
 30
0.0
 10
-95.801028803052759
 20
686.89400210687745
 30
0.0
 10
-95.721634181059926
 20
688.32927159930841
 30
0.0
 10
-95.645776211793418
 20
689.78364812270593
 30
0.0
 10
-95.569918242523272
 20
691.23802464611072
 30
0.0
 10
-95.497941146168159
 20
692.70403863389947
 30
0.0
 10
-95.425964049809409
 20
694.17005262168095
 30
0.0
 10
-95.35821204653621
 20
695.64023450724926
 30
0.0
 10
-95.29046004326301
 20
697.11041639281757
 30
0.0
 10
-95.227277353267709
 20
698.57729660958285
 30
0.0
 10
-95.16409466326877
 20
700.04417682634812
 30
0.0
 10
-95.105825506718247
 20
701.50028580770595
 30
0.0
 10
-95.047556350171362
 20
702.95639478906378
 30
0.0
 10
-94.994544947257964
 20
704.39426296841702
 30
0.0
 10
-94.941533544348204
 20
705.83213114777027
 30
0.0
 10
-94.894124115249724
 20
707.24428895853634
 30
0.0
 10
-94.846714686154883
 20
708.65644676930242
 30
0.0
 10
-94.805251451056392
 20
710.03542464486964
 30
0.0
 10
-94.763788215954264
 20
711.41440252043685
 30
0.0
 10
-94.728615395033557
 20
712.75273089422262
 30
0.0
 10
-94.693442574112851
 20
714.09105926800839
 30
0.0
 10
-94.664904387558636
 20
715.38126857340831
 30
0.0
 10
-94.636366201000783
 20
716.67147787880822
 30
0.0
 10
-94.61478870778592
 20
717.90856542621623
 30
0.0
 10
-94.593211214571056
 20
719.14565297362424
 30
0.0
 10
-94.578847828903235
 20
720.33448358135502
 30
0.0
 10
-94.564484443239053
 20
721.52331418907852
 30
0.0
 10
-94.557570418117393
 20
722.67121955242328
 30
0.0
 10
-94.550656392992096
 20
723.81912491576077
 30
0.0
 10
-94.551426981415716
 20
724.93343673002528
 30
0.0
 10
-94.552197569839336
 20
726.04774854428251
 30
0.0
 10
-94.560888024810993
 20
727.13579850475799
 30
0.0
 10
-94.569578479779011
 20
728.22384846522618
 30
0.0
 10
-94.58642405430146
 20
729.29296826720383
 30
0.0
 10
-94.603269628820271
 20
730.36208806918148
 30
0.0
 10
-94.628505575885356
 20
731.41960940796707
 30
0.0
 10
-94.653741522954078
 20
732.47713074675266
 30
0.0
 10
-94.687603095571831
 20
733.53038531763741
 30
0.0
 10
-94.721464668189583
 20
734.58363988852943
 30
0.0
 10
-94.764187119359121
 20
735.6399593868191
 30
0.0
 10
-94.80690957052866
 20
736.69627888510877
 30
0.0
 10
-94.858728153249103
 20
737.76299500610185
 30
0.0
 10
-94.910546735969547
 20
738.82971112708765
 30
0.0
 10
-94.971696703243651
 20
739.91415556606808
 30
0.0
 10
-95.032846670521394
 20
740.9986000050485
 30
0.0
 10
-95.103563275348279
 20
742.10810445732932
 30
0.0
 10
-95.174279880178801
 20
743.21760890961014
 30
0.0
 10
-95.25479837556486
 20
744.35950507047528
 30
0.0
 10
-95.335316870947281
 20
745.50140123134042
 30
0.0
 10
-95.425872509887995
 20
746.68302079609566
 30
0.0
 10
-95.516428148828709
 20
747.8646403608509
 30
0.0
 10
-95.617256184330472
 20
749.09331502478744
 30
0.0
 10
-95.718084219832235
 20
750.32198968872399
 30
0.0
 10
-95.829243766449508
 20
751.60259762340138
 30
0.0
 10
-95.940403313066781
 20
752.88320555808605
 30
0.0
 10
-96.0612489316336
 20
754.21081084012258
 30
0.0
 10
-96.182094550200418
 20
755.53841612215183
 30
0.0
 10
-96.311804663098883
 20
756.90562930440501
 30
0.0
 10
-96.44151477599371
 20
758.27284248665092
 30
0.0
 10
-96.579267805609561
 20
759.67227412198554
 30
0.0
 10
-96.717020835221774
 20
761.07170575732016
 30
0.0
 10
-96.861995203940751
 20
762.49596639860829
 30
0.0
 10
-97.006969572659727
 20
763.92022703989642
 30
0.0
 10
-97.158343702863931
 20
765.36192724000284
 30
0.0
 10
-97.309717833068134
 20
766.80362744011654
 30
0.0
 10
-97.46667014715058
 20
768.25537775191333
 30
0.0
 10
-97.623622461233026
 20
769.70712806371012
 30
0.0
 10
-97.785331381579454
 20
771.16153904006933
 30
0.0
 10
-97.947040301925881
 20
772.61595001642854
 30
0.0
 10
-98.112684250918392
 20
774.0656322102077
 30
0.0
 10
-98.278328199910902
 20
775.51531440398685
 30
0.0
 10
-98.447085599935235
 20
776.95287836805801
 30
0.0
 10
-98.615842999959568
 20
778.39044233212917
 30
0.0
 10
-98.786892273405101
 20
779.8084986193644
 30
0.0
 10
-98.957941546854272
 20
781.22655490659963
 30
0.0
 10
-99.130461116106744
 20
782.61771406986372
 30
0.0
 10
-99.302980685359216
 20
784.00887323312782
 30
0.0
 10
-99.476148972804367
 20
785.36574582528556
 30
0.0
 10
-99.649317260249518
 20
786.7226184174433
 30
0.0
 10
-99.822312688273087
 20
788.03781499136676
 30
0.0
 10
-99.995308116300293
 20
789.35301156529022
 30
0.0
 10
-100.16730910728802
 20
790.61914267384418
 30
0.0
 10
-100.33931009827938
 20
791.88527378239814
 30
0.0
 10
-100.5098588591718
 20
793.09735876719787
 30
0.0
 10
-100.68040762006785
 20
794.30944375199761
 30
0.0
 10
-100.8505014960283
 20
795.47213710965298
 30
0.0
 10
-101.02059537198875
 20
796.63483046730835
 30
0.0
 10
-101.19159549272445
 20
797.75519548315788
 30
0.0
 10
-101.36259561346378
 20
798.87556049900741
 30
0.0
 10
-101.53586310869287
 20
799.96066045841144
 30
0.0
 10
-101.70913060391831
 20
801.04576041781547
 30
0.0
 10
-101.88602660335164
 20
802.10265860611253
 30
0.0
 10
-102.06292260278497
 20
803.15955679441686
 30
0.0
 10
-102.24480823613339
 20
804.19531649696728
 30
0.0
 10
-102.42669386948182
 20
805.23107619952498
 30
0.0
 10
-102.61493026645621
 20
806.25276070167456
 30
0.0
 10
-102.80316666343424
 20
807.27444520382414
 30
0.0
 10
-102.99911495376
 20
808.28911779092596
 30
0.0
 10
-103.19506324408212
 20
809.30379037803505
 30
0.0
 10
-103.40008455745556
 20
810.31851433544216
 30
0.0
 10
-103.60510587082899
 20
811.333238292842
 30
0.0
 10
-103.82056133697188
 20
812.35507690590021
 30
0.0
 10
-104.0360168031184
 20
813.37691551895841
 30
0.0
 10
-104.26326755174523
 20
814.41293207301351
 30
0.0
 10
-104.4905183003757
 20
815.4489486270686
 30
0.0
 10
-104.73092546120097
 20
816.50620640748093
 30
0.0
 10
-104.97133262202624
 20
817.56346418789326
 30
0.0
 10
-105.22625732475717
 20
818.64902648000134
 30
0.0
 10
-105.48118202748446
 20
819.73458877210942
 30
0.0
 10
-105.75198540183919
 20
820.85551886127359
 30
0.0
 10
-106.02278877619028
 20
821.97644895043049
 30
0.0
 10
-106.31083195187603
 20
823.13981012198929
 30
0.0
 10
-106.59887512756177
 20
824.30317129355535
 30
0.0
 10
-106.9049689433341
 20
825.51369537960272
 30
0.0
 10
-107.21106275910643
 20
826.72421946565009
 30
0.0
 10
-107.5338168898561
 20
827.97731248519995
 30
0.0
 10
-107.85657102060577
 20
829.2304055047498
 30
0.0
 10
-108.19404485026098
 20
830.5191420235351
 30
0.0
 10
-108.53151867991619
 20
831.8078785423204
 30
0.0
 10
-108.88177159240877
 20
833.12533312609594
 30
0.0
 10
-109.23202450490135
 20
834.44278770987148
 30
0.0
 10
-109.59311588416313
 20
835.78203492438479
 30
0.0
 10
-109.95420726342491
 20
837.1212821388981
 30
0.0
 10
-110.32419649338044
 20
838.47539654988941
 30
0.0
 10
-110.69418572333598
 20
839.82951096088073
 30
0.0
 10
-111.07113218792074
 20
841.19156713410484
 30
0.0
 10
-111.4480786525055
 20
842.55362330732169
 30
0.0
 10
-111.83004173565132
 20
843.91669580851158
 30
0.0
 10
-112.2120048187935
 20
845.27976830970147
 30
0.0
 10
-112.59704390442494
 20
846.63693170461192
 30
0.0
 10
-112.98208299005273
 20
847.99409509951511
 30
0.0
 10
-113.36825746210161
 20
849.33842395388638
 30
0.0
 10
-113.75443193415049
 20
850.68275280825765
 30
0.0
 10
-114.13980117654501
 20
852.00732168783725
 30
0.0
 10
-114.52517041893952
 20
853.33189056741685
 30
0.0
 10
-114.90779381561151
 20
854.6297740379523
 30
0.0
 10
-115.2904172122835
 20
855.92765750848775
 30
0.0
 10
-115.66835414716115
 20
857.1919301357193
 30
0.0
 10
-116.04629108203881
 20
858.45620276295085
 30
0.0
 10
-116.41760093905759
 20
859.67993911263329
 30
0.0
 10
-116.78891079607274
 20
860.90367546231573
 30
0.0
 10
-117.15165295915358
 20
862.07995010018931
 30
0.0
 10
-117.51439512223806
 20
863.25622473806288
 30
0.0
 10
-117.86735381199833
 20
864.38033797332901
 30
0.0
 10
-118.2203125017586
 20
865.50445120859513
 30
0.0
 10
-118.56517128551786
 20
866.58060632429988
 30
0.0
 10
-118.91003006927713
 20
867.65676144000463
 30
0.0
 10
-119.24919735104413
 20
868.69138746264798
 30
0.0
 10
-119.58836463281114
 20
869.72601348529133
 30
0.0
 10
-119.92424881658371
 20
870.72553944137326
 30
0.0
 10
-120.26013300035265
 20
871.72506539745518
 30
0.0
 10
-120.59514249013591
 20
872.69592031347565
 30
0.0
 10
-120.93015197991917
 20
873.66677522949612
 30
0.0
 10
-121.26669517971823
 20
874.61538813195511
 30
0.0
 10
-121.60323837951728
 20
875.56400103442138
 30
0.0
 10
-121.94372369333723
 20
876.49680094981886
 30
0.0
 10
-122.28420900715355
 20
877.42960086522362
 30
0.0
 10
-122.63104483899224
 20
878.35301682006684
 30
0.0
 10
-122.97788067083093
 20
879.27643277491006
 30
0.0
 10
-123.33347542469346
 20
880.19689379569172
 30
0.0
 10
-123.68907017855599
 20
881.11735481647338
 30
0.0
 10
-124.05583225845476
 20
882.04128992969345
 30
0.0
 10
-124.42259433834988
 20
882.96522504291352
 30
0.0
 10
-124.80293214827543
 20
883.89906327507924
 30
0.0
 10
-125.18326995819734
 20
884.83290150724497
 30
0.0
 10
-125.57959190216206
 20
885.78307188484905
 30
0.0
 10
-125.97591384612679
 20
886.73324226246041
 30
0.0
 10
-126.39062832812851
 20
887.70617381201009
 30
0.0
 10
-126.80534281013024
 20
888.67910536155978
 30
0.0
 10
-127.24085823417772
 20
889.68122710954776
 30
0.0
 10
-127.6763736582252
 20
890.68334885754302
 30
0.0
 10
-128.13509842831263
 20
891.72108983048383
 30
0.0
 10
-128.5938231984037
 20
892.75883080342464
 30
0.0
 10
-129.07727298146347
 20
893.8365313749091
 30
0.0
 10
-129.5607227645196
 20
894.91423194639356
 30
0.0
 10
-130.06684227911683
 20
896.02787787847774
 30
0.0
 10
-130.57296179371406
 20
897.14152381056192
 30
0.0
 10
-131.09880302133752
 20
898.28501221238548
 30
0.0
 10
-131.62464424896098
 20
899.42850061420904
 30
0.0
 10
-132.16725917110307
 20
900.59572859492619
 30
0.0
 10
-132.70987409324516
 20
901.76295657564333
 30
0.0
 10
-133.26631469139102
 20
902.94782124440098
 30
0.0
 10
-133.82275528953687
 20
904.13268591316591
 30
0.0
 10
-134.39007354517162
 20
905.32908437911829
 30
0.0
 10
-134.95739180080636
 20
906.52548284507066
 30
0.0
 10
-135.53263969542604
 20
907.72731221736467
 30
0.0
 10
-136.10788759004936
 20
908.92914158965868
 30
0.0
 10
-136.6881171051391
 20
910.13029897744855
 30
0.0
 10
-137.26834662022884
 20
911.33145636523113
 30
0.0
 10
-137.85060973728105
 20
912.5258388776565
 30
0.0
 10
-138.43287285432962
 20
913.72022139008186
 30
0.0
 10
-139.01422155482578
 20
914.90172613629693
 30
0.0
 10
-139.59557025532195
 20
916.083230882512
 30
0.0
 10
-140.17305652075811
 20
917.24575497167098
 30
0.0
 10
-140.75054278619427
 20
918.40827906082268
 30
0.0
 10
-141.32121859805557
 20
919.54571960206522
 30
0.0
 10
-141.89189440991686
 20
920.68316014331504
 30
0.0
 10
-142.45281174968841
 20
921.78941424580262
 30
0.0
 10
-143.01372908945996
 20
922.8956683482902
 30
0.0
 10
-143.56193993863417
 20
923.96463312116248
 30
0.0
 10
-144.11015078780838
 20
925.03359789403476
 30
0.0
 10
-144.64270712787402
 20
926.05917044644593
 30
0.0
 10
-145.17526346793966
 20
927.08474299885711
 30
0.0
 10
-145.69026118253896
 20
928.0627486061494
 30
0.0
 10
-146.20525889713826
 20
929.04075421344169
 30
0.0
 10
-146.70496947852371
 20
929.97473081568751
 30
0.0
 10
-147.20468005990915
 20
930.90870741793333
 30
0.0
 10
-147.69241890248668
 20
931.80412112141494
 30
0.0
 10
-148.18015774506421
 20
932.69953482489655
 30
0.0
 10
-148.6592402432434
 20
933.56185173588165
 30
0.0
 10
-149.1383227414226
 20
934.42416864686675
 30
0.0
 10
-149.61206428960941
 20
935.25885487163032
 30
0.0
 10
-150.08580583779622
 20
936.09354109639389
 30
0.0
 10
-150.55752183040386
 20
936.90606274121092
 30
0.0
 10
-151.0292378230115
 20
937.71858438602794
 30
0.0
 10
-151.50224365443501
 20
938.51440755716612
 30
0.0
 10
-151.97524948585851
 20
939.31023072829703
 30
0.0
 10
-152.45286055051838
 20
940.09482153203135
 30
0.0
 10
-152.93047161517461
 20
940.87941233575839
 30
0.0
 10
-153.41600330746587
 20
941.65823687835655
 30
0.0
 10
-153.90153499976077
 20
942.43706142095471
 30
0.0
 10
-154.39830271410028
 20
943.21558580869169
 30
0.0
 10
-154.89507042843979
 20
943.99411019642866
 30
0.0
 10
-155.40638955922986
 20
944.77780053557217
 30
0.0
 10
-155.91770869001994
 20
945.56149087472295
 30
0.0
 10
-156.44689463166651
 20
946.35581327155523
 30
0.0
 10
-156.97608057331308
 20
947.15013566838752
 30
0.0
 10
-157.52644872022938
 20
947.96055622917629
 30
0.0
 10
-158.07681686714932
 20
948.77097678996506
 30
0.0
 10
-158.65168261373765
 20
949.60296162097802
 30
0.0
 10
-159.22654836032234
 20
950.43494645199826
 30
0.0
 10
-159.82922710099228
 20
951.29396165951766
 30
0.0
 10
-160.43190584166223
 20
952.15297686703707
 30
0.0
 10
-161.06452984643693
 20
953.04274926565267
 30
0.0
 10
-161.69715385121162
 20
953.932521664261
 30
0.0
 10
-162.35712289259027
 20
954.84982090183621
 30
0.0
 10
-163.01709193396891
 20
955.76712013941142
 30
0.0
 10
-163.70062266005698
 20
956.70697657214623
 30
0.0
 10
-164.38415338614868
 20
957.64683300487377
 30
0.0
 10
-165.08746244506619
 20
958.60427698894637
 30
0.0
 10
-165.79077150398734
 20
959.56172097301896
 30
0.0
 10
-166.51007554384705
 20
960.53178286462935
 30
0.0
 10
-167.22937958370312
 20
961.50184475624701
 30
0.0
 10
-167.96089525261777
 20
962.47955491158791
 30
0.0
 10
-168.69241092152879
 20
963.45726506692154
 30
0.0
 10
-169.4323548676075
 20
964.43765384217841
 30
0.0
 10
-170.17229881368621
 20
965.41804261743528
 30
0.0
 10
-170.91688768504173
 20
966.39614036880084
 30
0.0
 10
-171.66147655639725
 20
967.37423812016641
 30
0.0
 10
-172.40692700114596
 20
968.34507520382613
 30
0.0
 10
-173.15237744589831
 20
969.31591228748584
 30
0.0
 10
-173.89490611215297
 20
970.27451905963972
 30
0.0
 10
-174.63743477841126
 20
971.23312583179359
 30
0.0
 10
-175.37325831428825
 20
972.17453264862706
 30
0.0
 10
-176.10908185016524
 20
973.11593946546054
 30
0.0
 10
-176.83441690377367
 20
974.03517668316636
 30
0.0
 10
-177.5597519573821
 20
974.95441390087217
 30
0.0
 10
-178.27081517683109
 20
975.84651187563577
 30
0.0
 10
-178.98187839628372
 20
976.73860985039937
 30
0.0
 10
-179.67488642969693
 20
977.59859893841349
 30
0.0
 10
-180.3678944631065
 20
978.45858802643488
 30
0.0
 10
-181.0390639585894
 20
979.28149858389952
 30
0.0
 10
-181.71023345406866
 20
980.10440914135688
 30
0.0
 10
-182.35708330212947
 20
980.88680570683937
 30
0.0
 10
-183.00393315018664
 20
981.66920227231458
 30
0.0
 10
-183.62919121089362
 20
982.41378611390974
 30
0.0
 10
-184.25444927160061
 20
983.1583699555049
 30
0.0
 10
-184.86214564743568
 20
983.86937652370398
 30
0.0
 10
-185.46984202327076
 20
984.58038309190306
 30
0.0
 10
-186.06400681668674
 20
985.26204783719004
 30
0.0
 10
-186.65817161010273
 20
985.94371258247702
 30
0.0
 10
-187.24283492357426
 20
986.60027095533587
 30
0.0
 10
-187.8274982370458
 20
987.256829328202
 30
0.0
 10
-188.4066901730439
 20
987.8925167791167
 30
0.0
 10
-188.985882109042
 20
988.52820423003141
 30
0.0
 10
-189.56363277003038
 20
989.14725620949321
 30
0.0
 10
-190.14138343101877
 20
989.76630818895501
 30
0.0
 10
-190.72172291946481
 20
990.37296014744061
 30
0.0
 10
-191.30206240791085
 20
990.97961210592621
 30
0.0
 10
-191.88902082628556
 20
991.57809949391958
 30
0.0
 10
-192.47597924466027
 20
992.17658688192023
 30
0.0
 10
-193.07358669542737
 20
992.77114514991263
 30
0.0
 10
-193.6711941461981
 20
993.3657034179123
 30
0.0
 10
-194.2834807318286
 20
993.9605680163877
 30
0.0
 10
-194.8957673174591
 20
994.55543261486309
 30
0.0
 10
-195.52676314042037
 20
995.15483899430546
 30
0.0
 10
-196.157758963378
 20
995.75424537374784
 30
0.0
 10
-196.81149412613377
 20
996.36242898464116
 30
0.0
 10
-197.46522928888953
 20
996.9706125955272
 30
0.0
 10
-198.14573389391444
 20
997.59180888835544
 30
0.0
 10
-198.82623849893935
 20
998.21300518117641
 30
0.0
 10
-199.53754264869349
 20
998.85144960642356
 30
0.0
 10
-200.24884679844763
 20
999.4898940316707
 30
0.0
 10
-200.99357598142524
 20
1000.148516422254
 30
0.0
 10
-201.73830516440285
 20
1000.8071388128374
 30
0.0
 10
-202.51346641317286
 20
1001.4836465314002
 30
0.0
 10
-203.28862766194288
 20
1002.1601542499629
 30
0.0
 10
-204.08982339509384
 20
1002.8509490415672
 30
0.0
 10
-204.89101912824481
 20
1003.5417438331715
 30
0.0
 10
-205.71385176436161
 20
1004.2432274428938
 30
0.0
 10
-206.53668440047841
 20
1004.9447110526162
 30
0.0
 10
-207.37675635816049
 20
1005.6532852255259
 30
0.0
 10
-208.21682831584258
 20
1006.3618593984356
 30
0.0
 10
-209.0697420136712
 20
1007.0739258796093
 30
0.0
 10
-209.92265571150347
 20
1007.785992360783
 30
0.0
 10
-210.78401356807444
 20
1008.4979528952827
 30
0.0
 10
-211.64537142464178
 20
1009.2099134297823
 30
0.0
 10
-212.51077585854364
 20
1009.9181697626846
 30
0.0
 10
-213.3761802924455
 20
1010.6264260955868
 30
0.0
 10
-214.24123372226313
 20
1011.3273799719682
 30
0.0
 10
-215.10628715208441
 20
1012.0283338483423
 30
0.0
 10
-215.96659199640999
 20
1012.7183870132649
 30
0.0
 10
-216.82689684073921
 20
1013.4084401781802
 30
0.0
 10
-217.67805551816491
 20
1014.0839943767132
 30
0.0
 10
-218.52921419559061
 20
1014.7595485752536
 30
0.0
 10
-219.3668291247086
 20
1015.4170055524737
 30
0.0
 10
-220.20444405382659
 20
1016.0744625296938
 30
0.0
 10
-221.0241176532254
 20
1016.7102240306704
 30
0.0
 10
-221.84379125262421
 20
1017.3459855316469
 30
0.0
 10
-222.64112594088874
 20
1017.9564533014563
 30
0.0
 10
-223.43846062915327
 20
1018.5669210712585
 30
0.0
 10
-224.20905882487568
 20
1019.148496854963
 30
0.0
 10
-224.9796570205981
 20
1019.7300726386675
 30
0.0
 10
-225.72060786937436
 20
1020.2802276157454
 30
0.0
 10
-226.46155871815063
 20
1020.8303825928233
 30
0.0
 10
-227.17589827358097
 20
1021.3508656804042
 30
0.0
 10
-227.89023782901131
 20
1021.8713487679852
 30
0.0
 10
-228.58248887170339
 20
1022.3649783175788
 30
0.0
 10
-229.27473991439911
 20
1022.8586078671724
 30
0.0
 10
-229.94942522497149
 20
1023.3282022303101
 30
0.0
 10
-230.62411053554024
 20
1023.7977965934479
 30
0.0
 10
-231.28575289458968
 20
1024.2461741216612
 30
0.0
 10
-231.94739525363912
 20
1024.6945516498745
 30
0.0
 10
-232.6005174417769
 20
1025.124530694673
 30
0.0
 10
-233.25363962991469
 20
1025.5545097394715
 30
0.0
 10
-233.90276442775212
 20
1025.968908652394
 30
0.0
 10
-234.55188922558955
 20
1026.3833075653165
 30
0.0
 10
-235.20153941373064
 20
1026.7849446978798
 30
0.0
 10
-235.85118960187174
 20
1027.1865818304432
 30
0.0
 10
-236.50588796092779
 20
1027.5782755341716
 30
0.0
 10
-237.16058631998749
 20
1027.9699692378999
 30
0.0
 10
-237.8248556305698
 20
1028.3545378643248
 30
0.0
 10
-238.48912494114848
 20
1028.7391064907497
 30
0.0
 10
-239.16748798385743
 20
1029.1193683913953
 30
0.0
 10
-239.84585102656638
 20
1029.4996302920335
 30
0.0
 10
-240.5428305820169
 20
1029.8784038184167
 30
0.0
 10
-241.23981013746743
 20
1030.2571773447926
 30
0.0
 10
-241.95992898626719
 20
1030.6372808484448
 30
0.0
 10
-242.68004783506331
 20
1031.017384352097
 30
0.0
 10
-243.42782875781631
 20
1031.4016361845352
 30
0.0
 10
-244.17560968056932
 20
1031.7858880169806
 30
0.0
 10
-244.95557545788324
 20
1032.1771065297435
 30
0.0
 10
-245.7355412352008
 20
1032.5683250424991
 30
0.0
 10
-246.55066606531182
 20
1032.9685115850298
 30
0.0
 10
-247.36579089542283
 20
1033.3686981275605
 30
0.0
 10
-248.21285464706671
 20
1033.7765860410582
 30
0.0
 10
-249.05991839871058
 20
1034.1844739545559
 30
0.0
 10
-249.93415235824068
 20
1034.5979795781532
 30
0.0
 10
-250.80838631777078
 20
1035.0114852017505
 30
0.0
 10
-251.7050217715514
 20
1035.4285248745655
 30
0.0
 10
-252.60165722532838
 20
1035.8455645473805
 30
0.0
 10
-253.51592545970925
 20
1036.2640546085458
 30
0.0
 10
-254.43019369409376
 20
1036.6825446697112
 30
0.0
 10
-255.35732599544281
 20
1037.1004014583523
 30
0.0
 10
-256.28445829679185
 20
1037.5182582469934
 30
0.0
 10
-257.21968595146245
 20
1037.9333981022282
 30
0.0
 10
-258.15491360613305
 20
1038.3485379574704
 30
0.0
 10
-259.09346790048221
 20
1038.7588772184463
 30
0.0
 10
-260.03202219483137
 20
1039.1692164794149
 30
0.0
 10
-260.96913441521974
 20
1039.5726714852353
 30
0.0
 10
-261.90624663560811
 20
1039.9761264910558
 30
0.0
 10
-262.83714806839635
 20
1040.3706135808679
 30
0.0
 10
-263.76804950118458
 20
1040.7651006706728
 30
0.0
 10
-264.68797143272604
 20
1041.1485361835876
 30
0.0
 10
-265.60789336426751
 20
1041.5319716965096
 30
0.0
 10
-266.51206708092286
 20
1041.9022719716595
 30
0.0
 10
-267.41624079757821
 20
1042.2725722468094
 30
0.0
 10
-268.29989758570446
 20
1042.6276536233272
 30
0.0
 10
-269.1835543738307
 20
1042.9827349998377
 30
0.0
 10
-270.04192551979213
 20
1043.3205138168341
 30
0.0
 10
-270.90029666575356
 20
1043.6582926338378
 30
0.0
 10
-271.7286134558999
 20
1043.9766852304601
 30
0.0
 10
-272.55693024604625
 20
1044.2950778270824
 30
0.0
 10
-273.35174327077402
 20
1044.592535030024
 30
0.0
 10
-274.1465562955018
 20
1044.8899922329656
 30
0.0
 10
-274.90969336132548
 20
1045.1671028192868
 30
0.0
 10
-275.67283042714917
 20
1045.444213405608
 30
0.0
 10
-276.40743864461911
 20
1045.7021006399227
 30
0.0
 10
-277.14204686208905
 20
1045.9599878742301
 30
0.0
 10
-277.85127334175195
 20
1046.1997750211667
 30
0.0
 10
-278.56049982141485
 20
1046.4395621681106
 30
0.0
 10
-279.24749167382106
 20
1046.6623724923047
 30
0.0
 10
-279.93448352622727
 20
1046.8851828164989
 30
0.0
 10
-280.60238786192713
 20
1047.0921395825717
 30
0.0
 10
-281.27029219762699
 20
1047.2990963486445
 30
0.0
 10
-281.9222561271672
 20
1047.4913228212317
 30
0.0
 10
-282.57422005670742
 20
1047.6835492938117
 30
0.0
 10
-283.21339069063833
 20
1047.8621687375344
 30
0.0
 10
-283.85256132456925
 20
1048.0407881812498
 30
0.0
 10
-284.48208577343757
 20
1048.2069238607364
 30
0.0
 10
-285.11161022230954
 20
1048.373059540223
 30
0.0
 10
-285.73463559666925
 20
1048.5278347200947
 30
0.0
 10
-286.35766097102896
 20
1048.6826098999663
 30
0.0
 10
-286.97733438142313
 20
1048.827147844866
 30
0.0
 10
-287.59700779182094
 20
1048.9716857897656
 30
0.0
 10
-288.21647634880355
 20
1049.1071097643071
 30
0.0
 10
-288.8359449057898
 20
1049.2425337388486
 30
0.0
 10
-289.45835571990756
 20
1049.3699670076676
 30
0.0
 10
-290.08076653402168
 20
1049.4974002764866
 30
0.0
 10
-290.70926671582492
 20
1049.6179661042042
 30
0.0
 10
-291.33776689762817
 20
1049.7385319319219
 30
0.0
 10
-291.97550355766725
 20
1049.8533535831739
 30
0.0
 10
-292.6132402177027
 20
1049.9681752344259
 30
0.0
 10
-293.26235639584775
 20
1050.0781932807804
 30
0.0
 10
-293.9114725739928
 20
1050.1882113271276
 30
0.0
 10
-294.57009502743313
 20
1050.2936355679049
 30
0.0
 10
-295.22871748087346
 20
1050.3990598086748
 30
0.0
 10
-295.89396889611817
 20
1050.4999173501419
 30
0.0
 10
-296.55922031136288
 20
1050.600774891609
 30
0.0
 10
-297.22822337492835
 20
1050.6970928400333
 30
0.0
 10
-297.89722643849018
 20
1050.7934107884503
 30
0.0
 10
-298.56710383688187
 20
1050.8852162500916
 30
0.0
 10
-299.23698123526992
 20
1050.9770217117402
 30
0.0
 10
-299.90485565499694
 20
1051.0643417928804
 30
0.0
 10
-300.57273007472395
 20
1051.1516618740206
 30
0.0
 10
-301.2357242023063
 20
1051.2345236809197
 30
0.0
 10
-301.89871832988501
 20
1051.3173854878187
 30
0.0
 10
-302.55395485182453
 20
1051.3958161267365
 30
0.0
 10
-303.20919137376404
 20
1051.4742467656542
 30
0.0
 10
-303.8537929765771
 20
1051.5482733428653
 30
0.0
 10
-304.49839457939015
 20
1051.6222999200763
 30
0.0
 10
-305.12948394958948
 20
1051.6919495418479
 30
0.0
 10
-305.76057331978882
 20
1051.7615991636194
 30
0.0
 10
-306.37527314387989
 20
1051.8268989362114
 30
0.0
 10
-306.98997296797097
 20
1051.8921987088033
 30
0.0
 10
-307.58540593247017
 20
1051.9531757384902
 30
0.0
 10
-308.180838896973
 20
1052.0141527681699
 30
0.0
 10
-308.75412768839305
 20
1052.0708341612117
 30
0.0
 10
-309.32741647981675
 20
1052.1275155542535
 30
0.0
 10
-309.87568378466312
 20
1052.1799284169174
 30
0.0
 10
-310.4239510895095
 20
1052.2323412795886
 30
0.0
 10
-310.94431959429858
 20
1052.2805127181418
 30
0.0
 10
-311.46468809908765
 20
1052.3286841566951
 30
0.0
 10
-311.95550886967249
 20
1052.3726621632886
 30
0.0
 10
-312.44632964025732
 20
1052.4166401698822
 30
0.0
 10
-312.91086725987043
 20
1052.4565562801799
 30
0.0
 10
-313.37540487948354
 20
1052.496472390485
 30
0.0
 10
-313.81815231069777
 20
1052.532479026042
 30
0.0
 10
-314.26089974190836
 20
1052.568485661599
 30
0.0
 10
-314.68634994729655
 20
1052.6007352439628
 30
0.0
 10
-315.1118001526811
 20
1052.6329848263267
 30
0.0
 10
-315.52444609481972
 20
1052.6616297770452
 30
0.0
 10
-315.93709203695835
 20
1052.6902747277563
 30
0.0
 10
-316.34142667841661
 20
1052.715467468377
 30
0.0
 10
-316.74576131987851
 20
1052.740660209005
 30
0.0
 10
-317.14627762323653
 20
1052.7625531610829
 30
0.0
 10
-317.54679392659818
 20
1052.7844461131608
 30
0.0
 10
-317.9479848544288
 20
1052.8031916982363
 30
0.0
 10
-318.34917578225941
 20
1052.8219372833191
 30
0.0
 10
-318.75553429713182
 20
1052.8376879229545
 30
0.0
 10
-319.16189281200786
 20
1052.8534385625899
 30
0.0
 10
-319.57791187650582
 20
1052.8663466783255
 30
0.0
 10
-319.99393094100742
 20
1052.8792547940611
 30
0.0
 10
-320.42410351770013
 20
1052.889472807452
 30
0.0
 10
-320.85427609439284
 20
1052.8996908208428
 30
0.0
 10
-321.30309514585315
 20
1052.9073711534293
 30
0.0
 10
-321.75191419731345
 20
1052.9150514860157
 30
0.0
 10
-322.22387268611783
 20
1052.92034655936
 30
0.0
 10
-322.6958311749222
 20
1052.9256416327044
 30
0.0
 10
-323.19542206364713
 20
1052.9287038683469
 30
0.0
 10
-323.69501295236842
 20
1052.9317661039895
 30
0.0
 10
-324.22672920358309
 20
1052.9327479234853
 30
0.0
 10
-324.7584454548014
 20
1052.9337297429738
 30
0.0
  0
SPLINE
  5
1CA
100
AcDbEntity
  8
ASN70-0001
370
               5
390
0
  6
STYLE_23
 62
               7
100
AcDbSpline
210
0.0
220
0.0
230
1.0
 70
               8
 71
               2
 72
              21
 73
              18
 74
               0
 42
0.000001
 43
0.000001
 40
0.0
 40
0.0
 40
0.0
 40
1.0
 40
2.0
 40
3.0
 40
4.0
 40
5.0
 40
6.0
 40
7.0
 40
7.0
 40
8.0
 40
9.0
 40
10.0
 40
11.0
 40
12.0
 40
13.0
 40
14.0
 40
15.0
 40
15.0
 40
15.0
 10
-324.75844544878055
 20
1052.9337297163511
 30
0.0
 10
-341.81393510439739
 20
1052.7849090282325
 30
0.0
 10
-371.73943983290155
 20
1039.4631570316924
 30
0.0
 10
-398.08100926063707
 20
1017.169041282199
 30
0.0
 10
-422.58344933019544
 20
984.7527514791218
 30
0.0
 10
-444.05391623733158
 20
943.24427188447589
 30
0.0
 10
-470.56003934704859
 20
867.98557359145343
 30
0.0
 10
-484.78621801391637
 20
765.98269989574328
 30
0.0
 10
-484.75562581437043
 20
717.93156622198148
 30
0.0
 10
-484.79969369455284
 20
669.85643929656362
 30
0.0
 10
-470.75569726269532
 20
567.71892156509421
 30
0.0
 10
-444.0885092523713
 20
492.58303106604581
 30
0.0
 10
-422.6213506992317
 20
451.05314611874928
 30
0.0
 10
-398.1049862774089
 20
418.61326782650576
 30
0.0
 10
-377.51368661507513
 20
401.327627341896
 30
0.0
 10
-358.22619732506428
 20
389.07910830063338
 30
0.0
 10
-334.60879907153503
 20
382.95688177606644
 30
0.0
 10
-324.7584454548014
 20
382.93395874408452
 30
0.0
  0
SPLINE
  5
1CB
100
AcDbEntity
  8
ASN70-0001
370
               5
390
0
  6
STYLE_23
 62
               7
100
AcDbSpline
210
0.0
220
0.0
230
1.0
 70
               8
 71
               2
 72
              20
 73
              17
 74
               0
 42
0.000001
 43
0.000001
 40
0.0
 40
0.0
 40
0.0
 40
1.0
 40
2.0
 40
3.0
 40
4.0
 40
5.0
 40
6.0
 40
7.0
 40
7.0
 40
8.0
 40
9.0
 40
10.0
 40
11.0
 40
12.0
 40
13.0
 40
14.0
 40
14.0
 40
14.0
 10
-369.48062527193906
 20
1067.9339587440845
 30
0.0
 10
-403.93750230354271
 20
1067.7507697862675
 30
0.0
 10
-455.953860134563
 20
1046.6995008436788
 30
0.0
 10
-493.54014552352237
 20
1021.2234568180938
 30
0.0
 10
-528.18756530255632
 20
986.28963292224216
 30
0.0
 10
-558.23851532316257
 20
943.10960803049966
 30
0.0
 10
-594.62625076277982
 20
867.89142204762902
 30
0.0
 10
-614.49622132670265
 20
765.66249201163737
 30
0.0
 10
-614.4777223359888
 20
717.93395874408452
 30
0.0
 10
-614.50461547786472
 20
670.15997637920373
 30
0.0
 10
-594.72475832005875
 20
567.74812385391124
 30
0.0
 10
-558.24889657250606
 20
492.72084992165765
 30
0.0
 10
-528.19377388515204
 20
449.54865523961053
 30
0.0
 10
-493.53762888525307
 20
414.61623806096759
 30
0.0
 10
-455.94523830497201
 20
389.14306823207153
 30
0.0
 10
-403.81558426663469
 20
368.06187911536108
 30
0.0
 10
-369.48062527193906
 20
367.93395874408452
 30
0.0
  0
INSERT
  5
1CC
100
AcDbEntity
  8
ASN70-0001
390
0
 62
               7
100
AcDbBlockReference
  2
グループ-4
 10
21918.734324583311
 20
-42095.652392472206
 30
0.0
  0
ENDSEC
  0
SECTION
  2
OBJECTS
  0
DICTIONARY
  5
19
100
AcDbDictionary
280
               0
281
               1
  3
ACAD_GROUP
350
1A
  3
ACAD_MLINESTYLE
350
1B
  3
ACAD_LAYOUT
350
1E
  3
ACAD_PLOTSETTINGS
350
22
  3
ACAD_PLOTSTYLENAME
350
1F
  0
DICTIONARY
  5
1A
102
{ACAD_REACTORS
330
19
102
}
100
AcDbDictionary
280
               0
281
               1
  0
DICTIONARY
  5
1B
102
{ACAD_REACTORS
330
19
102
}
100
AcDbDictionary
280
               0
281
               1
  3
Standard
350
1C
  0
MLINESTYLE
  5
1C
102
{ACAD_REACTORS
330
1B
102
}
100
AcDbMlineStyle
  2
Standard
 70
               0
  3

 62
               0
 51
90.0
 52
90.0
 71
               2
 49
0.5
 62
             256
  6
ByLayer
 49
-0.5
 62
             256
  6
ByLayer
  0
ACDBDICTIONARYWDFLT
  5
1F
102
{ACAD_REACTORS
330
19
102
}
100
AcDbDictionary
281
               1
  3
Normal
350
1D
100
AcDbDictionaryWithDefault
340
1D
  0
ACDBPLACEHOLDER
  5
1D
102
{ACAD_REACTORS
330
1F
102
}
  0
LAYOUT
  5
20
102
{ACAD_REACTORS
330
1E
102
}
100
AcDbPlotSettings
  1

  2

  4

  6

 40
0.0
 41
0.0
 42
0.0
 43
0.0
 44
0.0
 45
0.0
 46
0.0
 47
0.0
 48
0.0
 49
0.0
140
0.0
141
0.0
142
1.0
143
1.0
 70
            1024
 72
               0
 73
               0
 74
               0
  7

 75
               0
147
1.0
148
0.0
149
0.0
100
AcDbLayout
  1
Model
 70
               0
 71
               0
 10
0.0
 20
0.0
 11
0.0
 21
0.0
 12
0.0
 22
0.0
 32
0.0
 14
0.0
 24
0.0
 34
0.0
 15
0.0
 25
0.0
 35
0.0
146
0.0
 13
0.0
 23
0.0
 33
0.0
 16
0.0
 26
0.0
 36
0.0
 17
0.0
 27
0.0
 37
0.0
 76
               0
330
A
331
0
345
0
346
0
  0
LAYOUT
  5
21
102
{ACAD_REACTORS
330
1E
102
}
100
AcDbPlotSettings
  1

  2

  4

  6

 40
0.0
 41
0.0
 42
0.0
 43
0.0
 44
0.0
 45
0.0
 46
0.0
 47
0.0
 48
0.0
 49
0.0
140
0.0
141
0.0
142
1.0
143
1.0
 70
               0
 72
               0
 73
               0
 74
               0
  7

 75
               0
147
1.0
148
0.0
149
0.0
100
AcDbLayout
  1
Layout1
 70
               0
 71
               0
 10
0.0
 20
0.0
 11
0.0
 21
0.0
 12
0.0
 22
0.0
 32
0.0
 14
0.0
 24
0.0
 34
0.0
 15
0.0
 25
0.0
 35
0.0
146
0.0
 13
0.0
 23
0.0
 33
0.0
 16
0.0
 26
0.0
 36
0.0
 17
0.0
 27
0.0
 37
0.0
 76
               0
330
B
331
0
345
0
346
0
  0
DICTIONARY
  5
1E
102
{ACAD_REACTORS
330
19
102
}
100
AcDbDictionary
280
               0
281
               1
  3
Layout1
350
21
  3
Model
350
20
  0
DICTIONARY
  5
22
102
{ACAD_REACTORS
330
19
102
}
100
AcDbDictionary
280
               0
281
               1
  0
ENDSEC
  0
EOF
