  0
SECTION
  2
HEADER
  9
$ACADVER
  1
AC1021
  9
$ACADMAINTVER
 70
    25
  9
$DWGCODEPAGE
  3
ANSI_932
  9
$LASTSAVEDBY
  1
Shimosaki
  9
$INSBASE
 10
0.0
 20
0.0
 30
0.0
  9
$EXTMIN
 10
-975.0000000002419
 20
-1418.761407556209
 30
-14.83430555555555
  9
$EXTMAX
 10
975.0000000002419
 20
1418.761407556201
 30
14.83430555555555
  9
$LIMMIN
 10
0.0
 20
0.0
  9
$LIMMAX
 10
0.0
 20
0.0
  9
$ORTHOMODE
 70
     0
  9
$REGENMODE
 70
     1
  9
$FILLMODE
 70
     1
  9
$QTEXTMODE
 70
     0
  9
$MIRRTEXT
 70
     1
  9
$LTSCALE
 40
5.08
  9
$ATTMODE
 70
     1
  9
$TEXTSIZE
 40
39.29441768619765
  9
$TRACEWID
 40
1.0
  9
$TEXTSTYLE
  7
Standard
  9
$CLAYER
  8
ASN70-0002
  9
$CELTYPE
  6
Continuous
  9
$CECOLOR
 62
   256
  9
$CELTSCALE
 40
1.0
  9
$DISPSILH
 70
     0
  9
$DIMSCALE
 40
1.0
  9
$DIMASZ
 40
31.75
  9
$DIMEXO
 40
0.0
  9
$DIMDLI
 40
6.99999999999994
  9
$DIMRND
 40
0.0
  9
$DIMDLE
 40
0.0
  9
$DIMEXE
 40
19.9999999999962
  9
$DIMTP
 40
0.0
  9
$DIMTM
 40
0.0
  9
$DIMTXT
 40
21.828125
  9
$DIMCEN
 40
0.0
  9
$DIMTSZ
 40
0.0
  9
$DIMTOL
 70
     0
  9
$DIMLIM
 70
     0
  9
$DIMTIH
 70
     0
  9
$DIMTOH
 70
     0
  9
$DIMSE1
 70
     0
  9
$DIMSE2
 70
     0
  9
$DIMTAD
 70
     1
  9
$DIMZIN
 70
    11
  9
$DIMBLK
  1
VW_FILLEDARROW
  9
$DIMASO
 70
     1
  9
$DIMSHO
 70
     1
  9
$DIMPOST
  1
<>
  9
$DIMAPOST
  1
[]
  9
$DIMALT
 70
     0
  9
$DIMALTD
 70
     1
  9
$DIMALTF
 40
1.0
  9
$DIMLFAC
 40
1.0
  9
$DIMTOFL
 70
     0
  9
$DIMTVP
 40
0.0
  9
$DIMTIX
 70
     1
  9
$DIMSOXD
 70
     0
  9
$DIMSAH
 70
     0
  9
$DIMBLK1
  1

  9
$DIMBLK2
  1

  9
$DIMSTYLE
  2
JIS
  9
$DIMCLRD
 70
     0
  9
$DIMCLRE
 70
     0
  9
$DIMCLRT
 70
     0
  9
$DIMTFAC
 40
1.0
  9
$DIMGAP
 40
1.00000000000108
  9
$DIMJUST
 70
     0
  9
$DIMSD1
 70
     0
  9
$DIMSD2
 70
     0
  9
$DIMTOLJ
 70
     1
  9
$DIMTZIN
 70
    11
  9
$DIMALTZ
 70
    11
  9
$DIMALTTZ
 70
    11
  9
$DIMUPT
 70
     0
  9
$DIMDEC
 70
     1
  9
$DIMTDEC
 70
     1
  9
$DIMALTU
 70
     2
  9
$DIMALTTD
 70
     2
  9
$DIMTXSTY
  7
MS UI Gothic
  9
$DIMAUNIT
 70
     0
  9
$DIMADEC
 70
     2
  9
$DIMALTRND
 40
0.0
  9
$DIMAZIN
 70
     0
  9
$DIMDSEP
 70
    46
  9
$DIMATFIT
 70
     0
  9
$DIMFRAC
 70
     2
  9
$DIMLDRBLK
  1

  9
$DIMLUNIT
 70
     2
  9
$DIMLWD
 70
    -2
  9
$DIMLWE
 70
    -2
  9
$DIMTMOVE
 70
     0
  9
$DIMFXL
 40
1.0
  9
$DIMFXLON
 70
     0
  9
$DIMJOGANG
 40
0.7853981633974483
  9
$DIMTFILL
 70
     0
  9
$DIMTFILLCLR
 70
     0
  9
$DIMARCSYM
 70
     0
  9
$DIMLTYPE
  6

  9
$DIMLTEX1
  6

  9
$DIMLTEX2
  6

  9
$LUNITS
 70
     2
  9
$LUPREC
 70
     4
  9
$SKETCHINC
 40
0.1
  9
$FILLETRAD
 40
0.0
  9
$AUNITS
 70
     0
  9
$AUPREC
 70
     0
  9
$MENU
  1
acad
  9
$ELEVATION
 40
0.0
  9
$PELEVATION
 40
0.0
  9
$THICKNESS
 40
0.0
  9
$LIMCHECK
 70
     0
  9
$CHAMFERA
 40
0.0
  9
$CHAMFERB
 40
0.0
  9
$CHAMFERC
 40
0.0
  9
$CHAMFERD
 40
0.0
  9
$SKPOLY
 70
     0
  9
$TDCREATE
 40
2447893.375
  9
$TDUCREATE
 40
0.0
  9
$TDUPDATE
 40
2456749.700516991
  9
$TDUUPDATE
 40
2456749.325516991
  9
$TDINDWG
 40
0.0039145602
  9
$TDUSRTIMER
 40
2456749.321602847
  9
$USRTIMER
 70
     1
  9
$ANGBASE
 50
0.0
  9
$ANGDIR
 70
     0
  9
$PDMODE
 70
     1
  9
$PDSIZE
 40
-2.0
  9
$PLINEWID
 40
0.0
  9
$SPLFRAME
 70
     0
  9
$SPLINETYPE
 70
     6
  9
$SPLINESEGS
 70
     8
  9
$HANDSEED
  5
266
  9
$SURFTAB1
 70
     6
  9
$SURFTAB2
 70
     6
  9
$SURFTYPE
 70
     6
  9
$SURFU
 70
     6
  9
$SURFV
 70
     6
  9
$UCSBASE
  2

  9
$UCSNAME
  2

  9
$UCSORG
 10
0.0
 20
0.0
 30
0.0
  9
$UCSXDIR
 10
1.0
 20
0.0
 30
0.0
  9
$UCSYDIR
 10
0.0
 20
1.0
 30
0.0
  9
$UCSORTHOREF
  2

  9
$UCSORTHOVIEW
 70
     0
  9
$UCSORGTOP
 10
0.0
 20
0.0
 30
0.0
  9
$UCSORGBOTTOM
 10
0.0
 20
0.0
 30
0.0
  9
$UCSORGLEFT
 10
0.0
 20
0.0
 30
0.0
  9
$UCSORGRIGHT
 10
0.0
 20
0.0
 30
0.0
  9
$UCSORGFRONT
 10
0.0
 20
0.0
 30
0.0
  9
$UCSORGBACK
 10
0.0
 20
0.0
 30
0.0
  9
$PUCSBASE
  2

  9
$PUCSNAME
  2

  9
$PUCSORG
 10
0.0
 20
0.0
 30
0.0
  9
$PUCSXDIR
 10
1.0
 20
0.0
 30
0.0
  9
$PUCSYDIR
 10
0.0
 20
1.0
 30
0.0
  9
$PUCSORTHOREF
  2

  9
$PUCSORTHOVIEW
 70
     0
  9
$PUCSORGTOP
 10
0.0
 20
0.0
 30
0.0
  9
$PUCSORGBOTTOM
 10
0.0
 20
0.0
 30
0.0
  9
$PUCSORGLEFT
 10
0.0
 20
0.0
 30
0.0
  9
$PUCSORGRIGHT
 10
0.0
 20
0.0
 30
0.0
  9
$PUCSORGFRONT
 10
0.0
 20
0.0
 30
0.0
  9
$PUCSORGBACK
 10
0.0
 20
0.0
 30
0.0
  9
$USERI1
 70
     0
  9
$USERI2
 70
     0
  9
$USERI3
 70
     0
  9
$USERI4
 70
     0
  9
$USERI5
 70
     0
  9
$USERR1
 40
0.0
  9
$USERR2
 40
0.0
  9
$USERR3
 40
0.0
  9
$USERR4
 40
0.0
  9
$USERR5
 40
0.0
  9
$WORLDVIEW
 70
     1
  9
$SHADEDGE
 70
     3
  9
$SHADEDIF
 70
    70
  9
$TILEMODE
 70
     1
  9
$MAXACTVP
 70
    64
  9
$PINSBASE
 10
0.0
 20
0.0
 30
0.0
  9
$PLIMCHECK
 70
     0
  9
$PEXTMIN
 10
1.000000000000000E+20
 20
1.000000000000000E+20
 30
1.000000000000000E+20
  9
$PEXTMAX
 10
-1.000000000000000E+20
 20
-1.000000000000000E+20
 30
-1.000000000000000E+20
  9
$PLIMMIN
 10
0.0
 20
0.0
  9
$PLIMMAX
 10
0.0
 20
0.0
  9
$UNITMODE
 70
     0
  9
$VISRETAIN
 70
     0
  9
$PLINEGEN
 70
     1
  9
$PSLTSCALE
 70
     0
  9
$TREEDEPTH
 70
  3020
  9
$CMLSTYLE
  2
Standard
  9
$CMLJUST
 70
     0
  9
$CMLSCALE
 40
1.0
  9
$PROXYGRAPHICS
 70
     0
  9
$MEASUREMENT
 70
     1
  9
$CELWEIGHT
370
     0
  9
$ENDCAPS
280
     0
  9
$JOINSTYLE
280
     0
  9
$LWDISPLAY
290
     1
  9
$INSUNITS
 70
     4
  9
$HYPERLINKBASE
  1

  9
$STYLESHEET
  1

  9
$XEDIT
290
     1
  9
$CEPSNTYPE
380
     0
  9
$PSTYLEMODE
290
     1
  9
$FINGERPRINTGUID
  2

  9
$VERSIONGUID
  2

  9
$EXTNAMES
290
     1
  9
$PSVPSCALE
 40
0.0
  9
$OLESTARTUP
290
     0
  9
$SORTENTS
280
   127
  9
$INDEXCTL
280
     0
  9
$HIDETEXT
280
     1
  9
$XCLIPFRAME
290
     0
  9
$HALOGAP
280
     0
  9
$OBSCOLOR
 70
   257
  9
$OBSLTYPE
280
     0
  9
$INTERSECTIONDISPLAY
280
     0
  9
$INTERSECTIONCOLOR
 70
   257
  9
$DIMASSOC
280
     2
  9
$PROJECTNAME
  1

  9
$CAMERADISPLAY
290
     0
  9
$LENSLENGTH
 40
50.0
  9
$CAMERAHEIGHT
 40
0.0
  9
$STEPSPERSEC
 40
2.0
  9
$STEPSIZE
 40
6.0
  9
$3DDWFPREC
 40
2.0
  9
$PSOLWIDTH
 40
0.25
  9
$PSOLHEIGHT
 40
4.0
  9
$LOFTANG1
 40
1.570796326794897
  9
$LOFTANG2
 40
1.570796326794897
  9
$LOFTMAG1
 40
0.0
  9
$LOFTMAG2
 40
0.0
  9
$LOFTPARAM
 70
     7
  9
$LOFTNORMALS
280
     1
  9
$LATITUDE
 40
37.795
  9
$LONGITUDE
 40
-122.394
  9
$NORTHDIRECTION
 40
0.0
  9
$TIMEZONE
 70
 -8000
  9
$LIGHTGLYPHDISPLAY
280
     1
  9
$TILEMODELIGHTSYNCH
280
     1
  9
$SOLIDHIST
280
     1
  9
$SHOWHIST
280
     1
  9
$DWFFRAME
280
     2
  9
$DGNFRAME
280
     2
  9
$REALWORLDSCALE
290
     1
  9
$INTERFERECOLOR
 62
   256
  9
$CSHADOW
280
     0
  9
$SHADOWPLANELOCATION
 40
0.0
  0
ENDSEC
  0
SECTION
  2
CLASSES
  0
CLASS
  1
LWPOLYLINE
  2
AcDbPolyline
  3
ObjectDBX Classes
 90
        0
 91
        1
280
     0
281
     1
  0
CLASS
  1
IMAGE
  2
AcDbRasterImage
  3
ISM
 90
      127
 91
        5
280
     0
281
     1
  0
CLASS
  1
OLE2FRAME
  2
AcDbOle2Frame
  3
ObjectDBX Classes
 90
        0
 91
        1
280
     0
281
     1
  0
CLASS
  1
HATCH
  2
AcDbHatch
  3
ObjectDBX Classes
 90
        0
 91
        1
280
     0
281
     1
  0
CLASS
  1
DICTIONARYVAR
  2
AcDbDictionaryVar
  3
ObjectDBX Classes
 90
        0
 91
        4
280
     0
281
     0
  0
CLASS
  1
RASTERVARIABLES
  2
AcDbRasterVariables
  3
ISM
 90
        0
 91
        5
280
     0
281
     0
  0
CLASS
  1
IMAGEDEF
  2
AcDbRasterImageDef
  3
ISM
 90
        0
 91
        4
280
     0
281
     0
  0
CLASS
  1
IMAGEDEF_REACTOR
  2
AcDbRasterImageDefReactor
  3
ISM
 90
        1
 91
        4
280
     0
281
     0
  0
CLASS
  1
IDBUFFER
  2
AcDbIdBuffer
  3
ObjectDBX Classes
 90
        0
 91
        4
280
     0
281
     0
  0
CLASS
  1
SPATIAL_FILTER
  2
AcDbSpatialFilter
  3
ObjectDBX Classes
 90
        0
 91
        4
280
     0
281
     0
  0
CLASS
  1
XRECORD
  2
AcDbXrecord
  3
ObjectDBX Classes
 90
        0
 91
        1
280
     0
281
     0
  0
CLASS
  1
SORTENTSTABLE
  2
AcDbSortentsTable
  3
ObjectDBX Classes
 90
        0
 91
        4
280
     0
281
     0
  0
CLASS
  1
LAYER_INDEX
  2
AcDbLayerIndex
  3
ObjectDBX Classes
 90
        0
 91
        4
280
     0
281
     0
  0
CLASS
  1
SPATIAL_INDEX
  2
AcDbSpatialIndex
  3
AutoCAD 2000
 90
        0
 91
        4
280
     0
281
     0
  0
CLASS
  1
OBJECT_PTR
  2
CAseDLPNTableRecord
  3
ASE-LPNTableRecord
 90
        1
 91
        4
280
     0
281
     0
  0
CLASS
  1
LAYOUT
  2
AcDbLayout
  3
ObjectDBX Classes
 90
        0
 91
        1
280
     0
281
     0
  0
CLASS
  1
PLOTSETTINGS
  2
AcDbPlotSettings
  3
ObjectDBX Classes
 90
        0
 91
        4
280
     0
281
     0
  0
CLASS
  1
ACDBDICTIONARYWDFLT
  2
AcDbDictionaryWithDefault
  3
ObjectDBX Classes
 90
        0
 91
        5
280
     0
281
     0
  0
CLASS
  1
ACDBPLACEHOLDER
  2
AcDbPlaceHolder
  3
ObjectDBX Classes
 90
        0
 91
        1
280
     0
281
     0
  0
CLASS
  1
SCALE
  2
AcDbScale
  3
ObjectDBX Classes
 90
     1153
 91
        5
280
     0
281
     0
  0
CLASS
  1
VISUALSTYLE
  2
AcDbVisualStyle
  3
ObjectDBX Classes
 90
     4095
 91
        5
280
     0
281
     0
  0
CLASS
  1
MATERIAL
  2
AcDbMaterial
  3
ObjectDBX Classes
 90
     1153
 91
        5
280
     0
281
     0
  0
CLASS
  1
TABLESTYLE
  2
AcDbTableStyle
  3
ObjectDBX Classes
 90
     4095
 91
        5
280
     0
281
     0
  0
CLASS
  1
SUN
  2
AcDbSun
  3
SCENEOE
 90
     1153
 91
        5
280
     0
281
     0
  0
CLASS
  1
DIMASSOC
  2
AcDbDimAssoc
  3
"AcDbDimAssoc|Product Desc:     AcDim ARX App For Dimension|Company:          Autodesk, Inc.|WEB Address:      www.autodesk.com"
 90
        0
 91
        4
280
     0
281
     0
  0
CLASS
  1
CELLSTYLEMAP
  2
AcDbCellStyleMap
  3
ObjectDBX Classes
 90
     1152
 91
        4
280
     0
281
     0
  0
ENDSEC
  0
SECTION
  2
TABLES
  0
TABLE
  2
VPORT
  5
7
330
0
100
AcDbSymbolTable
 70
     1
  0
VPORT
  5
15
330
7
100
AcDbSymbolTableRecord
100
AcDbViewportTableRecord
  2
*ACTIVE
 70
     0
 10
0.0
 20
0.0
 11
1.0
 21
1.0
 12
178.3256392219165
 22
-1060.080919400377
 13
0.0
 23
0.0
 14
1.0
 24
1.0
 15
0.0
 25
0.0
 16
0.0
 26
0.0
 36
1.0
 17
0.0
 27
0.0
 37
0.0
 40
1162.249345070043
 41
2.213422818791946
 42
50.0
 43
0.0
 44
0.0
 50
0.0
 51
0.0
 71
    16
 72
  2000
 73
     1
 74
     1
 75
     0
 76
     0
 77
     0
 78
     0
281
     0
 65
     0
110
0.0
120
0.0
130
0.0
111
1.0
121
0.0
131
0.0
112
0.0
122
1.0
132
0.0
 79
     0
146
0.0
348
221
 60
     3
 61
     5
292
     1
282
     1
141
0.0
142
0.0
 63
   250
361
23C
  0
ENDTAB
  0
TABLE
  2
LTYPE
  5
4
330
0
100
AcDbSymbolTable
 70
    24
  0
LTYPE
  5
11
330
4
100
AcDbSymbolTableRecord
100
AcDbLinetypeTableRecord
  2
ByBlock
 70
     0
  3

 72
    65
 73
     0
 40
0.0
  0
LTYPE
  5
12
330
4
100
AcDbSymbolTableRecord
100
AcDbLinetypeTableRecord
  2
ByLayer
 70
     0
  3

 72
    65
 73
     0
 40
0.0
  0
LTYPE
  5
13
330
4
100
AcDbSymbolTableRecord
100
AcDbLinetypeTableRecord
  2
Continuous
 70
     0
  3
Solid line
 72
    65
 73
     0
 40
0.0
  0
LTYPE
  5
3C
330
4
100
AcDbSymbolTableRecord
100
AcDbLinetypeTableRecord
  2
STYLE_01
 70
     0
  3

 72
    65
 73
     4
 40
2.0
 49
1.25
 74
     0
 49
-0.2500000000000001
 74
     0
 49
0.2500000000000001
 74
     0
 49
-0.2499999999999999
 74
     0
  0
LTYPE
  5
3D
330
4
100
AcDbSymbolTableRecord
100
AcDbLinetypeTableRecord
  2
STYLE_02
 70
     0
  3

 72
    65
 73
     4
 40
1.0
 49
0.5
 74
     0
 49
-0.25
 74
     0
 49
0.005
 74
     0
 49
-0.2450000000000001
 74
     0
  0
LTYPE
  5
3E
330
4
100
AcDbSymbolTableRecord
100
AcDbLinetypeTableRecord
  2
STYLE_03
 70
     0
  3

 72
    65
 73
     2
 40
0.75
 49
0.5
 74
     0
 49
-0.25
 74
     0
  0
LTYPE
  5
3F
330
4
100
AcDbSymbolTableRecord
100
AcDbLinetypeTableRecord
  2
STYLE_04
 70
     0
  3

 72
    65
 73
     2
 40
0.375
 49
0.25
 74
     0
 49
-0.125
 74
     0
  0
LTYPE
  5
40
330
4
100
AcDbSymbolTableRecord
100
AcDbLinetypeTableRecord
  2
STYLE_05
 70
     0
  3

 72
    65
 73
     6
 40
1.75
 49
0.5
 74
     0
 49
-0.25
 74
     0
 49
0.5000000000000001
 74
     0
 49
-0.2500000000000001
 74
     0
 49
0.005
 74
     0
 49
-0.2450000000000001
 74
     0
  0
LTYPE
  5
41
330
4
100
AcDbSymbolTableRecord
100
AcDbLinetypeTableRecord
  2
STYLE_06
 70
     0
  3

 72
    65
 73
     6
 40
0.8750000000000001
 49
0.25
 74
     0
 49
-0.125
 74
     0
 49
0.2500000000000001
 74
     0
 49
-0.125
 74
     0
 49
0.005
 74
     0
 49
-0.1200000000000001
 74
     0
  0
LTYPE
  5
42
330
4
100
AcDbSymbolTableRecord
100
AcDbLinetypeTableRecord
  2
STYLE_07
 70
     0
  3

 72
    65
 73
     6
 40
3.5
 49
1.0
 74
     0
 49
-0.4999999999999999
 74
     0
 49
1.0
 74
     0
 49
-0.5000000000000001
 74
     0
 49
0.0050000000000001
 74
     0
 49
-0.4949999999999999
 74
     0
  0
LTYPE
  5
43
330
4
100
AcDbSymbolTableRecord
100
AcDbLinetypeTableRecord
  2
STYLE_08
 70
     0
  3

 72
    65
 73
     4
 40
1.125
 49
0.75
 74
     0
 49
-0.1249999999999999
 74
     0
 49
0.1249999999999999
 74
     0
 49
-0.1249999999999999
 74
     0
  0
LTYPE
  5
44
330
4
100
AcDbSymbolTableRecord
100
AcDbLinetypeTableRecord
  2
STYLE_09
 70
     0
  3

 72
    65
 73
     4
 40
4.0
 49
2.5
 74
     0
 49
-0.5000000000000001
 74
     0
 49
0.5000000000000001
 74
     0
 49
-0.4999999999999998
 74
     0
  0
LTYPE
  5
45
330
4
100
AcDbSymbolTableRecord
100
AcDbLinetypeTableRecord
  2
STYLE_10
 70
     0
  3

 72
    65
 73
     4
 40
0.5
 49
0.25
 74
     0
 49
-0.125
 74
     0
 49
0.005
 74
     0
 49
-0.12
 74
     0
  0
LTYPE
  5
46
330
4
100
AcDbSymbolTableRecord
100
AcDbLinetypeTableRecord
  2
STYLE_11
 70
     0
  3

 72
    65
 73
     4
 40
2.0
 49
1.0
 74
     0
 49
-0.4999999999999999
 74
     0
 49
0.005
 74
     0
 49
-0.4950000000000001
 74
     0
  0
LTYPE
  5
47
330
4
100
AcDbSymbolTableRecord
100
AcDbLinetypeTableRecord
  2
STYLE_12
 70
     0
  3

 72
    65
 73
     2
 40
0.375
 49
0.25
 74
     0
 49
-0.125
 74
     0
  0
LTYPE
  5
48
330
4
100
AcDbSymbolTableRecord
100
AcDbLinetypeTableRecord
  2
STYLE_13
 70
     0
  3

 72
    65
 73
     2
 40
1.5
 49
1.0
 74
     0
 49
-0.4999999999999999
 74
     0
  0
LTYPE
  5
49
330
4
100
AcDbSymbolTableRecord
100
AcDbLinetypeTableRecord
  2
STYLE_14
 70
     0
  3

 72
    65
 73
     6
 40
1.25
 49
0.5
 74
     0
 49
-0.25
 74
     0
 49
0.005
 74
     0
 49
-0.2450000000000001
 74
     0
 49
0.005
 74
     0
 49
-0.2450000000000001
 74
     0
  0
LTYPE
  5
4A
330
4
100
AcDbSymbolTableRecord
100
AcDbLinetypeTableRecord
  2
STYLE_15
 70
     0
  3

 72
    65
 73
     6
 40
0.625
 49
0.25
 74
     0
 49
-0.125
 74
     0
 49
0.005
 74
     0
 49
-0.12
 74
     0
 49
0.005
 74
     0
 49
-0.1200000000000001
 74
     0
  0
LTYPE
  5
4B
330
4
100
AcDbSymbolTableRecord
100
AcDbLinetypeTableRecord
  2
STYLE_16
 70
     0
  3

 72
    65
 73
     6
 40
2.5
 49
1.0
 74
     0
 49
-0.4999999999999999
 74
     0
 49
0.005
 74
     0
 49
-0.4950000000000001
 74
     0
 49
0.0050000000000001
 74
     0
 49
-0.4949999999999999
 74
     0
  0
LTYPE
  5
4C
330
4
100
AcDbSymbolTableRecord
100
AcDbLinetypeTableRecord
  2
STYLE_17
 70
     0
  3

 72
    65
 73
     2
 40
0.25
 49
0.005
 74
     0
 49
-0.245
 74
     0
  0
LTYPE
  5
4D
330
4
100
AcDbSymbolTableRecord
100
AcDbLinetypeTableRecord
  2
STYLE_18
 70
     0
  3

 72
    65
 73
     2
 40
0.5
 49
0.005
 74
     0
 49
-0.4950000000000001
 74
     0
  0
LTYPE
  5
4E
330
4
100
AcDbSymbolTableRecord
100
AcDbLinetypeTableRecord
  2
STYLE_19
 70
     0
  3

 72
    65
 73
     2
 40
0.75
 49
0.5
 74
     0
 49
-0.25
 74
     0
  0
LTYPE
  5
4F
330
4
100
AcDbSymbolTableRecord
100
AcDbLinetypeTableRecord
  2
STYLE_20
 70
     0
  3

 72
    65
 73
     6
 40
2.5
 49
1.25
 74
     0
 49
-0.2500000000000001
 74
     0
 49
0.2500000000000001
 74
     0
 49
-0.2499999999999999
 74
     0
 49
0.2499999999999999
 74
     0
 49
-0.2499999999999999
 74
     0
  0
LTYPE
  5
50
330
4
100
AcDbSymbolTableRecord
100
AcDbLinetypeTableRecord
  2
STYLE_21
 70
     0
  3

 72
    65
 73
     6
 40
1.25
 49
0.625
 74
     0
 49
-0.125
 74
     0
 49
0.125
 74
     0
 49
-0.1249999999999999
 74
     0
 49
0.1249999999999999
 74
     0
 49
-0.1249999999999999
 74
     0
  0
LTYPE
  5
51
330
4
100
AcDbSymbolTableRecord
100
AcDbLinetypeTableRecord
  2
STYLE_22
 70
     0
  3

 72
    65
 73
     6
 40
5.0
 49
2.5
 74
     0
 49
-0.5000000000000001
 74
     0
 49
0.5000000000000001
 74
     0
 49
-0.4999999999999998
 74
     0
 49
0.4999999999999998
 74
     0
 49
-0.4999999999999998
 74
     0
  0
LTYPE
  5
52
330
4
100
AcDbSymbolTableRecord
100
AcDbLinetypeTableRecord
  2
STYLE_23
 70
     0
  3

 72
    65
 73
     2
 40
3.937007874015748
 49
1.968503937007874
 74
     0
 49
-1.968503937007874
 74
     0
  0
ENDTAB
  0
TABLE
  2
LAYER
  5
2
330
0
100
AcDbSymbolTable
 70
     5
  0
LAYER
  5
14
330
2
100
AcDbSymbolTableRecord
100
AcDbLayerTableRecord
  2
0
 70
     0
 62
     7
  6
Continuous
370
    -3
390
1D
347
238
  0
LAYER
  5
53
330
2
100
AcDbSymbolTableRecord
100
AcDbLayerTableRecord
  2
Defpoints
 70
     0
 62
     7
  6
Continuous
290
     0
370
    -3
390
1D
347
238
  0
LAYER
  5
54
330
2
100
AcDbSymbolTableRecord
100
AcDbLayerTableRecord
  2
template
 70
     0
 62
     7
  6
Continuous
370
    -3
390
1D
347
238
  0
LAYER
  5
55
330
2
100
AcDbSymbolTableRecord
100
AcDbLayerTableRecord
  2
notes
 70
     0
 62
     7
  6
Continuous
370
    -3
390
1D
347
238
  0
LAYER
  5
56
330
2
100
AcDbSymbolTableRecord
100
AcDbLayerTableRecord
  2
ASN70-0002
 70
     0
 62
     7
  6
Continuous
370
    -3
390
1D
347
238
  0
ENDTAB
  0
TABLE
  2
STYLE
  5
3
330
0
100
AcDbSymbolTable
 70
     3
  0
STYLE
  5
17
330
3
100
AcDbSymbolTableRecord
100
AcDbTextStyleTableRecord
  2
Standard
 70
     0
 40
0.0
 41
1.0
 50
0.0
 71
     0
 42
39.29441768619765
  3
txt
  4
BIGFONT.SHX
  0
STYLE
  5
3A
330
3
100
AcDbSymbolTableRecord
100
AcDbTextStyleTableRecord
  2
MS UI Gothic
 70
     0
 40
0.0
 41
1.0
 50
0.0
 71
     0
 42
0.0
  3
msgothic.ttc
  4
MS UI Gothic
1001
ACAD
1000
MS UI Gothic
1071
        0
  0
STYLE
  5
3B
330
3
100
AcDbSymbolTableRecord
100
AcDbTextStyleTableRecord
  2
ＭＳ ゴシック
 70
     0
 40
0.0
 41
1.0
 50
0.0
 71
     0
 42
0.0
  3
msgothic.ttc
  4
ＭＳ ゴシック
1001
ACAD
1000
ＭＳ ゴシック
1071
        0
  0
ENDTAB
  0
TABLE
  2
VIEW
  5
5
330
0
100
AcDbSymbolTable
 70
     0
  0
ENDTAB
  0
TABLE
  2
UCS
  5
6
330
0
100
AcDbSymbolTable
 70
     0
  0
ENDTAB
  0
TABLE
  2
APPID
  5
8
330
0
100
AcDbSymbolTable
 70
     2
  0
APPID
  5
16
330
8
100
AcDbSymbolTableRecord
100
AcDbRegAppTableRecord
  2
ACAD
 70
     0
  0
APPID
  5
240
330
8
100
AcDbSymbolTableRecord
100
AcDbRegAppTableRecord
  2
ACAD_DSTYLE_DIMRADIAL_EXTENSION
 70
     0
  0
ENDTAB
  0
TABLE
  2
DIMSTYLE
  5
9
330
0
100
AcDbSymbolTable
 70
     3
100
AcDbDimStyleTable
  0
DIMSTYLE
105
18
330
9
100
AcDbSymbolTableRecord
100
AcDbDimStyleTableRecord
  2
Standard
 70
     0
178
     0
340
17
  0
DIMSTYLE
105
5F
330
9
100
AcDbSymbolTableRecord
100
AcDbDimStyleTableRecord
  2
tfrom線あり
 70
     0
  3
<>
  4
[]
 41
3.999755859375
 42
25.0
 43
0.9999999999999999
 44
0.0
 73
     0
 74
     0
 77
     1
 78
    11
140
21.828125
141
0.0
143
1.0
147
0.4999999999999999
171
     1
174
     1
178
     0
179
     2
271
     1
272
     1
276
     2
284
    11
285
    11
286
    11
289
     0
340
3A
341
57
342
57
  0
DIMSTYLE
105
64
102
{ACAD_REACTORS
330
250
102
}
330
9
100
AcDbSymbolTableRecord
100
AcDbDimStyleTableRecord
  2
JIS
 70
     0
  3
<>
  4
[]
 41
31.75
 42
0.0
 43
6.99999999999994
 44
19.9999999999962
 73
     0
 74
     0
 77
     1
 78
    11
140
21.828125
141
0.0
143
1.0
147
1.00000000000108
171
     1
174
     1
178
     0
179
     2
271
     1
272
     1
276
     2
284
    11
285
    11
286
    11
289
     0
340
3A
341
60
342
60
  0
ENDTAB
  0
TABLE
  2
BLOCK_RECORD
  5
1
330
0
100
AcDbSymbolTable
 70
    26
  0
BLOCK_RECORD
  5
A
330
1
100
AcDbSymbolTableRecord
100
AcDbBlockTableRecord
  2
*MODEL_SPACE
340
20
 70
     0
280
     1
281
     0
  0
BLOCK_RECORD
  5
B
330
1
100
AcDbSymbolTableRecord
100
AcDbBlockTableRecord
  2
*PAPER_SPACE
340
21
 70
     0
280
     1
281
     0
  0
BLOCK_RECORD
  5
57
330
1
100
AcDbSymbolTableRecord
100
AcDbBlockTableRecord
  2
_DOT
340
0
 70
     0
280
     1
281
     0
  0
BLOCK_RECORD
  5
60
330
1
100
AcDbSymbolTableRecord
100
AcDbBlockTableRecord
  2
VW_FILLEDARROW
340
0
102
{BLKREFS
331
249
102
}
 70
     0
280
     1
281
     0
  0
BLOCK_RECORD
  5
23
330
1
100
AcDbSymbolTableRecord
100
AcDbBlockTableRecord
  2
グループ
340
0
102
{BLKREFS
331
167
102
}
 70
     0
280
     1
281
     0
  0
BLOCK_RECORD
  5
24
330
1
100
AcDbSymbolTableRecord
100
AcDbBlockTableRecord
  2
*D3
340
0
 70
     0
280
     1
281
     0
  0
BLOCK_RECORD
  5
25
330
1
100
AcDbSymbolTableRecord
100
AcDbBlockTableRecord
  2
*D4
340
0
 70
     0
280
     1
281
     0
  0
BLOCK_RECORD
  5
26
330
1
100
AcDbSymbolTableRecord
100
AcDbBlockTableRecord
  2
*D5
340
0
 70
     0
280
     1
281
     0
  0
BLOCK_RECORD
  5
27
330
1
100
AcDbSymbolTableRecord
100
AcDbBlockTableRecord
  2
*D6
340
0
 70
     0
280
     1
281
     0
  0
BLOCK_RECORD
  5
28
330
1
100
AcDbSymbolTableRecord
100
AcDbBlockTableRecord
  2
*D7
340
0
 70
     0
280
     1
281
     0
  0
BLOCK_RECORD
  5
29
330
1
100
AcDbSymbolTableRecord
100
AcDbBlockTableRecord
  2
*D8
340
0
 70
     0
280
     1
281
     0
  0
BLOCK_RECORD
  5
2A
330
1
100
AcDbSymbolTableRecord
100
AcDbBlockTableRecord
  2
*D9
340
0
 70
     0
280
     1
281
     0
  0
BLOCK_RECORD
  5
2B
330
1
100
AcDbSymbolTableRecord
100
AcDbBlockTableRecord
  2
*D10
340
0
 70
     0
280
     1
281
     0
  0
BLOCK_RECORD
  5
2C
330
1
100
AcDbSymbolTableRecord
100
AcDbBlockTableRecord
  2
*D11
340
0
 70
     0
280
     1
281
     0
  0
BLOCK_RECORD
  5
2D
330
1
100
AcDbSymbolTableRecord
100
AcDbBlockTableRecord
  2
*D12
340
0
 70
     0
280
     1
281
     0
  0
BLOCK_RECORD
  5
2E
330
1
100
AcDbSymbolTableRecord
100
AcDbBlockTableRecord
  2
*D13
340
0
 70
     0
280
     1
281
     0
  0
BLOCK_RECORD
  5
2F
330
1
100
AcDbSymbolTableRecord
100
AcDbBlockTableRecord
  2
*D14
340
0
 70
     0
280
     1
281
     0
  0
BLOCK_RECORD
  5
30
330
1
100
AcDbSymbolTableRecord
100
AcDbBlockTableRecord
  2
*D15
340
0
 70
     0
280
     1
281
     0
  0
BLOCK_RECORD
  5
31
330
1
100
AcDbSymbolTableRecord
100
AcDbBlockTableRecord
  2
*D16
340
0
 70
     0
280
     1
281
     0
  0
BLOCK_RECORD
  5
32
330
1
100
AcDbSymbolTableRecord
100
AcDbBlockTableRecord
  2
グループ-1
340
0
102
{BLKREFS
331
12A
102
}
 70
     0
280
     1
281
     0
  0
BLOCK_RECORD
  5
33
330
1
100
AcDbSymbolTableRecord
100
AcDbBlockTableRecord
  2
グループ-2
340
0
102
{BLKREFS
331
12D
102
}
 70
     0
280
     1
281
     0
  0
BLOCK_RECORD
  5
34
330
1
100
AcDbSymbolTableRecord
100
AcDbBlockTableRecord
  2
グループ-3
340
0
102
{BLKREFS
331
0
102
}
 70
     0
280
     1
281
     0
  0
BLOCK_RECORD
  5
35
330
1
100
AcDbSymbolTableRecord
100
AcDbBlockTableRecord
  2
グループ-4
340
0
102
{BLKREFS
331
1CD
102
}
 70
     0
280
     1
281
     0
  0
BLOCK_RECORD
  5
36
330
1
100
AcDbSymbolTableRecord
100
AcDbBlockTableRecord
  2
グループ-5
340
0
102
{BLKREFS
331
1CE
102
}
 70
     0
280
     1
281
     0
  0
BLOCK_RECORD
  5
37
330
1
100
AcDbSymbolTableRecord
100
AcDbBlockTableRecord
  2
*D22
340
0
 70
     0
280
     1
281
     0
  0
BLOCK_RECORD
  5
38
330
1
100
AcDbSymbolTableRecord
100
AcDbBlockTableRecord
  2
*D23
340
0
 70
     0
280
     1
281
     0
  0
BLOCK_RECORD
  5
39
330
1
100
AcDbSymbolTableRecord
100
AcDbBlockTableRecord
  2
*D24
340
0
 70
     0
280
     1
281
     0
  0
BLOCK_RECORD
  5
244
330
1
100
AcDbSymbolTableRecord
100
AcDbBlockTableRecord
  2
*D25
340
0
 70
     0
280
     1
281
     0
  0
ENDTAB
  0
ENDSEC
  0
SECTION
  2
BLOCKS
  0
BLOCK
  5
D
330
A
100
AcDbEntity
  8
0
390
1D
100
AcDbBlockBegin
  2
*MODEL_SPACE
 70
     0
 10
0.0
 20
0.0
 30
0.0
  3
*MODEL_SPACE
  1
*MODEL_SPACE
  0
ENDBLK
  5
E
330
A
100
AcDbEntity
  8
0
390
1D
100
AcDbBlockEnd
  0
BLOCK
  5
F
330
B
100
AcDbEntity
 67
     1
  8
0
390
1D
100
AcDbBlockBegin
  2
*PAPER_SPACE
 70
     0
 10
0.0
 20
0.0
 30
0.0
  3
*PAPER_SPACE
  1
*PAPER_SPACE
  0
ENDBLK
  5
10
330
B
100
AcDbEntity
 67
     1
  8
0
390
1D
100
AcDbBlockEnd
  0
BLOCK
  5
58
330
57
100
AcDbEntity
  8
0
390
1D
100
AcDbBlockBegin
  2
_DOT
 70
     0
 10
0.0
 20
0.0
 30
0.0
  3
_DOT
  1
_DOT
  0
POLYLINE
  5
59
330
57
100
AcDbEntity
  8
0
  6
ByBlock
 62
     0
370
    -2
390
1D
100
AcDb2dPolyline
 66
     1
 10
0.0
 20
0.0
 30
0.0
 70
     1
 40
0.5
 41
0.5
  0
VERTEX
  5
5A
330
59
100
AcDbEntity
  8
0
  6
ByBlock
 62
     0
370
    -2
390
1D
100
AcDbVertex
100
AcDb2dVertex
 10
-0.25
 20
0.0
 30
0.0
 42
1.0
  0
VERTEX
  5
5B
330
59
100
AcDbEntity
  8
0
  6
ByBlock
 62
     0
370
    -2
390
1D
100
AcDbVertex
100
AcDb2dVertex
 10
0.25
 20
0.0
 30
0.0
 42
1.0
  0
SEQEND
  5
5C
330
59
100
AcDbEntity
  8
0
390
1D
  0
LINE
  5
5D
330
57
100
AcDbEntity
  8
0
  6
ByBlock
 62
     0
370
    -2
390
1D
100
AcDbLine
 10
-0.5
 20
0.0
 30
0.0
 11
-1.0
 21
0.0
 31
0.0
  0
ENDBLK
  5
5E
330
57
100
AcDbEntity
  8
0
390
1D
100
AcDbBlockEnd
  0
BLOCK
  5
61
330
60
100
AcDbEntity
  8
0
  6
ByBlock
 62
     0
370
    -2
390
1D
100
AcDbBlockBegin
  2
VW_FILLEDARROW
 70
     0
 10
0.0
 20
0.0
 30
0.0
  3
VW_FILLEDARROW
  1
VW_FILLEDARROW
  0
SOLID
  5
62
330
60
100
AcDbEntity
  8
0
 62
     0
370
    -2
390
1D
100
AcDbTrace
 10
0.0
 20
0.0
 30
0.0
 11
-0.9921874999999999
 21
-0.2658558393652545
 31
0.0
 12
-0.9921874999999999
 22
0.2658558393652548
 32
0.0
 13
-0.9921874999999999
 23
0.2658558393652548
 33
0.0
  0
ENDBLK
  5
63
330
60
100
AcDbEntity
  8
0
390
1D
100
AcDbBlockEnd
  0
BLOCK
  5
65
330
23
100
AcDbEntity
  8
template
390
1D
100
AcDbBlockBegin
  2
グループ
 70
     0
 10
0.0
 20
0.0
 30
0.0
  3
グループ
  1
グループ
  0
LWPOLYLINE
  5
66
330
23
100
AcDbEntity
  8
0
  6
Continuous
 62
     7
370
    15
390
1D
100
AcDbPolyline
 90
        8
 70
   129
 43
0.0
 10
-14104.41646314655
 20
40231.72848496171
 10
-14104.41646314655
 20
40225.73109626813
 10
-14113.91766006455
 20
40225.73109626813
 10
-14113.91766006455
 20
40201.28013300463
 10
-14122.27303732634
 20
40201.28013300463
 10
-14122.27303732634
 20
40225.73109626813
 10
-14131.60599427265
 20
40225.73109626813
 10
-14131.60599427265
 20
40231.72848496171
  0
LWPOLYLINE
  5
67
330
23
100
AcDbEntity
  8
0
  6
Continuous
 62
     7
370
    15
390
1D
100
AcDbPolyline
 90
      101
 70
   128
 43
0.0
 10
-14091.68817131599
 20
40231.00023646878
 10
-14091.6728212872
 20
40231.00459722547
 42
-0.0222221607709077
 10
-14091.38281671054
 20
40231.07322169071
 10
-14091.36702294641
 20
40231.07622511383
 42
-0.0146883565294777
 10
-14091.10432024132
 20
40231.11822830075
 42
-0.0127458844192107
 10
-14090.83968127417
 20
40231.14576526882
 10
-14090.77722619585
 20
40231.15065869141
 42
-0.0198099018533421
 10
-14090.3863770863
 20
40231.16574384881
 10
-14090.33456561693
 20
40231.16569007315
 42
-0.0147617382787984
 10
-14089.83994215594
 20
40231.15057004789
 10
-14089.76725070109
 20
40231.146197441
 42
-0.0162624548962818
 10
-14089.37709707162
 20
40231.10996456574
 10
-14089.25556468042
 20
40231.09467800675
 42
-0.0080020874485544
 10
-14089.10998564927
 20
40231.07399515947
 10
-14089.07166617928
 20
40231.06792388176
 42
-0.0053821929599394
 10
-14089.00318207336
 20
40231.05631635784
 10
-14089.72958777256
 20
40228.87538790212
 42
0.0108667757586233
 10
-14089.79690484282
 20
40228.88857501737
 10
-14089.83437286588
 20
40228.89507275994
 42
0.0170663202910089
 10
-14089.97758965276
 20
40228.91490235723
 10
-14090.04546498548
 20
40228.92194952782
 42
0.0220162375310572
 10
-14090.32584439336
 20
40228.93863188859
 10
-14090.40369996037
 20
40228.93983125586
 42
0.0282606915745603
 10
-14090.73933628396
 20
40228.92602797889
 10
-14090.78324955766
 20
40228.92172798889
 42
0.0169677213746129
 10
-14091.0291740527
 20
40228.88919093933
 42
0.0190576269799358
 10
-14091.27208201524
 20
40228.83904406724
 10
-14091.27834120339
 20
40228.83750109312
 42
0.0213685642761364
 10
-14091.52872568784
 20
40228.76430080802
 10
-14091.53421558278
 20
40228.76243781195
 42
0.0237595297460186
 10
-14091.78771046762
 20
40228.66275329008
 10
-14091.79281254171
 20
40228.66046151458
 42
0.0261857468989369
 10
-14092.04498331803
 20
40228.53092517715
 10
-14092.05540950695
 20
40228.52485970277
 42
0.0272553061999897
 10
-14092.29183928226
 20
40228.36948749679
 10
-14092.32660229577
 20
40228.3438263487
 42
0.0325996893091906
 10
-14092.47675763942
 20
40228.21707847573
 10
-14092.50046706855
 20
40228.19426044721
 42
0.013805096092363
 10
-14092.59235022476
 20
40228.10081078566
 42
0.012528010369007
 10
-14092.6791927576
 20
40228.00264745905
 10
-14092.7028732025
 20
40227.97448896087
 42
0.020521802488632
 10
-14092.82797327801
 20
40227.81269564665
 10
-14092.8504396185
 20
40227.78103591682
 42
0.0163110129475754
 10
-14093.00614999781
 20
40227.54570548166
 10
-14093.0088738938
 20
40227.54128171976
 42
0.0131897341978556
 10
-14093.15567441473
 20
40227.28814962735
 10
-14093.15737451007
 20
40227.28503138827
 42
0.0107895576017992
 10
-14093.29515121231
 20
40227.01881617858
 10
-14093.29588410181
 20
40227.01732194598
 42
0.0091371507171016
 10
-14093.42436405043
 20
40226.74279674829
 10
-14093.45410968187
 20
40226.67609024106
 42
0.0135418326412914
 10
-14093.62582362095
 20
40226.26115245577
 10
-14093.65942842934
 20
40226.17328631361
 42
0.0092834542292629
 10
-14093.8306574893
 20
40225.69938781521
 10
-14093.85627461708
 20
40225.62414674521
 42
0.0054261043735976
 10
-14093.96391276531
 20
40225.29638277235
 10
-14093.98143875122
 20
40225.24099461095
 42
0.0008225090813134
 10
-14094.05010880331
 20
40225.02272585197
 10
-14095.03479793525
 20
40221.99783455872
 10
-14091.80217409517
 20
40221.99783455872
 10
-14092.30636652503
 20
40220.09335626036
 10
-14095.56242280701
 20
40220.09335626036
 10
-14101.39157183936
 20
40201.28013319436
 10
-14103.21666944968
 20
40201.28013319436
 10
-14097.38199141417
 20
40220.09335626036
 10
-14099.78710778322
 20
40220.09335626036
 10
-14099.28291535336
 20
40221.99783455872
 10
-14096.85436654241
 20
40221.99783455872
 10
-14095.99421162422
 20
40224.63424755941
 42
-0.0005863560734638
 10
-14095.95747694613
 20
40224.75107397936
 10
-14095.88138911236
 20
40224.99206627909
 42
-0.0087522378886984
 10
-14095.68192096892
 20
40225.58734236619
 10
-14095.58965669349
 20
40225.84748253473
 42
-0.0077400953879836
 10
-14095.33172303435
 20
40226.5404872123
 10
-14095.31595806278
 20
40226.58091809568
 42
-0.008236994635514
 10
-14095.06887359216
 20
40227.18499716188
 42
-0.008572523844493
 10
-14094.80162749618
 20
40227.78042320114
 10
-14094.69999789519
 20
40227.99684430307
 42
-0.0168109410582052
 10
-14094.41305346643
 20
40228.55805182926
 10
-14094.28721007506
 20
40228.78501586388
 42
-0.000781772643447
 10
-14094.23292572591
 20
40228.88256010728
 10
-14094.23279742003
 20
40228.88278981577
 42
-0.0036626142427524
 10
-14094.17790955587
 20
40228.97938769599
 42
-0.0080221150507938
 10
-14094.12078530047
 20
40229.07466693073
 10
-14094.0900853491
 20
40229.12405787986
 42
-0.0202139325730178
 10
-14093.96242960933
 20
40229.31203948051
 10
-14093.90836214411
 20
40229.38511834478
 42
-0.0249323791831062
 10
-14093.64919935037
 20
40229.70116358696
 10
-14093.62505953626
 20
40229.72777785985
 42
-0.0242132121567669
 10
-14093.28537879463
 20
40230.06766134614
 10
-14093.23746722197
 20
40230.11117048223
 42
-0.0251017527904898
 10
-14092.95348552133
 20
40230.344163228
 10
-14092.95204004457
 20
40230.34523248553
 42
-0.0130868069134304
 10
-14092.65377939456
 20
40230.55401295413
 10
-14092.65221757535
 20
40230.55504639444
 42
-0.0290329526380801
 10
-14092.34110643402
 20
40230.73587189603
 10
-14092.31126087215
 20
40230.75097427882
 42
-0.016025019010493
 10
-14092.04535645827
 20
40230.87499038909
 42
-0.0267600374642777
 10
-14091.77008038073
 20
40230.97573870966
 10
-14091.74334446128
 20
40230.98393126846
 42
-0.0049981586642394
 10
-14091.68817131599
 20
40231.00023646878
 42
-0.0049981586642394
  0
LWPOLYLINE
  5
68
330
23
100
AcDbEntity
  8
0
  6
Continuous
 62
     7
370
    15
390
1D
100
AcDbPolyline
 90
      118
 70
   128
 43
0.0
 10
-14071.87380375155
 20
40221.92385123089
 10
-14069.99868182705
 20
40221.92385123089
 10
-14070.83672073265
 20
40219.24228470449
 42
-0.0010587228954634
 10
-14070.80526491814
 20
40219.27918923659
 10
-14070.74707082644
 20
40219.34717149402
 42
-0.0071874740652817
 10
-14070.59669560841
 20
40219.51781218597
 10
-14070.45497283508
 20
40219.67404832736
 42
-0.014811805349289
 10
-14070.00484354228
 20
40220.14166217346
 10
-14069.91762120762
 20
40220.22705949408
 42
-0.0086273358702115
 10
-14069.58207240646
 20
40220.54443512824
 10
-14069.53823869028
 20
40220.58448477254
 42
-0.0103138323087585
 10
-14069.280214988
 20
40220.81064790991
 10
-14069.23444058181
 20
40220.84912995706
 42
-0.0060206748577241
 10
-14069.06159251756
 20
40220.99092460793
 10
-14069.05956138669
 20
40220.99255031355
 42
-0.0067069027336423
 10
-14068.88726857201
 20
40221.12670094735
 10
-14068.8847198061
 20
40221.12863111722
 42
-0.0076184352093153
 10
-14068.71381454022
 20
40221.25400599247
 42
-0.0089652861790476
 10
-14068.53885357745
 20
40221.37363925283
 10
-14068.50250185725
 20
40221.39755046635
 42
-0.0156916245803974
 10
-14068.30654236018
 20
40221.51781295276
 42
-0.0023299011127412
 10
-14068.10628031715
 20
40221.63099089177
 10
-14068.09089618382
 20
40221.63959088737
 42
-0.0107669341336886
 10
-14067.8566593586
 20
40221.76399102078
 10
-14067.83439455764
 20
40221.77520777067
 42
-0.007805804588907
 10
-14067.55080443962
 20
40221.91256922634
 10
-14067.54089735198
 20
40221.91717835418
 42
-0.0181829330549065
 10
-14067.23058794748
 20
40222.04804209522
 10
-14067.17653250469
 20
40222.06855721526
 42
-0.0208411535930956
 10
-14066.82744753735
 20
40222.18464767771
 10
-14066.81309143731
 20
40222.18876612264
 42
-0.0222799817177975
 10
-14066.4843716433
 20
40222.2674076888
 10
-14066.47548268
 20
40222.2691196994
 42
-0.0215509523793302
 10
-14066.15901171178
 20
40222.31603538792
 10
-14066.11652975067
 20
40222.32047291472
 42
-0.0182545924910648
 10
-14065.88242097143
 20
40222.3363167401
 10
-14065.84301995541
 20
40222.33754128517
 42
-0.0072962856645198
 10
-14065.68709707539
 20
40222.3401106137
 10
-14065.65799740437
 20
40222.34016544911
 42
-0.0059227515758272
 10
-14065.56024790568
 20
40222.33919173732
 10
-14065.53100568867
 20
40222.33855397072
 42
-0.0011833112440579
 10
-14065.49175440447
 20
40222.3376049664
 10
-14066.28714100008
 20
40219.7988710213
 42
0.0143932051318866
 10
-14066.31354238224
 20
40219.80906999129
 10
-14066.32081435485
 20
40219.81164121021
 42
0.0234388603949013
 10
-14066.36264522086
 20
40219.82426044594
 10
-14066.37132688369
 20
40219.82644140793
 42
0.0199162742216952
 10
-14066.43161571765
 20
40219.83905814324
 10
-14066.45242965558
 20
40219.84255534269
 42
0.0293643550747328
 10
-14066.55550451443
 20
40219.85370538835
 10
-14066.58018969506
 20
40219.85491700536
 42
0.0214606687031874
 10
-14066.73333061088
 20
40219.85585556578
 10
-14066.74270252183
 20
40219.85551065423
 42
0.016756405446187
 10
-14066.914222713
 20
40219.84343361186
 10
-14066.9226825057
 20
40219.84255227144
 42
0.0137677553052123
 10
-14067.11003581878
 20
40219.81780296293
 10
-14067.11738755847
 20
40219.81662504293
 42
0.0118497261277287
 10
-14067.31788532253
 20
40219.77960769276
 10
-14067.32403532982
 20
40219.77832083002
 42
0.0106421143717663
 10
-14067.53491621704
 20
40219.72948845446
 10
-14067.53982502549
 20
40219.72824111176
 42
0.0099746379618432
 10
-14067.75828349469
 20
40219.66806658344
 10
-14067.81983153482
 20
40219.64978470482
 42
0.0191613675875461
 10
-14068.1558159974
 20
40219.53580732451
 10
-14068.24387577
 20
40219.50212041424
 42
0.0205274080016706
 10
-14068.62918254198
 20
40219.33629200637
 10
-14068.686831824
 20
40219.30862404178
 42
0.0181256912291991
 10
-14068.94510876463
 20
40219.17294022282
 10
-14068.99806414807
 20
40219.14262260954
 42
0.0140709242649627
 10
-14069.14301908258
 20
40219.05412793618
 10
-14069.16926795105
 20
40219.03707111756
 42
0.0086667884564627
 10
-14069.25819411274
 20
40218.97706844957
 42
0.0036408192128608
 10
-14069.34562735068
 20
40218.91488759185
 10
-14069.38085422524
 20
40218.88944664587
 42
0.0052260781222459
 10
-14069.53708292283
 20
40218.77411425909
 10
-14069.55328977889
 20
40218.76188614863
 42
0.0050024435912091
 10
-14069.73929312211
 20
40218.61860358023
 10
-14069.75461127846
 20
40218.60655755791
 42
0.0136138710251017
 10
-14069.96505254664
 20
40218.43159105314
 10
-14069.99872042258
 20
40218.40201208029
 42
0.0172815187000601
 10
-14070.26312396432
 20
40218.1530154076
 10
-14070.26568631009
 20
40218.15042959052
 42
0.0189403858046032
 10
-14070.51626810868
 20
40217.8776243257
 10
-14070.54889960223
 20
40217.83928039419
 42
0.0185044199436495
 10
-14070.74085604118
 20
40217.5960318131
 42
0.0088565243893943
 10
-14070.91931614789
 20
40217.34251539283
 10
-14070.92849412746
 20
40217.32897401318
 42
0.0157195347326239
 10
-14071.11171473376
 20
40217.03945180392
 10
-14071.15779767561
 20
40216.96129960703
 42
0.0095451879739898
 10
-14071.32288322586
 20
40216.66870496448
 10
-14071.33403114477
 20
40216.6480342924
 42
0.0100351706096352
 10
-14071.46607489395
 20
40216.39097873187
 42
0.0086935915404973
 10
-14071.58840604574
 20
40216.12914558648
 10
-14071.59172678716
 20
40216.12170326349
 42
0.0072580174878574
 10
-14071.71207323921
 20
40215.84111127165
 10
-14071.71533487241
 20
40215.83319124588
 42
0.0060005122682928
 10
-14071.83453554063
 20
40215.53358157562
 10
-14071.8377465191
 20
40215.52522004738
 42
0.0049017787026551
 10
-14071.95664667789
 20
40215.20629106696
 10
-14071.95981248434
 20
40215.19753812955
 42
0.0039415167604537
 10
-14072.07924876229
 20
40214.85899606747
 10
-14072.08237986505
 20
40214.84989286626
 42
0.003103583873677
 10
-14072.20318465059
 20
40214.49145300495
 10
-14072.20629469528
 20
40214.48203238311
 42
0.0025070747130178
 10
-14072.32919604673
 20
40214.10338516574
 10
-14072.36648994302
 20
40213.98649350091
 42
0.0029081910312036
 10
-14072.55850824073
 20
40213.37232984292
 10
-14072.59931140935
 20
40213.23910660034
 42
0.0009266453742374
 10
-14072.86772878425
 20
40212.35688213848
 10
-14072.88861625641
 20
40212.28777026082
 42
-0.0005809993683864
 10
-14073.16595293689
 20
40211.37396215455
 10
-14073.23223473506
 20
40211.15647722274
 42
-0.0012018708182581
 10
-14073.37921904459
 20
40210.67831455787
 10
-14073.43153889403
 20
40210.50955542386
 42
-0.0002691059921486
 10
-14073.47510837733
 20
40210.36928779665
 10
-14076.30806427562
 20
40201.28013319436
 10
-14078.1260531676
 20
40201.28013319436
 10
-14071.87380375155
 20
40221.92385123089
  0
SPLINE
  5
69
330
23
100
AcDbEntity
  8
0
  6
Continuous
 62
     7
370
    15
390
1D
100
AcDbSpline
210
0.0
220
0.0
230
1.0
 70
    15
 71
     2
 72
   782
 73
   779
 74
     0
 42
0.000000001
 43
0.000001
 40
0.0
 40
0.0
 40
0.0
 40
1.0
 40
1.0
 40
2.0
 40
2.0
 40
3.0
 40
3.0
 40
4.0
 40
4.0
 40
5.0
 40
5.0
 40
6.0
 40
6.0
 40
7.0
 40
7.0
 40
8.0
 40
8.0
 40
9.0
 40
9.0
 40
10.0
 40
10.0
 40
11.0
 40
11.0
 40
12.0
 40
12.0
 40
13.0
 40
13.0
 40
14.0
 40
14.0
 40
15.0
 40
15.0
 40
16.0
 40
16.0
 40
17.0
 40
17.0
 40
18.0
 40
18.0
 40
19.0
 40
19.0
 40
20.0
 40
20.0
 40
21.0
 40
21.0
 40
22.0
 40
22.0
 40
23.0
 40
23.0
 40
24.0
 40
24.0
 40
25.0
 40
25.0
 40
26.0
 40
26.0
 40
27.0
 40
27.0
 40
28.0
 40
28.0
 40
29.0
 40
29.0
 40
30.0
 40
30.0
 40
31.0
 40
31.0
 40
32.0
 40
32.0
 40
33.0
 40
33.0
 40
34.0
 40
34.0
 40
35.0
 40
35.0
 40
36.0
 40
36.0
 40
37.0
 40
37.0
 40
38.0
 40
38.0
 40
39.0
 40
39.0
 40
40.0
 40
40.0
 40
41.0
 40
41.0
 40
42.0
 40
42.0
 40
43.0
 40
43.0
 40
44.0
 40
44.0
 40
45.0
 40
45.0
 40
46.0
 40
46.0
 40
47.0
 40
47.0
 40
48.0
 40
48.0
 40
49.0
 40
49.0
 40
50.0
 40
50.0
 40
51.0
 40
51.0
 40
52.0
 40
52.0
 40
53.0
 40
53.0
 40
54.0
 40
54.0
 40
55.0
 40
55.0
 40
56.0
 40
56.0
 40
57.0
 40
57.0
 40
58.0
 40
58.0
 40
59.0
 40
59.0
 40
60.0
 40
60.0
 40
61.0
 40
61.0
 40
62.0
 40
62.0
 40
63.0
 40
63.0
 40
64.0
 40
64.0
 40
65.0
 40
65.0
 40
66.0
 40
66.0
 40
67.0
 40
67.0
 40
68.0
 40
68.0
 40
69.0
 40
69.0
 40
70.0
 40
70.0
 40
71.0
 40
71.0
 40
72.0
 40
72.0
 40
73.0
 40
73.0
 40
74.0
 40
74.0
 40
75.0
 40
75.0
 40
76.0
 40
76.0
 40
77.0
 40
77.0
 40
78.0
 40
78.0
 40
79.0
 40
79.0
 40
80.0
 40
80.0
 40
81.0
 40
81.0
 40
82.0
 40
82.0
 40
83.0
 40
83.0
 40
84.0
 40
84.0
 40
85.0
 40
85.0
 40
86.0
 40
86.0
 40
87.0
 40
87.0
 40
88.0
 40
88.0
 40
89.0
 40
89.0
 40
90.0
 40
90.0
 40
91.0
 40
91.0
 40
92.0
 40
92.0
 40
93.0
 40
93.0
 40
94.0
 40
94.0
 40
95.0
 40
95.0
 40
96.0
 40
96.0
 40
97.0
 40
97.0
 40
98.0
 40
98.0
 40
99.0
 40
99.0
 40
100.0
 40
100.0
 40
101.0
 40
101.0
 40
102.0
 40
102.0
 40
103.0
 40
103.0
 40
104.0
 40
104.0
 40
105.0
 40
105.0
 40
106.0
 40
106.0
 40
107.0
 40
107.0
 40
108.0
 40
108.0
 40
109.0
 40
109.0
 40
110.0
 40
110.0
 40
111.0
 40
111.0
 40
112.0
 40
112.0
 40
113.0
 40
113.0
 40
114.0
 40
114.0
 40
115.0
 40
115.0
 40
116.0
 40
116.0
 40
117.0
 40
117.0
 40
118.0
 40
118.0
 40
119.0
 40
119.0
 40
120.0
 40
120.0
 40
121.0
 40
121.0
 40
122.0
 40
122.0
 40
123.0
 40
123.0
 40
124.0
 40
124.0
 40
125.0
 40
125.0
 40
126.0
 40
126.0
 40
127.0
 40
127.0
 40
128.0
 40
128.0
 40
129.0
 40
129.0
 40
130.0
 40
130.0
 40
131.0
 40
131.0
 40
132.0
 40
132.0
 40
133.0
 40
133.0
 40
134.0
 40
134.0
 40
135.0
 40
135.0
 40
136.0
 40
136.0
 40
137.0
 40
137.0
 40
138.0
 40
138.0
 40
139.0
 40
139.0
 40
140.0
 40
140.0
 40
141.0
 40
141.0
 40
142.0
 40
142.0
 40
143.0
 40
143.0
 40
144.0
 40
144.0
 40
145.0
 40
145.0
 40
146.0
 40
146.0
 40
147.0
 40
147.0
 40
148.0
 40
148.0
 40
149.0
 40
149.0
 40
150.0
 40
150.0
 40
151.0
 40
151.0
 40
152.0
 40
152.0
 40
153.0
 40
153.0
 40
154.0
 40
154.0
 40
155.0
 40
155.0
 40
156.0
 40
156.0
 40
157.0
 40
157.0
 40
158.0
 40
158.0
 40
159.0
 40
159.0
 40
160.0
 40
160.0
 40
161.0
 40
161.0
 40
162.0
 40
162.0
 40
163.0
 40
163.0
 40
164.0
 40
164.0
 40
165.0
 40
165.0
 40
166.0
 40
166.0
 40
167.0
 40
167.0
 40
168.0
 40
168.0
 40
169.0
 40
169.0
 40
170.0
 40
170.0
 40
171.0
 40
171.0
 40
172.0
 40
172.0
 40
173.0
 40
173.0
 40
174.0
 40
174.0
 40
175.0
 40
175.0
 40
176.0
 40
176.0
 40
177.0
 40
177.0
 40
178.0
 40
178.0
 40
179.0
 40
179.0
 40
180.0
 40
180.0
 40
181.0
 40
181.0
 40
182.0
 40
182.0
 40
183.0
 40
183.0
 40
184.0
 40
184.0
 40
185.0
 40
185.0
 40
186.0
 40
186.0
 40
187.0
 40
187.0
 40
188.0
 40
188.0
 40
189.0
 40
189.0
 40
190.0
 40
190.0
 40
191.0
 40
191.0
 40
192.0
 40
192.0
 40
193.0
 40
193.0
 40
194.0
 40
194.0
 40
195.0
 40
195.0
 40
196.0
 40
196.0
 40
197.0
 40
197.0
 40
198.0
 40
198.0
 40
199.0
 40
199.0
 40
200.0
 40
200.0
 40
201.0
 40
201.0
 40
202.0
 40
202.0
 40
203.0
 40
203.0
 40
204.0
 40
204.0
 40
205.0
 40
205.0
 40
206.0
 40
206.0
 40
207.0
 40
207.0
 40
208.0
 40
208.0
 40
209.0
 40
209.0
 40
210.0
 40
210.0
 40
211.0
 40
211.0
 40
212.0
 40
212.0
 40
213.0
 40
213.0
 40
214.0
 40
214.0
 40
215.0
 40
215.0
 40
216.0
 40
216.0
 40
217.0
 40
217.0
 40
218.0
 40
218.0
 40
219.0
 40
219.0
 40
220.0
 40
220.0
 40
221.0
 40
221.0
 40
222.0
 40
222.0
 40
223.0
 40
223.0
 40
224.0
 40
224.0
 40
225.0
 40
225.0
 40
226.0
 40
226.0
 40
227.0
 40
227.0
 40
228.0
 40
228.0
 40
229.0
 40
229.0
 40
230.0
 40
230.0
 40
231.0
 40
231.0
 40
232.0
 40
232.0
 40
233.0
 40
233.0
 40
234.0
 40
234.0
 40
235.0
 40
235.0
 40
236.0
 40
236.0
 40
237.0
 40
237.0
 40
238.0
 40
238.0
 40
239.0
 40
239.0
 40
240.0
 40
240.0
 40
241.0
 40
241.0
 40
242.0
 40
242.0
 40
243.0
 40
243.0
 40
244.0
 40
244.0
 40
245.0
 40
245.0
 40
246.0
 40
246.0
 40
247.0
 40
247.0
 40
248.0
 40
248.0
 40
249.0
 40
249.0
 40
250.0
 40
250.0
 40
251.0
 40
251.0
 40
252.0
 40
252.0
 40
253.0
 40
253.0
 40
254.0
 40
254.0
 40
255.0
 40
255.0
 40
256.0
 40
256.0
 40
257.0
 40
257.0
 40
258.0
 40
258.0
 40
259.0
 40
259.0
 40
260.0
 40
260.0
 40
261.0
 40
261.0
 40
262.0
 40
262.0
 40
263.0
 40
263.0
 40
264.0
 40
264.0
 40
265.0
 40
265.0
 40
266.0
 40
266.0
 40
267.0
 40
267.0
 40
268.0
 40
268.0
 40
269.0
 40
269.0
 40
270.0
 40
270.0
 40
271.0
 40
271.0
 40
272.0
 40
272.0
 40
273.0
 40
273.0
 40
274.0
 40
274.0
 40
275.0
 40
275.0
 40
276.0
 40
276.0
 40
277.0
 40
277.0
 40
278.0
 40
278.0
 40
279.0
 40
279.0
 40
280.0
 40
280.0
 40
281.0
 40
281.0
 40
282.0
 40
282.0
 40
283.0
 40
283.0
 40
284.0
 40
284.0
 40
285.0
 40
285.0
 40
286.0
 40
286.0
 40
287.0
 40
287.0
 40
288.0
 40
288.0
 40
289.0
 40
289.0
 40
290.0
 40
290.0
 40
291.0
 40
291.0
 40
292.0
 40
292.0
 40
293.0
 40
293.0
 40
294.0
 40
294.0
 40
295.0
 40
295.0
 40
296.0
 40
296.0
 40
297.0
 40
297.0
 40
298.0
 40
298.0
 40
299.0
 40
299.0
 40
300.0
 40
300.0
 40
301.0
 40
301.0
 40
302.0
 40
302.0
 40
303.0
 40
303.0
 40
304.0
 40
304.0
 40
305.0
 40
305.0
 40
306.0
 40
306.0
 40
307.0
 40
307.0
 40
308.0
 40
308.0
 40
309.0
 40
309.0
 40
310.0
 40
310.0
 40
311.0
 40
311.0
 40
312.0
 40
312.0
 40
313.0
 40
313.0
 40
314.0
 40
314.0
 40
315.0
 40
315.0
 40
316.0
 40
316.0
 40
317.0
 40
317.0
 40
318.0
 40
318.0
 40
319.0
 40
319.0
 40
320.0
 40
320.0
 40
321.0
 40
321.0
 40
322.0
 40
322.0
 40
323.0
 40
323.0
 40
324.0
 40
324.0
 40
325.0
 40
325.0
 40
326.0
 40
326.0
 40
327.0
 40
327.0
 40
328.0
 40
328.0
 40
329.0
 40
329.0
 40
330.0
 40
330.0
 40
331.0
 40
331.0
 40
332.0
 40
332.0
 40
333.0
 40
333.0
 40
334.0
 40
334.0
 40
335.0
 40
335.0
 40
336.0
 40
336.0
 40
337.0
 40
337.0
 40
338.0
 40
338.0
 40
339.0
 40
339.0
 40
340.0
 40
340.0
 40
341.0
 40
341.0
 40
342.0
 40
342.0
 40
343.0
 40
343.0
 40
344.0
 40
344.0
 40
345.0
 40
345.0
 40
346.0
 40
346.0
 40
347.0
 40
347.0
 40
348.0
 40
348.0
 40
349.0
 40
349.0
 40
350.0
 40
350.0
 40
351.0
 40
351.0
 40
352.0
 40
352.0
 40
353.0
 40
353.0
 40
354.0
 40
354.0
 40
355.0
 40
355.0
 40
356.0
 40
356.0
 40
357.0
 40
357.0
 40
358.0
 40
358.0
 40
359.0
 40
359.0
 40
360.0
 40
360.0
 40
361.0
 40
361.0
 40
362.0
 40
362.0
 40
363.0
 40
363.0
 40
364.0
 40
364.0
 40
365.0
 40
365.0
 40
366.0
 40
366.0
 40
367.0
 40
367.0
 40
368.0
 40
368.0
 40
369.0
 40
369.0
 40
370.0
 40
370.0
 40
371.0
 40
371.0
 40
372.0
 40
372.0
 40
373.0
 40
373.0
 40
374.0
 40
374.0
 40
375.0
 40
375.0
 40
376.0
 40
376.0
 40
377.0
 40
377.0
 40
378.0
 40
378.0
 40
379.0
 40
379.0
 40
380.0
 40
380.0
 40
381.0
 40
381.0
 40
382.0
 40
382.0
 40
383.0
 40
383.0
 40
384.0
 40
384.0
 40
385.0
 40
385.0
 40
386.0
 40
386.0
 40
387.0
 40
387.0
 40
388.0
 40
388.0
 40
389.0
 40
389.0
 40
389.0
 10
-14061.54509930081
 20
40221.93477759424
 30
0.0
 41
1.0
 10
-14060.72667519209
 20
40221.93477759424
 30
0.0
 41
1.0
 10
-14059.90825108337
 20
40221.93477759424
 30
0.0
 41
1.0
 10
-14060.32200481889
 20
40220.59215133
 30
0.0
 41
1.0
 10
-14060.73575855441
 20
40219.24952506574
 30
0.0
 41
1.0
 10
-14060.7174190596
 20
40219.2782258381
 30
0.0
 41
0.9999957264347068
 10
-14060.69891206285
 20
40219.30681888813
 30
0.0
 41
1.0
 10
-14060.66848273849
 20
40219.35383176684
 30
0.0
 41
1.0
 10
-14060.63805341413
 20
40219.40084464556
 30
0.0
 41
1.0
 10
-14060.55868776898
 20
40219.52346345253
 30
0.0
 41
0.9995394069078268
 10
-14060.47202937743
 20
40219.64104151427
 30
0.0
 41
1.0
 10
-14060.43627251522
 20
40219.6895564068
 30
0.0
 41
1.0
 10
-14060.400515653
 20
40219.73807129934
 30
0.0
 41
1.0
 10
-14060.26678898515
 20
40219.91951157452
 30
0.0
 41
0.9994460617140271
 10
-14060.12128850385
 20
40220.09165397217
 30
0.0
 41
1.0
 10
-14060.11690032284
 20
40220.0968456526
 30
0.0
 41
1.0
 10
-14060.11251214182
 20
40220.10203733303
 30
0.0
 41
1.0
 10
-14059.97578802255
 20
40220.26379636984
 30
0.0
 41
0.9994359394938356
 10
-14059.82851379221
 20
40220.41601257099
 30
0.0
 41
1.0
 10
-14059.82613043828
 20
40220.41847590134
 30
0.0
 41
1.0
 10
-14059.82374708435
 20
40220.42093923169
 30
0.0
 41
1.0
 10
-14059.6812395619
 20
40220.56822877211
 30
0.0
 41
0.999529368857036
 10
-14059.52996788088
 20
40220.70650198431
 30
0.0
 41
1.0
 10
-14059.51067412162
 20
40220.72413786995
 30
0.0
 41
1.0
 10
-14059.49138036236
 20
40220.7417737556
 30
0.0
 41
1.0
 10
-14059.3786961999
 20
40220.84477519648
 30
0.0
 41
0.9997087614801452
 10
-14059.26117331094
 20
40220.94221947728
 30
0.0
 41
1.0
 10
-14059.24200723763
 20
40220.95811105589
 30
0.0
 41
1.0
 10
-14059.22284116432
 20
40220.97400263452
 30
0.0
 41
1.0
 10
-14059.14365042185
 20
40221.03966375818
 30
0.0
 41
0.9999595338700585
 10
-14059.06329115113
 20
40221.10388948873
 30
0.0
 41
1.0
 10
-14058.98293188037
 20
40221.16811521931
 30
0.0
 41
0.9999749417504887
 10
-14058.90167134611
 20
40221.23119677319
 30
0.0
 41
1.0
 10
-14058.88068519978
 20
40221.24748806062
 30
0.0
 41
1.0
 10
-14058.85969905344
 20
40221.26377934806
 30
0.0
 41
1.0
 10
-14058.77513116836
 20
40221.32942835773
 30
0.0
 41
0.9999792037125469
 10
-14058.68972356853
 20
40221.39398113942
 30
0.0
 41
1.0
 10
-14058.66889874309
 20
40221.40972096132
 30
0.0
 41
1.0
 10
-14058.64807391766
 20
40221.42546078322
 30
0.0
 41
1.0
 10
-14058.60431596886
 20
40221.458533921
 30
0.0
 41
0.9999993373881059
 10
-14058.56063428262
 20
40221.49170771649
 30
0.0
 41
1.0
 10
-14058.51695259648
 20
40221.52488151191
 30
0.0
 41
0.9999160953817922
 10
-14058.47242618549
 20
40221.55691257716
 30
0.0
 41
1.0
 10
-14058.4396042981
 20
40221.58052373272
 30
0.0
 41
1.0
 10
-14058.40678241072
 20
40221.60413488829
 30
0.0
 41
1.0
 10
-14058.29661222498
 20
40221.68338826464
 30
0.0
 41
0.998096452722625
 10
-14058.17752323148
 20
40221.7484757375
 30
0.0
 41
1.0
 10
-14058.14049062455
 20
40221.76871571709
 30
0.0
 41
1.0
 10
-14058.10345801763
 20
40221.78895569668
 30
0.0
 41
1.0
 10
-14057.92413100434
 20
40221.88696594739
 30
0.0
 41
0.998457281057606
 10
-14057.73504243797
 20
40221.96448820875
 30
0.0
 41
1.0
 10
-14057.73139616855
 20
40221.96598310109
 30
0.0
 41
1.0
 10
-14057.72774989913
 20
40221.96747799344
 30
0.0
 41
1.0
 10
-14057.54595387157
 20
40222.0420104701
 30
0.0
 41
0.9987838528040718
 10
-14057.35770121305
 20
40222.09827611025
 30
0.0
 41
1.0
 10
-14057.35346326385
 20
40222.09954276394
 30
0.0
 41
1.0
 10
-14057.34922531466
 20
40222.10080941763
 30
0.0
 41
1.0
 10
-14057.16944855449
 20
40222.15454175042
 30
0.0
 41
0.9990652816211005
 10
-14056.98570262277
 20
40222.19254542996
 30
0.0
 41
1.0
 10
-14056.98051422177
 20
40222.19361853307
 30
0.0
 41
1.0
 10
-14056.97532582076
 20
40222.19469163617
 30
0.0
 41
1.0
 10
-14056.80195669108
 20
40222.2305491095
 30
0.0
 41
0.999290993427381
 10
-14056.6263809246
 20
40222.25325954197
 30
0.0
 41
1.0
 10
-14056.45080515816
 20
40222.27596997443
 30
0.0
 41
0.9994553539441525
 10
-14056.2741137251
 20
40222.28704927863
 30
0.0
 41
1.0
 10
-14056.23867931729
 20
40222.28927116668
 30
0.0
 41
1.0
 10
-14056.20324490948
 20
40222.29149305473
 30
0.0
 41
1.0
 10
-14056.0370191429
 20
40222.30191611715
 30
0.0
 41
0.9990928098288812
 10
-14055.87050935099
 20
40222.29815647591
 30
0.0
 41
1.0
 10
-14055.83194751587
 20
40222.29728578439
 30
0.0
 41
1.0
 10
-14055.79338568076
 20
40222.29641509285
 30
0.0
 41
1.0
 10
-14055.70399955924
 20
40222.29439683469
 30
0.0
 41
0.999838208919822
 10
-14055.6147438763
 20
40222.28916470816
 30
0.0
 41
1.0
 10
-14055.61431397006
 20
40222.28913950725
 30
0.0
 41
1.0
 10
-14055.61388406383
 20
40222.28911430635
 30
0.0
 41
1.0
 10
-14055.52548819349
 20
40222.28393258162
 30
0.0
 41
0.9997558016759833
 10
-14055.43740761631
 20
40222.27485006626
 30
0.0
 41
1.0
 10
-14055.4369314779
 20
40222.27480096878
 30
0.0
 41
1.0
 10
-14055.43645533949
 20
40222.27475187129
 30
0.0
 41
1.0
 10
-14055.34932703913
 20
40222.26576755089
 30
0.0
 41
0.9996565144180164
 10
-14055.26278918577
 20
40222.2522302442
 30
0.0
 41
1.0
 10
-14055.26232326048
 20
40222.25215735848
 30
0.0
 41
1.0
 10
-14055.26185733519
 20
40222.25208447277
 30
0.0
 41
1.0
 10
-14055.17625133251
 20
40222.23869293754
 30
0.0
 41
0.9995321806854286
 10
-14055.0916242521
 20
40222.22009244908
 30
0.0
 41
1.0
 10
-14055.09123505749
 20
40222.22000690661
 30
0.0
 41
1.0
 10
-14055.09084586287
 20
40222.21992136414
 30
0.0
 41
1.0
 10
-14055.00699717174
 20
40222.20149196064
 30
0.0
 41
0.9993819199224634
 10
-14054.92465063757
 20
40222.17721657739
 30
0.0
 41
1.0
 10
-14054.92441220408
 20
40222.17714628828
 30
0.0
 41
1.0
 10
-14054.92417377059
 20
40222.17707599917
 30
0.0
 41
1.0
 10
-14054.84230410338
 20
40222.15294119413
 30
0.0
 41
0.9992088568493225
 10
-14054.76261158439
 20
40222.12237595834
 30
0.0
 41
1.0
 10
-14054.68293059351
 20
40222.09181635761
 30
0.0
 41
0.9990226101773471
 10
-14054.6062599236
 20
40222.05433892599
 30
0.0
 41
1.0
 10
-14054.52960078186
 20
40222.01686712947
 30
0.0
 41
0.9988424273956771
 10
-14054.45689715469
 20
40221.97220235424
 30
0.0
 41
1.0
 10
-14054.45662944626
 20
40221.97203789014
 30
0.0
 41
1.0
 10
-14054.45636173783
 20
40221.97187342604
 30
0.0
 41
1.0
 10
-14054.38312269383
 20
40221.92687972262
 30
0.0
 41
0.9986928844502521
 10
-14054.3148598271
 20
40221.87464398833
 30
0.0
 41
1.0
 10
-14054.3142785349
 20
40221.87419917512
 30
0.0
 41
1.0
 10
-14054.31369724271
 20
40221.87375436191
 30
0.0
 41
1.0
 10
-14054.24427179156
 20
40221.82062900118
 30
0.0
 41
0.9986007262258234
 10
-14054.18084562182
 20
40221.76046823151
 30
0.0
 41
1.0
 10
-14054.17995120635
 20
40221.75961986366
 30
0.0
 41
1.0
 10
-14054.17905679087
 20
40221.75877149581
 30
0.0
 41
1.0
 10
-14054.11384179018
 20
40221.69691399044
 30
0.0
 41
0.9985581491340789
 10
-14054.05563417848
 20
40221.62842150016
 30
0.0
 41
1.0
 10
-14054.04637572489
 20
40221.61752714246
 30
0.0
 41
1.0
 10
-14054.03711727129
 20
40221.60663278477
 30
0.0
 41
1.0
 10
-14053.9603927524
 20
40221.51635157909
 30
0.0
 41
0.9970460233523397
 10
-14053.89840085125
 20
40221.41538449491
 30
0.0
 41
1.0
 10
-14053.88393148617
 20
40221.39181803584
 30
0.0
 41
1.0
 10
-14053.8694621211
 20
40221.36825157677
 30
0.0
 41
1.0
 10
-14053.82972542108
 20
40221.30353185273
 30
0.0
 41
0.9988468816611467
 10
-14053.79637905032
 20
40221.23529940029
 30
0.0
 41
1.0
 10
-14053.78934302784
 20
40221.22090247917
 30
0.0
 41
1.0
 10
-14053.78230700535
 20
40221.20650555805
 30
0.0
 41
1.0
 10
-14053.76303267957
 20
40221.16706694788
 30
0.0
 41
0.9998431189988356
 10
-14053.74516735207
 20
40221.12697039342
 30
0.0
 41
1.0
 10
-14053.72730202413
 20
40221.08687383796
 30
0.0
 41
0.9999989989979386
 10
-14053.70932330121
 20
40221.04682800151
 30
0.0
 41
1.0
 10
-14053.70315098959
 20
40221.03307978464
 30
0.0
 41
1.0
 10
-14053.69697867797
 20
40221.01933156778
 30
0.0
 41
1.0
 10
-14053.66665533137
 20
40220.95178929658
 30
0.0
 41
0.9998790356330076
 10
-14053.6384474512
 20
40220.88333654458
 30
0.0
 41
1.0
 10
-14053.63161226995
 20
40220.86674944322
 30
0.0
 41
1.0
 10
-14053.62477708869
 20
40220.85016234187
 30
0.0
 41
1.0
 10
-14053.60121942628
 20
40220.79299438689
 30
0.0
 41
0.9998227574565958
 10
-14053.57983067788
 20
40220.73498007861
 30
0.0
 41
1.0
 10
-14053.5584419295
 20
40220.67696577035
 30
0.0
 41
0.9996797971039403
 10
-14053.54001564452
 20
40220.61794365117
 30
0.0
 41
1.0
 10
-14053.5361118418
 20
40220.60543919302
 30
0.0
 41
1.0
 10
-14053.53220803908
 20
40220.59293473487
 30
0.0
 41
1.0
 10
-14053.50597414867
 20
40220.50890369942
 30
0.0
 41
0.9979274938748448
 10
-14053.4907496252
 20
40220.42219934077
 30
0.0
 41
1.0
 10
-14053.48852593794
 20
40220.40953533996
 30
0.0
 41
1.0
 10
-14053.48630225068
 20
40220.39687133916
 30
0.0
 41
1.0
 10
-14053.47537231098
 20
40220.33462483183
 30
0.0
 41
0.9994985982154229
 10
-14053.46840414579
 20
40220.27181133068
 30
0.0
 41
1.0
 10
-14053.46143598061
 20
40220.20899782948
 30
0.0
 41
0.9996372611212085
 10
-14053.45786011485
 20
40220.14590025086
 30
0.0
 41
1.0
 10
-14053.45769153736
 20
40220.14292563377
 30
0.0
 41
1.0
 10
-14053.45752295987
 20
40220.1399510167
 30
0.0
 41
1.0
 10
-14053.45360993912
 20
40220.07090420381
 30
0.0
 41
0.999773063073468
 10
-14053.45264162564
 20
40220.0017533799
 30
0.0
 41
1.0
 10
-14053.45258451922
 20
40219.99767520072
 30
0.0
 41
1.0
 10
-14053.4525274128
 20
40219.99359702153
 30
0.0
 41
1.0
 10
-14053.45144488648
 20
40219.9162898392
 30
0.0
 41
0.9998772614071506
 10
-14053.45278497321
 20
40219.83898669262
 30
0.0
 41
1.0
 10
-14053.45287423641
 20
40219.8338375288
 30
0.0
 41
1.0
 10
-14053.45296349961
 20
40219.82868836499
 30
0.0
 41
1.0
 10
-14053.45448211274
 20
40219.74108689075
 30
0.0
 41
0.9999415567329674
 10
-14053.45789442297
 20
40219.65353872941
 30
0.0
 41
1.0
 10
-14053.45813574365
 20
40219.64734726951
 30
0.0
 41
1.0
 10
-14053.45837706433
 20
40219.6411558096
 30
0.0
 41
1.0
 10
-14053.46227201595
 20
40219.54122472816
 30
0.0
 41
0.9999716810434969
 10
-14053.46767059907
 20
40219.44136358988
 30
0.0
 41
1.0
 10
-14053.47088339785
 20
40219.38193434024
 30
0.0
 41
1.0
 10
-14053.47409619664
 20
40219.3225050906
 30
0.0
 41
1.0
 10
-14053.48217010579
 20
40219.17315668932
 30
0.0
 41
0.9999819129905719
 10
-14053.49203989739
 20
40219.02391621191
 30
0.0
 41
1.0
 10
-14053.50190968901
 20
40218.8746757342
 30
0.0
 41
1.0
 10
-14053.50434900958
 20
40218.83748268835
 30
0.0
 41
1.0
 10
-14053.48165077575
 20
40218.87622368567
 30
0.0
 41
0.9999982128106567
 10
-14053.45880621742
 20
40218.91487857891
 30
0.0
 41
1.0
 10
-14053.43189665732
 20
40218.96041179333
 30
0.0
 41
1.0
 10
-14053.40498709722
 20
40219.00594500775
 30
0.0
 41
1.0
 10
-14053.32832341868
 20
40219.13566632982
 30
0.0
 41
0.9998609190061913
 10
-14053.24737610576
 20
40219.26275871185
 30
0.0
 41
1.0
 10
-14053.21772778439
 20
40219.30930844464
 30
0.0
 41
1.0
 10
-14053.18807946301
 20
40219.35585817743
 30
0.0
 41
1.0
 10
-14053.10580724267
 20
40219.48503074759
 30
0.0
 41
0.9999067609732707
 10
-14053.02003823317
 20
40219.61190843709
 30
0.0
 41
1.0
 10
-14053.01763352986
 20
40219.6154657033
 30
0.0
 41
1.0
 10
-14053.01522882656
 20
40219.6190229695
 30
0.0
 41
1.0
 10
-14052.9342692236
 20
40219.73878612668
 30
0.0
 41
0.9998784952154097
 10
-14052.84961561402
 20
40219.85596734325
 30
0.0
 41
1.0
 10
-14052.76496200443
 20
40219.97314855984
 30
0.0
 41
0.9998532968274367
 10
-14052.67634438369
 20
40220.08736146819
 30
0.0
 41
1.0
 10
-14052.65638259464
 20
40220.11308878929
 30
0.0
 41
1.0
 10
-14052.63642080559
 20
40220.13881611039
 30
0.0
 41
1.0
 10
-14052.51793675579
 20
40220.29152172141
 30
0.0
 41
0.9991551975793072
 10
-14052.38731230615
 20
40220.43398128352
 30
0.0
 41
1.0
 10
-14052.38380269012
 20
40220.4378088852
 30
0.0
 41
1.0
 10
-14052.38029307409
 20
40220.44163648687
 30
0.0
 41
1.0
 10
-14052.25668785649
 20
40220.57644084563
 30
0.0
 41
0.9997418144181218
 10
-14052.12708571683
 20
40220.70549025621
 30
0.0
 41
1.0
 10
-14051.99748357716
 20
40220.83453966679
 30
0.0
 41
0.9989238204626584
 10
-14051.85648102891
 20
40220.95102462883
 30
0.0
 41
1.0
 10
-14051.81123335072
 20
40220.98840462048
 30
0.0
 41
1.0
 10
-14051.76598567252
 20
40221.02578461214
 30
0.0
 41
1.0
 10
-14051.62574561535
 20
40221.14163966539
 30
0.0
 41
0.9990825084095806
 10
-14051.47610568277
 20
40221.24506866321
 30
0.0
 41
1.0
 10
-14051.46606031879
 20
40221.25201187623
 30
0.0
 41
1.0
 10
-14051.4560149548
 20
40221.25895508927
 30
0.0
 41
1.0
 10
-14051.32646575024
 20
40221.348497661
 30
0.0
 41
0.9998164899821814
 10
-14051.19358154679
 20
40221.43301190255
 30
0.0
 41
1.0
 10
-14051.18173598626
 20
40221.44054566909
 30
0.0
 41
1.0
 10
-14051.16989042572
 20
40221.44807943562
 30
0.0
 41
1.0
 10
-14051.06069734342
 20
40221.51752614407
 30
0.0
 41
0.9997473449130602
 10
-14050.94849338617
 20
40221.58199510189
 30
0.0
 41
1.0
 10
-14050.83628942879
 20
40221.64646405977
 30
0.0
 41
0.9999327861148651
 10
-14050.72262081784
 20
40221.70831405156
 30
0.0
 41
1.0
 10
-14050.72206881543
 20
40221.70861441015
 30
0.0
 41
1.0
 10
-14050.72151681303
 20
40221.70891476874
 30
0.0
 41
1.0
 10
-14050.60674419718
 20
40221.77136547777
 30
0.0
 41
0.9996956420486354
 10
-14050.4890308714
 20
40221.82807894472
 30
0.0
 41
1.0
 10
-14050.45859046649
 20
40221.84274492145
 30
0.0
 41
1.0
 10
-14050.42815006157
 20
40221.85741089819
 30
0.0
 41
1.0
 10
-14050.3251729548
 20
40221.90702455665
 30
0.0
 41
0.9998070570178424
 10
-14050.22032656584
 20
40221.95255514357
 30
0.0
 41
1.0
 10
-14050.11548017692
 20
40221.99808573045
 30
0.0
 41
0.9997827436151342
 10
-14050.00882724041
 20
40222.03920690173
 30
0.0
 41
1.0
 10
-14049.98960439072
 20
40222.04661847538
 30
0.0
 41
1.0
 10
-14049.97038154102
 20
40222.05403004904
 30
0.0
 41
1.0
 10
-14049.82528290516
 20
40222.10997436762
 30
0.0
 41
0.9988031841968169
 10
-14049.67541254256
 20
40222.15147443178
 30
0.0
 41
1.0
 10
-14049.65049529421
 20
40222.15837417758
 30
0.0
 41
1.0
 10
-14049.62557804586
 20
40222.16527392338
 30
0.0
 41
1.0
 10
-14049.45830802018
 20
40222.2115920658
 30
0.0
 41
0.9984748040550835
 10
-14049.28695111152
 20
40222.23918629807
 30
0.0
 41
1.0
 10
-14049.28221197526
 20
40222.23994945858
 30
0.0
 41
1.0
 10
-14049.277472839
 20
40222.2407126191
 30
0.0
 41
1.0
 10
-14049.11559420286
 20
40222.26678053034
 30
0.0
 41
0.9984436495480761
 10
-14048.95181945915
 20
40222.27465848415
 30
0.0
 41
1.0
 10
-14048.93012225104
 20
40222.27570217135
 30
0.0
 41
1.0
 10
-14048.90842504293
 20
40222.27674585855
 30
0.0
 41
1.0
 10
-14048.78804471545
 20
40222.28253643798
 30
0.0
 41
0.9987954789333979
 10
-14048.66767647051
 20
40222.27649991024
 30
0.0
 41
1.0
 10
-14048.64771167799
 20
40222.2754986659
 30
0.0
 41
1.0
 10
-14048.62774688547
 20
40222.27449742155
 30
0.0
 41
1.0
 10
-14048.54730822557
 20
40222.27046338249
 30
0.0
 41
0.9997941595876793
 10
-14048.46709944751
 20
40222.26316931657
 30
0.0
 41
1.0
 10
-14048.38689066949
 20
40222.25587525065
 30
0.0
 41
0.9998589466236273
 10
-14048.3069721227
 20
40222.24589139621
 30
0.0
 41
1.0
 10
-14048.27456592082
 20
40222.24184303929
 30
0.0
 41
1.0
 10
-14048.24215971894
 20
40222.23779468235
 30
0.0
 41
1.0
 10
-14048.09742876851
 20
40222.21971411408
 30
0.0
 41
0.9993495063239708
 10
-14047.95437752476
 20
40222.19124840434
 30
0.0
 41
1.0
 10
-14047.92144382759
 20
40222.18469494113
 30
0.0
 41
1.0
 10
-14047.88851013042
 20
40222.1781414779
 30
0.0
 41
1.0
 10
-14047.7792163072
 20
40222.15639314376
 30
0.0
 41
0.9996788715559205
 10
-14047.67116473524
 20
40222.1291353444
 30
0.0
 41
1.0
 10
-14047.66910173272
 20
40222.12861491783
 30
0.0
 41
1.0
 10
-14047.6670387302
 20
40222.12809449126
 30
0.0
 41
1.0
 10
-14047.5631131633
 20
40222.10187754504
 30
0.0
 41
0.9995480654477051
 10
-14047.46095092806
 20
40222.06946258841
 30
0.0
 41
1.0
 10
-14047.4592612859
 20
40222.06892648348
 30
0.0
 41
1.0
 10
-14047.45757164374
 20
40222.06839037856
 30
0.0
 41
1.0
 10
-14047.35878869281
 20
40222.03704763178
 30
0.0
 41
0.9993867959458781
 10
-14047.26244153438
 20
40221.9988682625
 30
0.0
 41
1.0
 10
-14047.26119858536
 20
40221.99837572062
 30
0.0
 41
1.0
 10
-14047.25995563633
 20
40221.99788317875
 30
0.0
 41
1.0
 10
-14047.16609437601
 20
40221.96068889324
 30
0.0
 41
0.9992050256502781
 10
-14047.07549470091
 20
40221.91613499397
 30
0.0
 41
1.0
 10
-14047.0747600182
 20
40221.9157737015
 30
0.0
 41
1.0
 10
-14047.07402533549
 20
40221.91541240905
 30
0.0
 41
1.0
 10
-14046.98489502589
 20
40221.87158109474
 30
0.0
 41
0.9990222350725991
 10
-14046.89998496448
 20
40221.82004782703
 30
0.0
 41
1.0
 10
-14046.89980107921
 20
40221.81993622413
 30
0.0
 41
1.0
 10
-14046.89961719394
 20
40221.81982462123
 30
0.0
 41
1.0
 10
-14046.81507490309
 20
40221.76851455934
 30
0.0
 41
0.9988642743783422
 10
-14046.73580036847
 20
40221.70939037181
 30
0.0
 41
1.0
 10
-14046.65652583388
 20
40221.6502661843
 30
0.0
 41
0.9987681233292643
 10
-14046.58350204961
 20
40221.58357549291
 30
0.0
 41
1.0
 10
-14046.58317312163
 20
40221.58327509167
 30
0.0
 41
1.0
 10
-14046.58284419364
 20
40221.58297469045
 30
0.0
 41
1.0
 10
-14046.50916255344
 20
40221.51568319663
 30
0.0
 41
0.9987496570877258
 10
-14046.44256874808
 20
40221.4413703825
 30
0.0
 41
1.0
 10
-14046.44179657834
 20
40221.44050870916
 30
0.0
 41
1.0
 10
-14046.44102440859
 20
40221.43964703582
 30
0.0
 41
1.0
 10
-14046.37288626374
 20
40221.36361087502
 30
0.0
 41
0.9988147669819831
 10
-14046.31246400954
 20
40221.28130986821
 30
0.0
 41
1.0
 10
-14046.31134468345
 20
40221.27978523684
 30
0.0
 41
1.0
 10
-14046.31022535736
 20
40221.27826060547
 30
0.0
 41
1.0
 10
-14046.24756445099
 20
40221.19291033594
 30
0.0
 41
0.9989452636214383
 10
-14046.19299753801
 20
40221.10217164675
 30
0.0
 41
1.0
 10
-14046.19164881192
 20
40221.09992886573
 30
0.0
 41
1.0
 10
-14046.19030008584
 20
40221.09768608471
 30
0.0
 41
1.0
 10
-14046.13303572072
 20
40221.00246183352
 30
0.0
 41
0.9991046436077436
 10
-14046.0840265074
 20
40220.9027374005
 30
0.0
 41
1.0
 10
-14046.0825626458
 20
40220.89975872042
 30
0.0
 41
1.0
 10
-14046.08109878421
 20
40220.89678004033
 30
0.0
 41
1.0
 10
-14046.02916184772
 20
40220.79109824718
 30
0.0
 41
0.999276383110831
 10
-14045.98540871915
 20
40220.68177418521
 30
0.0
 41
1.0
 10
-14045.98392944949
 20
40220.67807799768
 30
0.0
 41
1.0
 10
-14045.98245017983
 20
40220.67438181014
 30
0.0
 41
1.0
 10
-14045.93573851196
 20
40220.55766537316
 30
0.0
 41
0.9994163472876634
 10
-14045.89710548077
 20
40220.4380317847
 30
0.0
 41
1.0
 10
-14045.89586732851
 20
40220.43419764086
 30
0.0
 41
1.0
 10
-14045.89462917624
 20
40220.43036349703
 30
0.0
 41
1.0
 10
-14045.85474561524
 20
40220.30685743561
 30
0.0
 41
0.9997268055886843
 10
-14045.82067755933
 20
40220.18162240366
 30
0.0
 41
1.0
 10
-14045.81974737906
 20
40220.17820303756
 30
0.0
 41
1.0
 10
-14045.8188171988
 20
40220.17478367146
 30
0.0
 41
1.0
 10
-14045.78660950342
 20
40220.05638737168
 30
0.0
 41
0.9996701319005852
 10
-14045.76052388665
 20
40219.93649341844
 30
0.0
 41
1.0
 10
-14045.73443826988
 20
40219.81659946522
 30
0.0
 41
0.9995785451104413
 10
-14045.71535469254
 20
40219.69539370415
 30
0.0
 41
1.0
 10
-14045.71113491037
 20
40219.66859254939
 30
0.0
 41
1.0
 10
-14045.70691512819
 20
40219.64179139464
 30
0.0
 41
1.0
 10
-14045.68034015225
 20
40219.47300542093
 30
0.0
 41
0.9979925101209778
 10
-14045.67531456633
 20
40219.30221409282
 30
0.0
 41
1.0
 10
-14045.6744897539
 20
40219.2741833694
 30
0.0
 41
1.0
 10
-14045.67366494148
 20
40219.24615264599
 30
0.0
 41
1.0
 10
-14045.6702889804
 20
40219.13142276477
 30
0.0
 41
0.9995314902251979
 10
-14045.67393917254
 20
40219.01670128098
 30
0.0
 41
1.0
 10
-14045.67758936469
 20
40218.90197979717
 30
0.0
 41
0.9996245486954058
 10
-14045.68751845981
 20
40218.78763052604
 30
0.0
 41
1.0
 10
-14045.68768150781
 20
40218.78575276994
 30
0.0
 41
1.0
 10
-14045.6878445558
 20
40218.78387501383
 30
0.0
 41
1.0
 10
-14045.69809974692
 20
40218.66577023046
 30
0.0
 41
0.9997286095005157
 10
-14045.71384507049
 20
40218.54827132151
 30
0.0
 41
1.0
 10
-14045.71423856314
 20
40218.54533489683
 30
0.0
 41
1.0
 10
-14045.71463205579
 20
40218.54239847214
 30
0.0
 41
1.0
 10
-14045.73116436464
 20
40218.41902671397
 30
0.0
 41
0.9998265533961354
 10
-14045.75227982338
 20
40218.29635623912
 30
0.0
 41
1.0
 10
-14045.75295636552
 20
40218.29242586058
 30
0.0
 41
1.0
 10
-14045.75363290767
 20
40218.28849548203
 30
0.0
 41
1.0
 10
-14045.7761014507
 20
40218.15796425009
 30
0.0
 41
0.9999022530854655
 10
-14045.80221091531
 20
40218.02811228146
 30
0.0
 41
1.0
 10
-14045.80318955646
 20
40218.02324513913
 30
0.0
 41
1.0
 10
-14045.80416819762
 20
40218.01837799682
 30
0.0
 41
1.0
 10
-14045.83223494455
 20
40217.87879174346
 30
0.0
 41
0.9999524761932731
 10
-14045.86301791337
 20
40217.73977925035
 30
0.0
 41
1.0
 10
-14045.86429402055
 20
40217.73401649099
 30
0.0
 41
1.0
 10
-14045.86557012774
 20
40217.72825373164
 30
0.0
 41
1.0
 10
-14045.89890531097
 20
40217.57771571969
 30
0.0
 41
0.9999813588709944
 10
-14045.93407631181
 20
40217.42759600686
 30
0.0
 41
1.0
 10
-14045.93563023722
 20
40217.42096341662
 30
0.0
 41
1.0
 10
-14045.93718416264
 20
40217.41433082637
 30
0.0
 41
1.0
 10
-14045.97546301451
 20
40217.2509459322
 30
0.0
 41
0.9999955237677429
 10
-14046.01471889251
 20
40217.08779302849
 30
0.0
 41
1.0
 10
-14046.02700052805
 20
40217.03674883836
 30
0.0
 41
1.0
 10
-14046.03928216359
 20
40216.98570464822
 30
0.0
 41
1.0
 10
-14046.10310131329
 20
40216.72046336175
 30
0.0
 41
0.9999993604391739
 10
-14046.16752026054
 20
40216.45536711069
 30
0.0
 41
1.0
 10
-14046.17223909582
 20
40216.43594820374
 30
0.0
 41
1.0
 10
-14046.17695793111
 20
40216.4165292968
 30
0.0
 41
1.0
 10
-14046.25081454933
 20
40216.1125952302
 30
0.0
 41
0.9999659914727244
 10
-14046.32967414522
 20
40215.80992068361
 30
0.0
 41
1.0
 10
-14046.33462683417
 20
40215.79091154636
 30
0.0
 41
1.0
 10
-14046.33957952311
 20
40215.77190240912
 30
0.0
 41
1.0
 10
-14046.42834449689
 20
40215.4312095881
 30
0.0
 41
0.9999441976028391
 10
-14046.52428752984
 20
40215.09246816285
 30
0.0
 41
1.0
 10
-14046.54098804825
 20
40215.03350445034
 30
0.0
 41
1.0
 10
-14046.55768856667
 20
40214.97454073784
 30
0.0
 41
1.0
 10
-14046.68703263651
 20
40214.51787188741
 30
0.0
 41
0.9999625120734511
 10
-14046.82426540381
 20
40214.06351135351
 30
0.0
 41
1.0
 10
-14046.86005534688
 20
40213.94501532693
 30
0.0
 41
1.0
 10
-14046.89584528995
 20
40213.82651930034
 30
0.0
 41
1.0
 10
-14046.97036549401
 20
40213.57979222219
 30
0.0
 41
0.9999793386308691
 10
-14047.04805151715
 20
40213.3340435829
 30
0.0
 41
1.0
 10
-14047.12573754029
 20
40213.08829494366
 30
0.0
 41
1.0
 10
-14047.13651709916
 20
40213.05427703929
 30
0.0
 41
1.0
 10
-14048.98689015243
 20
40207.16720511683
 30
0.0
 41
1.0
 10
-14050.8372632057
 20
40201.28013319436
 30
0.0
 41
1.0
 10
-14051.79851989572
 20
40201.28013319436
 30
0.0
 41
1.0
 10
-14052.75977658575
 20
40201.28013319436
 30
0.0
 41
1.0
 10
-14051.14083180707
 20
40206.42816169615
 30
0.0
 41
1.0
 10
-14049.52188702839
 20
40211.57619019793
 30
0.0
 41
1.0
 10
-14049.47672120518
 20
40211.72022142031
 30
0.0
 41
1.0
 10
-14049.43155538197
 20
40211.8642526427
 30
0.0
 41
1.0
 10
-14049.26125096471
 20
40212.40734367156
 30
0.0
 41
0.9999911657928908
 10
-14049.095518153
 20
40212.951847203
 30
0.0
 41
1.0
 10
-14049.06582220964
 20
40213.0494111426
 30
0.0
 41
1.0
 10
-14049.03612626628
 20
40213.1469750822
 30
0.0
 41
1.0
 10
-14048.92978534146
 20
40213.49635073391
 30
0.0
 41
0.999995242813946
 10
-14048.82560175199
 20
40213.84637575872
 30
0.0
 41
1.0
 10
-14048.82054228149
 20
40213.86337403356
 30
0.0
 41
1.0
 10
-14048.81548281099
 20
40213.88037230841
 30
0.0
 41
1.0
 10
-14048.72141816263
 20
40214.19640078318
 30
0.0
 41
0.9999931687540765
 10
-14048.6296923248
 20
40214.51311599633
 30
0.0
 41
1.0
 10
-14048.62475706037
 20
40214.53015670548
 30
0.0
 41
1.0
 10
-14048.61982179595
 20
40214.54719741463
 30
0.0
 41
1.0
 10
-14048.53796648691
 20
40214.82983120967
 30
0.0
 41
0.9999893840800822
 10
-14048.45871926046
 20
40215.11320733885
 30
0.0
 41
1.0
 10
-14048.37947203392
 20
40215.3965834684
 30
0.0
 41
0.9999833980086523
 10
-14048.30349579326
 20
40215.68085405114
 30
0.0
 41
1.0
 10
-14048.29449185655
 20
40215.71454292958
 30
0.0
 41
1.0
 10
-14048.28548791984
 20
40215.74823180801
 30
0.0
 41
1.0
 10
-14048.21652337092
 20
40216.00626764049
 30
0.0
 41
0.9999233658063901
 10
-14048.15396839973
 20
40216.26593179911
 30
0.0
 41
1.0
 10
-14048.09141342851
 20
40216.52559595783
 30
0.0
 41
1.0
 10
-14048.05193000966
 20
40216.68940262226
 30
0.0
 41
1.0
 10
-14048.04695140562
 20
40216.71005758438
 30
0.0
 41
1.0
 10
-14048.04197280158
 20
40216.7307125465
 30
0.0
 41
1.0
 10
-14048.01244659074
 20
40216.85320928694
 30
0.0
 41
0.9999868670838251
 10
-14047.9841775068
 20
40216.97600223232
 30
0.0
 41
1.0
 10
-14047.98028001965
 20
40216.99293181972
 30
0.0
 41
1.0
 10
-14047.9763825325
 20
40217.00986140712
 30
0.0
 41
1.0
 10
-14047.95590842284
 20
40217.09879517782
 30
0.0
 41
0.9999778173348508
 10
-14047.93662082469
 20
40217.1879937952
 30
0.0
 41
1.0
 10
-14047.91733322662
 20
40217.27719241224
 30
0.0
 41
0.9999602692866488
 10
-14047.89963886798
 20
40217.36672070069
 30
0.0
 41
1.0
 10
-14047.89643503589
 20
40217.38293115566
 30
0.0
 41
1.0
 10
-14047.89323120379
 20
40217.39914161063
 30
0.0
 41
1.0
 10
-14047.869129181
 20
40217.52109080886
 30
0.0
 41
0.999561798532302
 10
-14047.85228583378
 20
40217.64425255654
 30
0.0
 41
1.0
 10
-14047.84982134388
 20
40217.66227337391
 30
0.0
 41
1.0
 10
-14047.84735685397
 20
40217.68029419128
 30
0.0
 41
1.0
 10
-14047.82707359293
 20
40217.82860924093
 30
0.0
 41
0.9991121410646753
 10
-14047.81934823934
 20
40217.97810533977
 30
0.0
 41
1.0
 10
-14047.81842944931
 20
40217.99588517638
 30
0.0
 41
1.0
 10
-14047.81751065928
 20
40218.01366501299
 30
0.0
 41
1.0
 10
-14047.81162288575
 20
40218.1276014386
 30
0.0
 41
0.9989792494898402
 10
-14047.81604197787
 20
40218.24160427447
 30
0.0
 41
1.0
 10
-14047.81668994974
 20
40218.25832052043
 30
0.0
 41
1.0
 10
-14047.81733792161
 20
40218.27503676638
 30
0.0
 41
1.0
 10
-14047.82046106999
 20
40218.35560711035
 30
0.0
 41
0.9997820295401831
 10
-14047.82694506736
 20
40218.43597683212
 30
0.0
 41
1.0
 10
-14047.83342906475
 20
40218.51634655399
 30
0.0
 41
0.9998335105974053
 10
-14047.84284126025
 20
40218.59642617038
 30
0.0
 41
1.0
 10
-14047.84443618493
 20
40218.60999590083
 30
0.0
 41
1.0
 10
-14047.8460311096
 20
40218.62356563128
 30
0.0
 41
1.0
 10
-14047.85863315446
 20
40218.73078470864
 30
0.0
 41
0.9996876457885924
 10
-14047.87657706726
 20
40218.83724013637
 30
0.0
 41
1.0
 10
-14047.87880873041
 20
40218.85047987166
 30
0.0
 41
1.0
 10
-14047.88104039356
 20
40218.86371960695
 30
0.0
 41
1.0
 10
-14047.89483621498
 20
40218.94556575091
 30
0.0
 41
0.9995547496487708
 10
-14047.91348953687
 20
40219.02644324805
 30
0.0
 41
1.0
 10
-14047.91386349373
 20
40219.02806465873
 30
0.0
 41
1.0
 10
-14047.9142374506
 20
40219.02968606941
 30
0.0
 41
1.0
 10
-14047.93214285875
 20
40219.10732074521
 30
0.0
 41
0.999489942717595
 10
-14047.95496776744
 20
40219.18365402806
 30
0.0
 41
1.0
 10
-14047.95542629418
 20
40219.18518747785
 30
0.0
 41
1.0
 10
-14047.95588482092
 20
40219.18672092764
 30
0.0
 41
1.0
 10
-14047.97779267612
 20
40219.25998731092
 30
0.0
 41
0.9993784877579092
 10
-14048.00480831123
 20
40219.33152801606
 30
0.0
 41
1.0
 10
-14048.0053400022
 20
40219.33293599878
 30
0.0
 41
1.0
 10
-14048.00587169318
 20
40219.3343439815
 30
0.0
 41
1.0
 10
-14048.03182394633
 20
40219.40306872122
 30
0.0
 41
0.9992430832264501
 10
-14048.06304048149
 20
40219.46956787329
 30
0.0
 41
1.0
 10
-14048.06362259755
 20
40219.4708079284
 30
0.0
 41
1.0
 10
-14048.0642047136
 20
40219.47204798352
 30
0.0
 41
1.0
 10
-14048.09425701665
 20
40219.53606702536
 30
0.0
 41
0.9990789632791806
 10
-14048.12968764343
 20
40219.5972736371
 30
0.0
 41
1.0
 10
-14048.13028334961
 20
40219.59830272297
 30
0.0
 41
1.0
 10
-14048.1308790558
 20
40219.59933180884
 30
0.0
 41
1.0
 10
-14048.1651182702
 20
40219.65848024886
 30
0.0
 41
0.9988874801115614
 10
-14048.20477754623
 20
40219.71413996127
 30
0.0
 41
1.0
 10
-14048.20533307229
 20
40219.71491961294
 30
0.0
 41
1.0
 10
-14048.20588859835
 20
40219.71569926461
 30
0.0
 41
1.0
 10
-14048.24443682225
 20
40219.76979967367
 30
0.0
 41
0.9986762060691994
 10
-14048.28833929354
 20
40219.81965338813
 30
0.0
 41
1.0
 10
-14048.28878325387
 20
40219.82015752995
 30
0.0
 41
1.0
 10
-14048.28922721421
 20
40219.82066167177
 30
0.0
 41
1.0
 10
-14048.33224176483
 20
40219.86950710259
 30
0.0
 41
0.998462164246023
 10
-14048.3803993216
 20
40219.91329040304
 30
0.0
 41
1.0
 10
-14048.38064595611
 20
40219.91351463521
 30
0.0
 41
1.0
 10
-14048.38089259063
 20
40219.91373886736
 30
0.0
 41
1.0
 10
-14048.42855687837
 20
40219.95707370351
 30
0.0
 41
0.998272469385656
 10
-14048.48097551022
 20
40219.99451805403
 30
0.0
 41
1.0
 10
-14048.53339414207
 20
40220.03196240456
 30
0.0
 41
0.9981399180149346
 10
-14048.58998020546
 20
40220.062748924
 30
0.0
 41
1.0
 10
-14048.59002586754
 20
40220.06277376715
 30
0.0
 41
1.0
 10
-14048.59007152961
 20
40220.06279861031
 30
0.0
 41
1.0
 10
-14048.64674891713
 20
40220.09363481605
 30
0.0
 41
0.9980927086874537
 10
-14048.70679426818
 20
40220.1172516249
 30
0.0
 41
1.0
 10
-14048.70723443791
 20
40220.11742475079
 30
0.0
 41
1.0
 10
-14048.70767460765
 20
40220.11759787667
 30
0.0
 41
1.0
 10
-14048.76860029816
 20
40220.14156093729
 30
0.0
 41
0.9981411356560241
 10
-14048.83198881957
 20
40220.15793357879
 30
0.0
 41
1.0
 10
-14048.83287093626
 20
40220.15816142099
 30
0.0
 41
1.0
 10
-14048.83375305294
 20
40220.15838926319
 30
0.0
 41
1.0
 10
-14048.89890580774
 20
40220.1752175891
 30
0.0
 41
0.9983031812976115
 10
-14048.96557323673
 20
40220.18435695028
 30
0.0
 41
1.0
 10
-14048.97444426214
 20
40220.18557306896
 30
0.0
 41
1.0
 10
-14048.98331528755
 20
40220.18678918762
 30
0.0
 41
1.0
 10
-14049.03766493005
 20
40220.19423991761
 30
0.0
 41
0.998388770825975
 10
-14049.09250877934
 20
40220.19548459124
 30
0.0
 41
1.0
 10
-14049.1005721845
 20
40220.19566758911
 30
0.0
 41
1.0
 10
-14049.10863558966
 20
40220.19585058699
 30
0.0
 41
1.0
 10
-14049.14735262857
 20
40220.19672926488
 30
0.0
 41
0.9998869563077729
 10
-14049.18607858184
 20
40220.19644339551
 30
0.0
 41
1.0
 10
-14049.2248045362
 20
40220.19615752615
 30
0.0
 41
0.999997232012996
 10
-14049.26352871658
 20
40220.1956894266
 30
0.0
 41
1.0
 10
-14049.28288173199
 20
40220.19545548653
 30
0.0
 41
1.0
 10
-14049.30223474741
 20
40220.19522154646
 30
0.0
 41
1.0
 10
-14049.37966495978
 20
40220.19428556674
 30
0.0
 41
0.9997304945093256
 10
-14049.45696826601
 20
40220.18975647296
 30
0.0
 41
1.0
 10
-14049.46601790772
 20
40220.18922626697
 30
0.0
 41
1.0
 10
-14049.47506754943
 20
40220.18869606098
 30
0.0
 41
1.0
 10
-14049.57047013918
 20
40220.1831065552
 30
0.0
 41
0.999788830641085
 10
-14049.66556247511
 20
40220.1736015907
 30
0.0
 41
1.0
 10
-14049.67428353659
 20
40220.17272987608
 30
0.0
 41
1.0
 10
-14049.68300459806
 20
40220.17185816146
 30
0.0
 41
1.0
 10
-14049.79553905704
 20
40220.16060976771
 30
0.0
 41
0.9984170238167872
 10
-14049.90609820437
 20
40220.13679368577
 30
0.0
 41
1.0
 10
-14049.94247933536
 20
40220.12895664996
 30
0.0
 41
1.0
 10
-14049.97886046636
 20
40220.12111961416
 30
0.0
 41
1.0
 10
-14050.09405153479
 20
40220.09630574765
 30
0.0
 41
0.9976592854181063
 10
-14050.2047797012
 20
40220.0560070705
 30
0.0
 41
1.0
 10
-14050.31550786766
 20
40220.01570839333
 30
0.0
 41
0.9993255074346639
 10
-14050.4229796665
 20
40219.96739149481
 30
0.0
 41
1.0
 10
-14050.42760484537
 20
40219.96531211864
 30
0.0
 41
1.0
 10
-14050.43223002424
 20
40219.96323274246
 30
0.0
 41
1.0
 10
-14050.54895218093
 20
40219.91075709154
 30
0.0
 41
0.9976475078290172
 10
-14050.65739952527
 20
40219.84280910186
 30
0.0
 41
1.0
 10
-14050.6757419194
 20
40219.83131662305
 30
0.0
 41
1.0
 10
-14050.69408431354
 20
40219.81982414424
 30
0.0
 41
1.0
 10
-14050.77828650502
 20
40219.76706702351
 30
0.0
 41
0.9995131336393129
 10
-14050.85903421997
 20
40219.70916081156
 30
0.0
 41
1.0
 10
-14050.93978193496
 20
40219.65125459959
 30
0.0
 41
0.9995810107601232
 10
-14051.01704358269
 20
40219.58877291712
 30
0.0
 41
1.0
 10
-14051.02001361388
 20
40219.58637104566
 30
0.0
 41
1.0
 10
-14051.02298364508
 20
40219.58396917421
 30
0.0
 41
1.0
 10
-14051.10618535522
 20
40219.51668374882
 30
0.0
 41
0.9996617837957061
 10
-14051.18577604238
 20
40219.44516329323
 30
0.0
 41
1.0
 10
-14051.19790679322
 20
40219.43426256028
 30
0.0
 41
1.0
 10
-14051.21003754406
 20
40219.42336182733
 30
0.0
 41
1.0
 10
-14051.27831307144
 20
40219.36200921186
 30
0.0
 41
0.999726775006766
 10
-14051.3436465798
 20
40219.29753267528
 30
0.0
 41
1.0
 10
-14051.40898008811
 20
40219.23305613871
 30
0.0
 41
0.9999667288961209
 10
-14051.4732530314
 20
40219.16752233168
 30
0.0
 41
1.0
 10
-14051.54208047909
 20
40219.09734467301
 30
0.0
 41
1.0
 10
-14051.61090792678
 20
40219.02716701434
 30
0.0
 41
1.0
 10
-14051.81283576545
 20
40218.82127788995
 30
0.0
 41
0.9988205335179354
 10
-14051.99384138244
 20
40218.59677365789
 30
0.0
 41
1.0
 10
-14052.02448134735
 20
40218.55877040745
 30
0.0
 41
1.0
 10
-14052.05512131226
 20
40218.52076715701
 30
0.0
 41
1.0
 10
-14052.29740685902
 20
40218.22025642413
 30
0.0
 41
0.9997077826757593
 10
-14052.52488481009
 20
40217.90838662996
 30
0.0
 41
1.0
 10
-14052.52660822525
 20
40217.90602384654
 30
0.0
 41
1.0
 10
-14052.52833164042
 20
40217.90366106312
 30
0.0
 41
1.0
 10
-14052.75925642178
 20
40217.58706570214
 30
0.0
 41
0.9989147567080224
 10
-14052.95971992466
 20
40217.25035624096
 30
0.0
 41
1.0
 10
-14052.98446106993
 20
40217.20879966048
 30
0.0
 41
1.0
 10
-14053.00920221519
 20
40217.16724308001
 30
0.0
 41
1.0
 10
-14053.16441351385
 20
40216.90654169551
 30
0.0
 41
0.9997476598182949
 10
-14053.30775850143
 20
40216.63913194681
 30
0.0
 41
1.0
 10
-14053.45110348892
 20
40216.37172219827
 30
0.0
 41
0.9996258967107903
 10
-14053.57961174082
 20
40216.0968742617
 30
0.0
 41
1.0
 10
-14053.59281165024
 20
40216.06864286168
 30
0.0
 41
1.0
 10
-14053.60601155966
 20
40216.04041146164
 30
0.0
 41
1.0
 10
-14053.74622028067
 20
40215.74053906368
 30
0.0
 41
0.9998735413947509
 10
-14053.87682162749
 20
40215.43635946399
 30
0.0
 41
1.0
 10
-14053.88026445562
 20
40215.42834087837
 30
0.0
 41
1.0
 10
-14053.88370728375
 20
40215.42032229273
 30
0.0
 41
1.0
 10
-14054.00742297428
 20
40215.13217986436
 30
0.0
 41
0.9999377418862478
 10
-14054.12467777638
 20
40214.84134839685
 30
0.0
 41
1.0
 10
-14054.24193257851
 20
40214.5505169293
 30
0.0
 41
0.9999508299509818
 10
-14054.35339652178
 20
40214.25741725276
 30
0.0
 41
1.0
 10
-14054.35647729052
 20
40214.24931622659
 30
0.0
 41
1.0
 10
-14054.35955805926
 20
40214.24121520043
 30
0.0
 41
1.0
 10
-14054.4771835399
 20
40213.93191347185
 30
0.0
 41
0.9999609228437191
 10
-14054.58932214285
 20
40213.62058045564
 30
0.0
 41
1.0
 10
-14054.59227815319
 20
40213.61237361524
 30
0.0
 41
1.0
 10
-14054.59523416354
 20
40213.60416677484
 30
0.0
 41
1.0
 10
-14054.71328478718
 20
40213.27642007782
 30
0.0
 41
0.9999674607397558
 10
-14054.82603231331
 20
40212.94681145763
 30
0.0
 41
1.0
 10
-14054.87743070376
 20
40212.79655226227
 30
0.0
 41
1.0
 10
-14054.92882909421
 20
40212.64629306691
 30
0.0
 41
1.0
 10
-14055.04483970107
 20
40212.30714508412
 30
0.0
 41
0.9999287532306841
 10
-14055.15272110503
 20
40211.96532434515
 30
0.0
 41
1.0
 10
-14055.19919836135
 20
40211.81806180022
 30
0.0
 41
1.0
 10
-14055.24567561767
 20
40211.67079925528
 30
0.0
 41
1.0
 10
-14055.26060250963
 20
40211.6235036042
 30
0.0
 41
0.9999998223918207
 10
-14055.27547301773
 20
40211.57619019793
 30
0.0
 41
1.0
 10
-14056.89612915453
 20
40206.42816169615
 30
0.0
 41
1.0
 10
-14058.51678529132
 20
40201.28013319436
 30
0.0
 41
1.0
 10
-14059.42209373521
 20
40201.28013319436
 30
0.0
 41
1.0
 10
-14060.32740217911
 20
40201.28013319436
 30
0.0
 41
1.0
 10
-14058.47531776772
 20
40207.16720511683
 30
0.0
 41
1.0
 10
-14056.62323335633
 20
40213.05427703929
 30
0.0
 41
1.0
 10
-14056.61311159803
 20
40213.08632025274
 30
0.0
 41
1.0
 10
-14056.54050392918
 20
40213.31661979457
 30
0.0
 41
1.0
 10
-14056.46789626021
 20
40213.54691933675
 30
0.0
 41
0.9999825681966823
 10
-14056.39801322107
 20
40213.77806023163
 30
0.0
 41
1.0
 10
-14056.34972215895
 20
40213.93778481499
 30
0.0
 41
1.0
 10
-14056.30143109683
 20
40214.09750939836
 30
0.0
 41
1.0
 10
-14056.20427874347
 20
40214.41884462028
 30
0.0
 41
0.9999672528963528
 10
-14056.11233993786
 20
40214.74171016581
 30
0.0
 41
1.0
 10
-14056.10955105429
 20
40214.75150401083
 30
0.0
 41
1.0
 10
-14056.10676217073
 20
40214.76129785585
 30
0.0
 41
1.0
 10
-14056.02040113229
 20
40215.06457571121
 30
0.0
 41
0.9999899749144179
 10
-14055.9367595227
 20
40215.36861479985
 30
0.0
 41
1.0
 10
-14055.92665360369
 20
40215.4053500375
 30
0.0
 41
1.0
 10
-14055.91654768468
 20
40215.44208527514
 30
0.0
 41
1.0
 10
-14055.85311791319
 20
40215.67265388819
 30
0.0
 41
0.9999214200502103
 10
-14055.79548848479
 20
40215.90474023051
 30
0.0
 41
1.0
 10
-14055.78272263269
 20
40215.95615111558
 30
0.0
 41
1.0
 10
-14055.76995678059
 20
40216.00756200065
 30
0.0
 41
1.0
 10
-14055.73785905649
 20
40216.13682657239
 30
0.0
 41
0.9999828681670309
 10
-14055.70727680442
 20
40216.26645804718
 30
0.0
 41
1.0
 10
-14055.67669455237
 20
40216.39608952188
 30
0.0
 41
0.9999389844474856
 10
-14055.6489835636
 20
40216.5263649777
 30
0.0
 41
1.0
 10
-14055.64184581989
 20
40216.55992108146
 30
0.0
 41
1.0
 10
-14055.63470807619
 20
40216.59347718523
 30
0.0
 41
1.0
 10
-14055.59272159998
 20
40216.79086484871
 30
0.0
 41
0.9998933699439194
 10
-14055.55651733557
 20
40216.98939445649
 30
0.0
 41
1.0
 10
-14055.55514451035
 20
40216.99692247722
 30
0.0
 41
1.0
 10
-14055.55377168512
 20
40217.00445049795
 30
0.0
 41
1.0
 10
-14055.5148217703
 20
40217.21803614705
 30
0.0
 41
0.9996850305192885
 10
-14055.48663809403
 20
40217.43330715258
 30
0.0
 41
1.0
 10
-14055.48464306066
 20
40217.44854550669
 30
0.0
 41
1.0
 10
-14055.48264802729
 20
40217.46378386079
 30
0.0
 41
1.0
 10
-14055.45524016483
 20
40217.67312908796
 30
0.0
 41
0.999469793670814
 10
-14055.44151560561
 20
40217.88381428327
 30
0.0
 41
1.0
 10
-14055.44103853637
 20
40217.89113775546
 30
0.0
 41
1.0
 10
-14055.44056146712
 20
40217.89846122765
 30
0.0
 41
1.0
 10
-14055.4277910464
 20
40218.09449947856
 30
0.0
 41
0.9991804893133568
 10
-14055.43091936267
 20
40218.29092832858
 30
0.0
 41
1.0
 10
-14055.43100324149
 20
40218.29619513001
 30
0.0
 41
1.0
 10
-14055.43108712031
 20
40218.30146193145
 30
0.0
 41
1.0
 10
-14055.43404767895
 20
40218.48735717857
 30
0.0
 41
0.9988448329328907
 10
-14055.45483922457
 20
40218.67210976838
 30
0.0
 41
1.0
 10
-14055.45643329827
 20
40218.68627462415
 30
0.0
 41
1.0
 10
-14055.45802737197
 20
40218.70043947993
 30
0.0
 41
1.0
 10
-14055.47563077018
 20
40218.85686235819
 30
0.0
 41
0.9985503209449733
 10
-14055.50994704249
 20
40219.01048654231
 30
0.0
 41
1.0
 10
-14055.51753303456
 20
40219.04444686971
 30
0.0
 41
1.0
 10
-14055.52511902663
 20
40219.07840719712
 30
0.0
 41
1.0
 10
-14055.54426331478
 20
40219.16411072636
 30
0.0
 41
0.999103678138275
 10
-14055.57058817644
 20
40219.24788781372
 30
0.0
 41
1.0
 10
-14055.5745704019
 20
40219.26056097624
 30
0.0
 41
1.0
 10
-14055.57855262736
 20
40219.27323413877
 30
0.0
 41
1.0
 10
-14055.59691303811
 20
40219.33166490112
 30
0.0
 41
0.9998874504364226
 10
-14055.61701824577
 20
40219.38951850327
 30
0.0
 41
1.0
 10
-14055.63712345344
 20
40219.44737210547
 30
0.0
 41
0.9994041637556254
 10
-14055.66117206638
 20
40219.50370080936
 30
0.0
 41
1.0
 10
-14055.6653688506
 20
40219.51353087385
 30
0.0
 41
1.0
 10
-14055.66956563483
 20
40219.52336093834
 30
0.0
 41
1.0
 10
-14055.69744446584
 20
40219.58866110435
 30
0.0
 41
0.9991846840691182
 10
-14055.73050082252
 20
40219.65149913559
 30
0.0
 41
1.0
 10
-14055.73163742891
 20
40219.65365975204
 30
0.0
 41
1.0
 10
-14055.7327740353
 20
40219.65582036848
 30
0.0
 41
1.0
 10
-14055.76355717919
 20
40219.71433716684
 30
0.0
 41
0.9989253167943081
 10
-14055.79962660327
 20
40219.76975209526
 30
0.0
 41
1.0
 10
-14055.80068072794
 20
40219.77137159002
 30
0.0
 41
1.0
 10
-14055.80173485261
 20
40219.77299108478
 30
0.0
 41
1.0
 10
-14055.83569602732
 20
40219.82516702364
 30
0.0
 41
0.9986467172876207
 10
-14055.87489317996
 20
40219.87353305728
 30
0.0
 41
1.0
 10
-14055.87576730867
 20
40219.87461165957
 30
0.0
 41
1.0
 10
-14055.87664143739
 20
40219.87569026187
 30
0.0
 41
1.0
 10
-14055.91409033262
 20
40219.92189909094
 30
0.0
 41
0.9984001104222133
 10
-14055.95651706311
 20
40219.96358419828
 30
0.0
 41
1.0
 10
-14055.95710420121
 20
40219.96416107315
 30
0.0
 41
1.0
 10
-14055.9576913393
 20
40219.96473794802
 30
0.0
 41
1.0
 10
-14055.99894379362
 20
40220.00526930564
 30
0.0
 41
0.9982442159104786
 10
-14056.04469989496
 20
40220.04063786691
 30
0.0
 41
1.0
 10
-14056.04491469041
 20
40220.04080389954
 30
0.0
 41
1.0
 10
-14056.04512948586
 20
40220.04096993218
 30
0.0
 41
1.0
 10
-14056.09045599629
 20
40220.07600642816
 30
0.0
 41
0.9982450060854263
 10
-14056.13960697537
 20
40220.10543821121
 30
0.0
 41
1.0
 10
-14056.18875795445
 20
40220.13486999425
 30
0.0
 41
0.9983922639647472
 10
-14056.24092426066
 20
40220.15854962892
 30
0.0
 41
1.0
 10
-14056.24115113796
 20
40220.15865261439
 30
0.0
 41
1.0
 10
-14056.24137801526
 20
40220.15875559986
 30
0.0
 41
1.0
 10
-14056.29399807607
 20
40220.18264120547
 30
0.0
 41
0.9986517147150573
 10
-14056.34881104891
 20
40220.20094232458
 30
0.0
 41
1.0
 10
-14056.34948897035
 20
40220.20116867102
 30
0.0
 41
1.0
 10
-14056.3501668918
 20
40220.20139501746
 30
0.0
 41
1.0
 10
-14056.40633570749
 20
40220.22014882943
 30
0.0
 41
0.9989435598984222
 10
-14056.4639890946
 20
40220.23366653165
 30
0.0
 41
1.0
 10
-14056.46506921422
 20
40220.23391978192
 30
0.0
 41
1.0
 10
-14056.46614933383
 20
40220.23417303218
 30
0.0
 41
1.0
 10
-14056.52596296014
 20
40220.24819723492
 30
0.0
 41
0.9992249241244483
 10
-14056.58669446904
 20
40220.25747257764
 30
0.0
 41
1.0
 10
-14056.58810815734
 20
40220.25768848605
 30
0.0
 41
1.0
 10
-14056.58952184563
 20
40220.25790439445
 30
0.0
 41
1.0
 10
-14056.65308073113
 20
40220.26761155398
 30
0.0
 41
0.999439659782925
 10
-14056.7171466677
 20
40220.27304447633
 30
0.0
 41
1.0
 10
-14056.73628733515
 20
40220.27466764404
 30
0.0
 41
1.0
 10
-14056.7554280026
 20
40220.27629081177
 30
0.0
 41
1.0
 10
-14056.85777527409
 20
40220.28497006955
 30
0.0
 41
0.998769340311565
 10
-14056.96047889767
 20
40220.2834670061
 30
0.0
 41
1.0
 10
-14056.9707332319
 20
40220.28331693432
 30
0.0
 41
1.0
 10
-14056.98098756614
 20
40220.28316686255
 30
0.0
 41
1.0
 10
-14057.09054333231
 20
40220.28156351826
 30
0.0
 41
0.9989753644991047
 10
-14057.19950533233
 20
40220.27006051134
 30
0.0
 41
1.0
 10
-14057.30846733232
 20
40220.25855750441
 30
0.0
 41
0.9983190067336282
 10
-14057.41536614327
 20
40220.23452251263
 30
0.0
 41
1.0
 10
-14057.4242670949
 20
40220.23252123407
 30
0.0
 41
1.0
 10
-14057.43316804652
 20
40220.2305199555
 30
0.0
 41
1.0
 10
-14057.55786876074
 20
40220.20248240658
 30
0.0
 41
0.9985539388284038
 10
-14057.67883851446
 20
40220.16121873051
 30
0.0
 41
1.0
 10
-14057.68118394538
 20
40220.16041868671
 30
0.0
 41
1.0
 10
-14057.6835293763
 20
40220.15961864291
 30
0.0
 41
1.0
 10
-14057.80918999189
 20
40220.11675487923
 30
0.0
 41
0.9988468746514554
 10
-14057.93016033415
 20
40220.0620367942
 30
0.0
 41
1.0
 10
-14057.93334315616
 20
40220.06059711962
 30
0.0
 41
1.0
 10
-14057.93652597818
 20
40220.05915744505
 30
0.0
 41
1.0
 10
-14058.06386196439
 20
40220.0015600109
 30
0.0
 41
0.9991322885933204
 10
-14058.18596254839
 20
40219.93356467875
 30
0.0
 41
1.0
 10
-14058.20356455951
 20
40219.92376247673
 30
0.0
 41
1.0
 10
-14058.22116657062
 20
40219.91396027469
 30
0.0
 41
1.0
 10
-14058.32334325169
 20
40219.85706015891
 30
0.0
 41
0.9993860037841931
 10
-14058.42128425573
 20
40219.79314414333
 30
0.0
 41
1.0
 10
-14058.42690256852
 20
40219.78947764868
 30
0.0
 41
1.0
 10
-14058.43252088131
 20
40219.78581115403
 30
0.0
 41
1.0
 10
-14058.51922525972
 20
40219.72922812781
 30
0.0
 41
0.9998821494954478
 10
-14058.60415163562
 20
40219.67000989767
 30
0.0
 41
1.0
 10
-14058.68907801142
 20
40219.6107916676
 30
0.0
 41
0.9997976482747108
 10
-14058.77155364185
 20
40219.54820525953
 30
0.0
 41
1.0
 10
-14058.78618990664
 20
40219.53709856976
 30
0.0
 41
1.0
 10
-14058.80082617144
 20
40219.52599187999
 30
0.0
 41
1.0
 10
-14058.91257433142
 20
40219.44119209242
 30
0.0
 41
0.9998091630794442
 10
-14059.02092460947
 20
40219.3520917417
 30
0.0
 41
1.0
 10
-14059.03393036195
 20
40219.34139664125
 30
0.0
 41
1.0
 10
-14059.04693611444
 20
40219.33070154079
 30
0.0
 41
1.0
 10
-14059.18129789742
 20
40219.2202109892
 30
0.0
 41
0.9995035112314165
 10
-14059.30843377522
 20
40219.10147717216
 30
0.0
 41
1.0
 10
-14059.31808108557
 20
40219.09246742603
 30
0.0
 41
1.0
 10
-14059.32772839593
 20
40219.0834576799
 30
0.0
 41
1.0
 10
-14059.45115145871
 20
40218.96819130814
 30
0.0
 41
0.9994630424299062
 10
-14059.56675986451
 20
40218.84508856488
 30
0.0
 41
1.0
 10
-14059.57044270328
 20
40218.84116698536
 30
0.0
 41
1.0
 10
-14059.57412554206
 20
40218.83724540584
 30
0.0
 41
1.0
 10
-14059.6823682703
 20
40218.72198582164
 30
0.0
 41
0.9995160693749037
 10
-14059.78323429982
 20
40218.60021840378
 30
0.0
 41
1.0
 10
-14059.78516801993
 20
40218.59788397954
 30
0.0
 41
1.0
 10
-14059.78710174003
 20
40218.59554955531
 30
0.0
 41
1.0
 10
-14059.88410032936
 20
40218.4784509859
 30
0.0
 41
0.9996561470514606
 10
-14059.97482654802
 20
40218.35642822345
 30
0.0
 41
1.0
 10
-14059.98098421394
 20
40218.34814643439
 30
0.0
 41
1.0
 10
-14059.98714187986
 20
40218.33986464532
 30
0.0
 41
1.0
 10
-14060.06555276676
 20
40218.23440546091
 30
0.0
 41
0.999834905516825
 10
-14060.14008004862
 20
40218.12616687734
 30
0.0
 41
1.0
 10
-14060.21460733047
 20
40218.0179282938
 30
0.0
 41
0.9999728109568967
 10
-14060.28753022619
 20
40217.90860236852
 30
0.0
 41
1.0
 10
-14060.28884544174
 20
40217.90663059882
 30
0.0
 41
1.0
 10
-14060.29016065729
 20
40217.90465882911
 30
0.0
 41
1.0
 10
-14060.3657139844
 20
40217.79138936399
 30
0.0
 41
0.9999972147320035
 10
-14060.44073179514
 20
40217.67776452059
 30
0.0
 41
1.0
 10
-14060.44570333739
 20
40217.67023443268
 30
0.0
 41
1.0
 10
-14060.45067487964
 20
40217.66270434477
 30
0.0
 41
1.0
 10
-14060.53563577522
 20
40217.53401932506
 30
0.0
 41
0.9999371979005169
 10
-14060.61769112465
 20
40217.40346241123
 30
0.0
 41
1.0
 10
-14060.62120000902
 20
40217.39787948316
 30
0.0
 41
1.0
 10
-14060.62470889339
 20
40217.39229655509
 30
0.0
 41
1.0
 10
-14060.71378201146
 20
40217.25057378527
 30
0.0
 41
0.9998272025613776
 10
-14060.79752540233
 20
40217.10563790855
 30
0.0
 41
1.0
 10
-14060.81274057439
 20
40217.07930479404
 30
0.0
 41
1.0
 10
-14060.82795574644
 20
40217.05297167952
 30
0.0
 41
1.0
 10
-14060.94212948138
 20
40216.85536957387
 30
0.0
 41
0.999521721483689
 10
-14061.04386917093
 20
40216.65108724601
 30
0.0
 41
1.0
 10
-14061.05151273359
 20
40216.63573979626
 30
0.0
 41
1.0
 10
-14061.05915629625
 20
40216.62039234651
 30
0.0
 41
1.0
 10
-14061.14606158885
 20
40216.44589588839
 30
0.0
 41
0.9998269762608315
 10
-14061.22641605506
 20
40216.26828760179
 30
0.0
 41
1.0
 10
-14061.30677052132
 20
40216.09067931511
 30
0.0
 41
0.9998944747388339
 10
-14061.38193131587
 20
40215.91081158951
 30
0.0
 41
1.0
 10
-14061.38688498544
 20
40215.89895693464
 30
0.0
 41
1.0
 10
-14061.39183865501
 20
40215.88710227978
 30
0.0
 41
1.0
 10
-14061.47248571567
 20
40215.69410533951
 30
0.0
 41
0.9999506734408257
 10
-14061.54928324454
 20
40215.49954453473
 30
0.0
 41
1.0
 10
-14061.56388320978
 20
40215.462556613
 30
0.0
 41
1.0
 10
-14061.57848317502
 20
40215.42556869127
 30
0.0
 41
1.0
 10
-14061.62608077349
 20
40215.30498372977
 30
0.0
 41
0.9999912393908809
 10
-14061.67266721746
 20
40215.18400452718
 30
0.0
 41
1.0
 10
-14061.71925366145
 20
40215.06302532456
 30
0.0
 41
0.9999927113992422
 10
-14061.76491495597
 20
40214.94169391673
 30
0.0
 41
1.0
 10
-14061.77888338732
 20
40214.90457693485
 30
0.0
 41
1.0
 10
-14061.79285181867
 20
40214.86745995298
 30
0.0
 41
1.0
 10
-14061.86644997581
 20
40214.67189458164
 30
0.0
 41
0.9999487550947639
 10
-14061.93607360072
 20
40214.47487921662
 30
0.0
 41
1.0
 10
-14061.95966721076
 20
40214.40811590605
 30
0.0
 41
1.0
 10
-14061.98326082079
 20
40214.34135259548
 30
0.0
 41
1.0
 10
-14062.07794645513
 20
40214.07341876077
 30
0.0
 41
0.9999808436943504
 10
-14062.16930804372
 20
40213.80433332962
 30
0.0
 41
1.0
 10
-14062.26066963218
 20
40213.5352478989
 30
0.0
 41
0.9999873932898433
 10
-14062.34932434083
 20
40213.26525854411
 30
0.0
 41
1.0
 10
-14062.36941669783
 20
40213.20406921097
 30
0.0
 41
1.0
 10
-14062.38950905482
 20
40213.14287987784
 30
0.0
 41
1.0
 10
-14062.51834847732
 20
40212.7505118572
 30
0.0
 41
0.9999794883022974
 10
-14062.64215126215
 20
40212.3565256513
 30
0.0
 41
1.0
 10
-14062.65330352175
 20
40212.32103504054
 30
0.0
 41
1.0
 10
-14062.66445578136
 20
40212.28554442979
 30
0.0
 41
1.0
 10
-14062.80701394498
 20
40211.83187167855
 30
0.0
 41
0.9999982761742373
 10
-14062.94788638502
 20
40211.37767265636
 30
0.0
 41
1.0
 10
-14064.53602671759
 20
40206.32890292536
 30
0.0
 41
1.0
 10
-14066.12416705017
 20
40201.28013319436
 30
0.0
 41
1.0
 10
-14067.07291766164
 20
40201.28013319436
 30
0.0
 41
1.0
 10
-14068.02166827312
 20
40201.28013319436
 30
0.0
 41
1.0
 10
-14064.78338378697
 20
40211.6074553943
 30
0.0
 41
1.0
 10
-14061.54509930081
 20
40221.93477759424
 30
0.0
 41
1.0
  0
LWPOLYLINE
  5
6A
330
23
100
AcDbEntity
  8
0
  6
Continuous
 62
     7
370
    15
390
1D
100
AcDbPolyline
 90
      232
 70
   128
 43
0.0
 10
-14087.24864507464
 20
40220.85043476273
 42
0.0004370800313644
 10
-14087.30152224813
 20
40220.78176812423
 10
-14087.34080647984
 20
40220.73066101058
 42
0.0030481992263474
 10
-14087.47114519722
 20
40220.5589393179
 10
-14087.50965686871
 20
40220.50755253445
 42
0.0042058245770979
 10
-14087.71364191961
 20
40220.23054678907
 10
-14087.76604704188
 20
40220.1581139426
 42
0.0120948898698561
 10
-14088.06209095876
 20
40219.72736433788
 10
-14088.1582834578
 20
40219.57988360278
 42
0.0141601263955159
 10
-14088.46192750469
 20
40219.08421426608
 10
-14088.50146477211
 20
40219.01537029865
 42
0.0071131081327664
 10
-14088.70673709535
 20
40218.64586749981
 42
0.0068458790962004
 10
-14088.90161662219
 20
40218.27077593634
 10
-14088.90842848465
 20
40218.25721422261
 42
0.0064120880161215
 10
-14089.10657073472
 20
40217.84978974766
 10
-14089.11410542021
 20
40217.83377789098
 42
0.0058857236453742
 10
-14089.31686081229
 20
40217.38940177949
 10
-14089.32503573838
 20
40217.37091162631
 42
0.0053189741893691
 10
-14089.53374005094
 20
40216.88494815265
 10
-14089.54248785673
 20
40216.86396627419
 42
0.0047503650386529
 10
-14089.7584615829
 20
40216.33176684092
 10
-14089.76772983123
 20
40216.30829046488
 42
0.0042071762147391
 10
-14089.99227721492
 20
40215.7251968709
 10
-14090.0020266173
 20
40215.69923069593
 42
0.003668008650679
 10
-14090.23648126038
 20
40215.06059531205
 10
-14090.24668904046
 20
40215.03214677706
 42
0.0032573142631002
 10
-14090.49232132618
 20
40214.33329411801
 10
-14090.5609718472
 20
40214.13383103345
 42
0.0026133366673513
 10
-14090.90941704603
 20
40213.10396774958
 10
-14090.9726738333
 20
40212.91373691489
 42
0.0020592950689425
 10
-14091.1865369025
 20
40212.26163326157
 10
-14091.18958869381
 20
40212.25219677269
 42
0.0025609928564925
 10
-14091.39140919514
 20
40211.6170515508
 10
-14091.39400056233
 20
40211.60874920967
 42
0.0031362356233039
 10
-14091.58349134795
 20
40210.98798635368
 10
-14091.58562239084
 20
40210.9808450476
 42
0.0037229918107232
 10
-14091.7624227778
 20
40210.37185974549
 10
-14091.76410136702
 20
40210.36591285529
 42
0.0043077623752517
 10
-14091.92784216907
 20
40209.76609412355
 42
0.0047654161847485
 10
-14092.08067089154
 20
40209.16340803485
 10
-14092.11513550043
 20
40209.0218462575
 42
0.0112969368458704
 10
-14092.31099985859
 20
40208.13015409678
 10
-14092.33900624767
 20
40207.98732605077
 42
0.0130056762594318
 10
-14092.53984349132
 20
40206.80038497913
 10
-14092.56038324146
 20
40206.65630686569
 42
0.0138721532135189
 10
-14092.664086246
 20
40205.74947737982
 10
-14092.6833817339
 20
40205.525979658
 42
0.0071254696976509
 10
-14092.71672837983
 20
40205.06279264906
 10
-14092.72168935399
 20
40204.97678865452
 42
0.0028881799189599
 10
-14092.73682764728
 20
40204.68504694465
 42
0.006029729709019
 10
-14092.74675984706
 20
40204.39309800874
 10
-14092.74782212873
 20
40204.34470563661
 42
0.0229523164047984
 10
-14092.74009110094
 20
40204.02195079032
 10
-14092.73586532742
 20
40203.9615472563
 42
0.012367330074831
 10
-14092.7167866809
 20
40203.76042653113
 42
0.0128577674345814
 10
-14092.68759129051
 20
40203.56052868126
 10
-14092.68046541711
 20
40203.51919986661
 42
0.0285717853786535
 10
-14092.61597141541
 20
40203.24108371526
 10
-14092.60230289175
 20
40203.19442894582
 42
0.0316283099209
 10
-14092.48649231183
 20
40202.87541444399
 10
-14092.48344362009
 20
40202.86842807168
 42
0.0338984824208217
 10
-14092.33401190911
 20
40202.58086210748
 10
-14092.33170317973
 20
40202.57707107819
 42
0.0350228718461752
 10
-14092.14934288907
 20
40202.32001909352
 10
-14092.14845763729
 20
40202.31894001576
 42
0.0347476747568329
 10
-14091.93403295005
 20
40202.09175496854
 42
0.0331337701876015
 10
-14091.69078962429
 20
40201.89562630645
 10
-14091.68968952579
 20
40201.89485360328
 42
0.0305233318917325
 10
-14091.42114483022
 20
40201.72972543319
 10
-14091.41791478571
 20
40201.72800142133
 42
0.0273744481290522
 10
-14091.12536107413
 20
40201.59186327744
 10
-14091.120256539
 20
40201.58981969298
 42
0.0240964406230984
 10
-14090.8047794633
 20
40201.48083596668
 10
-14090.79819613415
 20
40201.47891122702
 42
0.0209636179792572
 10
-14090.46079598154
 20
40201.39544307909
 10
-14090.45316352105
 20
40201.39389116608
 42
0.018138870458798
 10
-14090.09484112912
 20
40201.33447507288
 10
-14090.08656028067
 20
40201.33340888906
 42
0.0156086547575784
 10
-14089.70837291656
 20
40201.29667270248
 10
-14089.66517766404
 20
40201.29383419999
 42
0.0137148329161281
 10
-14089.33750451885
 20
40201.28131394475
 10
-14089.29156832911
 20
40201.28081951163
 42
0.0051057823767915
 10
-14089.05542274234
 20
40201.28068925723
 42
0.005225669355006
 10
-14088.81932545805
 20
40201.2854380817
 10
-14088.74909867481
 20
40201.2875850477
 42
0.0161507178941732
 10
-14088.37336159682
 20
40201.31123541801
 10
-14088.35334863633
 20
40201.31314561331
 42
0.0101216737861634
 10
-14087.93932141474
 20
40201.36113854369
 10
-14087.90526812542
 20
40201.36578624049
 42
0.0245291776373706
 10
-14087.42847846987
 20
40201.45486131856
 10
-14087.34365515444
 20
40201.47505723889
 42
0.0143509212516234
 10
-14086.9870240504
 20
40201.57086187269
 42
0.0156557857176975
 10
-14086.63680798557
 20
40201.68787308854
 10
-14086.62930677118
 20
40201.69064325026
 42
0.0170137333590188
 10
-14086.27271077554
 20
40201.83630086512
 10
-14086.26560685309
 20
40201.8394887007
 42
0.0183105364515354
 10
-14085.90625718496
 20
40202.01682374251
 10
-14085.89931042029
 20
40202.0205741774
 42
0.0194899958153689
 10
-14085.54082967932
 20
40202.23255315927
 10
-14085.53381579997
 20
40202.23707850158
 42
0.0204869852936063
 10
-14085.17980149791
 20
40202.48659851664
 10
-14085.17253588929
 20
40202.49217858202
 42
0.0212516938588568
 10
-14084.8265459581
 20
40202.78208257897
 10
-14084.78002926411
 20
40202.824549889
 42
0.0215248918224064
 10
-14084.52000309521
 20
40203.083314168
 10
-14084.47497336079
 20
40203.13215828939
 42
0.0114578555122622
 10
-14084.32018120716
 20
40203.30798122281
 10
-14084.30898667089
 20
40203.3212999867
 42
0.0061531305170586
 10
-14084.18251202518
 20
40203.47558951966
 42
0.0006325586892023
 10
-14084.05813354219
 20
40203.63159289386
 10
-14084.03509340597
 20
40203.66056641599
 42
0.0041897761434177
 10
-14083.86663800228
 20
40203.87608579169
 10
-14083.80817588211
 20
40203.95218713904
 42
0.0092993880019279
 10
-14083.53156395476
 20
40204.3264659031
 10
-14083.44916946174
 20
40204.44240290642
 42
0.0159321727073173
 10
-14083.10256297904
 20
40204.96457712725
 10
-14083.05820684352
 20
40205.03625669172
 42
0.0085547317088263
 10
-14082.82369507833
 20
40205.43013164072
 42
0.0084601156878072
 10
-14082.60271890097
 20
40205.83175848959
 10
-14082.59460342705
 20
40205.84711817202
 42
0.008142965423299
 10
-14082.37135415658
 20
40206.28683968463
 10
-14082.36249399243
 20
40206.30501852659
 42
0.0076574581397344
 10
-14082.13608648187
 20
40206.78820140183
 10
-14082.12660684114
 20
40206.80926588015
 42
0.0070682724259416
 10
-14081.89616193333
 20
40207.34130318493
 10
-14081.88617164935
 20
40207.36529237394
 42
0.0064559514484867
 10
-14081.65083844119
 20
40207.9516046404
 10
-14081.64042908301
 20
40207.9785395659
 42
0.0058311413866624
 10
-14081.39938234626
 20
40208.62457166024
 10
-14081.38862726886
 20
40208.65445600144
 42
0.0052312425772985
 10
-14081.1410459908
 20
40209.36565841531
 10
-14081.13000215444
 20
40209.39848512734
 42
0.0046680544785826
 10
-14080.87507372679
 20
40210.18031144283
 10
-14080.83308157665
 20
40210.31329468043
 42
0.0041666856380671
 10
-14080.62979556426
 20
40210.97626345539
 10
-14080.59213312363
 20
40211.10284456292
 42
0.0015170975117162
 10
-14080.47094654519
 20
40211.51471291455
 42
-0.0004887993058967
 10
-14080.35060677224
 20
40211.926831326
 10
-14080.27412951457
 20
40212.18778871253
 42
0.0002583378930268
 10
-14080.00091494615
 20
40213.12184541006
 10
-14079.91914209536
 20
40213.40194467382
 42
0.0006636169582438
 10
-14079.72527433492
 20
40214.06929759888
 10
-14079.72017768026
 20
40214.08692918281
 42
0.0010589131370181
 10
-14079.53872897965
 20
40214.7196605248
 10
-14079.53374690924
 20
40214.73717343158
 42
0.001565552437266
 10
-14079.36547670199
 20
40215.33579011103
 10
-14079.36064650184
 20
40215.35318226901
 42
0.0021640440415914
 10
-14079.20635652959
 20
40215.91820928798
 10
-14079.20172231026
 20
40215.93547401758
 42
0.0028763871807637
 10
-14079.0622065921
 20
40216.46744196882
 10
-14079.05782072797
 20
40216.48456594685
 42
0.0037310511915417
 10
-14078.9338640361
 20
40216.984013541
 10
-14078.92978881583
 20
40217.00097381217
 42
0.0047652197787264
 10
-14078.8221649153
 20
40217.46845158055
 10
-14078.81847431599
 20
40217.48521113566
 42
0.0060276699323714
 10
-14078.72794421683
 20
40217.92128693084
 10
-14078.72472552653
 20
40217.93778814519
 42
0.0075824337715132
 10
-14078.65203621712
 20
40218.34305530958
 10
-14078.64939083977
 20
40218.35921025688
 42
0.0095130624581364
 10
-14078.59527560411
 20
40218.73429961011
 10
-14078.58828938021
 20
40218.79023316835
 42
0.0121054653310484
 10
-14078.56169804965
 20
40219.0551289967
 10
-14078.56083155989
 20
40219.06653243962
 42
0.0069050827343562
 10
-14078.54574274185
 20
40219.30947366646
 10
-14078.54460744219
 20
40219.33299992351
 42
0.0169063976872572
 10
-14078.5417801632
 20
40219.52919265081
 10
-14078.54295081474
 20
40219.58952841215
 42
0.005200773285838
 10
-14078.54520426333
 20
40219.66512180231
 42
0.0054038123072281
 10
-14078.56516777516
 20
40219.78514009831
 10
-14078.57025363104
 20
40219.8137985849
 42
0.0112050460640451
 10
-14078.60563799309
 20
40219.99012502322
 10
-14078.62346295514
 20
40220.06966660997
 42
0.0240764467933448
 10
-14078.71436032128
 20
40220.39990364546
 10
-14078.73291908411
 20
40220.45652381049
 42
0.025681233185899
 10
-14078.87628200428
 20
40220.82824801671
 10
-14078.88169143012
 20
40220.84037935173
 42
0.0268360501336461
 10
-14079.05111867096
 20
40221.17137248573
 10
-14079.05665507858
 20
40221.18089215602
 42
0.0274670231657759
 10
-14079.248856055
 20
40221.47317953096
 10
-14079.25423735497
 20
40221.4804586785
 42
0.0275035967140271
 10
-14079.46581023453
 20
40221.7359745688
 10
-14079.4708797355
 20
40221.74145365643
 42
0.0269557673594165
 10
-14079.69828327894
 20
40221.96209594239
 10
-14079.70302633672
 20
40221.96622589685
 42
0.0259124802424818
 10
-14079.94258116815
 20
40222.15391642401
 10
-14079.94711201335
 20
40222.15710192635
 42
0.0245162153004302
 10
-14080.19502836643
 20
40222.31383493545
 10
-14080.19955491276
 20
40222.31639513265
 42
0.0229282588911697
 10
-14080.45197446958
 20
40222.44426332515
 10
-14080.45675496341
 20
40222.44641562491
 42
0.0212984135705155
 10
-14080.70979291588
 20
40222.54761454216
 10
-14080.71509720089
 20
40222.54947810493
 42
0.0197555462347453
 10
-14080.96487553857
 20
40222.62629352287
 42
0.0183511896894071
 10
-14081.21980426405
 20
40222.68387642984
 10
-14081.30616946072
 20
40222.70007922022
 42
0.0338057877253931
 10
-14081.59167681002
 20
40222.73388762536
 10
-14081.68268221508
 20
40222.73846728063
 42
0.009199052443448
 10
-14081.78852932369
 20
40222.74184313655
 42
0.0028333980811744
 10
-14081.89444323997
 20
40222.74267124407
 10
-14081.89535869273
 20
40222.74267321389
 42
-0.0023619827966413
 10
-14082.00310470754
 20
40222.74341405497
 10
-14082.03950987801
 20
40222.74383636143
 42
0.0008824598498115
 10
-14082.22006586622
 20
40222.74561213966
 10
-14082.26392730027
 20
40222.7459661012
 42
0.003813266579861
 10
-14082.53221019576
 20
40222.74608503727
 10
-14082.54874385094
 20
40222.74596627112
 42
0.0060665569312952
 10
-14082.85002434218
 20
40222.74014597171
 10
-14082.86427467456
 20
40222.73969766374
 42
0.0080356953335478
 10
-14083.19373339075
 20
40222.72402994167
 10
-14083.20580340599
 20
40222.72326135873
 42
0.00989963990096
 10
-14083.55856649057
 20
40222.69377612953
 10
-14083.56861220001
 20
40222.69273583333
 42
0.0117740981375004
 10
-14083.93976905849
 20
40222.64544358578
 10
-14083.94799175484
 20
40222.64419846923
 42
0.0137435215098176
 10
-14084.33258057418
 20
40222.5751014957
 10
-14084.33923761345
 20
40222.57371559944
 42
0.0158359869390467
 10
-14084.73223470728
 20
40222.47882351095
 10
-14084.73764789412
 20
40222.47733357009
 42
0.0180554123993782
 10
-14085.13396293881
 20
40222.35269555382
 10
-14085.13851972682
 20
40222.35107951758
 42
0.0203657431244131
 10
-14085.5329972446
 20
40222.19281917607
 10
-14085.53714078364
 20
40222.19095755462
 42
0.0226819684628273
 10
-14085.92457683978
 20
40221.99531497598
 10
-14085.92877663086
 20
40221.99294938403
 42
0.0248634984601208
 10
-14086.30395857202
 20
40221.7563227381
 10
-14086.35215350089
 20
40221.72246569621
 42
0.0267044190937349
 10
-14086.62644619774
 20
40221.50702532039
 42
0.0139303002233233
 10
-14086.88261336357
 20
40221.26978647958
 10
-14086.8874667494
 20
40221.26503381661
 42
0.0283460963419417
 10
-14087.13153934361
 20
40220.99730315619
 10
-14087.17120784878
 20
40220.9485015787
 42
0.0070695364964128
 10
-14087.24864507464
 20
40220.85043476273
 42
0.0070695364964128
  0
LWPOLYLINE
  5
6B
330
23
100
AcDbEntity
  8
0
  6
Continuous
 62
     7
370
    15
390
1D
100
AcDbPolyline
 90
      226
 70
   128
 43
0.0
 10
-14090.77746551189
 20
40205.12884595655
 42
-0.0026277635434304
 10
-14090.77754339568
 20
40205.19561788357
 10
-14090.77732603746
 20
40205.24877309974
 42
-0.0088680296593977
 10
-14090.77354942116
 20
40205.42178888214
 10
-14090.77120306205
 20
40205.48106890759
 42
-0.0077381705600543
 10
-14090.75515695129
 20
40205.77232940346
 10
-14090.75428904012
 20
40205.78461763707
 42
-0.0068872530523067
 10
-14090.72765696037
 20
40206.09983938916
 10
-14090.72645273618
 20
40206.11208036816
 42
-0.0062130021550029
 10
-14090.68885901934
 20
40206.45095005948
 10
-14090.68735511582
 20
40206.46312393132
 42
-0.0056726929747707
 10
-14090.6384332563
 20
40206.82531915353
 10
-14090.63665981067
 20
40206.83741295368
 42
-0.0052341884368721
 10
-14090.57604922444
 20
40207.22260620904
 10
-14090.57403123563
 20
40207.23461113918
 42
-0.0049768450236288
 10
-14090.50129255422
 20
40207.64245570655
 10
-14090.47704353949
 20
40207.77100368962
 42
-0.0089029805599452
 10
-14090.33996268769
 20
40208.43277913705
 10
-14090.30721731237
 20
40208.57781056757
 42
-0.0080318257154016
 10
-14090.07766869808
 20
40209.52352019925
 10
-14090.06568377159
 20
40209.56965083462
 42
-0.007426572133929
 10
-14089.78167223267
 20
40210.59971541323
 10
-14089.76179268969
 20
40210.66784947333
 42
-0.0069711922706436
 10
-14089.43448811111
 20
40211.73411721391
 10
-14089.37453616388
 20
40211.92013857268
 42
-0.005207042281971
 10
-14089.14511093875
 20
40212.60741064932
 10
-14089.12782974608
 20
40212.65743793136
 42
-0.0009167004376408
 10
-14088.92473785928
 20
40213.24189377809
 42
-0.0025162726924131
 10
-14088.71764022932
 20
40213.82493504143
 10
-14088.68041561735
 20
40213.92808458778
 42
-0.0028212681492287
 10
-14088.43223969825
 20
40214.60381522033
 10
-14088.42240893538
 20
40214.63012266532
 42
-0.0031964916790849
 10
-14088.18611667784
 20
40215.25032742713
 10
-14088.17648222405
 20
40215.27513741672
 42
-0.0036281836500182
 10
-14087.95137626274
 20
40215.84257809816
 10
-14087.94193785272
 20
40215.86587552933
 42
-0.004126916686204
 10
-14087.72732015592
 20
40216.38331642565
 10
-14087.69468719953
 20
40216.46019487194
 42
-0.0047472213124991
 10
-14087.53764239395
 20
40216.82061633989
 10
-14087.53074831283
 20
40216.83603693701
 42
-0.0025651659973241
 10
-14087.38239027889
 20
40217.16336499297
 42
-0.005714463499659
 10
-14087.22864058502
 20
40217.48817466654
 10
-14087.20060987968
 20
40217.54568304882
 42
-0.0065388068283782
 10
-14087.01714285198
 20
40217.9099155454
 10
-14087.00868439624
 20
40217.92617512467
 42
-0.0074510843114683
 10
-14086.83250215032
 20
40218.25286340588
 10
-14086.82432247984
 20
40218.26750418307
 42
-0.0084648979885314
 10
-14086.65468862669
 20
40218.55941319412
 10
-14086.64683250017
 20
40218.57242018582
 42
-0.0095638542735417
 10
-14086.48299705261
 20
40218.83230905775
 10
-14086.47552210899
 20
40218.84367841912
 42
-0.0107191626917964
 10
-14086.31672052855
 20
40219.07428965374
 10
-14086.30970379484
 20
40219.08402574608
 42
-0.0118458573901829
 10
-14086.1551556963
 20
40219.28809794142
 42
-0.0129184518203696
 10
-14085.99070307278
 20
40219.4842584575
 10
-14085.96055830036
 20
40219.51838453647
 42
-0.021774257970386
 10
-14085.78394597801
 20
40219.70159130674
 10
-14085.77320043372
 20
40219.71180813978
 42
-0.0097266568845484
 10
-14085.60714281469
 20
40219.86365571438
 42
-0.0187720906004956
 10
-14085.43279523881
 20
40220.00572456776
 10
-14085.40208924803
 20
40220.02888365024
 42
-0.0179428207412476
 10
-14085.16966852813
 20
40220.19143582728
 10
-14085.16601620123
 20
40220.19379976215
 42
-0.0170047877535486
 10
-14084.93025256368
 20
40220.33526027632
 10
-14084.92646957504
 20
40220.3373585813
 42
-0.0160190788470747
 10
-14084.6895610273
 20
40220.45900988334
 42
-0.015110286131609
 10
-14084.44552924487
 20
40220.56569265939
 10
-14084.39314274264
 20
40220.58673279229
 42
-0.0271945441928606
 10
-14084.03448018353
 20
40220.70859760301
 10
-14083.96541538297
 20
40220.7279471443
 42
-0.023759659397138
 10
-14083.54961853607
 20
40220.82339785624
 10
-14083.48155568235
 20
40220.83565254437
 42
-0.0213715440509712
 10
-14083.1956807509
 20
40220.87459957588
 10
-14083.13553358478
 20
40220.88018929058
 42
-0.0101465655994633
 10
-14082.96804105269
 20
40220.89233283384
 10
-14082.95870066656
 20
40220.89281974883
 42
-0.0100375910940187
 10
-14082.80954656593
 20
40220.89759556677
 10
-14082.79928729635
 20
40220.89771800578
 42
-0.0103625633152932
 10
-14082.67057930159
 20
40220.89658657226
 10
-14082.64831365022
 20
40220.89592921379
 42
-0.0115689249455965
 10
-14082.5642629128
 20
40220.89149970755
 42
-0.0072438037693975
 10
-14082.48042463355
 20
40220.88391050782
 10
-14082.46362412388
 20
40220.88214396507
 42
-0.0217917313197267
 10
-14082.3470543606
 20
40220.86472407235
 10
-14082.28145427
 20
40220.85197746394
 42
-0.0332943556967652
 10
-14082.07706210498
 20
40220.79793717263
 10
-14082.04688953631
 20
40220.78776909547
 42
-0.0184824084679508
 10
-14081.90838447996
 20
40220.73531808012
 42
-0.019800205061252
 10
-14081.77431013948
 20
40220.67243401994
 10
-14081.77242350209
 20
40220.67145623305
 42
-0.0212242343039159
 10
-14081.6402845597
 20
40220.59569349427
 10
-14081.63846926414
 20
40220.59454769205
 42
-0.0226090605625814
 10
-14081.50996536285
 20
40220.50506804843
 10
-14081.50812092118
 20
40220.50365579549
 42
-0.0238457052443214
 10
-14081.38493883988
 20
40220.39965989962
 10
-14081.38298611133
 20
40220.39784502186
 42
-0.0248160564259482
 10
-14081.26678460406
 20
40220.27857042068
 10
-14081.26468097062
 20
40220.27618508694
 42
-0.0254109591336769
 10
-14081.15707575275
 20
40220.14089670097
 10
-14081.15482773084
 20
40220.13775515258
 42
-0.0255528488511765
 10
-14081.05738105207
 20
40219.98572809839
 10
-14081.05504995213
 20
40219.98164648675
 42
-0.0252146793304402
 10
-14080.96926892612
 20
40219.81214424076
 10
-14080.96696668696
 20
40219.80696215884
 42
-0.0244265635880608
 10
-14080.8943119932
 20
40219.61921558678
 10
-14080.88506559174
 20
40219.59135016847
 42
-0.0231319612714827
 10
-14080.83914281274
 20
40219.42804912165
 42
-0.0112130424454936
 10
-14080.80450679021
 20
40219.26184552147
 10
-14080.80330426509
 20
40219.25534893457
 42
-0.0210527881388783
 10
-14080.77761778972
 20
40219.07429328909
 10
-14080.7741071949
 20
40219.03888774058
 42
-0.0190029892333014
 10
-14080.75866572135
 20
40218.78535189427
 10
-14080.75785574491
 20
40218.74987627994
 42
-0.0137974553821807
 10
-14080.75940459774
 20
40218.42484487336
 10
-14080.7602500527
 20
40218.39872612859
 42
-0.0081336634223025
 10
-14080.77510938793
 20
40218.09337866102
 42
-0.0073526923637214
 10
-14080.7994179213
 20
40217.78863041673
 10
-14080.80067934508
 20
40217.77529374207
 42
-0.0066886138760559
 10
-14080.83641493113
 20
40217.4447076986
 10
-14080.8380720206
 20
40217.43108607958
 42
-0.0061359187267206
 10
-14080.88592262266
 20
40217.07432209943
 10
-14080.88796012372
 20
40217.06042729664
 42
-0.0056698610036485
 10
-14080.94861045445
 20
40216.67714872805
 10
-14080.95101588781
 20
40216.66298960858
 42
-0.005272107720048
 10
-14081.0251480886
 20
40216.25286226894
 10
-14081.02791123745
 20
40216.23844563351
 42
-0.0049289272187991
 10
-14081.11620535558
 20
40215.80113712224
 10
-14081.11931785023
 20
40215.78646826958
 42
-0.004741595674374
 10
-14081.22255584178
 20
40215.32167151213
 10
-14081.25732405213
 20
40215.17186441678
 42
-0.0084404470975399
 10
-14081.44734049565
 20
40214.41164039243
 10
-14081.45346718368
 20
40214.3887762681
 42
-0.0039635940267201
 10
-14081.67492086809
 20
40213.58778740343
 10
-14081.68829766315
 20
40213.54085578726
 42
-0.0072475040886799
 10
-14081.95574455098
 20
40212.65163607097
 10
-14082.02595687779
 20
40212.42989572105
 42
-0.0051345458817273
 10
-14082.3127162499
 20
40211.55557053308
 10
-14082.33424251698
 20
40211.49214426502
 42
-0.0019150016556631
 10
-14082.58977592353
 20
40210.74859514573
 10
-14082.59624352783
 20
40210.73000768109
 42
-0.0021524362737665
 10
-14082.84472157899
 20
40210.0256818591
 10
-14082.85393199935
 20
40209.99992828176
 42
-0.0024331286892709
 10
-14083.09018725872
 20
40209.34932897268
 10
-14083.09923521138
 20
40209.32478566605
 42
-0.0027449721768252
 10
-14083.32384978211
 20
40208.7256557874
 10
-14083.33273978954
 20
40208.70233319745
 42
-0.0031083229715625
 10
-14083.54628227611
 20
40208.15240915997
 10
-14083.55501840789
 20
40208.13031944385
 42
-0.0035311343329293
 10
-14083.75805959338
 20
40207.62733631838
 10
-14083.76664493243
 20
40207.60649359511
 42
-0.0040245641043452
 10
-14083.95975673632
 20
40207.14818427228
 10
-14083.96819285001
 20
40207.12860490401
 42
-0.0046015135888591
 10
-14084.15194914309
 20
40206.71269987457
 10
-14084.16023532075
 20
40206.69440273548
 42
-0.0052768638344106
 10
-14084.33521283987
 20
40206.31862985084
 10
-14084.34334505051
 20
40206.30163651228
 42
-0.0060672675586887
 10
-14084.51012466327
 20
40205.96372088918
 10
-14084.51809414369
 20
40205.9480556303
 42
-0.0069904648837997
 10
-14084.67726253775
 20
40205.64571982353
 10
-14084.6850539375
 20
40205.63140927405
 42
-0.0080637022677845
 10
-14084.83720579771
 20
40205.36237397115
 10
-14084.8447948303
 20
40205.3494461056
 42
-0.0093006455617525
 10
-14084.99053550687
 20
40205.11143170704
 10
-14084.99788617361
 20
40205.09991373787
 42
-0.0107060777941764
 10
-14085.13783471705
 20
40204.89064342048
 10
-14085.14489648521
 20
40204.88055787809
 42
-0.0122723111616431
 10
-14085.27969020353
 20
40204.69776454843
 10
-14085.28001642707
 20
40204.69734416064
 42
-0.0141836319639291
 10
-14085.42359803006
 20
40204.52277440279
 10
-14085.43054578571
 20
40204.51479940253
 42
-0.0175957477359309
 10
-14085.57045195374
 20
40204.36517851413
 42
-0.0080466359756044
 10
-14085.71791571885
 20
40204.2228559859
 10
-14085.76395026329
 20
40204.17983554788
 42
-0.0269600260360095
 10
-14086.01723050928
 20
40203.96751228937
 10
-14086.0837976456
 20
40203.91756087472
 42
-0.0178362839621545
 10
-14086.32374213523
 20
40203.7505429485
 10
-14086.33098710621
 20
40203.7458744363
 42
-0.0174650732729821
 10
-14086.56732330367
 20
40203.60501347133
 42
-0.0169240130044951
 10
-14086.81278954954
 20
40203.48072121154
 10
-14086.85877570508
 20
40203.45935925598
 42
-0.0318883036839167
 10
-14087.20912656063
 20
40203.3230209465
 10
-14087.27749209585
 20
40203.30132032601
 42
-0.0284435909908078
 10
-14087.65354222216
 20
40203.20510289053
 10
-14087.68870038259
 20
40203.19820929471
 42
-0.0243909341004288
 10
-14088.00214384358
 20
40203.15248826367
 10
-14088.05242457037
 20
40203.14764271677
 42
-0.0196639293050121
 10
-14088.26802014787
 20
40203.13539443125
 10
-14088.31984421906
 20
40203.13449117052
 42
-0.0100501510712327
 10
-14088.4322675007
 20
40203.13479156887
 10
-14088.46392736221
 20
40203.13551264076
 42
-0.0019752031877625
 10
-14088.51301969873
 20
40203.13682480097
 10
-14088.51578000188
 20
40203.13690949279
 42
0.0065378751264486
 10
-14088.5593565767
 20
40203.13767638401
 42
-0.0167974694544213
 10
-14088.6028873998
 20
40203.13933628254
 10
-14088.6069667389
 20
40203.13962929342
 42
-0.0081283275663918
 10
-14088.65852653666
 20
40203.14417628707
 10
-14088.67026611052
 20
40203.14540420464
 42
-0.0126703439886073
 10
-14088.74498440638
 20
40203.15513899572
 10
-14088.76777227399
 20
40203.15869725162
 42
-0.0117852088385318
 10
-14088.88731125985
 20
40203.18026024679
 10
-14088.94269171158
 20
40203.19160378702
 42
-0.0251774592324364
 10
-14089.16953575055
 20
40203.25010179644
 10
-14089.21425494049
 20
40203.2640686158
 42
-0.0146525199744224
 10
-14089.40064792798
 20
40203.32833514299
 42
-0.0166929435730083
 10
-14089.58262558407
 20
40203.40414227603
 10
-14089.58728221538
 20
40203.40626717666
 42
-0.0191684358314936
 10
-14089.77246584671
 20
40203.49950326049
 10
-14089.77579843239
 20
40203.501344508
 42
-0.0221181781841743
 10
-14089.95910873625
 20
40203.61347800635
 10
-14089.9614585403
 20
40203.61506230436
 42
-0.0254984685308821
 10
-14090.13774869071
 20
40203.74747345436
 10
-14090.16023083838
 20
40203.76622576326
 42
-0.0292492648617977
 10
-14090.28499977723
 20
40203.8833185629
 42
-0.0159048957548599
 10
-14090.39883977467
 20
40204.0113385545
 10
-14090.40015856526
 20
40204.01292016753
 42
-0.0343813379354875
 10
-14090.50279582689
 20
40204.15479149331
 10
-14090.53428735824
 20
40204.2052948854
 42
-0.0369117275814953
 10
-14090.62017986014
 20
40204.36877212634
 42
-0.0191751379917859
 10
-14090.68737324569
 20
40204.54117673232
 10
-14090.68913656946
 20
40204.54627007702
 42
-0.0378178042063347
 10
-14090.73893128824
 20
40204.73521085313
 10
-14090.74492658397
 20
40204.76777147129
 42
-0.0184846046551472
 10
-14090.76564378327
 20
40204.90952429184
 42
-0.017986635162015
 10
-14090.77597678834
 20
40205.05241510495
 10
-14090.77603323079
 20
40205.05397279154
 42
-0.0085497186033136
 10
-14090.77746551189
 20
40205.12884595655
 42
-0.0085497186033136
  0
ENDBLK
  5
6C
330
23
100
AcDbEntity
  8
template
390
1D
100
AcDbBlockEnd
  0
BLOCK
  5
6D
330
24
100
AcDbEntity
  8
notes
390
1D
100
AcDbBlockBegin
  2
*D3
 70
     1
 10
0.0
 20
0.0
 30
0.0
  3
*D3
  1
*D3
  0
LINE
  5
6E
330
24
100
AcDbEntity
  8
0
  6
Continuous
 62
     0
370
    -2
390
1D
100
AcDbLine
 10
-381.3037025699468
 20
-20.38754014817096
 30
0.0
 11
-765.0387137032503
 21
-20.38754014817096
 31
0.0
  0
LINE
  5
6F
330
24
100
AcDbEntity
  8
0
  6
Continuous
 62
     0
370
    -2
390
1D
100
AcDbLine
 10
-381.3037025699359
 20
-870.3813952959681
 30
0.0
 11
-765.0387137032503
 21
-870.3813952959681
 31
0.0
  0
LINE
  5
70
330
24
100
AcDbEntity
  8
0
  6
Continuous
 62
     0
370
    -2
390
1D
100
AcDbLine
 10
-765.0387137032503
 20
-20.38754014817096
 30
0.0
 11
-765.0387137032503
 21
-870.3813952959681
 31
0.0
  0
CIRCLE
  5
71
102
{ACAD_REACTORS
330
72
102
}
330
24
100
AcDbEntity
  8
0
  6
Continuous
 62
     0
370
    -2
390
1D
100
AcDbCircle
 10
-765.0387137032503
 20
-20.38754014817096
 30
0.0
 40
1.9998779296875
  0
HATCH
  5
72
330
24
100
AcDbEntity
  8
0
  6
Continuous
 62
     0
370
    -2
390
1D
100
AcDbHatch
 10
0.0
 20
0.0
 30
0.0
210
0.0
220
0.0
230
1.0
  2
SOLID
 70
     1
 71
     1
 91
        1
 92
        1
 93
        1
 72
     2
 10
-765.0387137032503
 20
-20.38754014817096
 40
1.9998779296875
 50
0.0
 51
360.0
 73
     0
 97
        1
330
71
 75
     0
 76
     1
 98
        1
 10
0.0
 20
0.0
  0
CIRCLE
  5
73
102
{ACAD_REACTORS
330
74
102
}
330
24
100
AcDbEntity
  8
0
  6
Continuous
 62
     0
370
    -2
390
1D
100
AcDbCircle
 10
-765.0387137032503
 20
-870.3813952959681
 30
0.0
 40
1.9998779296875
  0
HATCH
  5
74
330
24
100
AcDbEntity
  8
0
  6
Continuous
 62
     0
370
    -2
390
1D
100
AcDbHatch
 10
0.0
 20
0.0
 30
0.0
210
0.0
220
0.0
230
1.0
  2
SOLID
 70
     1
 71
     1
 91
        1
 92
        1
 93
        1
 72
     2
 10
-765.0387137032503
 20
-870.3813952959681
 40
1.9998779296875
 50
0.0
 51
360.0
 73
     0
 97
        1
330
73
 75
     0
 76
     1
 98
        1
 10
0.0
 20
0.0
  0
MTEXT
  5
75
330
24
100
AcDbEntity
  8
0
 62
     0
390
1D
100
AcDbMText
 10
-796.31183870325
 20
-469.1969694042418
 30
0.0
 40
21.828125
 41
0.0
 46
0.0
 71
     1
 72
     1
  1
850
  7
MS UI Gothic
 11
0.0
 21
1.0
 31
0.0
 73
     1
 44
0.8762322015334064
  0
POINT
  5
76
330
24
100
AcDbEntity
  8
Defpoints
 62
     0
370
     0
390
1D
100
AcDbPoint
 10
-356.3037025699359
 20
-870.3813952959681
 30
0.0
  0
POINT
  5
77
330
24
100
AcDbEntity
  8
Defpoints
 62
     0
370
     0
390
1D
100
AcDbPoint
 10
-356.3037025699468
 20
-20.38754014817096
 30
0.0
  0
POINT
  5
78
330
24
100
AcDbEntity
  8
Defpoints
 62
     0
370
     0
390
1D
100
AcDbPoint
 10
-765.0387137032503
 20
-20.38754014817096
 30
0.0
  0
ENDBLK
  5
79
330
24
100
AcDbEntity
  8
notes
390
1D
100
AcDbBlockEnd
  0
BLOCK
  5
7A
330
25
100
AcDbEntity
  8
notes
390
1D
100
AcDbBlockBegin
  2
*D4
 70
     1
 10
0.0
 20
0.0
 30
0.0
  3
*D4
  1
*D4
  0
LINE
  5
7B
330
25
100
AcDbEntity
  8
0
  6
Continuous
 62
     0
370
    -2
390
1D
100
AcDbLine
 10
-265.4482413453388
 20
-855.3786157167197
 30
0.0
 11
-8.038713703243047
 21
-855.3786157167197
 31
0.0
  0
LINE
  5
7C
330
25
100
AcDbEntity
  8
0
  6
Continuous
 62
     0
370
    -2
390
1D
100
AcDbLine
 10
-264.905346971771
 20
-35.3897036877388
 30
0.0
 11
-8.038713703243047
 21
-35.3897036877388
 31
0.0
  0
LINE
  5
7D
330
25
100
AcDbEntity
  8
0
  6
Continuous
 62
     0
370
    -2
390
1D
100
AcDbLine
 10
-8.038713703243047
 20
-855.3786157167197
 30
0.0
 11
-8.038713703243047
 21
-35.3897036877388
 31
0.0
  0
CIRCLE
  5
7E
102
{ACAD_REACTORS
330
7F
102
}
330
25
100
AcDbEntity
  8
0
  6
Continuous
 62
     0
370
    -2
390
1D
100
AcDbCircle
 10
-8.038713703243047
 20
-855.3786157167197
 30
0.0
 40
1.9998779296875
  0
HATCH
  5
7F
330
25
100
AcDbEntity
  8
0
  6
Continuous
 62
     0
370
    -2
390
1D
100
AcDbHatch
 10
0.0
 20
0.0
 30
0.0
210
0.0
220
0.0
230
1.0
  2
SOLID
 70
     1
 71
     1
 91
        1
 92
        1
 93
        1
 72
     2
 10
-8.038713703243047
 20
-855.3786157167197
 40
1.9998779296875
 50
0.0
 51
360.0
 73
     0
 97
        1
330
7E
 75
     0
 76
     1
 98
        1
 10
0.0
 20
0.0
  0
CIRCLE
  5
80
102
{ACAD_REACTORS
330
81
102
}
330
25
100
AcDbEntity
  8
0
  6
Continuous
 62
     0
370
    -2
390
1D
100
AcDbCircle
 10
-8.038713703243047
 20
-35.3897036877388
 30
0.0
 40
1.9998779296875
  0
HATCH
  5
81
330
25
100
AcDbEntity
  8
0
  6
Continuous
 62
     0
370
    -2
390
1D
100
AcDbHatch
 10
0.0
 20
0.0
 30
0.0
210
0.0
220
0.0
230
1.0
  2
SOLID
 70
     1
 71
     1
 91
        1
 92
        1
 93
        1
 72
     2
 10
-8.038713703243047
 20
-35.3897036877388
 40
1.9998779296875
 50
0.0
 51
360.0
 73
     0
 97
        1
330
80
 75
     0
 76
     1
 98
        1
 10
0.0
 20
0.0
  0
MTEXT
  5
82
330
25
100
AcDbEntity
  8
0
 62
     0
390
1D
100
AcDbMText
 10
-39.31183870324276
 20
-469.1966613843979
 30
0.0
 40
21.828125
 41
0.0
 46
0.0
 71
     1
 72
     1
  1
820
  7
MS UI Gothic
 11
0.0
 21
1.0
 31
0.0
 73
     1
 44
0.8762322015334064
  0
POINT
  5
83
330
25
100
AcDbEntity
  8
Defpoints
 62
     0
370
     0
390
1D
100
AcDbPoint
 10
-289.905346971771
 20
-35.3897036877388
 30
0.0
  0
POINT
  5
84
330
25
100
AcDbEntity
  8
Defpoints
 62
     0
370
     0
390
1D
100
AcDbPoint
 10
-290.4482413453388
 20
-855.3786157167197
 30
0.0
  0
POINT
  5
85
330
25
100
AcDbEntity
  8
Defpoints
 62
     0
370
     0
390
1D
100
AcDbPoint
 10
-8.038713703243047
 20
-855.3786157167197
 30
0.0
  0
ENDBLK
  5
86
330
25
100
AcDbEntity
  8
notes
390
1D
100
AcDbBlockEnd
  0
BLOCK
  5
87
330
26
100
AcDbEntity
  8
notes
390
1D
100
AcDbBlockBegin
  2
*D5
 70
     1
 10
0.0
 20
0.0
 30
0.0
  3
*D5
  1
*D5
  0
LINE
  5
88
330
26
100
AcDbEntity
  8
0
  6
Continuous
 62
     0
370
    -2
390
1D
100
AcDbLine
 10
-615.0387137032503
 20
-203.7820030244111
 30
0.0
 11
-615.0387137032503
 21
79.61245985182904
 31
0.0
  0
LINE
  5
89
330
26
100
AcDbEntity
  8
0
  6
Continuous
 62
     0
370
    -2
390
1D
100
AcDbLine
 10
-108.038713703243
 20
-340.8470392957024
 30
0.0
 11
-108.038713703243
 21
79.61245985182904
 31
0.0
  0
LINE
  5
8A
330
26
100
AcDbEntity
  8
0
  6
Continuous
 62
     0
370
    -2
390
1D
100
AcDbLine
 10
-615.0387137032503
 20
79.61245985182904
 30
0.0
 11
-108.038713703243
 21
79.61245985182904
 31
0.0
  0
CIRCLE
  5
8B
102
{ACAD_REACTORS
330
8C
102
}
330
26
100
AcDbEntity
  8
0
  6
Continuous
 62
     0
370
    -2
390
1D
100
AcDbCircle
 10
-615.0387137032503
 20
79.61245985182904
 30
0.0
 40
1.9998779296875
  0
HATCH
  5
8C
330
26
100
AcDbEntity
  8
0
  6
Continuous
 62
     0
370
    -2
390
1D
100
AcDbHatch
 10
0.0
 20
0.0
 30
0.0
210
0.0
220
0.0
230
1.0
  2
SOLID
 70
     1
 71
     1
 91
        1
 92
        1
 93
        1
 72
     2
 10
-615.0387137032503
 20
79.61245985182904
 40
1.9998779296875
 50
0.0
 51
360.0
 73
     0
 97
        1
330
8B
 75
     0
 76
     1
 98
        1
 10
0.0
 20
0.0
  0
CIRCLE
  5
8D
102
{ACAD_REACTORS
330
8E
102
}
330
26
100
AcDbEntity
  8
0
  6
Continuous
 62
     0
370
    -2
390
1D
100
AcDbCircle
 10
-108.038713703243
 20
79.61245985182904
 30
0.0
 40
1.9998779296875
  0
HATCH
  5
8E
330
26
100
AcDbEntity
  8
0
  6
Continuous
 62
     0
370
    -2
390
1D
100
AcDbHatch
 10
0.0
 20
0.0
 30
0.0
210
0.0
220
0.0
230
1.0
  2
SOLID
 70
     1
 71
     1
 91
        1
 92
        1
 93
        1
 72
     2
 10
-108.038713703243
 20
79.61245985182904
 40
1.9998779296875
 50
0.0
 51
360.0
 73
     0
 97
        1
330
8D
 75
     0
 76
     1
 98
        1
 10
0.0
 20
0.0
  0
MTEXT
  5
8F
330
26
100
AcDbEntity
  8
0
 62
     0
390
1D
100
AcDbMText
 10
-385.3512153854226
 20
110.8855848518288
 30
0.0
 40
21.828125
 41
0.0
 46
0.0
 71
     1
 72
     1
  1
507
  7
MS UI Gothic
 73
     1
 44
0.8762322015334064
  0
POINT
  5
90
330
26
100
AcDbEntity
  8
Defpoints
 62
     0
370
     0
390
1D
100
AcDbPoint
 10
-108.038713703243
 20
-365.8470392957024
 30
0.0
  0
POINT
  5
91
330
26
100
AcDbEntity
  8
Defpoints
 62
     0
370
     0
390
1D
100
AcDbPoint
 10
-615.0387137032503
 20
-228.7820030244111
 30
0.0
  0
POINT
  5
92
330
26
100
AcDbEntity
  8
Defpoints
 62
     0
370
     0
390
1D
100
AcDbPoint
 10
-615.0387137032503
 20
79.61245985182904
 30
0.0
  0
ENDBLK
  5
93
330
26
100
AcDbEntity
  8
notes
390
1D
100
AcDbBlockEnd
  0
BLOCK
  5
94
330
27
100
AcDbEntity
  8
notes
390
1D
100
AcDbBlockBegin
  2
*D6
 70
     1
 10
0.0
 20
0.0
 30
0.0
  3
*D6
  1
*D6
  0
LINE
  5
95
330
27
100
AcDbEntity
  8
0
  6
Continuous
 62
     0
370
    -2
390
1D
100
AcDbLine
 10
-640.0387137032503
 20
-661.986932419728
 30
0.0
 11
-715.0387137032503
 21
-661.986932419728
 31
0.0
  0
LINE
  5
96
330
27
100
AcDbEntity
  8
0
  6
Continuous
 62
     0
370
    -2
390
1D
100
AcDbLine
 10
-640.0387137032503
 20
-228.986932419728
 30
0.0
 11
-715.0387137032503
 21
-228.986932419728
 31
0.0
  0
LINE
  5
97
330
27
100
AcDbEntity
  8
0
  6
Continuous
 62
     0
370
    -2
390
1D
100
AcDbLine
 10
-715.0387137032503
 20
-661.986932419728
 30
0.0
 11
-715.0387137032503
 21
-228.986932419728
 31
0.0
  0
CIRCLE
  5
98
102
{ACAD_REACTORS
330
99
102
}
330
27
100
AcDbEntity
  8
0
  6
Continuous
 62
     0
370
    -2
390
1D
100
AcDbCircle
 10
-715.0387137032503
 20
-661.986932419728
 30
0.0
 40
1.9998779296875
  0
HATCH
  5
99
330
27
100
AcDbEntity
  8
0
  6
Continuous
 62
     0
370
    -2
390
1D
100
AcDbHatch
 10
0.0
 20
0.0
 30
0.0
210
0.0
220
0.0
230
1.0
  2
SOLID
 70
     1
 71
     1
 91
        1
 92
        1
 93
        1
 72
     2
 10
-715.0387137032503
 20
-661.986932419728
 40
1.9998779296875
 50
0.0
 51
360.0
 73
     0
 97
        1
330
98
 75
     0
 76
     1
 98
        1
 10
0.0
 20
0.0
  0
CIRCLE
  5
9A
102
{ACAD_REACTORS
330
9B
102
}
330
27
100
AcDbEntity
  8
0
  6
Continuous
 62
     0
370
    -2
390
1D
100
AcDbCircle
 10
-715.0387137032503
 20
-228.986932419728
 30
0.0
 40
1.9998779296875
  0
HATCH
  5
9B
330
27
100
AcDbEntity
  8
0
  6
Continuous
 62
     0
370
    -2
390
1D
100
AcDbHatch
 10
0.0
 20
0.0
 30
0.0
210
0.0
220
0.0
230
1.0
  2
SOLID
 70
     1
 71
     1
 91
        1
 92
        1
 93
        1
 72
     2
 10
-715.0387137032503
 20
-228.986932419728
 40
1.9998779296875
 50
0.0
 51
360.0
 73
     0
 97
        1
330
9A
 75
     0
 76
     1
 98
        1
 10
0.0
 20
0.0
  0
MTEXT
  5
9C
330
27
100
AcDbEntity
  8
0
 62
     0
390
1D
100
AcDbMText
 10
-746.31183870325
 20
-469.2994341019003
 30
0.0
 40
21.828125
 41
0.0
 46
0.0
 71
     1
 72
     1
  1
433
  7
MS UI Gothic
 11
0.0
 21
1.0
 31
0.0
 73
     1
 44
0.8762322015334064
  0
POINT
  5
9D
330
27
100
AcDbEntity
  8
Defpoints
 62
     0
370
     0
390
1D
100
AcDbPoint
 10
-615.0387137032503
 20
-228.986932419728
 30
0.0
  0
POINT
  5
9E
330
27
100
AcDbEntity
  8
Defpoints
 62
     0
370
     0
390
1D
100
AcDbPoint
 10
-615.0387137032503
 20
-661.986932419728
 30
0.0
  0
POINT
  5
9F
330
27
100
AcDbEntity
  8
Defpoints
 62
     0
370
     0
390
1D
100
AcDbPoint
 10
-715.0387137032503
 20
-661.986932419728
 30
0.0
  0
ENDBLK
  5
A0
330
27
100
AcDbEntity
  8
notes
390
1D
100
AcDbBlockEnd
  0
BLOCK
  5
A1
330
28
100
AcDbEntity
  8
notes
390
1D
100
AcDbBlockBegin
  2
*D7
 70
     1
 10
0.0
 20
0.0
 30
0.0
  3
*D7
  1
*D7
  0
LINE
  5
A2
330
28
100
AcDbEntity
  8
0
  6
Continuous
 62
     0
370
    -2
390
1D
100
AcDbLine
 10
-520.0387137032503
 20
-846.4364966389112
 30
0.0
 11
-520.0387137032503
 21
-970.3813952959608
 31
0.0
  0
LINE
  5
A3
330
28
100
AcDbEntity
  8
0
  6
Continuous
 62
     0
370
    -2
390
1D
100
AcDbLine
 10
-120.0387137032503
 20
-617.2284397706317
 30
0.0
 11
-120.0387137032503
 21
-970.3813952959608
 31
0.0
  0
LINE
  5
A4
330
28
100
AcDbEntity
  8
0
  6
Continuous
 62
     0
370
    -2
390
1D
100
AcDbLine
 10
-520.0387137032503
 20
-970.3813952959608
 30
0.0
 11
-120.0387137032503
 21
-970.3813952959608
 31
0.0
  0
CIRCLE
  5
A5
102
{ACAD_REACTORS
330
A6
102
}
330
28
100
AcDbEntity
  8
0
  6
Continuous
 62
     0
370
    -2
390
1D
100
AcDbCircle
 10
-520.0387137032503
 20
-970.3813952959608
 30
0.0
 40
1.9998779296875
  0
HATCH
  5
A6
330
28
100
AcDbEntity
  8
0
  6
Continuous
 62
     0
370
    -2
390
1D
100
AcDbHatch
 10
0.0
 20
0.0
 30
0.0
210
0.0
220
0.0
230
1.0
  2
SOLID
 70
     1
 71
     1
 91
        1
 92
        1
 93
        1
 72
     2
 10
-520.0387137032503
 20
-970.3813952959608
 40
1.9998779296875
 50
0.0
 51
360.0
 73
     0
 97
        1
330
A5
 75
     0
 76
     1
 98
        1
 10
0.0
 20
0.0
  0
CIRCLE
  5
A7
102
{ACAD_REACTORS
330
A8
102
}
330
28
100
AcDbEntity
  8
0
  6
Continuous
 62
     0
370
    -2
390
1D
100
AcDbCircle
 10
-120.0387137032503
 20
-970.3813952959608
 30
0.0
 40
1.9998779296875
  0
HATCH
  5
A8
330
28
100
AcDbEntity
  8
0
  6
Continuous
 62
     0
370
    -2
390
1D
100
AcDbHatch
 10
0.0
 20
0.0
 30
0.0
210
0.0
220
0.0
230
1.0
  2
SOLID
 70
     1
 71
     1
 91
        1
 92
        1
 93
        1
 72
     2
 10
-120.0387137032503
 20
-970.3813952959608
 40
1.9998779296875
 50
0.0
 51
360.0
 73
     0
 97
        1
330
A7
 75
     0
 76
     1
 98
        1
 10
0.0
 20
0.0
  0
MTEXT
  5
A9
330
28
100
AcDbEntity
  8
0
 62
     0
390
1D
100
AcDbMText
 10
-343.8512153854263
 20
-939.1082702959611
 30
0.0
 40
21.828125
 41
0.0
 46
0.0
 71
     1
 72
     1
  1
400
  7
MS UI Gothic
 73
     1
 44
0.8762322015334064
  0
POINT
  5
AA
330
28
100
AcDbEntity
  8
Defpoints
 62
     0
370
     0
390
1D
100
AcDbPoint
 10
-120.0387137032503
 20
-592.2284397706317
 30
0.0
  0
POINT
  5
AB
330
28
100
AcDbEntity
  8
Defpoints
 62
     0
370
     0
390
1D
100
AcDbPoint
 10
-520.0387137032503
 20
-821.4364966389112
 30
0.0
  0
POINT
  5
AC
330
28
100
AcDbEntity
  8
Defpoints
 62
     0
370
     0
390
1D
100
AcDbPoint
 10
-520.0387137032503
 20
-970.3813952959608
 30
0.0
  0
ENDBLK
  5
AD
330
28
100
AcDbEntity
  8
notes
390
1D
100
AcDbBlockEnd
  0
BLOCK
  5
AE
330
29
100
AcDbEntity
  8
notes
390
1D
100
AcDbBlockBegin
  2
*D8
 70
     1
 10
0.0
 20
0.0
 30
0.0
  3
*D8
  1
*D8
  0
LINE
  5
AF
330
29
100
AcDbEntity
  8
0
  6
Continuous
 62
     0
370
    -2
390
1D
100
AcDbLine
 10
484.4009141678998
 20
4.612471621752775
 30
0.0
 11
484.4009141678998
 21
79.61247162175277
 31
0.0
  0
LINE
  5
B0
330
29
100
AcDbEntity
  8
0
  6
Continuous
 62
     0
370
    -2
390
1D
100
AcDbLine
 10
614.425003855662
 20
-3.387528378247225
 30
0.0
 11
614.425003855662
 21
79.61247162175277
 31
0.0
  0
LINE
  5
B1
330
29
100
AcDbEntity
  8
0
  6
Continuous
 62
     0
370
    -2
390
1D
100
AcDbLine
 10
484.4009141678998
 20
79.61247162175277
 30
0.0
 11
614.425003855662
 21
79.61247162175277
 31
0.0
  0
CIRCLE
  5
B2
102
{ACAD_REACTORS
330
B3
102
}
330
29
100
AcDbEntity
  8
0
  6
Continuous
 62
     0
370
    -2
390
1D
100
AcDbCircle
 10
484.4009141678998
 20
79.61247162175277
 30
0.0
 40
1.9998779296875
  0
HATCH
  5
B3
330
29
100
AcDbEntity
  8
0
  6
Continuous
 62
     0
370
    -2
390
1D
100
AcDbHatch
 10
0.0
 20
0.0
 30
0.0
210
0.0
220
0.0
230
1.0
  2
SOLID
 70
     1
 71
     1
 91
        1
 92
        1
 93
        1
 72
     2
 10
484.4009141678998
 20
79.61247162175277
 40
1.9998779296875
 50
0.0
 51
360.0
 73
     0
 97
        1
330
B2
 75
     0
 76
     1
 98
        1
 10
0.0
 20
0.0
  0
CIRCLE
  5
B4
102
{ACAD_REACTORS
330
B5
102
}
330
29
100
AcDbEntity
  8
0
  6
Continuous
 62
     0
370
    -2
390
1D
100
AcDbCircle
 10
614.425003855662
 20
79.61247162175277
 30
0.0
 40
1.9998779296875
  0
HATCH
  5
B5
330
29
100
AcDbEntity
  8
0
  6
Continuous
 62
     0
370
    -2
390
1D
100
AcDbHatch
 10
0.0
 20
0.0
 30
0.0
210
0.0
220
0.0
230
1.0
  2
SOLID
 70
     1
 71
     1
 91
        1
 92
        1
 93
        1
 72
     2
 10
614.425003855662
 20
79.61247162175277
 40
1.9998779296875
 50
0.0
 51
360.0
 73
     0
 97
        1
330
B4
 75
     0
 76
     1
 98
        1
 10
0.0
 20
0.0
  0
MTEXT
  5
B6
330
29
100
AcDbEntity
  8
0
 62
     0
390
1D
100
AcDbMText
 10
525.600457329605
 20
110.8855966217525
 30
0.0
 40
21.828125
 41
0.0
 46
0.0
 71
     1
 72
     1
  1
130
  7
MS UI Gothic
 73
     1
 44
0.8762322015334064
  0
POINT
  5
B7
330
29
100
AcDbEntity
  8
Defpoints
 62
     0
370
     0
390
1D
100
AcDbPoint
 10
614.425003855662
 20
-28.38752837824723
 30
0.0
  0
POINT
  5
B8
330
29
100
AcDbEntity
  8
Defpoints
 62
     0
370
     0
390
1D
100
AcDbPoint
 10
484.4009141678998
 20
-20.38752837824723
 30
0.0
  0
POINT
  5
B9
330
29
100
AcDbEntity
  8
Defpoints
 62
     0
370
     0
390
1D
100
AcDbPoint
 10
484.4009141678998
 20
79.61247162175277
 30
0.0
  0
ENDBLK
  5
BA
330
29
100
AcDbEntity
  8
notes
390
1D
100
AcDbBlockEnd
  0
BLOCK
  5
BB
330
2A
100
AcDbEntity
  8
notes
390
1D
100
AcDbBlockBegin
  2
*D9
 70
     1
 10
0.0
 20
0.0
 30
0.0
  3
*D9
  1
*D9
  0
LINE
  5
BC
330
2A
100
AcDbEntity
  8
0
  6
Continuous
 62
     0
370
    -2
390
1D
100
AcDbLine
 10
484.4009141679035
 20
-895.3813835260371
 30
0.0
 11
484.4009141679035
 21
-970.3813952959681
 31
0.0
  0
LINE
  5
BD
330
2A
100
AcDbEntity
  8
0
  6
Continuous
 62
     0
370
    -2
390
1D
100
AcDbLine
 10
562.4009141679035
 20
-625.4037426560826
 30
0.0
 11
562.4009141679035
 21
-970.3813952959681
 31
0.0
  0
LINE
  5
BE
330
2A
100
AcDbEntity
  8
0
  6
Continuous
 62
     0
370
    -2
390
1D
100
AcDbLine
 10
484.4009141679035
 20
-970.3813952959681
 30
0.0
 11
562.4009141679035
 21
-970.3813952959681
 31
0.0
  0
CIRCLE
  5
BF
102
{ACAD_REACTORS
330
C0
102
}
330
2A
100
AcDbEntity
  8
0
  6
Continuous
 62
     0
370
    -2
390
1D
100
AcDbCircle
 10
484.4009141679035
 20
-970.3813952959681
 30
0.0
 40
1.9998779296875
  0
HATCH
  5
C0
330
2A
100
AcDbEntity
  8
0
  6
Continuous
 62
     0
370
    -2
390
1D
100
AcDbHatch
 10
0.0
 20
0.0
 30
0.0
210
0.0
220
0.0
230
1.0
  2
SOLID
 70
     1
 71
     1
 91
        1
 92
        1
 93
        1
 72
     2
 10
484.4009141679035
 20
-970.3813952959681
 40
1.9998779296875
 50
0.0
 51
360.0
 73
     0
 97
        1
330
BF
 75
     0
 76
     1
 98
        1
 10
0.0
 20
0.0
  0
CIRCLE
  5
C1
102
{ACAD_REACTORS
330
C2
102
}
330
2A
100
AcDbEntity
  8
0
  6
Continuous
 62
     0
370
    -2
390
1D
100
AcDbCircle
 10
562.4009141679035
 20
-970.3813952959681
 30
0.0
 40
1.9998779296875
  0
HATCH
  5
C2
330
2A
100
AcDbEntity
  8
0
  6
Continuous
 62
     0
370
    -2
390
1D
100
AcDbHatch
 10
0.0
 20
0.0
 30
0.0
210
0.0
220
0.0
230
1.0
  2
SOLID
 70
     1
 71
     1
 91
        1
 92
        1
 93
        1
 72
     2
 10
562.4009141679035
 20
-970.3813952959681
 40
1.9998779296875
 50
0.0
 51
360.0
 73
     0
 97
        1
330
C1
 75
     0
 76
     1
 98
        1
 10
0.0
 20
0.0
  0
MTEXT
  5
C3
330
2A
100
AcDbEntity
  8
0
 62
     0
390
1D
100
AcDbMText
 10
507.5259141679035
 20
-939.1082702959684
 30
0.0
 40
21.828125
 41
0.0
 46
0.0
 71
     1
 72
     1
  1
78
  7
MS UI Gothic
 73
     1
 44
0.8762322015334064
  0
POINT
  5
C4
330
2A
100
AcDbEntity
  8
Defpoints
 62
     0
370
     0
390
1D
100
AcDbPoint
 10
562.4009141679035
 20
-600.4037426560826
 30
0.0
  0
POINT
  5
C5
330
2A
100
AcDbEntity
  8
Defpoints
 62
     0
370
     0
390
1D
100
AcDbPoint
 10
484.4009141679035
 20
-870.3813835260371
 30
0.0
  0
POINT
  5
C6
330
2A
100
AcDbEntity
  8
Defpoints
 62
     0
370
     0
390
1D
100
AcDbPoint
 10
484.4009141679035
 20
-970.3813952959681
 30
0.0
  0
ENDBLK
  5
C7
330
2A
100
AcDbEntity
  8
notes
390
1D
100
AcDbBlockEnd
  0
BLOCK
  5
C8
330
2B
100
AcDbEntity
  8
notes
390
1D
100
AcDbBlockBegin
  2
*D10
 70
     1
 10
0.0
 20
0.0
 30
0.0
  3
*D10
  1
*D10
  0
LINE
  5
C9
330
2B
100
AcDbEntity
  8
0
  6
Continuous
 62
     0
370
    -2
390
1D
100
AcDbLine
 10
517.3919761683992
 20
-585.3818595763005
 30
0.0
 11
384.400914167898
 21
-585.3818595763005
 31
0.0
  0
LINE
  5
CA
330
2B
100
AcDbEntity
  8
0
  6
Continuous
 62
     0
370
    -2
390
1D
100
AcDbLine
 10
517.3919761683956
 20
-305.3299740949587
 30
0.0
 11
384.400914167898
 21
-305.3299740949587
 31
0.0
  0
LINE
  5
CB
330
2B
100
AcDbEntity
  8
0
  6
Continuous
 62
     0
370
    -2
390
1D
100
AcDbLine
 10
384.400914167898
 20
-585.3818595763005
 30
0.0
 11
384.400914167898
 21
-305.3299740949587
 31
0.0
  0
CIRCLE
  5
CC
102
{ACAD_REACTORS
330
CD
102
}
330
2B
100
AcDbEntity
  8
0
  6
Continuous
 62
     0
370
    -2
390
1D
100
AcDbCircle
 10
384.400914167898
 20
-585.3818595763005
 30
0.0
 40
1.9998779296875
  0
HATCH
  5
CD
330
2B
100
AcDbEntity
  8
0
  6
Continuous
 62
     0
370
    -2
390
1D
100
AcDbHatch
 10
0.0
 20
0.0
 30
0.0
210
0.0
220
0.0
230
1.0
  2
SOLID
 70
     1
 71
     1
 91
        1
 92
        1
 93
        1
 72
     2
 10
384.400914167898
 20
-585.3818595763005
 40
1.9998779296875
 50
0.0
 51
360.0
 73
     0
 97
        1
330
CC
 75
     0
 76
     1
 98
        1
 10
0.0
 20
0.0
  0
CIRCLE
  5
CE
102
{ACAD_REACTORS
330
CF
102
}
330
2B
100
AcDbEntity
  8
0
  6
Continuous
 62
     0
370
    -2
390
1D
100
AcDbCircle
 10
384.400914167898
 20
-305.3299740949587
 30
0.0
 40
1.9998779296875
  0
HATCH
  5
CF
330
2B
100
AcDbEntity
  8
0
  6
Continuous
 62
     0
370
    -2
390
1D
100
AcDbHatch
 10
0.0
 20
0.0
 30
0.0
210
0.0
220
0.0
230
1.0
  2
SOLID
 70
     1
 71
     1
 91
        1
 92
        1
 93
        1
 72
     2
 10
384.400914167898
 20
-305.3299740949587
 40
1.9998779296875
 50
0.0
 51
360.0
 73
     0
 97
        1
330
CE
 75
     0
 76
     1
 98
        1
 10
0.0
 20
0.0
  0
MTEXT
  5
D0
330
2B
100
AcDbEntity
  8
0
 62
     0
390
1D
100
AcDbMText
 10
353.1277891678983
 20
-469.1684185178019
 30
0.0
 40
21.828125
 41
0.0
 46
0.0
 71
     1
 72
     1
  1
280
  7
MS UI Gothic
 11
0.0
 21
1.0
 31
0.0
 73
     1
 44
0.8762322015334064
  0
POINT
  5
D1
330
2B
100
AcDbEntity
  8
Defpoints
 62
     0
370
     0
390
1D
100
AcDbPoint
 10
542.3919761683956
 20
-305.3299740949587
 30
0.0
  0
POINT
  5
D2
330
2B
100
AcDbEntity
  8
Defpoints
 62
     0
370
     0
390
1D
100
AcDbPoint
 10
542.3919761683992
 20
-585.3818595763005
 30
0.0
  0
POINT
  5
D3
330
2B
100
AcDbEntity
  8
Defpoints
 62
     0
370
     0
390
1D
100
AcDbPoint
 10
384.400914167898
 20
-585.3818595763005
 30
0.0
  0
ENDBLK
  5
D4
330
2B
100
AcDbEntity
  8
notes
390
1D
100
AcDbBlockEnd
  0
BLOCK
  5
D5
330
2C
100
AcDbEntity
  8
notes
390
1D
100
AcDbBlockBegin
  2
*D11
 70
     1
 10
0.0
 20
0.0
 30
0.0
  3
*D11
  1
*D11
  0
LINE
  5
D6
330
2C
100
AcDbEntity
  8
0
  6
Continuous
 62
     0
370
    -2
390
1D
100
AcDbLine
 10
484.4009141678816
 20
1064.499996672792
 30
0.0
 11
484.4009141678816
 21
1143.338505338994
 31
0.0
  0
LINE
  5
D7
330
2C
100
AcDbEntity
  8
0
  6
Continuous
 62
     0
370
    -2
390
1D
100
AcDbLine
 10
589.4203712233812
 20
1021.935463758513
 30
0.0
 11
589.4203712233812
 21
1143.338505338994
 31
0.0
  0
LINE
  5
D8
330
2C
100
AcDbEntity
  8
0
  6
Continuous
 62
     0
370
    -2
390
1D
100
AcDbLine
 10
484.4009141678816
 20
1143.338505338994
 30
0.0
 11
589.4203712233812
 21
1143.338505338994
 31
0.0
  0
CIRCLE
  5
D9
102
{ACAD_REACTORS
330
DA
102
}
330
2C
100
AcDbEntity
  8
0
  6
Continuous
 62
     0
370
    -2
390
1D
100
AcDbCircle
 10
484.4009141678816
 20
1143.338505338994
 30
0.0
 40
1.9998779296875
  0
HATCH
  5
DA
330
2C
100
AcDbEntity
  8
0
  6
Continuous
 62
     0
370
    -2
390
1D
100
AcDbHatch
 10
0.0
 20
0.0
 30
0.0
210
0.0
220
0.0
230
1.0
  2
SOLID
 70
     1
 71
     1
 91
        1
 92
        1
 93
        1
 72
     2
 10
484.4009141678816
 20
1143.338505338994
 40
1.9998779296875
 50
0.0
 51
360.0
 73
     0
 97
        1
330
D9
 75
     0
 76
     1
 98
        1
 10
0.0
 20
0.0
  0
CIRCLE
  5
DB
102
{ACAD_REACTORS
330
DC
102
}
330
2C
100
AcDbEntity
  8
0
  6
Continuous
 62
     0
370
    -2
390
1D
100
AcDbCircle
 10
589.4203712233812
 20
1143.338505338994
 30
0.0
 40
1.9998779296875
  0
HATCH
  5
DC
330
2C
100
AcDbEntity
  8
0
  6
Continuous
 62
     0
370
    -2
390
1D
100
AcDbHatch
 10
0.0
 20
0.0
 30
0.0
210
0.0
220
0.0
230
1.0
  2
SOLID
 70
     1
 71
     1
 91
        1
 92
        1
 93
        1
 72
     2
 10
589.4203712233812
 20
1143.338505338994
 40
1.9998779296875
 50
0.0
 51
360.0
 73
     0
 97
        1
330
DB
 75
     0
 76
     1
 98
        1
 10
0.0
 20
0.0
  0
MTEXT
  5
DD
330
2C
100
AcDbEntity
  8
0
 62
     0
390
1D
100
AcDbMText
 10
513.0981410134555
 20
1174.611630338994
 30
0.0
 40
21.828125
 41
0.0
 46
0.0
 71
     1
 72
     1
  1
105
  7
MS UI Gothic
 73
     1
 44
0.8762322015334064
  0
POINT
  5
DE
330
2C
100
AcDbEntity
  8
Defpoints
 62
     0
370
     0
390
1D
100
AcDbPoint
 10
589.4203712233812
 20
996.9354637585129
 30
0.0
  0
POINT
  5
DF
330
2C
100
AcDbEntity
  8
Defpoints
 62
     0
370
     0
390
1D
100
AcDbPoint
 10
484.4009141678816
 20
1039.499996672792
 30
0.0
  0
POINT
  5
E0
330
2C
100
AcDbEntity
  8
Defpoints
 62
     0
370
     0
390
1D
100
AcDbPoint
 10
484.4009141678816
 20
1143.338505338994
 30
0.0
  0
ENDBLK
  5
E1
330
2C
100
AcDbEntity
  8
notes
390
1D
100
AcDbBlockEnd
  0
BLOCK
  5
E2
330
2D
100
AcDbEntity
  8
notes
390
1D
100
AcDbBlockBegin
  2
*D12
 70
     1
 10
0.0
 20
0.0
 30
0.0
  3
*D12
  1
*D12
  0
LINE
  5
E3
330
2D
100
AcDbEntity
  8
0
  6
Continuous
 62
     0
370
    -2
390
1D
100
AcDbLine
 10
589.4203712233812
 20
1021.935463758513
 30
0.0
 11
589.4203712233812
 21
1143.338505338987
 31
0.0
  0
LINE
  5
E4
330
2D
100
AcDbEntity
  8
0
  6
Continuous
 62
     0
370
    -2
390
1D
100
AcDbLine
 10
614.4250038555747
 20
989.1841978280281
 30
0.0
 11
614.4250038555747
 21
1143.338505338987
 31
0.0
  0
LINE
  5
E5
330
2D
100
AcDbEntity
  8
0
  6
Continuous
 62
     0
370
    -2
390
1D
100
AcDbLine
 10
614.4250038555747
 20
1143.338505338987
 30
0.0
 11
650.5111111111146
 21
1143.338505338987
 31
0.0
  0
LINE
  5
E6
330
2D
100
AcDbEntity
  8
0
  6
Continuous
 62
     0
370
    -2
390
1D
100
AcDbLine
 10
589.4203712233812
 20
1143.338505338987
 30
0.0
 11
614.4250038555747
 21
1143.338505338987
 31
0.0
  0
CIRCLE
  5
E7
102
{ACAD_REACTORS
330
E8
102
}
330
2D
100
AcDbEntity
  8
0
  6
Continuous
 62
     0
370
    -2
390
1D
100
AcDbCircle
 10
589.4203712233812
 20
1143.338505338987
 30
0.0
 40
1.9998779296875
  0
HATCH
  5
E8
330
2D
100
AcDbEntity
  8
0
  6
Continuous
 62
     0
370
    -2
390
1D
100
AcDbHatch
 10
0.0
 20
0.0
 30
0.0
210
0.0
220
0.0
230
1.0
  2
SOLID
 70
     1
 71
     1
 91
        1
 92
        1
 93
        1
 72
     2
 10
589.4203712233812
 20
1143.338505338987
 40
1.9998779296875
 50
0.0
 51
360.0
 73
     0
 97
        1
330
E7
 75
     0
 76
     1
 98
        1
 10
0.0
 20
0.0
  0
CIRCLE
  5
E9
102
{ACAD_REACTORS
330
EA
102
}
330
2D
100
AcDbEntity
  8
0
  6
Continuous
 62
     0
370
    -2
390
1D
100
AcDbCircle
 10
614.4250038555747
 20
1143.338505338987
 30
0.0
 40
1.9998779296875
  0
HATCH
  5
EA
330
2D
100
AcDbEntity
  8
0
  6
Continuous
 62
     0
370
    -2
390
1D
100
AcDbHatch
 10
0.0
 20
0.0
 30
0.0
210
0.0
220
0.0
230
1.0
  2
SOLID
 70
     1
 71
     1
 91
        1
 92
        1
 93
        1
 72
     2
 10
614.4250038555747
 20
1143.338505338987
 40
1.9998779296875
 50
0.0
 51
360.0
 73
     0
 97
        1
330
E9
 75
     0
 76
     1
 98
        1
 10
0.0
 20
0.0
  0
MTEXT
  5
EB
330
2D
100
AcDbEntity
  8
0
 62
     0
390
1D
100
AcDbMText
 10
618.7611111111146
 20
1174.611630338986
 30
0.0
 40
21.828125
 41
0.0
 46
0.0
 71
     1
 72
     1
  1
25
  7
MS UI Gothic
 73
     1
 44
0.8762322015334064
  0
POINT
  5
EC
330
2D
100
AcDbEntity
  8
Defpoints
 62
     0
370
     0
390
1D
100
AcDbPoint
 10
614.4250038555747
 20
964.1841978280281
 30
0.0
  0
POINT
  5
ED
330
2D
100
AcDbEntity
  8
Defpoints
 62
     0
370
     0
390
1D
100
AcDbPoint
 10
589.4203712233812
 20
996.9354637585129
 30
0.0
  0
POINT
  5
EE
330
2D
100
AcDbEntity
  8
Defpoints
 62
     0
370
     0
390
1D
100
AcDbPoint
 10
589.4203712233812
 20
1143.338505338987
 30
0.0
  0
ENDBLK
  5
EF
330
2D
100
AcDbEntity
  8
notes
390
1D
100
AcDbBlockEnd
  0
BLOCK
  5
F0
330
2E
100
AcDbEntity
  8
notes
390
1D
100
AcDbBlockBegin
  2
*D13
 70
     1
 10
0.0
 20
0.0
 30
0.0
  3
*D13
  1
*D13
  0
LINE
  5
F1
330
2E
100
AcDbEntity
  8
0
  6
Continuous
 62
     0
370
    -2
390
1D
100
AcDbLine
 10
484.4009141678889
 20
853.4808317429706
 30
0.0
 11
484.4009141678889
 21
834.4808317429706
 31
0.0
  0
LINE
  5
F2
330
2E
100
AcDbEntity
  8
0
  6
Continuous
 62
     0
370
    -2
390
1D
100
AcDbLine
 10
581.4188887810469
 20
853.4808317429706
 30
0.0
 11
581.4188887810469
 21
834.4808317429706
 31
0.0
  0
LINE
  5
F3
330
2E
100
AcDbEntity
  8
0
  6
Continuous
 62
     0
370
    -2
390
1D
100
AcDbLine
 10
484.4009141678889
 20
834.4808317429706
 30
0.0
 11
343.7286008834853
 21
834.4808317429706
 31
0.0
  0
LINE
  5
F4
330
2E
100
AcDbEntity
  8
0
  6
Continuous
 62
     0
370
    -2
390
1D
100
AcDbLine
 10
484.4009141678889
 20
834.4808317429706
 30
0.0
 11
581.4188887810469
 21
834.4808317429706
 31
0.0
  0
CIRCLE
  5
F5
102
{ACAD_REACTORS
330
F6
102
}
330
2E
100
AcDbEntity
  8
0
  6
Continuous
 62
     0
370
    -2
390
1D
100
AcDbCircle
 10
484.4009141678889
 20
834.4808317429706
 30
0.0
 40
1.9998779296875
  0
HATCH
  5
F6
330
2E
100
AcDbEntity
  8
0
  6
Continuous
 62
     0
370
    -2
390
1D
100
AcDbHatch
 10
0.0
 20
0.0
 30
0.0
210
0.0
220
0.0
230
1.0
  2
SOLID
 70
     1
 71
     1
 91
        1
 92
        1
 93
        1
 72
     2
 10
484.4009141678889
 20
834.4808317429706
 40
1.9998779296875
 50
0.0
 51
360.0
 73
     0
 97
        1
330
F5
 75
     0
 76
     1
 98
        1
 10
0.0
 20
0.0
  0
CIRCLE
  5
F7
102
{ACAD_REACTORS
330
F8
102
}
330
2E
100
AcDbEntity
  8
0
  6
Continuous
 62
     0
370
    -2
390
1D
100
AcDbCircle
 10
581.4188887810469
 20
834.4808317429706
 30
0.0
 40
1.9998779296875
  0
HATCH
  5
F8
330
2E
100
AcDbEntity
  8
0
  6
Continuous
 62
     0
370
    -2
390
1D
100
AcDbHatch
 10
0.0
 20
0.0
 30
0.0
210
0.0
220
0.0
230
1.0
  2
SOLID
 70
     1
 71
     1
 91
        1
 92
        1
 93
        1
 72
     2
 10
581.4188887810469
 20
834.4808317429706
 40
1.9998779296875
 50
0.0
 51
360.0
 73
     0
 97
        1
330
F7
 75
     0
 76
     1
 98
        1
 10
0.0
 20
0.0
  0
MTEXT
  5
F9
330
2E
100
AcDbEntity
  8
0
 62
     0
390
1D
100
AcDbMText
 10
343.7286008834853
 20
865.7539567429703
 30
0.0
 40
21.828125
 41
0.0
 46
0.0
 71
     1
 72
     1
  1
100（深さ）
  7
MS UI Gothic
 73
     1
 44
0.8762322015334064
  0
POINT
  5
FA
330
2E
100
AcDbEntity
  8
Defpoints
 62
     0
370
     0
390
1D
100
AcDbPoint
 10
581.4188887810469
 20
828.4808317429706
 30
0.0
  0
POINT
  5
FB
330
2E
100
AcDbEntity
  8
Defpoints
 62
     0
370
     0
390
1D
100
AcDbPoint
 10
484.4009141678889
 20
828.4808317429706
 30
0.0
  0
POINT
  5
FC
330
2E
100
AcDbEntity
  8
Defpoints
 62
     0
370
     0
390
1D
100
AcDbPoint
 10
484.4009141678889
 20
834.4808317429706
 30
0.0
  0
ENDBLK
  5
FD
330
2E
100
AcDbEntity
  8
notes
390
1D
100
AcDbBlockEnd
  0
BLOCK
  5
FE
330
2F
100
AcDbEntity
  8
notes
390
1D
100
AcDbBlockBegin
  2
*D14
 70
     1
 10
0.0
 20
0.0
 30
0.0
  3
*D14
  1
*D14
  0
LINE
  5
FF
330
2F
100
AcDbEntity
  8
0
  6
Continuous
 62
     0
370
    -2
390
1D
100
AcDbLine
 10
639.4250038556365
 20
535.8703361252774
 30
0.0
 11
714.425003855642
 21
535.8703361252774
 31
0.0
  0
LINE
  5
100
330
2F
100
AcDbEntity
  8
0
  6
Continuous
 62
     0
370
    -2
390
1D
100
AcDbLine
 10
639.4250038556438
 20
745.8703361252774
 30
0.0
 11
714.425003855642
 21
745.8703361252774
 31
0.0
  0
LINE
  5
101
330
2F
100
AcDbEntity
  8
0
  6
Continuous
 62
     0
370
    -2
390
1D
100
AcDbLine
 10
714.425003855642
 20
535.8703361252774
 30
0.0
 11
714.425003855642
 21
745.8703361252774
 31
0.0
  0
CIRCLE
  5
102
102
{ACAD_REACTORS
330
103
102
}
330
2F
100
AcDbEntity
  8
0
  6
Continuous
 62
     0
370
    -2
390
1D
100
AcDbCircle
 10
714.425003855642
 20
535.8703361252774
 30
0.0
 40
1.9998779296875
  0
HATCH
  5
103
330
2F
100
AcDbEntity
  8
0
  6
Continuous
 62
     0
370
    -2
390
1D
100
AcDbHatch
 10
0.0
 20
0.0
 30
0.0
210
0.0
220
0.0
230
1.0
  2
SOLID
 70
     1
 71
     1
 91
        1
 92
        1
 93
        1
 72
     2
 10
714.425003855642
 20
535.8703361252774
 40
1.9998779296875
 50
0.0
 51
360.0
 73
     0
 97
        1
330
102
 75
     0
 76
     1
 98
        1
 10
0.0
 20
0.0
  0
CIRCLE
  5
104
102
{ACAD_REACTORS
330
105
102
}
330
2F
100
AcDbEntity
  8
0
  6
Continuous
 62
     0
370
    -2
390
1D
100
AcDbCircle
 10
714.425003855642
 20
745.8703361252774
 30
0.0
 40
1.9998779296875
  0
HATCH
  5
105
330
2F
100
AcDbEntity
  8
0
  6
Continuous
 62
     0
370
    -2
390
1D
100
AcDbHatch
 10
0.0
 20
0.0
 30
0.0
210
0.0
220
0.0
230
1.0
  2
SOLID
 70
     1
 71
     1
 91
        1
 92
        1
 93
        1
 72
     2
 10
714.425003855642
 20
745.8703361252774
 40
1.9998779296875
 50
0.0
 51
360.0
 73
     0
 97
        1
330
104
 75
     0
 76
     1
 98
        1
 10
0.0
 20
0.0
  0
MTEXT
  5
106
330
2F
100
AcDbEntity
  8
0
 62
     0
390
1D
100
AcDbMText
 10
683.1518788556423
 20
617.0578344431051
 30
0.0
 40
21.828125
 41
0.0
 46
0.0
 71
     1
 72
     1
  1
210
  7
MS UI Gothic
 11
0.0
 21
1.0
 31
0.0
 73
     1
 44
0.8762322015334064
  0
POINT
  5
107
330
2F
100
AcDbEntity
  8
Defpoints
 62
     0
370
     0
390
1D
100
AcDbPoint
 10
614.4250038556438
 20
745.8703361252774
 30
0.0
  0
POINT
  5
108
330
2F
100
AcDbEntity
  8
Defpoints
 62
     0
370
     0
390
1D
100
AcDbPoint
 10
614.4250038556365
 20
535.8703361252774
 30
0.0
  0
POINT
  5
109
330
2F
100
AcDbEntity
  8
Defpoints
 62
     0
370
     0
390
1D
100
AcDbPoint
 10
714.425003855642
 20
535.8703361252774
 30
0.0
  0
ENDBLK
  5
10A
330
2F
100
AcDbEntity
  8
notes
390
1D
100
AcDbBlockEnd
  0
BLOCK
  5
10B
330
30
100
AcDbEntity
  8
notes
390
1D
100
AcDbBlockBegin
  2
*D15
 70
     1
 10
0.0
 20
0.0
 30
0.0
  3
*D15
  1
*D15
  0
LINE
  5
10C
330
30
100
AcDbEntity
  8
0
  6
Continuous
 62
     0
370
    -2
390
1D
100
AcDbLine
 10
481.7652812336328
 20
535.8703361252774
 30
0.0
 11
384.4009141678998
 21
535.8703361252774
 31
0.0
  0
LINE
  5
10D
330
30
100
AcDbEntity
  8
0
  6
Continuous
 62
     0
370
    -2
390
1D
100
AcDbLine
 10
459.4009141678816
 20
590.8703361252774
 30
0.0
 11
384.4009141678998
 21
590.8703361252774
 31
0.0
  0
LINE
  5
10E
330
30
100
AcDbEntity
  8
0
  6
Continuous
 62
     0
370
    -2
390
1D
100
AcDbLine
 10
384.4009141678998
 20
535.8703361252774
 30
0.0
 11
384.4009141678998
 21
590.8703361252774
 31
0.0
  0
CIRCLE
  5
10F
102
{ACAD_REACTORS
330
110
102
}
330
30
100
AcDbEntity
  8
0
  6
Continuous
 62
     0
370
    -2
390
1D
100
AcDbCircle
 10
384.4009141678998
 20
535.8703361252774
 30
0.0
 40
1.9998779296875
  0
HATCH
  5
110
330
30
100
AcDbEntity
  8
0
  6
Continuous
 62
     0
370
    -2
390
1D
100
AcDbHatch
 10
0.0
 20
0.0
 30
0.0
210
0.0
220
0.0
230
1.0
  2
SOLID
 70
     1
 71
     1
 91
        1
 92
        1
 93
        1
 72
     2
 10
384.4009141678998
 20
535.8703361252774
 40
1.9998779296875
 50
0.0
 51
360.0
 73
     0
 97
        1
330
10F
 75
     0
 76
     1
 98
        1
 10
0.0
 20
0.0
  0
CIRCLE
  5
111
102
{ACAD_REACTORS
330
112
102
}
330
30
100
AcDbEntity
  8
0
  6
Continuous
 62
     0
370
    -2
390
1D
100
AcDbCircle
 10
384.4009141678998
 20
590.8703361252774
 30
0.0
 40
1.9998779296875
  0
HATCH
  5
112
330
30
100
AcDbEntity
  8
0
  6
Continuous
 62
     0
370
    -2
390
1D
100
AcDbHatch
 10
0.0
 20
0.0
 30
0.0
210
0.0
220
0.0
230
1.0
  2
SOLID
 70
     1
 71
     1
 91
        1
 92
        1
 93
        1
 72
     2
 10
384.4009141678998
 20
590.8703361252774
 40
1.9998779296875
 50
0.0
 51
360.0
 73
     0
 97
        1
330
111
 75
     0
 76
     1
 98
        1
 10
0.0
 20
0.0
  0
MTEXT
  5
113
330
30
100
AcDbEntity
  8
0
 62
     0
390
1D
100
AcDbMText
 10
353.1277891679001
 20
547.4953361252774
 30
0.0
 40
21.828125
 41
0.0
 46
0.0
 71
     1
 72
     1
  1
55
  7
MS UI Gothic
 11
0.0
 21
1.0
 31
0.0
 73
     1
 44
0.8762322015334064
  0
POINT
  5
114
330
30
100
AcDbEntity
  8
Defpoints
 62
     0
370
     0
390
1D
100
AcDbPoint
 10
484.4009141678816
 20
590.8703361252774
 30
0.0
  0
POINT
  5
115
330
30
100
AcDbEntity
  8
Defpoints
 62
     0
370
     0
390
1D
100
AcDbPoint
 10
506.7652812336328
 20
535.8703361252774
 30
0.0
  0
POINT
  5
116
330
30
100
AcDbEntity
  8
Defpoints
 62
     0
370
     0
390
1D
100
AcDbPoint
 10
384.4009141678998
 20
535.8703361252774
 30
0.0
  0
ENDBLK
  5
117
330
30
100
AcDbEntity
  8
notes
390
1D
100
AcDbBlockEnd
  0
BLOCK
  5
118
330
31
100
AcDbEntity
  8
notes
390
1D
100
AcDbBlockBegin
  2
*D16
 70
     1
 10
0.0
 20
0.0
 30
0.0
  3
*D16
  1
*D16
  0
LINE
  5
119
330
31
100
AcDbEntity
  8
0
  6
Continuous
 62
     0
370
    -2
390
1D
100
AcDbLine
 10
-615.0387137032503
 20
-686.986932419728
 30
0.0
 11
-615.0387137032503
 21
-970.3813952959681
 31
0.0
  0
LINE
  5
11A
330
31
100
AcDbEntity
  8
0
  6
Continuous
 62
     0
370
    -2
390
1D
100
AcDbLine
 10
-520.0387137032503
 20
-843.6483048285445
 30
0.0
 11
-520.0387137032503
 21
-970.3813952959681
 31
0.0
  0
LINE
  5
11B
330
31
100
AcDbEntity
  8
0
  6
Continuous
 62
     0
370
    -2
390
1D
100
AcDbLine
 10
-615.0387137032503
 20
-970.3813952959681
 30
0.0
 11
-520.0387137032503
 21
-970.3813952959681
 31
0.0
  0
CIRCLE
  5
11C
102
{ACAD_REACTORS
330
11D
102
}
330
31
100
AcDbEntity
  8
0
  6
Continuous
 62
     0
370
    -2
390
1D
100
AcDbCircle
 10
-615.0387137032503
 20
-970.3813952959681
 30
0.0
 40
1.9998779296875
  0
HATCH
  5
11D
330
31
100
AcDbEntity
  8
0
  6
Continuous
 62
     0
370
    -2
390
1D
100
AcDbHatch
 10
0.0
 20
0.0
 30
0.0
210
0.0
220
0.0
230
1.0
  2
SOLID
 70
     1
 71
     1
 91
        1
 92
        1
 93
        1
 72
     2
 10
-615.0387137032503
 20
-970.3813952959681
 40
1.9998779296875
 50
0.0
 51
360.0
 73
     0
 97
        1
330
11C
 75
     0
 76
     1
 98
        1
 10
0.0
 20
0.0
  0
CIRCLE
  5
11E
102
{ACAD_REACTORS
330
11F
102
}
330
31
100
AcDbEntity
  8
0
  6
Continuous
 62
     0
370
    -2
390
1D
100
AcDbCircle
 10
-520.0387137032503
 20
-970.3813952959681
 30
0.0
 40
1.9998779296875
  0
HATCH
  5
11F
330
31
100
AcDbEntity
  8
0
  6
Continuous
 62
     0
370
    -2
390
1D
100
AcDbHatch
 10
0.0
 20
0.0
 30
0.0
210
0.0
220
0.0
230
1.0
  2
SOLID
 70
     1
 71
     1
 91
        1
 92
        1
 93
        1
 72
     2
 10
-520.0387137032503
 20
-970.3813952959681
 40
1.9998779296875
 50
0.0
 51
360.0
 73
     0
 97
        1
330
11E
 75
     0
 76
     1
 98
        1
 10
0.0
 20
0.0
  0
MTEXT
  5
120
330
31
100
AcDbEntity
  8
0
 62
     0
390
1D
100
AcDbMText
 10
-583.4137137032503
 20
-939.1082702959684
 30
0.0
 40
21.828125
 41
0.0
 46
0.0
 71
     1
 72
     1
  1
95
  7
MS UI Gothic
 73
     1
 44
0.8762322015334064
  0
POINT
  5
121
330
31
100
AcDbEntity
  8
Defpoints
 62
     0
370
     0
390
1D
100
AcDbPoint
 10
-520.0387137032503
 20
-818.6483048285445
 30
0.0
  0
POINT
  5
122
330
31
100
AcDbEntity
  8
Defpoints
 62
     0
370
     0
390
1D
100
AcDbPoint
 10
-615.0387137032503
 20
-661.986932419728
 30
0.0
  0
POINT
  5
123
330
31
100
AcDbEntity
  8
Defpoints
 62
     0
370
     0
390
1D
100
AcDbPoint
 10
-615.0387137032503
 20
-970.3813952959681
 30
0.0
  0
ENDBLK
  5
124
330
31
100
AcDbEntity
  8
notes
390
1D
100
AcDbBlockEnd
  0
BLOCK
  5
125
330
32
100
AcDbEntity
  8
notes
390
1D
100
AcDbBlockBegin
  2
グループ-1
 70
     0
 10
0.0
 20
0.0
 30
0.0
  3
グループ-1
  1
グループ-1
  0
MTEXT
  5
126
330
32
100
AcDbEntity
  8
0
 62
     7
390
1D
100
AcDbMText
 10
-14903.70217807032
 20
40809.51924724951
 30
0.0
 40
24.4326171875
 41
842.8831565639147
 46
0.0
 71
     1
 72
     1
  1
＝φ30もしくはφ35の水栓取付用穴あけ加工を承ります。\P   必要な場合、ご注文の際にご指示ください。
  7
ＭＳ ゴシック
 11
0.0
 21
1.0
 31
0.0
 73
     1
 44
1.043768984567712
  0
CIRCLE
  5
127
330
32
100
AcDbEntity
  8
0
  6
STYLE_23
 62
     7
370
    15
390
1D
100
AcDbCircle
 10
-14891.15783396842
 20
40785.05677807096
 30
0.0
 40
17.5
  0
ENDBLK
  5
128
330
32
100
AcDbEntity
  8
notes
390
1D
100
AcDbBlockEnd
  0
BLOCK
  5
129
330
33
100
AcDbEntity
  8
notes
390
1D
100
AcDbBlockBegin
  2
グループ-2
 70
     0
 10
0.0
 20
0.0
 30
0.0
  3
グループ-2
  1
グループ-2
  0
INSERT
  5
12A
330
33
100
AcDbEntity
  8
0
 62
     7
390
1D
100
AcDbBlockReference
  2
グループ-1
 10
0.0
 20
0.0
 30
0.0
  0
ENDBLK
  5
12B
330
33
100
AcDbEntity
  8
notes
390
1D
100
AcDbBlockEnd
  0
BLOCK
  5
12C
330
34
100
AcDbEntity
  8
notes
390
1D
100
AcDbBlockBegin
  2
グループ-3
 70
     0
 10
0.0
 20
0.0
 30
0.0
  3
グループ-3
  1
グループ-3
  0
INSERT
  5
12D
330
34
100
AcDbEntity
  8
0
 62
     7
390
1D
100
AcDbBlockReference
  2
グループ-2
 10
0.0
 20
0.0
 30
0.0
  0
ENDBLK
  5
12E
330
34
100
AcDbEntity
  8
notes
390
1D
100
AcDbBlockEnd
  0
BLOCK
  5
12F
330
35
100
AcDbEntity
  8
ASN70-0002
390
1D
100
AcDbBlockBegin
  2
グループ-4
 70
     0
 10
0.0
 20
0.0
 30
0.0
  3
グループ-4
  1
グループ-4
  0
LINE
  5
130
330
35
100
AcDbEntity
  8
0
  6
STYLE_23
 62
     7
370
    15
390
1D
100
AcDbLine
 10
-14429.44405678173
 20
40948.02565129987
 30
0.0
 11
-14429.44405678173
 21
40988.02565129987
 31
0.0
  0
LINE
  5
131
330
35
100
AcDbEntity
  8
0
  6
STYLE_23
 62
     7
370
    15
390
1D
100
AcDbLine
 10
-14449.48385983852
 20
40968.0722314942
 30
0.0
 11
-14409.48385983852
 21
40968.0722314942
 31
0.0
  0
ENDBLK
  5
132
330
35
100
AcDbEntity
  8
ASN70-0002
390
1D
100
AcDbBlockEnd
  0
BLOCK
  5
133
330
36
100
AcDbEntity
  8
ASN70-0002
390
1D
100
AcDbBlockBegin
  2
グループ-5
 70
     0
 10
0.0
 20
0.0
 30
0.0
  3
グループ-5
  1
グループ-5
  0
LINE
  5
134
330
36
100
AcDbEntity
  8
0
  6
STYLE_23
 62
     7
370
    15
390
1D
100
AcDbLine
 10
-14429.44405678173
 20
41228.02565129987
 30
0.0
 11
-14429.44405678173
 21
41268.02565129987
 31
0.0
  0
LINE
  5
135
330
36
100
AcDbEntity
  8
0
  6
STYLE_23
 62
     7
370
    15
390
1D
100
AcDbLine
 10
-14449.48385983852
 20
41248.0722314942
 30
0.0
 11
-14409.48385983852
 21
41248.0722314942
 31
0.0
  0
ENDBLK
  5
136
330
36
100
AcDbEntity
  8
ASN70-0002
390
1D
100
AcDbBlockEnd
  0
BLOCK
  5
137
330
37
100
AcDbEntity
  8
ASN70-0002
390
1D
100
AcDbBlockBegin
  2
*D22
 70
     1
 10
0.0
 20
0.0
 30
0.0
  3
*D22
  1
*D22
  0
LINE
  5
138
330
37
100
AcDbEntity
  8
0
  6
Continuous
 62
     0
370
    -2
390
1D
100
AcDbLine
 10
639.4250038556329
 20
535.8703361252774
 30
0.0
 11
800.6111111111113
 21
535.8703361252774
 31
0.0
  0
LINE
  5
139
330
37
100
AcDbEntity
  8
0
  6
Continuous
 62
     0
370
    -2
390
1D
100
AcDbLine
 10
639.4250038555747
 20
965.8703361252774
 30
0.0
 11
800.6111111111113
 21
965.8703361252774
 31
0.0
  0
LINE
  5
13A
330
37
100
AcDbEntity
  8
0
  6
Continuous
 62
     0
370
    -2
390
1D
100
AcDbLine
 10
800.6111111111113
 20
535.8703361252774
 30
0.0
 11
800.6111111111113
 21
965.8703361252774
 31
0.0
  0
CIRCLE
  5
13B
102
{ACAD_REACTORS
330
13C
102
}
330
37
100
AcDbEntity
  8
0
  6
Continuous
 62
     0
370
    -2
390
1D
100
AcDbCircle
 10
800.6111111111113
 20
535.8703361252774
 30
0.0
 40
1.9998779296875
  0
HATCH
  5
13C
330
37
100
AcDbEntity
  8
0
  6
Continuous
 62
     0
370
    -2
390
1D
100
AcDbHatch
 10
0.0
 20
0.0
 30
0.0
210
0.0
220
0.0
230
1.0
  2
SOLID
 70
     1
 71
     1
 91
        1
 92
        1
 93
        1
 72
     2
 10
800.6111111111113
 20
535.8703361252774
 40
1.9998779296875
 50
0.0
 51
360.0
 73
     0
 97
        1
330
13B
 75
     0
 76
     1
 98
        1
 10
0.0
 20
0.0
  0
CIRCLE
  5
13D
102
{ACAD_REACTORS
330
13E
102
}
330
37
100
AcDbEntity
  8
0
  6
Continuous
 62
     0
370
    -2
390
1D
100
AcDbCircle
 10
800.6111111111113
 20
965.8703361252774
 30
0.0
 40
1.9998779296875
  0
HATCH
  5
13E
330
37
100
AcDbEntity
  8
0
  6
Continuous
 62
     0
370
    -2
390
1D
100
AcDbHatch
 10
0.0
 20
0.0
 30
0.0
210
0.0
220
0.0
230
1.0
  2
SOLID
 70
     1
 71
     1
 91
        1
 92
        1
 93
        1
 72
     2
 10
800.6111111111113
 20
965.8703361252774
 40
1.9998779296875
 50
0.0
 51
360.0
 73
     0
 97
        1
330
13D
 75
     0
 76
     1
 98
        1
 10
0.0
 20
0.0
  0
MTEXT
  5
13F
330
37
100
AcDbEntity
  8
0
 62
     0
390
1D
100
AcDbMText
 10
766.7334939236116
 20
727.0578344430978
 30
0.0
 40
24.4326171875
 41
0.0
 46
0.0
 71
     1
 72
     1
  1
430
  7
ＭＳ ゴシック
 11
0.0
 21
1.0
 31
0.0
 73
     1
 44
0.7828267384257843
  0
POINT
  5
140
330
37
100
AcDbEntity
  8
Defpoints
 62
     0
370
     0
390
1D
100
AcDbPoint
 10
614.4250038555747
 20
965.8703361252774
 30
0.0
  0
POINT
  5
141
330
37
100
AcDbEntity
  8
Defpoints
 62
     0
370
     0
390
1D
100
AcDbPoint
 10
614.4250038556329
 20
535.8703361252774
 30
0.0
  0
POINT
  5
142
330
37
100
AcDbEntity
  8
Defpoints
 62
     0
370
     0
390
1D
100
AcDbPoint
 10
800.6111111111113
 20
535.8703361252774
 30
0.0
  0
ENDBLK
  5
143
330
37
100
AcDbEntity
  8
ASN70-0002
390
1D
100
AcDbBlockEnd
  0
BLOCK
  5
144
330
38
100
AcDbEntity
  8
ASN70-0002
390
1D
100
AcDbBlockBegin
  2
*D23
 70
     1
 10
0.0
 20
0.0
 30
0.0
  3
*D23
  1
*D23
  0
LINE
  5
145
330
38
100
AcDbEntity
  8
0
  6
Continuous
 62
     0
370
    -2
390
1D
100
AcDbLine
 10
-640.0387137032503
 20
912.1841978280281
 30
0.0
 11
-705.6388888888887
 21
912.1841978280281
 31
0.0
  0
LINE
  5
146
330
38
100
AcDbEntity
  8
0
  6
Continuous
 62
     0
370
    -2
390
1D
100
AcDbLine
 10
-640.0387137032503
 20
582.1841978280281
 30
0.0
 11
-705.6388888888887
 21
582.1841978280281
 31
0.0
  0
LINE
  5
147
330
38
100
AcDbEntity
  8
0
  6
Continuous
 62
     0
370
    -2
390
1D
100
AcDbLine
 10
-705.6388888888887
 20
912.1841978280281
 30
0.0
 11
-705.6388888888887
 21
582.1841978280281
 31
0.0
  0
CIRCLE
  5
148
102
{ACAD_REACTORS
330
149
102
}
330
38
100
AcDbEntity
  8
0
  6
Continuous
 62
     0
370
    -2
390
1D
100
AcDbCircle
 10
-705.6388888888887
 20
912.1841978280281
 30
0.0
 40
1.9998779296875
  0
HATCH
  5
149
330
38
100
AcDbEntity
  8
0
  6
Continuous
 62
     0
370
    -2
390
1D
100
AcDbHatch
 10
0.0
 20
0.0
 30
0.0
210
0.0
220
0.0
230
1.0
  2
SOLID
 70
     1
 71
     1
 91
        1
 92
        1
 93
        1
 72
     2
 10
-705.6388888888887
 20
912.1841978280281
 40
1.9998779296875
 50
0.0
 51
360.0
 73
     0
 97
        1
330
148
 75
     0
 76
     1
 98
        1
 10
0.0
 20
0.0
  0
CIRCLE
  5
14A
102
{ACAD_REACTORS
330
14B
102
}
330
38
100
AcDbEntity
  8
0
  6
Continuous
 62
     0
370
    -2
390
1D
100
AcDbCircle
 10
-705.6388888888887
 20
582.1841978280281
 30
0.0
 40
1.9998779296875
  0
HATCH
  5
14B
330
38
100
AcDbEntity
  8
0
  6
Continuous
 62
     0
370
    -2
390
1D
100
AcDbHatch
 10
0.0
 20
0.0
 30
0.0
210
0.0
220
0.0
230
1.0
  2
SOLID
 70
     1
 71
     1
 91
        1
 92
        1
 93
        1
 72
     2
 10
-705.6388888888887
 20
582.1841978280281
 40
1.9998779296875
 50
0.0
 51
360.0
 73
     0
 97
        1
330
14A
 75
     0
 76
     1
 98
        1
 10
0.0
 20
0.0
  0
MTEXT
  5
14C
330
38
100
AcDbEntity
  8
0
 62
     0
390
1D
100
AcDbMText
 10
-739.5165060763884
 20
723.3716961458558
 30
0.0
 40
24.4326171875
 41
0.0
 46
0.0
 71
     1
 72
     1
  1
330
  7
ＭＳ ゴシック
 11
0.0
 21
1.0
 31
0.0
 73
     1
 44
0.7828267384257843
  0
POINT
  5
14D
330
38
100
AcDbEntity
  8
Defpoints
 62
     0
370
     0
390
1D
100
AcDbPoint
 10
-615.0387137032503
 20
582.1841978280281
 30
0.0
  0
POINT
  5
14E
330
38
100
AcDbEntity
  8
Defpoints
 62
     0
370
     0
390
1D
100
AcDbPoint
 10
-615.0387137032503
 20
912.1841978280281
 30
0.0
  0
POINT
  5
14F
330
38
100
AcDbEntity
  8
Defpoints
 62
     0
370
     0
390
1D
100
AcDbPoint
 10
-705.6388888888887
 20
912.1841978280281
 30
0.0
  0
ENDBLK
  5
150
330
38
100
AcDbEntity
  8
ASN70-0002
390
1D
100
AcDbBlockEnd
  0
BLOCK
  5
151
330
39
100
AcDbEntity
  8
ASN70-0002
390
1D
100
AcDbBlockBegin
  2
*D24
 70
     1
 10
0.0
 20
0.0
 30
0.0
  3
*D24
  1
*D24
  0
LINE
  5
152
330
39
100
AcDbEntity
  8
0
  6
Continuous
 62
     0
370
    -2
390
1D
100
AcDbLine
 10
-615.0387137032503
 20
937.1841978280281
 30
0.0
 11
-615.0387137032503
 21
983.0
 31
0.0
  0
LINE
  5
153
330
39
100
AcDbEntity
  8
0
  6
Continuous
 62
     0
370
    -2
390
1D
100
AcDbLine
 10
-355.0387137032503
 20
937.1841978280281
 30
0.0
 11
-355.0387137032503
 21
983.0
 31
0.0
  0
LINE
  5
154
330
39
100
AcDbEntity
  8
0
  6
Continuous
 62
     0
370
    -2
390
1D
100
AcDbLine
 10
-615.0387137032503
 20
983.0
 30
0.0
 11
-355.0387137032503
 21
983.0
 31
0.0
  0
CIRCLE
  5
155
102
{ACAD_REACTORS
330
156
102
}
330
39
100
AcDbEntity
  8
0
  6
Continuous
 62
     0
370
    -2
390
1D
100
AcDbCircle
 10
-615.0387137032503
 20
983.0
 30
0.0
 40
1.9998779296875
  0
HATCH
  5
156
330
39
100
AcDbEntity
  8
0
  6
Continuous
 62
     0
370
    -2
390
1D
100
AcDbHatch
 10
0.0
 20
0.0
 30
0.0
210
0.0
220
0.0
230
1.0
  2
SOLID
 70
     1
 71
     1
 91
        1
 92
        1
 93
        1
 72
     2
 10
-615.0387137032503
 20
983.0
 40
1.9998779296875
 50
0.0
 51
360.0
 73
     0
 97
        1
330
155
 75
     0
 76
     1
 98
        1
 10
0.0
 20
0.0
  0
CIRCLE
  5
157
102
{ACAD_REACTORS
330
158
102
}
330
39
100
AcDbEntity
  8
0
  6
Continuous
 62
     0
370
    -2
390
1D
100
AcDbCircle
 10
-355.0387137032503
 20
983.0
 30
0.0
 40
1.9998779296875
  0
HATCH
  5
158
330
39
100
AcDbEntity
  8
0
  6
Continuous
 62
     0
370
    -2
390
1D
100
AcDbHatch
 10
0.0
 20
0.0
 30
0.0
210
0.0
220
0.0
230
1.0
  2
SOLID
 70
     1
 71
     1
 91
        1
 92
        1
 93
        1
 72
     2
 10
-355.0387137032503
 20
983.0
 40
1.9998779296875
 50
0.0
 51
360.0
 73
     0
 97
        1
330
157
 75
     0
 76
     1
 98
        1
 10
0.0
 20
0.0
  0
MTEXT
  5
159
330
39
100
AcDbEntity
  8
0
 62
     0
390
1D
100
AcDbMText
 10
-508.8512153854263
 20
1016.8776171875
 30
0.0
 40
24.4326171875
 41
0.0
 46
0.0
 71
     1
 72
     1
  1
260
  7
ＭＳ ゴシック
 73
     1
 44
0.7828267384257843
  0
POINT
  5
15A
330
39
100
AcDbEntity
  8
Defpoints
 62
     0
370
     0
390
1D
100
AcDbPoint
 10
-355.0387137032503
 20
912.1841978280281
 30
0.0
  0
POINT
  5
15B
330
39
100
AcDbEntity
  8
Defpoints
 62
     0
370
     0
390
1D
100
AcDbPoint
 10
-615.0387137032503
 20
912.1841978280281
 30
0.0
  0
POINT
  5
15C
330
39
100
AcDbEntity
  8
Defpoints
 62
     0
370
     0
390
1D
100
AcDbPoint
 10
-615.0387137032503
 20
983.0
 30
0.0
  0
ENDBLK
  5
15D
330
39
100
AcDbEntity
  8
ASN70-0002
390
1D
100
AcDbBlockEnd
  0
BLOCK
  5
245
330
244
100
AcDbEntity
  8
0
100
AcDbBlockBegin
  2
*D25
 70
     1
 10
0.0
 20
0.0
 30
0.0
  3
*D25
  1
*D25
  0
LINE
  5
247
330
244
100
AcDbEntity
  8
ASN70-0002
  6
Continuous
 62
     0
370
    -2
100
AcDbLine
 10
-580.9390592420905
 20
-434.2799258933453
 30
0.0
 11
-671.9198076476056
 21
-379.4022918925916
 31
0.0
  0
MTEXT
  5
248
330
244
100
AcDbEntity
  8
ASN70-0002
  6
Continuous
 62
     0
370
     0
100
AcDbMText
 10
-646.222919164135
 20
-381.5724312451775
 30
0.0
 40
21.828125
 41
0.0
 46
0.0
 71
     5
 72
     1
  1
\A1;%%c35
  7
MS UI Gothic
 11
0.8562898217545672
 21
-0.5164956351795545
 31
0.0
 73
     1
 44
1.0
  0
INSERT
  5
249
330
244
100
AcDbEntity
  8
ASN70-0002
 62
     0
370
    -2
100
AcDbBlockReference
  2
_DOT
 10
-577.5141090102045
 20
-436.3457823364963
 30
0.0
 41
3.999755859375
 42
3.999755859375
 43
3.999755859375
 50
328.9025221809284
  0
POINT
  5
24A
330
244
100
AcDbEntity
  8
Defpoints
 62
     0
100
AcDbPoint
 10
-577.5141090102045
 20
-436.3457823364963
 30
0.0
  0
POINT
  5
24B
330
244
100
AcDbEntity
  8
Defpoints
 62
     0
100
AcDbPoint
 10
-547.5439652487946
 20
-454.4231295677807
 30
0.0
  0
ENDBLK
  5
246
330
244
100
AcDbEntity
  8
0
100
AcDbBlockEnd
  0
ENDSEC
  0
SECTION
  2
ENTITIES
  0
MTEXT
  5
15E
330
A
100
AcDbEntity
  8
template
 62
     7
390
1D
100
AcDbMText
 10
-967.9999999997581
 20
-1134.653514318801
 30
0.0
 40
16.28841145833333
 41
0.0
 46
0.0
 71
     1
 72
     1
  1
品名
  7
ＭＳ ゴシック
 73
     1
 44
0.7828267384257843
  0
MTEXT
  5
15F
330
A
100
AcDbEntity
  8
template
 62
     7
390
1D
100
AcDbMText
 10
-967.9999999997581
 20
-1219.653514318801
 30
0.0
 40
16.28841145833333
 41
0.0
 46
0.0
 71
     1
 72
     1
  1
仕様
  7
ＭＳ ゴシック
 73
     1
 44
0.7828267384257843
  0
MTEXT
  5
160
330
A
100
AcDbEntity
  8
template
 62
     7
390
1D
100
AcDbMText
 10
-914.9999999997581
 20
-1163.235975256299
 30
0.0
 40
24.4326171875
 41
0.0
 46
0.0
 71
     1
 72
     1
  1
洗面器 -NIC DESIGN,Slim-
  7
ＭＳ ゴシック
 73
     1
 44
0.7828267384257843
  0
LINE
  5
161
330
A
100
AcDbEntity
  8
template
  6
Continuous
 62
     7
370
     5
390
1D
100
AcDbLine
 10
974.9999999997581
 20
-1211.238592443799
 30
0.0
 11
-975.0000000002419
 21
-1211.238592443799
 31
0.0
  0
LINE
  5
162
330
A
100
AcDbEntity
  8
template
  6
Continuous
 62
     7
370
     5
390
1D
100
AcDbLine
 10
974.9999999997581
 20
-1126.238592443799
 30
0.0
 11
-975.0000000002419
 21
-1126.238592443799
 31
0.0
  0
LINE
  5
163
330
A
100
AcDbEntity
  8
template
  6
Continuous
 62
     7
370
     5
390
1D
100
AcDbLine
 10
975.0000000002419
 20
-1296.238592443799
 30
0.0
 11
222.0000000002419
 21
-1296.238592443799
 31
0.0
  0
MTEXT
  5
164
330
A
100
AcDbEntity
  8
template
 62
     7
390
1D
100
AcDbMText
 10
-914.9999999997581
 20
-1248.235975256299
 30
0.0
 40
24.4326171875
 41
0.0
 46
0.0
 71
     1
 72
     1
  1
壁掛け,カウンタ ートップ/オーバーフローなし/壁取付ボルト付属/\P陶器/ホワイト
  7
ＭＳ ゴシック
 73
     1
 44
1.130749733281688
  0
MTEXT
  5
165
330
A
100
AcDbEntity
  8
template
 62
     7
390
1D
100
AcDbMText
 10
-974.9999999995543
 20
-1393.092414500657
 30
0.0
 40
21.71788194444445
 41
0.0
 46
21.71788194444445
 71
     1
 72
     1
  1
{140401SH}
  7
ＭＳ ゴシック
 73
     1
 44
0.7828267384257843
1001
ACAD
1000
ACAD_MTEXT_DEFINED_HEIGHT_BEGIN
1070
    46
1040
21.71788194444445
1000
ACAD_MTEXT_DEFINED_HEIGHT_END
  0
MTEXT
  5
166
330
A
100
AcDbEntity
  8
template
 62
     7
390
1D
100
AcDbMText
 10
251.8714062525014
 20
-1326.148986917113
 30
0.0
 40
24.4326171875
 41
0.0
 46
0.0
 71
     1
 72
     1
  1
大洋金物株式会社 ティーフォルム事業部
  7
ＭＳ ゴシック
 73
     1
 44
0.7828267384257843
  0
INSERT
  5
167
330
A
100
AcDbEntity
  8
template
 62
     7
390
1D
100
AcDbBlockReference
  2
グループ
 10
14991.84497094963
 20
-41553.4540910705
 30
0.0
  0
MTEXT
  5
168
330
A
100
AcDbEntity
  8
template
 62
     7
390
1D
100
AcDbMText
 10
784.0000000005002
 20
-1248.235975256299
 30
0.0
 40
24.4326171875
 41
0.0
 46
0.0
 71
     1
 72
     1
  1
1:10
  7
ＭＳ ゴシック
 73
     1
 44
0.7828267384257843
  0
MTEXT
  5
169
330
A
100
AcDbEntity
  8
template
 62
     7
390
1D
100
AcDbMText
 10
731.0000000005002
 20
-1219.653514318801
 30
0.0
 40
16.28841145833333
 41
0.0
 46
0.0
 71
     1
 72
     1
  1
縮尺
  7
ＭＳ ゴシック
 73
     1
 44
0.7828267384257843
  0
LINE
  5
16A
330
A
100
AcDbEntity
  8
template
  6
Continuous
 62
     7
370
     5
390
1D
100
AcDbLine
 10
724.0000000005002
 20
-1296.238592443799
 30
0.0
 11
724.0000000005002
 21
-1211.238592443799
 31
0.0
  0
MTEXT
  5
16B
330
A
100
AcDbEntity
  8
template
 62
     7
390
1D
100
AcDbMText
 10
480.0000000005002
 20
-1219.653514318801
 30
0.0
 40
16.28841145833333
 41
0.0
 46
0.0
 71
     1
 72
     1
  1
容量
  7
ＭＳ ゴシック
 73
     1
 44
0.7828267384257843
  0
MTEXT
  5
16C
330
A
100
AcDbEntity
  8
template
 62
     7
390
1D
100
AcDbMText
 10
533.0000000005002
 20
-1248.235975256299
 30
0.0
 40
24.4326171875
 41
0.0
 46
0.0
 71
     1
 72
     1
  1
22L
  7
ＭＳ ゴシック
 73
     1
 44
0.7828267384257843
  0
LINE
  5
16D
330
A
100
AcDbEntity
  8
template
  6
Continuous
 62
     7
370
     5
390
1D
100
AcDbLine
 10
473.0000000005002
 20
-1296.238592443799
 30
0.0
 11
473.0000000005002
 21
-1211.238592443799
 31
0.0
  0
MTEXT
  5
16E
330
A
100
AcDbEntity
  8
template
 62
     7
390
1D
100
AcDbMText
 10
229.0000000005002
 20
-1134.653514318801
 30
0.0
 40
16.28841145833333
 41
0.0
 46
0.0
 71
     1
 72
     1
  1
品番
  7
ＭＳ ゴシック
 73
     1
 44
0.7828267384257843
  0
MTEXT
  5
16F
330
A
100
AcDbEntity
  8
template
 62
     7
390
1D
100
AcDbMText
 10
229.0000000005002
 20
-1219.653514318801
 30
0.0
 40
16.28841145833333
 41
0.0
 46
0.0
 71
     1
 72
     1
  1
重量
  7
ＭＳ ゴシック
 73
     1
 44
0.7828267384257843
  0
MTEXT
  5
170
330
A
100
AcDbEntity
  8
template
 62
     7
390
1D
100
AcDbMText
 10
282.0000000005002
 20
-1163.235975256299
 30
0.0
 40
24.4326171875
 41
0.0
 46
24.4326171875
 71
     1
 72
     1
  1
{ASN70-0002-01S}
  7
ＭＳ ゴシック
 73
     1
 44
0.7828267384257843
1001
ACAD
1000
ACAD_MTEXT_DEFINED_HEIGHT_BEGIN
1070
    46
1040
24.4326171875
1000
ACAD_MTEXT_DEFINED_HEIGHT_END
  0
MTEXT
  5
171
330
A
100
AcDbEntity
  8
template
 62
     7
390
1D
100
AcDbMText
 10
282.0000000005002
 20
-1248.235975256299
 30
0.0
 40
24.4326171875
 41
0.0
 46
0.0
 71
     1
 72
     1
  1
19kg
  7
ＭＳ ゴシック
 73
     1
 44
0.7828267384257843
  0
LINE
  5
172
330
A
100
AcDbEntity
  8
template
  6
Continuous
 62
     7
370
     5
390
1D
100
AcDbLine
 10
222.0000000005002
 20
-1381.238592443799
 30
0.0
 11
222.0000000005002
 21
-1126.238592443799
 31
0.0
  0
LWPOLYLINE
  5
173
330
A
100
AcDbEntity
  8
template
  6
Continuous
 62
     7
370
     5
390
1D
100
AcDbPolyline
 90
        5
 70
   128
 43
0.0
 10
975.0000000002419
 20
1418.761407556201
 10
-974.9999999997581
 20
1418.761407556201
 10
-974.9999999997581
 20
-1381.238592443799
 10
975.0000000002419
 20
-1381.238592443799
 10
975.0000000002419
 20
1418.761407556201
  0
DIMENSION
  5
174
330
A
100
AcDbEntity
  8
notes
  6
Continuous
 62
     7
370
     5
390
1D
100
AcDbDimension
  2
*D3
 10
-765.0387137032503
 20
-20.38754014817096
 30
0.0
 11
-765.0387137032503
 21
-445.3844677220695
 31
0.0
 70
    32
 71
     5
 42
0.0
 73
     0
 74
     0
 75
     0
  3
tfrom線あり
100
AcDbAlignedDimension
 13
-356.3037025699359
 23
-870.3813952959681
 33
0.0
 14
-356.3037025699468
 24
-20.38754014817096
 34
0.0
 50
90.0
100
AcDbRotatedDimension
1001
ACAD
1000
DSTYLE
1002
{
1070
   279
1070
     2
1070
   340
1005
3A
1070
   147
1040
5.0
1002
}
  0
DIMENSION
  5
175
330
A
100
AcDbEntity
  8
notes
  6
Continuous
 62
     7
370
     5
390
1D
100
AcDbDimension
  2
*D4
 10
-8.038713703243047
 20
-855.3786157167197
 30
0.0
 11
-8.038713703243047
 21
-445.3841597022256
 31
0.0
 70
    32
 71
     5
 42
0.0
 73
     0
 74
     0
 75
     0
  3
tfrom線あり
100
AcDbAlignedDimension
 13
-289.905346971771
 23
-35.3897036877388
 33
0.0
 14
-290.4482413453388
 24
-855.3786157167197
 34
0.0
 50
90.0
100
AcDbRotatedDimension
1001
ACAD
1000
DSTYLE
1002
{
1070
   279
1070
     2
1070
   340
1005
3A
1070
   147
1040
5.0
1002
}
  0
DIMENSION
  5
176
330
A
100
AcDbEntity
  8
notes
  6
Continuous
 62
     7
370
     5
390
1D
100
AcDbDimension
  2
*D5
 10
-615.0387137032503
 20
79.61245985182904
 30
0.0
 11
-361.5387137032467
 21
79.61245985182904
 31
0.0
 70
    32
 71
     5
 42
0.0
 73
     0
 74
     0
 75
     0
  3
tfrom線あり
100
AcDbAlignedDimension
 13
-108.038713703243
 23
-365.8470392957024
 33
0.0
 14
-615.0387137032503
 24
-228.7820030244111
 34
0.0
100
AcDbRotatedDimension
1001
ACAD
1000
DSTYLE
1002
{
1070
   279
1070
     2
1070
   340
1005
3A
1070
   147
1040
5.0
1002
}
  0
DIMENSION
  5
177
330
A
100
AcDbEntity
  8
notes
  6
Continuous
 62
     7
370
     5
390
1D
100
AcDbDimension
  2
*D6
 10
-715.0387137032503
 20
-661.986932419728
 30
0.0
 11
-715.0387137032503
 21
-445.486932419728
 31
0.0
 70
    32
 71
     5
 42
0.0
 73
     0
 74
     0
 75
     0
  3
tfrom線あり
100
AcDbAlignedDimension
 13
-615.0387137032503
 23
-228.986932419728
 33
0.0
 14
-615.0387137032503
 24
-661.986932419728
 34
0.0
 50
90.0
100
AcDbRotatedDimension
1001
ACAD
1000
DSTYLE
1002
{
1070
   279
1070
     2
1070
   340
1005
3A
1070
   147
1040
5.0
1002
}
  0
DIMENSION
  5
178
330
A
100
AcDbEntity
  8
notes
  6
Continuous
 62
     7
370
     5
390
1D
100
AcDbDimension
  2
*D7
 10
-520.0387137032503
 20
-970.3813952959608
 30
0.0
 11
-320.0387137032503
 21
-970.3813952959608
 31
0.0
 70
    32
 71
     5
 42
0.0
 73
     0
 74
     0
 75
     0
  3
tfrom線あり
100
AcDbAlignedDimension
 13
-120.0387137032503
 23
-592.2284397706317
 33
0.0
 14
-520.0387137032503
 24
-821.4364966389112
 34
0.0
100
AcDbRotatedDimension
1001
ACAD
1000
DSTYLE
1002
{
1070
   279
1070
     2
1070
   340
1005
3A
1070
   147
1040
5.0
1002
}
  0
DIMENSION
  5
179
330
A
100
AcDbEntity
  8
notes
  6
Continuous
 62
     7
370
     5
390
1D
100
AcDbDimension
  2
*D8
 10
484.4009141678998
 20
79.61247162175277
 30
0.0
 11
549.4129590117809
 21
79.61247162175277
 31
0.0
 70
    32
 71
     5
 42
0.0
 73
     0
 74
     0
 75
     0
  3
tfrom線あり
100
AcDbAlignedDimension
 13
614.425003855662
 23
-28.38752837824723
 33
0.0
 14
484.4009141678998
 24
-20.38752837824723
 34
0.0
100
AcDbRotatedDimension
1001
ACAD
1000
DSTYLE
1002
{
1070
   279
1070
     2
1070
   340
1005
3A
1070
   147
1040
5.0
1002
}
  0
DIMENSION
  5
17A
330
A
100
AcDbEntity
  8
notes
  6
Continuous
 62
     7
370
     5
390
1D
100
AcDbDimension
  2
*D9
 10
484.4009141679035
 20
-970.3813952959681
 30
0.0
 11
523.4009141679035
 21
-970.3813952959681
 31
0.0
 70
    32
 71
     5
 42
0.0
 73
     0
 74
     0
 75
     0
  3
tfrom線あり
100
AcDbAlignedDimension
 13
562.4009141679035
 23
-600.4037426560826
 33
0.0
 14
484.4009141679035
 24
-870.3813835260371
 34
0.0
100
AcDbRotatedDimension
1001
ACAD
1000
DSTYLE
1002
{
1070
   279
1070
     2
1070
   340
1005
3A
1070
   147
1040
5.0
1002
}
  0
DIMENSION
  5
17B
330
A
100
AcDbEntity
  8
notes
  6
Continuous
 62
     7
370
     5
390
1D
100
AcDbDimension
  2
*D10
 10
384.400914167898
 20
-585.3818595763005
 30
0.0
 11
384.400914167898
 21
-445.3559168356296
 31
0.0
 70
    32
 71
     5
 42
0.0
 73
     0
 74
     0
 75
     0
  3
tfrom線あり
100
AcDbAlignedDimension
 13
542.3919761683956
 23
-305.3299740949587
 33
0.0
 14
542.3919761683992
 24
-585.3818595763005
 34
0.0
 50
90.0
100
AcDbRotatedDimension
1001
ACAD
1000
DSTYLE
1002
{
1070
   271
1070
     0
1070
   279
1070
     2
1070
   340
1005
3A
1070
   147
1040
5.0
1002
}
  0
DIMENSION
  5
17C
330
A
100
AcDbEntity
  8
notes
  6
Continuous
 62
     7
370
     5
390
1D
100
AcDbDimension
  2
*D11
 10
484.4009141678816
 20
1143.338505338994
 30
0.0
 11
536.9106426956314
 21
1143.338505338994
 31
0.0
 70
    32
 71
     5
 42
0.0
 73
     0
 74
     0
 75
     0
  3
tfrom線あり
100
AcDbAlignedDimension
 13
589.4203712233812
 23
996.9354637585129
 33
0.0
 14
484.4009141678816
 24
1039.499996672792
 34
0.0
100
AcDbRotatedDimension
1001
ACAD
1000
DSTYLE
1002
{
1070
   279
1070
     2
1070
   340
1005
3A
1070
   147
1040
5.0
1002
}
  0
DIMENSION
  5
17D
330
A
100
AcDbEntity
  8
notes
  6
Continuous
 62
     7
370
     5
390
1D
100
AcDbDimension
  2
*D12
 10
589.4203712233812
 20
1143.338505338987
 30
0.0
 11
618.7611111111146
 21
1148.338505338987
 31
0.0
 70
   128
 71
     5
 42
0.0
 73
     0
 74
     0
 75
     0
  3
tfrom線あり
100
AcDbAlignedDimension
 13
614.4250038555747
 23
964.1841978280281
 33
0.0
 14
589.4203712233812
 24
996.9354637585129
 34
0.0
100
AcDbRotatedDimension
1001
ACAD
1000
DSTYLE
1002
{
1070
   279
1070
     2
1070
   340
1005
3A
1070
   174
1070
     0
1070
   147
1040
5.0
1002
}
  0
DIMENSION
  5
17E
330
A
100
AcDbEntity
  8
notes
  6
Continuous
 62
     7
370
     5
390
1D
100
AcDbDimension
  2
*D13
 10
484.4009141678889
 20
834.4808317429706
 30
0.0
 11
476.7611111111109
 21
839.4808317429706
 31
0.0
 70
   128
  1
100（深さ）
 71
     5
 42
0.0
 73
     0
 74
     0
 75
     0
  3
tfrom線あり
100
AcDbAlignedDimension
 13
581.4188887810469
 23
828.4808317429706
 33
0.0
 14
484.4009141678889
 24
828.4808317429706
 34
0.0
100
AcDbRotatedDimension
1001
ACAD
1000
DSTYLE
1002
{
1070
   279
1070
     2
1070
   340
1005
3A
1070
   174
1070
     0
1070
   147
1040
5.0
1002
}
  0
DIMENSION
  5
17F
330
A
100
AcDbEntity
  8
notes
  6
Continuous
 62
     7
370
     5
390
1D
100
AcDbDimension
  2
*D14
 10
714.425003855642
 20
535.8703361252774
 30
0.0
 11
714.425003855642
 21
640.8703361252774
 31
0.0
 70
    32
 71
     5
 42
0.0
 73
     0
 74
     0
 75
     0
  3
tfrom線あり
100
AcDbAlignedDimension
 13
614.4250038556438
 23
745.8703361252774
 33
0.0
 14
614.4250038556365
 24
535.8703361252774
 34
0.0
 50
90.0
100
AcDbRotatedDimension
1001
ACAD
1000
DSTYLE
1002
{
1070
   279
1070
     2
1070
   340
1005
3A
1070
   147
1040
5.0
1002
}
  0
DIMENSION
  5
180
330
A
100
AcDbEntity
  8
notes
  6
Continuous
 62
     7
370
     5
390
1D
100
AcDbDimension
  2
*D15
 10
384.4009141678998
 20
535.8703361252774
 30
0.0
 11
384.4009141678998
 21
563.3703361252774
 31
0.0
 70
    32
 71
     5
 42
0.0
 73
     0
 74
     0
 75
     0
  3
tfrom線あり
100
AcDbAlignedDimension
 13
484.4009141678816
 23
590.8703361252774
 33
0.0
 14
506.7652812336328
 24
535.8703361252774
 34
0.0
 50
90.0
100
AcDbRotatedDimension
1001
ACAD
1000
DSTYLE
1002
{
1070
   279
1070
     2
1070
   340
1005
3A
1070
   147
1040
5.0
1002
}
  0
MTEXT
  5
181
330
A
100
AcDbEntity
  8
notes
 62
     7
390
1D
100
AcDbMText
 10
401.6565877697158
 20
-260.8666747411044
 30
0.0
 40
21.828125
 41
0.0
 46
0.0
 71
     1
 72
     1
  1
壁取付ボルト穴(2ヶ所)
  7
MS UI Gothic
 11
0.0
 21
1.0
 31
0.0
 73
     1
 44
0.8762322015334064
  0
LINE
  5
182
330
A
100
AcDbEntity
  8
notes
  6
Continuous
 62
     7
370
     5
390
1D
100
AcDbLine
 10
561.9152753279141
 20
-305.3818595763005
 30
0.0
 11
442.3643306880276
 21
-243.400143457111
 31
0.0
  0
DIMENSION
  5
183
330
A
100
AcDbEntity
  8
notes
  6
Continuous
 62
     7
370
     5
390
1D
100
AcDbDimension
  2
*D16
 10
-615.0387137032503
 20
-970.3813952959681
 30
0.0
 11
-567.5387137032503
 21
-970.3813952959681
 31
0.0
 70
    32
 71
     5
 42
0.0
 73
     0
 74
     0
 75
     0
  3
tfrom線あり
100
AcDbAlignedDimension
 13
-520.0387137032503
 23
-818.6483048285445
 33
0.0
 14
-615.0387137032503
 24
-661.986932419728
 34
0.0
100
AcDbRotatedDimension
1001
ACAD
1000
DSTYLE
1002
{
1070
   279
1070
     2
1070
   340
1005
3A
1070
   147
1040
5.0
1002
}
  0
MTEXT
  5
184
330
A
100
AcDbEntity
  8
notes
 62
     7
390
1D
100
AcDbMText
 10
-834.595089451097
 20
635.0613773811929
 30
0.0
 40
24.25347222222222
 41
0.0
 46
0.0
 71
     1
 72
     1
  1
カウンター切込寸法
  7
MS UI Gothic
 11
0.0
 21
1.0
 31
0.0
 73
     1
 44
0.8762322015334064
  0
MTEXT
  5
185
330
A
100
AcDbEntity
  8
notes
 62
     7
390
1D
100
AcDbMText
 10
86.05951979370548
 20
311.5624550124194
 30
0.0
 40
24.4326171875
 41
764.7717154610109
 46
0.0
 71
     1
 72
     1
  1
※陶器製品には寸法公差があります。\P  洗面器の収め方をご確認の上、必ず現物を合わせて\P  カウンターに切込を行ってください。
  7
ＭＳ ゴシック
 11
0.0
 21
1.0
 31
0.0
 73
     1
 44
1.043768984567712
  0
MTEXT
  5
187
330
A
100
AcDbEntity
  8
notes
 62
     7
390
1D
100
AcDbMText
 10
86.05951979370548
 20
311.5624550124194
 30
0.0
 40
24.4326171875
 41
764.7717154610109
 46
0.0
 71
     1
 72
     1
  1
※陶器製品には寸法公差があります。\P  洗面器の収め方をご確認の上、必ず現物を合わせて\P  カウンターに切込を行ってください。
  7
ＭＳ ゴシック
 11
0.0
 21
1.0
 31
0.0
 73
     1
 44
1.043768984567712
  0
LINE
  5
188
330
A
100
AcDbEntity
  8
ASN70-0002
  6
Continuous
 62
     7
370
    15
390
1D
100
AcDbLine
 10
484.4009141678816
 20
1039.499996672792
 30
0.0
 11
484.4009141678816
 21
1028.574290529323
 31
0.0
  0
LINE
  5
189
330
A
100
AcDbEntity
  8
ASN70-0002
  6
Continuous
 62
     7
370
    15
390
1D
100
AcDbLine
 10
506.7652812336328
 20
535.8703361252774
 30
0.0
 11
485.8805519757425
 21
545.2104422983175
 31
0.0
  0
LINE
  5
18A
330
A
100
AcDbEntity
  8
ASN70-0002
  6
Continuous
 62
     7
370
    15
390
1D
100
AcDbLine
 10
589.4203712233812
 20
996.9354637585129
 30
0.0
 11
487.9119578042646
 21
1041.787144206326
 31
0.0
  0
LINE
  5
18B
330
A
100
AcDbEntity
  8
ASN70-0002
  6
Continuous
 62
     7
370
    15
390
1D
100
AcDbLine
 10
492.402396610205
 20
554.3006767898769
 30
0.0
 11
492.402396610205
 21
573.3670932827008
 31
0.0
  0
LINE
  5
18C
330
A
100
AcDbEntity
  8
ASN70-0002
  6
Continuous
 62
     7
370
    15
390
1D
100
AcDbLine
 10
484.4009141678816
 20
547.493035542946
 30
0.0
 11
484.4009141678816
 21
573.3670932826935
 31
0.0
  0
LINE
  5
18D
330
A
100
AcDbEntity
  8
ASN70-0002
  6
Continuous
 62
     7
370
    15
390
1D
100
AcDbLine
 10
492.402396610205
 20
573.3670932827008
 30
0.0
 11
484.4009141678816
 21
573.3670932826935
 31
0.0
  0
LINE
  5
18E
330
A
100
AcDbEntity
  8
ASN70-0002
  6
Continuous
 62
     7
370
    15
390
1D
100
AcDbLine
 10
492.402396610205
 20
608.3735789678612
 30
0.0
 11
484.4009141678816
 21
608.373578967854
 31
0.0
  0
LINE
  5
18F
330
A
100
AcDbEntity
  8
ASN70-0002
  6
Continuous
 62
     7
370
    15
390
1D
100
AcDbLine
 10
484.4009141678816
 20
608.373578967854
 30
0.0
 11
484.4009141678998
 21
628.3873729566112
 31
0.0
  0
LINE
  5
190
330
A
100
AcDbEntity
  8
ASN70-0002
  6
Continuous
 62
     7
370
    15
390
1D
100
AcDbLine
 10
492.402396610205
 20
608.3735789678612
 30
0.0
 11
492.402396610205
 21
620.3858905142915
 31
0.0
  0
LINE
  5
191
330
A
100
AcDbEntity
  8
ASN70-0002
  6
Continuous
 62
     7
370
    15
390
1D
100
AcDbLine
 10
484.4009141678816
 20
573.3670932826935
 30
0.0
 11
484.4009141678816
 21
608.373578967854
 31
0.0
  0
LINE
  5
192
330
A
100
AcDbEntity
  8
ASN70-0002
  6
Continuous
 62
     7
370
    15
390
1D
100
AcDbLine
 10
492.402396610205
 20
573.3670932827008
 30
0.0
 11
492.402396610205
 21
608.3735789678612
 31
0.0
  0
LINE
  5
193
330
A
100
AcDbEntity
  8
ASN70-0002
  6
Continuous
 62
     7
370
    15
390
1D
100
AcDbLine
 10
589.4203712233812
 20
975.3227001717751
 30
0.0
 11
614.4250038555747
 21
964.2720746127598
 31
0.0
  0
LINE
  5
194
330
A
100
AcDbEntity
  8
ASN70-0002
  6
Continuous
 62
     7
370
    15
390
1D
100
AcDbLine
 10
581.4188887810469
 20
966.4153148798723
 30
0.0
 11
581.4188887810469
 21
779.1903129026177
 31
0.0
  0
ARC
  5
195
330
A
100
AcDbEntity
  8
ASN70-0002
  6
Continuous
 62
     7
370
    15
390
1D
100
AcDbCircle
 10
554.3047474223222
 20
966.4153148798723
 30
0.0
 40
27.11414135872838
100
AcDbArc
 50
0.0
 51
66.13783873373251
  0
LINE
  5
196
330
A
100
AcDbEntity
  8
ASN70-0002
  6
Continuous
 62
     7
370
    15
390
1D
100
AcDbLine
 10
614.4250038555747
 20
947.7240165405965
 30
0.0
 11
591.9208344866074
 21
947.7240165405892
 31
0.0
  0
LINE
  5
197
330
A
100
AcDbEntity
  8
ASN70-0002
  6
Continuous
 62
     7
370
    15
390
1D
100
AcDbLine
 10
554.3047474223222
 20
630.8878362198375
 30
0.0
 11
486.9013774311079
 21
630.8878362198448
 31
0.0
  0
ARC
  5
198
330
A
100
AcDbEntity
  8
ASN70-0002
  6
Continuous
 62
     7
370
    15
390
1D
100
AcDbCircle
 10
554.3047474223331
 20
658.0019775785622
 30
0.0
 40
27.11414135872474
100
AcDbArc
 50
270.0
 51
0.0
  0
LINE
  5
199
330
A
100
AcDbEntity
  8
ASN70-0002
  6
Continuous
 62
     7
370
    15
390
1D
100
AcDbLine
 10
614.4250038556438
 20
721.1795651957655
 30
0.0
 11
589.4203712233812
 21
721.1795651957727
 31
0.0
  0
LINE
  5
19A
330
A
100
AcDbEntity
  8
ASN70-0002
  6
Continuous
 62
     7
370
    15
390
1D
100
AcDbLine
 10
614.4250038556438
 20
771.1888304602908
 30
0.0
 11
589.4203712233812
 21
771.188830460298
 31
0.0
  0
LINE
  5
19B
330
A
100
AcDbEntity
  8
ASN70-0002
  6
Continuous
 62
     7
370
    15
390
1D
100
AcDbLine
 10
554.3047474223222
 20
622.8863537775105
 30
0.0
 11
494.9028598734203
 21
622.886353777496
 31
0.0
  0
ARC
  5
19C
330
A
100
AcDbEntity
  8
ASN70-0002
  6
Continuous
 62
     7
370
    15
390
1D
100
AcDbCircle
 10
554.3047474223331
 20
658.0019775785622
 30
0.0
 40
35.1156238010517
100
AcDbArc
 50
270.0
 51
0.0
  0
LINE
  5
19D
330
A
100
AcDbEntity
  8
ASN70-0002
  6
Continuous
 62
     7
370
    15
390
1D
100
AcDbLine
 10
614.4250038556438
 20
779.1903129026177
 30
0.0
 11
592.7346937700877
 21
779.1903129026177
 31
0.0
  0
LINE
  5
19E
330
A
100
AcDbEntity
  8
ASN70-0002
  6
Continuous
 62
     7
370
    15
390
1D
100
AcDbLine
 10
589.4203712233812
 20
721.1795651957727
 30
0.0
 11
581.4188887810578
 21
713.178082753453
 31
0.0
  0
LINE
  5
19F
330
A
100
AcDbEntity
  8
ASN70-0002
  6
Continuous
 62
     7
370
    15
390
1D
100
AcDbLine
 10
589.4203712233812
 20
771.188830460298
 30
0.0
 11
581.4188887810469
 21
779.1903129026177
 31
0.0
  0
LINE
  5
1A0
330
A
100
AcDbEntity
  8
ASN70-0002
  6
Continuous
 62
     7
370
    15
390
1D
100
AcDbLine
 10
581.4188887810578
 20
713.178082753453
 30
0.0
 11
581.4188887810578
 21
657.2368952363177
 31
0.0
  0
LINE
  5
1A1
330
A
100
AcDbEntity
  8
ASN70-0002
  6
Continuous
 62
     7
370
    15
390
1D
100
AcDbLine
 10
589.4203712233812
 20
709.8637602067392
 30
0.0
 11
589.4203712233812
 21
657.2368952363249
 31
0.0
  0
LINE
  5
1A2
330
A
100
AcDbEntity
  8
ASN70-0002
  6
Continuous
 62
     7
370
    15
390
1D
100
AcDbLine
 10
614.4250038556438
 20
721.1795651957727
 30
0.0
 11
614.4250038556329
 21
713.1780827534458
 31
0.0
  0
LINE
  5
1A3
330
A
100
AcDbEntity
  8
ASN70-0002
  6
Continuous
 62
     7
370
    15
390
1D
100
AcDbLine
 10
614.4250038556438
 20
779.1903129026177
 30
0.0
 11
614.4250038556438
 21
771.1888304602908
 31
0.0
  0
LINE
  5
1A4
330
A
100
AcDbEntity
  8
ASN70-0002
  6
Continuous
 62
     7
370
    15
390
1D
100
AcDbLine
 10
614.4250038556329
 20
713.178082753453
 30
0.0
 11
592.7346937700877
 21
713.1780827534458
 31
0.0
  0
LINE
  5
1A5
330
A
100
AcDbEntity
  8
ASN70-0002
  6
Continuous
 62
     7
370
    15
390
1D
100
AcDbLine
 10
581.4188887810578
 20
713.1780827534458
 30
0.0
 11
581.4188887810578
 21
779.1903129026105
 31
0.0
  0
LINE
  5
1A6
330
A
100
AcDbEntity
  8
ASN70-0002
  6
Continuous
 62
     7
370
    15
390
1D
100
AcDbLine
 10
592.7346937700877
 20
713.1780827534458
 30
0.0
 11
589.4203712233812
 21
709.8637602067392
 31
0.0
  0
LINE
  5
1A7
330
A
100
AcDbEntity
  8
ASN70-0002
  6
Continuous
 62
     7
370
    15
390
1D
100
AcDbLine
 10
592.7346937700877
 20
779.1903129026177
 30
0.0
 11
589.4203712233957
 21
782.5046354493243
 31
0.0
  0
LINE
  5
1A8
330
A
100
AcDbEntity
  8
ASN70-0002
  6
Continuous
 62
     7
370
    15
390
1D
100
AcDbLine
 10
589.4203712233812
 20
721.1795651957727
 30
0.0
 11
589.4203712233812
 21
771.1888304602908
 31
0.0
  0
LINE
  5
1A9
330
A
100
AcDbEntity
  8
ASN70-0002
  6
Continuous
 62
     7
370
    15
390
1D
100
AcDbLine
 10
614.4250038556438
 20
721.1795651957727
 30
0.0
 11
614.4250038556438
 21
771.1888304602908
 31
0.0
  0
LINE
  5
1AA
330
A
100
AcDbEntity
  8
ASN70-0002
  6
Continuous
 62
     7
370
    15
390
1D
100
AcDbLine
 10
565.2734402347141
 20
991.2117751032274
 30
0.0
 11
485.8907970579548
 21
1026.287142995796
 31
0.0
  0
LINE
  5
1AB
330
A
100
AcDbEntity
  8
ASN70-0002
  6
Continuous
 62
     7
370
    15
390
1D
100
AcDbLine
 10
589.4203712233812
 20
996.9354637585129
 30
0.0
 11
589.4203712233812
 21
975.3227001717751
 31
0.0
  0
LINE
  5
1AC
330
A
100
AcDbEntity
  8
ASN70-0002
  6
Continuous
 62
     7
370
    15
390
1D
100
AcDbLine
 10
569.4166651175819
 20
543.8718185676044
 30
0.0
 11
569.416665117571
 21
535.8703361252774
 31
0.0
  0
LINE
  5
1AD
330
A
100
AcDbEntity
  8
ASN70-0002
  6
Continuous
 62
     7
370
    15
390
1D
100
AcDbLine
 10
614.4250038555747
 20
947.7240165405965
 30
0.0
 11
614.4250038555747
 21
964.1841978280281
 31
0.0
  0
LINE
  5
1AE
330
A
100
AcDbEntity
  8
ASN70-0002
  6
Continuous
 62
     7
370
    15
390
1D
100
AcDbLine
 10
614.4250038556365
 20
535.8703361252774
 30
0.0
 11
614.4250038556329
 21
713.1780827534458
 31
0.0
  0
LINE
  5
1AF
330
A
100
AcDbEntity
  8
ASN70-0002
  6
Continuous
 62
     7
370
    15
390
1D
100
AcDbLine
 10
614.4250038556329
 20
779.1903129026177
 30
0.0
 11
614.4250038555747
 21
947.7240165405965
 31
0.0
  0
LINE
  5
1B0
330
A
100
AcDbEntity
  8
ASN70-0002
  6
Continuous
 62
     7
370
    15
390
1D
100
AcDbLine
 10
484.4009141678998
 20
628.3873729566112
 30
0.0
 11
484.4009141678816
 21
1028.574290529323
 31
0.0
  0
LINE
  5
1B1
330
A
100
AcDbEntity
  8
ASN70-0002
  6
Continuous
 62
     7
370
    15
390
1D
100
AcDbLine
 10
508.4730003342247
 20
543.8718185676044
 30
0.0
 11
495.3616722259376
 21
549.7354903006126
 31
0.0
  0
ARC
  5
1B2
330
A
100
AcDbEntity
  8
ASN70-0002
  6
Continuous
 62
     7
370
    15
390
1D
100
AcDbCircle
 10
497.4033231366502
 20
554.3006767898769
 30
0.0
 40
5.000926526452531
100
AcDbArc
 50
180.0
 51
245.9047658003776
  0
ARC
  5
1B3
330
A
100
AcDbEntity
  8
ASN70-0002
  6
Continuous
 62
     7
370
    15
390
1D
100
AcDbCircle
 10
494.9028598734203
 20
620.3858905142915
 30
0.0
 40
2.500463263226266
100
AcDbArc
 50
90.0
 51
180.0
  0
ARC
  5
1B4
330
A
100
AcDbEntity
  8
ASN70-0002
  6
Continuous
 62
     7
370
    15
390
1D
100
AcDbCircle
 10
591.9208344866074
 20
945.223553277363
 30
0.0
 40
2.500463263226266
100
AcDbArc
 50
90.0
 51
180.0
  0
ARC
  5
1B5
330
A
100
AcDbEntity
  8
ASN70-0002
  6
Continuous
 62
     7
370
    15
390
1D
100
AcDbCircle
 10
486.9013774311079
 20
628.3873729566112
 30
0.0
 40
2.500463263226266
100
AcDbArc
 50
90.0
 51
180.0
  0
ARC
  5
1B6
330
A
100
AcDbEntity
  8
ASN70-0002
  6
Continuous
 62
     7
370
    15
390
1D
100
AcDbCircle
 10
486.9013774311079
 20
547.493035542946
 30
0.0
 40
2.500463263222628
100
AcDbArc
 50
180.0
 51
245.9047658004197
  0
ARC
  5
1B7
330
A
100
AcDbEntity
  8
ASN70-0002
  6
Continuous
 62
     7
370
    15
390
1D
100
AcDbCircle
 10
486.9013774311079
 20
1039.499996672792
 30
0.0
 40
2.500463263221489
100
AcDbArc
 50
66.16167270867287
 51
180.0
  0
ARC
  5
1B8
330
A
100
AcDbEntity
  8
ASN70-0002
  6
Continuous
 62
     7
370
    15
390
1D
100
AcDbCircle
 10
486.9013774311079
 20
1028.574290529323
 30
0.0
 40
2.500463263222628
100
AcDbArc
 50
180.0
 51
246.1616727087491
  0
LINE
  5
1B9
330
A
100
AcDbEntity
  8
ASN70-0002
  6
Continuous
 62
     7
370
    15
390
1D
100
AcDbLine
 10
569.4166651175783
 20
535.8703361252774
 30
0.0
 11
506.7652812336328
 21
535.8703361252774
 31
0.0
  0
LINE
  5
1BA
330
A
100
AcDbEntity
  8
ASN70-0002
  6
Continuous
 62
     7
370
    15
390
1D
100
AcDbLine
 10
569.4166651175819
 20
543.8718185676553
 30
0.0
 11
508.4730003342247
 21
543.8718185676044
 31
0.0
  0
LINE
  5
1BB
330
A
100
AcDbEntity
  8
ASN70-0002
  6
STYLE_23
 62
     7
370
    15
390
1D
100
AcDbLine
 10
486.7473868377074
 20
-35.56026496798586
 30
0.0
 11
562.6471074225828
 21
-40.23015164927347
 31
0.0
  0
LINE
  5
1BC
330
A
100
AcDbEntity
  8
ASN70-0002
  6
Continuous
 62
     7
370
    15
390
1D
100
AcDbLine
 10
614.425003855662
 20
-28.38752837824723
 30
0.0
 11
614.425003855662
 21
-862.3813835260371
 31
0.0
  0
LINE
  5
1BD
330
A
100
AcDbEntity
  8
ASN70-0002
  6
Continuous
 62
     7
370
    15
390
1D
100
AcDbLine
 10
484.4009141678998
 20
-20.38752837824723
 30
0.0
 11
484.4009141678998
 21
-33.06498354921496
 31
0.0
  0
SPLINE
  5
1BE
330
A
100
AcDbEntity
  8
ASN70-0002
  6
Continuous
 62
     7
370
    15
390
1D
100
AcDbSpline
210
0.0
220
0.0
230
1.0
 70
    11
 71
     2
 72
    32
 73
    29
 74
     0
 42
0.000000001
 43
0.000001
 40
0.0
 40
0.0
 40
0.0
 40
1.0
 40
1.0
 40
2.0
 40
3.0
 40
4.0
 40
5.0
 40
6.0
 40
7.0
 40
8.0
 40
9.0
 40
10.0
 40
11.0
 40
12.0
 40
13.0
 40
14.0
 40
15.0
 40
16.0
 40
17.0
 40
18.0
 40
19.0
 40
20.0
 40
21.0
 40
22.0
 40
23.0
 40
24.0
 40
24.0
 40
25.0
 40
25.0
 40
25.0
 10
-356.3037025699359
 20
-870.3813952959608
 30
0.0
 10
-353.3723541901927
 20
-870.3813952959608
 30
0.0
 10
-350.4410058104495
 20
-870.3813952959608
 30
0.0
 10
-320.4791799624272
 20
-868.1014082855036
 30
0.0
 10
-244.5032864633413
 20
-836.2060382757481
 30
0.0
 10
-168.273195463602
 20
-732.3656941461159
 30
0.0
 10
-131.6898644348748
 20
-633.6025095058503
 30
0.0
 10
-105.2649616875806
 20
-506.227078246884
 30
0.0
 10
-108.4116999056259
 20
-404.7788441996745
 30
0.0
 10
-117.1544618125317
 20
-297.6222071152079
 30
0.0
 10
-160.9010797172214
 20
-178.2476824838232
 30
0.0
 10
-199.9997899752252
 20
-111.4695332426054
 30
0.0
 10
-246.1474522463632
 20
-61.5989208501851
 30
0.0
 10
-320.5427194035274
 20
-16.66420282163017
 30
0.0
 10
-404.4162810368744
 20
-23.36135529475723
 30
0.0
 10
-466.5343874390946
 20
-61.63433479757805
 30
0.0
 10
-512.6689027628872
 20
-111.554063288997
 30
0.0
 10
-551.7379728683609
 20
-178.3284743852419
 30
0.0
 10
-580.9175407075436
 20
-257.166425938296
 30
0.0
 10
-603.0635659514646
 20
-363.973899344368
 30
0.0
 10
-606.6953849403708
 20
-485.4952589978639
 30
0.0
 10
-591.31830196384
 20
-591.6885342640671
 30
0.0
 10
-567.6685011506179
 20
-674.2295541029744
 30
0.0
 10
-533.2450147753643
 20
-747.7719824913656
 30
0.0
 10
-490.1967810467195
 20
-806.5615601674945
 30
0.0
 10
-416.7022458141382
 20
-866.540089022732
 30
0.0
 10
-362.1663993294223
 20
-870.3813952959608
 30
0.0
 10
-359.2350509496791
 20
-870.3813952959608
 30
0.0
 10
-356.3037025699359
 20
-870.3813952959608
 30
0.0
  0
SPLINE
  5
1BF
330
A
100
AcDbEntity
  8
ASN70-0002
  6
Continuous
 62
     7
370
    15
390
1D
100
AcDbSpline
210
0.0
220
0.0
230
1.0
 70
     8
 71
     2
 72
    19
 73
    16
 74
     0
 42
0.000000001
 43
0.000001
 40
0.0
 40
0.0
 40
0.0
 40
1.0
 40
1.0
 40
2.0
 40
3.0
 40
4.0
 40
5.0
 40
6.0
 40
7.0
 40
8.0
 40
9.0
 40
10.0
 40
11.0
 40
11.0
 40
12.0
 40
12.0
 40
12.0
 10
-356.3036965942174
 20
-35.38970406186127
 30
0.0
 10
-358.3501655037653
 20
-35.3897038747964
 30
0.0
 10
-360.3966344133132
 20
-35.3897036877388
 30
0.0
 10
-407.836352132972
 20
-41.29876560433331
 30
0.0
 10
-460.4247052109367
 20
-126.0050298372007
 30
0.0
 10
-497.6467116130862
 20
-220.3058730566918
 30
0.0
 10
-516.5207165838456
 20
-348.1941476379652
 30
0.0
 10
-521.1943132286815
 20
-445.4539485816713
 30
0.0
 10
-516.4916279454937
 20
-542.71756642533
 30
0.0
 10
-497.8369702789332
 20
-669.9236171956145
 30
0.0
 10
-460.3976509893346
 20
-764.859535644704
 30
0.0
 10
-430.8460591106905
 20
-813.0709526981009
 30
0.0
 10
-389.5901756241565
 20
-851.8256890363191
 30
0.0
 10
-360.3966403890208
 20
-855.3786157167197
 30
0.0
 10
-358.3501714794747
 20
-855.3786157167197
 30
0.0
 10
-356.3037025699286
 20
-855.3786157167197
 30
0.0
  0
SPLINE
  5
1C0
330
A
100
AcDbEntity
  8
ASN70-0002
  6
Continuous
 62
     7
370
    15
390
1D
100
AcDbSpline
210
0.0
220
0.0
230
1.0
 70
     8
 71
     2
 72
    15
 73
    12
 74
     0
 42
0.000000001
 43
0.000001
 40
0.0
 40
0.0
 40
0.0
 40
1.0
 40
1.0
 40
2.0
 40
3.0
 40
4.0
 40
5.0
 40
6.0
 40
7.0
 40
7.0
 40
8.0
 40
8.0
 40
8.0
 10
-401.0341902423988
 20
-20.38754014817823
 30
0.0
 10
-403.0868531204378
 20
-20.38754014817823
 30
0.0
 10
-405.1395159984768
 20
-20.38754014817823
 30
0.0
 10
-425.8699191403048
 20
-21.53023074215889
 30
0.0
 10
-476.7500610749685
 20
-36.19277316894295
 30
0.0
 10
-524.5136863014031
 20
-75.23478811139648
 30
0.0
 10
-553.7762005020904
 20
-108.633702786392
 30
0.0
 10
-579.7427047271976
 20
-148.3228213640396
 30
0.0
 10
-601.8065238755134
 20
-192.878847828928
 30
0.0
 10
-612.9464075724081
 20
-222.7468400881698
 30
0.0
 10
-613.9925606378292
 20
-225.7644215562905
 30
0.0
 10
-615.0387137032503
 20
-228.7820030244111
 30
0.0
  0
LINE
  5
1C1
330
A
100
AcDbEntity
  8
ASN70-0002
  6
Continuous
 62
     7
370
    15
390
1D
100
AcDbLine
 10
-401.0341902423988
 20
-20.38754014817096
 30
0.0
 11
-356.3037025699468
 21
-20.38754014817096
 31
0.0
  0
LINE
  5
1C2
330
A
100
AcDbEntity
  8
ASN70-0002
  6
Continuous
 62
     7
370
    15
390
1D
100
AcDbLine
 10
-401.0341902423879
 20
-870.3813952959681
 30
0.0
 11
-356.3037025699359
 21
-870.3813952959681
 31
0.0
  0
LINE
  5
1C3
330
A
100
AcDbEntity
  8
ASN70-0002
  6
Continuous
 62
     7
370
    15
390
1D
100
AcDbLine
 10
-615.0387137032503
 20
-661.986932419728
 30
0.0
 11
-615.0387137032503
 21
-228.7820030244111
 31
0.0
  0
SPLINE
  5
1C4
330
A
100
AcDbEntity
  8
ASN70-0002
  6
Continuous
 62
     7
370
    15
390
1D
100
AcDbSpline
210
0.0
220
0.0
230
1.0
 70
     8
 71
     2
 72
    14
 73
    11
 74
     0
 42
0.000000001
 43
0.000001
 40
0.0
 40
0.0
 40
0.0
 40
1.0
 40
1.0
 40
2.0
 40
3.0
 40
4.0
 40
5.0
 40
6.0
 40
6.0
 40
7.0
 40
7.0
 40
7.0
 10
-615.038713703243
 20
-661.986932419728
 30
0.0
 10
-613.992560637822
 20
-665.0045138878486
 30
0.0
 10
-612.9464075724009
 20
-668.0220953559765
 30
0.0
 10
-601.8046249779491
 20
-697.9165546457152
 30
0.0
 10
-579.7349881499085
 20
-742.4764900126393
 30
0.0
 10
-540.5588372146867
 20
-802.3903878677665
 30
0.0
 10
-476.5562461435238
 20
-854.6088666250289
 30
0.0
 10
-425.8564699219914
 20
-869.2273402786523
 30
0.0
 10
-405.139515998455
 20
-870.3813952959608
 30
0.0
 10
-403.0868531204178
 20
-870.3813952959608
 30
0.0
 10
-401.0341902423806
 20
-870.3813952959608
 30
0.0
  0
CIRCLE
  5
1C5
330
A
100
AcDbEntity
  8
ASN70-0002
  6
Continuous
 62
     7
370
    15
390
1D
100
AcDbCircle
 10
-404.7248503937062
 20
-445.3844677220695
 30
0.0
 40
33.00611507457506
  0
CIRCLE
  5
1C6
330
A
100
AcDbEntity
  8
ASN70-0002
  6
Continuous
 62
     7
370
    15
390
1D
100
AcDbCircle
 10
-404.7248503937062
 20
-445.3844677220695
 30
0.0
 40
25.00463263225538
  0
LINE
  5
1C7
330
A
100
AcDbEntity
  8
ASN70-0002
  6
Continuous
 62
     7
370
    15
390
1D
100
AcDbLine
 10
589.4203712233812
 20
945.223553277363
 30
0.0
 11
589.4203712233957
 21
782.5046354493243
 31
0.0
  0
LINE
  5
1C8
330
A
100
AcDbEntity
  8
ASN70-0002
  6
Continuous
 62
     7
370
    15
390
1D
100
AcDbLine
 10
569.416665117571
 20
535.8703361252774
 30
0.0
 11
614.4250038556329
 21
535.8703361252774
 31
0.0
  0
LINE
  5
1CA
330
A
100
AcDbEntity
  8
ASN70-0002
  6
Continuous
 62
     7
370
    15
390
1D
100
AcDbLine
 10
-652.019477866621
 20
1213.271560229368
 30
0.0
 11
-615.019477866621
 21
1176.271560229368
 31
0.0
  0
LINE
  5
1CB
330
A
100
AcDbEntity
  8
ASN70-0002
  6
Continuous
 62
     7
370
    15
390
1D
100
AcDbLine
 10
-652.019477866621
 20
1193.271560229368
 30
0.0
 11
-615.019477866621
 21
1156.271560229368
 31
0.0
  0
LINE
  5
1CC
330
A
100
AcDbEntity
  8
ASN70-0002
  6
Continuous
 62
     7
370
    15
390
1D
100
AcDbLine
 10
-652.019477866621
 20
1173.271560229368
 30
0.0
 11
-615.019477866621
 21
1136.271560229368
 31
0.0
  0
INSERT
  5
1CD
330
A
100
AcDbEntity
  8
ASN70-0002
 62
     7
390
1D
100
AcDbBlockReference
  2
グループ-4
 10
14991.84497094963
 20
-41553.4540910705
 30
0.0
  0
INSERT
  5
1CE
330
A
100
AcDbEntity
  8
ASN70-0002
 62
     7
390
1D
100
AcDbBlockReference
  2
グループ-5
 10
14991.84497094963
 20
-41553.4540910705
 30
0.0
  0
SPLINE
  5
1CF
330
A
100
AcDbEntity
  8
ASN70-0002
  6
STYLE_23
 62
     7
370
     5
390
1D
100
AcDbSpline
210
0.0
220
0.0
230
1.0
 70
    11
 71
     2
 72
    32
 73
    29
 74
     0
 42
0.000000001
 43
0.000001
 40
0.0
 40
0.0
 40
0.0
 40
1.0
 40
1.0
 40
2.0
 40
3.0
 40
4.0
 40
5.0
 40
6.0
 40
7.0
 40
8.0
 40
9.0
 40
10.0
 40
11.0
 40
12.0
 40
13.0
 40
14.0
 40
15.0
 40
16.0
 40
17.0
 40
18.0
 40
19.0
 40
20.0
 40
21.0
 40
22.0
 40
23.0
 40
24.0
 40
24.0
 40
25.0
 40
25.0
 40
25.0
 10
-356.3037025699359
 20
320.8734085513861
 30
0.0
 10
-353.3723541901927
 20
320.8734085513861
 30
0.0
 10
-350.4410058104495
 20
320.8734085513861
 30
0.0
 10
-320.4791799624272
 20
323.1533955618506
 30
0.0
 10
-244.5032864633413
 20
355.0487655716061
 30
0.0
 10
-168.273195463602
 20
458.8891097012311
 30
0.0
 10
-131.6898644348748
 20
557.6522943415039
 30
0.0
 10
-105.2649616875806
 20
685.0277256004629
 30
0.0
 10
-108.4116999056259
 20
786.4759596476724
 30
0.0
 10
-117.1544618125317
 20
893.6325967321463
 30
0.0
 10
-160.9010797172214
 20
1013.007121363524
 30
0.0
 10
-199.9997899752252
 20
1079.785270604749
 30
0.0
 10
-246.1474522463632
 20
1129.655882997162
 30
0.0
 10
-320.5427194035274
 20
1174.590601025724
 30
0.0
 10
-404.4162810368744
 20
1167.89344855259
 30
0.0
 10
-466.5343874390946
 20
1129.620469049776
 30
0.0
 10
-512.6689027628872
 20
1079.700740558357
 30
0.0
 10
-551.7379728683609
 20
1012.926329462105
 30
0.0
 10
-580.9175407075436
 20
934.0883779090582
 30
0.0
 10
-603.0635659514646
 20
827.2809045029862
 30
0.0
 10
-606.6953849403708
 20
705.7595448494903
 30
0.0
 10
-591.31830196384
 20
599.5662695832871
 30
0.0
 10
-567.6685011506179
 20
517.0252497443798
 30
0.0
 10
-533.2450147753643
 20
443.4828213559886
 30
0.0
 10
-490.1967810467195
 20
384.6932436798525
 30
0.0
 10
-416.7022458141382
 20
324.7147148246149
 30
0.0
 10
-362.1663993294223
 20
320.8734085513861
 30
0.0
 10
-359.2350509496791
 20
320.8734085513861
 30
0.0
 10
-356.3037025699359
 20
320.8734085513861
 30
0.0
  0
SPLINE
  5
1D0
330
A
100
AcDbEntity
  8
ASN70-0002
  6
STYLE_23
 62
     7
370
     5
390
1D
100
AcDbSpline
210
0.0
220
0.0
230
1.0
 70
     8
 71
     2
 72
    15
 73
    12
 74
     0
 42
0.000000001
 43
0.000001
 40
0.0
 40
0.0
 40
0.0
 40
1.0
 40
1.0
 40
2.0
 40
3.0
 40
4.0
 40
5.0
 40
6.0
 40
7.0
 40
7.0
 40
8.0
 40
8.0
 40
8.0
 10
-401.0341902423988
 20
1170.867263699169
 30
0.0
 10
-403.0868531204378
 20
1170.867263699169
 30
0.0
 10
-405.1395159984768
 20
1170.867263699169
 30
0.0
 10
-425.8699191403048
 20
1169.724573105188
 30
0.0
 10
-476.7500610749685
 20
1155.062030678411
 30
0.0
 10
-524.5136863014031
 20
1116.020015735958
 30
0.0
 10
-553.7762005020904
 20
1082.621101060955
 30
0.0
 10
-579.7427047271976
 20
1042.931982483307
 30
0.0
 10
-601.8065238755134
 20
998.375956018419
 30
0.0
 10
-612.9464075724081
 20
968.5079637591843
 30
0.0
 10
-613.9925606378292
 20
965.4903822910564
 30
0.0
 10
-615.0387137032503
 20
962.4728008229358
 30
0.0
  0
LINE
  5
1D1
330
A
100
AcDbEntity
  8
ASN70-0002
  6
STYLE_23
 62
     7
370
     5
390
1D
100
AcDbLine
 10
-401.0341902423988
 20
1170.867263699176
 30
0.0
 11
-356.3037025699468
 21
1170.867263699183
 31
0.0
  0
LINE
  5
1D2
330
A
100
AcDbEntity
  8
ASN70-0002
  6
STYLE_23
 62
     7
370
     5
390
1D
100
AcDbLine
 10
-401.0341902423879
 20
320.8734085513861
 30
0.0
 11
-356.3037025699359
 21
320.8734085513861
 31
0.0
  0
LINE
  5
1D3
330
A
100
AcDbEntity
  8
ASN70-0002
  6
STYLE_23
 62
     7
370
     5
390
1D
100
AcDbLine
 10
-615.0387137032503
 20
529.2678714276262
 30
0.0
 11
-615.0387137032503
 21
962.4728008229431
 31
0.0
  0
SPLINE
  5
1D4
330
A
100
AcDbEntity
  8
ASN70-0002
  6
STYLE_23
 62
     7
370
     5
390
1D
100
AcDbSpline
210
0.0
220
0.0
230
1.0
 70
     8
 71
     2
 72
    14
 73
    11
 74
     0
 42
0.000000001
 43
0.000001
 40
0.0
 40
0.0
 40
0.0
 40
1.0
 40
1.0
 40
2.0
 40
3.0
 40
4.0
 40
5.0
 40
6.0
 40
6.0
 40
7.0
 40
7.0
 40
7.0
 10
-615.038713703243
 20
529.267871427619
 30
0.0
 10
-613.992560637822
 20
526.2502899594983
 30
0.0
 10
-612.9464075724009
 20
523.2327084913777
 30
0.0
 10
-601.8046249779491
 20
493.3382492016317
 30
0.0
 10
-579.7349881499085
 20
448.7783138347077
 30
0.0
 10
-540.5588372146867
 20
388.8644159795876
 30
0.0
 10
-476.5562461435238
 20
336.6459372223253
 30
0.0
 10
-425.8564699219914
 20
322.0274635686947
 30
0.0
 10
-405.139515998455
 20
320.8734085513861
 30
0.0
 10
-403.0868531204178
 20
320.8734085513861
 30
0.0
 10
-401.0341902423806
 20
320.8734085513861
 30
0.0
  0
CIRCLE
  5
1D5
330
A
100
AcDbEntity
  8
ASN70-0002
  6
STYLE_23
 62
     7
370
     5
390
1D
100
AcDbCircle
 10
-404.7248503937062
 20
745.8703361252774
 30
0.0
 40
33.00611507458234
  0
CIRCLE
  5
1D6
330
A
100
AcDbEntity
  8
ASN70-0002
  6
STYLE_23
 62
     7
370
     5
390
1D
100
AcDbCircle
 10
-404.7248503937062
 20
745.8703361252774
 30
0.0
 40
25.00463263226266
  0
CIRCLE
  5
1D7
330
A
100
AcDbEntity
  8
ASN70-0002
  6
STYLE_23
 62
     7
370
     5
390
1D
100
AcDbCircle
 10
-562.5290371294996
 20
745.8703478952157
 30
0.0
 40
17.50324284257658
  0
LINE
  5
1D8
330
A
100
AcDbEntity
  8
ASN70-0002
  6
Continuous
 62
     7
370
    15
390
1D
100
AcDbLine
 10
-615.0387137032503
 20
270.8715602293669
 30
0.0
 11
-615.0387137032503
 21
1220.871560229367
 31
0.0
  0
LINE
  5
1D9
330
A
100
AcDbEntity
  8
ASN70-0002
  6
STYLE_23
 62
     7
370
    15
390
1D
100
AcDbLine
 10
581.4188887810578
 20
-60.19240299947705
 30
0.0
 11
581.4188887810578
 21
-830.5765089048
 31
0.0
  0
LINE
  5
1DA
330
A
100
AcDbEntity
  8
ASN70-0002
  6
Continuous
 62
     7
370
    15
390
1D
100
AcDbLine
 10
484.4009141678998
 20
-20.38752837824723
 30
0.0
 11
614.425003855662
 21
-28.38752837824723
 31
0.0
  0
ARC
  5
1DB
330
A
100
AcDbEntity
  8
ASN70-0002
  6
STYLE_23
 62
     7
370
    15
390
1D
100
AcDbCircle
 10
561.4188887810578
 20
-60.19240299947705
 30
0.0
 40
20.0
100
AcDbArc
 50
0.0
 51
86.47919740481592
  0
LINE
  5
1DC
330
A
100
AcDbEntity
  8
ASN70-0002
  6
Continuous
 62
     7
370
    15
390
1D
100
AcDbLine
 10
484.4009141678998
 20
-34.22843977063167
 30
0.0
 11
484.4009141678998
 21
-857.7039283550621
 31
0.0
  0
ARC
  5
1DD
330
A
100
AcDbEntity
  8
ASN70-0002
  6
STYLE_23
 62
     7
370
    15
390
1D
100
AcDbCircle
 10
486.9009141678998
 20
-33.06498354921496
 30
0.0
 40
2.5
100
AcDbArc
 50
180.0
 51
266.4791974047679
  0
LINE
  5
1DE
330
A
100
AcDbEntity
  8
ASN70-0002
  6
Continuous
 62
     7
370
    15
390
1D
100
AcDbLine
 10
484.4009141678998
 20
-870.3813835260298
 30
0.0
 11
614.425003855662
 21
-862.3813835260298
 31
0.0
  0
ARC
  5
1DF
330
A
100
AcDbEntity
  8
ASN70-0002
  6
STYLE_23
 62
     7
370
    15
390
1D
100
AcDbCircle
 10
561.4188887810578
 20
-830.5765089048
 30
0.0
 40
20.00000000000236
100
AcDbArc
 50
273.5208025951841
 51
0.0
  0
ARC
  5
1E0
330
A
100
AcDbEntity
  8
ASN70-0002
  6
STYLE_23
 62
     7
370
    15
390
1D
100
AcDbCircle
 10
486.9009141678998
 20
-857.7039283550621
 30
0.0
 40
2.50000000000313
100
AcDbArc
 50
93.52080259522187
 51
180.0
  0
LINE
  5
1E1
330
A
100
AcDbEntity
  8
ASN70-0002
  6
STYLE_23
 62
     7
370
    15
390
1D
100
AcDbLine
 10
486.7473868377074
 20
-855.2086469362839
 30
0.0
 11
562.6471074225828
 21
-850.5387602550036
 31
0.0
  0
LINE
  5
1E2
330
A
100
AcDbEntity
  8
ASN70-0002
  6
Continuous
 62
     7
370
    15
390
1D
100
AcDbLine
 10
484.4009141678998
 20
-870.3813835260298
 30
0.0
 11
484.4009141678998
 21
-857.7039283550621
 31
0.0
  0
LINE
  5
1E3
330
A
100
AcDbEntity
  8
ASN70-0002
  6
STYLE_23
 62
     7
370
    15
390
1D
100
AcDbLine
 10
614.425003855662
 20
-470.3890885844012
 30
0.0
 11
589.420371223403
 21
-470.3890885844012
 31
0.0
  0
LINE
  5
1E4
330
A
100
AcDbEntity
  8
ASN70-0002
  6
STYLE_23
 62
     7
370
    15
390
1D
100
AcDbLine
 10
614.425003855662
 20
-420.3798233198831
 30
0.0
 11
589.420371223403
 21
-420.3798233198759
 31
0.0
  0
LINE
  5
1E5
330
A
100
AcDbEntity
  8
ASN70-0002
  6
STYLE_23
 62
     7
370
    15
390
1D
100
AcDbLine
 10
589.420371223403
 20
-470.3890885844012
 30
0.0
 11
581.4188887810797
 21
-478.3905710267209
 31
0.0
  0
LINE
  5
1E6
330
A
100
AcDbEntity
  8
ASN70-0002
  6
STYLE_23
 62
     7
370
    15
390
1D
100
AcDbLine
 10
589.420371223403
 20
-420.3798233198759
 30
0.0
 11
581.4188887810651
 21
-412.3783408775489
 31
0.0
  0
LINE
  5
1E7
330
A
100
AcDbEntity
  8
ASN70-0002
  6
STYLE_23
 62
     7
370
    15
390
1D
100
AcDbLine
 10
614.425003855662
 20
-470.3890885844012
 30
0.0
 11
614.4250038556547
 21
-478.3905710267209
 31
0.0
  0
LINE
  5
1E8
330
A
100
AcDbEntity
  8
ASN70-0002
  6
STYLE_23
 62
     7
370
    15
390
1D
100
AcDbLine
 10
614.425003855662
 20
-412.3783408775562
 30
0.0
 11
614.425003855662
 21
-420.3798233198759
 31
0.0
  0
LINE
  5
1E9
330
A
100
AcDbEntity
  8
ASN70-0002
  6
STYLE_23
 62
     7
370
    15
390
1D
100
AcDbLine
 10
581.4188887810797
 20
-478.3905710267209
 30
0.0
 11
581.4188887810797
 21
-412.3783408775562
 31
0.0
  0
LINE
  5
1EA
330
A
100
AcDbEntity
  8
ASN70-0002
  6
STYLE_23
 62
     7
370
    15
390
1D
100
AcDbLine
 10
589.420371223403
 20
-470.3890885844012
 30
0.0
 11
589.420371223403
 21
-420.3798233198759
 31
0.0
  0
LINE
  5
1EB
330
A
100
AcDbEntity
  8
ASN70-0002
  6
STYLE_23
 62
     7
370
    15
390
1D
100
AcDbLine
 10
614.425003855662
 20
-470.3890885844012
 30
0.0
 11
614.425003855662
 21
-420.3798233198759
 31
0.0
  0
CIRCLE
  5
1EC
330
A
100
AcDbEntity
  8
ASN70-0002
  6
STYLE_23
 62
     7
370
     5
390
1D
100
AcDbCircle
 10
562.4009141678998
 20
-305.4284397706288
 30
0.0
 40
12.50000000000004
  0
CIRCLE
  5
1ED
330
A
100
AcDbEntity
  8
ASN70-0002
  6
STYLE_23
 62
     7
370
     5
390
1D
100
AcDbCircle
 10
562.4009141678998
 20
-585.3818595763005
 30
0.0
 40
12.50000000000004
  0
DIMENSION
  5
1EE
330
A
100
AcDbEntity
  8
ASN70-0002
  6
Continuous
 62
     7
370
     5
390
1D
100
AcDbDimension
  2
*D22
 10
800.6111111111113
 20
535.8703361252774
 30
0.0
 11
805.6111111111113
 21
750.8703361252701
 31
0.0
 70
   128
 71
     5
 42
0.0
 73
     0
 74
     0
 75
     0
  3
tfrom線あり
100
AcDbAlignedDimension
 13
614.4250038555747
 23
965.8703361252774
 33
0.0
 14
614.4250038556329
 24
535.8703361252774
 34
0.0
 50
90.0
100
AcDbRotatedDimension
1001
ACAD
1000
DSTYLE
1002
{
1070
   279
1070
     2
1070
   340
1005
3B
1070
   140
1040
24.4326171875
1070
   147
1040
5.0
1002
}
  0
DIMENSION
  5
1EF
330
A
100
AcDbEntity
  8
ASN70-0002
  6
Continuous
 62
     7
370
     5
390
1D
100
AcDbDimension
  2
*D23
 10
-705.6388888888887
 20
912.1841978280281
 30
0.0
 11
-705.6388888888887
 21
747.1841978280281
 31
0.0
 70
    32
 71
     5
 42
0.0
 73
     0
 74
     0
 75
     0
  3
tfrom線あり
100
AcDbAlignedDimension
 13
-615.0387137032503
 23
582.1841978280281
 33
0.0
 14
-615.0387137032503
 24
912.1841978280281
 34
0.0
 50
90.0
100
AcDbRotatedDimension
1001
ACAD
1000
DSTYLE
1002
{
1070
   279
1070
     2
1070
   340
1005
3B
1070
   140
1040
24.4326171875
1070
   147
1040
5.0
1002
}
  0
MTEXT
  5
1F0
330
A
100
AcDbEntity
  8
ASN70-0002
 62
     7
390
1D
100
AcDbMText
 10
224.2334939236116
 20
311.5624550124194
 30
0.0
 40
24.4326171875
 41
0.0
 46
0.0
 71
     1
 72
     1
  1
※カウンタートップ置きの場合も壁固定が必要です。\P
  7
ＭＳ ゴシック
 11
0.0
 21
1.0
 31
0.0
 73
     1
 44
0.7828267384257843
  0
SPLINE
  5
1F1
330
A
100
AcDbEntity
  8
ASN70-0002
  6
Continuous
 62
     7
370
    15
390
1D
100
AcDbSpline
210
0.0
220
0.0
230
1.0
 70
     8
 71
     2
 72
     7
 73
     4
 74
     0
 42
0.000000001
 43
0.000001
 40
0.0
 40
0.0
 40
0.0
 40
1.0
 40
2.0
 40
2.0
 40
2.0
 10
-353.6004106621276
 20
-35.40402551861189
 30
0.0
 10
-243.7629901618839
 20
-43.74149258199031
 30
0.0
 10
-114.6082365834864
 20
-315.0093499064169
 30
0.0
 10
-120.0387137032503
 20
-445.3844677220695
 30
0.0
  0
SPLINE
  5
1F2
330
A
100
AcDbEntity
  8
ASN70-0002
  6
Continuous
 62
     7
370
    15
390
1D
100
AcDbSpline
210
0.0
220
0.0
230
1.0
 70
     8
 71
     2
 72
     7
 73
     4
 74
     0
 42
0.000000001
 43
0.000001
 40
0.0
 40
0.0
 40
0.0
 40
1.0
 40
2.0
 40
2.0
 40
2.0
 10
-353.6004106621276
 20
-855.3649099255272
 30
0.0
 10
-243.7629901618839
 20
-847.0274428621487
 30
0.0
 10
-114.6082365834864
 20
-575.7595855377222
 30
0.0
 10
-120.0387137032503
 20
-445.3844677220695
 30
0.0
  0
POLYLINE
  5
1F3
330
A
100
AcDbEntity
  8
ASN70-0002
  6
Continuous
 62
     7
370
     5
390
1D
100
AcDb2dPolyline
 66
     1
 10
0.0
 20
0.0
 30
0.0
 70
     1
 75
     5
  0
VERTEX
  5
1F4
330
1F3
100
AcDbEntity
  8
ASN70-0002
  6
Continuous
 62
     7
370
     5
390
1D
100
AcDbVertex
100
AcDb2dVertex
 10
-615.0387137032503
 20
912.1841978280281
 30
0.0
  0
VERTEX
  5
1F5
330
1F3
100
AcDbEntity
  8
ASN70-0002
  6
Continuous
 62
     7
370
     5
390
1D
100
AcDbVertex
100
AcDb2dVertex
 10
-355.0387137032503
 20
912.1841978280281
 30
0.0
  0
VERTEX
  5
1F6
330
1F3
100
AcDbEntity
  8
ASN70-0002
  6
Continuous
 62
     7
370
     5
390
1D
100
AcDbVertex
100
AcDb2dVertex
 10
-355.0387137032503
 20
582.1841978280281
 30
0.0
  0
VERTEX
  5
1F7
330
1F3
100
AcDbEntity
  8
ASN70-0002
  6
Continuous
 62
     7
370
     5
390
1D
100
AcDbVertex
100
AcDb2dVertex
 10
-615.0387137032503
 20
582.1841978280281
 30
0.0
  0
SEQEND
  5
1F8
330
1F3
100
AcDbEntity
  8
ASN70-0002
  6
Continuous
 62
     7
370
     5
390
1D
  0
DIMENSION
  5
1F9
330
A
100
AcDbEntity
  8
ASN70-0002
  6
Continuous
 62
     7
370
     5
390
1D
100
AcDbDimension
  2
*D24
 10
-615.0387137032503
 20
983.0
 30
0.0
 11
-485.0387137032503
 21
983.0
 31
0.0
 70
    32
 71
     5
 42
0.0
 73
     0
 74
     0
 75
     0
  3
tfrom線あり
100
AcDbAlignedDimension
 13
-355.0387137032503
 23
912.1841978280281
 33
0.0
 14
-615.0387137032503
 24
912.1841978280281
 34
0.0
100
AcDbRotatedDimension
1001
ACAD
1000
DSTYLE
1002
{
1070
   279
1070
     2
1070
   340
1005
3B
1070
   140
1040
24.4326171875
1070
   147
1040
5.0
1002
}
  0
CIRCLE
  5
23F
102
{ACAD_REACTORS
330
243
330
253
102
}
330
A
100
AcDbEntity
  8
ASN70-0002
  6
Continuous
370
     0
100
AcDbCircle
 10
-562.5290371294996
 20
-445.3844559521385
 30
0.0
 40
17.5
  0
LEADER
  5
250
102
{ACAD_REACTORS
330
253
102
}
102
{ACAD_XDICTIONARY
360
252
102
}
330
A
100
AcDbEntity
  8
ASN70-0002
  6
Continuous
370
     0
100
AcDbLeader
  3
JIS
 71
     0
 76
     3
 10
-580.0290371294996
 20
-445.3844559521385
 30
0.0
 10
-647.0944484903582
 20
-384.0513342734263
 30
0.0
 10
-647.0944484903582
 20
-318.6174137764509
 30
0.0
1001
ACAD
1000
DSTYLE
1002
{
1070
   341
1005
0
1002
}
  0
MTEXT
  5
254
330
A
100
AcDbEntity
  8
ASN70-0002
  6
Continuous
370
     0
100
AcDbMText
 10
-673.922355894118
 20
-376.5264334162741
 30
0.0
 40
20.0
 41
47.11242275782229
 46
20.0
 71
     1
 72
     1
  1
{φ35}
  7
ＭＳ ゴシック
 11
6.123233995736766E-17
 21
1.0
 31
0.0
 73
     1
 44
1.0
1001
ACAD
1000
ACAD_MTEXT_DEFINED_HEIGHT_BEGIN
1070
    46
1040
20.0
1000
ACAD_MTEXT_DEFINED_HEIGHT_END
  0
ENDSEC
  0
SECTION
  2
OBJECTS
  0
DICTIONARY
  5
19
330
0
100
AcDbDictionary
281
     1
  3
ACAD_DETAILVIEWSTYLE
350
25E
  3
ACAD_GROUP
350
1A
  3
ACAD_IMAGE_VARS
350
23D
  3
ACAD_LAYOUT
350
1E
  3
ACAD_MATERIAL
350
235
  3
ACAD_MLEADERSTYLE
350
25C
  3
ACAD_MLINESTYLE
350
1B
  3
ACAD_PLOTSETTINGS
350
22
  3
ACAD_PLOTSTYLENAME
350
1F
  3
ACAD_SCALELIST
350
1FA
  3
ACAD_SECTIONVIEWSTYLE
350
25F
  3
ACAD_TABLESTYLE
350
239
  3
ACAD_VISUALSTYLE
350
21C
  3
AcadDim
350
251
  3
ACDB_RECOMPOSE_DATA
350
265
  3
AcDbVariableDictionary
350
255
  3
APPDATA
350
23B
  0
SUN
  5
23C
330
15
100
AcDbSun
 90
        1
290
     0
 63
     7
421
 16777215
 40
1.0
291
     1
 91
  2455826
 92
 54000000
292
     0
 70
     2
 71
   256
280
     1
  0
DICTIONARY
  5
252
330
250
100
AcDbDictionary
280
     1
281
     1
  3
ACAD_DIMASSOC
360
253
  0
DICTIONARY
  5
25E
102
{ACAD_REACTORS
330
19
102
}
330
19
100
AcDbDictionary
281
     1
  0
DICTIONARY
  5
1A
102
{ACAD_REACTORS
330
19
102
}
330
19
100
AcDbDictionary
281
     1
  0
RASTERVARIABLES
  5
23D
102
{ACAD_REACTORS
330
19
102
}
330
19
100
AcDbRasterVariables
 90
        0
 70
     1
 71
     1
 72
     1
  0
DICTIONARY
  5
1E
102
{ACAD_REACTORS
330
19
102
}
330
19
100
AcDbDictionary
281
     1
  3
Layout1
350
21
  3
Model
350
20
  0
DICTIONARY
  5
235
102
{ACAD_REACTORS
330
19
102
}
330
19
100
AcDbDictionary
281
     1
  3
ByBlock
350
237
  3
ByLayer
350
236
  3
Global
350
238
  0
DICTIONARY
  5
25C
102
{ACAD_REACTORS
330
19
102
}
330
19
100
AcDbDictionary
281
     1
  0
DICTIONARY
  5
1B
102
{ACAD_REACTORS
330
19
102
}
330
19
100
AcDbDictionary
281
     1
  3
Standard
350
1C
  0
DICTIONARY
  5
22
102
{ACAD_REACTORS
330
19
102
}
330
19
100
AcDbDictionary
281
     1
  0
ACDBDICTIONARYWDFLT
  5
1F
102
{ACAD_REACTORS
330
19
102
}
330
19
100
AcDbDictionary
281
     1
  3
Normal
350
1D
100
AcDbDictionaryWithDefault
340
1D
  0
DICTIONARY
  5
1FA
102
{ACAD_REACTORS
330
19
102
}
330
19
100
AcDbDictionary
281
     1
  3
A0
350
1FB
  3
A1
350
1FC
  3
A2
350
1FD
  3
A3
350
1FE
  3
A4
350
1FF
  3
A5
350
200
  3
A6
350
201
  3
A7
350
202
  3
A8
350
203
  3
A9
350
204
  3
B0
350
205
  3
B1
350
206
  3
B2
350
207
  3
B3
350
208
  3
B4
350
209
  3
B5
350
20A
  3
B6
350
20B
  3
B7
350
20C
  3
B8
350
20D
  3
B9
350
20E
  3
C0
350
20F
  3
C1
350
210
  3
C2
350
211
  3
C3
350
212
  3
C4
350
213
  3
C5
350
214
  3
C6
350
215
  3
C7
350
216
  3
C8
350
217
  3
C9
350
218
  3
D0
350
219
  3
D1
350
21A
  3
D2
350
21B
  0
DICTIONARY
  5
25F
102
{ACAD_REACTORS
330
19
102
}
330
19
100
AcDbDictionary
281
     1
  0
DICTIONARY
  5
239
102
{ACAD_REACTORS
330
19
102
}
330
19
100
AcDbDictionary
281
     1
  3
Standard
350
23A
  0
DICTIONARY
  5
21C
102
{ACAD_REACTORS
330
19
102
}
330
19
100
AcDbDictionary
281
     1
  3
2dWireframe
350
221
  3
Basic
350
224
  3
Brighten
350
228
  3
ColorChange
350
22C
  3
Conceptual
350
226
  3
Dim
350
227
  3
EdgeColorOff
350
22F
  3
Facepattern
350
22B
  3
Flat
350
21D
  3
FlatWithEdges
350
21E
  3
Gouraud
350
21F
  3
GouraudWithEdges
350
220
  3
Hidden
350
223
  3
JitterOff
350
22D
  3
Linepattern
350
22A
  3
OverhangOff
350
22E
  3
Realistic
350
225
  3
Shaded
350
234
  3
Shaded with edges
350
233
  3
Shades of Gray
350
230
  3
Sketchy
350
231
  3
Thicken
350
229
  3
Wireframe
350
222
  3
X-Ray
350
232
  0
XRECORD
  5
251
102
{ACAD_REACTORS
330
19
102
}
330
19
100
AcDbXrecord
280
     1
340
0
 72
     0
 71
     0
 70
     0
 69
     0
 68
     1
 67
     3
 66
     0
 65
     0
 64
     0
 63
     3
 62
     1
 61
     0
 60
     0
 40
0.0
  0
XRECORD
  5
265
102
{ACAD_REACTORS
330
19
102
}
330
19
100
AcDbXrecord
280
     1
 90
        1
330
23A
  0
DICTIONARY
  5
255
102
{ACAD_REACTORS
330
19
102
}
330
19
100
AcDbDictionary
281
     1
  3
CANNOSCALE
350
256
  3
CTABLESTYLE
350
25B
  3
LIGHTINGUNITS
350
257
  3
MSLTSCALE
350
25D
  0
DICTIONARY
  5
23B
102
{ACAD_REACTORS
330
19
102
}
330
19
100
AcDbDictionary
281
     1
  0
DIMASSOC
  5
253
102
{ACAD_REACTORS
330
252
102
}
330
252
100
AcDbDimAssoc
330
250
 90
        1
 70
     0
 71
     1
  1
AcDbOsnapPointRef
 72
     5
331
23F
 73
     0
 91
        0
 40
3.141592653589793
 10
0.0
 20
0.0
 30
0.0
 75
     0
  0
LAYOUT
  5
21
102
{ACAD_REACTORS
330
1E
102
}
330
1E
100
AcDbPlotSettings
  1

  2

  4

  6

 40
0.0
 41
0.0
 42
0.0
 43
0.0
 44
0.0
 45
0.0
 46
0.0
 47
0.0
 48
0.0
 49
0.0
140
0.0
141
0.0
142
1.0
143
1.0
 70
     0
 72
     0
 73
     0
 74
     0
  7

 75
     0
 76
     0
 77
     2
 78
   300
147
1.0
148
0.0
149
0.0
100
AcDbLayout
  1
Layout1
 70
     0
 71
     0
 10
0.0
 20
0.0
 11
0.0
 21
0.0
 12
0.0
 22
0.0
 32
0.0
 14
0.0
 24
0.0
 34
0.0
 15
0.0
 25
0.0
 35
0.0
146
0.0
 13
0.0
 23
0.0
 33
0.0
 16
0.0
 26
0.0
 36
0.0
 17
0.0
 27
0.0
 37
0.0
 76
     0
330
B
  0
LAYOUT
  5
20
102
{ACAD_REACTORS
330
1E
102
}
330
1E
100
AcDbPlotSettings
  1

  2

  4

  6

 40
0.0
 41
0.0
 42
0.0
 43
0.0
 44
0.0
 45
0.0
 46
0.0
 47
0.0
 48
0.0
 49
0.0
140
0.0
141
0.0
142
1.0
143
1.0
 70
  1024
 72
     0
 73
     0
 74
     0
  7

 75
     0
 76
     0
 77
     2
 78
   300
147
1.0
148
0.0
149
0.0
100
AcDbLayout
  1
Model
 70
     0
 71
     1
 10
0.0
 20
0.0
 11
0.0
 21
0.0
 12
0.0
 22
0.0
 32
0.0
 14
0.0
 24
0.0
 34
0.0
 15
0.0
 25
0.0
 35
0.0
146
0.0
 13
0.0
 23
0.0
 33
0.0
 16
0.0
 26
0.0
 36
0.0
 17
0.0
 27
0.0
 37
0.0
 76
     0
330
A
331
15
  0
MATERIAL
  5
237
102
{ACAD_REACTORS
330
235
102
}
330
235
100
AcDbMaterial
  1
ByBlock
 72
     1
 94
      127
  0
MATERIAL
  5
236
102
{ACAD_REACTORS
330
235
102
}
330
235
100
AcDbMaterial
  1
ByLayer
 72
     1
 94
      127
  0
MATERIAL
  5
238
102
{ACAD_REACTORS
330
235
102
}
330
235
100
AcDbMaterial
  1
Global
 72
     1
 94
      127
  0
MLINESTYLE
  5
1C
102
{ACAD_REACTORS
330
1B
102
}
330
1B
100
AcDbMlineStyle
  2
Standard
 70
     0
  3

 62
     0
 51
90.0
 52
90.0
 71
     2
 49
0.5
 62
   256
  6
BYLAYER
 49
-0.5
 62
   256
  6
BYLAYER
  0
ACDBPLACEHOLDER
  5
1D
102
{ACAD_REACTORS
330
1F
102
}
330
1F
  0
SCALE
  5
1FB
102
{ACAD_REACTORS
330
1FA
102
}
330
1FA
100
AcDbScale
 70
     0
300
1:1
140
1.0
141
1.0
290
     1
  0
SCALE
  5
1FC
102
{ACAD_REACTORS
330
1FA
102
}
330
1FA
100
AcDbScale
 70
     0
300
1:2
140
1.0
141
2.0
290
     0
  0
SCALE
  5
1FD
102
{ACAD_REACTORS
330
1FA
102
}
330
1FA
100
AcDbScale
 70
     0
300
1:4
140
1.0
141
4.0
290
     0
  0
SCALE
  5
1FE
102
{ACAD_REACTORS
330
1FA
102
}
330
1FA
100
AcDbScale
 70
     0
300
1:5
140
1.0
141
5.0
290
     0
  0
SCALE
  5
1FF
102
{ACAD_REACTORS
330
1FA
102
}
330
1FA
100
AcDbScale
 70
     0
300
1:8
140
1.0
141
8.0
290
     0
  0
SCALE
  5
200
102
{ACAD_REACTORS
330
1FA
102
}
330
1FA
100
AcDbScale
 70
     0
300
1:10
140
1.0
141
10.0
290
     0
  0
SCALE
  5
201
102
{ACAD_REACTORS
330
1FA
102
}
330
1FA
100
AcDbScale
 70
     0
300
1:16
140
1.0
141
16.0
290
     0
  0
SCALE
  5
202
102
{ACAD_REACTORS
330
1FA
102
}
330
1FA
100
AcDbScale
 70
     0
300
1:20
140
1.0
141
20.0
290
     0
  0
SCALE
  5
203
102
{ACAD_REACTORS
330
1FA
102
}
330
1FA
100
AcDbScale
 70
     0
300
1:30
140
1.0
141
30.0
290
     0
  0
SCALE
  5
204
102
{ACAD_REACTORS
330
1FA
102
}
330
1FA
100
AcDbScale
 70
     0
300
1:40
140
1.0
141
40.0
290
     0
  0
SCALE
  5
205
102
{ACAD_REACTORS
330
1FA
102
}
330
1FA
100
AcDbScale
 70
     0
300
1:50
140
1.0
141
50.0
290
     0
  0
SCALE
  5
206
102
{ACAD_REACTORS
330
1FA
102
}
330
1FA
100
AcDbScale
 70
     0
300
1:100
140
1.0
141
100.0
290
     0
  0
SCALE
  5
207
102
{ACAD_REACTORS
330
1FA
102
}
330
1FA
100
AcDbScale
 70
     0
300
2:1
140
2.0
141
1.0
290
     0
  0
SCALE
  5
208
102
{ACAD_REACTORS
330
1FA
102
}
330
1FA
100
AcDbScale
 70
     0
300
4:1
140
4.0
141
1.0
290
     0
  0
SCALE
  5
209
102
{ACAD_REACTORS
330
1FA
102
}
330
1FA
100
AcDbScale
 70
     0
300
8:1
140
8.0
141
1.0
290
     0
  0
SCALE
  5
20A
102
{ACAD_REACTORS
330
1FA
102
}
330
1FA
100
AcDbScale
 70
     0
300
10:1
140
10.0
141
1.0
290
     0
  0
SCALE
  5
20B
102
{ACAD_REACTORS
330
1FA
102
}
330
1FA
100
AcDbScale
 70
     0
300
100:1
140
100.0
141
1.0
290
     0
  0
SCALE
  5
20C
102
{ACAD_REACTORS
330
1FA
102
}
330
1FA
100
AcDbScale
 70
     0
300
1/128" = 1'-0"
140
0.0078125
141
12.0
290
     0
  0
SCALE
  5
20D
102
{ACAD_REACTORS
330
1FA
102
}
330
1FA
100
AcDbScale
 70
     0
300
1/64" = 1'-0"
140
0.015625
141
12.0
290
     0
  0
SCALE
  5
20E
102
{ACAD_REACTORS
330
1FA
102
}
330
1FA
100
AcDbScale
 70
     0
300
1/32" = 1'-0"
140
0.03125
141
12.0
290
     0
  0
SCALE
  5
20F
102
{ACAD_REACTORS
330
1FA
102
}
330
1FA
100
AcDbScale
 70
     0
300
1/16" = 1'-0"
140
0.0625
141
12.0
290
     0
  0
SCALE
  5
210
102
{ACAD_REACTORS
330
1FA
102
}
330
1FA
100
AcDbScale
 70
     0
300
3/32" = 1'-0"
140
0.09375
141
12.0
290
     0
  0
SCALE
  5
211
102
{ACAD_REACTORS
330
1FA
102
}
330
1FA
100
AcDbScale
 70
     0
300
1/8" = 1'-0"
140
0.125
141
12.0
290
     0
  0
SCALE
  5
212
102
{ACAD_REACTORS
330
1FA
102
}
330
1FA
100
AcDbScale
 70
     0
300
3/16" = 1'-0"
140
0.1875
141
12.0
290
     0
  0
SCALE
  5
213
102
{ACAD_REACTORS
330
1FA
102
}
330
1FA
100
AcDbScale
 70
     0
300
1/4" = 1'-0"
140
0.25
141
12.0
290
     0
  0
SCALE
  5
214
102
{ACAD_REACTORS
330
1FA
102
}
330
1FA
100
AcDbScale
 70
     0
300
3/8" = 1'-0"
140
0.375
141
12.0
290
     0
  0
SCALE
  5
215
102
{ACAD_REACTORS
330
1FA
102
}
330
1FA
100
AcDbScale
 70
     0
300
1/2" = 1'-0"
140
0.5
141
12.0
290
     0
  0
SCALE
  5
216
102
{ACAD_REACTORS
330
1FA
102
}
330
1FA
100
AcDbScale
 70
     0
300
3/4" = 1'-0"
140
0.75
141
12.0
290
     0
  0
SCALE
  5
217
102
{ACAD_REACTORS
330
1FA
102
}
330
1FA
100
AcDbScale
 70
     0
300
1" = 1'-0"
140
1.0
141
12.0
290
     0
  0
SCALE
  5
218
102
{ACAD_REACTORS
330
1FA
102
}
330
1FA
100
AcDbScale
 70
     0
300
1-1/2" = 1'-0"
140
1.5
141
12.0
290
     0
  0
SCALE
  5
219
102
{ACAD_REACTORS
330
1FA
102
}
330
1FA
100
AcDbScale
 70
     0
300
3" = 1'-0"
140
3.0
141
12.0
290
     0
  0
SCALE
  5
21A
102
{ACAD_REACTORS
330
1FA
102
}
330
1FA
100
AcDbScale
 70
     0
300
6" = 1'-0"
140
6.0
141
12.0
290
     0
  0
SCALE
  5
21B
102
{ACAD_REACTORS
330
1FA
102
}
330
1FA
100
AcDbScale
 70
     0
300
1'-0" = 1'-0"
140
12.0
141
12.0
290
     0
  0
TABLESTYLE
  5
23A
102
{ACAD_REACTORS
330
239
102
}
102
{ACAD_XDICTIONARY
360
263
102
}
330
239
100
AcDbTableStyle
  3
Standard
 70
     0
 71
     0
 40
0.06
 41
0.06
280
     0
281
     0
  7
Standard
140
4.5
170
     2
 62
     0
 63
   257
283
     0
 90
        4
 91
        0
  1

274
    -2
284
     1
 64
     0
275
    -2
285
     1
 65
     0
276
    -2
286
     1
 66
     0
277
    -2
287
     1
 67
     0
278
    -2
288
     1
 68
     0
279
    -2
289
     1
 69
     0
  7
Standard
140
6.0
170
     5
 62
     0
 63
   257
283
     0
 90
        4
 91
        0
  1

274
    -2
284
     1
 64
     0
275
    -2
285
     1
 65
     0
276
    -2
286
     1
 66
     0
277
    -2
287
     1
 67
     0
278
    -2
288
     1
 68
     0
279
    -2
289
     1
 69
     0
  7
Standard
140
4.5
170
     5
 62
     0
 63
   257
283
     0
 90
        4
 91
        0
  1

274
    -2
284
     1
 64
     0
275
    -2
285
     1
 65
     0
276
    -2
286
     1
 66
     0
277
    -2
287
     1
 67
     0
278
    -2
288
     1
 68
     0
279
    -2
289
     1
 69
     0
  0
VISUALSTYLE
  5
221
102
{ACAD_REACTORS
330
21C
102
}
330
21C
100
AcDbVisualStyle
  2
2dWireframe
 70
     4
 71
     0
 72
     2
 73
     0
 90
        0
 40
0.6
 41
30.0
 62
     5
 63
     7
421
 16777215
 74
     1
 91
        4
 64
     7
 65
   257
 75
     1
175
     1
 42
1.0
 92
        0
 66
   257
 43
1.0
 76
     1
 77
     6
 78
     2
 67
     7
 79
     5
170
     0
171
     0
290
     0
174
     0
 93
        1
 44
0.0
173
     0
291
     0
 45
0.0
  0
VISUALSTYLE
  5
224
102
{ACAD_REACTORS
330
21C
102
}
330
21C
100
AcDbVisualStyle
  2
Basic
 70
     7
 71
     1
 72
     0
 73
     1
 90
        0
 40
0.6
 41
30.0
 62
     5
 63
     7
421
 16777215
 74
     0
 91
        4
 64
     7
 65
   257
 75
     1
175
     1
 42
1.0
 92
        8
 66
     7
 43
1.0
 76
     1
 77
     6
 78
     2
 67
     7
 79
     5
170
     0
171
     0
290
     0
174
     0
 93
        1
 44
0.0
173
     0
291
     1
 45
0.0
  0
VISUALSTYLE
  5
228
102
{ACAD_REACTORS
330
21C
102
}
330
21C
100
AcDbVisualStyle
  2
Brighten
 70
    12
 71
     2
 72
     2
 73
     0
 90
        0
 40
0.6
 41
30.0
 62
     5
 63
     7
421
 16777215
 74
     1
 91
        4
 64
     7
 65
   257
 75
     1
175
     1
 42
1.0
 92
        8
 66
     7
 43
1.0
 76
     1
 77
     6
 78
     2
 67
     7
 79
     5
170
     0
171
     0
290
     0
174
     0
 93
        1
 44
50.0
173
     0
291
     1
 45
0.0
  0
VISUALSTYLE
  5
22C
102
{ACAD_REACTORS
330
21C
102
}
330
21C
100
AcDbVisualStyle
  2
ColorChange
 70
    16
 71
     2
 72
     2
 73
     3
 90
        0
 40
0.6
 41
30.0
 62
     5
 63
     8
421
  8421504
 74
     1
 91
        4
 64
     7
 65
   257
 75
     1
175
     1
 42
1.0
 92
        8
 66
     8
424
  8421504
 43
1.0
 76
     1
 77
     6
 78
     2
 67
     7
 79
     5
170
     0
171
     0
290
     0
174
     0
 93
        1
 44
0.0
173
     0
291
     1
 45
0.0
  0
VISUALSTYLE
  5
226
102
{ACAD_REACTORS
330
21C
102
}
330
21C
100
AcDbVisualStyle
  2
Conceptual
 70
     9
 71
     3
 72
     2
 73
     0
 90
        0
 40
0.6
 41
30.0
 62
     5
 63
     7
421
 16777215
 74
     2
 91
        2
 64
     7
 65
   257
 75
     1
175
     1
 42
179.0
 92
        8
 66
     7
 43
1.0
 76
     1
 77
     6
 78
     2
 67
     7
 79
     3
170
     0
171
     0
290
     0
174
     0
 93
        1
 44
0.0
173
     0
291
     0
 45
0.0
  0
VISUALSTYLE
  5
227
102
{ACAD_REACTORS
330
21C
102
}
330
21C
100
AcDbVisualStyle
  2
Dim
 70
    11
 71
     2
 72
     2
 73
     0
 90
        0
 40
0.6
 41
30.0
 62
     5
 63
     7
421
 16777215
 74
     1
 91
        4
 64
     7
 65
   257
 75
     1
175
     1
 42
1.0
 92
        8
 66
     7
 43
1.0
 76
     1
 77
     6
 78
     2
 67
     7
 79
     5
170
     0
171
     0
290
     0
174
     0
 93
        1
 44
-50.0
173
     0
291
     1
 45
0.0
  0
VISUALSTYLE
  5
22F
102
{ACAD_REACTORS
330
21C
102
}
330
21C
100
AcDbVisualStyle
  2
EdgeColorOff
 70
    22
 71
     2
 72
     2
 73
     0
 90
        0
 40
0.6
 41
30.0
 62
     5
 63
     7
421
 16777215
 74
     1
 91
        4
 64
     7
 65
   257
 75
     1
175
     1
 42
1.0
 92
        8
 66
     7
 43
1.0
 76
     1
 77
     6
 78
     2
 67
     7
 79
     5
170
     0
171
     0
290
     0
174
     0
 93
        1
 44
0.0
173
     0
291
     1
 45
0.0
  0
VISUALSTYLE
  5
22B
102
{ACAD_REACTORS
330
21C
102
}
330
21C
100
AcDbVisualStyle
  2
Facepattern
 70
    15
 71
     2
 72
     2
 73
     0
 90
        0
 40
0.6
 41
30.0
 62
     5
 63
     7
421
 16777215
 74
     1
 91
        4
 64
     7
 65
   257
 75
     1
175
     1
 42
1.0
 92
        8
 66
     7
 43
1.0
 76
     1
 77
     6
 78
     2
 67
     7
 79
     5
170
     0
171
     0
290
     0
174
     0
 93
        1
 44
0.0
173
     0
291
     1
 45
0.0
  0
VISUALSTYLE
  5
21D
102
{ACAD_REACTORS
330
21C
102
}
330
21C
100
AcDbVisualStyle
  2
Flat
 70
     0
 71
     2
 72
     1
 73
     1
 90
        2
 40
0.6
 41
30.0
 62
     5
 63
     7
421
 16777215
 74
     0
 91
        0
 64
     7
 65
   257
 75
     1
175
     1
 42
1.0
 92
        8
 66
     7
 43
1.0
 76
     1
 77
     6
 78
     2
 67
     7
 79
     5
170
     0
171
     0
290
     0
174
     0
 93
       13
 44
0.0
173
     0
291
     1
 45
0.0
  0
VISUALSTYLE
  5
21E
102
{ACAD_REACTORS
330
21C
102
}
330
21C
100
AcDbVisualStyle
  2
FlatWithEdges
 70
     1
 71
     2
 72
     1
 73
     1
 90
        2
 40
0.6
 41
30.0
 62
     5
 63
     7
421
 16777215
 74
     1
 91
        0
 64
     7
 65
   257
 75
     1
175
     1
 42
1.0
 92
        0
 66
   257
 43
1.0
 76
     1
 77
     6
 78
     2
 67
     7
 79
     5
170
     0
171
     0
290
     0
174
     0
 93
       13
 44
0.0
173
     0
291
     1
 45
0.0
  0
VISUALSTYLE
  5
21F
102
{ACAD_REACTORS
330
21C
102
}
330
21C
100
AcDbVisualStyle
  2
Gouraud
 70
     2
 71
     2
 72
     2
 73
     1
 90
        2
 40
0.6
 41
30.0
 62
     5
 63
     7
421
 16777215
 74
     0
 91
        0
 64
     7
 65
   257
 75
     1
175
     1
 42
1.0
 92
        0
 66
     7
 43
1.0
 76
     1
 77
     6
 78
     2
 67
     7
 79
     5
170
     0
171
     0
290
     0
174
     0
 93
       13
 44
0.0
173
     0
291
     1
 45
0.0
  0
VISUALSTYLE
  5
220
102
{ACAD_REACTORS
330
21C
102
}
330
21C
100
AcDbVisualStyle
  2
GouraudWithEdges
 70
     3
 71
     2
 72
     2
 73
     1
 90
        2
 40
0.6
 41
30.0
 62
     5
 63
     7
421
 16777215
 74
     1
 91
        0
 64
     7
 65
   257
 75
     1
175
     1
 42
1.0
 92
        0
 66
   257
 43
1.0
 76
     1
 77
     6
 78
     2
 67
     7
 79
     5
170
     0
171
     0
290
     0
174
     0
 93
       13
 44
0.0
173
     0
291
     1
 45
0.0
  0
VISUALSTYLE
  5
223
102
{ACAD_REACTORS
330
21C
102
}
330
21C
100
AcDbVisualStyle
  2
Hidden
 70
     6
 71
     1
 72
     2
 73
     2
 90
        0
 40
0.6
 41
30.0
 62
     5
 63
     7
421
 16777215
 74
     2
 91
        2
 64
     7
 65
   257
 75
     2
175
     1
 42
40.0
 92
        0
 66
   257
 43
1.0
 76
     1
 77
     6
 78
     2
 67
     7
 79
     3
170
     0
171
     0
290
     0
174
     0
 93
        1
 44
0.0
173
     0
291
     0
 45
0.0
  0
VISUALSTYLE
  5
22D
102
{ACAD_REACTORS
330
21C
102
}
330
21C
100
AcDbVisualStyle
  2
JitterOff
 70
    20
 71
     2
 72
     2
 73
     0
 90
        0
 40
0.6
 41
30.0
 62
     5
 63
     7
421
 16777215
 74
     1
 91
        4
 64
     7
 65
   257
 75
     1
175
     1
 42
1.0
 92
       10
 66
     7
 43
1.0
 76
     1
 77
     6
 78
     2
 67
     7
 79
     5
170
     0
171
     0
290
     0
174
     0
 93
        1
 44
0.0
173
     0
291
     1
 45
0.0
  0
VISUALSTYLE
  5
22A
102
{ACAD_REACTORS
330
21C
102
}
330
21C
100
AcDbVisualStyle
  2
Linepattern
 70
    14
 71
     2
 72
     2
 73
     0
 90
        0
 40
0.6
 41
30.0
 62
     5
 63
     7
421
 16777215
 74
     1
 91
        4
 64
     7
 65
   257
 75
     7
175
     7
 42
1.0
 92
        8
 66
     7
 43
1.0
 76
     1
 77
     6
 78
     2
 67
     7
 79
     5
170
     0
171
     0
290
     0
174
     0
 93
        1
 44
0.0
173
     0
291
     1
 45
0.0
  0
VISUALSTYLE
  5
22E
102
{ACAD_REACTORS
330
21C
102
}
330
21C
100
AcDbVisualStyle
  2
OverhangOff
 70
    21
 71
     2
 72
     2
 73
     0
 90
        0
 40
0.6
 41
30.0
 62
     5
 63
     7
421
 16777215
 74
     1
 91
        4
 64
     7
 65
   257
 75
     1
175
     1
 42
1.0
 92
        9
 66
     7
 43
1.0
 76
     1
 77
     6
 78
     2
 67
     7
 79
     5
170
     0
171
     0
290
     0
174
     0
 93
        1
 44
0.0
173
     0
291
     1
 45
0.0
  0
VISUALSTYLE
  5
225
102
{ACAD_REACTORS
330
21C
102
}
330
21C
100
AcDbVisualStyle
  2
Realistic
 70
     8
 71
     2
 72
     3
 73
     0
 90
        2
 40
0.6
 41
30.0
 62
     5
 63
     7
421
 16777215
 74
     0
 91
        0
 64
     7
 65
   257
 75
     1
175
     1
 42
1.0
 92
        8
 66
   257
 43
1.0
 76
     1
 77
     6
 78
     2
 67
     7
 79
     3
170
     0
171
     0
290
     0
174
     0
 93
       13
 44
0.0
173
     0
291
     0
 45
0.0
  0
VISUALSTYLE
  5
234
102
{ACAD_REACTORS
330
21C
102
}
330
21C
100
AcDbVisualStyle
  2
Shaded
 70
    27
 71
     2
 72
     2
 73
     1
 90
        2
 40
0.6
 41
30.0
 62
     5
 63
     7
421
 16777215
 74
     0
 91
        4
 64
     7
 65
   257
 75
     1
175
     1
 42
1.0
 92
        8
 66
   257
 43
1.0
 76
     1
 77
     6
 78
     2
 67
     8
425
  7895160
 79
     3
170
     0
171
     0
290
     0
174
     0
 93
        5
 44
0.0
173
     0
291
     0
 45
0.0
  0
VISUALSTYLE
  5
233
102
{ACAD_REACTORS
330
21C
102
}
330
21C
100
AcDbVisualStyle
  2
Shaded with edges
 70
    26
 71
     2
 72
     2
 73
     1
 90
        2
 40
0.6
 41
30.0
 62
     5
 63
     7
421
 16777215
 74
     1
 91
       10
 64
     7
 65
   257
 75
     2
175
     1
 42
1.0
 92
        8
 66
   257
 43
1.0
 76
     1
 77
     6
 78
     2
 67
     7
 79
     3
170
     0
171
     0
290
     0
174
     0
 93
        5
 44
0.0
173
     0
291
     0
 45
0.0
  0
VISUALSTYLE
  5
230
102
{ACAD_REACTORS
330
21C
102
}
330
21C
100
AcDbVisualStyle
  2
Shades of Gray
 70
    23
 71
     2
 72
     2
 73
     3
 90
        0
 40
0.6
 41
30.0
 62
     5
 63
     7
421
 16777215
 74
     2
 91
        2
 64
     7
 65
     7
 75
     1
175
     1
 42
40.0
 92
        8
 66
     7
 43
1.0
 76
     1
 77
     6
 78
     2
 67
     7
 79
     3
170
     0
171
     0
290
     0
174
     0
 93
        1
 44
0.0
173
     0
291
     0
 45
0.0
  0
VISUALSTYLE
  5
231
102
{ACAD_REACTORS
330
21C
102
}
330
21C
100
AcDbVisualStyle
  2
Sketchy
 70
    24
 71
     1
 72
     2
 73
     2
 90
        0
 40
0.6
 41
30.0
 62
     5
 63
     7
421
 16777215
 74
     2
 91
        2
 64
     7
 65
     7
 75
     1
175
     1
 42
40.0
 92
       11
 66
     7
 43
1.0
 76
     1
 77
     6
 78
     2
 67
     7
 79
     6
170
     0
171
     0
290
     0
174
     0
 93
        1
 44
0.0
173
     0
291
     0
 45
0.0
  0
VISUALSTYLE
  5
229
102
{ACAD_REACTORS
330
21C
102
}
330
21C
100
AcDbVisualStyle
  2
Thicken
 70
    13
 71
     2
 72
     2
 73
     0
 90
        0
 40
0.6
 41
30.0
 62
     5
 63
     7
421
 16777215
 74
     1
 91
        4
 64
     7
 65
   257
 75
     1
175
     1
 42
1.0
 92
       12
 66
     7
 43
1.0
 76
     1
 77
     6
 78
     2
 67
     7
 79
     5
170
     0
171
     0
290
     0
174
     0
 93
        1
 44
0.0
173
     0
291
     1
 45
0.0
  0
VISUALSTYLE
  5
222
102
{ACAD_REACTORS
330
21C
102
}
330
21C
100
AcDbVisualStyle
  2
Wireframe
 70
     5
 71
     0
 72
     2
 73
     0
 90
        0
 40
0.6
 41
30.0
 62
     5
 63
     7
421
 16777215
 74
     1
 91
        4
 64
     7
 65
   257
 75
     1
175
     1
 42
1.0
 92
        0
 66
   257
 43
1.0
 76
     1
 77
     6
 78
     2
 67
     7
 79
     3
170
     0
171
     0
290
     0
174
     0
 93
        1
 44
0.0
173
     0
291
     0
 45
0.0
  0
VISUALSTYLE
  5
232
102
{ACAD_REACTORS
330
21C
102
}
330
21C
100
AcDbVisualStyle
  2
X-Ray
 70
    25
 71
     2
 72
     2
 73
     1
 90
        1
 40
0.5
 41
30.0
 62
     5
 63
     7
421
 16777215
 74
     1
 91
        0
 64
     7
 65
   257
 75
     1
175
     1
 42
1.0
 92
        8
 66
     7
 43
1.0
 76
     1
 77
     6
 78
     2
 67
     7
 79
     3
170
     0
171
     0
290
     0
174
     0
 93
       13
 44
0.0
173
     0
291
     0
 45
0.0
  0
DICTIONARYVAR
  5
256
102
{ACAD_REACTORS
330
255
102
}
330
255
100
DictionaryVariables
280
     0
  1
1:1
  0
DICTIONARYVAR
  5
25B
102
{ACAD_REACTORS
330
255
102
}
330
255
100
DictionaryVariables
280
     0
  1
Standard
  0
DICTIONARYVAR
  5
257
102
{ACAD_REACTORS
330
255
102
}
330
255
100
DictionaryVariables
280
     0
  1
0
  0
DICTIONARYVAR
  5
25D
102
{ACAD_REACTORS
330
255
102
}
330
255
100
DictionaryVariables
280
     0
  1
0
  0
DICTIONARY
  5
263
330
23A
100
AcDbDictionary
280
     1
281
     1
  3
ACAD_ROUNDTRIP_2008_TABLESTYLE_CELLSTYLEMAP
360
264
  0
CELLSTYLEMAP
  5
264
102
{ACAD_REACTORS
330
263
102
}
330
263
100
AcDbCellStyleMap
 90
        3
300
CELLSTYLE
  1
TABLEFORMAT_BEGIN
 90
        5
170
     1
 91
        0
 92
        0
 62
   257
 93
        1
300
CONTENTFORMAT
  1
CONTENTFORMAT_BEGIN
 90
        0
 91
        0
 92
        4
 93
        0
300

 40
0.0
140
1.0
 94
        5
 62
     0
340
17
144
6.0
309
CONTENTFORMAT_END
171
     1
301
MARGIN
  1
CELLMARGIN_BEGIN
 40
1.5
 40
1.5
 40
1.5
 40
1.5
 40
1.5
 40
1.5
309
CELLMARGIN_END
 94
        6
 95
        1
302
GRIDFORMAT
  1
GRIDFORMAT_BEGIN
 90
        0
 91
        1
 62
     0
 92
       -2
340
11
 93
        0
 40
0.045
309
GRIDFORMAT_END
 95
        2
302
GRIDFORMAT
  1
GRIDFORMAT_BEGIN
 90
        0
 91
        1
 62
     0
 92
       -2
340
11
 93
        0
 40
0.045
309
GRIDFORMAT_END
 95
        4
302
GRIDFORMAT
  1
GRIDFORMAT_BEGIN
 90
        0
 91
        1
 62
     0
 92
       -2
340
11
 93
        0
 40
0.045
309
GRIDFORMAT_END
 95
        8
302
GRIDFORMAT
  1
GRIDFORMAT_BEGIN
 90
        0
 91
        1
 62
     0
 92
       -2
340
11
 93
        0
 40
0.045
309
GRIDFORMAT_END
 95
       16
302
GRIDFORMAT
  1
GRIDFORMAT_BEGIN
 90
        0
 91
        1
 62
     0
 92
       -2
340
11
 93
        0
 40
0.045
309
GRIDFORMAT_END
 95
       32
302
GRIDFORMAT
  1
GRIDFORMAT_BEGIN
 90
        0
 91
        1
 62
     0
 92
       -2
340
11
 93
        0
 40
0.045
309
GRIDFORMAT_END
309
TABLEFORMAT_END
  1
CELLSTYLE_BEGIN
 90
        1
 91
        1
300
_TITLE
309
CELLSTYLE_END
300
CELLSTYLE
  1
TABLEFORMAT_BEGIN
 90
        5
170
     1
 91
        0
 92
        0
 62
   257
 93
        1
300
CONTENTFORMAT
  1
CONTENTFORMAT_BEGIN
 90
        0
 91
        0
 92
        4
 93
        0
300

 40
0.0
140
1.0
 94
        5
 62
     0
340
17
144
4.5
309
CONTENTFORMAT_END
171
     1
301
MARGIN
  1
CELLMARGIN_BEGIN
 40
1.5
 40
1.5
 40
1.5
 40
1.5
 40
1.5
 40
1.5
309
CELLMARGIN_END
 94
        6
 95
        1
302
GRIDFORMAT
  1
GRIDFORMAT_BEGIN
 90
        0
 91
        1
 62
     0
 92
       -2
340
11
 93
        0
 40
0.045
309
GRIDFORMAT_END
 95
        2
302
GRIDFORMAT
  1
GRIDFORMAT_BEGIN
 90
        0
 91
        1
 62
     0
 92
       -2
340
11
 93
        0
 40
0.045
309
GRIDFORMAT_END
 95
        4
302
GRIDFORMAT
  1
GRIDFORMAT_BEGIN
 90
        0
 91
        1
 62
     0
 92
       -2
340
11
 93
        0
 40
0.045
309
GRIDFORMAT_END
 95
        8
302
GRIDFORMAT
  1
GRIDFORMAT_BEGIN
 90
        0
 91
        1
 62
     0
 92
       -2
340
11
 93
        0
 40
0.045
309
GRIDFORMAT_END
 95
       16
302
GRIDFORMAT
  1
GRIDFORMAT_BEGIN
 90
        0
 91
        1
 62
     0
 92
       -2
340
11
 93
        0
 40
0.045
309
GRIDFORMAT_END
 95
       32
302
GRIDFORMAT
  1
GRIDFORMAT_BEGIN
 90
        0
 91
        1
 62
     0
 92
       -2
340
11
 93
        0
 40
0.045
309
GRIDFORMAT_END
309
TABLEFORMAT_END
  1
CELLSTYLE_BEGIN
 90
        2
 91
        1
300
_HEADER
309
CELLSTYLE_END
300
CELLSTYLE
  1
TABLEFORMAT_BEGIN
 90
        5
170
     1
 91
        0
 92
        0
 62
   257
 93
        1
300
CONTENTFORMAT
  1
CONTENTFORMAT_BEGIN
 90
        0
 91
        0
 92
        4
 93
        0
300

 40
0.0
140
1.0
 94
        2
 62
     0
340
17
144
4.5
309
CONTENTFORMAT_END
171
     1
301
MARGIN
  1
CELLMARGIN_BEGIN
 40
1.5
 40
1.5
 40
1.5
 40
1.5
 40
1.5
 40
1.5
309
CELLMARGIN_END
 94
        6
 95
        1
302
GRIDFORMAT
  1
GRIDFORMAT_BEGIN
 90
        0
 91
        1
 62
     0
 92
       -2
340
11
 93
        0
 40
0.045
309
GRIDFORMAT_END
 95
        2
302
GRIDFORMAT
  1
GRIDFORMAT_BEGIN
 90
        0
 91
        1
 62
     0
 92
       -2
340
11
 93
        0
 40
0.045
309
GRIDFORMAT_END
 95
        4
302
GRIDFORMAT
  1
GRIDFORMAT_BEGIN
 90
        0
 91
        1
 62
     0
 92
       -2
340
11
 93
        0
 40
0.045
309
GRIDFORMAT_END
 95
        8
302
GRIDFORMAT
  1
GRIDFORMAT_BEGIN
 90
        0
 91
        1
 62
     0
 92
       -2
340
11
 93
        0
 40
0.045
309
GRIDFORMAT_END
 95
       16
302
GRIDFORMAT
  1
GRIDFORMAT_BEGIN
 90
        0
 91
        1
 62
     0
 92
       -2
340
11
 93
        0
 40
0.045
309
GRIDFORMAT_END
 95
       32
302
GRIDFORMAT
  1
GRIDFORMAT_BEGIN
 90
        0
 91
        1
 62
     0
 92
       -2
340
11
 93
        0
 40
0.045
309
GRIDFORMAT_END
309
TABLEFORMAT_END
  1
CELLSTYLE_BEGIN
 90
        3
 91
        2
300
_DATA
309
CELLSTYLE_END
  0
ENDSEC
  0
EOF
