  0
SECTION
  2
HEADER
  9
$ACADVER
  1
AC1015
  9
$ACADMAINTVER
 70
               6
  9
$DWGCODEPAGE
  3
ANSI_932
  9
$INSBASE
 10
0.0
 20
0.0
 30
0.0
  9
$EXTMIN
 10
-97.5
 20
-142.05635050454475
 30
-1.4834305555555556
  9
$EXTMAX
 10
97.5
 20
142.05635050454475
 30
1.4834305555555556
  9
$LIMMIN
 10
0.0
 20
0.0
  9
$LIMMAX
 10
0.0
 20
0.0
  9
$ORTHOMODE
 70
               0
  9
$REGENMODE
 70
               1
  9
$FILLMODE
 70
               1
  9
$QTEXTMODE
 70
               0
  9
$MIRRTEXT
 70
               1
  9
$LTSCALE
 40
5.0800000000000001
  9
$ATTMODE
 70
               1
  9
$TEXTSIZE
 40
0.2
  9
$TRACEWID
 40
1.0
  9
$TEXTSTYLE
  7
Standard
  9
$CLAYER
  8
AWK73-9930
  9
$CELTYPE
  6
Continuous
  9
$CECOLOR
 62
             256
  9
$CELTSCALE
 40
1.0
  9
$DISPSILH
 70
               0
  9
$DIMSCALE
 40
1.0
  9
$DIMASZ
 40
3.1749999999999998
  9
$DIMEXO
 40
0.0
  9
$DIMDLI
 40
6.9999999999999396
  9
$DIMRND
 40
0.0
  9
$DIMDLE
 40
0.0
  9
$DIMEXE
 40
1.9999999999996199
  9
$DIMTP
 40
0.0
  9
$DIMTM
 40
0.0
  9
$DIMTXT
 40
2.4432617187500001
  9
$DIMCEN
 40
0.0
  9
$DIMTSZ
 40
0.0
  9
$DIMTOL
 70
               0
  9
$DIMLIM
 70
               0
  9
$DIMTIH
 70
               0
  9
$DIMTOH
 70
               0
  9
$DIMSE1
 70
               0
  9
$DIMSE2
 70
               0
  9
$DIMTAD
 70
               1
  9
$DIMZIN
 70
              11
  9
$DIMBLK
  1
VW_FILLEDARROW
  9
$DIMASO
 70
               1
  9
$DIMSHO
 70
               1
  9
$DIMPOST
  1
<>
  9
$DIMAPOST
  1
[]
  9
$DIMALT
 70
               0
  9
$DIMALTD
 70
               3
  9
$DIMALTF
 40
0.0393700787401575
  9
$DIMLFAC
 40
1.0
  9
$DIMTOFL
 70
               0
  9
$DIMTVP
 40
0.0
  9
$DIMTIX
 70
               1
  9
$DIMSOXD
 70
               0
  9
$DIMSAH
 70
               0
  9
$DIMBLK1
  1

  9
$DIMBLK2
  1

  9
$DIMSTYLE
  2
JIS
  9
$DIMCLRD
 70
               0
  9
$DIMCLRE
 70
               0
  9
$DIMCLRT
 70
               0
  9
$DIMTFAC
 40
1.0
  9
$DIMGAP
 40
1.00000000000108
  9
$DIMJUST
 70
               0
  9
$DIMSD1
 70
               0
  9
$DIMSD2
 70
               0
  9
$DIMTOLJ
 70
               1
  9
$DIMTZIN
 70
              11
  9
$DIMALTZ
 70
              15
  9
$DIMALTTZ
 70
              15
  9
$DIMUPT
 70
               0
  9
$DIMDEC
 70
               1
  9
$DIMTDEC
 70
               1
  9
$DIMALTU
 70
               4
  9
$DIMALTTD
 70
               2
  9
$DIMTXSTY
  7
ＭＳ ゴシック
  9
$DIMAUNIT
 70
               0
  9
$DIMADEC
 70
               2
  9
$DIMALTRND
 40
0.0
  9
$DIMAZIN
 70
               0
  9
$DIMDSEP
 70
              46
  9
$DIMATFIT
 70
               0
  9
$DIMFRAC
 70
               2
  9
$DIMLDRBLK
  1

  9
$DIMLUNIT
 70
               2
  9
$DIMLWD
 70
              -2
  9
$DIMLWE
 70
              -2
  9
$DIMTMOVE
 70
               0
  9
$LUNITS
 70
               2
  9
$LUPREC
 70
               4
  9
$SKETCHINC
 40
0.1
  9
$FILLETRAD
 40
0.0
  9
$AUNITS
 70
               0
  9
$AUPREC
 70
               0
  9
$MENU
  1
acad
  9
$ELEVATION
 40
0.0
  9
$PELEVATION
 40
0.0
  9
$THICKNESS
 40
0.0
  9
$LIMCHECK
 70
               0
  9
$CHAMFERA
 40
0.0
  9
$CHAMFERB
 40
0.0
  9
$CHAMFERC
 40
0.0
  9
$CHAMFERD
 40
0.0
  9
$SKPOLY
 70
               0
  9
$TDCREATE
 40
2455882.432175926
  9
$TDUCREATE
 40
0.000000000
  9
$TDUPDATE
 40
2455882.432175926
  9
$TDUUPDATE
 40
0.000000000
  9
$TDINDWG
 40
0.0000000000
  9
$TDUSRTIMER
 40
0.0000000000
  9
$USRTIMER
 70
               1
  9
$ANGBASE
 50
0.0
  9
$ANGDIR
 70
               0
  9
$PDMODE
 70
               1
  9
$PDSIZE
 40
-2.0
  9
$PLINEWID
 40
0.0
  9
$SPLFRAME
 70
               0
  9
$SPLINETYPE
 70
               6
  9
$SPLINESEGS
 70
               8
  9
$HANDSEED
  5
D5
  9
$SURFTAB1
 70
               6
  9
$SURFTAB2
 70
               6
  9
$SURFTYPE
 70
               6
  9
$SURFU
 70
               6
  9
$SURFV
 70
               6
  9
$UCSBASE
  2

  9
$UCSNAME
  2

  9
$UCSORG
 10
0.0
 20
0.0
 30
0.0
  9
$UCSXDIR
 10
1.0
 20
0.0
 30
0.0
  9
$UCSYDIR
 10
0.0
 20
1.0
 30
0.0
  9
$UCSORTHOREF
  2

  9
$UCSORTHOVIEW
 70
               0
  9
$UCSORGTOP
 10
0.0
 20
0.0
 30
0.0
  9
$UCSORGBOTTOM
 10
0.0
 20
0.0
 30
0.0
  9
$UCSORGLEFT
 10
0.0
 20
0.0
 30
0.0
  9
$UCSORGRIGHT
 10
0.0
 20
0.0
 30
0.0
  9
$UCSORGFRONT
 10
0.0
 20
0.0
 30
0.0
  9
$UCSORGBACK
 10
0.0
 20
0.0
 30
0.0
  9
$PUCSBASE
  2

  9
$PUCSNAME
  2

  9
$PUCSORG
 10
0.0
 20
0.0
 30
0.0
  9
$PUCSXDIR
 10
1.0
 20
0.0
 30
0.0
  9
$PUCSYDIR
 10
0.0
 20
1.0
 30
0.0
  9
$PUCSORTHOREF
  2

  9
$PUCSORTHOVIEW
 70
               0
  9
$PUCSORGTOP
 10
0.0
 20
0.0
 30
0.0
  9
$PUCSORGBOTTOM
 10
0.0
 20
0.0
 30
0.0
  9
$PUCSORGLEFT
 10
0.0
 20
0.0
 30
0.0
  9
$PUCSORGRIGHT
 10
0.0
 20
0.0
 30
0.0
  9
$PUCSORGFRONT
 10
0.0
 20
0.0
 30
0.0
  9
$PUCSORGBACK
 10
0.0
 20
0.0
 30
0.0
  9
$USERI1
 70
               0
  9
$USERI2
 70
               0
  9
$USERI3
 70
               0
  9
$USERI4
 70
               0
  9
$USERI5
 70
               0
  9
$USERR1
 40
0.0
  9
$USERR2
 40
0.0
  9
$USERR3
 40
0.0
  9
$USERR4
 40
0.0
  9
$USERR5
 40
0.0
  9
$WORLDVIEW
 70
               1
  9
$SHADEDGE
 70
               3
  9
$SHADEDIF
 70
              70
  9
$TILEMODE
 70
               1
  9
$MAXACTVP
 70
              64
  9
$PINSBASE
 10
0.0
 20
0.0
 30
0.0
  9
$PLIMCHECK
 70
               0
  9
$PEXTMIN
 10
1.0000000000000000E+20
 20
1.0000000000000000E+20
 30
1.0000000000000000E+20
  9
$PEXTMAX
 10
-1.0000000000000000E+20
 20
-1.0000000000000000E+20
 30
-1.0000000000000000E+20
  9
$PLIMMIN
 10
0.0
 20
0.0
  9
$PLIMMAX
 10
12.0
 20
9.0
  9
$UNITMODE
 70
               0
  9
$VISRETAIN
 70
               0
  9
$PLINEGEN
 70
               1
  9
$PSLTSCALE
 70
               0
  9
$TREEDEPTH
 70
            3020
  9
$CMLSTYLE
  2
Standard
  9
$CMLJUST
 70
               0
  9
$CMLSCALE
 40
1.0
  9
$PROXYGRAPHICS
 70
               0
  9
$MEASUREMENT
 70
               1
  9
$CELWEIGHT
370
               0
  9
$ENDCAPS
280
               0
  9
$JOINSTYLE
280
               0
  9
$LWDISPLAY
290
               1
  9
$INSUNITS
 70
               4
  9
$HYPERLINKBASE
  1

  9
$STYLESHEET
  1

  9
$XEDIT
290
               1
  9
$CEPSNTYPE
380
               0
  9
$PSTYLEMODE
290
               1
  9
$FINGERPRINTGUID
  2

  9
$VERSIONGUID
  2

  9
$EXTNAMES
290
               1
  9
$PSVPSCALE
 40
0.0
  0
ENDSEC
  0
SECTION
  2
CLASSES
  0
CLASS
  1
LWPOLYLINE
  2
AcDbPolyline
  3
AutoCAD 2000
 90
        0
280
               0
281
               1
  0
CLASS
  1
IMAGE
  2
AcDbRasterImage
  3
ISM
 90
      127
280
               0
281
               1
  0
CLASS
  1
OLE2FRAME
  2
AcDbOle2Frame
  3
AutoCAD 2000
 90
        0
280
               0
281
               1
  0
CLASS
  1
HATCH
  2
AcDbHatch
  3
AutoCAD 2000
 90
        0
280
               0
281
               1
  0
CLASS
  1
DICTIONARYVAR
  2
AcDbDictionaryVar
  3
AutoCAD 2000
 90
        0
280
               0
281
               0
  0
CLASS
  1
RASTERVARIABLES
  2
AcDbRasterVariables
  3
ISM
 90
        0
280
               0
281
               0
  0
CLASS
  1
IMAGEDEF
  2
AcDbRasterImageDef
  3
ISM
 90
        0
280
               0
281
               0
  0
CLASS
  1
IMAGEDEF_REACTOR
  2
AcDbRasterImageDefReactor
  3
ISM
 90
        1
280
               0
281
               0
  0
CLASS
  1
IDBUFFER
  2
AcDbIdBuffer
  3
AutoCAD 2000
 90
        0
280
               0
281
               0
  0
CLASS
  1
SPATIAL_FILTER
  2
AcDbSpatialFilter
  3
AutoCAD 2000
 90
        0
280
               0
281
               0
  0
CLASS
  1
XRECORD
  2
AcDbXrecord
  3
AutoCAD 2000
 90
        0
280
               0
281
               0
  0
CLASS
  1
SORTENTSTABLE
  2
AcDbSortentsTable
  3
AutoCAD 2000
 90
        0
280
               0
281
               0
  0
CLASS
  1
LAYER_INDEX
  2
AcDbLayerIndex
  3
AutoCAD 2000
 90
        0
280
               0
281
               0
  0
CLASS
  1
SPATIAL_INDEX
  2
AcDbSpatialIndex
  3
AutoCAD 2000
 90
        0
280
               0
281
               0
  0
CLASS
  1
OBJECT_PTR
  2
CAseDLPNTableRecord
  3
"ASE-LPNTableRecord"
 90
        1
280
               0
281
               0
  0
CLASS
  1
LAYOUT
  2
AcDbLayout
  3
AutoCAD 2000
 90
        0
280
               0
281
               0
  0
CLASS
  1
PLOTSETTINGS
  2
AcDbPlotSettings
  3
AutoCAD 2000
 90
        0
280
               0
281
               0
  0
CLASS
  1
ACDBDICTIONARYWDFLT
  2
AcDbDictionaryWithDefault
  3
AutoCAD 2000
 90
        0
280
               0
281
               0
  0
CLASS
  1
ACDBPLACEHOLDER
  2
AcDbPlaceHolder
  3
AutoCAD 2000
 90
        0
280
               0
281
               0
  0
ENDSEC
  0
SECTION
  2
TABLES
  0
TABLE
  2
VPORT
  5
7
100
AcDbSymbolTable
 70
               1
  0
VPORT
  5
15
100
AcDbSymbolTableRecord
100
AcDbViewportTableRecord
  2
*ACTIVE
 70
               0
 10
0.0
 20
0.0
 11
1.0
 21
1.0
 12
0.0
 22
0.0
 13
0.0
 23
0.0
 14
1.0
 24
1.0
 15
0.0
 25
0.0
 16
0.0
 26
0.0
 36
1.0
 17
0.0
 27
0.0
 37
0.0
 40
284.11270100908951
 41
0.688564
 42
50.0
 43
0.0
 44
0.0
 50
0.0
 51
0.0
 71
               0
 72
            2000
 73
               1
 74
               1
 75
               0
 76
               0
 77
               0
 78
               0
281
               0
 65
               0
110
0.0
120
0.0
130
0.0
111
1.0
121
0.0
131
0.0
112
0.0
122
1.0
132
0.0
345
0
346
0
 79
               0
146
0.0
  0
ENDTAB
  0
TABLE
  2
LTYPE
  5
4
100
AcDbSymbolTable
 70
              13
  0
LTYPE
  5
11
100
AcDbSymbolTableRecord
100
AcDbLinetypeTableRecord
  2
ByBlock
 70
              64
  3

 72
              65
 73
               0
 40
0.0
  0
LTYPE
  5
12
100
AcDbSymbolTableRecord
100
AcDbLinetypeTableRecord
  2
ByLayer
 70
              64
  3

 72
              65
 73
               0
 40
0.0
  0
LTYPE
  5
13
100
AcDbSymbolTableRecord
100
AcDbLinetypeTableRecord
  2
Continuous
 70
              64
  3
Solid line
 72
              65
 73
               0
 40
0.0
  0
LTYPE
  5
2B
100
AcDbSymbolTableRecord
100
AcDbLinetypeTableRecord
  2
STYLE_01
 70
               0
  3

 72
              65
 73
               4
 40
1.1429981497360591
 49
0.7620005327761776
 74
               0
 49
-0.1269992056532938
 74
               0
 49
0.1269992056532938
 74
               0
 49
-0.1269992056532938
 74
               0
  0
LTYPE
  5
2C
100
AcDbSymbolTableRecord
100
AcDbLinetypeTableRecord
  2
STYLE_02
 70
               0
  3

 72
              65
 73
               4
 40
0.7047336719585045
 49
0.4698226834770658
 74
               0
 49
-0.0586775635857579
 74
               0
 49
0.1175558613099228
 74
               0
 49
-0.058677563585758
 74
               0
  0
LTYPE
  5
2D
100
AcDbSymbolTableRecord
100
AcDbLinetypeTableRecord
  2
STYLE_03
 70
               0
  3

 72
              65
 73
               2
 40
1.25
 49
1.0416400000000001
 74
               0
 49
-0.2083599999999999
 74
               0
  0
LTYPE
  5
2E
100
AcDbSymbolTableRecord
100
AcDbLinetypeTableRecord
  2
STYLE_04
 70
               0
  3

 72
              65
 73
               2
 40
1.5277099999999999
 49
1.3194249999999998
 74
               0
 49
-0.208285
 74
               0
  0
LTYPE
  5
2F
100
AcDbSymbolTableRecord
100
AcDbLinetypeTableRecord
  2
STYLE_05
 70
               0
  3

 72
              65
 73
               2
 40
0.20828
 49
0.069425
 74
               0
 49
-0.138855
 74
               0
  0
LTYPE
  5
30
100
AcDbSymbolTableRecord
100
AcDbLinetypeTableRecord
  2
STYLE_06
 70
               0
  3

 72
              65
 73
               4
 40
1.0416400000000001
 49
0.625
 74
               0
 49
-0.20828
 74
               0
 49
0.06943
 74
               0
 49
-0.13893
 74
               0
  0
LTYPE
  5
31
100
AcDbSymbolTableRecord
100
AcDbLinetypeTableRecord
  2
STYLE_07
 70
               0
  3

 72
              65
 73
               6
 40
1.875
 49
0.625
 74
               0
 49
-0.20828
 74
               0
 49
0.6250000000000001
 74
               0
 49
-0.2083599999999999
 74
               0
 49
0.06943
 74
               0
 49
-0.1389299999999999
 74
               0
  0
LTYPE
  5
32
100
AcDbSymbolTableRecord
100
AcDbLinetypeTableRecord
  2
STYLE_08
 70
               0
  3

 72
              65
 73
               6
 40
1.25
 49
0.625
 74
               0
 49
-0.20828
 74
               0
 49
0.06943
 74
               0
 49
-0.13893
 74
               0
 49
0.0694299999999999
 74
               0
 49
-0.13893
 74
               0
  0
LTYPE
  5
33
100
AcDbSymbolTableRecord
100
AcDbLinetypeTableRecord
  2
STYLE_09
 70
               0
  3

 72
              65
 73
               4
 40
5.0
 49
3.75
 74
               0
 49
-0.2777849999999998
 74
               0
 49
0.6944300000000003
 74
               0
 49
-0.2777849999999998
 74
               0
  0
LTYPE
  5
34
100
AcDbSymbolTableRecord
100
AcDbLinetypeTableRecord
  2
STYLE_10
 70
               0
  3

 72
              65
 73
               6
 40
5.9375
 49
3.75
 74
               0
 49
-0.2777849999999998
 74
               0
 49
0.6944300000000003
 74
               0
 49
-0.2777849999999998
 74
               0
 49
0.625
 74
               0
 49
-0.3125
 74
               0
  0
ENDTAB
  0
TABLE
  2
LAYER
  5
2
100
AcDbSymbolTable
 70
               5
  0
LAYER
  5
14
100
AcDbSymbolTableRecord
100
AcDbLayerTableRecord
  2
0
 70
               0
 62
               7
  6
Continuous
290
               1
370
              -3
390
1D
  0
LAYER
  5
35
100
AcDbSymbolTableRecord
100
AcDbLayerTableRecord
  2
Defpoints
 70
               0
 62
               7
  6
Continuous
290
               0
370
              -3
390
1D
  0
LAYER
  5
36
100
AcDbSymbolTableRecord
100
AcDbLayerTableRecord
  2
template
 70
               0
 62
               7
  6
Continuous
290
               1
370
              -3
390
1D
  0
LAYER
  5
37
100
AcDbSymbolTableRecord
100
AcDbLayerTableRecord
  2
notes
 70
               0
 62
               7
  6
Continuous
290
               1
370
              -3
390
1D
  0
LAYER
  5
38
100
AcDbSymbolTableRecord
100
AcDbLayerTableRecord
  2
AWK73-9930
 70
               0
 62
               7
  6
Continuous
290
               1
370
              -3
390
1D
  0
ENDTAB
  0
TABLE
  2
STYLE
  5
3
100
AcDbSymbolTable
 70
               2
  0
STYLE
  5
17
100
AcDbSymbolTableRecord
100
AcDbTextStyleTableRecord
  2
Standard
 70
               0
 40
0.0
 41
1.0
 50
0.0
 71
               0
 42
0.0
  3
txt
  4
BIGFONT.SHX
  0
STYLE
  5
2A
100
AcDbSymbolTableRecord
100
AcDbTextStyleTableRecord
  2
ＭＳ ゴシック
 70
               0
 40
0.0
 41
1.0
 50
0.0
 71
               0
 42
0.0
  3

  4
ＭＳ ゴシック
1001
ACAD
1000
ＭＳ ゴシック
1071
        0
  0
ENDTAB
  0
TABLE
  2
VIEW
  5
5
100
AcDbSymbolTable
 70
               0
  0
ENDTAB
  0
TABLE
  2
UCS
  5
6
100
AcDbSymbolTable
 70
               0
  0
ENDTAB
  0
TABLE
  2
APPID
  5
8
100
AcDbSymbolTable
 70
               1
  0
APPID
  5
16
100
AcDbSymbolTableRecord
100
AcDbRegAppTableRecord
  2
ACAD
 70
               0
  0
ENDTAB
  0
TABLE
  2
DIMSTYLE
  5
9
100
AcDbSymbolTable
 70
               3
100
AcDbDimStyleTable
 71
               0
  0
DIMSTYLE
105
18
100
AcDbSymbolTableRecord
100
AcDbDimStyleTableRecord
  2
Standard
 70
               0
  3

  4

 40
1.0
 41
0.18
 42
0.0625
 43
0.38
 44
0.18
 45
0.0
 46
0.0
 47
0.0
 48
0.0
 71
               0
 72
               0
 73
               1
 74
               1
 75
               0
 76
               0
 77
               0
 78
               0
 79
               0
140
0.18
141
0.09
142
0.0
143
25.399999999999999
144
1.0
145
0.0
146
1.0
147
0.09
148
0.0
170
               0
171
               2
172
               0
173
               0
174
               0
175
               0
176
               0
177
               0
178
               0
179
               0
271
               4
272
               4
273
               2
274
               2
275
               0
276
               0
277
               2
278
              46
279
               0
280
               0
281
               0
282
               0
283
               1
284
               0
285
               0
286
               0
288
               0
289
               3
340
17
341
0
342
0
343
0
344
0
371
              -2
372
              -2
  0
DIMSTYLE
105
41
100
AcDbSymbolTableRecord
100
AcDbDimStyleTableRecord
  2
tfrom線あり
 70
               0
  3
<>
  4
[]
 40
1.0
 41
0.3999755859375
 42
2.4999999999999996
 43
0.9999999999999999
 44
0.0
 45
0.0
 46
0.0
 47
0.0
 48
0.0
 71
               0
 72
               0
 73
               0
 74
               0
 75
               0
 76
               0
 77
               1
 78
              11
 79
               0
140
2.4432617187500001
141
0.0
142
0.0
143
0.0393700787401575
144
1.0
145
0.0
146
1.0
147
0.4999999999999999
148
0.0
170
               0
171
               3
172
               0
173
               0
174
               1
175
               0
176
               0
177
               0
178
               0
179
               2
271
               1
272
               1
273
               4
274
               2
275
               0
276
               2
277
               2
278
              46
279
               0
280
               0
281
               0
282
               0
283
               1
284
              11
285
              15
286
              15
288
               0
289
               0
340
2A
341
39
342
39
343
0
344
0
371
              -2
372
              -2
  0
DIMSTYLE
105
46
100
AcDbSymbolTableRecord
100
AcDbDimStyleTableRecord
  2
JIS
 70
               0
  3
<>
  4
[]
 40
1.0
 41
3.1749999999999998
 42
0.0
 43
6.9999999999999396
 44
1.9999999999996199
 45
0.0
 46
0.0
 47
0.0
 48
0.0
 71
               0
 72
               0
 73
               0
 74
               0
 75
               0
 76
               0
 77
               1
 78
              11
 79
               0
140
2.4432617187500001
141
0.0
142
0.0
143
0.0393700787401575
144
1.0
145
0.0
146
1.0
147
1.00000000000108
148
0.0
170
               0
171
               3
172
               0
173
               0
174
               1
175
               0
176
               0
177
               0
178
               0
179
               2
271
               1
272
               1
273
               4
274
               2
275
               0
276
               2
277
               2
278
              46
279
               0
280
               0
281
               0
282
               0
283
               1
284
              11
285
              15
286
              15
288
               0
289
               0
340
2A
341
42
342
42
343
0
344
0
371
              -2
372
              -2
  0
ENDTAB
  0
TABLE
  2
BLOCK_RECORD
  5
1
100
AcDbSymbolTable
 70
               9
  0
BLOCK_RECORD
  5
A
100
AcDbSymbolTableRecord
100
AcDbBlockTableRecord
  2
*MODEL_SPACE
340
20
  0
BLOCK_RECORD
  5
B
100
AcDbSymbolTableRecord
100
AcDbBlockTableRecord
  2
*PAPER_SPACE
340
21
  0
BLOCK_RECORD
  5
39
100
AcDbSymbolTableRecord
100
AcDbBlockTableRecord
  2
_DOT
340
0
  0
BLOCK_RECORD
  5
42
100
AcDbSymbolTableRecord
100
AcDbBlockTableRecord
  2
VW_FILLEDARROW
340
0
  0
BLOCK_RECORD
  5
23
100
AcDbSymbolTableRecord
100
AcDbBlockTableRecord
  2
グループ
340
0
102
{BLKREFS
331
AD
102
}
  0
BLOCK_RECORD
  5
24
100
AcDbSymbolTableRecord
100
AcDbBlockTableRecord
  2
*D3
340
0
  0
BLOCK_RECORD
  5
25
100
AcDbSymbolTableRecord
100
AcDbBlockTableRecord
  2
*D4
340
0
  0
BLOCK_RECORD
  5
26
100
AcDbSymbolTableRecord
100
AcDbBlockTableRecord
  2
*D5
340
0
  0
BLOCK_RECORD
  5
27
100
AcDbSymbolTableRecord
100
AcDbBlockTableRecord
  2
*D6
340
0
  0
BLOCK_RECORD
  5
28
100
AcDbSymbolTableRecord
100
AcDbBlockTableRecord
  2
*D7
340
0
  0
BLOCK_RECORD
  5
29
100
AcDbSymbolTableRecord
100
AcDbBlockTableRecord
  2
*D8
340
0
  0
ENDTAB
  0
ENDSEC
  0
SECTION
  2
BLOCKS
  0
BLOCK
  5
D
100
AcDbEntity
  8
0
390
0
100
AcDbBlockBegin
  2
*MODEL_SPACE
 70
               0
 10
0.0
 20
0.0
 30
0.0
  3
*MODEL_SPACE
  1

  0
ENDBLK
  5
E
100
AcDbEntity
  8
0
390
0
100
AcDbBlockEnd
  0
BLOCK
  5
F
100
AcDbEntity
 67
               1
  8
0
390
0
100
AcDbBlockBegin
  2
*PAPER_SPACE
 70
               0
 10
0.0
 20
0.0
 30
0.0
  3
*PAPER_SPACE
  1

  0
ENDBLK
  5
10
100
AcDbEntity
 67
               1
  8
0
390
0
100
AcDbBlockEnd
  0
BLOCK
  5
3A
100
AcDbEntity
  8
0
390
0
100
AcDbBlockBegin
  2
_DOT
 70
               0
 10
0.0
 20
0.0
 30
0.0
  3
_DOT
  1

  0
POLYLINE
  5
3B
100
AcDbEntity
  8
0
370
              -2
390
0
  6
ByBlock
 62
               0
100
AcDb2dPolyline
 66
               1
 10
0.0
 20
0.0
 30
0.0
 70
               1
 40
0.5
 41
0.5
  0
VERTEX
  5
3C
100
AcDbEntity
  8
0
370
              -2
390
0
  6
ByBlock
 62
               0
100
AcDbVertex
100
AcDb2dVertex
 10
-0.25
 20
0.0
 30
0.0
 42
1.0
  0
VERTEX
  5
3D
100
AcDbEntity
  8
0
370
              -2
390
0
  6
ByBlock
 62
               0
100
AcDbVertex
100
AcDb2dVertex
 10
0.25
 20
0.0
 30
0.0
 42
1.0
  0
SEQEND
  5
3E
100
AcDbEntity
  8
0
390
0
  0
LINE
  5
3F
100
AcDbEntity
  8
0
370
              -2
390
0
  6
ByBlock
 62
               0
100
AcDbLine
 10
-0.5
 20
0.0
 30
0.0
 11
-1.0
 21
0.0
 31
0.0
  0
ENDBLK
  5
40
100
AcDbEntity
  8
0
390
0
100
AcDbBlockEnd
  0
BLOCK
  5
43
100
AcDbEntity
  8
0
370
              -2
390
0
  6
ByBlock
 62
               0
100
AcDbBlockBegin
  2
VW_FILLEDARROW
 70
               0
 10
0.0
 20
0.0
 30
0.0
  3
VW_FILLEDARROW
  1

  0
SOLID
  5
44
100
AcDbEntity
  8
0
370
              -2
390
0
 62
               0
100
AcDbTrace
 10
0.0
 20
0.0
 30
0.0
 11
-0.9999389648437499
 21
-0.2679328381102956
 31
0.0
 12
-0.9999389648437499
 22
0.2679328381102958
 32
0.0
 13
-0.9999389648437499
 23
0.2679328381102958
 33
0.0
  0
ENDBLK
  5
45
100
AcDbEntity
  8
0
390
0
100
AcDbBlockEnd
  0
BLOCK
  5
47
100
AcDbEntity
  8
template
390
0
100
AcDbBlockBegin
  2
グループ
 70
               0
 10
0.0
 20
0.0
 30
0.0
  3
グループ
  1

  0
LWPOLYLINE
  5
48
100
AcDbEntity
  8
0
370
              15
390
0
  6
Continuous
 62
               7
100
AcDbPolyline
 90
        8
 70
             129
 10
-5198.7844246454824
 20
-3884.2935474229103
 10
-5198.7844246454824
 20
-3884.8933026060668
 10
-5199.7345443372824
 20
-3884.8933026060668
 10
-5199.7345443372824
 20
-3887.3384654427146
 10
-5200.5700820634611
 20
-3887.3384654427146
 10
-5200.5700820634611
 20
-3884.8933026060668
 10
-5201.5033777580911
 20
-3884.8933026060668
 10
-5201.5033777580911
 20
-3884.2935474229103
  0
LWPOLYLINE
  5
49
100
AcDbEntity
  8
0
370
              15
390
0
  6
Continuous
 62
               7
100
AcDbPolyline
 90
      101
 70
             128
 10
-5197.5115954624271
 20
-3884.3663742531489
 10
-5197.5100604440167
 20
-3884.365938161206
 42
-0.0222227006144357
 10
-5197.4810600018818
 20
-3884.3590755324258
 10
-5197.4794806189739
 20
-3884.3587751807086
 42
-0.0146887359948803
 10
-5197.45321035496
 20
-3884.3545747489961
 42
-0.0127462235646228
 10
-5197.4267464544491
 20
-3884.3518209769868
 10
-5197.420500950413
 20
-3884.3513316217145
 42
-0.0198104386925914
 10
-5197.381416036229
 20
-3884.3498230649443
 10
-5197.3762348925211
 20
-3884.3498284426537
 42
-0.0147621388836953
 10
-5197.3267725488322
 20
-3884.3513404861624
 10
-5197.3195034073187
 20
-3884.3517777585062
 42
-0.0162628894649412
 10
-5197.2804880379899
 20
-3884.355401144976
 10
-5197.2683348006422
 20
-3884.3569298422335
 42
-0.008002296508016
 10
-5197.2537768957545
 20
-3884.3589981834448
 10
-5197.2499449494189
 20
-3884.359605327626
 42
-0.0053823311732528
 10
-5197.2430965381636
 20
-3884.3607661116966
 10
-5197.3157371080833
 20
-3884.5788648897219
 42
0.010867049472852
 10
-5197.3224688166129
 20
-3884.5775461420662
 10
-5197.3262156174151
 20
-3884.5768963503947
 42
0.0170667667918085
 10
-5197.3405372997331
 20
-3884.5749133363493
 10
-5197.3473248293758
 20
-3884.574208600498
 42
0.0220168316260469
 10
-5197.3753627741544
 20
-3884.5725403189808
 10
-5197.3831483226331
 20
-3884.5724203791187
 42
0.0282614564947086
 10
-5197.4167119592239
 20
-3884.5738007442969
 10
-5197.4211032806761
 20
-3884.5742307544137
 42
0.0169681667977212
 10
-5197.4456957360972
 20
-3884.5774845484548
 42
0.019058102625809
 10
-5197.4699865224684
 20
-3884.5824993696347
 10
-5197.4706124511667
 20
-3884.5826536736804
 42
0.021369053526356
 10
-5197.4956508841478
 20
-3884.5899738960579
 10
-5197.4961998891058
 20
-3884.5901602059803
 42
0.0237600023932706
 10
-5197.5215493557334
 20
-3884.600128919506
 10
-5197.5220595849987
 20
-3884.6003581131085
 42
0.0261861611623314
 10
-5197.5472766342664
 20
-3884.6133120827076
 10
-5197.5483192482734
 20
-3884.6139186438022
 42
0.0272555999251373
 10
-5197.5719622590541
 20
-3884.6294563063807
 10
-5197.5754385327928
 20
-3884.6320224706087
 42
0.0325998378237973
 10
-5197.5904540947704
 20
-3884.6446976230623
 10
-5197.5928250305778
 20
-3884.6469794811442
 42
0.0138050896952394
 10
-5197.6020133533029
 20
-3884.6563247083341
 42
0.0125279688348043
 10
-5197.6106976008869
 20
-3884.6661413012348
 10
-5197.6130656510777
 20
-3884.6689572344271
 42
0.0205216620599577
 10
-5197.625575645844
 20
-3884.685136987935
 10
-5197.6278222926776
 20
-3884.6883030650542
 42
0.016310839555909
 10
-5197.6433933185253
 20
-3884.7118367290796
 10
-5197.6436657202084
 20
-3884.7122791369275
 42
0.0131895560489315
 10
-5197.6583457635697
 20
-3884.73759301871
 10
-5197.6585157818354
 20
-3884.7379048671169
 42
0.0107893881850845
 10
-5197.6722934457421
 20
-3884.7645270993521
 10
-5197.6723667410088
 20
-3884.7646765395548
 42
0.0091369915035696
 10
-5197.6852147311647
 20
-3884.7921297955186
 10
-5197.688189299015
 20
-3884.7988006382484
 42
0.0135415720958596
 10
-5197.7053606845757
 20
-3884.8402955236465
 10
-5197.7087211679554
 20
-3884.8490823835136
 42
0.0092832600676232
 10
-5197.7258440797577
 20
-3884.8964735376112
 10
-5197.7284057905763
 20
-3884.9039978435198
 42
0.0054259854891144
 10
-5197.7391696073582
 20
-3884.9367751381315
 10
-5197.7409222060423
 20
-3884.9423141052298
 42
0.0008224907568876
 10
-5197.7477892111592
 20
-3884.9641415745573
 10
-5197.8462581243521
 20
-3885.266638932042
 10
-5197.5229957403453
 20
-3885.266638932042
 10
-5197.5734149833306
 20
-3885.457091942345
 10
-5197.8990206115286
 20
-3885.457091942345
 10
-5198.4819355147638
 20
-3887.3384654237411
 10
-5198.6644452757946
 20
-3887.3384654237411
 10
-5198.0809774722447
 20
-3885.457091942345
 10
-5198.3214891091484
 20
-3885.457091942345
 10
-5198.2710698661631
 20
-3885.266638932042
 10
-5198.0282149850682
 20
-3885.266638932042
 10
-5197.94219949325
 20
-3885.0029904605326
 42
-0.0005863429618781
 10
-5197.938526025333
 20
-3884.9913075004151
 10
-5197.9309172420635
 20
-3884.9672076152442
 42
-0.0087520479116519
 10
-5197.9109704216944
 20
-3884.9076783703044
 10
-5197.9017439933814
 20
-3884.8816636436577
 42
-0.0077399361035456
 10
-5197.8759506342631
 20
-3884.8123613099856
 10
-5197.8743741296703
 20
-3884.808318092601
 42
-0.0082368348169136
 10
-5197.8496656900443
 20
-3884.7479085618634
 42
-0.0085723688675362
 10
-5197.8229410707818
 20
-3884.6883643177093
 10
-5197.8127781004869
 20
-3884.6667215971052
 42
-0.0168106734659352
 10
-5197.7840836774703
 20
-3884.6105993602105
 10
-5197.7714993384243
 20
-3884.5879023395346
 42
-0.000781761447977
 10
-5197.7660709034189
 20
-3884.5781476496963
 10
-5197.7660580718821
 20
-3884.5781246765241
 42
-0.0036625632163458
 10
-5197.7605692864145
 20
-3884.5684646274403
 42
-0.0080220122715138
 10
-5197.7548568586117
 20
-3884.5589364411521
 10
-5197.7517868657378
 20
-3884.5539972155284
 42
-0.0202137299607026
 10
-5197.7390212779565
 20
-3884.5351985254674
 10
-5197.7336145452391
 20
-3884.5278904589122
 42
-0.0249322465056425
 10
-5197.7076982293684
 20
-3884.4962850347661
 10
-5197.7052842844532
 20
-3884.4936235753203
 42
-0.0242132117522033
 10
-5197.6713161634643
 20
-3884.4596342596324
 10
-5197.666525016627
 20
-3884.4552832371414
 42
-0.0251018860212459
 10
-5197.6381268829609
 20
-3884.4319833618438
 10
-5197.6379823157049
 20
-3884.4318764186969
 42
-0.0130869286824906
 10
-5197.6081562702839
 20
-3884.4109978184088
 10
-5197.6080000472175
 20
-3884.4108944443392
 42
-0.0290333428755698
 10
-5197.5768889742303
 20
-3884.392811429535
 10
-5197.5739044005595
 20
-3884.3913011413288
 42
-0.016025299006755
 10
-5197.5473139766546
 20
-3884.3788992018062
 42
-0.0267605926251269
 10
-5197.519786342581
 20
-3884.3688240876331
 10
-5197.5171127769554
 20
-3884.3680048175329
 42
-0.0049982735357087
 10
-5197.5115954624271
 20
-3884.3663742531489
 42
-0.0049982735357087
  0
LWPOLYLINE
  5
4A
100
AcDbEntity
  8
0
370
              15
390
0
  6
Continuous
 62
               7
100
AcDbPolyline
 90
      118
 70
             128
 10
-5195.530158705983
 20
-3885.2740374660707
 10
-5195.3426465135326
 20
-3885.2740374660707
 10
-5195.426450404093
 20
-3885.5422014129749
 42
-0.0010587182928179
 10
-5195.4233048223587
 20
-3885.5385108590472
 10
-5195.4174854134726
 20
-3885.5317124487142
 42
-0.0071874494785265
 10
-5195.4024478857491
 20
-3885.514647908823
 10
-5195.3882756143366
 20
-3885.4990238762257
 42
-0.0148117900151231
 10
-5195.3432626477306
 20
-3885.4522611830903
 10
-5195.3345404361289
 20
-3885.4437212401426
 42
-0.0086273489277929
 10
-5195.3009855714745
 20
-3885.4119828285548
 10
-5195.2966021857528
 20
-3885.407977742298
 42
-0.0103138690518928
 10
-5195.2707998296282
 20
-3885.3853608262489
 10
-5195.2662223834914
 20
-3885.3815125122183
 42
-0.0060207068729944
 10
-5195.2489375825844
 20
-3885.3673326660673
 10
-5195.2487344634892
 20
-3885.3671700862742
 42
-0.0067069474982155
 10
-5195.2315051880296
 20
-3885.3537546627927
 10
-5195.2312503047497
 20
-3885.3535616354902
 42
-0.0076184973867066
 10
-5195.2141597848495
 20
-3885.3410238119918
 42
-0.0089653746486601
 10
-5195.19666368053
 20
-3885.3290601552449
 10
-5195.1930285019416
 20
-3885.3266689645302
 42
-0.0156918177660677
 10
-5195.1734325668458
 20
-3885.3146423983681
 42
-0.0023299337988272
 10
-5195.153406360324
 20
-3885.3033242953657
 10
-5195.1518679492101
 20
-3885.3024642736532
 42
-0.0107670981405894
 10
-5195.1284442552051
 20
-3885.2900239161404
 10
-5195.126217786592
 20
-3885.288902216425
 42
-0.0078059361974744
 10
-5195.0978587652799
 20
-3885.2751656927894
 10
-5195.0968680660262
 20
-3885.2747047718931
 42
-0.0181832780309045
 10
-5195.065837103265
 20
-3885.2616180333512
 10
-5195.0604315579621
 20
-3885.2595664651558
 42
-0.0208416072294143
 10
-5195.0255230845632
 20
-3885.2479571119829
 10
-5195.0240874567426
 20
-3885.2475452511762
 42
-0.0222805216071329
 10
-5194.991215495158
 20
-3885.2396808857538
 10
-5194.9903265881521
 20
-3885.239509677981
 42
-0.0215515128524366
 10
-5194.9586795020068
 20
-3885.2348179835672
 10
-5194.9544313027873
 20
-3885.2343742184921
 42
-0.0182550841906761
 10
-5194.9310204279718
 20
-3885.2327897931809
 10
-5194.9270803261088
 20
-3885.232667335335
 42
-0.0072964839865217
 10
-5194.9114880383677
 20
-3885.2324103955007
 10
-5194.9085780713631
 20
-3885.2324049118115
 42
-0.0059229127161421
 10
-5194.8988031213958
 20
-3885.2325022856389
 10
-5194.8958788997288
 20
-3885.2325660640322
 42
-0.0011833433773949
 10
-5194.8919537712754
 20
-3885.2326609670463
 10
-5194.9714924308364
 20
-3885.4865412672943
 42
0.014393495003913
 10
-5194.9741325704863
 20
-3885.4855213420465
 10
-5194.9748597663129
 20
-3885.4852642136675
 42
0.0234393909571452
 10
-5194.9790428558963
 20
-3885.4840022550184
 10
-5194.979911019198
 20
-3885.4837841536364
 42
0.0199167701611941
 10
-5194.9859399052375
 20
-3885.4825224453416
 10
-5194.9880212963863
 20
-3885.482172716328
 42
0.0293651340046013
 10
-5194.998328785804
 20
-3885.4810576812588
 10
-5195.0007973003339
 20
-3885.4809365164351
 42
0.0214612518877964
 10
-5195.0161113921495
 20
-3885.4808426578484
 10
-5195.0170485830113
 20
-3885.4808771499329
 42
0.0167568564884179
 10
-5195.0342005999446
 20
-3885.4820848867944
 10
-5195.0350465813972
 20
-3885.4821730234612
 42
0.0137681168566187
 10
-5195.0537819090978
 20
-3885.4846480210563
 10
-5195.0545170866753
 20
-3885.4847658168383
 42
0.0118500271411687
 10
-5195.0745668584859
 20
-3885.4884676515876
 10
-5195.07518186381
 20
-3885.4885963423226
 42
0.0106423743378441
 10
-5195.0962699472284
 20
-3885.4934797113619
 10
-5195.0967608333776
 20
-3885.4936044503729
 42
0.0099748709998948
 10
-5195.1186066742603
 20
-3885.499622065096
 10
-5195.1247614843105
 20
-3885.5014503044808
 42
0.0191617809136371
 10
-5195.1583599095457
 20
-3885.5128483445055
 10
-5195.1671658760733
 20
-3885.51621712306
 42
0.0205277915570082
 10
-5195.2056965850261
 20
-3885.5328004270718
 10
-5195.2114614918682
 20
-3885.5355672885403
 42
0.018125970795491
 10
-5195.2372892072917
 20
-3885.5491360497685
 10
-5195.2425847355917
 20
-3885.5521678878154
 42
0.0140710991191548
 10
-5195.2570802390865
 20
-3885.5610176016207
 10
-5195.2597051220118
 20
-3885.5627233273317
 42
0.008666876688045
 10
-5195.2685977421024
 20
-3885.5687237598941
 42
0.0036408516741612
 10
-5195.2773410642694
 20
-3885.5749420136326
 10
-5195.2808637533526
 20
-3885.5774861786085
 42
0.0052261199881578
 10
-5195.2964866188877
 20
-3885.5890197278213
 10
-5195.2981073087176
 20
-3885.5902425753175
 42
0.0050024783004414
 10
-5195.3167076381587
 20
-3885.6045712180689
 10
-5195.3182394586747
 20
-3885.6057758569059
 42
0.0136139385879511
 10
-5195.3392835705299
 20
-3885.6232729701737
 10
-5195.3426503730861
 20
-3885.6262309610629
 42
0.0172815468716219
 10
-5195.3690907032724
 20
-3885.6511312814332
 10
-5195.3693469618374
 20
-3885.6513898943822
 42
0.0189403421380321
 10
-5195.3944051170556
 20
-3885.6786711339805
 10
-5195.3976682713956
 20
-3885.6825056372904
 42
0.0185043030284044
 10
-5195.4168639349464
 20
-3885.7068311801695
 42
0.0088564431480717
 10
-5195.4347099377219
 20
-3885.7321835001494
 10
-5195.4356277435745
 20
-3885.7335376865981
 42
0.0157193517650935
 10
-5195.4539497907635
 20
-3885.762490672274
 10
-5195.4585580908069
 20
-3885.7703061144834
 42
0.0095450537512548
 10
-5195.4750666534146
 20
-3885.7995663874985
 10
-5195.4761814392104
 20
-3885.8016334996332
 42
0.0100350116594972
 10
-5195.4893858202231
 20
-3885.8273397662178
 42
0.008693439789331
 10
-5195.5016189311209
 20
-3885.8535237833862
 10
-5195.5019510095444
 20
-3885.8542680455257
 42
0.0072578814269862
 10
-5195.5139856514261
 20
-3885.8823279998915
 10
-5195.5143118180695
 20
-3885.8831200320819
 42
0.0060003936657614
 10
-5195.5262318823043
 20
-3885.9130818073581
 10
-5195.5265529827375
 20
-3885.9139179896606
 42
0.0049016779171472
 10
-5195.5384429966125
 20
-3885.9458117496947
 10
-5195.5387595792627
 20
-3885.9466870727883
 42
0.0039414332836289
 10
-5195.5507032054884
 20
-3885.9805421953215
 10
-5195.5510163173331
 20
-3885.9814525447646
 42
0.0031035166956531
 10
-5195.5630967947145
 20
-3886.0172975023538
 10
-5195.5634078003559
 20
-3886.0182395937154
 42
0.0025070195177936
 10
-5195.5756979345197
 20
-3886.0561053423521
 10
-5195.5794273251304
 20
-3886.0677948298753
 42
0.0029081260006144
 10
-5195.5986291531899
 20
-3886.129212860701
 10
-5195.6027094717629
 20
-3886.1425355529368
 42
0.000926624438523
 10
-5195.6295512084716
 20
-3886.23076039632
 10
-5195.6316399568723
 20
-3886.2376717760012
 42
-0.0005809862336083
 10
-5195.6593736245177
 20
-3886.3290550709899
 10
-5195.666001804906
 20
-3886.350804157637
 42
-0.001201843768606
 10
-5195.6807002352871
 20
-3886.398621722924
 10
-5195.6859322202708
 20
-3886.4154980955041
 42
-0.0002690999170069
 10
-5195.6902891685604
 20
-3886.4295252396441
 10
-5195.9735847583897
 20
-3887.3384654237411
 10
-5196.1553836475878
 20
-3887.3384654237411
 10
-5195.530158705983
 20
-3885.2740374660707
  0
SPLINE
  5
4B
100
AcDbEntity
  8
0
370
              15
390
0
  6
Continuous
 62
               7
100
AcDbSpline
210
0.0
220
0.0
230
1.0
 70
              13
 71
               2
 72
             782
 73
             779
 74
               0
 42
0.000001
 43
0.000001
 40
0.0
 40
0.0
 40
0.0
 40
1.0
 40
1.0
 40
2.0
 40
2.0
 40
3.0
 40
3.0
 40
4.0
 40
4.0
 40
5.0
 40
5.0
 40
6.0
 40
6.0
 40
7.0
 40
7.0
 40
8.0
 40
8.0
 40
9.0
 40
9.0
 40
10.0
 40
10.0
 40
11.0
 40
11.0
 40
12.0
 40
12.0
 40
13.0
 40
13.0
 40
14.0
 40
14.0
 40
15.0
 40
15.0
 40
16.0
 40
16.0
 40
17.0
 40
17.0
 40
18.0
 40
18.0
 40
19.0
 40
19.0
 40
20.0
 40
20.0
 40
21.0
 40
21.0
 40
22.0
 40
22.0
 40
23.0
 40
23.0
 40
24.0
 40
24.0
 40
25.0
 40
25.0
 40
26.0
 40
26.0
 40
27.0
 40
27.0
 40
28.0
 40
28.0
 40
29.0
 40
29.0
 40
30.0
 40
30.0
 40
31.0
 40
31.0
 40
32.0
 40
32.0
 40
33.0
 40
33.0
 40
34.0
 40
34.0
 40
35.0
 40
35.0
 40
36.0
 40
36.0
 40
37.0
 40
37.0
 40
38.0
 40
38.0
 40
39.0
 40
39.0
 40
40.0
 40
40.0
 40
41.0
 40
41.0
 40
42.0
 40
42.0
 40
43.0
 40
43.0
 40
44.0
 40
44.0
 40
45.0
 40
45.0
 40
46.0
 40
46.0
 40
47.0
 40
47.0
 40
48.0
 40
48.0
 40
49.0
 40
49.0
 40
50.0
 40
50.0
 40
51.0
 40
51.0
 40
52.0
 40
52.0
 40
53.0
 40
53.0
 40
54.0
 40
54.0
 40
55.0
 40
55.0
 40
56.0
 40
56.0
 40
57.0
 40
57.0
 40
58.0
 40
58.0
 40
59.0
 40
59.0
 40
60.0
 40
60.0
 40
61.0
 40
61.0
 40
62.0
 40
62.0
 40
63.0
 40
63.0
 40
64.0
 40
64.0
 40
65.0
 40
65.0
 40
66.0
 40
66.0
 40
67.0
 40
67.0
 40
68.0
 40
68.0
 40
69.0
 40
69.0
 40
70.0
 40
70.0
 40
71.0
 40
71.0
 40
72.0
 40
72.0
 40
73.0
 40
73.0
 40
74.0
 40
74.0
 40
75.0
 40
75.0
 40
76.0
 40
76.0
 40
77.0
 40
77.0
 40
78.0
 40
78.0
 40
79.0
 40
79.0
 40
80.0
 40
80.0
 40
81.0
 40
81.0
 40
82.0
 40
82.0
 40
83.0
 40
83.0
 40
84.0
 40
84.0
 40
85.0
 40
85.0
 40
86.0
 40
86.0
 40
87.0
 40
87.0
 40
88.0
 40
88.0
 40
89.0
 40
89.0
 40
90.0
 40
90.0
 40
91.0
 40
91.0
 40
92.0
 40
92.0
 40
93.0
 40
93.0
 40
94.0
 40
94.0
 40
95.0
 40
95.0
 40
96.0
 40
96.0
 40
97.0
 40
97.0
 40
98.0
 40
98.0
 40
99.0
 40
99.0
 40
100.0
 40
100.0
 40
101.0
 40
101.0
 40
102.0
 40
102.0
 40
103.0
 40
103.0
 40
104.0
 40
104.0
 40
105.0
 40
105.0
 40
106.0
 40
106.0
 40
107.0
 40
107.0
 40
108.0
 40
108.0
 40
109.0
 40
109.0
 40
110.0
 40
110.0
 40
111.0
 40
111.0
 40
112.0
 40
112.0
 40
113.0
 40
113.0
 40
114.0
 40
114.0
 40
115.0
 40
115.0
 40
116.0
 40
116.0
 40
117.0
 40
117.0
 40
118.0
 40
118.0
 40
119.0
 40
119.0
 40
120.0
 40
120.0
 40
121.0
 40
121.0
 40
122.0
 40
122.0
 40
123.0
 40
123.0
 40
124.0
 40
124.0
 40
125.0
 40
125.0
 40
126.0
 40
126.0
 40
127.0
 40
127.0
 40
128.0
 40
128.0
 40
129.0
 40
129.0
 40
130.0
 40
130.0
 40
131.0
 40
131.0
 40
132.0
 40
132.0
 40
133.0
 40
133.0
 40
134.0
 40
134.0
 40
135.0
 40
135.0
 40
136.0
 40
136.0
 40
137.0
 40
137.0
 40
138.0
 40
138.0
 40
139.0
 40
139.0
 40
140.0
 40
140.0
 40
141.0
 40
141.0
 40
142.0
 40
142.0
 40
143.0
 40
143.0
 40
144.0
 40
144.0
 40
145.0
 40
145.0
 40
146.0
 40
146.0
 40
147.0
 40
147.0
 40
148.0
 40
148.0
 40
149.0
 40
149.0
 40
150.0
 40
150.0
 40
151.0
 40
151.0
 40
152.0
 40
152.0
 40
153.0
 40
153.0
 40
154.0
 40
154.0
 40
155.0
 40
155.0
 40
156.0
 40
156.0
 40
157.0
 40
157.0
 40
158.0
 40
158.0
 40
159.0
 40
159.0
 40
160.0
 40
160.0
 40
161.0
 40
161.0
 40
162.0
 40
162.0
 40
163.0
 40
163.0
 40
164.0
 40
164.0
 40
165.0
 40
165.0
 40
166.0
 40
166.0
 40
167.0
 40
167.0
 40
168.0
 40
168.0
 40
169.0
 40
169.0
 40
170.0
 40
170.0
 40
171.0
 40
171.0
 40
172.0
 40
172.0
 40
173.0
 40
173.0
 40
174.0
 40
174.0
 40
175.0
 40
175.0
 40
176.0
 40
176.0
 40
177.0
 40
177.0
 40
178.0
 40
178.0
 40
179.0
 40
179.0
 40
180.0
 40
180.0
 40
181.0
 40
181.0
 40
182.0
 40
182.0
 40
183.0
 40
183.0
 40
184.0
 40
184.0
 40
185.0
 40
185.0
 40
186.0
 40
186.0
 40
187.0
 40
187.0
 40
188.0
 40
188.0
 40
189.0
 40
189.0
 40
190.0
 40
190.0
 40
191.0
 40
191.0
 40
192.0
 40
192.0
 40
193.0
 40
193.0
 40
194.0
 40
194.0
 40
195.0
 40
195.0
 40
196.0
 40
196.0
 40
197.0
 40
197.0
 40
198.0
 40
198.0
 40
199.0
 40
199.0
 40
200.0
 40
200.0
 40
201.0
 40
201.0
 40
202.0
 40
202.0
 40
203.0
 40
203.0
 40
204.0
 40
204.0
 40
205.0
 40
205.0
 40
206.0
 40
206.0
 40
207.0
 40
207.0
 40
208.0
 40
208.0
 40
209.0
 40
209.0
 40
210.0
 40
210.0
 40
211.0
 40
211.0
 40
212.0
 40
212.0
 40
213.0
 40
213.0
 40
214.0
 40
214.0
 40
215.0
 40
215.0
 40
216.0
 40
216.0
 40
217.0
 40
217.0
 40
218.0
 40
218.0
 40
219.0
 40
219.0
 40
220.0
 40
220.0
 40
221.0
 40
221.0
 40
222.0
 40
222.0
 40
223.0
 40
223.0
 40
224.0
 40
224.0
 40
225.0
 40
225.0
 40
226.0
 40
226.0
 40
227.0
 40
227.0
 40
228.0
 40
228.0
 40
229.0
 40
229.0
 40
230.0
 40
230.0
 40
231.0
 40
231.0
 40
232.0
 40
232.0
 40
233.0
 40
233.0
 40
234.0
 40
234.0
 40
235.0
 40
235.0
 40
236.0
 40
236.0
 40
237.0
 40
237.0
 40
238.0
 40
238.0
 40
239.0
 40
239.0
 40
240.0
 40
240.0
 40
241.0
 40
241.0
 40
242.0
 40
242.0
 40
243.0
 40
243.0
 40
244.0
 40
244.0
 40
245.0
 40
245.0
 40
246.0
 40
246.0
 40
247.0
 40
247.0
 40
248.0
 40
248.0
 40
249.0
 40
249.0
 40
250.0
 40
250.0
 40
251.0
 40
251.0
 40
252.0
 40
252.0
 40
253.0
 40
253.0
 40
254.0
 40
254.0
 40
255.0
 40
255.0
 40
256.0
 40
256.0
 40
257.0
 40
257.0
 40
258.0
 40
258.0
 40
259.0
 40
259.0
 40
260.0
 40
260.0
 40
261.0
 40
261.0
 40
262.0
 40
262.0
 40
263.0
 40
263.0
 40
264.0
 40
264.0
 40
265.0
 40
265.0
 40
266.0
 40
266.0
 40
267.0
 40
267.0
 40
268.0
 40
268.0
 40
269.0
 40
269.0
 40
270.0
 40
270.0
 40
271.0
 40
271.0
 40
272.0
 40
272.0
 40
273.0
 40
273.0
 40
274.0
 40
274.0
 40
275.0
 40
275.0
 40
276.0
 40
276.0
 40
277.0
 40
277.0
 40
278.0
 40
278.0
 40
279.0
 40
279.0
 40
280.0
 40
280.0
 40
281.0
 40
281.0
 40
282.0
 40
282.0
 40
283.0
 40
283.0
 40
284.0
 40
284.0
 40
285.0
 40
285.0
 40
286.0
 40
286.0
 40
287.0
 40
287.0
 40
288.0
 40
288.0
 40
289.0
 40
289.0
 40
290.0
 40
290.0
 40
291.0
 40
291.0
 40
292.0
 40
292.0
 40
293.0
 40
293.0
 40
294.0
 40
294.0
 40
295.0
 40
295.0
 40
296.0
 40
296.0
 40
297.0
 40
297.0
 40
298.0
 40
298.0
 40
299.0
 40
299.0
 40
300.0
 40
300.0
 40
301.0
 40
301.0
 40
302.0
 40
302.0
 40
303.0
 40
303.0
 40
304.0
 40
304.0
 40
305.0
 40
305.0
 40
306.0
 40
306.0
 40
307.0
 40
307.0
 40
308.0
 40
308.0
 40
309.0
 40
309.0
 40
310.0
 40
310.0
 40
311.0
 40
311.0
 40
312.0
 40
312.0
 40
313.0
 40
313.0
 40
314.0
 40
314.0
 40
315.0
 40
315.0
 40
316.0
 40
316.0
 40
317.0
 40
317.0
 40
318.0
 40
318.0
 40
319.0
 40
319.0
 40
320.0
 40
320.0
 40
321.0
 40
321.0
 40
322.0
 40
322.0
 40
323.0
 40
323.0
 40
324.0
 40
324.0
 40
325.0
 40
325.0
 40
326.0
 40
326.0
 40
327.0
 40
327.0
 40
328.0
 40
328.0
 40
329.0
 40
329.0
 40
330.0
 40
330.0
 40
331.0
 40
331.0
 40
332.0
 40
332.0
 40
333.0
 40
333.0
 40
334.0
 40
334.0
 40
335.0
 40
335.0
 40
336.0
 40
336.0
 40
337.0
 40
337.0
 40
338.0
 40
338.0
 40
339.0
 40
339.0
 40
340.0
 40
340.0
 40
341.0
 40
341.0
 40
342.0
 40
342.0
 40
343.0
 40
343.0
 40
344.0
 40
344.0
 40
345.0
 40
345.0
 40
346.0
 40
346.0
 40
347.0
 40
347.0
 40
348.0
 40
348.0
 40
349.0
 40
349.0
 40
350.0
 40
350.0
 40
351.0
 40
351.0
 40
352.0
 40
352.0
 40
353.0
 40
353.0
 40
354.0
 40
354.0
 40
355.0
 40
355.0
 40
356.0
 40
356.0
 40
357.0
 40
357.0
 40
358.0
 40
358.0
 40
359.0
 40
359.0
 40
360.0
 40
360.0
 40
361.0
 40
361.0
 40
362.0
 40
362.0
 40
363.0
 40
363.0
 40
364.0
 40
364.0
 40
365.0
 40
365.0
 40
366.0
 40
366.0
 40
367.0
 40
367.0
 40
368.0
 40
368.0
 40
369.0
 40
369.0
 40
370.0
 40
370.0
 40
371.0
 40
371.0
 40
372.0
 40
372.0
 40
373.0
 40
373.0
 40
374.0
 40
374.0
 40
375.0
 40
375.0
 40
376.0
 40
376.0
 40
377.0
 40
377.0
 40
378.0
 40
378.0
 40
379.0
 40
379.0
 40
380.0
 40
380.0
 40
381.0
 40
381.0
 40
382.0
 40
382.0
 40
383.0
 40
383.0
 40
384.0
 40
384.0
 40
385.0
 40
385.0
 40
386.0
 40
386.0
 40
387.0
 40
387.0
 40
388.0
 40
388.0
 40
389.0
 40
389.0
 40
389.0
 10
-5194.49728826091
 20
-3885.2729448000132
 30
0.0
 41
1.0
 10
-5194.4154458500379
 20
-3885.2729448000132
 30
0.0
 41
1.0
 10
-5194.3336034391659
 20
-3885.2729448000132
 30
0.0
 41
1.0
 10
-5194.374978812717
 20
-3885.4072110785837
 30
0.0
 41
1.0
 10
-5194.416354186269
 20
-3885.5414773571538
 30
0.0
 41
1.0
 10
-5194.4145202367235
 20
-3885.5386072017477
 30
0.0
 41
0.9999957265357948
 10
-5194.412669536744
 20
-3885.535747818496
 30
0.0
 41
1.0
 10
-5194.4096266044926
 20
-3885.5310464030281
 30
0.0
 41
1.0
 10
-5194.406583672242
 20
-3885.5263449875602
 30
0.0
 41
1.0
 10
-5194.3986471077333
 20
-3885.5140827733312
 30
0.0
 41
0.9995394157574671
 10
-5194.3899812552027
 20
-3885.5023246291785
 30
0.0
 41
1.0
 10
-5194.3864055638924
 20
-3885.4974730010531
 30
0.0
 41
1.0
 10
-5194.3828298725821
 20
-3885.4926213729277
 30
0.0
 41
1.0
 10
-5194.3694572293407
 20
-3885.4744768838109
 30
0.0
 41
0.9994460686945578
 10
-5194.354907181214
 20
-3885.4572621757943
 30
0.0
 41
1.0
 10
-5194.3544683506971
 20
-3885.4567429789395
 30
0.0
 41
1.0
 10
-5194.3540295201792
 20
-3885.4562237820846
 30
0.0
 41
1.0
 10
-5194.3403571330819
 20
-3885.4400474677732
 30
0.0
 41
0.9994359425608249
 10
-5194.3256297100488
 20
-3885.4248254336085
 30
0.0
 41
1.0
 10
-5194.3253913627723
 20
-3885.4245790815894
 30
0.0
 41
1.0
 10
-5194.3251530154948
 20
-3885.4243327295708
 30
0.0
 41
1.0
 10
-5194.310902287014
 20
-3885.4096033994406
 30
0.0
 41
0.9995293681317343
 10
-5194.295775118916
 20
-3885.3957757021008
 30
0.0
 41
1.0
 10
-5194.2938457356668
 20
-3885.39401205887
 30
0.0
 41
1.0
 10
-5194.2919163524184
 20
-3885.3922484156392
 30
0.0
 41
1.0
 10
-5194.2806479508263
 20
-3885.3819480047673
 30
0.0
 41
0.9997087593017181
 10
-5194.2688956619222
 20
-3885.3722033116178
 30
0.0
 41
1.0
 10
-5194.2669790526961
 20
-3885.3706141089565
 30
0.0
 41
1.0
 10
-5194.2650624434691
 20
-3885.3690249062952
 30
0.0
 41
1.0
 10
-5194.2571433730154
 20
-3885.3624586184651
 30
0.0
 41
0.9999595334226565
 10
-5194.2491074459413
 20
-3885.3560358707059
 30
0.0
 41
1.0
 10
-5194.2410715188325
 20
-3885.3496131229181
 30
0.0
 41
0.9999749414311601
 10
-5194.2329454623323
 20
-3885.3433047935519
 30
0.0
 41
1.0
 10
-5194.230846847825
 20
-3885.3416756205916
 30
0.0
 41
1.0
 10
-5194.2287482333177
 20
-3885.3400464476317
 30
0.0
 41
1.0
 10
-5194.2202914476338
 20
-3885.3334813702822
 30
0.0
 41
0.9999792034176587
 10
-5194.2117506876821
 20
-3885.3270259165433
 30
0.0
 41
1.0
 10
-5194.2096682052015
 20
-3885.3254518915865
 30
0.0
 41
1.0
 10
-5194.207585722721
 20
-3885.3238778666296
 30
0.0
 41
1.0
 10
-5194.2032099276839
 20
-3885.3205704627703
 30
0.0
 41
0.9999993374137447
 10
-5194.198841759091
 20
-3885.3172529930057
 30
0.0
 41
1.0
 10
-5194.1944735904726
 20
-3885.3139355232229
 30
0.0
 41
0.999916094043152
 10
-5194.1900209463765
 20
-3885.310732327413
 30
0.0
 41
1.0
 10
-5194.1867387591383
 20
-3885.3083711487106
 30
0.0
 41
1.0
 10
-5194.1834565719
 20
-3885.3060099700078
 30
0.0
 41
1.0
 10
-5194.1724395533274
 20
-3885.298084416791
 30
0.0
 41
0.9980964080856877
 10
-5194.1605306180118
 20
-3885.2915754728006
 30
0.0
 41
1.0
 10
-5194.156827354298
 20
-3885.2895514181341
 30
0.0
 41
1.0
 10
-5194.1531240905833
 20
-3885.2875273634677
 30
0.0
 41
1.0
 10
-5194.1351914312609
 20
-3885.2777260947523
 30
0.0
 41
0.9984572283045612
 10
-5194.1162825746251
 20
-3885.2699736577465
 30
0.0
 41
1.0
 10
-5194.1159179323804
 20
-3885.2698241581711
 30
0.0
 41
1.0
 10
-5194.1155532901357
 20
-3885.2696746585962
 30
0.0
 41
1.0
 10
-5194.0973737179866
 20
-3885.2622212207389
 30
0.0
 41
0.9987838014315489
 10
-5194.078548452133
 20
-3885.2565945036722
 30
0.0
 41
1.0
 10
-5194.0781246471915
 20
-3885.2564678318622
 30
0.0
 41
1.0
 10
-5194.0777008422501
 20
-3885.2563411600527
 30
0.0
 41
1.0
 10
-5194.0597231862812
 20
-3885.2509677866055
 30
0.0
 41
0.9990652369194073
 10
-5194.0413485931058
 20
-3885.247167315275
 30
0.0
 41
1.0
 10
-5194.0408297472095
 20
-3885.2470600008473
 30
0.0
 41
1.0
 10
-5194.0403109013141
 20
-3885.2469526864193
 30
0.0
 41
1.0
 10
-5194.0229739999277
 20
-3885.2433668439435
 30
0.0
 41
0.9992909570069662
 10
-5194.0054164232879
 20
-3885.241095738922
 30
0.0
 41
1.0
 10
-5193.9878588466408
 20
-3885.2388246339001
 30
0.0
 41
0.9994553248790765
 10
-5193.9701896973165
 20
-3885.2377166729643
 30
0.0
 41
1.0
 10
-5193.9666462587757
 20
-3885.2374944782559
 30
0.0
 41
1.0
 10
-5193.9631028202339
 20
-3885.2372722835476
 30
0.0
 41
1.0
 10
-5193.946480245123
 20
-3885.2362299490505
 30
0.0
 41
0.9990927605803298
 10
-5193.9298292659278
 20
-3885.2366059234009
 30
0.0
 41
1.0
 10
-5193.9259730827434
 20
-3885.2366929949148
 30
0.0
 41
1.0
 10
-5193.92211689956
 20
-3885.2367800664292
 30
0.0
 41
1.0
 10
-5193.9131782867134
 20
-3885.2369818977527
 30
0.0
 41
0.9998382001501224
 10
-5193.9042527184583
 20
-3885.2375051246363
 30
0.0
 41
1.0
 10
-5193.9042097286892
 20
-3885.2375076447452
 30
0.0
 41
1.0
 10
-5193.9041667389201
 20
-3885.237510164854
 30
0.0
 41
1.0
 10
-5193.8953271501796
 20
-3885.2380283515213
 30
0.0
 41
0.9997557885673709
 10
-5193.8865190924598
 20
-3885.2389366277639
 30
0.0
 41
1.0
 10
-5193.8864714802003
 20
-3885.2389415374823
 30
0.0
 41
1.0
 10
-5193.8864238679407
 20
-3885.2389464472008
 30
0.0
 41
1.0
 10
-5193.8777110347382
 20
-3885.239844904007
 30
0.0
 41
0.9996564963599399
 10
-5193.8690572494052
 20
-3885.2411986714988
 30
0.0
 41
1.0
 10
-5193.8690106594495
 20
-3885.2412059598664
 30
0.0
 41
1.0
 10
-5193.8689640694947
 20
-3885.2412132482336
 30
0.0
 41
1.0
 10
-5193.8604034640693
 20
-3885.2425524389919
 30
0.0
 41
0.9995321569895773
 10
-5193.8519407560379
 20
-3885.2444125384304
 30
0.0
 41
1.0
 10
-5193.851901840445
 20
-3885.2444210920603
 30
0.0
 41
1.0
 10
-5193.851862924852
 20
-3885.2444296456902
 30
0.0
 41
1.0
 10
-5193.8434780480002
 20
-3885.2462726378712
 30
0.0
 41
0.9993818904913712
 10
-5193.8352433945856
 20
-3885.2487002422286
 30
0.0
 41
1.0
 10
-5193.8352195566131
 20
-3885.2487072697454
 30
0.0
 41
1.0
 10
-5193.8351957186405
 20
-3885.2487142972623
 30
0.0
 41
1.0
 10
-5193.8270087411729
 20
-3885.2511278465845
 30
0.0
 41
0.9992088227004936
 10
-5193.8190394892681
 20
-3885.2541844533084
 30
0.0
 41
1.0
 10
-5193.8110713834276
 20
-3885.2572404998091
 30
0.0
 41
0.9990225757087273
 10
-5193.8034043231892
 20
-3885.2609883416139
 30
0.0
 41
1.0
 10
-5193.7957384090087
 20
-3885.2647356231992
 30
0.0
 41
0.9988423937267461
 10
-5193.7884680623256
 20
-3885.2692022123656
 30
0.0
 41
1.0
 10
-5193.7884412834683
 20
-3885.2692186641466
 30
0.0
 41
1.0
 10
-5193.7884145046119
 20
-3885.2692351159276
 30
0.0
 41
1.0
 10
-5193.7810906002096
 20
-3885.2737346086606
 30
0.0
 41
0.9986928590028333
 10
-5193.7742643312367
 20
-3885.2789583106346
 30
0.0
 41
1.0
 10
-5193.7742061931676
 20
-3885.2790027999372
 30
0.0
 41
1.0
 10
-5193.7741480550994
 20
-3885.2790472892393
 30
0.0
 41
1.0
 10
-5193.7672055099811
 20
-3885.284359969824
 30
0.0
 41
0.9986007142261379
 10
-5193.7608629109955
 20
-3885.2903761933758
 30
0.0
 41
1.0
 10
-5193.7607734604553
 20
-3885.2904610409978
 30
0.0
 41
1.0
 10
-5193.7606840099161
 20
-3885.2905458886203
 30
0.0
 41
1.0
 10
-5193.7541625098474
 20
-3885.2967318074188
 30
0.0
 41
0.9985581534077502
 10
-5193.7483417656249
 20
-3885.3035812228131
 30
0.0
 41
1.0
 10
-5193.7474159117919
 20
-3885.3046706981886
 30
0.0
 41
1.0
 10
-5193.746490057958
 20
-3885.3057601735645
 30
0.0
 41
1.0
 10
-5193.7388176060704
 20
-3885.3147885397066
 30
0.0
 41
0.9970460730325489
 10
-5193.7326184405074
 20
-3885.3248854827802
 30
0.0
 41
1.0
 10
-5193.7311714960961
 20
-3885.3272422056652
 30
0.0
 41
1.0
 10
-5193.7297245516856
 20
-3885.3295989285502
 30
0.0
 41
1.0
 10
-5193.7257508729354
 20
-3885.3360710912511
 30
0.0
 41
0.9988469152254329
 10
-5193.7224162358607
 20
-3885.3428945220949
 30
0.0
 41
1.0
 10
-5193.7217126343248
 20
-3885.3443342519104
 30
0.0
 41
1.0
 10
-5193.721009032789
 20
-3885.3457739817259
 30
0.0
 41
1.0
 10
-5193.7190815987869
 20
-3885.3497179529368
 30
0.0
 41
0.9998431244770245
 10
-5193.7172950660361
 20
-3885.3537277174528
 30
0.0
 41
1.0
 10
-5193.7155085332906
 20
-3885.3577374819579
 30
0.0
 41
0.9999989990286059
 10
-5193.7137106608479
 20
-3885.3617421748695
 30
0.0
 41
1.0
 10
-5193.7130934297365
 20
-3885.3631170338404
 30
0.0
 41
1.0
 10
-5193.7124761986252
 20
-3885.3644918928117
 30
0.0
 41
1.0
 10
-5193.7094438639724
 20
-3885.3712463036372
 30
0.0
 41
0.9998790401540805
 10
-5193.7066230777009
 20
-3885.378091760806
 30
0.0
 41
1.0
 10
-5193.7059395595179
 20
-3885.3797505162001
 30
0.0
 41
1.0
 10
-5193.7052560413349
 20
-3885.3814092715943
 30
0.0
 41
1.0
 10
-5193.7029002734598
 20
-3885.3871262265625
 30
0.0
 41
0.9998227645488028
 10
-5193.700761398617
 20
-3885.3929278152068
 30
0.0
 41
1.0
 10
-5193.6986225237806
 20
-3885.3987294038347
 30
0.0
 41
0.9996798109024266
 10
-5193.6967798968344
 20
-3885.4046317713301
 30
0.0
 41
1.0
 10
-5193.696389515786
 20
-3885.4058822536476
 30
0.0
 41
1.0
 10
-5193.6959991347367
 20
-3885.4071327359652
 30
0.0
 41
1.0
 10
-5193.6933757456954
 20
-3885.4155360680888
 30
0.0
 41
0.9979275937538792
 10
-5193.6918532957861
 20
-3885.4242067259138
 30
0.0
 41
1.0
 10
-5193.6916309261023
 20
-3885.4254731658984
 30
0.0
 41
1.0
 10
-5193.6914085564185
 20
-3885.4267396058826
 30
0.0
 41
1.0
 10
-5193.6903155619239
 20
-3885.4329644289251
 30
0.0
 41
0.9994986243791968
 10
-5193.6896187454076
 20
-3885.4392459498881
 30
0.0
 41
1.0
 10
-5193.6889219288905
 20
-3885.4455274708603
 30
0.0
 41
0.999637280569238
 10
-5193.6885643424012
 20
-3885.4518373988212
 30
0.0
 41
1.0
 10
-5193.6885474846085
 20
-3885.4521348693938
 30
0.0
 41
1.0
 10
-5193.6885306268159
 20
-3885.4524323399664
 30
0.0
 41
1.0
 10
-5193.6881393247413
 20
-3885.4593372090894
 30
0.0
 41
0.9997730753858063
 10
-5193.6880424933997
 20
-3885.4662524790488
 30
0.0
 41
1.0
 10
-5193.6880367827544
 20
-3885.4666603083188
 30
0.0
 41
1.0
 10
-5193.688031072109
 20
-3885.4670681375883
 30
0.0
 41
1.0
 10
-5193.6879228194766
 20
-3885.4747990660835
 30
0.0
 41
0.9998772680820308
 10
-5193.6880568281495
 20
-3885.4825295910146
 30
0.0
 41
1.0
 10
-5193.6880657544698
 20
-3885.483044521417
 30
0.0
 41
1.0
 10
-5193.6880746807892
 20
-3885.4835594518195
 30
0.0
 41
1.0
 10
-5193.6882265421018
 20
-3885.4923198375031
 30
0.0
 41
0.9999415599069967
 10
-5193.6885677731361
 20
-3885.5010748920763
 30
0.0
 41
1.0
 10
-5193.6885919051992
 20
-3885.5016940547757
 30
0.0
 41
1.0
 10
-5193.6886160372624
 20
-3885.5023132174747
 30
0.0
 41
1.0
 10
-5193.6890055324202
 20
-3885.5123065973762
 30
0.0
 41
0.999971682577626
 10
-5193.68954539075
 20
-3885.5222929831721
 30
0.0
 41
1.0
 10
-5193.6898666706384
 20
-3885.528236069983
 30
0.0
 41
1.0
 10
-5193.6901879505276
 20
-3885.5341791567939
 30
0.0
 41
1.0
 10
-5193.6909953414088
 20
-3885.5491144025414
 30
0.0
 41
0.9999819139669768
 10
-5193.6919823205681
 20
-3885.5640388562279
 30
0.0
 41
1.0
 10
-5193.6929692997292
 20
-3885.5789633099557
 30
0.0
 41
1.0
 10
-5193.6932132317861
 20
-3885.5826827157111
 30
0.0
 41
1.0
 10
-5193.6909434084637
 20
-3885.5788085107006
 30
0.0
 41
0.9999982128753189
 10
-5193.688658952381
 20
-3885.5749429158068
 30
0.0
 41
1.0
 10
-5193.6859679964655
 20
-3885.5703894706676
 30
0.0
 41
1.0
 10
-5193.6832770405508
 20
-3885.5658360255284
 30
0.0
 41
1.0
 10
-5193.6756106727107
 20
-3885.5528635404798
 30
0.0
 41
0.9998609224304151
 10
-5193.6675159348824
 20
-3885.5401539463051
 30
0.0
 41
1.0
 10
-5193.6645511031984
 20
-3885.5354988471154
 30
0.0
 41
1.0
 10
-5193.6615862715144
 20
-3885.5308437479257
 30
0.0
 41
1.0
 10
-5193.6533590550989
 20
-3885.5179261483631
 30
0.0
 41
0.9999067629912384
 10
-5193.6447821541451
 20
-3885.5052380342813
 30
0.0
 41
1.0
 10
-5193.6445416806
 20
-3885.5048822932295
 30
0.0
 41
1.0
 10
-5193.6443012070558
 20
-3885.5045265521771
 30
0.0
 41
1.0
 10
-5193.6362052531977
 20
-3885.4925499202091
 30
0.0
 41
0.9998784974855363
 10
-5193.6277398922302
 20
-3885.4808314797897
 30
0.0
 41
1.0
 10
-5193.6192745312728
 20
-3885.4691130393803
 30
0.0
 41
0.9998532990734452
 10
-5193.6104127612771
 20
-3885.4576914276581
 30
0.0
 41
1.0
 10
-5193.6084165732818
 20
-3885.4551186138501
 30
0.0
 41
1.0
 10
-5193.6064203852866
 20
-3885.4525458000421
 30
0.0
 41
1.0
 10
-5193.5945720064065
 20
-3885.4372748571973
 30
0.0
 41
0.999155205293189
 10
-5193.5815095614435
 20
-3885.4230285134781
 30
0.0
 41
1.0
 10
-5193.5811585922165
 20
-3885.422645734584
 30
0.0
 41
1.0
 10
-5193.5808076229905
 20
-3885.4222629556903
 30
0.0
 41
1.0
 10
-5193.5684471164795
 20
-3885.4087821697558
 30
0.0
 41
0.9997418149955325
 10
-5193.5554869025109
 20
-3885.3958768776629
 30
0.0
 41
1.0
 10
-5193.5425266885386
 20
-3885.3829715855654
 30
0.0
 41
0.9989238147993746
 10
-5193.5284263983376
 20
-3885.37132274328
 30
0.0
 41
1.0
 10
-5193.5239016325086
 20
-3885.3675846440792
 30
0.0
 41
1.0
 10
-5193.5193768666786
 20
-3885.3638465448789
 30
0.0
 41
1.0
 10
-5193.5053528923681
 20
-3885.352260750356
 30
0.0
 41
0.9990824948479921
 10
-5193.4903888991057
 20
-3885.3419175692293
 30
0.0
 41
1.0
 10
-5193.4893843564842
 20
-3885.3412232247383
 30
0.0
 41
1.0
 10
-5193.4883798138626
 20
-3885.3405288802469
 30
0.0
 41
1.0
 10
-5193.4754249058469
 20
-3885.3315743881049
 30
0.0
 41
0.9998164861010231
 10
-5193.4621364855075
 20
-3885.3231227340602
 30
0.0
 41
1.0
 10
-5193.4609519235428
 20
-3885.3223693331547
 30
0.0
 41
1.0
 10
-5193.4597673615781
 20
-3885.3216159322492
 30
0.0
 41
1.0
 10
-5193.4488480651689
 20
-3885.314671080017
 30
0.0
 41
0.9997473385343698
 10
-5193.4376276694456
 20
-3885.3082240088706
 30
0.0
 41
1.0
 10
-5193.4264072737269
 20
-3885.3017769377275
 30
0.0
 41
0.9999327842002926
 10
-5193.4150404065504
 20
-3885.2955917669988
 30
0.0
 41
1.0
 10
-5193.4149852093415
 20
-3885.2955617319717
 30
0.0
 41
1.0
 10
-5193.4149300121317
 20
-3885.2955316969446
 30
0.0
 41
1.0
 10
-5193.4034527505519
 20
-3885.2892864561704
 30
0.0
 41
0.9996956323855903
 10
-5193.3916814051399
 20
-3885.2836149490226
 30
0.0
 41
1.0
 10
-5193.3886373668938
 20
-3885.2821483125363
 30
0.0
 41
1.0
 10
-5193.3855933286468
 20
-3885.2806816760503
 30
0.0
 41
1.0
 10
-5193.3752956263043
 20
-3885.2757201792638
 30
0.0
 41
0.9998070501610744
 10
-5193.364810987413
 20
-3885.2711669967239
 30
0.0
 41
1.0
 10
-5193.3543263485135
 20
-3885.2666138141813
 30
0.0
 41
0.999782735195103
 10
-5193.3436610463814
 20
-3885.262501581929
 30
0.0
 41
1.0
 10
-5193.3417387656564
 20
-3885.2617604060392
 30
0.0
 41
1.0
 10
-5193.3398164849314
 20
-3885.2610192301495
 30
0.0
 41
1.0
 10
-5193.3253066213465
 20
-3885.2554246461154
 30
0.0
 41
0.998803131992397
 10
-5193.3103195613594
 20
-3885.2512745202425
 30
0.0
 41
1.0
 10
-5193.3078278379335
 20
-3885.2505845272835
 30
0.0
 41
1.0
 10
-5193.3053361145076
 20
-3885.249894534325
 30
0.0
 41
1.0
 10
-5193.2886091328446
 20
-3885.2452625998803
 30
0.0
 41
0.9984747287980457
 10
-5193.2714734419806
 20
-3885.2425031015937
 30
0.0
 41
1.0
 10
-5193.2709995232999
 20
-3885.2424267826523
 30
0.0
 41
1.0
 10
-5193.2705256046183
 20
-3885.2423504637109
 30
0.0
 41
1.0
 10
-5193.2543377511165
 20
-3885.2397436033061
 30
0.0
 41
0.9984435668883144
 10
-5193.2379602767433
 20
-3885.2389557864954
 30
0.0
 41
1.0
 10
-5193.2357905559611
 20
-3885.2388514149379
 30
0.0
 41
1.0
 10
-5193.233620835179
 20
-3885.2387470433805
 30
0.0
 41
1.0
 10
-5193.2215828023727
 20
-3885.2381679696841
 30
0.0
 41
0.9987954135201145
 10
-5193.2095459778802
 20
-3885.2387716388789
 30
0.0
 41
1.0
 10
-5193.2075494992496
 20
-3885.2388717660051
 30
0.0
 41
1.0
 10
-5193.205553020618
 20
-3885.2389718931317
 30
0.0
 41
1.0
 10
-5193.197509153385
 20
-3885.2393753080737
 30
0.0
 41
0.9997941485030771
 10
-5193.1894882755805
 20
-3885.2401047345065
 30
0.0
 41
1.0
 10
-5193.1814673977988
 20
-3885.2408341609357
 30
0.0
 41
0.9998589391268657
 10
-5193.1734755446714
 20
-3885.2418325733438
 30
0.0
 41
1.0
 10
-5193.1702349236966
 20
-3885.2422374201469
 30
0.0
 41
1.0
 10
-5193.1669943027227
 20
-3885.24264226695
 30
0.0
 41
1.0
 10
-5193.1525212076776
 20
-3885.2444503729607
 30
0.0
 41
0.9993494727733789
 10
-5193.1382160921321
 20
-3885.2472970196086
 30
0.0
 41
1.0
 10
-5193.1349227212413
 20
-3885.2479523839902
 30
0.0
 41
1.0
 10
-5193.1316293503496
 20
-3885.2486077483723
 30
0.0
 41
1.0
 10
-5193.1206999615642
 20
-3885.2507826422302
 30
0.0
 41
0.9996788557834221
 10
-5193.1098948043527
 20
-3885.2535084963156
 30
0.0
 41
1.0
 10
-5193.1096885085744
 20
-3885.2535605392595
 30
0.0
 41
1.0
 10
-5193.1094822127961
 20
-3885.2536125822035
 30
0.0
 41
1.0
 10
-5193.0990896471612
 20
-3885.2562343503964
 30
0.0
 41
0.9995480445595352
 10
-5193.0888734236341
 20
-3885.2594759342337
 30
0.0
 41
1.0
 10
-5193.0887044653646
 20
-3885.2595295442979
 30
0.0
 41
1.0
 10
-5193.0885355070941
 20
-3885.2595831543617
 30
0.0
 41
1.0
 10
-5193.078657200108
 20
-3885.2627175180705
 30
0.0
 41
0.9993867701242043
 10
-5193.0690224842674
 20
-3885.266535558852
 30
0.0
 41
1.0
 10
-5193.0688981968906
 20
-3885.2665848113966
 30
0.0
 41
1.0
 10
-5193.0687739095147
 20
-3885.2666340639412
 30
0.0
 41
1.0
 10
-5193.0593877684159
 20
-3885.2703535996379
 30
0.0
 41
0.9992049966383294
 10
-5193.0503278009201
 20
-3885.2748091107514
 30
0.0
 41
1.0
 10
-5193.0502543416769
 20
-3885.2748452365404
 30
0.0
 41
1.0
 10
-5193.0501808824347
 20
-3885.2748813623289
 30
0.0
 41
1.0
 10
-5193.0412678334233
 20
-3885.2792646218645
 30
0.0
 41
0.9990222064871854
 10
-5193.0327768272764
 20
-3885.2844180888169
 30
0.0
 41
1.0
 10
-5193.0327584488932
 20
-3885.2844292432528
 30
0.0
 41
1.0
 10
-5193.032740070511
 20
-3885.2844403976892
 30
0.0
 41
1.0
 10
-5193.0242858211377
 20
-3885.2895715557652
 30
0.0
 41
0.9988642512493484
 10
-5193.0163583676758
 20
-3885.2954841353444
 30
0.0
 41
1.0
 10
-5193.0084309142148
 20
-3885.3013967149232
 30
0.0
 41
0.99876811070992
 10
-5193.0011285551218
 20
-3885.3080659478123
 30
0.0
 41
1.0
 10
-5193.0010956526567
 20
-3885.3080959975809
 30
0.0
 41
1.0
 10
-5193.0010627501924
 20
-3885.3081260473496
 30
0.0
 41
1.0
 10
-5192.9936945861737
 20
-3885.3148553797732
 30
0.0
 41
0.9987496577297401
 10
-5192.9870352237303
 20
-3885.3222868431371
 30
0.0
 41
1.0
 10
-5192.9869579977085
 20
-3885.3223730229111
 30
0.0
 41
1.0
 10
-5192.9868807716866
 20
-3885.3224592026854
 30
0.0
 41
1.0
 10
-5192.980066957206
 20
-3885.3300630255908
 30
0.0
 41
0.9988147802014767
 10
-5192.9740247474265
 20
-3885.3382933288376
 30
0.0
 41
1.0
 10
-5192.9739128069959
 20
-3885.3384458067767
 30
0.0
 41
1.0
 10
-5192.9738008665645
 20
-3885.3385982847158
 30
0.0
 41
1.0
 10
-5192.967534775923
 20
-3885.3471335438426
 30
0.0
 41
0.9989452857289322
 10
-5192.9620780971818
 20
-3885.356207638702
 30
0.0
 41
1.0
 10
-5192.9619432182972
 20
-3885.3564319333418
 30
0.0
 41
1.0
 10
-5192.9618083394134
 20
-3885.3566562279811
 30
0.0
 41
1.0
 10
-5192.9560819029002
 20
-3885.3661789121275
 30
0.0
 41
0.9991046699633154
 10
-5192.9511809910418
 20
-3885.3761516074169
 30
0.0
 41
1.0
 10
-5192.9510346001462
 20
-3885.3764494931656
 30
0.0
 41
1.0
 10
-5192.9508882092505
 20
-3885.3767473789139
 30
0.0
 41
1.0
 10
-5192.9456945155953
 20
-3885.3873158457122
 30
0.0
 41
0.9992764094321367
 10
-5192.9413192094571
 20
-3885.3982485325014
 30
0.0
 41
1.0
 10
-5192.9411712791343
 20
-3885.3986181696955
 30
0.0
 41
1.0
 10
-5192.9410233488115
 20
-3885.3989878068896
 30
0.0
 41
1.0
 10
-5192.9363521820223
 20
-3885.4106597680802
 30
0.0
 41
0.9994163716936887
 10
-5192.9324888834872
 20
-3885.422623438154
 30
0.0
 41
1.0
 10
-5192.9323650673559
 20
-3885.4230068657689
 30
0.0
 41
1.0
 10
-5192.9322412512256
 20
-3885.4233902933834
 30
0.0
 41
1.0
 10
-5192.9282528923522
 20
-3885.4357412440668
 30
0.0
 41
0.9997268180318162
 10
-5192.924846086762
 20
-3885.4482650879181
 30
0.0
 41
1.0
 10
-5192.9247530697721
 20
-3885.4486070300163
 30
0.0
 41
1.0
 10
-5192.9246600527831
 20
-3885.4489489721141
 30
0.0
 41
1.0
 10
-5192.92143928117
 20
-3885.4607889317745
 30
0.0
 41
0.9996701478107386
 10
-5192.9188307194945
 20
-3885.4727786532271
 30
0.0
 41
1.0
 10
-5192.9162221578181
 20
-3885.4847683746775
 30
0.0
 41
0.9995785664697078
 10
-5192.914313801175
 20
-3885.4968892735465
 30
0.0
 41
1.0
 10
-5192.9138918232547
 20
-3885.4995694600384
 30
0.0
 41
1.0
 10
-5192.9134698453345
 20
-3885.5022496465308
 30
0.0
 41
1.0
 10
-5192.9108123460537
 20
-3885.519128713735
 30
0.0
 41
0.9979926171311947
 10
-5192.9103097874613
 20
-3885.536208311124
 30
0.0
 41
1.0
 10
-5192.9102273062181
 20
-3885.5390114597249
 30
0.0
 41
1.0
 10
-5192.9101448249758
 20
-3885.5418146083252
 30
0.0
 41
1.0
 10
-5192.909807228868
 20
-3885.5532879084931
 30
0.0
 41
0.9995315156950024
 10
-5192.9101722480827
 20
-3885.5647603689463
 30
0.0
 41
1.0
 10
-5192.9105372672957
 20
-3885.5762328293713
 30
0.0
 41
0.99962456896463
 10
-5192.9115301769825
 20
-3885.5876680695342
 30
0.0
 41
1.0
 10
-5192.911546481695
 20
-3885.5878558492586
 30
0.0
 41
1.0
 10
-5192.9115627864085
 20
-3885.5880436289835
 30
0.0
 41
1.0
 10
-5192.9125883055194
 20
-3885.5998544285821
 30
0.0
 41
0.9997286239019909
 10
-5192.9141628383122
 20
-3885.6116046423308
 30
0.0
 41
1.0
 10
-5192.9142021873595
 20
-3885.611898291168
 30
0.0
 41
1.0
 10
-5192.9142415364076
 20
-3885.6121919400052
 30
0.0
 41
1.0
 10
-5192.9158947672986
 20
-3885.6245294514465
 30
0.0
 41
0.9998265623988154
 10
-5192.9180063138165
 20
-3885.6367968363484
 30
0.0
 41
1.0
 10
-5192.9180739677067
 20
-3885.6371898830089
 30
0.0
 41
1.0
 10
-5192.9181416215961
 20
-3885.6375829296694
 30
0.0
 41
1.0
 10
-5192.9203884758963
 20
-3885.6506364079141
 30
0.0
 41
0.9999022580443411
 10
-5192.9229994230727
 20
-3885.6636219615557
 30
0.0
 41
1.0
 10
-5192.9230972868318
 20
-3885.6641086872537
 30
0.0
 41
1.0
 10
-5192.9231951505899
 20
-3885.6645954129517
 30
0.0
 41
1.0
 10
-5192.9260018252789
 20
-3885.6785544179625
 30
0.0
 41
0.9999524785576283
 10
-5192.9290801228162
 20
-3885.6924560483685
 30
0.0
 41
1.0
 10
-5192.9292077332102
 20
-3885.69303233851
 30
0.0
 41
1.0
 10
-5192.9293353436033
 20
-3885.6936086286514
 30
0.0
 41
1.0
 10
-5192.9326688619349
 20
-3885.7086628393672
 30
0.0
 41
0.9999813597863588
 10
-5192.9361859625287
 20
-3885.7236752211779
 30
0.0
 41
1.0
 10
-5192.9363413548108
 20
-3885.7243384971371
 30
0.0
 41
1.0
 10
-5192.9364967470929
 20
-3885.7250017730958
 30
0.0
 41
1.0
 10
-5192.9403246322827
 20
-3885.7413407069571
 30
0.0
 41
0.9999955239907686
 10
-5192.9442502203792
 20
-3885.7576564423575
 30
0.0
 41
1.0
 10
-5192.9454783837846
 20
-3885.762760999598
 30
0.0
 41
1.0
 10
-5192.946706547189
 20
-3885.7678655568388
 30
0.0
 41
1.0
 10
-5192.9530884621217
 20
-3885.7943904068352
 30
0.0
 41
0.9999993604793435
 10
-5192.9595303570077
 20
-3885.8209007536984
 30
0.0
 41
1.0
 10
-5192.9600022404738
 20
-3885.8228426969608
 30
0.0
 41
1.0
 10
-5192.96047412394
 20
-3885.8247846402232
 30
0.0
 41
1.0
 10
-5192.967859785761
 20
-3885.8551788736272
 30
0.0
 41
0.9999659931021543
 10
-5192.9757457470196
 20
-3885.8854471580157
 30
0.0
 41
1.0
 10
-5192.9762410150797
 20
-3885.8873481202445
 30
0.0
 41
1.0
 10
-5192.9767362831399
 20
-3885.8892490824737
 30
0.0
 41
1.0
 10
-5192.9856127805133
 20
-3885.923319291298
 30
0.0
 41
0.9999442002205526
 10
-5192.9952070866002
 20
-3885.9571943651081
 30
0.0
 41
1.0
 10
-5192.9968771370477
 20
-3885.9630908918261
 30
0.0
 41
1.0
 10
-5192.9985471874961
 20
-3885.9689874185442
 30
0.0
 41
1.0
 10
-5193.0114815944644
 20
-3886.0146555457445
 30
0.0
 41
0.9999625137910925
 10
-5193.0252048746725
 20
-3886.0600928465797
 30
0.0
 41
1.0
 10
-5193.0287838679887
 20
-3886.071942768283
 30
0.0
 41
1.0
 10
-5193.0323628613041
 20
-3886.0837926899862
 30
0.0
 41
1.0
 10
-5193.0398148802369
 20
-3886.1084660640613
 30
0.0
 41
0.9999793395588148
 10
-5193.0475834825447
 20
-3886.1330415964376
 30
0.0
 41
1.0
 10
-5193.055352084858
 20
-3886.1576171288343
 30
0.0
 41
1.0
 10
-5193.056430040745
 20
-3886.1610190118058
 30
0.0
 41
1.0
 10
-5193.2414673460717
 20
-3886.7497422177735
 30
0.0
 41
1.0
 10
-5193.4265046513992
 20
-3887.3384654237411
 30
0.0
 41
1.0
 10
-5193.5226303204017
 20
-3887.3384654237411
 30
0.0
 41
1.0
 10
-5193.6187559894033
 20
-3887.3384654237411
 30
0.0
 41
1.0
 10
-5193.456861511535
 20
-3886.8236485701505
 30
0.0
 41
1.0
 10
-5193.2949670336675
 20
-3886.3088317165598
 30
0.0
 41
1.0
 10
-5193.2904504524604
 20
-3886.2944282060866
 30
0.0
 41
1.0
 10
-5193.2859338712533
 20
-3886.2800246956135
 30
0.0
 41
1.0
 10
-5193.2689034273035
 20
-3886.2257141083492
 30
0.0
 41
0.999991166186356
 10
-5193.2523301461288
 20
-3886.1712622740597
 30
0.0
 41
1.0
 10
-5193.2493605523105
 20
-3886.1615056164146
 30
0.0
 41
1.0
 10
-5193.2463909584931
 20
-3886.1517489587695
 30
0.0
 41
1.0
 10
-5193.2357568650004
 20
-3886.116810439923
 30
0.0
 41
0.9999952430305956
 10
-5193.2253385060285
 20
-3886.0818069852357
 30
0.0
 41
1.0
 10
-5193.2248325595137
 20
-3886.0801071133142
 30
0.0
 41
1.0
 10
-5193.2243266129999
 20
-3886.0784072413926
 30
0.0
 41
1.0
 10
-5193.2149201471029
 20
-3886.0468035307053
 30
0.0
 41
0.9999931690639734
 10
-5193.2057475633083
 20
-3886.0151311478403
 30
0.0
 41
1.0
 10
-5193.2052540374088
 20
-3886.0134270324475
 30
0.0
 41
1.0
 10
-5193.2047605115094
 20
-3886.0117229170546
 30
0.0
 41
1.0
 10
-5193.1965749795281
 20
-3885.9834587650216
 30
0.0
 41
0.99998938457229
 10
-5193.1886502568759
 20
-3885.9551203812498
 30
0.0
 41
1.0
 10
-5193.1807255342255
 20
-3885.9267819974839
 30
0.0
 41
0.9999833987843199
 10
-5193.1731279113646
 20
-3885.8983541704624
 30
0.0
 41
1.0
 10
-5193.1722275181965
 20
-3885.8949851928601
 30
0.0
 41
1.0
 10
-5193.1713271250273
 20
-3885.8916162152577
 30
0.0
 41
1.0
 10
-5193.1644306679236
 20
-3885.8658119218335
 30
0.0
 41
0.9999233694699217
 10
-5193.1581751708027
 20
-3885.8398447996406
 30
0.0
 41
1.0
 10
-5193.1519196736808
 20
-3885.8138776774431
 30
0.0
 41
1.0
 10
-5193.1479713317949
 20
-3885.7974965654216
 30
0.0
 41
1.0
 10
-5193.1474734715912
 20
-3885.7954310138557
 30
0.0
 41
1.0
 10
-5193.1469756113875
 20
-3885.7933654622893
 30
0.0
 41
1.0
 10
-5193.1440229899217
 20
-3885.7811154534534
 30
0.0
 41
0.99998686772446
 10
-5193.1411960815094
 20
-3885.7688358248201
 30
0.0
 41
1.0
 10
-5193.1408063329436
 20
-3885.7671428206759
 30
0.0
 41
1.0
 10
-5193.1404165843769
 20
-3885.7654498165316
 30
0.0
 41
1.0
 10
-5193.1383691731035
 20
-3885.7565561962115
 30
0.0
 41
0.9999778184278793
 10
-5193.1364404132983
 20
-3885.7476360918836
 30
0.0
 41
1.0
 10
-5193.1345116534949
 20
-3885.7387159875643
 30
0.0
 41
0.9999602712700205
 10
-5193.1327422179811
 20
-3885.7297629169602
 30
0.0
 41
1.0
 10
-5193.1324218345944
 20
-3885.7281418264738
 30
0.0
 41
1.0
 10
-5193.1321014512087
 20
-3885.7265207359869
 30
0.0
 41
1.0
 10
-5193.1296912489288
 20
-3885.7143254844423
 30
0.0
 41
0.9995618210602134
 10
-5193.128006915088
 20
-3885.7020089810903
 30
0.0
 41
1.0
 10
-5193.1277604660918
 20
-3885.7002068502916
 30
0.0
 41
1.0
 10
-5193.1275140170947
 20
-3885.6984047194933
 30
0.0
 41
1.0
 10
-5193.1254856901223
 20
-3885.6835728047454
 30
0.0
 41
0.9991121884543892
 10
-5193.1247131547625
 20
-3885.6686227882046
 30
0.0
 41
1.0
 10
-5193.1246212757687
 20
-3885.6668447563507
 30
0.0
 41
1.0
 10
-5193.124529396775
 20
-3885.6650667244967
 30
0.0
 41
1.0
 10
-5193.1239406194027
 20
-3885.6536727716593
 30
0.0
 41
0.9989793049275475
 10
-5193.1243825286156
 20
-3885.6422721779772
 30
0.0
 41
1.0
 10
-5193.124447325823
 20
-3885.6406005073986
 30
0.0
 41
1.0
 10
-5193.1245121230295
 20
-3885.63892883682
 30
0.0
 41
1.0
 10
-5193.1248244378266
 20
-3885.6308715843124
 30
0.0
 41
0.999782041310693
 10
-5193.1254728375652
 20
-3885.6228343934904
 30
0.0
 41
1.0
 10
-5193.1261212373038
 20
-3885.6147972026824
 30
0.0
 41
0.9998335194753848
 10
-5193.1270624570416
 20
-3885.6067890216309
 30
0.0
 41
1.0
 10
-5193.1272219494149
 20
-3885.6054320124676
 30
0.0
 41
1.0
 10
-5193.1273814417891
 20
-3885.6040750033048
 30
0.0
 41
1.0
 10
-5193.1286416462763
 20
-3885.5933528039022
 30
0.0
 41
0.9996876620910233
 10
-5193.1304360382419
 20
-3885.5827069674929
 30
0.0
 41
1.0
 10
-5193.1306592046421
 20
-3885.5813829574481
 30
0.0
 41
1.0
 10
-5193.1308823710415
 20
-3885.5800589474034
 30
0.0
 41
1.0
 10
-5193.1322619523253
 20
-3885.5718741154619
 30
0.0
 41
0.9995547720046124
 10
-5193.1341272845148
 20
-3885.5637861457408
 30
0.0
 41
1.0
 10
-5193.1341646809706
 20
-3885.5636239969281
 30
0.0
 41
1.0
 10
-5193.1342020774255
 20
-3885.5634618481149
 30
0.0
 41
1.0
 10
-5193.1359926167042
 20
-3885.5556981760219
 30
0.0
 41
0.9994899668174738
 10
-5193.1382751075726
 20
-3885.5480646401011
 30
0.0
 41
1.0
 10
-5193.1383209615215
 20
-3885.547911286686
 30
0.0
 41
1.0
 10
-5193.1383668154713
 20
-3885.5477579332714
 30
0.0
 41
1.0
 10
-5193.1405575984427
 20
-3885.540431104173
 30
0.0
 41
0.9993785146170821
 10
-5193.1432591619514
 20
-3885.5332768390622
 30
0.0
 41
1.0
 10
-5193.1433123330153
 20
-3885.5331360317532
 30
0.0
 41
1.0
 10
-5193.1433655040792
 20
-3885.5329952244447
 30
0.0
 41
1.0
 10
-5193.1459607254601
 20
-3885.5261225739509
 30
0.0
 41
0.9992431118853924
 10
-5193.1490823789773
 20
-3885.5194724778503
 30
0.0
 41
1.0
 10
-5193.1491405934603
 20
-3885.5193484628362
 30
0.0
 41
1.0
 10
-5193.1491988079433
 20
-3885.5192244478221
 30
0.0
 41
1.0
 10
-5193.1522040324917
 20
-3885.5128223817592
 30
0.0
 41
0.9990789918262655
 10
-5193.155747095172
 20
-3885.5067015540894
 30
0.0
 41
1.0
 10
-5193.1558066697835
 20
-3885.5065986358049
 30
0.0
 41
1.0
 10
-5193.1558662443958
 20
-3885.5064957175209
 30
0.0
 41
1.0
 10
-5193.1592901578497
 20
-3885.5005807264229
 30
0.0
 41
0.9988875051344468
 10
-5193.1632560854523
 20
-3885.4950146037791
 30
0.0
 41
1.0
 10
-5193.1633116433022
 20
-3885.4949366291307
 30
0.0
 41
1.0
 10
-5193.1633672011531
 20
-3885.4948586544824
 30
0.0
 41
1.0
 10
-5193.1672220130549
 20
-3885.4894484811352
 30
0.0
 41
0.9986762224365523
 10
-5193.1716122601829
 20
-3885.484462974081
 30
0.0
 41
1.0
 10
-5193.1716566626874
 20
-3885.4844125511795
 30
0.0
 41
1.0
 10
-5193.1717010651919
 20
-3885.484362128278
 30
0.0
 41
1.0
 10
-5193.1760025073063
 20
-3885.4794774670322
 30
0.0
 41
0.9984621655765381
 10
-5193.1808182629884
 20
-3885.4750990178827
 30
0.0
 41
1.0
 10
-5193.1808429338707
 20
-3885.4750765873005
 30
0.0
 41
1.0
 10
-5193.1808676047522
 20
-3885.4750541567187
 30
0.0
 41
1.0
 10
-5193.185634018665
 20
-3885.4707205687391
 30
0.0
 41
0.9982724496031648
 10
-5193.1908758818499
 20
-3885.4669760318329
 30
0.0
 41
1.0
 10
-5193.1961177450339
 20
-3885.4632314949276
 30
0.0
 41
0.9981398739227929
 10
-5193.2017763682279
 20
-3885.4601527500686
 30
0.0
 41
1.0
 10
-5193.2017809260087
 20
-3885.4601502702699
 30
0.0
 41
1.0
 10
-5193.2017854837904
 20
-3885.4601477904716
 30
0.0
 41
1.0
 10
-5193.2074532225515
 20
-3885.4570640860129
 30
0.0
 41
0.9980926421988378
 10
-5193.2134577730822
 20
-3885.4547023348209
 30
0.0
 41
1.0
 10
-5193.2135017823384
 20
-3885.4546850247971
 30
0.0
 41
1.0
 10
-5193.2135457915938
 20
-3885.4546677147732
 30
0.0
 41
1.0
 10
-5193.2196383606479
 20
-3885.4522713435281
 30
0.0
 41
0.9981410540208242
 10
-5193.2259772251027
 20
-3885.4506340316611
 30
0.0
 41
1.0
 10
-5193.2260654306128
 20
-3885.4506112484119
 30
0.0
 41
1.0
 10
-5193.2261536361229
 20
-3885.4505884651626
 30
0.0
 41
1.0
 10
-5193.2326689116044
 20
-3885.4489055867953
 30
0.0
 41
0.9983030960921214
 10
-5193.2393356625071
 20
-3885.4479916247205
 30
0.0
 41
1.0
 10
-5193.2402227623734
 20
-3885.4478700099116
 30
0.0
 41
1.0
 10
-5193.2411098622397
 20
-3885.4477483951032
 30
0.0
 41
1.0
 10
-5193.2465448238363
 20
-3885.4470033022003
 30
0.0
 41
0.9983886844802522
 10
-5193.2520292087629
 20
-3885.4468788314516
 30
0.0
 41
1.0
 10
-5193.252835549315
 20
-3885.4468605311658
 30
0.0
 41
1.0
 10
-5193.2536418898671
 20
-3885.4468422308801
 30
0.0
 41
1.0
 10
-5193.2575135936986
 20
-3885.4467543607025
 30
0.0
 41
0.999886950157306
 10
-5193.2613861890131
 20
-3885.4467829484165
 30
0.0
 41
1.0
 10
-5193.2652587843277
 20
-3885.4468115361306
 30
0.0
 41
0.9999972318599666
 10
-5193.2691312022353
 20
-3885.4468583473563
 30
0.0
 41
1.0
 10
-5193.2710665039031
 20
-3885.4468817420016
 30
0.0
 41
1.0
 10
-5193.2730018055699
 20
-3885.4469051366468
 30
0.0
 41
1.0
 10
-5193.2807448267913
 20
-3885.4469987371631
 30
0.0
 41
0.9997304798883965
 10
-5193.2884751567308
 20
-3885.4474516588211
 30
0.0
 41
1.0
 10
-5193.2893801212513
 20
-3885.447504680883
 30
0.0
 41
1.0
 10
-5193.2902850857718
 20
-3885.4475577029443
 30
0.0
 41
1.0
 10
-5193.299825344734
 20
-3885.4481166687256
 30
0.0
 41
0.9997888193006748
 10
-5193.309334576642
 20
-3885.4490671908616
 30
0.0
 41
1.0
 10
-5193.3102066836382
 20
-3885.44915436478
 30
0.0
 41
1.0
 10
-5193.3110787906353
 20
-3885.4492415386981
 30
0.0
 41
1.0
 10
-5193.3223322365366
 20
-3885.4503664086706
 30
0.0
 41
0.9984169420424383
 10
-5193.3333881409108
 20
-3885.4527480794163
 30
0.0
 41
1.0
 10
-5193.3370262478111
 20
-3885.4535318029793
 30
0.0
 41
1.0
 10
-5193.3406643547114
 20
-3885.4543155265428
 30
0.0
 41
1.0
 10
-5193.3521834843077
 20
-3885.4567969855934
 30
0.0
 41
0.9976591779907577
 10
-5193.3632563009487
 20
-3885.4608269629261
 30
0.0
 41
1.0
 10
-5193.3743291175897
 20
-3885.4648569402602
 30
0.0
 41
0.9993254811592433
 10
-5193.3850762825086
 20
-3885.4696887548125
 30
0.0
 41
1.0
 10
-5193.3855388078809
 20
-3885.4698967014515
 30
0.0
 41
1.0
 10
-5193.3860013332524
 20
-3885.4701046480905
 30
0.0
 41
1.0
 10
-5193.3976735489168
 20
-3885.4753523559211
 30
0.0
 41
0.9976474370243762
 10
-5193.4085182497884
 20
-3885.4821473186885
 30
0.0
 41
1.0
 10
-5193.4103524993689
 20
-3885.4832966042013
 30
0.0
 41
1.0
 10
-5193.4121867489494
 20
-3885.4844458897146
 30
0.0
 41
1.0
 10
-5193.4206069813263
 20
-3885.4897217535836
 30
0.0
 41
0.9995131236052514
 10
-5193.4286817528255
 20
-3885.4955125322945
 30
0.0
 41
1.0
 10
-5193.4367565243256
 20
-3885.5013033110076
 30
0.0
 41
0.9995810047160868
 10
-5193.4444826773779
 20
-3885.5075516397342
 30
0.0
 41
1.0
 10
-5193.4447796863569
 20
-3885.5077918381517
 30
0.0
 41
1.0
 10
-5193.445076695336
 20
-3885.5080320365691
 30
0.0
 41
1.0
 10
-5193.4533968663509
 20
-3885.5147607621357
 30
0.0
 41
0.9996617808890742
 10
-5193.4613559239506
 20
-3885.5219129922502
 30
0.0
 41
1.0
 10
-5193.462569000264
 20
-3885.5230030963025
 30
0.0
 41
1.0
 10
-5193.4637820765774
 20
-3885.5240932003549
 30
0.0
 41
1.0
 10
-5193.4706096379805
 20
-3885.5302286365754
 30
0.0
 41
0.9997267741142993
 10
-5193.4771429888078
 20
-3885.5366764656133
 30
0.0
 41
1.0
 10
-5193.4836763396488
 20
-3885.5431242946634
 30
0.0
 41
0.9999667289017208
 10
-5193.490103631123
 20
-3885.5496778507181
 30
0.0
 41
1.0
 10
-5193.4969863773149
 20
-3885.5566958089303
 30
0.0
 41
1.0
 10
-5193.5038691235059
 20
-3885.563713767142
 30
0.0
 41
1.0
 10
-5193.5240619073757
 20
-3885.5843032396324
 30
0.0
 41
0.9988205409678612
 10
-5193.5421624216369
 20
-3885.6067542146861
 30
0.0
 41
1.0
 10
-5193.5452264418454
 20
-3885.6105546725225
 30
0.0
 41
1.0
 10
-5193.5482904620549
 20
-3885.6143551303589
 30
0.0
 41
1.0
 10
-5193.5725190167386
 20
-3885.644407021091
 30
0.0
 41
0.9997077867922233
 10
-5193.5952667829615
 20
-3885.6755948092405
 30
0.0
 41
1.0
 10
-5193.5954391389159
 20
-3885.6758311138051
 30
0.0
 41
1.0
 10
-5193.5956114948704
 20
-3885.6760674183697
 30
0.0
 41
1.0
 10
-5193.6187039730048
 20
-3885.7077278156517
 30
0.0
 41
0.9989147798577557
 10
-5193.6387502766329
 20
-3885.7413995992952
 30
0.0
 41
1.0
 10
-5193.6412244063677
 20
-3885.745555395928
 30
0.0
 41
1.0
 10
-5193.6436985361024
 20
-3885.7497111925613
 30
0.0
 41
1.0
 10
-5193.6592196822176
 20
-3885.775782067451
 30
0.0
 41
0.999747666893953
 10
-5193.6735541809712
 20
-3885.8025237697093
 30
0.0
 41
1.0
 10
-5193.6878886797249
 20
-3885.8292654719658
 30
0.0
 41
0.9996259088801696
 10
-5193.7007394896036
 20
-3885.8567509805034
 30
0.0
 41
1.0
 10
-5193.7020594836831
 20
-3885.8595742040106
 30
0.0
 41
1.0
 10
-5193.7033794777626
 20
-3885.8623974275179
 30
0.0
 41
1.0
 10
-5193.7174003589107
 20
-3885.8923855023645
 30
0.0
 41
0.9998735459705791
 10
-5193.730460493578
 20
-3885.922804289713
 30
0.0
 41
1.0
 10
-5193.7308047737133
 20
-3885.9236061638512
 30
0.0
 41
1.0
 10
-5193.7311490538486
 20
-3885.924408037989
 30
0.0
 41
1.0
 10
-5193.7435206282462
 20
-3885.9532230770656
 30
0.0
 41
0.9999377442721023
 10
-5193.755246108467
 20
-3885.9823070149469
 30
0.0
 41
1.0
 10
-5193.7669715886877
 20
-3886.0113909528282
 30
0.0
 41
0.9999508319134642
 10
-5193.7781179789445
 20
-3886.0407017070547
 30
0.0
 41
1.0
 10
-5193.7784260578501
 20
-3886.0415118370483
 30
0.0
 41
1.0
 10
-5193.7787341367548
 20
-3886.042321967042
 30
0.0
 41
1.0
 10
-5193.79049668483
 20
-3886.0732529812753
 30
0.0
 41
0.9999609244565367
 10
-5193.8017105416093
 20
-3886.1043871200127
 30
0.0
 41
1.0
 10
-5193.8020061443958
 20
-3886.1052078312405
 30
0.0
 41
1.0
 10
-5193.8023017471824
 20
-3886.1060285424678
 30
0.0
 41
1.0
 10
-5193.814106809541
 20
-3886.1388041036771
 30
0.0
 41
0.9999674621224004
 10
-5193.825381559057
 20
-3886.1717658532248
 30
0.0
 41
1.0
 10
-5193.830521397429
 20
-3886.186792179521
 30
0.0
 41
1.0
 10
-5193.8356612358011
 20
-3886.2018185058173
 30
0.0
 41
1.0
 10
-5193.8472623009429
 20
-3886.2357342396576
 30
0.0
 41
0.9999287563498412
 10
-5193.8580504413321
 20
-3886.2699172433349
 30
0.0
 41
1.0
 10
-5193.8626981670732
 20
-3886.2846438987526
 30
0.0
 41
1.0
 10
-5193.8673458928151
 20
-3886.2993705541703
 30
0.0
 41
1.0
 10
-5193.8688385819059
 20
-3886.3041002475952
 30
0.0
 41
0.9999998223422711
 10
-5193.8703256326025
 20
-3886.3088317165598
 30
0.0
 41
1.0
 10
-5194.0323912462818
 20
-3886.8236485701505
 30
0.0
 41
1.0
 10
-5194.1944568599611
 20
-3887.3384654237411
 30
0.0
 41
1.0
 10
-5194.28498770435
 20
-3887.3384654237411
 30
0.0
 41
1.0
 10
-5194.3755185487389
 20
-3887.3384654237411
 30
0.0
 41
1.0
 10
-5194.1903101076005
 20
-3886.7497422177735
 30
0.0
 41
1.0
 10
-5194.005101666462
 20
-3886.1610190118058
 30
0.0
 41
1.0
 10
-5194.0040894906315
 20
-3886.1578146032984
 30
0.0
 41
1.0
 10
-5193.9968287237461
 20
-3886.1347840226663
 30
0.0
 41
1.0
 10
-5193.989567956859
 20
-3886.1117534420264
 30
0.0
 41
0.9999825689787155
 10
-5193.9825796541945
 20
-3886.0886387279384
 30
0.0
 41
1.0
 10
-5193.9777505485008
 20
-3886.0726658368408
 30
0.0
 41
1.0
 10
-5193.9729214428071
 20
-3886.0566929457432
 30
0.0
 41
1.0
 10
-5193.9632062051724
 20
-3886.0245585418688
 30
0.0
 41
0.9999672543944367
 10
-5193.9540123246143
 20
-3885.9922711090821
 30
0.0
 41
1.0
 10
-5193.9537334367697
 20
-3885.9912916997364
 30
0.0
 41
1.0
 10
-5193.953454548925
 20
-3885.9903122903911
 30
0.0
 41
1.0
 10
-5193.944818444028
 20
-3885.9599836761972
 30
0.0
 41
0.9999899753812251
 10
-5193.936454283099
 20
-3885.9295789404036
 30
0.0
 41
1.0
 10
-5193.9354436922622
 20
-3885.9259053205797
 30
0.0
 41
1.0
 10
-5193.9344331014245
 20
-3885.9222317007561
 30
0.0
 41
1.0
 10
-5193.9280901221509
 20
-3885.8991742045459
 30
0.0
 41
0.9999214237772748
 10
-5193.9223271793071
 20
-3885.8759649389958
 30
0.0
 41
1.0
 10
-5193.9210505942992
 20
-3885.8708237114588
 30
0.0
 41
1.0
 10
-5193.9197740092923
 20
-3885.8656824839213
 30
0.0
 41
1.0
 10
-5193.9165642364487
 20
-3885.8527556733811
 30
0.0
 41
0.9999828689943896
 10
-5193.9135060112703
 20
-3885.8397921734013
 30
0.0
 41
1.0
 10
-5193.9104477860792
 20
-3885.8268286733714
 30
0.0
 41
0.9999389874494
 10
-5193.9076766879198
 20
-3885.8138007767998
 30
0.0
 41
1.0
 10
-5193.9069629131845
 20
-3885.8104450734277
 30
0.0
 41
1.0
 10
-5193.9062491384484
 20
-3885.8070893700556
 30
0.0
 41
1.0
 10
-5193.9020504908231
 20
-3885.7873500667665
 30
0.0
 41
0.9998933753083523
 10
-5193.8984300654756
 20
-3885.7674965719552
 30
0.0
 41
1.0
 10
-5193.8982927824081
 20
-3885.7667437464142
 30
0.0
 41
1.0
 10
-5193.8981554993406
 20
-3885.7659909208737
 30
0.0
 41
1.0
 10
-5193.8942605078591
 20
-3885.7446317749841
 30
0.0
 41
0.9996850468268839
 10
-5193.8914421414102
 20
-3885.7231040978631
 30
0.0
 41
1.0
 10
-5193.8912426379538
 20
-3885.721580220089
 30
0.0
 41
1.0
 10
-5193.8910431344975
 20
-3885.7200563423144
 30
0.0
 41
1.0
 10
-5193.8883023473109
 20
-3885.6991212429648
 30
0.0
 41
0.9994698219431965
 10
-5193.8869298913905
 20
-3885.6780521503406
 30
0.0
 41
1.0
 10
-5193.8868821845354
 20
-3885.6773197842667
 30
0.0
 41
1.0
 10
-5193.8868344776802
 20
-3885.6765874181924
 30
0.0
 41
1.0
 10
-5193.8855574354693
 20
-3885.6569830577209
 30
0.0
 41
0.9991805337881144
 10
-5193.885870267095
 20
-3885.6373396383983
 30
0.0
 41
1.0
 10
-5193.8858786550263
 20
-3885.6368129408356
 30
0.0
 41
1.0
 10
-5193.8858870429576
 20
-3885.6362862432725
 30
0.0
 41
1.0
 10
-5193.8861830987225
 20
-3885.6176962190875
 30
0.0
 41
0.9988448951525196
 10
-5193.8882622532856
 20
-3885.5992204575468
 30
0.0
 41
1.0
 10
-5193.8884216614933
 20
-3885.5978039259971
 30
0.0
 41
1.0
 10
-5193.8885810697011
 20
-3885.596387394447
 30
0.0
 41
1.0
 10
-5193.8903414078468
 20
-3885.580744696018
 30
0.0
 41
0.9985503953477518
 10
-5193.8937730350772
 20
-3885.5653818597193
 30
0.0
 41
1.0
 10
-5193.8945316353838
 20
-3885.5619857296792
 30
0.0
 41
1.0
 10
-5193.8952902356905
 20
-3885.5585895996392
 30
0.0
 41
1.0
 10
-5193.8972046623048
 20
-3885.5500190234416
 30
0.0
 41
0.9991037202979197
 10
-5193.8998371484722
 20
-3885.5416410868102
 30
0.0
 41
1.0
 10
-5193.9002353714659
 20
-3885.5403737346587
 30
0.0
 41
1.0
 10
-5193.9006335944605
 20
-3885.5391063825077
 30
0.0
 41
1.0
 10
-5193.9024696346387
 20
-3885.5332631501906
 30
0.0
 41
0.9998874553519391
 10
-5193.9044801554055
 20
-3885.5274776325987
 30
0.0
 41
1.0
 10
-5193.9064906761723
 20
-3885.5216921150081
 30
0.0
 41
0.9994041877140039
 10
-5193.9088955404986
 20
-3885.5160590842929
 30
0.0
 41
1.0
 10
-5193.9093152197775
 20
-3885.5150760490988
 30
0.0
 41
1.0
 10
-5193.9097348990563
 20
-3885.5140930139041
 30
0.0
 41
1.0
 10
-5193.9125227774111
 20
-3885.5075628307964
 30
0.0
 41
0.9991847120322346
 10
-5193.9158284130808
 20
-3885.5012788567392
 30
0.0
 41
1.0
 10
-5193.9159420770993
 20
-3885.5010627827942
 30
0.0
 41
1.0
 10
-5193.9160557411169
 20
-3885.5008467088492
 30
0.0
 41
1.0
 10
-5193.919134048745
 20
-3885.4949948826911
 30
0.0
 41
0.9989253452654171
 10
-5193.9227409911546
 20
-3885.4894532391068
 30
0.0
 41
1.0
 10
-5193.922846408188
 20
-3885.4892912782107
 30
0.0
 41
1.0
 10
-5193.9229518252214
 20
-3885.4891293173141
 30
0.0
 41
1.0
 10
-5193.9263479335596
 20
-3885.4839115955319
 30
0.0
 41
0.9986467398895812
 10
-5193.9302676488242
 20
-3885.4790748606051
 30
0.0
 41
1.0
 10
-5193.9303550674176
 20
-3885.4789669903803
 30
0.0
 41
1.0
 10
-5193.930442486012
 20
-3885.4788591201559
 30
0.0
 41
1.0
 10
-5193.9341873640869
 20
-3885.4742381256806
 30
0.0
 41
0.9984001187086898
 10
-5193.9384300371394
 20
-3885.4700695015526
 30
0.0
 41
1.0
 10
-5193.9384887575234
 20
-3885.4700118060373
 30
0.0
 41
1.0
 10
-5193.9385474779065
 20
-3885.4699541105224
 30
0.0
 41
1.0
 10
-5193.9426727101918
 20
-3885.4659008774242
 30
0.0
 41
0.9982442029717176
 10
-5193.9472483203244
 20
-3885.4623639250922
 30
0.0
 41
1.0
 10
-5193.9472698066547
 20
-3885.4623473161319
 30
0.0
 41
1.0
 10
-5193.947291292985
 20
-3885.462330707172
 30
0.0
 41
1.0
 10
-5193.9518239304534
 20
-3885.4588269727628
 30
0.0
 41
0.9982449713750728
 10
-5193.9567390283664
 20
-3885.4558837143959
 30
0.0
 41
1.0
 10
-5193.9616541262776
 20
-3885.4529404560308
 30
0.0
 41
0.9983922143217779
 10
-5193.9668707700994
 20
-3885.4505724221594
 30
0.0
 41
1.0
 10
-5193.9668934512265
 20
-3885.4505621263297
 30
0.0
 41
1.0
 10
-5193.9669161323545
 20
-3885.4505518304995
 30
0.0
 41
1.0
 10
-5193.9721781384342
 20
-3885.4481632049665
 30
0.0
 41
0.9986516610743479
 10
-5193.9776594462455
 20
-3885.446333039758
 30
0.0
 41
1.0
 10
-5193.9777272331266
 20
-3885.4463104062561
 30
0.0
 41
1.0
 10
-5193.9777950200078
 20
-3885.4462877727537
 30
0.0
 41
1.0
 10
-5193.9834119015923
 20
-3885.4444123405378
 30
0.0
 41
0.9989435110470053
 10
-5193.9891772478695
 20
-3885.4430605317725
 30
0.0
 41
1.0
 10
-5193.9892852560406
 20
-3885.4430352069462
 30
0.0
 41
1.0
 10
-5193.9893932642117
 20
-3885.4430098821199
 30
0.0
 41
1.0
 10
-5193.995374626842
 20
-3885.4416074236988
 30
0.0
 41
0.9992248850435057
 10
-5194.0014477825735
 20
-3885.4406798634568
 30
0.0
 41
1.0
 10
-5194.001589148982
 20
-3885.4406582723987
 30
0.0
 41
1.0
 10
-5194.0017305153915
 20
-3885.44063668134
 30
0.0
 41
1.0
 10
-5194.0080864039364
 20
-3885.4396659389827
 30
0.0
 41
0.9994396301711482
 10
-5194.0144930003298
 20
-3885.4391226317371
 30
0.0
 41
1.0
 10
-5194.0164070657092
 20
-3885.4389603106661
 30
0.0
 41
1.0
 10
-5194.0183211310887
 20
-3885.4387979895951
 30
0.0
 41
1.0
 10
-5194.0285558582418
 20
-3885.437930040207
 30
0.0
 41
0.998769273643573
 10
-5194.0388262225306
 20
-3885.4380803506701
 30
0.0
 41
1.0
 10
-5194.0398516533787
 20
-3885.4380953582181
 30
0.0
 41
1.0
 10
-5194.0408770842268
 20
-3885.4381103657661
 30
0.0
 41
1.0
 10
-5194.0518326640631
 20
-3885.4382707046025
 30
0.0
 41
0.9989753092341644
 10
-5194.0627288640608
 20
-3885.4394210365854
 30
0.0
 41
1.0
 10
-5194.0736250640612
 20
-3885.4405713685674
 30
0.0
 41
0.9983189203213623
 10
-5194.0843149343691
 20
-3885.4429749306992
 30
0.0
 41
1.0
 10
-5194.0852050349249
 20
-3885.443175065212
 30
0.0
 41
1.0
 10
-5194.0860951354807
 20
-3885.4433751997253
 30
0.0
 41
1.0
 10
-5194.0985652068985
 20
-3885.4461790308828
 30
0.0
 41
0.9985538719030955
 10
-5194.1106621638055
 20
-3885.4503055044329
 30
0.0
 41
1.0
 10
-5194.1108967161326
 20
-3885.4503855141393
 30
0.0
 41
1.0
 10
-5194.1111312684588
 20
-3885.4504655238461
 30
0.0
 41
1.0
 10
-5194.1236973300156
 20
-3885.4547520168089
 30
0.0
 41
0.9988468289790523
 10
-5194.1357943426583
 20
-3885.4602239643914
 30
0.0
 41
1.0
 10
-5194.1361126356524
 20
-3885.4603679406464
 30
0.0
 41
1.0
 10
-5194.1364309286464
 20
-3885.4605119169019
 30
0.0
 41
1.0
 10
-5194.1491645272763
 20
-3885.4662718169948
 30
0.0
 41
0.9991322605167015
 10
-5194.1613745634668
 20
-3885.4730715227993
 30
0.0
 41
1.0
 10
-5194.1631347670673
 20
-3885.4740517710516
 30
0.0
 41
1.0
 10
-5194.1648949706678
 20
-3885.4750320193043
 30
0.0
 41
1.0
 10
-5194.1751126559911
 20
-3885.4807221952478
 30
0.0
 41
0.9993859882431988
 10
-5194.1849067564017
 20
-3885.4871139706697
 30
0.0
 41
1.0
 10
-5194.18546858433
 20
-3885.4874806279217
 30
0.0
 41
1.0
 10
-5194.1860304122574
 20
-3885.4878472851738
 30
0.0
 41
1.0
 10
-5194.1947008568086
 20
-3885.4935057460902
 30
0.0
 41
0.9998821470964356
 10
-5194.2031934943898
 20
-3885.4994277301798
 30
0.0
 41
1.0
 10
-5194.211686131981
 20
-3885.5053497142758
 30
0.0
 41
0.9997976448865925
 10
-5194.2199336864296
 20
-3885.5116085188056
 30
0.0
 41
1.0
 10
-5194.221397317202
 20
-3885.5127192212522
 30
0.0
 41
1.0
 10
-5194.2228609479735
 20
-3885.5138299236983
 30
0.0
 41
1.0
 10
-5194.2340357639796
 20
-3885.5223101331303
 30
0.0
 41
0.9998091606782747
 10
-5194.2448707805861
 20
-3885.5312204013612
 30
0.0
 41
1.0
 10
-5194.2461713614284
 20
-3885.5322899450994
 30
0.0
 41
1.0
 10
-5194.2474719422717
 20
-3885.533359488837
 30
0.0
 41
1.0
 10
-5194.2609081205756
 20
-3885.5444088445506
 30
0.0
 41
0.9995035076963356
 10
-5194.2736216867552
 20
-3885.5562825290567
 30
0.0
 41
1.0
 10
-5194.2745864175977
 20
-3885.557183527997
 30
0.0
 41
1.0
 10
-5194.2755511484393
 20
-3885.5580845269369
 30
0.0
 41
1.0
 10
-5194.2878934767032
 20
-3885.5696114981884
 30
0.0
 41
0.9994630423474212
 10
-5194.299454317279
 20
-3885.5819221073689
 30
0.0
 41
1.0
 10
-5194.2998225920728
 20
-3885.5823142663148
 30
0.0
 41
1.0
 10
-5194.3001908668657
 20
-3885.5827064252603
 30
0.0
 41
1.0
 10
-5194.3110151578594
 20
-3885.5942327165526
 30
0.0
 41
0.9995160726553748
 10
-5194.321101760811
 20
-3885.6064097895633
 30
0.0
 41
1.0
 10
-5194.3212951260984
 20
-3885.6066432302205
 30
0.0
 41
1.0
 10
-5194.3214884913859
 20
-3885.6068766708781
 30
0.0
 41
1.0
 10
-5194.3311883637625
 20
-3885.6185868625735
 30
0.0
 41
0.9996561514895971
 10
-5194.3402609856312
 20
-3885.6307894707411
 30
0.0
 41
1.0
 10
-5194.3408767485598
 20
-3885.6316176672481
 30
0.0
 41
1.0
 10
-5194.3414925114885
 20
-3885.6324458637555
 30
0.0
 41
1.0
 10
-5194.3493336074989
 20
-3885.6429920789087
 30
0.0
 41
0.9998349084138655
 10
-5194.3567863356902
 20
-3885.6538162316979
 30
0.0
 41
1.0
 10
-5194.3642390638806
 20
-3885.6646403844857
 30
0.0
 41
0.9999728115043648
 10
-5194.371531350771
 20
-3885.6755732703759
 30
0.0
 41
1.0
 10
-5194.3716628736638
 20
-3885.6757704547158
 30
0.0
 41
1.0
 10
-5194.3717943965567
 20
-3885.6759676390557
 30
0.0
 41
1.0
 10
-5194.3793497292118
 20
-3885.6872948935943
 30
0.0
 41
0.9999972147994566
 10
-5194.3868515093436
 20
-3885.6986576855825
 30
0.0
 41
1.0
 10
-5194.3873486640678
 20
-3885.6994107156124
 30
0.0
 41
1.0
 10
-5194.3878458187919
 20
-3885.7001637456424
 30
0.0
 41
1.0
 10
-5194.3963419083357
 20
-3885.713032597635
 30
0.0
 41
0.999937199312638
 10
-5194.4045474387149
 20
-3885.726088636889
 30
0.0
 41
1.0
 10
-5194.4048983294406
 20
-3885.7266469485248
 30
0.0
 41
1.0
 10
-5194.4052492201663
 20
-3885.7272052601611
 30
0.0
 41
1.0
 10
-5194.4141565319769
 20
-3885.7413779226545
 30
0.0
 41
0.9998272069487446
 10
-5194.422530863575
 20
-3885.7558718916116
 30
0.0
 41
1.0
 10
-5194.4240523845237
 20
-3885.7585052811719
 30
0.0
 41
1.0
 10
-5194.4255739054734
 20
-3885.7611386707322
 30
0.0
 41
1.0
 10
-5194.4369912789634
 20
-3885.7808994188008
 30
0.0
 41
0.9995217358375673
 10
-5194.4471652336551
 20
-3885.801328178623
 30
0.0
 41
1.0
 10
-5194.4479295936408
 20
-3885.8028629728142
 30
0.0
 41
1.0
 10
-5194.4486939536264
 20
-3885.8043977670059
 30
0.0
 41
1.0
 10
-5194.457384489705
 20
-3885.821847901163
 30
0.0
 41
0.9998269822062165
 10
-5194.4654199363349
 20
-3885.8396092129633
 30
0.0
 41
1.0
 10
-5194.4734553829521
 20
-3885.8573705247354
 30
0.0
 41
0.9998944786522097
 10
-5194.4809714580597
 20
-3885.8753577761559
 30
0.0
 41
1.0
 10
-5194.4814668256968
 20
-3885.8765432755163
 30
0.0
 41
1.0
 10
-5194.4819621933339
 20
-3885.8777287748771
 30
0.0
 41
1.0
 10
-5194.4900269024101
 20
-3885.8970290010884
 30
0.0
 41
0.9999506753639847
 10
-5194.4977066552819
 20
-3885.9164856107664
 30
0.0
 41
1.0
 10
-5194.4991666514634
 20
-3885.9201845026846
 30
0.0
 41
1.0
 10
-5194.5006266476448
 20
-3885.9238833946024
 30
0.0
 41
1.0
 10
-5194.5053864081865
 20
-3885.9359422205225
 30
0.0
 41
0.999991239744282
 10
-5194.5100450525752
 20
-3885.9480404698379
 30
0.0
 41
1.0
 10
-5194.5147036969884
 20
-3885.9601387192183
 30
0.0
 41
0.9999927116918549
 10
-5194.5192698258224
 20
-3885.9722721884004
 30
0.0
 41
1.0
 10
-5194.5206666692593
 20
-3885.9759839883536
 30
0.0
 41
1.0
 10
-5194.5220635126961
 20
-3885.9796957883063
 30
0.0
 41
1.0
 10
-5194.5294233284149
 20
-3885.9992528574226
 30
0.0
 41
0.9999487572276603
 10
-5194.5363856884414
 20
-3886.0189549228635
 30
0.0
 41
1.0
 10
-5194.5387450496855
 20
-3886.0256314362086
 30
0.0
 41
1.0
 10
-5194.5411044109305
 20
-3886.0323079495543
 30
0.0
 41
1.0
 10
-5194.5505729763381
 20
-3886.0591020674328
 30
0.0
 41
0.9999808445121323
 10
-5194.559709135201
 20
-3886.0860113425065
 30
0.0
 41
1.0
 10
-5194.568845294084
 20
-3886.112920617642
 30
0.0
 41
0.9999873938396671
 10
-5194.5777107635095
 20
-3886.1399202831526
 30
0.0
 41
1.0
 10
-5194.5797199999106
 20
-3886.1460393850452
 30
0.0
 41
1.0
 10
-5194.5817292363108
 20
-3886.1521584869379
 30
0.0
 41
1.0
 10
-5194.5946131785404
 20
-3886.1913963562392
 30
0.0
 41
0.9999794892108007
 10
-5194.6069934545148
 20
-3886.2307960405428
 30
0.0
 41
1.0
 10
-5194.6081086813165
 20
-3886.2343452008363
 30
0.0
 41
1.0
 10
-5194.6092239081181
 20
-3886.2378943611293
 30
0.0
 41
1.0
 10
-5194.6234797253273
 20
-3886.2832628730057
 30
0.0
 41
0.9999982762426725
 10
-5194.6375669693307
 20
-3886.3286840107148
 30
0.0
 41
1.0
 10
-5194.7963810025885
 20
-3886.8335747172277
 30
0.0
 41
1.0
 10
-5194.9551950358455
 20
-3887.3384654237411
 30
0.0
 41
1.0
 10
-5195.0500700969933
 20
-3887.3384654237411
 30
0.0
 41
1.0
 10
-5195.1449451581402
 20
-3887.3384654237411
 30
0.0
 41
1.0
 10
-5194.8211167095251
 20
-3886.3057051118772
 30
0.0
 41
1.0
 10
-5194.49728826091
 20
-3885.2729448000132
 30
0.0
 41
1.0
  0
LWPOLYLINE
  5
4C
100
AcDbEntity
  8
0
370
              15
390
0
  6
Continuous
 62
               7
100
AcDbPolyline
 90
      232
 70
             128
 10
-5197.0676428382922
 20
-3885.3813820327405
 42
0.0004370769952919
 10
-5197.0729305556188
 20
-3885.3882488833442
 10
-5197.0768589788122
 20
-3885.3933597337582
 42
0.0030481769360392
 10
-5197.0898928484221
 20
-3885.410532367297
 10
-5197.0937440176986
 20
-3885.4156711882597
 42
0.0042057906268466
 10
-5197.1141425183669
 20
-3885.4433725101844
 10
-5197.1193830350157
 20
-3885.450615997971
 42
0.0120947720050655
 10
-5197.148987409154
 20
-3885.4936921032413
 10
-5197.1586066548116
 20
-3885.5084405714097
 42
0.0141599515007212
 10
-5197.1889710812957
 20
-3885.5580088867905
 10
-5197.192924801092
 20
-3885.5648934587039
 42
0.0071130058960511
 10
-5197.2134520403633
 20
-3885.6018447557867
 42
0.006845772049774
 10
-5197.2329399872897
 20
-3885.6393549209747
 10
-5197.2336211792936
 20
-3885.640711140702
 42
0.0064119803432691
 10
-5197.2534353990186
 20
-3885.6814546852311
 10
-5197.2541888728492
 20
-3885.6830559256769
 42
0.0058856187207749
 10
-5197.2744644072445
 20
-3885.7274947347119
 10
-5197.2752819046655
 20
-3885.7293438112092
 42
0.0053188745698629
 10
-5197.2961523316644
 20
-3885.7779414702554
 10
-5197.2970271165013
 20
-3885.7800397253886
 42
0.004750272368542
 10
-5197.3186244853077
 20
-3885.8332611067244
 10
-5197.3195513139508
 20
-3885.8356088178416
 42
0.0042070913405872
 10
-5197.3420060489634
 20
-3885.8939197544009
 10
-5197.3429809925583
 20
-3885.8965164514698
 42
0.0036679325739547
 10
-5197.3664264539166
 20
-3885.9603817188226
 10
-5197.3674472348739
 20
-3885.963226657926
 42
0.0032572451488922
 10
-5197.3920104607887
 20
-3886.0331138170914
 10
-5197.398875512501
 20
-3886.0530606669859
 42
0.0026132801807042
 10
-5197.4337200354312
 20
-3886.1560498056106
 10
-5197.4400457127022
 20
-3886.1750734021584
 42
0.0020592499278469
 10
-5197.4614320210776
 20
-3886.240285545688
 10
-5197.4617371985223
 20
-3886.2412292150279
 42
0.0025609359742514
 10
-5197.4819192503419
 20
-3886.3047454701245
 10
-5197.482178385193
 20
-3886.305575720839
 42
0.0031361648611493
 10
-5197.5011274656226
 20
-3886.3676537009883
 10
-5197.5013405679574
 20
-3886.3683678444731
 42
0.0037229062844517
 10
-5197.5190206086081
 20
-3886.4292680377639
 10
-5197.5191884655187
 20
-3886.4298627358362
 42
0.0043076614494109
 10
-5197.535562547735
 20
-3886.4898462477317
 42
0.0047653022221078
 10
-5197.5508454181499
 20
-3886.5501164884768
 10
-5197.5542918808706
 20
-3886.5642730588033
 42
0.0112966579170057
 10
-5197.5738783121587
 20
-3886.6534446773185
 10
-5197.5766789555946
 20
-3886.6677278935258
 42
0.0130053453241863
 10
-5197.5967626799593
 20
-3886.7864252293489
 10
-5197.5988166527823
 20
-3886.8008334172382
 42
0.0138717857711908
 10
-5197.6091869554275
 20
-3886.8915188479059
 10
-5197.6111165039974
 20
-3886.913869225486
 42
0.0071252779096868
 10
-5197.6144511688108
 20
-3886.9601891888688
 10
-5197.6149472662
 20
-3886.9687898217926
 42
0.0028881017872283
 10
-5197.6164610955566
 20
-3886.997964786834
 42
0.0060295660914402
 10
-5197.6174543155194
 20
-3887.0271604739305
 10
-5197.6175605437429
 20
-3887.031999845336
 42
0.0229516934674447
 10
-5197.6167874409221
 20
-3887.0642762059888
 10
-5197.616364863391
 20
-3887.07031672625
 42
0.0123669997828689
 10
-5197.6144569989174
 20
-3887.0904293432932
 42
0.012857432448068
 10
-5197.6115374591891
 20
-3887.110419676027
 10
-5197.6108248725386
 20
-3887.1145526659179
 42
0.0285710886702
 10
-5197.6043754668781
 20
-3887.1423650563106
 10
-5197.6030086094797
 20
-3887.1470306773413
 42
0.0316276512737248
 10
-5197.5914275620107
 20
-3887.178932959373
 10
-5197.5911226732978
 20
-3887.1796316603827
 42
0.0338979536804292
 10
-5197.5761795217386
 20
-3887.208388994251
 10
-5197.5759486193601
 20
-3887.2087681558364
 42
0.0350225578179855
 10
-5197.557712619735
 20
-3887.2344740051785
 10
-5197.5576240572145
 20
-3887.2345819614111
 42
0.0347476202837358
 10
-5197.5361816258328
 20
-3887.2573010385895
 42
0.033133960864614
 10
-5197.5118572482615
 20
-3887.2769144699032
 10
-5197.5117472834063
 20
-3887.2769917107162
 42
0.0305237058951692
 10
-5197.4848927726689
 20
-3887.2935049988791
 10
-5197.4845698093995
 20
-3887.2936773827746
 42
0.0273749269287486
 10
-5197.4553144041511
 20
-3887.3072915811285
 10
-5197.4548039847286
 20
-3887.3074959314854
 42
0.0240969557126141
 10
-5197.4232562512698
 20
-3887.3183946081363
 10
-5197.4225979442426
 20
-3887.3185870797688
 42
0.0209641219971955
 10
-5197.3888579108798
 20
-3887.3269341252876
 10
-5197.3880946829322
 20
-3887.3270893171293
 42
0.0181393371628646
 10
-5197.3522624322559
 20
-3887.3330310895494
 10
-5197.3514343588949
 20
-3887.3331377093537
 42
0.0156090712042423
 10
-5197.3136156162718
 20
-3887.3368114283467
 10
-5197.3092960953763
 20
-3887.3370952860309
 42
0.0137152047247259
 10
-5197.2765287827133
 20
-3887.3383473454901
 10
-5197.2719351637043
 20
-3887.3383967901468
 42
0.0051059212425003
 10
-5197.248320605062
 20
-3887.3384098159418
 42
0.0052258113490915
 10
-5197.2247108769561
 20
-3887.3379349205861
 10
-5197.2176881983087
 20
-3887.3377202181364
 42
0.0161511535241965
 10
-5197.1801144946267
 20
-3887.3353551171654
 10
-5197.1781131944608
 20
-3887.3351640920464
 42
0.0101219417539438
 10
-5197.1367104775163
 20
-3887.330364669172
 10
-5197.1333051433694
 20
-3887.3298998861383
 42
0.0245297991039123
 10
-5197.0856262005364
 20
-3887.3209921414436
 10
-5197.0771438603142
 20
-3887.3189724924091
 42
0.0143512589373589
 10
-5197.0414807358684
 20
-3887.3093917650822
 42
0.0156561258629602
 10
-5197.0064591471228
 20
-3887.297690331759
 10
-5197.0057090079454
 20
-3887.2974133015014
 42
0.0170140636124257
 10
-5196.9700494311483
 20
-3887.2828471540224
 10
-5196.9693390161365
 20
-3887.2825283515758
 42
0.0183108392261014
 10
-5196.9334040771846
 20
-3887.2647943800594
 10
-5196.9327093728562
 20
-3887.2644193113265
 42
0.0194902510625286
 10
-5196.8968613312654
 20
-3887.2432208574969
 10
-5196.8961599108243
 20
-3887.2427682899834
 42
0.0204871724907409
 10
-5196.8607585166519
 20
-3887.2178156374212
 10
-5196.8600319197558
 20
-3887.2172575880295
 42
0.0212517949405686
 10
-5196.8254329645824
 20
-3887.188266434393
 10
-5196.8207812889441
 20
-3887.1840195821774
 42
0.0215248946682393
 10
-5196.7947786403493
 20
-3887.1581424214537
 10
-5196.7902756767198
 20
-3887.1532578870952
 42
0.0114578160059607
 10
-5196.7747964515438
 20
-3887.1356751048443
 10
-5196.7736770021756
 20
-3887.1343431972946
 42
0.0061530976858137
 10
-5196.7610295333452
 20
-3887.1189138192394
 42
0.0006325548981908
 10
-5196.7485916853684
 20
-3887.1033130578703
 10
-5196.7462876714253
 20
-3887.1004156264412
 42
0.0041897486244881
 10
-5196.7294421347196
 20
-3887.0788631073956
 10
-5196.7235959190384
 20
-3887.0712527608844
 42
0.0092993137675215
 10
-5196.6959347393458
 20
-3887.0338238847366
 10
-5196.6876953059937
 20
-3887.0222298914819
 42
0.0159320045085509
 10
-5196.6530346287327
 20
-3886.9700110082103
 10
-5196.6485990250512
 20
-3886.9628428727365
 42
0.0085546208161074
 10
-5196.6251478386603
 20
-3886.9234542904851
 42
0.0084599925205454
 10
-5196.6030502292406
 20
-3886.8832905288527
 10
-5196.6022386735331
 20
-3886.8817545030884
 42
0.0081428347340335
 10
-5196.5799137542099
 20
-3886.8377811715659
 10
-5196.5790277300712
 20
-3886.8359632220745
 42
0.0076573248583297
 10
-5196.5563869860107
 20
-3886.7876436357669
 10
-5196.5554390149418
 20
-3886.7855371150899
 42
0.0070681409190092
 10
-5196.5323945304062
 20
-3886.7323319523862
 10
-5196.5313954957637
 20
-3886.7299329532352
 42
0.0064558245769545
 10
-5196.5078621804805
 20
-3886.6713001460489
 10
-5196.5068212391288
 20
-3886.6686065659142
 42
0.0058310215490272
 10
-5196.4827165703
 20
-3886.6040016126422
 10
-5196.4816410577132
 20
-3886.6010130837653
 42
0.0052311310476311
 10
-5196.4568829341688
 20
-3886.5298909204666
 10
-5196.4557785462712
 20
-3886.5266081473037
 42
0.0046679519145014
 10
-5196.4302857071962
 20
-3886.4484234007546
 10
-5196.4260864911257
 20
-3886.435124711913
 42
0.0041665917985462
 10
-5196.4057578872544
 20
-3886.3688260227045
 10
-5196.4019916437874
 20
-3886.3561675696346
 42
0.0015170628139443
 10
-5196.3898729853463
 20
-3886.3149796121261
 42
-0.0004887881092375
 10
-5196.3778390077787
 20
-3886.2737666490248
 10
-5196.3701912822853
 20
-3886.2476702014601
 42
0.0002583319738183
 10
-5196.3428698260695
 20
-3886.1542619930779
 10
-5196.3346925407468
 20
-3886.1262513039574
 42
0.000663601718274
 10
-5196.3153057643194
 20
-3886.0595141948384
 10
-5196.3147960993574
 20
-3886.0577509902241
 42
0.0010588887049854
 10
-5196.2966512287931
 20
-3885.9944761331608
 10
-5196.296153022523
 20
-3885.9927247975556
 42
0.0015655160953958
 10
-5196.2793260010276
 20
-3885.9328614985734
 10
-5196.2788429819675
 20
-3885.9311222389038
 42
0.002163993346797
 10
-5196.2634139837864
 20
-3885.8746179966106
 10
-5196.2629505629684
 20
-3885.8728914808398
 42
0.0028763190087823
 10
-5196.2489989900387
 20
-3885.8196932345309
 10
-5196.2485604048497
 20
-3885.8179807949282
 42
0.0037309614931623
 10
-5196.2361647344378
 20
-3885.7680346721609
 10
-5196.2357572137034
 20
-3885.7663386042882
 42
0.0047651031992233
 10
-5196.224994822358
 20
-3885.719589550461
 10
-5196.2246257636616
 20
-3885.7179135549713
 42
0.0060275195384533
 10
-5196.2155727525114
 20
-3885.6743047836517
 10
-5196.2152508846211
 20
-3885.6726546231703
 42
0.0075822404074177
 10
-5196.2079819525406
 20
-3885.6321267985045
 10
-5196.2077174156921
 20
-3885.630511265249
 42
0.0095128142945109
 10
-5196.2023058912391
 20
-3885.5930013042089
 10
-5196.2016072692841
 20
-3885.5874077997223
 42
0.012105142693961
 10
-5196.1989481357923
 20
-3885.5609174928459
 10
-5196.1988614869015
 20
-3885.5597771186513
 42
0.0069048963762129
 10
-5196.1973526050133
 20
-3885.5354823340126
 10
-5196.1972390750725
 20
-3885.5331296448448
 42
0.0169059382471222
 10
-5196.1969563471484
 20
-3885.5135098379096
 10
-5196.1970734123024
 20
-3885.5074760976036
 42
0.0052006320312534
 10
-5196.1972987571608
 20
-3885.4999165530116
 42
0.0054036732562334
 10
-5196.1992951085458
 20
-3885.4879143958074
 10
-5196.1998036939312
 20
-3885.4850484703293
 42
0.0112047649275829
 10
-5196.2033421310625
 20
-3885.4674153427363
 10
-5196.2051246263418
 20
-3885.4594609718242
 42
0.0240758847775508
 10
-5196.2142143700949
 20
-3885.4264363482002
 10
-5196.2160702508736
 20
-3885.4207741639639
 42
0.0256807162134825
 10
-5196.2304065312564
 20
-3885.3836007676928
 10
-5196.2309474917593
 20
-3885.3823875610033
 42
0.0268356238670183
 10
-5196.2478901979239
 20
-3885.349287387442
 10
-5196.2484438627944
 20
-3885.3483353530632
 42
0.0274667275526054
 10
-5196.267663936329
 20
-3885.3191058619582
 10
-5196.2682020952871
 20
-3885.3183778882262
 42
0.0275034573760694
 10
-5196.2893593542813
 20
-3885.2928256433315
 10
-5196.2898663358928
 20
-3885.292277685603
 42
0.0269557894318462
 10
-5196.312606658722
 20
-3885.2702128908882
 10
-5196.313080995903
 20
-3885.2697998568642
 42
0.0259126486243132
 10
-5196.3370364476432
 20
-3885.2510303209465
 10
-5196.3374895610532
 20
-3885.2507117417349
 42
0.0245165009838101
 10
-5196.3622811674704
 20
-3885.2350380348003
 10
-5196.3627338468614
 20
-3885.2347819941124
 42
0.0229286274498329
 10
-5196.387975777785
 20
-3885.2219948410452
 10
-5196.3884538470238
 20
-3885.2217795962752
 42
0.0212988327590866
 10
-5196.4137576224148
 20
-3885.2116594382137
 10
-5196.4142880657946
 20
-3885.2114730716398
 42
0.019755990429154
 10
-5196.4392658846846
 20
-3885.2037913261229
 42
0.0183516400780505
 10
-5196.4647587682575
 20
-3885.1980328767231
 10
-5196.4733952890329
 20
-3885.1964125534041
 42
0.0338066798165572
 10
-5196.5019460118292
 20
-3885.1930316232019
 10
-5196.511046552665
 20
-3885.1925736452013
 42
0.0091993021616366
 10
-5196.5216312631965
 20
-3885.1922360504432
 42
0.002833475158804
 10
-5196.5322226547578
 20
-3885.192153237439
 10
-5196.5323142001007
 20
-3885.1921530404511
 42
-0.0023620470890361
 10
-5196.5430888015717
 20
-3885.1920789543287
 10
-5196.5467293186293
 20
-3885.192036722533
 42
0.0008824838631564
 10
-5196.5647849175866
 20
-3885.1918591398789
 10
-5196.5691710608553
 20
-3885.1918237427631
 42
0.0038133702904848
 10
-5196.595999350473
 20
-3885.1918118488334
 10
-5196.5976527159219
 20
-3885.1918237257705
 42
0.0060667218075067
 10
-5196.6277807646966
 20
-3885.1924057715328
 10
-5196.6292057982837
 20
-3885.1924506035612
 42
0.0080359128908055
 10
-5196.6621516685391
 20
-3885.1940174182987
 10
-5196.663358671427
 20
-3885.194094278771
 42
0.0098999054162103
 10
-5196.6986349767494
 20
-3885.1970428815694
 10
-5196.6996395508295
 20
-3885.1971469143446
 42
0.0117744080967612
 10
-5196.7367552307287
 20
-3885.2018762668408
 10
-5196.7375775063119
 20
-3885.2020007827837
 42
0.013743871858338
 10
-5196.7760363783173
 20
-3885.2089106660237
 10
-5196.7767020921729
 20
-3885.2090492614871
 42
0.0158363700485859
 10
-5196.8160017862365
 20
-3885.2185387242398
 10
-5196.8165431202397
 20
-3885.2186877265958
 42
0.0180558148725225
 10
-5196.8561746026971
 20
-3885.2311518594502
 10
-5196.8566303035095
 20
-3885.2313134752767
 42
0.0203661431806769
 10
-5196.8960780256093
 20
-3885.2471399265851
 10
-5196.8964924091906
 20
-3885.2473261071282
 42
0.0226823343525306
 10
-5196.9352359772802
 20
-3885.266890876032
 10
-5196.9356559939133
 20
-3885.2671274627992
 42
0.0248637894929667
 10
-5196.9731741437545
 20
-3885.2907907399481
 10
-5196.9779936406621
 20
-3885.2941765390574
 42
0.0267045909272234
 10
-5197.0054229506022
 20
-3885.3157211909497
 42
0.0139303292044517
 10
-5197.0310396483555
 20
-3885.3394457019158
 10
-5197.0315250057683
 20
-3885.3399209995805
 42
0.0283460253178864
 10
-5197.0559322301333
 20
-3885.3666947507631
 10
-5197.0598991157058
 20
-3885.3715750843876
 42
0.0070694945518084
 10
-5197.0676428382922
 20
-3885.3813820327405
 42
0.0070694945518084
  0
LWPOLYLINE
  5
4D
100
AcDbEntity
  8
0
370
              15
390
0
  6
Continuous
 62
               7
100
AcDbPolyline
 90
      226
 70
             128
 10
-5197.4205248820163
 20
-3886.9535836784444
 42
-0.0026276923641032
 10
-5197.4205326703968
 20
-3886.9469063045185
 10
-5197.420510934573
 20
-3886.9415906379063
 42
-0.0088677887324404
 10
-5197.4201332729299
 20
-3886.9242885886642
 10
-5197.4198986370329
 20
-3886.9183604252407
 42
-0.0077379613617167
 10
-5197.4182940258597
 20
-3886.8892335820165
 10
-5197.4182072348394
 20
-3886.8880047265939
 42
-0.0068870683867981
 10
-5197.4155440266677
 20
-3886.856481691947
 10
-5197.4154236044451
 20
-3886.8552575627373
 42
-0.0062128372796765
 10
-5197.411664232458
 20
-3886.821369669366
 10
-5197.4115138424095
 20
-3886.820152251531
 42
-0.0056725442094185
 10
-5197.4066216560268
 20
-3886.7839317411458
 10
-5197.406444311895
 20
-3886.7827223311724
 42
-0.0052340529769637
 10
-5197.4003832527187
 20
-3886.7442019545629
 10
-5197.4001814543917
 20
-3886.7430014321826
 42
-0.0049767179961078
 10
-5197.3929075855394
 20
-3886.7022158622831
 10
-5197.3904826847765
 20
-3886.6893607180705
 42
-0.0089027583613238
 10
-5197.3767745967343
 20
-3886.6231813605209
 10
-5197.3735000620654
 20
-3886.6086778356398
 42
-0.0080316315733946
 10
-5197.3505451957253
 20
-3886.5141042810992
 10
-5197.3493467079861
 20
-3886.5094911109809
 42
-0.0074263986849931
 10
-5197.3209455479064
 20
-3886.4064818299807
 10
-5197.3189575931419
 20
-3886.3996682370348
 42
-0.0069710353203357
 10
-5197.286227141939
 20
-3886.293038585377
 10
-5197.280231943445
 20
-3886.274435931794
 42
-0.0052069290615459
 10
-5197.2572894247023
 20
-3886.2057068663471
 10
-5197.2555613048871
 20
-3886.2007040004728
 42
-0.0009166808836
 10
-5197.2352521167559
 20
-3886.1422568275802
 42
-0.0025162195788076
 10
-5197.214542351926
 20
-3886.0839511102045
 10
-5197.2108198901306
 20
-3886.073635873327
 42
-0.002821209646312
 10
-5197.1860023006529
 20
-3886.0060609787251
 10
-5197.1850192216907
 20
-3886.0034301555056
 42
-0.0031964267799735
 10
-5197.1613899986114
 20
-3885.9414079994349
 10
-5197.1604265502365
 20
-3885.938926925272
 42
-0.0036281118047827
 10
-5197.1379159571025
 20
-3885.8821813213203
 10
-5197.1369721127412
 20
-3885.87985150654
 42
-0.0041268373759468
 10
-5197.1155103464207
 20
-3885.8281060176828
 10
-5197.1122470478513
 20
-3885.8204179570293
 42
-0.0047471333738073
 10
-5197.0965425702234
 20
-3885.7843748367368
 10
-5197.0958531605338
 20
-3885.7828327315488
 42
-0.0025651199981504
 10
-5197.081017358717
 20
-3885.7500990391009
 42
-0.0057143649736308
 10
-5197.0656423855753
 20
-3885.7176171805095
 10
-5197.0628393137067
 20
-3885.7118661831137
 42
-0.0065387009843456
 10
-5197.0444926160253
 20
-3885.6754419531289
 10
-5197.0436467646359
 20
-3885.6738159397923
 42
-0.0074509729696686
 10
-5197.0260285458608
 20
-3885.6411462342098
 10
-5197.0252105722284
 20
-3885.6396821048811
 42
-0.0084647839989272
 10
-5197.0082471934966
 20
-3885.6104904215254
 10
-5197.0074615733956
 20
-3885.6091896746407
 42
-0.0095637421180501
 10
-5196.9910780360888
 20
-3885.5832000928444
 10
-5196.9903305333346
 20
-3885.582063113015
 42
-0.0107190586948929
 10
-5196.9744503836828
 20
-3885.5590013750207
 10
-5196.973748701027
 20
-3885.5580277264198
 42
-0.0118457700819917
 10
-5196.9582939004586
 20
-3885.5376199646626
 42
-0.0129183905202332
 10
-5196.9418486263812
 20
-3885.5180033661945
 10
-5196.9388341409276
 20
-3885.5145906561738
 42
-0.0217742362653427
 10
-5196.9211729286289
 20
-3885.4962695033664
 10
-5196.9200983655801
 20
-3885.4952477840748
 42
-0.0097266804615631
 10
-5196.9034926122968
 20
-3885.480062621763
 42
-0.0187721935910816
 10
-5196.8860578367485
 20
-3885.4658553364293
 10
-5196.8829872348861
 20
-3885.4635393630856
 42
-0.0179429880584243
 10
-5196.8597451836413
 20
-3885.4472837188619
 10
-5196.8593799321179
 20
-3885.4470473067536
 42
-0.0170050053138397
 10
-5196.8358035871961
 20
-3885.432900882734
 10
-5196.8354252718236
 20
-3885.4326910373716
 42
-0.0160193325848863
 10
-5196.8117344335578
 20
-3885.420525585414
 42
-0.015110565150851
 10
-5196.787331240409
 20
-3885.4098570116289
 10
-5196.7820926050917
 20
-3885.4077529470933
 42
-0.0271951299421361
 10
-5196.7462263163388
 20
-3885.3955661253294
 10
-5196.739319845994
 20
-3885.3936311212883
 42
-0.0237602403440474
 10
-5196.6977401844351
 20
-3885.384085796934
 10
-5196.690933890236
 20
-3885.3828602931976
 42
-0.0213721036845001
 10
-5196.6623464059176
 20
-3885.3789654856937
 10
-5196.6563316879701
 20
-3885.3784064988954
 42
-0.0101468386247722
 10
-5196.639582436097
 20
-3885.37719211166
 10
-5196.6386483969527
 20
-3885.3771434188084
 42
-0.0100378635171173
 10
-5196.6237329874202
 20
-3885.3766658240525
 10
-5196.6227070605673
 20
-3885.3766535798195
 42
-0.0103628451023227
 10
-5196.6098362609873
 20
-3885.3767667262482
 10
-5196.6076096964016
 20
-3885.3768324638668
 42
-0.0115692378831976
 10
-5196.5992046221072
 20
-3885.377275426556
 42
-0.0072439975896162
 10
-5196.5908207947396
 20
-3885.3780343671142
 10
-5196.5891407432164
 20
-3885.3782110262528
 42
-0.0217922976983597
 10
-5196.5774837709023
 20
-3885.3799530621291
 10
-5196.5709237763831
 20
-3885.3812277548177
 42
-0.0332951412115354
 10
-5196.5504845413252
 20
-3885.386631934552
 10
-5196.5474672938171
 20
-3885.3876487667726
 42
-0.0184827848746783
 10
-5196.5336167788237
 20
-3885.3928940141359
 42
-0.019800549162619
 10
-5196.5202093556773
 20
-3885.3991825855587
 10
-5196.5200206810359
 20
-3885.3992803725578
 42
-0.0212245257067376
 10
-5196.5068067996244
 20
-3885.406856844425
 10
-5196.5066252572415
 20
-3885.4069714358602
 42
-0.0226092736919581
 10
-5196.4937748814536
 20
-3885.4159196326395
 10
-5196.493590422946
 20
-3885.4160608727552
 42
-0.0238458139060346
 10
-5196.4812722299239
 20
-3885.4264607311852
 10
-5196.481076941961
 20
-3885.4266422379396
 42
-0.0248160388275783
 10
-5196.4694568061022
 20
-3885.4385700056419
 10
-5196.4692464278905
 20
-3885.4388085623641
 42
-0.0254108038296288
 10
-5196.4584859196584
 20
-3885.4523377500223
 10
-5196.4582611039123
 20
-3885.4526519323508
 42
-0.0255525589640551
 10
-5196.4485164473381
 20
-3885.4678550315139
 10
-5196.4482833260408
 20
-3885.468263223574
 42
-0.0252142736674594
 10
-5196.4397052319628
 20
-3885.4852138900628
 10
-5196.4394749995245
 20
-3885.485732131533
 42
-0.0244260728027196
 10
-5196.4322095358129
 20
-3885.5045072823641
 10
-5196.4312848935015
 20
-3885.5072939065208
 42
-0.0231314249017035
 10
-5196.4266926121018
 20
-3885.5236244659518
 42
-0.0112127629060771
 10
-5196.4232290106065
 20
-3885.5402452739731
 10
-5196.4231087573371
 20
-3885.5408949544299
 42
-0.0210522385582881
 10
-5196.4205401103754
 20
-3885.5590010056744
 10
-5196.4201890503182
 20
-3885.5625416626353
 42
-0.019002476537973
 10
-5196.4186449030367
 20
-3885.5878959337365
 10
-5196.4185639053194
 20
-3885.5914435948544
 42
-0.0137970802193414
 10
-5196.4187187906091
 20
-3885.6239476198771
 10
-5196.4188033361406
 20
-3885.6265595664854
 42
-0.0081334432529657
 10
-5196.4202892696203
 20
-3885.6570951425192
 42
-0.0073524948900025
 10
-5196.4227201231424
 20
-3885.6875707978666
 10
-5196.4228462653355
 20
-3885.6889044996528
 42
-0.0066884361427748
 10
-5196.4264198242545
 20
-3885.7219640058297
 10
-5196.4265855328877
 20
-3885.7233262021982
 42
-0.0061357577335742
 10
-5196.4313705935538
 20
-3885.7590035738049
 10
-5196.4315743431998
 20
-3885.760393088739
 42
-0.0056697143225833
 10
-5196.4376393768998
 20
-3885.7987219918623
 10
-5196.4378799196093
 20
-3885.8001379386365
 42
-0.0052719734074606
 10
-5196.4452931404749
 20
-3885.8411517923105
 10
-5196.4455694545732
 20
-3885.842593490966
 42
-0.0049288036530445
 10
-5196.454398867344
 20
-3885.8863255361534
 10
-5196.4547101158514
 20
-3885.887792456806
 42
-0.0047414788263893
 10
-5196.4650339161717
 20
-3885.9342734018937
 10
-5196.4685107360401
 20
-3885.949254513901
 42
-0.0084402445304458
 10
-5196.4875123847833
 20
-3886.0252790006434
 10
-5196.4881250491962
 20
-3886.0275654588868
 42
-0.0039635015244257
 10
-5196.5102704201518
 20
-3886.1076665329883
 10
-5196.5116080971429
 20
-3886.1123598134418
 42
-0.0072473396738073
 10
-5196.5383527920194
 20
-3886.2012842231234
 10
-5196.5453740232088
 20
-3886.2234588565739
 42
-0.0051344333526497
 10
-5196.5740499558178
 20
-3886.3108937391335
 10
-5196.5762025841068
 20
-3886.3172365431269
 42
-0.0019149605684969
 10
-5196.6017559231805
 20
-3886.3915934729635
 10
-5196.6024026854357
 20
-3886.3934522752347
 42
-0.0021523906888684
 10
-5196.6272504887274
 20
-3886.4638867680596
 10
-5196.628171532745
 20
-3886.4664622013911
 42
-0.0024330779213322
 10
-5196.6517970567002
 20
-3886.5315238964831
 10
-5196.6527018541137
 20
-3886.5339782997339
 42
-0.0027449159142069
 10
-5196.6751633090389
 20
-3886.5938929114955
 10
-5196.6760523121529
 20
-3886.5962252401528
 42
-0.0031082605888351
 10
-5196.69740655844
 20
-3886.6512191335555
 10
-5196.6982801742843
 20
-3886.6534281719969
 42
-0.0035310651961473
 10
-5196.7185842901663
 20
-3886.7037278459916
 10
-5196.7194428270222
 20
-3886.7058121821779
 42
-0.0040244876371134
 10
-5196.7387540044601
 20
-3886.7516443539675
 10
-5196.7395976191356
 20
-3886.7536023517287
 42
-0.004601429317202
 10
-5196.7579732451368
 20
-3886.795193978322
 10
-5196.7588018666911
 20
-3886.7970237503664
 42
-0.0052767714404432
 10
-5196.7762996148158
 20
-3886.8346020526242
 10
-5196.7771128401309
 20
-3886.83630144159
 42
-0.0060671672006086
 10
-5196.7937907971545
 20
-3886.8700939141954
 10
-5196.7945877500497
 20
-3886.8716604922352
 42
-0.0069903572637709
 10
-5196.8105045846023
 20
-3886.901894885772
 10
-5196.8112837301278
 20
-3886.9033259898415
 42
-0.0080635892518679
 10
-5196.8264989105983
 20
-3886.9302302417536
 10
-5196.8272578202404
 20
-3886.9315230743459
 42
-0.0093005305707799
 10
-5196.8418318815147
 20
-3886.955325150765
 10
-5196.8425669554817
 20
-3886.95647699044
 42
-0.0107059665746017
 10
-5196.8565618025332
 20
-3886.9774045799977
 10
-5196.8572679876688
 20
-3886.9784131735532
 42
-0.0122722125075525
 10
-5196.8707473511804
 20
-3886.9966929918628
 10
-5196.8707799840204
 20
-3886.9967350452989
 42
-0.0141835575472117
 10
-5196.8851381338336
 20
-3887.0141924824256
 10
-5196.8858329222458
 20
-3887.0149900188926
 42
-0.0175957156474072
 10
-5196.8998235262025
 20
-3887.0299524999773
 42
-0.0080466437480196
 10
-5196.9145699092605
 20
-3887.0441851460573
 10
-5196.919173357157
 20
-3887.0484873007622
 42
-0.0269601538596732
 10
-5196.9445014199073
 20
-3887.0697202327942
 10
-5196.9511581166516
 20
-3887.0747154974606
 42
-0.0178364523321354
 10
-5196.9751525443498
 20
-3887.0914177284412
 10
-5196.9758770607759
 20
-3887.0918846048144
 42
-0.0174652991183943
 10
-5196.9995106611941
 20
-3887.1059710720197
 42
-0.0169242853112693
 10
-5197.0240573042947
 20
-3887.118400644692
 10
-5197.0286559013357
 20
-3887.1205368897554
 42
-0.0318889416286336
 10
-5197.0636910288722
 20
-3887.1341711048908
 10
-5197.070527567892
 20
-3887.1363412213655
 42
-0.0284442685060618
 10
-5197.108132553044
 20
-3887.1459632179171
 10
-5197.1116483808673
 20
-3887.1466525985602
 42
-0.024391569159984
 10
-5197.1429927151858
 20
-3887.1512248237227
 10
-5197.1480207904633
 20
-3887.1517093918442
 42
-0.0196644603098685
 10
-5197.169580345615
 20
-3887.1529342534618
 10
-5197.1747627526902
 20
-3887.1530245819918
 42
-0.0100504243494386
 10
-5197.1860050808973
 20
-3887.1529945413399
 10
-5197.1891710670025
 20
-3887.1529224321907
 42
-0.001975256837723
 10
-5197.1940803007001
 20
-3887.1527912125998
 10
-5197.1943563310906
 20
-3887.1527827431846
 42
0.0065380529026202
 10
-5197.1987139884986
 20
-3887.1527060519793
 42
-0.0167979247777683
 10
-5197.2030670704917
 20
-3887.1525400576329
 10
-5197.2034750047169
 20
-3887.152510755725
 42
-0.0081285453749978
 10
-5197.2086309841006
 20
-3887.1520560440335
 10
-5197.2098049418792
 20
-3887.1519332488947
 42
-0.0126706770576469
 10
-5197.2172767701622
 20
-3887.1509597435097
 10
-5197.2195555582257
 20
-3887.1506039080368
 42
-0.0117855091130691
 10
-5197.2315094541555
 20
-3887.1484475504103
 10
-5197.2370475019852
 20
-3887.1473131649873
 42
-0.025178057927497
 10
-5197.259731891093
 20
-3887.1414632095411
 10
-5197.2642038156355
 20
-3887.1400664878802
 42
-0.0146528337216508
 10
-5197.2828431236258
 20
-3887.1336396574607
 42
-0.0166932631930044
 10
-5197.3010408776663
 20
-3887.1260587432289
 10
-5197.301506552365
 20
-3887.1258462421069
 42
-0.0191687461290998
 10
-5197.3200249002739
 20
-3887.1165223885196
 10
-5197.3203581740663
 20
-3887.1163382503482
 42
-0.0221184518697277
 10
-5197.3386891853752
 20
-3887.1051246083571
 10
-5197.3389241848581
 20
-3887.1049661613824
 42
-0.0254986615496187
 10
-5197.3565531773438
 20
-3887.0917247050184
 10
-5197.3588013938261
 20
-3887.0898494216872
 42
-0.0292493152093645
 10
-5197.3712783085502
 20
-3887.0781398058302
 42
-0.0159048451974277
 10
-5197.3826622988799
 20
-3887.0653374697285
 10
-5197.3827941873533
 20
-3887.0651792928325
 42
-0.0343810460535856
 10
-5197.3930578970712
 20
-3887.0509918007174
 10
-5197.3962070505131
 20
-3887.0459413236408
 42
-0.03691115949358
 10
-5197.4047963168414
 20
-3887.0295931289802
 42
-0.019174754250842
 10
-5197.4115156511298
 20
-3887.0123522117428
 10
-5197.4116919877742
 20
-3887.0118428510914
 42
-0.0378169117107033
 10
-5197.4166714560697
 20
-3886.9929482789921
 10
-5197.417270988477
 20
-3886.9896921132122
 42
-0.0184841231915592
 10
-5197.4193427091541
 20
-3886.9755164415028
 42
-0.0179861512424628
 10
-5197.4203760095897
 20
-3886.9612269735162
 10
-5197.4203816539066
 20
-3886.9610711986115
 42
-0.0085494861430973
 10
-5197.4205248820163
 20
-3886.9535836784444
 42
-0.0085494861430973
  0
ENDBLK
  5
4E
100
AcDbEntity
  8
template
390
0
100
AcDbBlockEnd
  0
BLOCK
  5
4F
100
AcDbEntity
  8
notes
390
0
100
AcDbBlockBegin
  2
*D3
 70
               1
 10
0.0
 20
0.0
 30
0.0
  3
*D3
  1

  0
LINE
  5
50
100
AcDbEntity
  8
0
370
              -2
390
0
  6
Continuous
 62
               0
100
AcDbLine
 10
-32.001024222067826
 20
58.491366823518547
 30
0.0
 11
-32.001024222067826
 21
80.991366823518547
 31
0.0
  0
LINE
  5
51
100
AcDbEntity
  8
0
370
              -2
390
0
  6
Continuous
 62
               0
100
AcDbLine
 10
32.000848143626172
 20
58.491366823518547
 30
0.0
 11
32.000848143626172
 21
80.991366823518547
 31
0.0
  0
LINE
  5
52
100
AcDbEntity
  8
0
370
              -2
390
0
  6
Continuous
 62
               0
100
AcDbLine
 10
-32.001024222067826
 20
80.991366823518547
 30
0.0
 11
32.000848143626172
 21
80.991366823518547
 31
0.0
  0
CIRCLE
  5
53
102
{ACAD_REACTORS
330
54
102
}
100
AcDbEntity
  8
0
370
              -2
390
0
  6
Continuous
 62
               0
100
AcDbCircle
 10
-32.001024222067826
 20
80.991366823518547
 30
0.0
 40
0.19998779296875
  0
HATCH
  5
54
100
AcDbEntity
  8
0
370
              -2
390
0
  6
Continuous
 62
               0
100
AcDbHatch
 10
0.0
 20
0.0
 30
0.0
210
0.0
220
0.0
230
1.0
  2
SOLID
 70
               1
 71
               1
 91
        1
 92
        1
 93
        1
 72
               2
 10
-32.001024222067826
 20
80.991366823518547
 40
0.19998779296875
 50
0.0
 51
360.0
 73
               0
 97
        1
330
53
 75
               0
 76
               1
 98
        1
 10
0.0
 20
0.0
  0
CIRCLE
  5
55
102
{ACAD_REACTORS
330
56
102
}
100
AcDbEntity
  8
0
370
              -2
390
0
  6
Continuous
 62
               0
100
AcDbCircle
 10
32.000848143626172
 20
80.991366823518547
 30
0.0
 40
0.19998779296875
  0
HATCH
  5
56
100
AcDbEntity
  8
0
370
              -2
390
0
  6
Continuous
 62
               0
100
AcDbHatch
 10
0.0
 20
0.0
 30
0.0
210
0.0
220
0.0
230
1.0
  2
SOLID
 70
               1
 71
               1
 91
        1
 92
        1
 93
        1
 72
               2
 10
32.000848143626172
 20
80.991366823518547
 40
0.19998779296875
 50
0.0
 51
360.0
 73
               0
 97
        1
330
55
 75
               0
 76
               1
 98
        1
 10
0.0
 20
0.0
  0
MTEXT
  5
57
100
AcDbEntity
  8
0
390
0
 62
               0
100
AcDbMText
 10
-3.1750880392210092
 20
84.379128542268518
 30
0.0
 40
2.4432617187500001
 41
0.0
 71
               1
 72
               1
  1
φ64
  7
ＭＳ ゴシック
 73
               1
 44
0.7828267384257843
  0
POINT
  5
58
100
AcDbEntity
  8
Defpoints
370
               0
390
0
 62
               0
100
AcDbPoint
 10
32.000848143626172
 20
55.991366823518547
 30
0.0
  0
POINT
  5
59
100
AcDbEntity
  8
Defpoints
370
               0
390
0
 62
               0
100
AcDbPoint
 10
-32.001024222067826
 20
55.991366823518547
 30
0.0
  0
POINT
  5
5A
100
AcDbEntity
  8
Defpoints
370
               0
390
0
 62
               0
100
AcDbPoint
 10
-32.001024222067826
 20
80.991366823518547
 30
0.0
  0
ENDBLK
  5
5B
100
AcDbEntity
  8
notes
390
0
100
AcDbBlockEnd
  0
BLOCK
  5
5C
100
AcDbEntity
  8
notes
390
0
100
AcDbBlockBegin
  2
*D4
 70
               1
 10
0.0
 20
0.0
 30
0.0
  3
*D4
  1

  0
LINE
  5
5D
100
AcDbEntity
  8
0
370
              -2
390
0
  6
Continuous
 62
               0
100
AcDbLine
 10
-34.100797924182189
 20
49.933278268636059
 30
0.0
 11
-56.600797924182189
 21
49.933278268636059
 31
0.0
  0
LINE
  5
5E
100
AcDbEntity
  8
0
370
              -2
390
0
  6
Continuous
 62
               0
100
AcDbLine
 10
-33.95148340565629
 20
18.952628615969843
 30
0.0
 11
-56.600797924182189
 21
18.952628615969843
 31
0.0
  0
LINE
  5
5F
100
AcDbEntity
  8
0
370
              -2
390
0
  6
Continuous
 62
               0
100
AcDbLine
 10
-56.600797924182189
 20
49.933278268636059
 30
0.0
 11
-56.600797924182189
 21
18.952628615969843
 31
0.0
  0
CIRCLE
  5
60
102
{ACAD_REACTORS
330
61
102
}
100
AcDbEntity
  8
0
370
              -2
390
0
  6
Continuous
 62
               0
100
AcDbCircle
 10
-56.600797924182189
 20
49.933278268636059
 30
0.0
 40
0.19998779296875
  0
HATCH
  5
61
100
AcDbEntity
  8
0
370
              -2
390
0
  6
Continuous
 62
               0
100
AcDbHatch
 10
0.0
 20
0.0
 30
0.0
210
0.0
220
0.0
230
1.0
  2
SOLID
 70
               1
 71
               1
 91
        1
 92
        1
 93
        1
 72
               2
 10
-56.600797924182189
 20
49.933278268636059
 40
0.19998779296875
 50
0.0
 51
360.0
 73
               0
 97
        1
330
60
 75
               0
 76
               1
 98
        1
 10
0.0
 20
0.0
  0
CIRCLE
  5
62
102
{ACAD_REACTORS
330
63
102
}
100
AcDbEntity
  8
0
370
              -2
390
0
  6
Continuous
 62
               0
100
AcDbCircle
 10
-56.600797924182189
 20
18.952628615969843
 30
0.0
 40
0.19998779296875
  0
HATCH
  5
63
100
AcDbEntity
  8
0
370
              -2
390
0
  6
Continuous
 62
               0
100
AcDbHatch
 10
0.0
 20
0.0
 30
0.0
210
0.0
220
0.0
230
1.0
  2
SOLID
 70
               1
 71
               1
 91
        1
 92
        1
 93
        1
 72
               2
 10
-56.600797924182189
 20
18.952628615969843
 40
0.19998779296875
 50
0.0
 51
360.0
 73
               0
 97
        1
330
62
 75
               0
 76
               1
 98
        1
 10
0.0
 20
0.0
  0
MTEXT
  5
64
100
AcDbEntity
  8
0
390
0
 62
               0
100
AcDbMText
 10
-59.988559642932159
 20
29.680453105867855
 30
0.0
 40
2.4432617187500001
 41
0.0
 71
               1
 72
               1
  1
MAX.50
  7
ＭＳ ゴシック
 11
0.0
 21
1.0
 31
0.0
 73
               1
 44
0.7828267384257843
  0
POINT
  5
65
100
AcDbEntity
  8
Defpoints
370
               0
390
0
 62
               0
100
AcDbPoint
 10
-31.45148340565629
 20
18.952628615969843
 30
0.0
  0
POINT
  5
66
100
AcDbEntity
  8
Defpoints
370
               0
390
0
 62
               0
100
AcDbPoint
 10
-31.600797924182189
 20
49.933278268636059
 30
0.0
  0
POINT
  5
67
100
AcDbEntity
  8
Defpoints
370
               0
390
0
 62
               0
100
AcDbPoint
 10
-56.600797924182189
 20
49.933278268636059
 30
0.0
  0
ENDBLK
  5
68
100
AcDbEntity
  8
notes
390
0
100
AcDbBlockEnd
  0
BLOCK
  5
69
100
AcDbEntity
  8
notes
390
0
100
AcDbBlockBegin
  2
*D5
 70
               1
 10
0.0
 20
0.0
 30
0.0
  3
*D5
  1

  0
LINE
  5
6A
100
AcDbEntity
  8
0
370
              -2
390
0
  6
Continuous
 62
               0
100
AcDbLine
 10
27.500673617110806
 20
-12.047741822161242
 30
0.0
 11
50.000673617110806
 21
-12.047741822161242
 31
0.0
  0
LINE
  5
6B
100
AcDbEntity
  8
0
370
              -2
390
0
  6
Continuous
 62
               0
100
AcDbLine
 10
33.952892033189528
 20
18.952628615969843
 30
0.0
 11
50.000673617110806
 21
18.952628615969843
 31
0.0
  0
LINE
  5
6C
100
AcDbEntity
  8
0
370
              -2
390
0
  6
Continuous
 62
               0
100
AcDbLine
 10
50.000673617110806
 20
-12.047741822161242
 30
0.0
 11
50.000673617110806
 21
18.952628615969843
 31
0.0
  0
CIRCLE
  5
6D
102
{ACAD_REACTORS
330
6E
102
}
100
AcDbEntity
  8
0
370
              -2
390
0
  6
Continuous
 62
               0
100
AcDbCircle
 10
50.000673617110806
 20
-12.047741822161242
 30
0.0
 40
0.19998779296875
  0
HATCH
  5
6E
100
AcDbEntity
  8
0
370
              -2
390
0
  6
Continuous
 62
               0
100
AcDbHatch
 10
0.0
 20
0.0
 30
0.0
210
0.0
220
0.0
230
1.0
  2
SOLID
 70
               1
 71
               1
 91
        1
 92
        1
 93
        1
 72
               2
 10
50.000673617110806
 20
-12.047741822161242
 40
0.19998779296875
 50
0.0
 51
360.0
 73
               0
 97
        1
330
6D
 75
               0
 76
               1
 98
        1
 10
0.0
 20
0.0
  0
CIRCLE
  5
6F
102
{ACAD_REACTORS
330
70
102
}
100
AcDbEntity
  8
0
370
              -2
390
0
  6
Continuous
 62
               0
100
AcDbCircle
 10
50.000673617110806
 20
18.952628615969843
 30
0.0
 40
0.19998779296875
  0
HATCH
  5
70
100
AcDbEntity
  8
0
370
              -2
390
0
  6
Continuous
 62
               0
100
AcDbHatch
 10
0.0
 20
0.0
 30
0.0
210
0.0
220
0.0
230
1.0
  2
SOLID
 70
               1
 71
               1
 91
        1
 92
        1
 93
        1
 72
               2
 10
50.000673617110806
 20
18.952628615969843
 40
0.19998779296875
 50
0.0
 51
360.0
 73
               0
 97
        1
330
6F
 75
               0
 76
               1
 98
        1
 10
0.0
 20
0.0
  0
MTEXT
  5
71
100
AcDbEntity
  8
0
390
0
 62
               0
100
AcDbMText
 10
46.612911898361745
 20
1.8649433969044367
 30
0.0
 40
2.4432617187500001
 41
0.0
 71
               1
 72
               1
  1
31
  7
ＭＳ ゴシック
 11
0.0
 21
1.0
 31
0.0
 73
               1
 44
0.7828267384257843
  0
POINT
  5
72
100
AcDbEntity
  8
Defpoints
370
               0
390
0
 62
               0
100
AcDbPoint
 10
31.452892033189528
 20
18.952628615969843
 30
0.0
  0
POINT
  5
73
100
AcDbEntity
  8
Defpoints
370
               0
390
0
 62
               0
100
AcDbPoint
 10
25.000673617110806
 20
-12.047741822161242
 30
0.0
  0
POINT
  5
74
100
AcDbEntity
  8
Defpoints
370
               0
390
0
 62
               0
100
AcDbPoint
 10
50.000673617110806
 20
-12.047741822161242
 30
0.0
  0
ENDBLK
  5
75
100
AcDbEntity
  8
notes
390
0
100
AcDbBlockEnd
  0
BLOCK
  5
76
100
AcDbEntity
  8
notes
390
0
100
AcDbBlockBegin
  2
*D6
 70
               1
 10
0.0
 20
0.0
 30
0.0
  3
*D6
  1

  0
LINE
  5
77
100
AcDbEntity
  8
0
370
              -2
390
0
  6
Continuous
 62
               0
100
AcDbLine
 10
27.500673617110806
 20
-12.047741822161242
 30
0.0
 11
50.000673617110806
 21
-12.047741822161242
 31
0.0
  0
LINE
  5
78
100
AcDbEntity
  8
0
370
              -2
390
0
  6
Continuous
 62
               0
100
AcDbLine
 10
21.74959955571012
 20
-22.04794083762863
 30
0.0
 11
50.000673617110806
 21
-22.04794083762863
 31
0.0
  0
LINE
  5
79
100
AcDbEntity
  8
0
370
              -2
390
0
  6
Continuous
 62
               0
100
AcDbLine
 10
50.000673617110806
 20
-12.047741822161242
 30
0.0
 11
50.000673617110806
 21
-22.04794083762863
 31
0.0
  0
CIRCLE
  5
7A
102
{ACAD_REACTORS
330
7B
102
}
100
AcDbEntity
  8
0
370
              -2
390
0
  6
Continuous
 62
               0
100
AcDbCircle
 10
50.000673617110806
 20
-12.047741822161242
 30
0.0
 40
0.19998779296875
  0
HATCH
  5
7B
100
AcDbEntity
  8
0
370
              -2
390
0
  6
Continuous
 62
               0
100
AcDbHatch
 10
0.0
 20
0.0
 30
0.0
210
0.0
220
0.0
230
1.0
  2
SOLID
 70
               1
 71
               1
 91
        1
 92
        1
 93
        1
 72
               2
 10
50.000673617110806
 20
-12.047741822161242
 40
0.19998779296875
 50
0.0
 51
360.0
 73
               0
 97
        1
330
7A
 75
               0
 76
               1
 98
        1
 10
0.0
 20
0.0
  0
CIRCLE
  5
7C
102
{ACAD_REACTORS
330
7D
102
}
100
AcDbEntity
  8
0
370
              -2
390
0
  6
Continuous
 62
               0
100
AcDbCircle
 10
50.000673617110806
 20
-22.04794083762863
 30
0.0
 40
0.19998779296875
  0
HATCH
  5
7D
100
AcDbEntity
  8
0
370
              -2
390
0
  6
Continuous
 62
               0
100
AcDbHatch
 10
0.0
 20
0.0
 30
0.0
210
0.0
220
0.0
230
1.0
  2
SOLID
 70
               1
 71
               1
 91
        1
 92
        1
 93
        1
 72
               2
 10
50.000673617110806
 20
-22.04794083762863
 40
0.19998779296875
 50
0.0
 51
360.0
 73
               0
 97
        1
330
7C
 75
               0
 76
               1
 98
        1
 10
0.0
 20
0.0
  0
MTEXT
  5
7E
100
AcDbEntity
  8
0
390
0
 62
               0
100
AcDbMText
 10
46.612911898361745
 20
-18.635341329895255
 30
0.0
 40
2.4432617187500001
 41
0.0
 71
               1
 72
               1
  1
10
  7
ＭＳ ゴシック
 11
0.0
 21
1.0
 31
0.0
 73
               1
 44
0.7828267384257843
  0
POINT
  5
7F
100
AcDbEntity
  8
Defpoints
370
               0
390
0
 62
               0
100
AcDbPoint
 10
19.24959955571012
 20
-22.04794083762863
 30
0.0
  0
POINT
  5
80
100
AcDbEntity
  8
Defpoints
370
               0
390
0
 62
               0
100
AcDbPoint
 10
25.000673617110806
 20
-12.047741822161242
 30
0.0
  0
POINT
  5
81
100
AcDbEntity
  8
Defpoints
370
               0
390
0
 62
               0
100
AcDbPoint
 10
50.000673617110806
 20
-12.047741822161242
 30
0.0
  0
ENDBLK
  5
82
100
AcDbEntity
  8
notes
390
0
100
AcDbBlockEnd
  0
BLOCK
  5
83
100
AcDbEntity
  8
notes
390
0
100
AcDbBlockBegin
  2
*D7
 70
               1
 10
0.0
 20
0.0
 30
0.0
  3
*D7
  1

  0
LINE
  5
84
100
AcDbEntity
  8
0
370
              -2
390
0
  6
Continuous
 62
               0
100
AcDbLine
 10
-25.00120185243577
 20
-14.547741822161242
 30
0.0
 11
-25.00120185243577
 21
-55.547741822161242
 31
0.0
  0
LINE
  5
85
100
AcDbEntity
  8
0
370
              -2
390
0
  6
Continuous
 62
               0
100
AcDbLine
 10
25.000673617110806
 20
-14.547741822161242
 30
0.0
 11
25.000673617110806
 21
-55.547741822161242
 31
0.0
  0
LINE
  5
86
100
AcDbEntity
  8
0
370
              -2
390
0
  6
Continuous
 62
               0
100
AcDbLine
 10
-25.00120185243577
 20
-55.547741822161242
 30
0.0
 11
25.000673617110806
 21
-55.547741822161242
 31
0.0
  0
CIRCLE
  5
87
102
{ACAD_REACTORS
330
88
102
}
100
AcDbEntity
  8
0
370
              -2
390
0
  6
Continuous
 62
               0
100
AcDbCircle
 10
-25.00120185243577
 20
-55.547741822161242
 30
0.0
 40
0.19998779296875
  0
HATCH
  5
88
100
AcDbEntity
  8
0
370
              -2
390
0
  6
Continuous
 62
               0
100
AcDbHatch
 10
0.0
 20
0.0
 30
0.0
210
0.0
220
0.0
230
1.0
  2
SOLID
 70
               1
 71
               1
 91
        1
 92
        1
 93
        1
 72
               2
 10
-25.00120185243577
 20
-55.547741822161242
 40
0.19998779296875
 50
0.0
 51
360.0
 73
               0
 97
        1
330
87
 75
               0
 76
               1
 98
        1
 10
0.0
 20
0.0
  0
CIRCLE
  5
89
102
{ACAD_REACTORS
330
8A
102
}
100
AcDbEntity
  8
0
370
              -2
390
0
  6
Continuous
 62
               0
100
AcDbCircle
 10
25.000673617110806
 20
-55.547741822161242
 30
0.0
 40
0.19998779296875
  0
HATCH
  5
8A
100
AcDbEntity
  8
0
370
              -2
390
0
  6
Continuous
 62
               0
100
AcDbHatch
 10
0.0
 20
0.0
 30
0.0
210
0.0
220
0.0
230
1.0
  2
SOLID
 70
               1
 71
               1
 91
        1
 92
        1
 93
        1
 72
               2
 10
25.000673617110806
 20
-55.547741822161242
 40
0.19998779296875
 50
0.0
 51
360.0
 73
               0
 97
        1
330
89
 75
               0
 76
               1
 98
        1
 10
0.0
 20
0.0
  0
MTEXT
  5
8B
100
AcDbEntity
  8
0
390
0
 62
               0
100
AcDbMText
 10
-3.1752641176626639
 20
-52.159980103411272
 30
0.0
 40
2.4432617187500001
 41
0.0
 71
               1
 72
               1
  1
φ50
  7
ＭＳ ゴシック
 73
               1
 44
0.7828267384257843
  0
POINT
  5
8C
100
AcDbEntity
  8
Defpoints
370
               0
390
0
 62
               0
100
AcDbPoint
 10
25.000673617110806
 20
-12.047741822161242
 30
0.0
  0
POINT
  5
8D
100
AcDbEntity
  8
Defpoints
370
               0
390
0
 62
               0
100
AcDbPoint
 10
-25.00120185243577
 20
-12.047741822161242
 30
0.0
  0
POINT
  5
8E
100
AcDbEntity
  8
Defpoints
370
               0
390
0
 62
               0
100
AcDbPoint
 10
-25.00120185243577
 20
-55.547741822161242
 30
0.0
  0
ENDBLK
  5
8F
100
AcDbEntity
  8
notes
390
0
100
AcDbBlockEnd
  0
BLOCK
  5
90
100
AcDbEntity
  8
notes
390
0
100
AcDbBlockBegin
  2
*D8
 70
               1
 10
0.0
 20
0.0
 30
0.0
  3
*D8
  1

  0
LINE
  5
91
100
AcDbEntity
  8
0
370
              -2
390
0
  6
Continuous
 62
               0
100
AcDbLine
 10
-20.751196506160341
 20
-23.047752514711192
 30
0.0
 11
-20.751196506160341
 21
-45.547752514711192
 31
0.0
  0
LINE
  5
92
100
AcDbEntity
  8
0
370
              -2
390
0
  6
Continuous
 62
               0
100
AcDbLine
 10
20.750492192393722
 20
-23.047752514711192
 30
0.0
 11
20.750492192393722
 21
-45.547752514711192
 31
0.0
  0
LINE
  5
93
100
AcDbEntity
  8
0
370
              -2
390
0
  6
Continuous
 62
               0
100
AcDbLine
 10
-20.751196506160341
 20
-45.547752514711192
 30
0.0
 11
20.750492192393722
 21
-45.547752514711192
 31
0.0
  0
CIRCLE
  5
94
102
{ACAD_REACTORS
330
95
102
}
100
AcDbEntity
  8
0
370
              -2
390
0
  6
Continuous
 62
               0
100
AcDbCircle
 10
-20.751196506160341
 20
-45.547752514711192
 30
0.0
 40
0.19998779296875
  0
HATCH
  5
95
100
AcDbEntity
  8
0
370
              -2
390
0
  6
Continuous
 62
               0
100
AcDbHatch
 10
0.0
 20
0.0
 30
0.0
210
0.0
220
0.0
230
1.0
  2
SOLID
 70
               1
 71
               1
 91
        1
 92
        1
 93
        1
 72
               2
 10
-20.751196506160341
 20
-45.547752514711192
 40
0.19998779296875
 50
0.0
 51
360.0
 73
               0
 97
        1
330
94
 75
               0
 76
               1
 98
        1
 10
0.0
 20
0.0
  0
CIRCLE
  5
96
102
{ACAD_REACTORS
330
97
102
}
100
AcDbEntity
  8
0
370
              -2
390
0
  6
Continuous
 62
               0
100
AcDbCircle
 10
20.750492192393722
 20
-45.547752514711192
 30
0.0
 40
0.19998779296875
  0
HATCH
  5
97
100
AcDbEntity
  8
0
370
              -2
390
0
  6
Continuous
 62
               0
100
AcDbHatch
 10
0.0
 20
0.0
 30
0.0
210
0.0
220
0.0
230
1.0
  2
SOLID
 70
               1
 71
               1
 91
        1
 92
        1
 93
        1
 72
               2
 10
20.750492192393722
 20
-45.547752514711192
 40
0.19998779296875
 50
0.0
 51
360.0
 73
               0
 97
        1
330
96
 75
               0
 76
               1
 98
        1
 10
0.0
 20
0.0
  0
MTEXT
  5
98
100
AcDbEntity
  8
0
390
0
 62
               0
100
AcDbMText
 10
-5.5566024933186782
 20
-42.159990795961221
 30
0.0
 40
2.4432617187500001
 41
0.0
 71
               1
 72
               1
  1
G1 1/4"
  7
ＭＳ ゴシック
 73
               1
 44
0.7828267384257843
  0
POINT
  5
99
100
AcDbEntity
  8
Defpoints
370
               0
390
0
 62
               0
100
AcDbPoint
 10
20.750492192393722
 20
-20.547752514711192
 30
0.0
  0
POINT
  5
9A
100
AcDbEntity
  8
Defpoints
370
               0
390
0
 62
               0
100
AcDbPoint
 10
-20.751196506160341
 20
-20.547752514711192
 30
0.0
  0
POINT
  5
9B
100
AcDbEntity
  8
Defpoints
370
               0
390
0
 62
               0
100
AcDbPoint
 10
-20.751196506160341
 20
-45.547752514711192
 30
0.0
  0
ENDBLK
  5
9C
100
AcDbEntity
  8
notes
390
0
100
AcDbBlockEnd
  0
ENDSEC
  0
SECTION
  2
ENTITIES
  0
MTEXT
  5
9D
100
AcDbEntity
  8
template
390
0
 62
               7
100
AcDbMText
 10
-96.799999999951979
 20
-113.2920821466455
 30
0.0
 40
1.6288411458333332
 41
0.0
 71
               1
 72
               1
  1
品名
  7
ＭＳ ゴシック
 73
               1
 44
0.7828267384257843
  0
MTEXT
  5
9E
100
AcDbEntity
  8
template
390
0
 62
               7
100
AcDbMText
 10
-96.799999999951979
 20
-121.79231335942723
 30
0.0
 40
1.6288411458333332
 41
0.0
 71
               1
 72
               1
  1
仕様
  7
ＭＳ ゴシック
 73
               1
 44
0.7828267384257843
  0
MTEXT
  5
9F
100
AcDbEntity
  8
template
390
0
 62
               7
100
AcDbMText
 10
-91.499999999953616
 20
-116.15040338454946
 30
0.0
 40
2.4432617187500001
 41
0.0
 71
               1
 72
               1
  1
プッシュ式ポップアップ排水金具 -VALPRA-
  7
ＭＳ ゴシック
 73
               1
 44
0.7828267384257843
  0
LINE
  5
A0
100
AcDbEntity
  8
template
370
               5
390
0
  6
Continuous
 62
               7
100
AcDbLine
 10
97.499999999950887
 20
-120.95080349094997
 30
0.0
 11
-97.5
 21
-120.95080349094997
 31
0.0
  0
LINE
  5
A1
100
AcDbEntity
  8
template
370
               5
390
0
  6
Continuous
 62
               7
100
AcDbLine
 10
97.499999999950887
 20
-112.45057227816778
 30
0.0
 11
-97.5
 21
-112.45057227816778
 31
0.0
  0
LINE
  5
A2
100
AcDbEntity
  8
template
370
               5
390
0
  6
Continuous
 62
               7
100
AcDbLine
 10
97.5
 20
-129.45103470373215
 30
0.0
 11
22.200000000018008
 21
-129.45103470373215
 31
0.0
  0
MTEXT
  5
A3
100
AcDbEntity
  8
template
390
0
 62
               7
100
AcDbMText
 10
-97.499999999931788
 20
-139.16858878579478
 30
0.0
 40
2.4432617187500001
 41
0.0
 71
               1
 72
               1
  1
111116SH
  7
ＭＳ ゴシック
 73
               1
 44
0.7828267384257843
  0
MTEXT
  5
A4
100
AcDbEntity
  8
template
390
0
 62
               7
100
AcDbMText
 10
73.100000000031287
 20
-121.79231335942723
 30
0.0
 40
1.6288411458333332
 41
0.0
 71
               1
 72
               1
  1
縮尺
  7
ＭＳ ゴシック
 73
               1
 44
0.7828267384257843
  0
LINE
  5
A5
100
AcDbEntity
  8
template
370
               5
390
0
  6
Continuous
 62
               7
100
AcDbLine
 10
72.400000000031469
 20
-129.45103470373215
 30
0.0
 11
72.400000000031469
 21
-120.95080349094997
 31
0.0
  0
MTEXT
  5
A6
100
AcDbEntity
  8
template
390
0
 62
               7
100
AcDbMText
 10
48.000000000038199
 20
-121.79231335942723
 30
0.0
 40
1.6288411458333332
 41
0.0
 71
               1
 72
               1
  1
容量
  7
ＭＳ ゴシック
 73
               1
 44
0.7828267384257843
  0
LINE
  5
A7
100
AcDbEntity
  8
template
370
               5
390
0
  6
Continuous
 62
               7
100
AcDbLine
 10
47.300000000037471
 20
-129.45103470373215
 30
0.0
 11
47.300000000037471
 21
-120.95080349094997
 31
0.0
  0
MTEXT
  5
A8
100
AcDbEntity
  8
template
390
0
 62
               7
100
AcDbMText
 10
22.900000000044201
 20
-113.2920821466455
 30
0.0
 40
1.6288411458333332
 41
0.0
 71
               1
 72
               1
  1
品番
  7
ＭＳ ゴシック
 73
               1
 44
0.7828267384257843
  0
MTEXT
  5
A9
100
AcDbEntity
  8
template
390
0
 62
               7
100
AcDbMText
 10
22.900000000044201
 20
-121.79231335942723
 30
0.0
 40
1.6288411458333332
 41
0.0
 71
               1
 72
               1
  1
重量
  7
ＭＳ ゴシック
 73
               1
 44
0.7828267384257843
  0
MTEXT
  5
AA
100
AcDbEntity
  8
template
390
0
 62
               7
100
AcDbMText
 10
28.200000000042564
 20
-116.15040338454946
 30
0.0
 40
2.4432617187500001
 41
0.0
 71
               1
 72
               1
  1
AWK73-9930
  7
ＭＳ ゴシック
 73
               1
 44
0.7828267384257843
  0
LINE
  5
AB
100
AcDbEntity
  8
template
370
               5
390
0
  6
Continuous
 62
               7
100
AcDbLine
 10
22.200000000044383
 20
-137.95126591651433
 30
0.0
 11
22.200000000044383
 21
-112.45057227816778
 31
0.0
  0
MTEXT
  5
AC
100
AcDbEntity
  8
template
390
0
 62
               7
100
AcDbMText
 10
25.187140625243046
 20
-132.44214769852078
 30
0.0
 40
2.4432617187500001
 41
0.0
 71
               1
 72
               1
  1
大洋金物株式会社 ティーフォルム事業部
  7
ＭＳ ゴシック
 73
               1
 44
0.7828267384257843
  0
INSERT
  5
AD
100
AcDbEntity
  8
template
390
0
 62
               7
100
AcDbBlockReference
  2
グループ
 10
5287.5272754257676
 20
3752.2937420241697
 30
0.0
  0
LWPOLYLINE
  5
AE
100
AcDbEntity
  8
template
370
               5
390
0
  6
Continuous
 62
               7
100
AcDbPolyline
 90
        5
 70
             128
 10
97.5
 20
142.05635050454475
 10
-97.499999999952706
 20
142.05635050454475
 10
-97.499999999952706
 20
-137.95126591651433
 10
97.5
 20
-137.95126591651433
 10
97.5
 20
142.05635050454475
  0
MTEXT
  5
AF
100
AcDbEntity
  8
template
390
0
 62
               7
100
AcDbMText
 10
78.0
 20
-124.8747382812503
 30
0.0
 40
2.4432617187500001
 41
0.0
 71
               1
 72
               1
  1
1/1
  7
ＭＳ ゴシック
 73
               1
 44
0.7828267384257843
  0
DIMENSION
  5
B0
100
AcDbEntity
  8
notes
370
               5
390
0
  6
Continuous
 62
               7
100
AcDbDimension
  2
*D3
 10
-32.001024222067826
 20
80.991366823518547
 30
0.0
 11
-0.0000880392208273
 21
80.991366823518547
 31
0.0
 71
               5
 72
               1
 41
1.0
 42
0.0
  3
tfrom線あり
100
AcDbAlignedDimension
 13
32.000848143626172
 23
55.991366823518547
 33
0.0
 14
-32.001024222067826
 24
55.991366823518547
 34
0.0
100
AcDbRotatedDimension
1001
ACAD
1000
DSTYLE
1002
{
1070
             279
1070
               2
1070
             340
1005
2A
1070
               3
1000
φ<>
1002
}
  0
DIMENSION
  5
B1
100
AcDbEntity
  8
notes
370
               5
390
0
  6
Continuous
 62
               7
100
AcDbDimension
  2
*D4
 10
-56.600797924182189
 20
49.933278268636059
 30
0.0
 11
-56.600797924182189
 21
34.442953442302951
 31
0.0
 71
               5
 72
               1
 41
1.0
 42
0.0
  1
MAX.50
  3
tfrom線あり
100
AcDbAlignedDimension
 13
-31.45148340565629
 23
18.952628615969843
 33
0.0
 14
-31.600797924182189
 24
49.933278268636059
 34
0.0
 50
90.0
100
AcDbRotatedDimension
1001
ACAD
1000
DSTYLE
1002
{
1070
             279
1070
               2
1070
             340
1005
2A
1002
}
  0
DIMENSION
  5
B2
100
AcDbEntity
  8
notes
370
               5
390
0
  6
Continuous
 62
               7
100
AcDbDimension
  2
*D5
 10
50.000673617110806
 20
-12.047741822161242
 30
0.0
 11
50.000673617110806
 21
3.4524433969045276
 31
0.0
 71
               5
 72
               1
 41
1.0
 42
0.0
  3
tfrom線あり
100
AcDbAlignedDimension
 13
31.452892033189528
 23
18.952628615969843
 33
0.0
 14
25.000673617110806
 24
-12.047741822161242
 34
0.0
 50
90.0
100
AcDbRotatedDimension
1001
ACAD
1000
DSTYLE
1002
{
1070
             279
1070
               2
1070
             340
1005
2A
1002
}
  0
DIMENSION
  5
B3
100
AcDbEntity
  8
notes
370
               5
390
0
  6
Continuous
 62
               7
100
AcDbDimension
  2
*D6
 10
50.000673617110806
 20
-12.047741822161242
 30
0.0
 11
50.000673617110806
 21
-17.047841329895164
 31
0.0
 71
               5
 72
               1
 41
1.0
 42
0.0
  3
tfrom線あり
100
AcDbAlignedDimension
 13
19.24959955571012
 23
-22.04794083762863
 33
0.0
 14
25.000673617110806
 24
-12.047741822161242
 34
0.0
 50
90.0
100
AcDbRotatedDimension
1001
ACAD
1000
DSTYLE
1002
{
1070
             279
1070
               2
1070
             340
1005
2A
1002
}
  0
DIMENSION
  5
B4
100
AcDbEntity
  8
notes
370
               5
390
0
  6
Continuous
 62
               7
100
AcDbDimension
  2
*D7
 10
-25.00120185243577
 20
-55.547741822161242
 30
0.0
 11
-0.000264117662482
 21
-55.547741822161242
 31
0.0
 71
               5
 72
               1
 41
1.0
 42
0.0
  3
tfrom線あり
100
AcDbAlignedDimension
 13
25.000673617110806
 23
-12.047741822161242
 33
0.0
 14
-25.00120185243577
 24
-12.047741822161242
 34
0.0
100
AcDbRotatedDimension
1001
ACAD
1000
DSTYLE
1002
{
1070
             279
1070
               2
1070
             340
1005
2A
1070
               3
1000
φ<>
1002
}
  0
DIMENSION
  5
B5
100
AcDbEntity
  8
notes
370
               5
390
0
  6
Continuous
 62
               7
100
AcDbDimension
  2
*D8
 10
-20.751196506160341
 20
-45.547752514711192
 30
0.0
 11
-0.0003521568833094
 21
-45.547752514711192
 31
0.0
 71
               5
 72
               1
 41
1.0
 42
0.0
  1
G1 1/4"
  3
tfrom線あり
100
AcDbAlignedDimension
 13
20.750492192393722
 23
-20.547752514711192
 33
0.0
 14
-20.751196506160341
 24
-20.547752514711192
 34
0.0
100
AcDbRotatedDimension
1001
ACAD
1000
DSTYLE
1002
{
1070
             279
1070
               2
1070
             340
1005
2A
1002
}
  0
LINE
  5
B6
100
AcDbEntity
  8
AWK73-9930
370
               9
390
0
  6
STYLE_01
 62
             250
100
AcDbLine
 10
0.0
 20
71.946957201477289
 30
0.0
 11
0.0
 21
-30.980048026005079
 31
0.0
  0
LWPOLYLINE
  5
B7
100
AcDbEntity
  8
AWK73-9930
370
              15
390
0
  6
Continuous
 62
              19
100
AcDbPolyline
 90
        4
 70
             128
 10
-25.00120185243577
 20
12.555346673687836
 10
-25.00120185243577
 20
-12.047741822161242
 10
25.000673617110806
 20
-12.047741822161242
 10
25.000673617110806
 20
12.555346673687836
  0
LINE
  5
B8
100
AcDbEntity
  8
AWK73-9930
370
              15
390
0
  6
Continuous
 62
              19
100
AcDbLine
 10
30.951420631350629
 20
12.555346673687836
 30
0.0
 11
-30.951948866675593
 21
12.555346673687836
 31
0.0
  0
LWPOLYLINE
  5
B9
100
AcDbEntity
  8
AWK73-9930
370
              15
390
0
  6
Continuous
 62
              19
100
AcDbPolyline
 90
       34
 70
             128
 10
-31.45148340565629
 20
15.45254135271216
 10
-31.45148340565629
 20
13.052592192927477
 10
-31.45146728295822
 20
13.049663729187159
 42
0.023199158013714
 10
-31.44913641482799
 20
13.004789368155798
 10
-31.449121365743849
 20
13.004636745414246
 42
0.0228453587782126
 10
-31.44271824956104
 20
12.960468552195834
 10
-31.442700379679991
 20
12.960375459508668
 42
0.0225592004716144
 10
-31.432362743785234
 20
12.917152822507887
 10
-31.432350149895683
 20
12.917109004913982
 42
0.0222922942134623
 10
-31.418211408774368
 20
12.875071341563853
 42
0.0220661019322142
 10
-31.400405245954971
 20
12.834453585565825
 42
0.0218904848885035
 10
-31.379103127965209
 20
12.795558128068478
 10
-31.37908536627765
 20
12.79552881913105
 42
0.021808472346344
 10
-31.354431825140637
 20
12.758583642079884
 10
-31.351955910390643
 20
12.755202452424783
 42
0.0216646390673617
 10
-31.329246298935686
 20
12.726852244595648
 42
0.0144856709331533
 10
-31.304535477025638
 20
12.700202545801403
 10
-31.3044009707246
 20
12.700065661213557
 42
0.0187875685871695
 10
-31.277701525152224
 20
12.674861838735524
 10
-31.276616089590789
 20
12.673911718750787
 42
0.0238141549050472
 10
-31.245624956454776
 20
12.649288138747124
 10
-31.24336136779857
 20
12.647659185981865
 42
0.0234542194862616
 10
-31.20589661239319
 20
12.623280111417444
 10
-31.205851440453444
 20
12.623253645529985
 42
0.0230606026208613
 10
-31.166375470271305
 20
12.602507531280935
 42
0.0226865421371516
 10
-31.125168804108398
 20
12.585454082824981
 42
0.0223584837097442
 10
-31.082594751582292
 20
12.572176386791853
 10
-31.082554174982761
 20
12.57216569657794
 42
0.0220952725074226
 10
-31.038886523567271
 20
12.562701994668714
 10
-31.03751974052102
 20
12.562468450072629
 42
0.0219008930287896
 10
-30.99562274148775
 20
12.557185043597201
 10
-30.994269633242766
 20
12.557074319244293
 42
0.0190613687038246
 10
-30.954781722849475
 20
12.55535433992145
 10
-30.951948866675593
 20
12.555346673687836
  0
LWPOLYLINE
  5
BA
100
AcDbEntity
  8
AWK73-9930
370
              15
390
0
  6
Continuous
 62
              19
100
AcDbPolyline
 90
       49
 70
             128
 10
-30.951948866675593
 20
15.955421382084751
 10
-30.952841969634392
 20
15.955418398397796
 42
0.0124442569184911
 10
-30.978832138989674
 20
15.954684552279105
 42
0.0140765873539204
 10
-31.004744613059302
 20
15.952574086290952
 10
-31.005599240536867
 20
15.952480199780894
 42
0.0139996459612352
 10
-31.032925364764196
 20
15.948701355589037
 10
-31.032948377270259
 20
15.948697513923889
 42
0.0139362149333324
 10
-31.059975180561196
 20
15.943407641934755
 10
-31.059989461354235
 20
15.943404431162435
 42
0.0138885481933461
 10
-31.08665193311208
 20
15.93662678277542
 42
0.0138552348807121
 10
-31.112891522745485
 20
15.928382865616641
 42
0.0138472540973784
 10
-31.138629732338813
 20
15.918699996430405
 42
0.0138582073893028
 10
-31.163802310637038
 20
15.907602269677227
 42
0.0138787271650143
 10
-31.188329572799375
 20
15.895122172024003
 10
-31.18834512488138
 20
15.895113707382734
 42
0.0139214895358298
 10
-31.212171545434103
 20
15.881272207802795
 10
-31.21219397047571
 20
15.881258331414756
 42
0.0139801012180769
 10
-31.235255323142155
 20
15.866080625800805
 10
-31.235284620920538
 20
15.866060147378448
 42
0.0140523261579424
 10
-31.257516618416048
 20
15.84957161281136
 10
-31.26025975378252
 20
15.847415075126264
 42
0.0141350456886951
 10
-31.276308823885302
 20
15.834047010310314
 10
-31.277587738889451
 20
15.83291900946233
 42
0.0070614722258565
 10
-31.290535052157793
 20
15.821170283702031
 42
0.0113561972811683
 10
-31.303038948786707
 20
15.808954664591511
 10
-31.306718471255408
 20
15.805192912644998
 42
0.0139520208903816
 10
-31.325458660225195
 20
15.78493280609473
 10
-31.325478939081222
 20
15.784909616866116
 42
0.0134270538476567
 10
-31.343043482780558
 20
15.76370109473919
 10
-31.343058256698896
 20
15.763682247750239
 42
0.0133933836648699
 10
-31.359432021902649
 20
15.741600975473375
 10
-31.359441891648203
 20
15.741586892102987
 42
0.0133728409295846
 10
-31.374591818525005
 20
15.718689840045954
 42
0.0133660767598141
 10
-31.388490425619239
 20
15.695025702673775
 42
0.0133895121303139
 10
-31.401095147130036
 20
15.670666950220948
 42
0.013433093692141
 10
-31.412373578194092
 20
15.645671433043844
 42
0.0134969709076652
 10
-31.422293309822635
 20
15.620096972441388
 42
0.0135721521047157
 10
-31.430817482576458
 20
15.594016110393113
 10
-31.430821812446084
 20
15.594001534217568
 42
0.0136676855966053
 10
-31.437921073384132
 20
15.567465997226918
 10
-31.437926540085755
 20
15.567443071547132
 42
0.0137771725287332
 10
-31.443569033476706
 20
15.540512081242923
 10
-31.443574919387174
 20
15.540479546678853
 42
0.0138958801025731
 10
-31.44772903262583
 20
15.513212510090852
 10
-31.448048227298386
 20
15.510638917986853
 42
0.017551892692653
 10
-31.450651434772226
 20
15.481233034997786
 10
-31.450788234421452
 20
15.478663865047565
 42
0.0124073239706574
 10
-31.451480288484163
 20
15.454287735650723
 10
-31.45148340565629
 20
15.45254135271216
  0
LINE
  5
BB
100
AcDbEntity
  8
AWK73-9930
370
              15
390
0
  6
Continuous
 62
              19
100
AcDbLine
 10
31.452892033189528
 20
15.45254135271216
 30
0.0
 11
31.452892033189528
 21
13.052592192927477
 31
0.0
  0
LWPOLYLINE
  5
BC
100
AcDbEntity
  8
AWK73-9930
370
              15
390
0
  6
Continuous
 62
              19
100
AcDbPolyline
 90
       52
 70
             128
 10
30.951420631350629
 20
12.555346673687836
 10
30.952345003349365
 20
12.555349499104068
 42
0.0117151390183895
 10
30.978411654949923
 20
12.556040056086204
 42
0.0134450653851184
 10
31.004408319090544
 20
12.558040625886861
 10
31.005264177217214
 20
12.558129690969963
 42
0.01355817258414
 10
31.032514362595975
 20
12.561714667598608
 10
31.032575051634012
 20
12.561724332170797
 42
0.013667467108946
 10
31.05946883616889
 20
12.566764318126843
 10
31.059513126974707
 20
12.566773878268123
 42
0.013771529620959
 10
31.086001862107878
 20
12.573259740321191
 10
31.086029513404355
 20
12.573267323738492
 42
0.0138688613981445
 10
31.112064471561098
 20
12.581190027539378
 42
0.013951940231079
 10
31.137607686414412
 20
12.590544273250089
 42
0.0140398451363869
 10
31.162582516786642
 20
12.601311568927485
 42
0.0141029795501801
 10
31.186917920038468
 20
12.613469201985936
 10
31.186939960765812
 20
12.613481001335458
 42
0.0141550022217254
 10
31.210593135294403
 20
12.627018528705321
 10
31.210631004617426
 20
12.627041649618604
 42
0.0141904144239167
 10
31.233553514335654
 20
12.641945865339039
 10
31.233606623716696
 20
12.641982582333185
 42
0.0142070614503121
 10
31.255750232634455
 20
12.65824024114545
 10
31.255817784249302
 20
12.65829285461632
 42
0.0142094280154847
 10
31.277134236717757
 20
12.675890970155706
 10
31.27854101603225
 20
12.6771212142894
 42
0.017743880266795
 10
31.301408422570603
 20
12.698597498262643
 10
31.303929671547849
 20
12.701139623380186
 10
31.304592915340436
 20
12.701789979148543
 42
0.0122183676466702
 10
31.322842363566451
 20
12.720581170780861
 42
0.0139263173605787
 10
31.340083256652179
 20
12.740298683385845
 10
31.340633863026596
 20
12.740964949156023
 42
0.0139437109176372
 10
31.357621392984584
 20
12.762729268528346
 10
31.357658591169638
 20
12.762779768866039
 42
0.0139587312522098
 10
31.373334300336865
 20
12.785354629421818
 10
31.373360632292133
 20
12.78539490537969
 42
0.0139725441846221
 10
31.387701156167168
 20
12.808727750814796
 10
31.387718062273052
 20
12.808757063603935
 42
0.013986144762017
 10
31.400700071676511
 20
12.832795316520787
 10
31.400708967241371
 20
12.832812950482094
 42
0.0140002566255695
 10
31.412309150895453
 20
12.857504017831161
 42
0.0140122621025176
 10
31.422506487413557
 20
12.88280054792267
 42
0.0140352660493547
 10
31.431270167640832
 20
12.908631608288033
 42
0.0140470549583118
 10
31.438572794961146
 20
12.9349218122602
 10
31.438578267921002
 20
12.934943904111151
 42
0.0140627337879325
 10
31.444401900955199
 20
12.961647317884854
 10
31.444408852014931
 20
12.961684135634187
 42
0.0140768100856796
 10
31.448733130256187
 20
12.98874677793583
 10
31.448739973166084
 20
12.988798998375842
 42
0.0140915501074954
 10
31.451544409275812
 20
13.016166903188605
 10
31.451678133371388
 20
13.017972300573092
 42
0.0176114419819963
 10
31.452882773577585
 20
13.04907249763437
 10
31.45288898853687
 20
13.050850443645231
 10
31.452892033189528
 20
13.052592192927477
  0
LWPOLYLINE
  5
BD
100
AcDbEntity
  8
AWK73-9930
370
              15
390
0
  6
Continuous
 62
              19
100
AcDbPolyline
 90
       51
 70
             128
 10
31.452892033189528
 20
15.45254135271216
 10
31.452889057111861
 20
15.453446979144246
 42
0.0123373122097484
 10
31.452160275672213
 20
15.47950573219714
 42
0.0140066973325145
 10
31.450060421458147
 20
15.505487664549491
 10
31.449967134853978
 20
15.506342832594783
 42
0.013974234941058
 10
31.446208705196113
 20
15.533685060762764
 10
31.446203109066118
 20
15.533718762078479
 42
0.0139459821396504
 10
31.44093768140101
 20
15.560741633044017
 10
31.440932855993196
 20
15.560763178349589
 42
0.0139236222881211
 10
31.434181082496252
 20
15.587408012243486
 42
0.0139031831890558
 10
31.425960834870239
 20
15.613626187578575
 42
0.0139017955248024
 10
31.416298848128463
 20
15.639338146818773
 42
0.0139086551979633
 10
31.405217017442737
 20
15.664485869176133
 42
0.0139113727638281
 10
31.392748832703546
 20
15.68899000065403
 10
31.392737221378411
 20
15.689011331057827
 42
0.0139278199099989
 10
31.378900418019839
 20
15.712825649287879
 10
31.378881324154463
 20
15.7128565001467
 42
0.0139504022939569
 10
31.363699132754846
 20
15.735923334526433
 10
31.363671180907659
 20
15.735963327073478
 42
0.0139774514791146
 10
31.347166932669097
 20
15.758225003937241
 10
31.347128639612492
 20
15.758273746374471
 42
0.0140099719554028
 10
31.329325650862302
 20
15.779672506623683
 10
31.328109688249242
 20
15.781053467358561
 42
0.017583942064725
 10
31.306469454399121
 20
15.80395393577146
 10
31.303929671547849
 20
15.806459020443071
 10
31.303274454690836
 20
15.807119896438962
 42
0.0119348480506322
 10
31.284358751923719
 20
15.825309408100111
 42
0.0136412224271385
 10
31.264539542436978
 20
15.842506526235866
 10
31.263869826752853
 20
15.84305634505381
 42
0.0136991230923139
 10
31.242021296441635
 20
15.860013199245259
 10
31.241969624382364
 20
15.860051080771882
 42
0.0137551912727591
 10
31.219328885457799
 20
15.875710474891093
 10
31.219287588145562
 20
15.87573738951005
 42
0.0138095116568848
 10
31.195902528083025
 20
15.890073985427534
 10
31.195872646009775
 20
15.890091188313363
 42
0.0138620333076306
 10
31.171791150509307
 20
15.90307961744702
 10
31.171773723257502
 20
15.903088402256799
 42
0.0139124728231827
 10
31.147043675877285
 20
15.914703251031824
 42
0.0139580351054448
 10
31.121709027507677
 20
15.924920757707241
 42
0.0140101810638839
 10
31.095836131225042
 20
15.933708000237402
 42
0.0140437209049391
 10
31.069500527280979
 20
15.941034229625984
 10
31.069473917918003
 20
15.941040832870385
 42
0.0140767707539624
 10
31.042714659321973
 20
15.946886905877818
 10
31.042671326060372
 20
15.946895102209965
 42
0.0141018141122861
 10
31.015538252527222
 20
15.951238647350237
 10
31.015477304074011
 20
15.95124664872219
 42
0.014121391795297
 10
30.988020186655376
 20
15.954065173188155
 10
30.986194808535402
 20
15.954200594935173
 42
0.0176421122147279
 10
30.954964556945015
 20
15.955412064516622
 10
30.953171528019084
 20
15.955418324967923
 10
30.951420631350629
 20
15.955421382084751
  0
LWPOLYLINE
  5
BE
100
AcDbEntity
  8
AWK73-9930
370
              15
390
0
  6
Continuous
 62
              19
100
AcDbPolyline
 90
        5
 70
             128
 10
31.452892033189528
 20
15.955421382084751
 10
31.452892033189528
 20
18.952628615969843
 10
-31.45148340565629
 20
18.952628615969843
 10
-31.45148340565629
 20
15.955421382084751
 10
31.452892033189528
 20
15.955421382084751
  0
LWPOLYLINE
  5
BF
100
AcDbEntity
  8
AWK73-9930
370
              15
390
0
  6
Continuous
 62
              19
100
AcDbPolyline
 90
        6
 70
             128
 10
20.750492192393722
 20
-12.047741822161242
 10
20.750492192393722
 20
-20.547752514711192
 10
19.24959955571012
 20
-22.04794083762863
 10
-19.251360340126666
 20
-22.04794083762863
 10
-20.751196506160341
 20
-20.547752514711192
 10
-20.751196506160341
 20
-12.047741822161242
  0
LINE
  5
C0
100
AcDbEntity
  8
AWK73-9930
370
              15
390
0
  6
Continuous
 62
             250
100
AcDbLine
 10
17.499379845638941
 20
54.932849541044561
 30
0.0
 11
17.499379845638941
 21
49.933278268636059
 31
0.0
  0
LINE
  5
C1
100
AcDbEntity
  8
AWK73-9930
370
              15
390
0
  6
Continuous
 62
             250
100
AcDbLine
 10
-17.500260237847215
 20
54.932849541044561
 30
0.0
 11
-17.500260237847215
 21
49.933278268636059
 31
0.0
  0
LWPOLYLINE
  5
C2
100
AcDbEntity
  8
AWK73-9930
370
              15
390
0
  6
Continuous
 62
             250
100
AcDbPolyline
 90
       41
 70
             128
 10
32.000848143626172
 20
54.932849541044561
 10
32.000848143626172
 20
55.932622932773029
 42
0.003569248040987
 10
31.219818622564162
 20
56.386802943249222
 10
30.63440366541181
 20
56.721661147301347
 42
0.0142712011626596
 10
28.648994067252715
 20
57.783302215329968
 10
28.040743032000137
 20
58.086553366045791
 42
0.0142116804054548
 10
24.807154734080541
 20
59.585525232004329
 10
24.798327045052247
 20
59.589316494824743
 42
0.0141474285839078
 10
21.502813655695718
 20
60.895513073808615
 10
21.49541798237442
 20
60.898204897648611
 42
0.0140842843766651
 10
18.146366663013396
 20
62.011396381773011
 10
18.140353768802925
 20
62.013208628668508
 42
0.014025507529649
 10
14.746153532925746
 20
62.933189424400553
 10
14.741473036548996
 20
62.934318147283193
 42
0.0139739800369984
 10
11.310511736964145
 20
63.660904904868858
 10
11.307122805397739
 20
63.661524192563775
 42
0.0139322995566523
 10
7.8477732626397483
 20
64.194553174712382
 10
7.8456252561891233
 20
64.194823123047627
 42
0.0139018023556007
 10
4.3662800626007083
 20
64.534143068174671
 42
0.0138819870323057
 10
0.8743232943597832
 20
64.679676486329299
 42
0.0138820829079651
 10
-2.6197632893054106
 20
64.631155505286642
 42
0.0138976291445034
 10
-6.1075852475114516
 20
64.388582444913936
 42
0.0139149183837815
 10
-9.5780464362578641
 20
63.952381142361446
 10
-9.5808281924255425
 20
63.951952573998824
 42
0.0139508663405849
 10
-13.027134190965626
 20
63.322116434709642
 10
-13.031182393637209
 20
63.321259252129494
 42
0.0139975010502796
 10
-16.444954651192347
 20
62.497944830494816
 10
-16.450312119606679
 20
62.496492929933083
 42
0.0140527213344352
 10
-19.823167913933503
 20
61.479873088240311
 10
-19.829881768391715
 20
61.47764181196635
 42
0.0141138344381667
 10
-23.153432373479518
 20
60.267910310842581
 10
-23.161552566400132
 20
60.264692331010338
 42
0.0141776494981673
 10
-26.427409000765692
 20
58.862067138909424
 10
-26.836622490625814
 20
58.672401550897575
 42
0.0142371581597094
 10
-29.248318119316536
 20
57.470052765926994
 10
-29.840167416788063
 20
57.153638203049468
 42
0.0071404823851611
 10
-31.024565224815888
 20
56.4985180315457
 10
-31.219904045188741
 20
56.386798923247625
 42
0.003570998907396
 10
-32.001024222067826
 20
55.932622932773029
 10
-32.001024222067826
 20
54.932849541044561
 10
32.000848143626172
 20
54.932849541044561
  0
LWPOLYLINE
  5
C3
100
AcDbEntity
  8
AWK73-9930
370
              15
390
0
  6
Continuous
 62
             250
100
AcDbPolyline
 90
        4
 70
             128
 10
-20.751196506160341
 20
40.824388324836036
 10
-20.751196506160341
 20
38.89139919232548
 10
20.750492192393722
 20
38.89139919232548
 10
20.750492192393722
 20
40.824388324836036
  0
LINE
  5
C4
100
AcDbEntity
  8
AWK73-9930
370
              15
390
0
  6
Continuous
 62
             250
100
AcDbLine
 10
-20.751196506160341
 20
40.856610679659298
 30
0.0
 11
20.750492192393722
 21
40.856610679659298
 31
0.0
  0
LINE
  5
C5
100
AcDbEntity
  8
AWK73-9930
370
              15
390
0
  6
Continuous
 62
             250
100
AcDbLine
 10
-31.600797924182189
 20
48.932800563140518
 30
0.0
 11
-23.999843754732865
 21
46.875500050820392
 31
0.0
  0
LWPOLYLINE
  5
C6
100
AcDbEntity
  8
AWK73-9930
370
              15
390
0
  6
Continuous
 62
             250
100
AcDbPolyline
 90
       29
 70
             128
 10
-20.751196506160341
 20
40.824388324836036
 10
-22.289769929359863
 20
45.279172898758134
 42
0.0023303207285302
 10
-22.297533415417092
 20
45.301237615645277
 10
-22.311240196615472
 20
45.339621536421419
 42
0.0186005959381508
 10
-22.350142820610017
 20
45.436970187018687
 10
-22.366772118699373
 20
45.474471691061353
 42
0.0184834213452165
 10
-22.4476913520175
 20
45.640147664254982
 10
-22.44791124663243
 20
45.640558634507215
 42
0.0183706984562323
 10
-22.54034147479706
 20
45.799023154133465
 10
-22.540522970421989
 20
45.799309594704482
 42
0.0182743708694552
 10
-22.643924628402601
 20
45.950023607998446
 10
-22.64405488948978
 20
45.950199343827535
 42
0.0182051530063855
 10
-22.75789412283666
 20
46.092635126929508
 10
-22.757968817466462
 20
46.092721909549255
 42
0.0181623427588957
 10
-22.881701813044856
 20
46.226341786638386
 42
0.0181543626545147
 10
-23.014795285993387
 20
46.350622739319988
 42
0.0181817179863547
 10
-23.156550982130284
 20
46.464904384062265
 10
-23.156627369697162
 20
46.464961512791888
 42
0.0182411732892067
 10
-23.306479946446416
 20
46.568732192873085
 10
-23.30665261316517
 20
46.568842668690195
 42
0.0183295359116766
 10
-23.464038899386651
 20
46.661593932823507
 10
-23.464323820282516
 20
46.661748063680079
 42
0.0184408965372182
 10
-23.628677980042994
 20
46.742972277098488
 10
-23.629093965681022
 20
46.74315910419773
 42
0.0185670128166909
 10
-23.799847044057969
 20
46.812350297823286
 10
-23.800414773058947
 20
46.812556160371059
 42
0.0186910408256245
 10
-23.976992233951933
 20
46.869213003377808
 10
-23.977306156932173
 20
46.869300934804869
 42
0.0023436473272575
 10
-23.999843754732865
 20
46.875500050820392
 42
0.0023436473272575
  0
LINE
  5
C7
100
AcDbEntity
  8
AWK73-9930
370
              15
390
0
  6
Continuous
 62
             250
100
AcDbLine
 10
31.602910865481135
 20
48.932800563140518
 30
0.0
 11
24.001252382265193
 21
46.875500050820392
 31
0.0
  0
LINE
  5
C8
100
AcDbEntity
  8
AWK73-9930
370
              15
390
0
  6
Continuous
 62
             250
100
AcDbLine
 10
20.750492192393722
 20
40.824388324836036
 30
0.0
 11
22.287656988059098
 21
45.279172898758134
 31
0.0
  0
LWPOLYLINE
  5
C9
100
AcDbEntity
  8
AWK73-9930
370
              15
390
0
  6
Continuous
 62
             250
100
AcDbPolyline
 90
       37
 70
             128
 10
24.001252382265193
 20
46.875500050820392
 42
0.0016301228294357
 10
23.985427236133546
 20
46.871198754185571
 10
23.957864256140965
 20
46.863610511469233
 42
0.0130572001023752
 10
23.887485270380239
 20
46.842242916995474
 10
23.860184153316368
 20
46.83316906208438
 42
0.013014667557498
 10
23.738408705781694
 20
46.789144325538928
 10
23.738098419858034
 20
46.789022929292514
 42
0.0129662905393019
 10
23.619387329690653
 20
46.738991711691597
 10
23.619136006671397
 20
46.73887802946183
 42
0.0129163662472324
 10
23.503668636481962
 20
46.683011838281345
 10
23.503470779144664
 20
46.682909721047508
 42
0.0128670680666488
 10
23.391426202260845
 20
46.621380581080302
 10
23.39127665090291
 20
46.621293373313165
 42
0.01282051037594
 10
23.282833572186973
 20
46.554273752696645
 10
23.282727554680605
 20
46.554204414319429
 42
0.012778522285276
 10
23.178064274823555
 20
46.481867101151238
 10
23.177997436333499
 20
46.481818336206743
 42
0.0127426259399772
 10
23.077291833014897
 20
46.404336307486119
 42
0.012709921392112
 10
22.980689785592403
 20
46.321856998883959
 42
0.0126935261833838
 10
22.88843165005801
 20
46.234604696407132
 42
0.0126856388230752
 10
22.800690950180979
 20
46.142754832326773
 42
0.0126784216098408
 10
22.717692326971701
 20
46.046545123678698
 10
22.717641448305585
 20
46.046483030820127
 42
0.0126837826503165
 10
22.639528872019582
 20
45.946062370306663
 10
22.639456861323197
 20
45.945964784106764
 42
0.0126970750791874
 10
22.566401028318069
 20
45.841511616559728
 10
22.566310816197074
 20
45.84137539591211
 42
0.0127174950179515
 10
22.49848270860366
 20
45.733068810849545
 10
22.498377091316797
 20
45.732890222043352
 42
0.0127434477640705
 10
22.435947474223212
 20
45.620909577494331
 10
22.435829583104351
 20
45.620684833739688
 42
0.0127745948305036
 10
22.378969447623604
 20
45.505210338605139
 10
22.375567674732338
 20
45.497832017510973
 42
0.0128053951908832
 10
22.330626907319129
 20
45.393404178181754
 10
22.32765900427512
 20
45.38599043325712
 42
0.0096244463773525
 10
22.293088800249279
 20
45.294573426638181
 42
0.0016043098802454
 10
22.287656988059098
 20
45.279172898758134
 42
0.0016043098802454
  0
LWPOLYLINE
  5
CA
100
AcDbEntity
  8
AWK73-9930
370
              15
390
0
  6
Continuous
 62
             250
100
AcDbPolyline
 90
        5
 70
             128
 10
-31.600797924182189
 20
48.932800563140518
 10
31.602910865481135
 20
48.932800563140518
 10
31.602910865481135
 20
49.933278268636059
 10
-31.600797924182189
 20
49.933278268636059
 10
-31.600797924182189
 20
48.932800563140518
  0
LINE
  5
CB
100
AcDbEntity
  8
AWK73-9930
370
              15
390
0
  6
Continuous
 62
             250
100
AcDbLine
 10
-23.999843754732865
 20
46.875500050820392
 30
0.0
 11
24.001252382265193
 21
46.875500050820392
 31
0.0
  0
LINE
  5
CC
100
AcDbEntity
  8
AWK73-9930
370
              15
390
0
  6
Continuous
 62
             250
100
AcDbLine
 10
-22.289769929359863
 20
45.279172898758134
 30
0.0
 11
22.287656988059098
 21
45.279172898758134
 31
0.0
  0
LINE
  5
CD
100
AcDbEntity
  8
AWK73-9930
370
              15
390
0
  6
Continuous
 62
             250
100
AcDbLine
 10
2.3506471961209172
 20
38.89139919232548
 30
0.0
 11
2.3506471961209172
 21
18.952628615969843
 31
0.0
  0
LINE
  5
CE
100
AcDbEntity
  8
AWK73-9930
370
              15
390
0
  6
Continuous
 62
             250
100
AcDbLine
 10
1.8607969714312276
 20
38.89139919232548
 30
0.0
 11
1.8607969714312276
 21
18.952628615969843
 31
0.0
  0
LINE
  5
CF
100
AcDbEntity
  8
AWK73-9930
370
              15
390
0
  6
Continuous
 62
             250
100
AcDbLine
 10
-1.8607969714312276
 20
38.89139919232548
 30
0.0
 11
-1.8607969714312276
 21
18.952628615969843
 31
0.0
  0
LINE
  5
D0
100
AcDbEntity
  8
AWK73-9930
370
              15
390
0
  6
Continuous
 62
             250
100
AcDbLine
 10
-2.3506471961209172
 20
38.89139919232548
 30
0.0
 11
-2.3506471961209172
 21
18.952628615969843
 31
0.0
  0
LINE
  5
D1
100
AcDbEntity
  8
AWK73-9930
370
              15
390
0
  6
Continuous
 62
             250
100
AcDbLine
 10
-32.001024222067826
 20
55.932622932773029
 30
0.0
 11
32.000848143626172
 21
55.932622932773029
 31
0.0
  0
LINE
  5
D2
100
AcDbEntity
  8
AWK73-9930
370
               5
390
0
  6
Continuous
 62
               7
100
AcDbLine
 10
-19.251360340126666
 20
-22.04794083762863
 30
0.0
 11
-19.251360340126666
 21
-12.047741822161242
 31
0.0
  0
LINE
  5
D3
100
AcDbEntity
  8
AWK73-9930
370
               5
390
0
  6
Continuous
 62
               7
100
AcDbLine
 10
19.24959955571012
 20
-22.04794083762863
 30
0.0
 11
19.24959955571012
 21
-12.047741822161242
 31
0.0
  0
LINE
  5
D4
100
AcDbEntity
  8
AWK73-9930
370
               5
390
0
  6
Continuous
 62
               7
100
AcDbLine
 10
-20.751196506160341
 20
-20.547752514711192
 30
0.0
 11
20.750492192393722
 21
-20.547752514711192
 31
0.0
  0
ENDSEC
  0
SECTION
  2
OBJECTS
  0
DICTIONARY
  5
19
100
AcDbDictionary
280
               0
281
               1
  3
ACAD_GROUP
350
1A
  3
ACAD_MLINESTYLE
350
1B
  3
ACAD_LAYOUT
350
1E
  3
ACAD_PLOTSETTINGS
350
22
  3
ACAD_PLOTSTYLENAME
350
1F
  0
DICTIONARY
  5
1A
102
{ACAD_REACTORS
330
19
102
}
100
AcDbDictionary
280
               0
281
               1
  0
DICTIONARY
  5
1B
102
{ACAD_REACTORS
330
19
102
}
100
AcDbDictionary
280
               0
281
               1
  3
Standard
350
1C
  0
MLINESTYLE
  5
1C
102
{ACAD_REACTORS
330
1B
102
}
100
AcDbMlineStyle
  2
Standard
 70
               0
  3

 62
               0
 51
90.0
 52
90.0
 71
               2
 49
0.5
 62
             256
  6
ByLayer
 49
-0.5
 62
             256
  6
ByLayer
  0
ACDBDICTIONARYWDFLT
  5
1F
102
{ACAD_REACTORS
330
19
102
}
100
AcDbDictionary
281
               1
  3
Normal
350
1D
100
AcDbDictionaryWithDefault
340
1D
  0
ACDBPLACEHOLDER
  5
1D
102
{ACAD_REACTORS
330
1F
102
}
  0
LAYOUT
  5
20
102
{ACAD_REACTORS
330
1E
102
}
100
AcDbPlotSettings
  1

  2

  4

  6

 40
0.0
 41
0.0
 42
0.0
 43
0.0
 44
0.0
 45
0.0
 46
0.0
 47
0.0
 48
0.0
 49
0.0
140
0.0
141
0.0
142
1.0
143
1.0
 70
            1024
 72
               0
 73
               0
 74
               0
  7

 75
               0
147
1.0
148
0.0
149
0.0
100
AcDbLayout
  1
Model
 70
               0
 71
               0
 10
0.0
 20
0.0
 11
0.0
 21
0.0
 12
0.0
 22
0.0
 32
0.0
 14
0.0
 24
0.0
 34
0.0
 15
0.0
 25
0.0
 35
0.0
146
0.0
 13
0.0
 23
0.0
 33
0.0
 16
0.0
 26
0.0
 36
0.0
 17
0.0
 27
0.0
 37
0.0
 76
               0
330
A
331
0
345
0
346
0
  0
LAYOUT
  5
21
102
{ACAD_REACTORS
330
1E
102
}
100
AcDbPlotSettings
  1

  2

  4

  6

 40
0.0
 41
0.0
 42
0.0
 43
0.0
 44
0.0
 45
0.0
 46
0.0
 47
0.0
 48
0.0
 49
0.0
140
0.0
141
0.0
142
1.0
143
1.0
 70
               0
 72
               0
 73
               0
 74
               0
  7

 75
               0
147
1.0
148
0.0
149
0.0
100
AcDbLayout
  1
Layout1
 70
               0
 71
               0
 10
0.0
 20
0.0
 11
0.0
 21
0.0
 12
0.0
 22
0.0
 32
0.0
 14
0.0
 24
0.0
 34
0.0
 15
0.0
 25
0.0
 35
0.0
146
0.0
 13
0.0
 23
0.0
 33
0.0
 16
0.0
 26
0.0
 36
0.0
 17
0.0
 27
0.0
 37
0.0
 76
               0
330
B
331
0
345
0
346
0
  0
DICTIONARY
  5
1E
102
{ACAD_REACTORS
330
19
102
}
100
AcDbDictionary
280
               0
281
               1
  3
Layout1
350
21
  3
Model
350
20
  0
DICTIONARY
  5
22
102
{ACAD_REACTORS
330
19
102
}
100
AcDbDictionary
280
               0
281
               1
  0
ENDSEC
  0
EOF
