  0
SECTION
  2
HEADER
  9
$ACADVER
  1
AC1015
  9
$ACADMAINTVER
 70
               6
  9
$DWGCODEPAGE
  3
ANSI_932
  9
$INSBASE
 10
0.0
 20
0.0
 30
0.0
  9
$EXTMIN
 10
-97.5
 20
-142.05635050454475
 30
-1.4834305555555556
  9
$EXTMAX
 10
97.5
 20
142.05635050454475
 30
1.4834305555555556
  9
$LIMMIN
 10
0.0
 20
0.0
  9
$LIMMAX
 10
0.0
 20
0.0
  9
$ORTHOMODE
 70
               0
  9
$REGENMODE
 70
               1
  9
$FILLMODE
 70
               1
  9
$QTEXTMODE
 70
               0
  9
$MIRRTEXT
 70
               1
  9
$LTSCALE
 40
5.0800000000000001
  9
$ATTMODE
 70
               1
  9
$TEXTSIZE
 40
0.2
  9
$TRACEWID
 40
1.0
  9
$TEXTSTYLE
  7
Standard
  9
$CLAYER
  8
template
  9
$CELTYPE
  6
Continuous
  9
$CECOLOR
 62
             256
  9
$CELTSCALE
 40
1.0
  9
$DISPSILH
 70
               0
  9
$DIMSCALE
 40
1.0
  9
$DIMASZ
 40
3.1749999999999998
  9
$DIMEXO
 40
0.0
  9
$DIMDLI
 40
6.9999999999999396
  9
$DIMRND
 40
0.0
  9
$DIMDLE
 40
0.0
  9
$DIMEXE
 40
1.9999999999996199
  9
$DIMTP
 40
0.0
  9
$DIMTM
 40
0.0
  9
$DIMTXT
 40
2.4432617187500001
  9
$DIMCEN
 40
0.0
  9
$DIMTSZ
 40
0.0
  9
$DIMTOL
 70
               0
  9
$DIMLIM
 70
               0
  9
$DIMTIH
 70
               0
  9
$DIMTOH
 70
               0
  9
$DIMSE1
 70
               0
  9
$DIMSE2
 70
               0
  9
$DIMTAD
 70
               1
  9
$DIMZIN
 70
              11
  9
$DIMBLK
  1
VW_FILLEDARROW
  9
$DIMASO
 70
               1
  9
$DIMSHO
 70
               1
  9
$DIMPOST
  1
<>
  9
$DIMAPOST
  1
[]
  9
$DIMALT
 70
               0
  9
$DIMALTD
 70
               3
  9
$DIMALTF
 40
0.0393700787401575
  9
$DIMLFAC
 40
1.0
  9
$DIMTOFL
 70
               0
  9
$DIMTVP
 40
0.0
  9
$DIMTIX
 70
               1
  9
$DIMSOXD
 70
               0
  9
$DIMSAH
 70
               0
  9
$DIMBLK1
  1

  9
$DIMBLK2
  1

  9
$DIMSTYLE
  2
JIS
  9
$DIMCLRD
 70
               0
  9
$DIMCLRE
 70
               0
  9
$DIMCLRT
 70
               0
  9
$DIMTFAC
 40
1.0
  9
$DIMGAP
 40
1.00000000000108
  9
$DIMJUST
 70
               0
  9
$DIMSD1
 70
               0
  9
$DIMSD2
 70
               0
  9
$DIMTOLJ
 70
               1
  9
$DIMTZIN
 70
              11
  9
$DIMALTZ
 70
              15
  9
$DIMALTTZ
 70
              15
  9
$DIMUPT
 70
               0
  9
$DIMDEC
 70
               1
  9
$DIMTDEC
 70
               1
  9
$DIMALTU
 70
               4
  9
$DIMALTTD
 70
               2
  9
$DIMTXSTY
  7
ＭＳ ゴシック
  9
$DIMAUNIT
 70
               0
  9
$DIMADEC
 70
               2
  9
$DIMALTRND
 40
0.0
  9
$DIMAZIN
 70
               0
  9
$DIMDSEP
 70
              46
  9
$DIMATFIT
 70
               0
  9
$DIMFRAC
 70
               2
  9
$DIMLDRBLK
  1

  9
$DIMLUNIT
 70
               2
  9
$DIMLWD
 70
              -2
  9
$DIMLWE
 70
              -2
  9
$DIMTMOVE
 70
               0
  9
$LUNITS
 70
               2
  9
$LUPREC
 70
               4
  9
$SKETCHINC
 40
0.1
  9
$FILLETRAD
 40
0.0
  9
$AUNITS
 70
               0
  9
$AUPREC
 70
               0
  9
$MENU
  1
acad
  9
$ELEVATION
 40
0.0
  9
$PELEVATION
 40
0.0
  9
$THICKNESS
 40
0.0
  9
$LIMCHECK
 70
               0
  9
$CHAMFERA
 40
0.0
  9
$CHAMFERB
 40
0.0
  9
$CHAMFERC
 40
0.0
  9
$CHAMFERD
 40
0.0
  9
$SKPOLY
 70
               0
  9
$TDCREATE
 40
2455882.433240741
  9
$TDUCREATE
 40
0.000000000
  9
$TDUPDATE
 40
2455882.433240741
  9
$TDUUPDATE
 40
0.000000000
  9
$TDINDWG
 40
0.0000000000
  9
$TDUSRTIMER
 40
0.0000000000
  9
$USRTIMER
 70
               1
  9
$ANGBASE
 50
0.0
  9
$ANGDIR
 70
               0
  9
$PDMODE
 70
               1
  9
$PDSIZE
 40
-2.0
  9
$PLINEWID
 40
0.0
  9
$SPLFRAME
 70
               0
  9
$SPLINETYPE
 70
               6
  9
$SPLINESEGS
 70
               8
  9
$HANDSEED
  5
D5
  9
$SURFTAB1
 70
               6
  9
$SURFTAB2
 70
               6
  9
$SURFTYPE
 70
               6
  9
$SURFU
 70
               6
  9
$SURFV
 70
               6
  9
$UCSBASE
  2

  9
$UCSNAME
  2

  9
$UCSORG
 10
0.0
 20
0.0
 30
0.0
  9
$UCSXDIR
 10
1.0
 20
0.0
 30
0.0
  9
$UCSYDIR
 10
0.0
 20
1.0
 30
0.0
  9
$UCSORTHOREF
  2

  9
$UCSORTHOVIEW
 70
               0
  9
$UCSORGTOP
 10
0.0
 20
0.0
 30
0.0
  9
$UCSORGBOTTOM
 10
0.0
 20
0.0
 30
0.0
  9
$UCSORGLEFT
 10
0.0
 20
0.0
 30
0.0
  9
$UCSORGRIGHT
 10
0.0
 20
0.0
 30
0.0
  9
$UCSORGFRONT
 10
0.0
 20
0.0
 30
0.0
  9
$UCSORGBACK
 10
0.0
 20
0.0
 30
0.0
  9
$PUCSBASE
  2

  9
$PUCSNAME
  2

  9
$PUCSORG
 10
0.0
 20
0.0
 30
0.0
  9
$PUCSXDIR
 10
1.0
 20
0.0
 30
0.0
  9
$PUCSYDIR
 10
0.0
 20
1.0
 30
0.0
  9
$PUCSORTHOREF
  2

  9
$PUCSORTHOVIEW
 70
               0
  9
$PUCSORGTOP
 10
0.0
 20
0.0
 30
0.0
  9
$PUCSORGBOTTOM
 10
0.0
 20
0.0
 30
0.0
  9
$PUCSORGLEFT
 10
0.0
 20
0.0
 30
0.0
  9
$PUCSORGRIGHT
 10
0.0
 20
0.0
 30
0.0
  9
$PUCSORGFRONT
 10
0.0
 20
0.0
 30
0.0
  9
$PUCSORGBACK
 10
0.0
 20
0.0
 30
0.0
  9
$USERI1
 70
               0
  9
$USERI2
 70
               0
  9
$USERI3
 70
               0
  9
$USERI4
 70
               0
  9
$USERI5
 70
               0
  9
$USERR1
 40
0.0
  9
$USERR2
 40
0.0
  9
$USERR3
 40
0.0
  9
$USERR4
 40
0.0
  9
$USERR5
 40
0.0
  9
$WORLDVIEW
 70
               1
  9
$SHADEDGE
 70
               3
  9
$SHADEDIF
 70
              70
  9
$TILEMODE
 70
               1
  9
$MAXACTVP
 70
              64
  9
$PINSBASE
 10
0.0
 20
0.0
 30
0.0
  9
$PLIMCHECK
 70
               0
  9
$PEXTMIN
 10
1.0000000000000000E+20
 20
1.0000000000000000E+20
 30
1.0000000000000000E+20
  9
$PEXTMAX
 10
-1.0000000000000000E+20
 20
-1.0000000000000000E+20
 30
-1.0000000000000000E+20
  9
$PLIMMIN
 10
0.0
 20
0.0
  9
$PLIMMAX
 10
12.0
 20
9.0
  9
$UNITMODE
 70
               0
  9
$VISRETAIN
 70
               0
  9
$PLINEGEN
 70
               1
  9
$PSLTSCALE
 70
               0
  9
$TREEDEPTH
 70
            3020
  9
$CMLSTYLE
  2
Standard
  9
$CMLJUST
 70
               0
  9
$CMLSCALE
 40
1.0
  9
$PROXYGRAPHICS
 70
               0
  9
$MEASUREMENT
 70
               1
  9
$CELWEIGHT
370
               0
  9
$ENDCAPS
280
               0
  9
$JOINSTYLE
280
               0
  9
$LWDISPLAY
290
               1
  9
$INSUNITS
 70
               4
  9
$HYPERLINKBASE
  1

  9
$STYLESHEET
  1

  9
$XEDIT
290
               1
  9
$CEPSNTYPE
380
               0
  9
$PSTYLEMODE
290
               1
  9
$FINGERPRINTGUID
  2

  9
$VERSIONGUID
  2

  9
$EXTNAMES
290
               1
  9
$PSVPSCALE
 40
0.0
  0
ENDSEC
  0
SECTION
  2
CLASSES
  0
CLASS
  1
LWPOLYLINE
  2
AcDbPolyline
  3
AutoCAD 2000
 90
        0
280
               0
281
               1
  0
CLASS
  1
IMAGE
  2
AcDbRasterImage
  3
ISM
 90
      127
280
               0
281
               1
  0
CLASS
  1
OLE2FRAME
  2
AcDbOle2Frame
  3
AutoCAD 2000
 90
        0
280
               0
281
               1
  0
CLASS
  1
HATCH
  2
AcDbHatch
  3
AutoCAD 2000
 90
        0
280
               0
281
               1
  0
CLASS
  1
DICTIONARYVAR
  2
AcDbDictionaryVar
  3
AutoCAD 2000
 90
        0
280
               0
281
               0
  0
CLASS
  1
RASTERVARIABLES
  2
AcDbRasterVariables
  3
ISM
 90
        0
280
               0
281
               0
  0
CLASS
  1
IMAGEDEF
  2
AcDbRasterImageDef
  3
ISM
 90
        0
280
               0
281
               0
  0
CLASS
  1
IMAGEDEF_REACTOR
  2
AcDbRasterImageDefReactor
  3
ISM
 90
        1
280
               0
281
               0
  0
CLASS
  1
IDBUFFER
  2
AcDbIdBuffer
  3
AutoCAD 2000
 90
        0
280
               0
281
               0
  0
CLASS
  1
SPATIAL_FILTER
  2
AcDbSpatialFilter
  3
AutoCAD 2000
 90
        0
280
               0
281
               0
  0
CLASS
  1
XRECORD
  2
AcDbXrecord
  3
AutoCAD 2000
 90
        0
280
               0
281
               0
  0
CLASS
  1
SORTENTSTABLE
  2
AcDbSortentsTable
  3
AutoCAD 2000
 90
        0
280
               0
281
               0
  0
CLASS
  1
LAYER_INDEX
  2
AcDbLayerIndex
  3
AutoCAD 2000
 90
        0
280
               0
281
               0
  0
CLASS
  1
SPATIAL_INDEX
  2
AcDbSpatialIndex
  3
AutoCAD 2000
 90
        0
280
               0
281
               0
  0
CLASS
  1
OBJECT_PTR
  2
CAseDLPNTableRecord
  3
"ASE-LPNTableRecord"
 90
        1
280
               0
281
               0
  0
CLASS
  1
LAYOUT
  2
AcDbLayout
  3
AutoCAD 2000
 90
        0
280
               0
281
               0
  0
CLASS
  1
PLOTSETTINGS
  2
AcDbPlotSettings
  3
AutoCAD 2000
 90
        0
280
               0
281
               0
  0
CLASS
  1
ACDBDICTIONARYWDFLT
  2
AcDbDictionaryWithDefault
  3
AutoCAD 2000
 90
        0
280
               0
281
               0
  0
CLASS
  1
ACDBPLACEHOLDER
  2
AcDbPlaceHolder
  3
AutoCAD 2000
 90
        0
280
               0
281
               0
  0
ENDSEC
  0
SECTION
  2
TABLES
  0
TABLE
  2
VPORT
  5
7
100
AcDbSymbolTable
 70
               1
  0
VPORT
  5
15
100
AcDbSymbolTableRecord
100
AcDbViewportTableRecord
  2
*ACTIVE
 70
               0
 10
0.0
 20
0.0
 11
1.0
 21
1.0
 12
0.0
 22
0.0
 13
0.0
 23
0.0
 14
1.0
 24
1.0
 15
0.0
 25
0.0
 16
0.0
 26
0.0
 36
1.0
 17
0.0
 27
0.0
 37
0.0
 40
284.11270100908951
 41
0.688564
 42
50.0
 43
0.0
 44
0.0
 50
0.0
 51
0.0
 71
               0
 72
            2000
 73
               1
 74
               1
 75
               0
 76
               0
 77
               0
 78
               0
281
               0
 65
               0
110
0.0
120
0.0
130
0.0
111
1.0
121
0.0
131
0.0
112
0.0
122
1.0
132
0.0
345
0
346
0
 79
               0
146
0.0
  0
ENDTAB
  0
TABLE
  2
LTYPE
  5
4
100
AcDbSymbolTable
 70
              13
  0
LTYPE
  5
11
100
AcDbSymbolTableRecord
100
AcDbLinetypeTableRecord
  2
ByBlock
 70
              64
  3

 72
              65
 73
               0
 40
0.0
  0
LTYPE
  5
12
100
AcDbSymbolTableRecord
100
AcDbLinetypeTableRecord
  2
ByLayer
 70
              64
  3

 72
              65
 73
               0
 40
0.0
  0
LTYPE
  5
13
100
AcDbSymbolTableRecord
100
AcDbLinetypeTableRecord
  2
Continuous
 70
              64
  3
Solid line
 72
              65
 73
               0
 40
0.0
  0
LTYPE
  5
2B
100
AcDbSymbolTableRecord
100
AcDbLinetypeTableRecord
  2
STYLE_01
 70
               0
  3

 72
              65
 73
               4
 40
1.3430223570331312
 49
0.8953497029175778
 74
               0
 49
-0.1492242180385178
 74
               0
 49
0.1492242180385178
 74
               0
 49
-0.1492242180385178
 74
               0
  0
LTYPE
  5
2C
100
AcDbSymbolTableRecord
100
AcDbLinetypeTableRecord
  2
STYLE_02
 70
               0
  3

 72
              65
 73
               4
 40
0.7047336719585045
 49
0.4698226834770658
 74
               0
 49
-0.0586775635857579
 74
               0
 49
0.1175558613099228
 74
               0
 49
-0.058677563585758
 74
               0
  0
LTYPE
  5
2D
100
AcDbSymbolTableRecord
100
AcDbLinetypeTableRecord
  2
STYLE_03
 70
               0
  3

 72
              65
 73
               2
 40
1.25
 49
1.0416400000000001
 74
               0
 49
-0.2083599999999999
 74
               0
  0
LTYPE
  5
2E
100
AcDbSymbolTableRecord
100
AcDbLinetypeTableRecord
  2
STYLE_04
 70
               0
  3

 72
              65
 73
               2
 40
1.5277099999999999
 49
1.3194249999999998
 74
               0
 49
-0.208285
 74
               0
  0
LTYPE
  5
2F
100
AcDbSymbolTableRecord
100
AcDbLinetypeTableRecord
  2
STYLE_05
 70
               0
  3

 72
              65
 73
               2
 40
0.20828
 49
0.069425
 74
               0
 49
-0.138855
 74
               0
  0
LTYPE
  5
30
100
AcDbSymbolTableRecord
100
AcDbLinetypeTableRecord
  2
STYLE_06
 70
               0
  3

 72
              65
 73
               4
 40
1.0416400000000001
 49
0.625
 74
               0
 49
-0.20828
 74
               0
 49
0.06943
 74
               0
 49
-0.13893
 74
               0
  0
LTYPE
  5
31
100
AcDbSymbolTableRecord
100
AcDbLinetypeTableRecord
  2
STYLE_07
 70
               0
  3

 72
              65
 73
               6
 40
1.875
 49
0.625
 74
               0
 49
-0.20828
 74
               0
 49
0.6250000000000001
 74
               0
 49
-0.2083599999999999
 74
               0
 49
0.06943
 74
               0
 49
-0.1389299999999999
 74
               0
  0
LTYPE
  5
32
100
AcDbSymbolTableRecord
100
AcDbLinetypeTableRecord
  2
STYLE_08
 70
               0
  3

 72
              65
 73
               6
 40
1.25
 49
0.625
 74
               0
 49
-0.20828
 74
               0
 49
0.06943
 74
               0
 49
-0.13893
 74
               0
 49
0.0694299999999999
 74
               0
 49
-0.13893
 74
               0
  0
LTYPE
  5
33
100
AcDbSymbolTableRecord
100
AcDbLinetypeTableRecord
  2
STYLE_09
 70
               0
  3

 72
              65
 73
               4
 40
5.0
 49
3.75
 74
               0
 49
-0.2777849999999998
 74
               0
 49
0.6944300000000003
 74
               0
 49
-0.2777849999999998
 74
               0
  0
LTYPE
  5
34
100
AcDbSymbolTableRecord
100
AcDbLinetypeTableRecord
  2
STYLE_10
 70
               0
  3

 72
              65
 73
               6
 40
5.9375
 49
3.75
 74
               0
 49
-0.2777849999999998
 74
               0
 49
0.6944300000000003
 74
               0
 49
-0.2777849999999998
 74
               0
 49
0.625
 74
               0
 49
-0.3125
 74
               0
  0
ENDTAB
  0
TABLE
  2
LAYER
  5
2
100
AcDbSymbolTable
 70
               6
  0
LAYER
  5
14
100
AcDbSymbolTableRecord
100
AcDbLayerTableRecord
  2
0
 70
               0
 62
               7
  6
Continuous
290
               1
370
              -3
390
1D
  0
LAYER
  5
35
100
AcDbSymbolTableRecord
100
AcDbLayerTableRecord
  2
Defpoints
 70
               0
 62
               7
  6
Continuous
290
               0
370
              -3
390
1D
  0
LAYER
  5
36
100
AcDbSymbolTableRecord
100
AcDbLayerTableRecord
  2
template
 70
               0
 62
               7
  6
Continuous
290
               1
370
              -3
390
1D
  0
LAYER
  5
37
100
AcDbSymbolTableRecord
100
AcDbLayerTableRecord
  2
notes
 70
               0
 62
               7
  6
Continuous
290
               1
370
              -3
390
1D
  0
LAYER
  5
38
100
AcDbSymbolTableRecord
100
AcDbLayerTableRecord
  2
AWK73-9930
 70
               0
 62
               7
  6
Continuous
290
               1
370
              -3
390
1D
  0
LAYER
  5
39
100
AcDbSymbolTableRecord
100
AcDbLayerTableRecord
  2
9931
 70
               0
 62
               7
  6
Continuous
290
               1
370
              -3
390
1D
  0
ENDTAB
  0
TABLE
  2
STYLE
  5
3
100
AcDbSymbolTable
 70
               2
  0
STYLE
  5
17
100
AcDbSymbolTableRecord
100
AcDbTextStyleTableRecord
  2
Standard
 70
               0
 40
0.0
 41
1.0
 50
0.0
 71
               0
 42
0.0
  3
txt
  4
BIGFONT.SHX
  0
STYLE
  5
2A
100
AcDbSymbolTableRecord
100
AcDbTextStyleTableRecord
  2
ＭＳ ゴシック
 70
               0
 40
0.0
 41
1.0
 50
0.0
 71
               0
 42
0.0
  3

  4
ＭＳ ゴシック
1001
ACAD
1000
ＭＳ ゴシック
1071
        0
  0
ENDTAB
  0
TABLE
  2
VIEW
  5
5
100
AcDbSymbolTable
 70
               0
  0
ENDTAB
  0
TABLE
  2
UCS
  5
6
100
AcDbSymbolTable
 70
               0
  0
ENDTAB
  0
TABLE
  2
APPID
  5
8
100
AcDbSymbolTable
 70
               1
  0
APPID
  5
16
100
AcDbSymbolTableRecord
100
AcDbRegAppTableRecord
  2
ACAD
 70
               0
  0
ENDTAB
  0
TABLE
  2
DIMSTYLE
  5
9
100
AcDbSymbolTable
 70
               3
100
AcDbDimStyleTable
 71
               0
  0
DIMSTYLE
105
18
100
AcDbSymbolTableRecord
100
AcDbDimStyleTableRecord
  2
Standard
 70
               0
  3

  4

 40
1.0
 41
0.18
 42
0.0625
 43
0.38
 44
0.18
 45
0.0
 46
0.0
 47
0.0
 48
0.0
 71
               0
 72
               0
 73
               1
 74
               1
 75
               0
 76
               0
 77
               0
 78
               0
 79
               0
140
0.18
141
0.09
142
0.0
143
25.399999999999999
144
1.0
145
0.0
146
1.0
147
0.09
148
0.0
170
               0
171
               2
172
               0
173
               0
174
               0
175
               0
176
               0
177
               0
178
               0
179
               0
271
               4
272
               4
273
               2
274
               2
275
               0
276
               0
277
               2
278
              46
279
               0
280
               0
281
               0
282
               0
283
               1
284
               0
285
               0
286
               0
288
               0
289
               3
340
17
341
0
342
0
343
0
344
0
371
              -2
372
              -2
  0
DIMSTYLE
105
42
100
AcDbSymbolTableRecord
100
AcDbDimStyleTableRecord
  2
tfrom線あり
 70
               0
  3
<>
  4
[]
 40
1.0
 41
0.3999755859375
 42
2.4999999999999996
 43
0.9999999999999999
 44
0.0
 45
0.0
 46
0.0
 47
0.0
 48
0.0
 71
               0
 72
               0
 73
               0
 74
               0
 75
               0
 76
               0
 77
               1
 78
              11
 79
               0
140
2.4432617187500001
141
0.0
142
0.0
143
0.0393700787401575
144
1.0
145
0.0
146
1.0
147
0.4999999999999999
148
0.0
170
               0
171
               3
172
               0
173
               0
174
               1
175
               0
176
               0
177
               0
178
               0
179
               2
271
               1
272
               1
273
               4
274
               2
275
               0
276
               2
277
               2
278
              46
279
               0
280
               0
281
               0
282
               0
283
               1
284
              11
285
              15
286
              15
288
               0
289
               0
340
2A
341
3A
342
3A
343
0
344
0
371
              -2
372
              -2
  0
DIMSTYLE
105
47
100
AcDbSymbolTableRecord
100
AcDbDimStyleTableRecord
  2
JIS
 70
               0
  3
<>
  4
[]
 40
1.0
 41
3.1749999999999998
 42
0.0
 43
6.9999999999999396
 44
1.9999999999996199
 45
0.0
 46
0.0
 47
0.0
 48
0.0
 71
               0
 72
               0
 73
               0
 74
               0
 75
               0
 76
               0
 77
               1
 78
              11
 79
               0
140
2.4432617187500001
141
0.0
142
0.0
143
0.0393700787401575
144
1.0
145
0.0
146
1.0
147
1.00000000000108
148
0.0
170
               0
171
               3
172
               0
173
               0
174
               1
175
               0
176
               0
177
               0
178
               0
179
               2
271
               1
272
               1
273
               4
274
               2
275
               0
276
               2
277
               2
278
              46
279
               0
280
               0
281
               0
282
               0
283
               1
284
              11
285
              15
286
              15
288
               0
289
               0
340
2A
341
43
342
43
343
0
344
0
371
              -2
372
              -2
  0
ENDTAB
  0
TABLE
  2
BLOCK_RECORD
  5
1
100
AcDbSymbolTable
 70
               9
  0
BLOCK_RECORD
  5
A
100
AcDbSymbolTableRecord
100
AcDbBlockTableRecord
  2
*MODEL_SPACE
340
20
  0
BLOCK_RECORD
  5
B
100
AcDbSymbolTableRecord
100
AcDbBlockTableRecord
  2
*PAPER_SPACE
340
21
  0
BLOCK_RECORD
  5
3A
100
AcDbSymbolTableRecord
100
AcDbBlockTableRecord
  2
_DOT
340
0
  0
BLOCK_RECORD
  5
43
100
AcDbSymbolTableRecord
100
AcDbBlockTableRecord
  2
VW_FILLEDARROW
340
0
  0
BLOCK_RECORD
  5
23
100
AcDbSymbolTableRecord
100
AcDbBlockTableRecord
  2
グループ
340
0
102
{BLKREFS
331
AE
102
}
  0
BLOCK_RECORD
  5
24
100
AcDbSymbolTableRecord
100
AcDbBlockTableRecord
  2
*D3
340
0
  0
BLOCK_RECORD
  5
25
100
AcDbSymbolTableRecord
100
AcDbBlockTableRecord
  2
*D4
340
0
  0
BLOCK_RECORD
  5
26
100
AcDbSymbolTableRecord
100
AcDbBlockTableRecord
  2
*D5
340
0
  0
BLOCK_RECORD
  5
27
100
AcDbSymbolTableRecord
100
AcDbBlockTableRecord
  2
*D6
340
0
  0
BLOCK_RECORD
  5
28
100
AcDbSymbolTableRecord
100
AcDbBlockTableRecord
  2
*D7
340
0
  0
BLOCK_RECORD
  5
29
100
AcDbSymbolTableRecord
100
AcDbBlockTableRecord
  2
*D8
340
0
  0
ENDTAB
  0
ENDSEC
  0
SECTION
  2
BLOCKS
  0
BLOCK
  5
D
100
AcDbEntity
  8
0
390
0
100
AcDbBlockBegin
  2
*MODEL_SPACE
 70
               0
 10
0.0
 20
0.0
 30
0.0
  3
*MODEL_SPACE
  1

  0
ENDBLK
  5
E
100
AcDbEntity
  8
0
390
0
100
AcDbBlockEnd
  0
BLOCK
  5
F
100
AcDbEntity
 67
               1
  8
0
390
0
100
AcDbBlockBegin
  2
*PAPER_SPACE
 70
               0
 10
0.0
 20
0.0
 30
0.0
  3
*PAPER_SPACE
  1

  0
ENDBLK
  5
10
100
AcDbEntity
 67
               1
  8
0
390
0
100
AcDbBlockEnd
  0
BLOCK
  5
3B
100
AcDbEntity
  8
0
390
0
100
AcDbBlockBegin
  2
_DOT
 70
               0
 10
0.0
 20
0.0
 30
0.0
  3
_DOT
  1

  0
POLYLINE
  5
3C
100
AcDbEntity
  8
0
370
              -2
390
0
  6
ByBlock
 62
               0
100
AcDb2dPolyline
 66
               1
 10
0.0
 20
0.0
 30
0.0
 70
               1
 40
0.5
 41
0.5
  0
VERTEX
  5
3D
100
AcDbEntity
  8
0
370
              -2
390
0
  6
ByBlock
 62
               0
100
AcDbVertex
100
AcDb2dVertex
 10
-0.25
 20
0.0
 30
0.0
 42
1.0
  0
VERTEX
  5
3E
100
AcDbEntity
  8
0
370
              -2
390
0
  6
ByBlock
 62
               0
100
AcDbVertex
100
AcDb2dVertex
 10
0.25
 20
0.0
 30
0.0
 42
1.0
  0
SEQEND
  5
3F
100
AcDbEntity
  8
0
390
0
  0
LINE
  5
40
100
AcDbEntity
  8
0
370
              -2
390
0
  6
ByBlock
 62
               0
100
AcDbLine
 10
-0.5
 20
0.0
 30
0.0
 11
-1.0
 21
0.0
 31
0.0
  0
ENDBLK
  5
41
100
AcDbEntity
  8
0
390
0
100
AcDbBlockEnd
  0
BLOCK
  5
44
100
AcDbEntity
  8
0
370
              -2
390
0
  6
ByBlock
 62
               0
100
AcDbBlockBegin
  2
VW_FILLEDARROW
 70
               0
 10
0.0
 20
0.0
 30
0.0
  3
VW_FILLEDARROW
  1

  0
SOLID
  5
45
100
AcDbEntity
  8
0
370
              -2
390
0
 62
               0
100
AcDbTrace
 10
0.0
 20
0.0
 30
0.0
 11
-0.9999389648437499
 21
-0.2679328381102956
 31
0.0
 12
-0.9999389648437499
 22
0.2679328381102958
 32
0.0
 13
-0.9999389648437499
 23
0.2679328381102958
 33
0.0
  0
ENDBLK
  5
46
100
AcDbEntity
  8
0
390
0
100
AcDbBlockEnd
  0
BLOCK
  5
48
100
AcDbEntity
  8
template
390
0
100
AcDbBlockBegin
  2
グループ
 70
               0
 10
0.0
 20
0.0
 30
0.0
  3
グループ
  1

  0
LWPOLYLINE
  5
49
100
AcDbEntity
  8
0
370
              15
390
0
  6
Continuous
 62
               7
100
AcDbPolyline
 90
        8
 70
             129
 10
-5205.5162474667259
 20
-3892.3032075833235
 10
-5205.5162474667259
 20
-3892.90296276648
 10
-5206.4663671585258
 20
-3892.90296276648
 10
-5206.4663671585258
 20
-3895.3481256031278
 10
-5207.3019048847045
 20
-3895.3481256031278
 10
-5207.3019048847045
 20
-3892.90296276648
 10
-5208.2352005793346
 20
-3892.90296276648
 10
-5208.2352005793346
 20
-3892.3032075833235
  0
LWPOLYLINE
  5
4A
100
AcDbEntity
  8
0
370
              15
390
0
  6
Continuous
 62
               7
100
AcDbPolyline
 90
      101
 70
             128
 10
-5204.2434182836705
 20
-3892.3760344135621
 10
-5204.2418832652729
 20
-3892.3755983216229
 42
-0.0222227006403421
 10
-5204.2128828231253
 20
-3892.3687356928385
 10
-5204.2113034402319
 20
-3892.368435341124
 42
-0.0146887360358558
 10
-5204.1850331762034
 20
-3892.3642349094098
 42
-0.0127462235886748
 10
-5204.1585692756844
 20
-3892.3614811373996
 10
-5204.1523237716565
 20
-3892.3609917821277
 42
-0.019810438714082
 10
-5204.1132388574724
 20
-3892.3594832253575
 10
-5204.1080577137645
 20
-3892.3594886030669
 42
-0.0147621388769123
 10
-5204.0585953700793
 20
-3892.3610006465751
 10
-5204.0513262285622
 20
-3892.3614379189194
 42
-0.0162628894654486
 10
-5204.0123108592334
 20
-3892.3650613053892
 10
-5204.0001576218756
 20
-3892.3665900026481
 42
-0.0080022964622137
 10
-5203.985599716998
 20
-3892.3686583438575
 10
-5203.981767770606
 20
-3892.3692654880479
 42
-0.0053823312044885
 10
-5203.9749193594071
 20
-3892.3704262721099
 10
-5204.0475599293268
 20
-3892.5885250501351
 42
0.0108670493675221
 10
-5204.0542916378672
 20
-3892.5872063024772
 10
-5204.0580384386594
 20
-3892.5865565108079
 42
0.0170667668057604
 10
-5204.0723601209775
 20
-3892.5845734967625
 10
-5204.0791476506183
 20
-3892.5838687609112
 42
0.0220168316170199
 10
-5204.1071855953915
 20
-3892.5822004793945
 10
-5204.1149711438784
 20
-3892.5820805395319
 42
0.0282614564970286
 10
-5204.1485347804673
 20
-3892.5834609047101
 10
-5204.1529261019141
 20
-3892.583890914826
 42
0.0169681668066795
 10
-5204.1775185573406
 20
-3892.587144708868
 42
0.019058102663603
 10
-5204.20180934372
 20
-3892.592159530051
 10
-5204.2024352724093
 20
-3892.5923138340941
 42
0.0213690535669501
 10
-5204.2274737053967
 20
-3892.5996340564734
 10
-5204.2280227103493
 20
-3892.5998203663935
 42
0.0237600024165842
 10
-5204.2533721769714
 20
-3892.6097890799169
 10
-5204.2538824062422
 20
-3892.6100182735217
 42
0.0261861611828488
 10
-5204.2790994555107
 20
-3892.6229722431226
 10
-5204.2801420695114
 20
-3892.6235788042127
 42
0.0272555999126891
 10
-5204.3037850802975
 20
-3892.6391164667939
 10
-5204.3072613540407
 20
-3892.6416826310251
 42
0.0325998378371725
 10
-5204.3222769160129
 20
-3892.6543577834755
 10
-5204.3246478518331
 20
-3892.6566396415692
 42
0.0138050896762284
 10
-5204.3338361745464
 20
-3892.6659848687473
 42
0.0125279688488892
 10
-5204.342520422133
 20
-3892.6758014616521
 10
-5204.3448884723202
 20
-3892.6786173948403
 42
0.0205216620924508
 10
-5204.3573984670875
 20
-3892.6947971483487
 10
-5204.359645113921
 20
-3892.6979632254674
 42
0.0163108395563728
 10
-5204.3752161397579
 20
-3892.7214968894764
 10
-5204.375488541451
 20
-3892.7219392973407
 42
0.0131895560709405
 10
-5204.3901685848168
 20
-3892.74725317913
 10
-5204.3903386030788
 20
-3892.7475650275301
 42
0.0107893881628079
 10
-5204.4041162669855
 20
-3892.7741872597644
 10
-5204.4041895622522
 20
-3892.774336699968
 42
0.0091369915210423
 10
-5204.4170375524036
 20
-3892.8017899559241
 10
-5204.4200121202575
 20
-3892.8084607986616
 42
0.0135415720976405
 10
-5204.4371835058146
 20
-3892.8499556840466
 10
-5204.4405439892053
 20
-3892.8587425439446
 42
0.0092832600786207
 10
-5204.4576669010003
 20
-3892.9061336980244
 10
-5204.4602286118416
 20
-3892.9136580040013
 42
0.0054259855239192
 10
-5204.4709924286017
 20
-3892.9464352985447
 10
-5204.4727450270948
 20
-3892.9519742650382
 42
0.0008224907322193
 10
-5204.4796120324027
 20
-3892.9738017349705
 10
-5204.5780809455955
 20
-3893.2762990924552
 10
-5204.2548185615888
 20
-3893.2762990924552
 10
-5204.3052378045741
 20
-3893.4667521027582
 10
-5204.6308434327721
 20
-3893.4667521027582
 10
-5205.2137583360072
 20
-3895.3481255841543
 10
-5205.396268097038
 20
-3895.3481255841543
 10
-5204.8128002934882
 20
-3893.4667521027582
 10
-5205.0533119303918
 20
-3893.4667521027582
 10
-5205.0028926874065
 20
-3893.2762990924552
 10
-5204.7600378063116
 20
-3893.2762990924552
 10
-5204.6740223144934
 20
-3893.0126506209458
 42
-0.0005863430032032
 10
-5204.6703488468138
 20
-3893.0009676615805
 10
-5204.662740063306
 20
-3892.9768677756574
 42
-0.0087520479200965
 10
-5204.6427932429342
 20
-3892.9173385307099
 10
-5204.6335668146221
 20
-3892.8913238040636
 42
-0.0077399361016912
 10
-5204.6077734555065
 20
-3892.8220214703988
 10
-5204.6061969509219
 20
-3892.8179782530356
 42
-0.0082368348286037
 10
-5204.5814885112868
 20
-3892.7575687222766
 42
-0.0085723688772452
 10
-5204.5547638920216
 20
-3892.6980244781166
 10
-5204.5446009217303
 20
-3892.6763817575184
 42
-0.016810673471932
 10
-5204.5159064987129
 20
-3892.6202595206237
 10
-5204.5033221595386
 20
-3892.5975624997145
 42
-0.0007817614669184
 10
-5204.4978937246615
 20
-3892.5878078101096
 10
-5204.4978808931637
 20
-3892.5877848370073
 42
-0.0036625632985905
 10
-5204.4923921076579
 20
-3892.5781247878535
 42
-0.0080220122882192
 10
-5204.4866796798869
 20
-3892.5685966016167
 10
-5204.4836096869813
 20
-3892.5636573759411
 42
-0.0202137299607827
 10
-5204.4708440991963
 20
-3892.5448586858761
 10
-5204.4654373664816
 20
-3892.5375506193254
 42
-0.0249322465065376
 10
-5204.43952105061
 20
-3892.5059451951761
 10
-5204.4371071056976
 20
-3892.503283735733
 42
-0.0242132117427813
 10
-5204.403138984715
 20
-3892.4692944200519
 10
-5204.3983478378668
 20
-3892.464943397551
 42
-0.0251018859936729
 10
-5204.3699497042044
 20
-3892.441643522257
 10
-5204.3698051369502
 20
-3892.4415365791119
 42
-0.0130869287062218
 10
-5204.3399790915264
 20
-3892.420657978822
 10
-5204.3398228684628
 20
-3892.4205546047547
 42
-0.029033342879229
 10
-5204.3087117954728
 20
-3892.4024715899477
 10
-5204.3057272217911
 20
-3892.4009613017361
 42
-0.0160252990032788
 10
-5204.2791367978989
 20
-3892.3885593622194
 42
-0.0267605926162559
 10
-5204.251609163829
 20
-3892.3784842480477
 10
-5204.2489355981988
 20
-3892.3776649779461
 42
-0.0049982736865441
 10
-5204.2434182836705
 20
-3892.3760344135621
 42
-0.0049982736865441
  0
LWPOLYLINE
  5
4B
100
AcDbEntity
  8
0
370
              15
390
0
  6
Continuous
 62
               7
100
AcDbPolyline
 90
      118
 70
             128
 10
-5202.2619815272265
 20
-3893.2836976264839
 10
-5202.074469334776
 20
-3893.2836976264839
 10
-5202.1582732253364
 20
-3893.5518615733881
 42
-0.0010587183101928
 10
-5202.1551276437231
 20
-3893.5481710196018
 10
-5202.149308234716
 20
-3893.5413726091274
 42
-0.0071874494596776
 10
-5202.1342707069716
 20
-3893.524308069213
 10
-5202.1200984355801
 20
-3893.5086840366389
 42
-0.0148117900084903
 10
-5202.0750854689832
 20
-3893.4619213435126
 10
-5202.0663632573578
 20
-3893.4533814005413
 42
-0.0086273489215393
 10
-5202.0328083927179
 20
-3893.4216429889675
 10
-5202.0284250069863
 20
-3893.4176379027022
 42
-0.0103138690506941
 10
-5202.0026226508726
 20
-3893.3950209866616
 10
-5201.9980452047494
 20
-3893.3911726726433
 42
-0.0060207068582551
 10
-5201.9807604038288
 20
-3893.3769928264805
 10
-5201.9805572847226
 20
-3893.3768302466788
 42
-0.0067069474403326
 10
-5201.963328009273
 20
-3893.3634148232059
 10
-5201.9630731259986
 20
-3893.363221795908
 42
-0.0076184974150982
 10
-5201.9459826060929
 20
-3893.350683972405
 42
-0.0089653746266299
 10
-5201.9284865017753
 20
-3893.3387203156599
 10
-5201.9248513231969
 20
-3893.336329124952
 42
-0.0156918177834261
 10
-5201.9052553880892
 20
-3893.3243025587813
 42
-0.0023299337926176
 10
-5201.8852291814446
 20
-3893.3129844557102
 10
-5201.8836907704535
 20
-3893.3121244340664
 42
-0.0107670981262611
 10
-5201.860267076454
 20
-3893.2996840765559
 10
-5201.8580406078363
 20
-3893.2985623768382
 42
-0.0078059362027763
 10
-5201.8296815865133
 20
-3893.2848258531981
 10
-5201.8286908872697
 20
-3893.2843649323063
 42
-0.0181832780520934
 10
-5201.7976599245148
 20
-3893.2712781937666
 10
-5201.7922543792038
 20
-3893.2692266255676
 42
-0.0208416072132168
 10
-5201.7573459058067
 20
-3893.2576172723966
 10
-5201.7559102779724
 20
-3893.2572054115858
 42
-0.0222805216270038
 10
-5201.7230383164024
 20
-3893.2493410461675
 10
-5201.7221494093974
 20
-3893.2491698383947
 42
-0.0215515128765687
 10
-5201.6905023232503
 20
-3893.2444781439808
 10
-5201.6862541240207
 20
-3893.2440343789044
 42
-0.0182550841842121
 10
-5201.6628432492143
 20
-3893.2424499535941
 10
-5201.6589031473814
 20
-3893.2423274957491
 42
-0.0072964840289231
 10
-5201.6433108596111
 20
-3893.2420705559143
 10
-5201.6404008926274
 20
-3893.2420650722247
 42
-0.0059229126828846
 10
-5201.6306259426401
 20
-3893.2421624460521
 10
-5201.6277017208504
 20
-3893.2422262244486
 42
-0.0011833432333146
 10
-5201.6237765925189
 20
-3893.2423211274595
 10
-5201.7033152520798
 20
-3893.4962014277075
 42
0.014393494895473
 10
-5201.7059553917115
 20
-3893.4951815024665
 10
-5201.7066825875563
 20
-3893.4949243740803
 42
0.0234393909354423
 10
-5201.7108656771452
 20
-3893.4936624154302
 10
-5201.7117338404405
 20
-3893.4934443140501
 42
0.0199167701606801
 10
-5201.7177627264691
 20
-3893.4921826057566
 10
-5201.7198441176297
 20
-3893.4918328767412
 42
0.0293651340423699
 10
-5201.7301516070456
 20
-3893.4907178416724
 10
-5201.7326201215783
 20
-3893.4905966768483
 42
0.0214612518896078
 10
-5201.7479342133829
 20
-3893.4905028182611
 10
-5201.7488714042547
 20
-3893.4905373103461
 42
0.0167568564378024
 10
-5201.7660234211735
 20
-3893.4917450472058
 10
-5201.7668694026415
 20
-3893.4918331838744
 42
0.0137681168666536
 10
-5201.7856047303312
 20
-3893.4943081814681
 10
-5201.7863399079179
 20
-3893.4944259772515
 42
0.011850027165653
 10
-5201.8063896797394
 20
-3893.4981278120031
 10
-5201.8070046850535
 20
-3893.4982565027358
 42
0.0106423743712132
 10
-5201.8280927684264
 20
-3893.5031398717642
 10
-5201.8285836546211
 20
-3893.5032646107866
 42
0.0099748709901874
 10
-5201.8504294955055
 20
-3893.5092822255101
 10
-5201.856584305554
 20
-3893.511110464894
 42
0.0191617809043495
 10
-5201.8901827307964
 20
-3893.5225085049206
 10
-5201.8989886973141
 20
-3893.5258772834718
 42
0.0205277915430161
 10
-5201.9375194062704
 20
-3893.542460587485
 10
-5201.9432843131181
 20
-3893.5452274489562
 42
0.0181259707681409
 10
-5201.9691120285352
 20
-3893.5587962101818
 10
-5201.9744075568387
 20
-3893.5618280482308
 42
0.0140710990908859
 10
-5201.9889030603299
 20
-3893.5706777620339
 10
-5201.9915279432589
 20
-3893.5723834877472
 42
0.0086668766347756
 10
-5202.0004205633459
 20
-3893.5783839203068
 42
0.0036408516921229
 10
-5202.0091638855019
 20
-3893.5846021740381
 10
-5202.012686574596
 20
-3893.5871463390222
 42
0.0052261199842246
 10
-5202.0283094401166
 20
-3893.5986798882241
 10
-5202.029930129961
 20
-3893.5999027357311
 42
0.0050024783028205
 10
-5202.0485304593949
 20
-3893.6142313784762
 10
-5202.0500622799182
 20
-3893.6154360173186
 42
0.0136139385787438
 10
-5202.0711063917806
 20
-3893.6329331305928
 10
-5202.0744731943305
 20
-3893.6358911214761
 42
0.0172815468621661
 10
-5202.1009135245131
 20
-3893.6607914418441
 10
-5202.10116978308
 20
-3893.6610500547954
 42
0.0189403421467011
 10
-5202.1262279382981
 20
-3893.6883312943924
 10
-5202.1294910926372
 20
-3893.6921657977018
 42
0.0185043029989109
 10
-5202.1486867561907
 20
-3893.7164913405832
 42
0.0088564431438129
 10
-5202.1665327589635
 20
-3893.7418436605608
 10
-5202.167450564817
 20
-3893.7431978470113
 42
0.0157193517625122
 10
-5202.1857726120115
 20
-3893.7721508326936
 10
-5202.1903809120586
 20
-3893.7799662749098
 42
0.0095450537544234
 10
-5202.2068894746581
 20
-3893.8092265479117
 10
-5202.2080042604612
 20
-3893.8112936600596
 42
0.0100350116582887
 10
-5202.2212086414665
 20
-3893.8369999266315
 42
0.0086934398275305
 10
-5202.2334417523734
 20
-3893.8631839438222
 10
-5202.233773830787
 20
-3893.8639282059385
 42
0.0072578814140051
 10
-5202.2458084726486
 20
-3893.8919881602533
 10
-5202.2461346393129
 20
-3893.8927801924947
 42
0.0060003936514488
 10
-5202.2580547035614
 20
-3893.9227419678032
 10
-5202.2583758039818
 20
-3893.9235781500738
 42
0.0049016779003649
 10
-5202.2702658178532
 20
-3893.9554719100997
 10
-5202.2705824005061
 20
-3893.9563472332011
 42
0.0039414332938598
 10
-5202.2825260267618
 20
-3893.9902023558216
 10
-5202.2828391385774
 20
-3893.9911127051778
 42
0.0031035166773881
 10
-5202.2949196159361
 20
-3894.0269576627006
 10
-5202.2952306215993
 20
-3894.0278997541286
 42
0.0025070195293439
 10
-5202.3075207557713
 20
-3894.065765502794
 10
-5202.3112501463729
 20
-3894.0774549902885
 42
0.0029081260142248
 10
-5202.3304519744779
 20
-3894.1388730212593
 10
-5202.3345322930063
 20
-3894.15219571335
 42
0.0009266244413986
 10
-5202.3613740297214
 20
-3894.2404205567541
 10
-5202.3634627782403
 20
-3894.2473319368255
 42
-0.0005809862282218
 10
-5202.3911964457602
 20
-3894.3387152314031
 10
-5202.3978246261631
 20
-3894.3604643181002
 42
-0.0012018437606904
 10
-5202.4125230565314
 20
-3894.4082818833372
 10
-5202.4177550416543
 20
-3894.425158256367
 42
-0.0002690999243816
 10
-5202.4221119898039
 20
-3894.4391854000573
 10
-5202.7054075796332
 20
-3895.3481255841543
 10
-5202.8872064688312
 20
-3895.3481255841543
 10
-5202.2619815272265
 20
-3893.2836976264839
  0
SPLINE
  5
4C
100
AcDbEntity
  8
0
370
              15
390
0
  6
Continuous
 62
               7
100
AcDbSpline
210
0.0
220
0.0
230
1.0
 70
              13
 71
               2
 72
             782
 73
             779
 74
               0
 42
0.000001
 43
0.000001
 40
0.0
 40
0.0
 40
0.0
 40
1.0
 40
1.0
 40
2.0
 40
2.0
 40
3.0
 40
3.0
 40
4.0
 40
4.0
 40
5.0
 40
5.0
 40
6.0
 40
6.0
 40
7.0
 40
7.0
 40
8.0
 40
8.0
 40
9.0
 40
9.0
 40
10.0
 40
10.0
 40
11.0
 40
11.0
 40
12.0
 40
12.0
 40
13.0
 40
13.0
 40
14.0
 40
14.0
 40
15.0
 40
15.0
 40
16.0
 40
16.0
 40
17.0
 40
17.0
 40
18.0
 40
18.0
 40
19.0
 40
19.0
 40
20.0
 40
20.0
 40
21.0
 40
21.0
 40
22.0
 40
22.0
 40
23.0
 40
23.0
 40
24.0
 40
24.0
 40
25.0
 40
25.0
 40
26.0
 40
26.0
 40
27.0
 40
27.0
 40
28.0
 40
28.0
 40
29.0
 40
29.0
 40
30.0
 40
30.0
 40
31.0
 40
31.0
 40
32.0
 40
32.0
 40
33.0
 40
33.0
 40
34.0
 40
34.0
 40
35.0
 40
35.0
 40
36.0
 40
36.0
 40
37.0
 40
37.0
 40
38.0
 40
38.0
 40
39.0
 40
39.0
 40
40.0
 40
40.0
 40
41.0
 40
41.0
 40
42.0
 40
42.0
 40
43.0
 40
43.0
 40
44.0
 40
44.0
 40
45.0
 40
45.0
 40
46.0
 40
46.0
 40
47.0
 40
47.0
 40
48.0
 40
48.0
 40
49.0
 40
49.0
 40
50.0
 40
50.0
 40
51.0
 40
51.0
 40
52.0
 40
52.0
 40
53.0
 40
53.0
 40
54.0
 40
54.0
 40
55.0
 40
55.0
 40
56.0
 40
56.0
 40
57.0
 40
57.0
 40
58.0
 40
58.0
 40
59.0
 40
59.0
 40
60.0
 40
60.0
 40
61.0
 40
61.0
 40
62.0
 40
62.0
 40
63.0
 40
63.0
 40
64.0
 40
64.0
 40
65.0
 40
65.0
 40
66.0
 40
66.0
 40
67.0
 40
67.0
 40
68.0
 40
68.0
 40
69.0
 40
69.0
 40
70.0
 40
70.0
 40
71.0
 40
71.0
 40
72.0
 40
72.0
 40
73.0
 40
73.0
 40
74.0
 40
74.0
 40
75.0
 40
75.0
 40
76.0
 40
76.0
 40
77.0
 40
77.0
 40
78.0
 40
78.0
 40
79.0
 40
79.0
 40
80.0
 40
80.0
 40
81.0
 40
81.0
 40
82.0
 40
82.0
 40
83.0
 40
83.0
 40
84.0
 40
84.0
 40
85.0
 40
85.0
 40
86.0
 40
86.0
 40
87.0
 40
87.0
 40
88.0
 40
88.0
 40
89.0
 40
89.0
 40
90.0
 40
90.0
 40
91.0
 40
91.0
 40
92.0
 40
92.0
 40
93.0
 40
93.0
 40
94.0
 40
94.0
 40
95.0
 40
95.0
 40
96.0
 40
96.0
 40
97.0
 40
97.0
 40
98.0
 40
98.0
 40
99.0
 40
99.0
 40
100.0
 40
100.0
 40
101.0
 40
101.0
 40
102.0
 40
102.0
 40
103.0
 40
103.0
 40
104.0
 40
104.0
 40
105.0
 40
105.0
 40
106.0
 40
106.0
 40
107.0
 40
107.0
 40
108.0
 40
108.0
 40
109.0
 40
109.0
 40
110.0
 40
110.0
 40
111.0
 40
111.0
 40
112.0
 40
112.0
 40
113.0
 40
113.0
 40
114.0
 40
114.0
 40
115.0
 40
115.0
 40
116.0
 40
116.0
 40
117.0
 40
117.0
 40
118.0
 40
118.0
 40
119.0
 40
119.0
 40
120.0
 40
120.0
 40
121.0
 40
121.0
 40
122.0
 40
122.0
 40
123.0
 40
123.0
 40
124.0
 40
124.0
 40
125.0
 40
125.0
 40
126.0
 40
126.0
 40
127.0
 40
127.0
 40
128.0
 40
128.0
 40
129.0
 40
129.0
 40
130.0
 40
130.0
 40
131.0
 40
131.0
 40
132.0
 40
132.0
 40
133.0
 40
133.0
 40
134.0
 40
134.0
 40
135.0
 40
135.0
 40
136.0
 40
136.0
 40
137.0
 40
137.0
 40
138.0
 40
138.0
 40
139.0
 40
139.0
 40
140.0
 40
140.0
 40
141.0
 40
141.0
 40
142.0
 40
142.0
 40
143.0
 40
143.0
 40
144.0
 40
144.0
 40
145.0
 40
145.0
 40
146.0
 40
146.0
 40
147.0
 40
147.0
 40
148.0
 40
148.0
 40
149.0
 40
149.0
 40
150.0
 40
150.0
 40
151.0
 40
151.0
 40
152.0
 40
152.0
 40
153.0
 40
153.0
 40
154.0
 40
154.0
 40
155.0
 40
155.0
 40
156.0
 40
156.0
 40
157.0
 40
157.0
 40
158.0
 40
158.0
 40
159.0
 40
159.0
 40
160.0
 40
160.0
 40
161.0
 40
161.0
 40
162.0
 40
162.0
 40
163.0
 40
163.0
 40
164.0
 40
164.0
 40
165.0
 40
165.0
 40
166.0
 40
166.0
 40
167.0
 40
167.0
 40
168.0
 40
168.0
 40
169.0
 40
169.0
 40
170.0
 40
170.0
 40
171.0
 40
171.0
 40
172.0
 40
172.0
 40
173.0
 40
173.0
 40
174.0
 40
174.0
 40
175.0
 40
175.0
 40
176.0
 40
176.0
 40
177.0
 40
177.0
 40
178.0
 40
178.0
 40
179.0
 40
179.0
 40
180.0
 40
180.0
 40
181.0
 40
181.0
 40
182.0
 40
182.0
 40
183.0
 40
183.0
 40
184.0
 40
184.0
 40
185.0
 40
185.0
 40
186.0
 40
186.0
 40
187.0
 40
187.0
 40
188.0
 40
188.0
 40
189.0
 40
189.0
 40
190.0
 40
190.0
 40
191.0
 40
191.0
 40
192.0
 40
192.0
 40
193.0
 40
193.0
 40
194.0
 40
194.0
 40
195.0
 40
195.0
 40
196.0
 40
196.0
 40
197.0
 40
197.0
 40
198.0
 40
198.0
 40
199.0
 40
199.0
 40
200.0
 40
200.0
 40
201.0
 40
201.0
 40
202.0
 40
202.0
 40
203.0
 40
203.0
 40
204.0
 40
204.0
 40
205.0
 40
205.0
 40
206.0
 40
206.0
 40
207.0
 40
207.0
 40
208.0
 40
208.0
 40
209.0
 40
209.0
 40
210.0
 40
210.0
 40
211.0
 40
211.0
 40
212.0
 40
212.0
 40
213.0
 40
213.0
 40
214.0
 40
214.0
 40
215.0
 40
215.0
 40
216.0
 40
216.0
 40
217.0
 40
217.0
 40
218.0
 40
218.0
 40
219.0
 40
219.0
 40
220.0
 40
220.0
 40
221.0
 40
221.0
 40
222.0
 40
222.0
 40
223.0
 40
223.0
 40
224.0
 40
224.0
 40
225.0
 40
225.0
 40
226.0
 40
226.0
 40
227.0
 40
227.0
 40
228.0
 40
228.0
 40
229.0
 40
229.0
 40
230.0
 40
230.0
 40
231.0
 40
231.0
 40
232.0
 40
232.0
 40
233.0
 40
233.0
 40
234.0
 40
234.0
 40
235.0
 40
235.0
 40
236.0
 40
236.0
 40
237.0
 40
237.0
 40
238.0
 40
238.0
 40
239.0
 40
239.0
 40
240.0
 40
240.0
 40
241.0
 40
241.0
 40
242.0
 40
242.0
 40
243.0
 40
243.0
 40
244.0
 40
244.0
 40
245.0
 40
245.0
 40
246.0
 40
246.0
 40
247.0
 40
247.0
 40
248.0
 40
248.0
 40
249.0
 40
249.0
 40
250.0
 40
250.0
 40
251.0
 40
251.0
 40
252.0
 40
252.0
 40
253.0
 40
253.0
 40
254.0
 40
254.0
 40
255.0
 40
255.0
 40
256.0
 40
256.0
 40
257.0
 40
257.0
 40
258.0
 40
258.0
 40
259.0
 40
259.0
 40
260.0
 40
260.0
 40
261.0
 40
261.0
 40
262.0
 40
262.0
 40
263.0
 40
263.0
 40
264.0
 40
264.0
 40
265.0
 40
265.0
 40
266.0
 40
266.0
 40
267.0
 40
267.0
 40
268.0
 40
268.0
 40
269.0
 40
269.0
 40
270.0
 40
270.0
 40
271.0
 40
271.0
 40
272.0
 40
272.0
 40
273.0
 40
273.0
 40
274.0
 40
274.0
 40
275.0
 40
275.0
 40
276.0
 40
276.0
 40
277.0
 40
277.0
 40
278.0
 40
278.0
 40
279.0
 40
279.0
 40
280.0
 40
280.0
 40
281.0
 40
281.0
 40
282.0
 40
282.0
 40
283.0
 40
283.0
 40
284.0
 40
284.0
 40
285.0
 40
285.0
 40
286.0
 40
286.0
 40
287.0
 40
287.0
 40
288.0
 40
288.0
 40
289.0
 40
289.0
 40
290.0
 40
290.0
 40
291.0
 40
291.0
 40
292.0
 40
292.0
 40
293.0
 40
293.0
 40
294.0
 40
294.0
 40
295.0
 40
295.0
 40
296.0
 40
296.0
 40
297.0
 40
297.0
 40
298.0
 40
298.0
 40
299.0
 40
299.0
 40
300.0
 40
300.0
 40
301.0
 40
301.0
 40
302.0
 40
302.0
 40
303.0
 40
303.0
 40
304.0
 40
304.0
 40
305.0
 40
305.0
 40
306.0
 40
306.0
 40
307.0
 40
307.0
 40
308.0
 40
308.0
 40
309.0
 40
309.0
 40
310.0
 40
310.0
 40
311.0
 40
311.0
 40
312.0
 40
312.0
 40
313.0
 40
313.0
 40
314.0
 40
314.0
 40
315.0
 40
315.0
 40
316.0
 40
316.0
 40
317.0
 40
317.0
 40
318.0
 40
318.0
 40
319.0
 40
319.0
 40
320.0
 40
320.0
 40
321.0
 40
321.0
 40
322.0
 40
322.0
 40
323.0
 40
323.0
 40
324.0
 40
324.0
 40
325.0
 40
325.0
 40
326.0
 40
326.0
 40
327.0
 40
327.0
 40
328.0
 40
328.0
 40
329.0
 40
329.0
 40
330.0
 40
330.0
 40
331.0
 40
331.0
 40
332.0
 40
332.0
 40
333.0
 40
333.0
 40
334.0
 40
334.0
 40
335.0
 40
335.0
 40
336.0
 40
336.0
 40
337.0
 40
337.0
 40
338.0
 40
338.0
 40
339.0
 40
339.0
 40
340.0
 40
340.0
 40
341.0
 40
341.0
 40
342.0
 40
342.0
 40
343.0
 40
343.0
 40
344.0
 40
344.0
 40
345.0
 40
345.0
 40
346.0
 40
346.0
 40
347.0
 40
347.0
 40
348.0
 40
348.0
 40
349.0
 40
349.0
 40
350.0
 40
350.0
 40
351.0
 40
351.0
 40
352.0
 40
352.0
 40
353.0
 40
353.0
 40
354.0
 40
354.0
 40
355.0
 40
355.0
 40
356.0
 40
356.0
 40
357.0
 40
357.0
 40
358.0
 40
358.0
 40
359.0
 40
359.0
 40
360.0
 40
360.0
 40
361.0
 40
361.0
 40
362.0
 40
362.0
 40
363.0
 40
363.0
 40
364.0
 40
364.0
 40
365.0
 40
365.0
 40
366.0
 40
366.0
 40
367.0
 40
367.0
 40
368.0
 40
368.0
 40
369.0
 40
369.0
 40
370.0
 40
370.0
 40
371.0
 40
371.0
 40
372.0
 40
372.0
 40
373.0
 40
373.0
 40
374.0
 40
374.0
 40
375.0
 40
375.0
 40
376.0
 40
376.0
 40
377.0
 40
377.0
 40
378.0
 40
378.0
 40
379.0
 40
379.0
 40
380.0
 40
380.0
 40
381.0
 40
381.0
 40
382.0
 40
382.0
 40
383.0
 40
383.0
 40
384.0
 40
384.0
 40
385.0
 40
385.0
 40
386.0
 40
386.0
 40
387.0
 40
387.0
 40
388.0
 40
388.0
 40
389.0
 40
389.0
 40
389.0
 10
-5201.2291110821534
 20
-3893.2826049604264
 30
0.0
 41
1.0
 10
-5201.1472686712814
 20
-3893.2826049604264
 30
0.0
 41
1.0
 10
-5201.0654262604094
 20
-3893.2826049604264
 30
0.0
 41
1.0
 10
-5201.1068016339614
 20
-3893.4168712389965
 30
0.0
 41
1.0
 10
-5201.1481770075125
 20
-3893.551137517567
 30
0.0
 41
1.0
 10
-5201.1463430579815
 20
-3893.5482673621832
 30
0.0
 41
0.999995726532131
 10
-5201.1444923580157
 20
-3893.5454079789538
 30
0.0
 41
1.0
 10
-5201.1414494257506
 20
-3893.5407065634636
 30
0.0
 41
1.0
 10
-5201.1384064934855
 20
-3893.5360051479738
 30
0.0
 41
1.0
 10
-5201.1304699289703
 20
-3893.5237429337358
 30
0.0
 41
0.9995394157578071
 10
-5201.1218040764379
 20
-3893.5119847895808
 30
0.0
 41
1.0
 10
-5201.1182283851322
 20
-3893.5071331614608
 30
0.0
 41
1.0
 10
-5201.1146526938264
 20
-3893.5022815333414
 30
0.0
 41
1.0
 10
-5201.1012800505869
 20
-3893.4841370442273
 30
0.0
 41
0.9994460686941153
 10
-5201.0867300024565
 20
-3893.4669223362075
 30
0.0
 41
1.0
 10
-5201.0862911719378
 20
-3893.4664031393513
 30
0.0
 41
1.0
 10
-5201.0858523414199
 20
-3893.4658839424956
 30
0.0
 41
1.0
 10
-5201.0721799543271
 20
-3893.4497076281882
 30
0.0
 41
0.9994359425606404
 10
-5201.0574525312932
 20
-3893.4344855940217
 30
0.0
 41
1.0
 10
-5201.0572141840184
 20
-3893.4342392420053
 30
0.0
 41
1.0
 10
-5201.0569758367437
 20
-3893.433992889989
 30
0.0
 41
1.0
 10
-5201.0427251082556
 20
-3893.4192635598529
 30
0.0
 41
0.999529368132192
 10
-5201.0275979401595
 20
-3893.405435862514
 30
0.0
 41
1.0
 10
-5201.0256685569111
 20
-3893.4036722192841
 30
0.0
 41
1.0
 10
-5201.0237391736628
 20
-3893.4019085760538
 30
0.0
 41
1.0
 10
-5201.0124707720643
 20
-3893.3916081651764
 30
0.0
 41
0.9997087593020791
 10
-5201.0007184831666
 20
-3893.381863472031
 30
0.0
 41
1.0
 10
-5200.9988018739441
 20
-3893.3802742693733
 30
0.0
 41
1.0
 10
-5200.9968852647216
 20
-3893.3786850667161
 30
0.0
 41
1.0
 10
-5200.988966194248
 20
-3893.3721187788697
 30
0.0
 41
0.9999595334229297
 10
-5200.9809302671856
 20
-3893.3656960311191
 30
0.0
 41
1.0
 10
-5200.9728943401178
 20
-3893.359273283364
 30
0.0
 41
0.9999749414316262
 10
-5200.9647682836185
 20
-3893.3529649539992
 30
0.0
 41
1.0
 10
-5200.9626696690739
 20
-3893.3513357810098
 30
0.0
 41
1.0
 10
-5200.9605710545293
 20
-3893.3497066080199
 30
0.0
 41
1.0
 10
-5200.9521142688836
 20
-3893.3431415307
 30
0.0
 41
0.9999792034188648
 10
-5200.9435735089246
 20
-3893.3366860769565
 30
0.0
 41
1.0
 10
-5200.9414910264441
 20
-3893.3351120519992
 30
0.0
 41
1.0
 10
-5200.9394085439626
 20
-3893.3335380270423
 30
0.0
 41
1.0
 10
-5200.9350327488009
 20
-3893.3302306230876
 30
0.0
 41
0.9999993373691136
 10
-5200.9306645803335
 20
-3893.3269131534189
 30
0.0
 41
1.0
 10
-5200.926296411727
 20
-3893.3235956836443
 30
0.0
 41
0.9999160940431378
 10
-5200.9218437676209
 20
-3893.3203924878267
 30
0.0
 41
1.0
 10
-5200.9185615803817
 20
-3893.3180313091234
 30
0.0
 41
1.0
 10
-5200.9152793931435
 20
-3893.3156701304206
 30
0.0
 41
1.0
 10
-5200.9042623745672
 20
-3893.3077445772033
 30
0.0
 41
0.9980964080907672
 10
-5200.8923534392552
 20
-3893.3012356332138
 30
0.0
 41
1.0
 10
-5200.8886501755414
 20
-3893.2992115785473
 30
0.0
 41
1.0
 10
-5200.8849469118277
 20
-3893.2971875238813
 30
0.0
 41
1.0
 10
-5200.8670142525089
 20
-3893.2873862551673
 30
0.0
 41
0.9984572283044353
 10
-5200.8481053958694
 20
-3893.2796338181597
 30
0.0
 41
1.0
 10
-5200.8477407536302
 20
-3893.279484318587
 30
0.0
 41
1.0
 10
-5200.8473761113919
 20
-3893.2793348190144
 30
0.0
 41
1.0
 10
-5200.8291965392427
 20
-3893.2718813811557
 30
0.0
 41
0.9987838014304973
 10
-5200.8103712733773
 20
-3893.2662546640854
 30
0.0
 41
1.0
 10
-5200.809947468435
 20
-3893.2661279922754
 30
0.0
 41
1.0
 10
-5200.8095236634936
 20
-3893.2660013204654
 30
0.0
 41
1.0
 10
-5200.7915460075155
 20
-3893.2606279470169
 30
0.0
 41
0.9990652369224079
 10
-5200.7731714143492
 20
-3893.2568274756877
 30
0.0
 41
1.0
 10
-5200.7726525684584
 20
-3893.256720161261
 30
0.0
 41
1.0
 10
-5200.7721337225676
 20
-3893.2566128468343
 30
0.0
 41
1.0
 10
-5200.7547968211838
 20
-3893.253027004359
 30
0.0
 41
0.9992909570067456
 10
-5200.7372392445322
 20
-3893.2507558993357
 30
0.0
 41
1.0
 10
-5200.7196816678879
 20
-3893.2484847943133
 30
0.0
 41
0.9994553248782157
 10
-5200.7020125185536
 20
-3893.2473768333775
 30
0.0
 41
1.0
 10
-5200.6984690800164
 20
-3893.2471546386696
 30
0.0
 41
1.0
 10
-5200.69492564148
 20
-3893.2469324439612
 30
0.0
 41
1.0
 10
-5200.6783030663682
 20
-3893.2458901094642
 30
0.0
 41
0.9990927605804674
 10
-5200.6616520871703
 20
-3893.2462660838146
 30
0.0
 41
1.0
 10
-5200.6577959039869
 20
-3893.2463531553285
 30
0.0
 41
1.0
 10
-5200.6539397208035
 20
-3893.2464402268424
 30
0.0
 41
1.0
 10
-5200.6450011079824
 20
-3893.2466420581645
 30
0.0
 41
0.9998382001493289
 10
-5200.6360755397018
 20
-3893.2471652850495
 30
0.0
 41
1.0
 10
-5200.6360325499327
 20
-3893.2471678051584
 30
0.0
 41
1.0
 10
-5200.6359895601636
 20
-3893.2471703252672
 30
0.0
 41
1.0
 10
-5200.627149971423
 20
-3893.2476885119345
 30
0.0
 41
0.9997557885673557
 10
-5200.6183419137033
 20
-3893.2485967881771
 30
0.0
 41
1.0
 10
-5200.6182943014537
 20
-3893.2486016978946
 30
0.0
 41
1.0
 10
-5200.6182466892051
 20
-3893.2486066076121
 30
0.0
 41
1.0
 10
-5200.6095338560026
 20
-3893.2495050644161
 30
0.0
 41
0.999656496355543
 10
-5200.6008800706495
 20
-3893.2508588319124
 30
0.0
 41
1.0
 10
-5200.6008334806993
 20
-3893.2508661202792
 30
0.0
 41
1.0
 10
-5200.6007868907491
 20
-3893.2508734086455
 30
0.0
 41
1.0
 10
-5200.592226285311
 20
-3893.2522125994055
 30
0.0
 41
0.9995321569888115
 10
-5200.5837635772823
 20
-3893.2540726988436
 30
0.0
 41
1.0
 10
-5200.5837246616748
 20
-3893.2540812524767
 30
0.0
 41
1.0
 10
-5200.5836857460672
 20
-3893.2540898061097
 30
0.0
 41
1.0
 10
-5200.5753008692354
 20
-3893.2559327982867
 30
0.0
 41
0.999381890490699
 10
-5200.56706621583
 20
-3893.2583604026413
 30
0.0
 41
1.0
 10
-5200.5670423778529
 20
-3893.2583674301595
 30
0.0
 41
1.0
 10
-5200.5670185398758
 20
-3893.2583744576777
 30
0.0
 41
1.0
 10
-5200.5588315624063
 20
-3893.2607880070013
 30
0.0
 41
0.9992088227035435
 10
-5200.5508623105106
 20
-3893.2638446137216
 30
0.0
 41
1.0
 10
-5200.5428942046701
 20
-3893.2669006602218
 30
0.0
 41
0.9990225757055462
 10
-5200.5352271444326
 20
-3893.2706485020271
 30
0.0
 41
1.0
 10
-5200.5275612302576
 20
-3893.2743957836087
 30
0.0
 41
0.9988423937237201
 10
-5200.5202908835818
 20
-3893.2788623727715
 30
0.0
 41
1.0
 10
-5200.520264104719
 20
-3893.2788788245562
 30
0.0
 41
1.0
 10
-5200.5202373258562
 20
-3893.2788952763408
 30
0.0
 41
1.0
 10
-5200.5129134214576
 20
-3893.283394769071
 30
0.0
 41
0.9986928589998855
 10
-5200.506087152482
 20
-3893.2886184710474
 30
0.0
 41
1.0
 10
-5200.506029014412
 20
-3893.2886629603499
 30
0.0
 41
1.0
 10
-5200.5059708763429
 20
-3893.288707449653
 30
0.0
 41
1.0
 10
-5200.4990283312336
 20
-3893.294020130229
 30
0.0
 41
0.9986007142260642
 10
-5200.4926857322562
 20
-3893.3000363537712
 30
0.0
 41
1.0
 10
-5200.4925962817069
 20
-3893.3001212014024
 30
0.0
 41
1.0
 10
-5200.4925068311586
 20
-3893.3002060490335
 30
0.0
 41
1.0
 10
-5200.4859853310882
 20
-3893.3063919678343
 30
0.0
 41
0.9985581534116074
 10
-5200.4801645868647
 20
-3893.31324138323
 30
0.0
 41
1.0
 10
-5200.4792387330326
 20
-3893.3143308586036
 30
0.0
 41
1.0
 10
-5200.4783128792014
 20
-3893.3154203339773
 30
0.0
 41
1.0
 10
-5200.4706404273102
 20
-3893.3244487001261
 30
0.0
 41
0.9970460730361845
 10
-5200.4644412617417
 20
-3893.3345456432089
 30
0.0
 41
1.0
 10
-5200.462994317335
 20
-3893.3369023660857
 30
0.0
 41
1.0
 10
-5200.4615473729291
 20
-3893.3392590889625
 30
0.0
 41
1.0
 10
-5200.457573694177
 20
-3893.3457312516675
 30
0.0
 41
0.9988469152279347
 10
-5200.4542390571041
 20
-3893.3525546825081
 30
0.0
 41
1.0
 10
-5200.4535354555665
 20
-3893.3539944123286
 30
0.0
 41
1.0
 10
-5200.4528318540279
 20
-3893.3554341421491
 30
0.0
 41
1.0
 10
-5200.4509044200258
 20
-3893.35937811336
 30
0.0
 41
0.9998431244775643
 10
-5200.4491178872795
 20
-3893.3633878778664
 30
0.0
 41
1.0
 10
-5200.4473313546132
 20
-3893.3673976421924
 30
0.0
 41
0.9999989990093097
 10
-5200.4455334821978
 20
-3893.3714023350453
 30
0.0
 41
1.0
 10
-5200.4449162510336
 20
-3893.3727771941349
 30
0.0
 41
1.0
 10
-5200.4442990198695
 20
-3893.3741520532249
 30
0.0
 41
1.0
 10
-5200.4412666852022
 20
-3893.3809064640832
 30
0.0
 41
0.9998790401541901
 10
-5200.4384458989125
 20
-3893.3877519212961
 30
0.0
 41
1.0
 10
-5200.4377623807395
 20
-3893.3894106766675
 30
0.0
 41
1.0
 10
-5200.4370788625656
 20
-3893.3910694320384
 30
0.0
 41
1.0
 10
-5200.4347230946969
 20
-3893.3967863869916
 30
0.0
 41
0.9998227645488657
 10
-5200.4325842198605
 20
-3893.40258797562
 30
0.0
 41
1.0
 10
-5200.4304453450186
 20
-3893.4083895642648
 30
0.0
 41
0.9996798109043554
 10
-5200.4286027180642
 20
-3893.4142919317869
 30
0.0
 41
1.0
 10
-5200.4282123370222
 20
-3893.4155424140827
 30
0.0
 41
1.0
 10
-5200.4278219559801
 20
-3893.4167928963784
 30
0.0
 41
1.0
 10
-5200.4251985669371
 20
-3893.4251962285089
 30
0.0
 41
0.9979275937549484
 10
-5200.4236761170278
 20
-3893.4338668863406
 30
0.0
 41
1.0
 10
-5200.4234537473494
 20
-3893.4351333262921
 30
0.0
 41
1.0
 10
-5200.4232313776711
 20
-3893.436399766244
 30
0.0
 41
1.0
 10
-5200.4221383831709
 20
-3893.4426245893119
 30
0.0
 41
0.9994986243727764
 10
-5200.421441566652
 20
-3893.4489061103013
 30
0.0
 41
1.0
 10
-5200.420744750134
 20
-3893.4551876312839
 30
0.0
 41
0.9996372805678626
 10
-5200.4203871636437
 20
-3893.4614975592553
 30
0.0
 41
1.0
 10
-5200.420370305852
 20
-3893.4617950298179
 30
0.0
 41
1.0
 10
-5200.4203534480594
 20
-3893.4620925003801
 30
0.0
 41
1.0
 10
-5200.4199621459848
 20
-3893.4689973695058
 30
0.0
 41
0.9997730753857912
 10
-5200.4198653146432
 20
-3893.4759126394679
 30
0.0
 41
1.0
 10
-5200.4198596039978
 20
-3893.4763204687342
 30
0.0
 41
1.0
 10
-5200.4198538933524
 20
-3893.476728298001
 30
0.0
 41
1.0
 10
-5200.4197456407201
 20
-3893.4844592265435
 30
0.0
 41
0.9998772680834288
 10
-5200.4198796493947
 20
-3893.4921897515214
 30
0.0
 41
1.0
 10
-5200.4198885757141
 20
-3893.4927046818771
 30
0.0
 41
1.0
 10
-5200.4198975020336
 20
-3893.4932196122327
 30
0.0
 41
1.0
 10
-5200.4200493633471
 20
-3893.5019799979777
 30
0.0
 41
0.999941559907421
 10
-5200.4203905943841
 20
-3893.5107350526123
 30
0.0
 41
1.0
 10
-5200.4204147264445
 20
-3893.5113542152499
 30
0.0
 41
1.0
 10
-5200.4204388585058
 20
-3893.5119733778874
 30
0.0
 41
1.0
 10
-5200.4208283536682
 20
-3893.5219667578799
 30
0.0
 41
0.9999716825773209
 10
-5200.4213682120026
 20
-3893.5319531437667
 30
0.0
 41
1.0
 10
-5200.4216894918864
 20
-3893.5378962304903
 30
0.0
 41
1.0
 10
-5200.4220107717711
 20
-3893.543839317214
 30
0.0
 41
1.0
 10
-5200.4228181626522
 20
-3893.5587745629605
 30
0.0
 41
0.9999819139666398
 10
-5200.4238051418106
 20
-3893.5736990166411
 30
0.0
 41
1.0
 10
-5200.4247921209726
 20
-3893.5886234703689
 30
0.0
 41
1.0
 10
-5200.4250360530295
 20
-3893.5923428761243
 30
0.0
 41
1.0
 10
-5200.422766229608
 20
-3893.5884686709451
 30
0.0
 41
0.9999982128784867
 10
-5200.4204817735499
 20
-3893.5846030760936
 30
0.0
 41
1.0
 10
-5200.4177908176716
 20
-3893.5800496310176
 30
0.0
 41
1.0
 10
-5200.4150998617934
 20
-3893.5754961859416
 30
0.0
 41
1.0
 10
-5200.4074334939432
 20
-3893.5625237008762
 30
0.0
 41
0.9998609224308773
 10
-5200.399338756104
 20
-3893.5498141066837
 30
0.0
 41
1.0
 10
-5200.39637392443
 20
-3893.5451590075099
 30
0.0
 41
1.0
 10
-5200.393409092756
 20
-3893.5405039083366
 30
0.0
 41
1.0
 10
-5200.3851818763324
 20
-3893.5275863087609
 30
0.0
 41
0.9999067629915162
 10
-5200.3766049753885
 20
-3893.514898194695
 30
0.0
 41
1.0
 10
-5200.3763645018389
 20
-3893.5145424536349
 30
0.0
 41
1.0
 10
-5200.3761240282884
 20
-3893.5141867125749
 30
0.0
 41
1.0
 10
-5200.3680280744356
 20
-3893.502210080615
 30
0.0
 41
0.9998784974857742
 10
-5200.3595627134746
 20
-3893.4904916402029
 30
0.0
 41
1.0
 10
-5200.3510973525063
 20
-3893.4787731997817
 30
0.0
 41
0.9998532990740697
 10
-5200.3422355825105
 20
-3893.46735158806
 30
0.0
 41
1.0
 10
-5200.3402393945216
 20
-3893.4647787742606
 30
0.0
 41
1.0
 10
-5200.3382432065328
 20
-3893.4622059604608
 30
0.0
 41
1.0
 10
-5200.3263948276481
 20
-3893.4469350176091
 30
0.0
 41
0.9991552052937981
 10
-5200.3133323826878
 20
-3893.4326886738909
 30
0.0
 41
1.0
 10
-5200.3129814134636
 20
-3893.4323058949994
 30
0.0
 41
1.0
 10
-5200.3126304442394
 20
-3893.4319231161076
 30
0.0
 41
1.0
 10
-5200.3002699377257
 20
-3893.4184423301726
 30
0.0
 41
0.9997418149968178
 10
-5200.2873097237552
 20
-3893.4055370380765
 30
0.0
 41
1.0
 10
-5200.2743495097857
 20
-3893.3926317459814
 30
0.0
 41
0.9989238147983542
 10
-5200.2602492195883
 20
-3893.3809829036991
 30
0.0
 41
1.0
 10
-5200.2557244537547
 20
-3893.3772448044947
 30
0.0
 41
1.0
 10
-5200.2511996879202
 20
-3893.3735067052903
 30
0.0
 41
1.0
 10
-5200.2371757136098
 20
-3893.3619209107683
 30
0.0
 41
0.9990824948485176
 10
-5200.2222117203492
 20
-3893.3515777296425
 30
0.0
 41
1.0
 10
-5200.2212071777267
 20
-3893.3508833851506
 30
0.0
 41
1.0
 10
-5200.2202026351033
 20
-3893.3501890406587
 30
0.0
 41
1.0
 10
-5200.2072477270895
 20
-3893.3412345485171
 30
0.0
 41
0.9998164861000654
 10
-5200.1939593067509
 20
-3893.3327828944739
 30
0.0
 41
1.0
 10
-5200.1927747447844
 20
-3893.3320294935666
 30
0.0
 41
1.0
 10
-5200.191590182817
 20
-3893.3312760926597
 30
0.0
 41
1.0
 10
-5200.1806708864096
 20
-3893.3243312404288
 30
0.0
 41
0.9997473385338578
 10
-5200.1694504906882
 20
-3893.3178841692838
 30
0.0
 41
1.0
 10
-5200.1582300949849
 20
-3893.3114370981489
 30
0.0
 41
0.9999327841999661
 10
-5200.1468632277929
 20
-3893.3052519274115
 30
0.0
 41
1.0
 10
-5200.146808030584
 20
-3893.3052218923849
 30
0.0
 41
1.0
 10
-5200.1467528333751
 20
-3893.3051918573578
 30
0.0
 41
1.0
 10
-5200.1352755717826
 20
-3893.2989466165768
 30
0.0
 41
0.9996956323860303
 10
-5200.1235042263725
 20
-3893.2932751094299
 30
0.0
 41
1.0
 10
-5200.1204601881382
 20
-3893.2918084729499
 30
0.0
 41
1.0
 10
-5200.117416149903
 20
-3893.2903418364695
 30
0.0
 41
1.0
 10
-5200.1071184475541
 20
-3893.2853803396788
 30
0.0
 41
0.9998070501599374
 10
-5200.0966338086564
 20
-3893.2808271571375
 30
0.0
 41
1.0
 10
-5200.0861491697642
 20
-3893.2762739745981
 30
0.0
 41
0.9997827351963773
 10
-5200.0754838676212
 20
-3893.2721617423404
 30
0.0
 41
1.0
 10
-5200.073561586898
 20
-3893.2714205664515
 30
0.0
 41
1.0
 10
-5200.0716393061748
 20
-3893.2706793905627
 30
0.0
 41
1.0
 10
-5200.0571294425845
 20
-3893.2650848065273
 30
0.0
 41
0.9988031319953311
 10
-5200.0421423826028
 20
-3893.2609346806553
 30
0.0
 41
1.0
 10
-5200.039650659176
 20
-3893.2602446876963
 30
0.0
 41
1.0
 10
-5200.0371589357492
 20
-3893.2595546947377
 30
0.0
 41
1.0
 10
-5200.0204319540881
 20
-3893.2549227602931
 30
0.0
 41
0.9984747287973427
 10
-5200.003296263224
 20
-3893.2521632620064
 30
0.0
 41
1.0
 10
-5200.0028223445388
 20
-3893.2520869430646
 30
0.0
 41
1.0
 10
-5200.0023484258545
 20
-3893.2520106241222
 30
0.0
 41
1.0
 10
-5199.9861605723509
 20
-3893.2494037637193
 30
0.0
 41
0.9984435668919155
 10
-5199.9697830979867
 20
-3893.248615946909
 30
0.0
 41
1.0
 10
-5199.9676133772045
 20
-3893.2485115753516
 30
0.0
 41
1.0
 10
-5199.9654436564224
 20
-3893.2484072037942
 30
0.0
 41
1.0
 10
-5199.9534056236125
 20
-3893.2478281300982
 30
0.0
 41
0.9987954135235695
 10
-5199.9413687991237
 20
-3893.2484317992921
 30
0.0
 41
1.0
 10
-5199.9393723205076
 20
-3893.2485319264179
 30
0.0
 41
1.0
 10
-5199.9373758418915
 20
-3893.2486320535431
 30
0.0
 41
1.0
 10
-5199.9293319746321
 20
-3893.2490354684869
 30
0.0
 41
0.9997941485051719
 10
-5199.921311096823
 20
-3893.2497648949193
 30
0.0
 41
1.0
 10
-5199.913290219014
 20
-3893.250494321353
 30
0.0
 41
0.9998589391293657
 10
-5199.9052983658594
 20
-3893.2514927337638
 30
0.0
 41
1.0
 10
-5199.9020577449137
 20
-3893.2518975805633
 30
0.0
 41
1.0
 10
-5199.8988171239671
 20
-3893.2523024273632
 30
0.0
 41
1.0
 10
-5199.8843440289256
 20
-3893.254110533373
 30
0.0
 41
0.9993494727730173
 10
-5199.8700389133837
 20
-3893.25695718002
 30
0.0
 41
1.0
 10
-5199.8667455424848
 20
-3893.2576125444034
 30
0.0
 41
1.0
 10
-5199.8634521715858
 20
-3893.2582679087868
 30
0.0
 41
1.0
 10
-5199.8525227827868
 20
-3893.2604428026493
 30
0.0
 41
0.9996788557850186
 10
-5199.8417176255971
 20
-3893.2631686567292
 30
0.0
 41
1.0
 10
-5199.8415113298179
 20
-3893.2632206996732
 30
0.0
 41
1.0
 10
-5199.8413050340387
 20
-3893.2632727426176
 30
0.0
 41
1.0
 10
-5199.8309124683974
 20
-3893.2658945108114
 30
0.0
 41
0.9995480445581375
 10
-5199.8206962448785
 20
-3893.2691360946465
 30
0.0
 41
1.0
 10
-5199.8205272866062
 20
-3893.2691897047112
 30
0.0
 41
1.0
 10
-5199.8203583283339
 20
-3893.2692433147758
 30
0.0
 41
1.0
 10
-5199.8104800213514
 20
-3893.2723776784846
 30
0.0
 41
0.9993867701274772
 10
-5199.8008453055108
 20
-3893.2761957192652
 30
0.0
 41
1.0
 10
-5199.8007210181459
 20
-3893.2762449718052
 30
0.0
 41
1.0
 10
-5199.8005967307809
 20
-3893.2762942243453
 30
0.0
 41
1.0
 10
-5199.7912105896703
 20
-3893.2800137600457
 30
0.0
 41
0.9992049966371724
 10
-5199.7821506221626
 20
-3893.2844692711647
 30
0.0
 41
1.0
 10
-5199.7820771629122
 20
-3893.2845053969568
 30
0.0
 41
1.0
 10
-5199.7820037036627
 20
-3893.2845415227494
 30
0.0
 41
1.0
 10
-5199.7730906546585
 20
-3893.2889247822823
 30
0.0
 41
0.9990222064884515
 10
-5199.7645996485207
 20
-3893.2940782492301
 30
0.0
 41
1.0
 10
-5199.7645812701357
 20
-3893.2940894036683
 30
0.0
 41
1.0
 10
-5199.7645628917498
 20
-3893.2941005581065
 30
0.0
 41
1.0
 10
-5199.7561086423748
 20
-3893.2992317161825
 30
0.0
 41
0.9988642512447483
 10
-5199.7481811889193
 20
-3893.3051442957576
 30
0.0
 41
1.0
 10
-5199.7402537354628
 20
-3893.3110568753314
 30
0.0
 41
0.9987681107032249
 10
-5199.7329513763716
 20
-3893.3177261082214
 30
0.0
 41
1.0
 10
-5199.7329184739046
 20
-3893.3177561579923
 30
0.0
 41
1.0
 10
-5199.7328855714368
 20
-3893.3177862077628
 30
0.0
 41
1.0
 10
-5199.7255174074216
 20
-3893.324515540181
 30
0.0
 41
0.9987496577257956
 10
-5199.7188580449802
 20
-3893.3319470035444
 30
0.0
 41
1.0
 10
-5199.7187808189556
 20
-3893.3320331833215
 30
0.0
 41
1.0
 10
-5199.718703592931
 20
-3893.3321193630986
 30
0.0
 41
1.0
 10
-5199.7118897784476
 20
-3893.3397231860067
 30
0.0
 41
0.9988147802015907
 10
-5199.7058475686617
 20
-3893.3479534892622
 30
0.0
 41
1.0
 10
-5199.7057356282348
 20
-3893.3481059671958
 30
0.0
 41
1.0
 10
-5199.7056236878079
 20
-3893.348258445129
 30
0.0
 41
1.0
 10
-5199.6993575971728
 20
-3893.3567937042449
 30
0.0
 41
0.9989452857254407
 10
-5199.6939009184443
 20
-3893.3658677990843
 30
0.0
 41
1.0
 10
-5199.6937660395506
 20
-3893.3660920937396
 30
0.0
 41
1.0
 10
-5199.6936311606569
 20
-3893.3663163883948
 30
0.0
 41
1.0
 10
-5199.6879047241391
 20
-3893.3758390725493
 30
0.0
 41
0.9991046699650826
 10
-5199.6830038122762
 20
-3893.3858117678469
 30
0.0
 41
1.0
 10
-5199.6828574213851
 20
-3893.386109653587
 30
0.0
 41
1.0
 10
-5199.682711030493
 20
-3893.3864075393271
 30
0.0
 41
1.0
 10
-5199.677517336846
 20
-3893.3969760061077
 30
0.0
 41
0.9992764094314155
 10
-5199.6731420307142
 20
-3893.40790869288
 30
0.0
 41
1.0
 10
-5199.672994100385
 20
-3893.4082783300919
 30
0.0
 41
1.0
 10
-5199.672846170055
 20
-3893.4086479673033
 30
0.0
 41
1.0
 10
-5199.6681750032685
 20
-3893.4203199284857
 30
0.0
 41
0.9994163716928508
 10
-5199.664311704737
 20
-3893.4322835985472
 30
0.0
 41
1.0
 10
-5199.6641878885976
 20
-3893.4326670261871
 30
0.0
 41
1.0
 10
-5199.6640640724581
 20
-3893.4330504538275
 30
0.0
 41
1.0
 10
-5199.6600757135921
 20
-3893.4454014044959
 30
0.0
 41
0.9997268180332622
 10
-5199.6566689080055
 20
-3893.4579252483313
 30
0.0
 41
1.0
 10
-5199.6565758910165
 20
-3893.4582671904286
 30
0.0
 41
1.0
 10
-5199.6564828740266
 20
-3893.4586091325259
 30
0.0
 41
1.0
 10
-5199.6532621024144
 20
-3893.4704490921849
 30
0.0
 41
0.9996701478119462
 10
-5199.650653540737
 20
-3893.4824388136403
 30
0.0
 41
1.0
 10
-5199.6480449790606
 20
-3893.4944285350975
 30
0.0
 41
0.9995785664709328
 10
-5199.6461366224166
 20
-3893.5065494339733
 30
0.0
 41
1.0
 10
-5199.6457146444973
 20
-3893.5092296204621
 30
0.0
 41
1.0
 10
-5199.645292666577
 20
-3893.5119098069504
 30
0.0
 41
1.0
 10
-5199.6426351672972
 20
-3893.5287888741514
 30
0.0
 41
0.9979926171317942
 10
-5199.6421326087047
 20
-3893.5458684715372
 30
0.0
 41
1.0
 10
-5199.6420501274615
 20
-3893.5486716201558
 30
0.0
 41
1.0
 10
-5199.6419676462183
 20
-3893.5514747687739
 30
0.0
 41
1.0
 10
-5199.6416300501123
 20
-3893.562948068924
 30
0.0
 41
0.9995315156961385
 10
-5199.6419950693262
 20
-3893.5744205293595
 30
0.0
 41
1.0
 10
-5199.64236008854
 20
-3893.5858929897945
 30
0.0
 41
0.9996245689652318
 10
-5199.6433529982278
 20
-3893.5973282299683
 30
0.0
 41
1.0
 10
-5199.6433693029394
 20
-3893.5975160096823
 30
0.0
 41
1.0
 10
-5199.6433856076519
 20
-3893.5977037893967
 30
0.0
 41
1.0
 10
-5199.6444111267638
 20
-3893.6095145889999
 30
0.0
 41
0.9997286239023265
 10
-5199.6459856595566
 20
-3893.6212648027504
 30
0.0
 41
1.0
 10
-5199.6460250086038
 20
-3893.6215584515844
 30
0.0
 41
1.0
 10
-5199.6460643576511
 20
-3893.6218521004184
 30
0.0
 41
1.0
 10
-5199.6477175885366
 20
-3893.6341896118283
 30
0.0
 41
0.9998265623989373
 10
-5199.6498291350472
 20
-3893.6464569966956
 30
0.0
 41
1.0
 10
-5199.6498967889429
 20
-3893.6468500433893
 30
0.0
 41
1.0
 10
-5199.6499644428386
 20
-3893.6472430900831
 30
0.0
 41
1.0
 10
-5199.652211297137
 20
-3893.6602965683123
 30
0.0
 41
0.9999022580442978
 10
-5199.6548222443107
 20
-3893.6732821219384
 30
0.0
 41
1.0
 10
-5199.6549201080725
 20
-3893.6737688476514
 30
0.0
 41
1.0
 10
-5199.6550179718342
 20
-3893.6742555733645
 30
0.0
 41
1.0
 10
-5199.6578246465224
 20
-3893.6882145783752
 30
0.0
 41
0.9999524785571433
 10
-5199.6609029440588
 20
-3893.7021162087735
 30
0.0
 41
1.0
 10
-5199.6610305544527
 20
-3893.7026924989191
 30
0.0
 41
1.0
 10
-5199.6611581648467
 20
-3893.7032687890646
 30
0.0
 41
1.0
 10
-5199.6644916831638
 20
-3893.7183229997204
 30
0.0
 41
0.9999813597863825
 10
-5199.6680087837512
 20
-3893.7333353815029
 30
0.0
 41
1.0
 10
-5199.6681641760442
 20
-3893.7339986575062
 30
0.0
 41
1.0
 10
-5199.6683195683363
 20
-3893.734661933509
 30
0.0
 41
1.0
 10
-5199.6721474535334
 20
-3893.7510008674008
 30
0.0
 41
0.9999955239840656
 10
-5199.6760730416536
 20
-3893.7673166029008
 30
0.0
 41
1.0
 10
-5199.6773012050426
 20
-3893.7724211600762
 30
0.0
 41
1.0
 10
-5199.6785293684316
 20
-3893.777525717252
 30
0.0
 41
1.0
 10
-5199.6849112834252
 20
-3893.8040505674962
 30
0.0
 41
0.9999993604856513
 10
-5199.691353178393
 20
-3893.8305609147005
 30
0.0
 41
1.0
 10
-5199.6918250617873
 20
-3893.8325028576683
 30
0.0
 41
1.0
 10
-5199.6922969451825
 20
-3893.8344448006364
 30
0.0
 41
1.0
 10
-5199.6996826070126
 20
-3893.8648390340736
 30
0.0
 41
0.9999659931023142
 10
-5199.7075685682803
 20
-3893.8951073184935
 30
0.0
 41
1.0
 10
-5199.7080638363313
 20
-3893.89700828069
 30
0.0
 41
1.0
 10
-5199.7085591043833
 20
-3893.8989092428865
 30
0.0
 41
1.0
 10
-5199.7174356017667
 20
-3893.9329794517471
 30
0.0
 41
0.9999442002203943
 10
-5199.7270299078646
 20
-3893.9668545255936
 30
0.0
 41
1.0
 10
-5199.7286999583021
 20
-3893.9727510522757
 30
0.0
 41
1.0
 10
-5199.7303700087396
 20
-3893.9786475789579
 30
0.0
 41
1.0
 10
-5199.7433044157233
 20
-3894.0243157062087
 30
0.0
 41
0.9999625137909867
 10
-5199.7570276959423
 20
-3894.069753007082
 30
0.0
 41
1.0
 10
-5199.7606066892413
 20
-3894.0816029287298
 30
0.0
 41
1.0
 10
-5199.7641856825403
 20
-3894.0934528503772
 30
0.0
 41
1.0
 10
-5199.771637701474
 20
-3894.118126224454
 30
0.0
 41
0.999979339560155
 10
-5199.7794063037873
 20
-3894.1427017568508
 30
0.0
 41
1.0
 10
-5199.7871749061014
 20
-3894.1672772892475
 30
0.0
 41
1.0
 10
-5199.7882528619884
 20
-3894.170679172219
 30
0.0
 41
1.0
 10
-5199.973290167316
 20
-3894.7594023781867
 30
0.0
 41
1.0
 10
-5200.1583274726427
 20
-3895.3481255841543
 30
0.0
 41
1.0
 10
-5200.2544531416443
 20
-3895.3481255841543
 30
0.0
 41
1.0
 10
-5200.3505788106468
 20
-3895.3481255841543
 30
0.0
 41
1.0
 10
-5200.1886843327793
 20
-3894.8333087305637
 30
0.0
 41
1.0
 10
-5200.0267898549109
 20
-3894.318491876973
 30
0.0
 41
1.0
 10
-5200.0222732736765
 20
-3894.3040883664121
 30
0.0
 41
1.0
 10
-5200.0177566924422
 20
-3894.2896848558512
 30
0.0
 41
1.0
 10
-5200.0007262485296
 20
-3894.2353742687051
 30
0.0
 41
0.9999911661858126
 10
-5199.9841529673722
 20
-3894.1809224344729
 30
0.0
 41
1.0
 10
-5199.9811833734839
 20
-3894.1711657765982
 30
0.0
 41
1.0
 10
-5199.9782137795964
 20
-3894.161409118723
 30
0.0
 41
1.0
 10
-5199.9675796861738
 20
-3894.1264706001057
 30
0.0
 41
0.9999952430306044
 10
-5199.957161327271
 20
-3894.0914671456494
 30
0.0
 41
1.0
 10
-5199.9566553807199
 20
-3894.0897672736037
 30
0.0
 41
1.0
 10
-5199.9561494341688
 20
-3894.0880674015584
 30
0.0
 41
1.0
 10
-5199.9467429683145
 20
-3894.0564636910112
 30
0.0
 41
0.9999931690626324
 10
-5199.9375703845526
 20
-3894.024791308253
 30
0.0
 41
1.0
 10
-5199.9370768586332
 20
-3894.0230871927906
 30
0.0
 41
1.0
 10
-5199.9365833327138
 20
-3894.0213830773287
 30
0.0
 41
1.0
 10
-5199.9283978007516
 20
-3893.9931189253657
 30
0.0
 41
0.9999893845693331
 10
-5199.9204730781194
 20
-3893.964780541663
 30
0.0
 41
1.0
 10
-5199.9125483554617
 20
-3893.9364421578703
 30
0.0
 41
0.999983398784925
 10
-5199.9049507325881
 20
-3893.9080143308015
 30
0.0
 41
1.0
 10
-5199.9040503394244
 20
-3893.9046453532173
 30
0.0
 41
1.0
 10
-5199.9031499462608
 20
-3893.9012763756332
 30
0.0
 41
1.0
 10
-5199.8962534891616
 20
-3893.875472082228
 30
0.0
 41
0.9999233694695432
 10
-5199.8899979920461
 20
-3893.8495049600542
 30
0.0
 41
1.0
 10
-5199.8837424949243
 20
-3893.8235378378563
 30
0.0
 41
1.0
 10
-5199.8797941530383
 20
-3893.8071567258348
 30
0.0
 41
1.0
 10
-5199.879296292831
 20
-3893.8050911742503
 30
0.0
 41
1.0
 10
-5199.8787984326227
 20
-3893.8030256226652
 30
0.0
 41
1.0
 10
-5199.8758458111561
 20
-3893.7907756138279
 30
0.0
 41
0.9999868677233258
 10
-5199.8730189027528
 20
-3893.7784959852333
 30
0.0
 41
1.0
 10
-5199.8726291541952
 20
-3893.776802981125
 30
0.0
 41
1.0
 10
-5199.8722394056367
 20
-3893.7751099770167
 30
0.0
 41
1.0
 10
-5199.8701919943514
 20
-3893.7662163566456
 30
0.0
 41
0.9999778184277455
 10
-5199.8682632345417
 20
-3893.7572962522968
 30
0.0
 41
1.0
 10
-5199.866334474732
 20
-3893.7483761479502
 30
0.0
 41
0.9999602712700457
 10
-5199.8645650392091
 20
-3893.7394230772998
 30
0.0
 41
1.0
 10
-5199.8642446558297
 20
-3893.7378019868502
 30
0.0
 41
1.0
 10
-5199.8639242724512
 20
-3893.7361808964006
 30
0.0
 41
1.0
 10
-5199.8615140701759
 20
-3893.7239856448728
 30
0.0
 41
0.9995618210636851
 10
-5199.8598297363351
 20
-3893.7116691415386
 30
0.0
 41
1.0
 10
-5199.8595832873343
 20
-3893.7098670107116
 30
0.0
 41
1.0
 10
-5199.8593368383345
 20
-3893.7080648798842
 30
0.0
 41
1.0
 10
-5199.857308511364
 20
-3893.6932329651463
 30
0.0
 41
0.9991121884539861
 10
-5199.8565359760059
 20
-3893.6782829486178
 30
0.0
 41
1.0
 10
-5199.8564440970122
 20
-3893.676504916767
 30
0.0
 41
1.0
 10
-5199.8563522180184
 20
-3893.6747268849163
 30
0.0
 41
1.0
 10
-5199.8557634406461
 20
-3893.6633329320757
 30
0.0
 41
0.9989793049287336
 10
-5199.856205349859
 20
-3893.6519323383905
 30
0.0
 41
1.0
 10
-5199.8562701470673
 20
-3893.6502606677786
 30
0.0
 41
1.0
 10
-5199.8563349442757
 20
-3893.6485889971668
 30
0.0
 41
1.0
 10
-5199.856647259071
 20
-3893.6405317446911
 30
0.0
 41
0.9997820413084516
 10
-5199.8572956588087
 20
-3893.6324945539036
 30
0.0
 41
1.0
 10
-5199.857944058549
 20
-3893.6244573630815
 30
0.0
 41
0.9998335194758554
 10
-5199.8588852782868
 20
-3893.6164491820214
 30
0.0
 41
1.0
 10
-5199.8590447706592
 20
-3893.6150921728695
 30
0.0
 41
1.0
 10
-5199.8592042630326
 20
-3893.613735163718
 30
0.0
 41
1.0
 10
-5199.8604644675197
 20
-3893.603012964315
 30
0.0
 41
0.9996876620920184
 10
-5199.8622588594844
 20
-3893.5923671279052
 30
0.0
 41
1.0
 10
-5199.8624820258856
 20
-3893.5910431178536
 30
0.0
 41
1.0
 10
-5199.8627051922867
 20
-3893.5897191078016
 30
0.0
 41
1.0
 10
-5199.8640847735696
 20
-3893.5815342758701
 30
0.0
 41
0.9995547720042024
 10
-5199.8659501057591
 20
-3893.5734463061535
 30
0.0
 41
1.0
 10
-5199.8659875022131
 20
-3893.5732841573481
 30
0.0
 41
1.0
 10
-5199.8660248986671
 20
-3893.5731220085422
 30
0.0
 41
1.0
 10
-5199.8678154379459
 20
-3893.5653583364415
 30
0.0
 41
0.9994899668153834
 10
-5199.870097928816
 20
-3893.5577248005138
 30
0.0
 41
1.0
 10
-5199.8701437827676
 20
-3893.5575714470897
 30
0.0
 41
1.0
 10
-5199.8701896367202
 20
-3893.5574180936651
 30
0.0
 41
1.0
 10
-5199.8723804196898
 20
-3893.5500912645743
 30
0.0
 41
0.9993785146153776
 10
-5199.8750819831948
 20
-3893.5429369994754
 30
0.0
 41
1.0
 10
-5199.8751351542633
 20
-3893.542796192155
 30
0.0
 41
1.0
 10
-5199.8751883253317
 20
-3893.5426553848347
 30
0.0
 41
1.0
 10
-5199.877783546709
 20
-3893.5357827343501
 30
0.0
 41
0.9992431118800931
 10
-5199.8809052002216
 20
-3893.5291326382635
 30
0.0
 41
1.0
 10
-5199.8809634147055
 20
-3893.5290086232471
 30
0.0
 41
1.0
 10
-5199.8810216291895
 20
-3893.5288846082308
 30
0.0
 41
1.0
 10
-5199.8840268537379
 20
-3893.522482542166
 30
0.0
 41
0.9990789918251802
 10
-5199.8875699164146
 20
-3893.5163617145026
 30
0.0
 41
1.0
 10
-5199.8876294910278
 20
-3893.5162587962159
 30
0.0
 41
1.0
 10
-5199.8876890656411
 20
-3893.5161558779291
 30
0.0
 41
1.0
 10
-5199.8911129790949
 20
-3893.5102408868333
 30
0.0
 41
0.9988875051365453
 10
-5199.8950789066967
 20
-3893.5046747641918
 30
0.0
 41
1.0
 10
-5199.8951344645402
 20
-3893.5045967895535
 30
0.0
 41
1.0
 10
-5199.8951900223838
 20
-3893.5045188149152
 30
0.0
 41
1.0
 10
-5199.899044834292
 20
-3893.499108641558
 30
0.0
 41
0.9986762224379977
 10
-5199.9034350814272
 20
-3893.4941231344937
 30
0.0
 41
1.0
 10
-5199.9034794839372
 20
-3893.4940727115854
 30
0.0
 41
1.0
 10
-5199.9035238864481
 20
-3893.4940222886771
 30
0.0
 41
1.0
 10
-5199.9078253285561
 20
-3893.4891376274386
 30
0.0
 41
0.9984621655723152
 10
-5199.9126410842318
 20
-3893.4847591782964
 30
0.0
 41
1.0
 10
-5199.9126657551087
 20
-3893.4847367477191
 30
0.0
 41
1.0
 10
-5199.9126904259856
 20
-3893.4847143171419
 30
0.0
 41
1.0
 10
-5199.9174568399021
 20
-3893.4803807291587
 30
0.0
 41
0.998272449604477
 10
-5199.9226987030943
 20
-3893.4766361922457
 30
0.0
 41
1.0
 10
-5199.9279405662792
 20
-3893.4728916553395
 30
0.0
 41
0.9981398739256863
 10
-5199.9335991894632
 20
-3893.4698129104859
 30
0.0
 41
1.0
 10
-5199.9336037472476
 20
-3893.4698104306854
 30
0.0
 41
1.0
 10
-5199.933608305033
 20
-3893.4698079508848
 30
0.0
 41
1.0
 10
-5199.9392760437886
 20
-3893.4667242464297
 30
0.0
 41
0.998092642207159
 10
-5199.9452805943129
 20
-3893.4643624952387
 30
0.0
 41
1.0
 10
-5199.9453246035755
 20
-3893.4643451852126
 30
0.0
 41
1.0
 10
-5199.9453686128372
 20
-3893.4643278751864
 30
0.0
 41
1.0
 10
-5199.9514611818922
 20
-3893.4619315039399
 30
0.0
 41
0.9981410540101307
 10
-5199.957800046348
 20
-3893.4602941920743
 30
0.0
 41
1.0
 10
-5199.9578882518572
 20
-3893.4602714088251
 30
0.0
 41
1.0
 10
-5199.9579764573664
 20
-3893.4602486255762
 30
0.0
 41
1.0
 10
-5199.9644917328469
 20
-3893.4585657472089
 30
0.0
 41
0.9983030960967572
 10
-5199.971158483736
 20
-3893.4576517851351
 30
0.0
 41
1.0
 10
-5199.972045583605
 20
-3893.4575301703262
 30
0.0
 41
1.0
 10
-5199.972932683474
 20
-3893.4574085555173
 30
0.0
 41
1.0
 10
-5199.9783676450706
 20
-3893.4566634626149
 30
0.0
 41
0.9983886844839904
 10
-5199.9838520300063
 20
-3893.4565389918653
 30
0.0
 41
1.0
 10
-5199.9846583705585
 20
-3893.4565206915795
 30
0.0
 41
1.0
 10
-5199.9854647111097
 20
-3893.4565023912933
 30
0.0
 41
1.0
 10
-5199.9893364149411
 20
-3893.4564145211157
 30
0.0
 41
0.9998869501575582
 10
-5199.9932090102557
 20
-3893.4564431088297
 30
0.0
 41
1.0
 10
-5199.9970816054683
 20
-3893.4564716965428
 30
0.0
 41
0.9999972318590408
 10
-5200.0009540234651
 20
-3893.456518507769
 30
0.0
 41
1.0
 10
-5200.0028893251392
 20
-3893.4565419024148
 30
0.0
 41
1.0
 10
-5200.0048246268134
 20
-3893.45656529706
 30
0.0
 41
1.0
 10
-5200.0125676480611
 20
-3893.4566588975772
 30
0.0
 41
0.9997304798889883
 10
-5200.020297977987
 20
-3893.4571118192353
 30
0.0
 41
1.0
 10
-5200.0212029425011
 20
-3893.4571648412966
 30
0.0
 41
1.0
 10
-5200.0221079070152
 20
-3893.457217863358
 30
0.0
 41
1.0
 10
-5200.0316481659938
 20
-3893.4577768291392
 30
0.0
 41
0.9997888192986081
 10
-5200.0411573978963
 20
-3893.4587273512757
 30
0.0
 41
1.0
 10
-5200.042029504888
 20
-3893.4588145251937
 30
0.0
 41
1.0
 10
-5200.0429016118787
 20
-3893.4589016991113
 30
0.0
 41
1.0
 10
-5200.0541550577773
 20
-3893.4600265690842
 30
0.0
 41
0.9984169420479816
 10
-5200.0652109621506
 20
-3893.4624082398286
 30
0.0
 41
1.0
 10
-5200.0688490690545
 20
-3893.463191963393
 30
0.0
 41
1.0
 10
-5200.0724871759585
 20
-3893.4639756869569
 30
0.0
 41
1.0
 10
-5200.0840063055502
 20
-3893.4664571460062
 30
0.0
 41
0.9976591779895878
 10
-5200.0950791221921
 20
-3893.4704871233398
 30
0.0
 41
1.0
 10
-5200.1061519388304
 20
-3893.4745171006721
 30
0.0
 41
0.999325481158456
 10
-5200.1168991037466
 20
-3893.4793489152225
 30
0.0
 41
1.0
 10
-5200.1173616291217
 20
-3893.4795568618629
 30
0.0
 41
1.0
 10
-5200.1178241544967
 20
-3893.4797648085032
 30
0.0
 41
1.0
 10
-5200.1294963701612
 20
-3893.4850125163352
 30
0.0
 41
0.9976474370282777
 10
-5200.1403410710327
 20
-3893.4918074791021
 30
0.0
 41
1.0
 10
-5200.1421753206178
 20
-3893.4929567646177
 30
0.0
 41
1.0
 10
-5200.1440095702019
 20
-3893.4941060501333
 30
0.0
 41
1.0
 10
-5200.1524298025743
 20
-3893.4993819139991
 30
0.0
 41
0.9995131236026454
 10
-5200.1605045740689
 20
-3893.5051726927077
 30
0.0
 41
1.0
 10
-5200.1685793455672
 20
-3893.5109634714181
 30
0.0
 41
0.9995810047138618
 10
-5200.1763054986177
 20
-3893.5172118001447
 30
0.0
 41
1.0
 10
-5200.1766025075985
 20
-3893.5174519985635
 30
0.0
 41
1.0
 10
-5200.1768995165794
 20
-3893.5176921969824
 30
0.0
 41
1.0
 10
-5200.1852196876034
 20
-3893.5244209225548
 30
0.0
 41
0.9996617808866026
 10
-5200.1931787451995
 20
-3893.5315731526684
 30
0.0
 41
1.0
 10
-5200.1943918215111
 20
-3893.5326632567189
 30
0.0
 41
1.0
 10
-5200.1956048978227
 20
-3893.5337533607694
 30
0.0
 41
1.0
 10
-5200.2024324592203
 20
-3893.5398887969859
 30
0.0
 41
0.9997267741166848
 10
-5200.2089658100522
 20
-3893.5463366260265
 30
0.0
 41
1.0
 10
-5200.215499160885
 20
-3893.5527844550697
 30
0.0
 41
0.9999667289025797
 10
-5200.2219264523519
 20
-3893.5593380111177
 30
0.0
 41
1.0
 10
-5200.2288091985511
 20
-3893.5663559693367
 30
0.0
 41
1.0
 10
-5200.2356919447502
 20
-3893.5733739275552
 30
0.0
 41
1.0
 10
-5200.2558847286227
 20
-3893.5939634000492
 30
0.0
 41
0.9988205409682834
 10
-5200.2739852428867
 20
-3893.6164143751066
 30
0.0
 41
1.0
 10
-5200.2770492630925
 20
-3893.6202148329394
 30
0.0
 41
1.0
 10
-5200.2801132832983
 20
-3893.6240152907721
 30
0.0
 41
1.0
 10
-5200.304341837983
 20
-3893.6540671815055
 30
0.0
 41
0.999707786792578
 10
-5200.3270896042131
 20
-3893.685254969665
 30
0.0
 41
1.0
 10
-5200.327261960163
 20
-3893.6854912742238
 30
0.0
 41
1.0
 10
-5200.3274343161138
 20
-3893.6857275787829
 30
0.0
 41
1.0
 10
-5200.3505267942528
 20
-3893.7173879760712
 30
0.0
 41
0.9989147798578193
 10
-5200.3705730978818
 20
-3893.7510597597161
 30
0.0
 41
1.0
 10
-5200.3730472276084
 20
-3893.7552155563362
 30
0.0
 41
1.0
 10
-5200.3755213573349
 20
-3893.7593713529559
 30
0.0
 41
1.0
 10
-5200.3910425034546
 20
-3893.7854422278547
 30
0.0
 41
0.9997476668943659
 10
-5200.4053770022147
 20
-3893.812183930122
 30
0.0
 41
1.0
 10
-5200.4197115009638
 20
-3893.8389256323717
 30
0.0
 41
0.9996259088807757
 10
-5200.4325623108434
 20
-3893.8664111409084
 30
0.0
 41
1.0
 10
-5200.4338823049138
 20
-3893.869234364397
 30
0.0
 41
1.0
 10
-5200.4352022989842
 20
-3893.8720575878851
 30
0.0
 41
1.0
 10
-5200.449223180146
 20
-3893.90204566276
 30
0.0
 41
0.9998735459707004
 10
-5200.4622833148205
 20
-3893.9324644501262
 30
0.0
 41
1.0
 10
-5200.4626275949649
 20
-3893.933266324284
 30
0.0
 41
1.0
 10
-5200.4629718751085
 20
-3893.9340681984413
 30
0.0
 41
1.0
 10
-5200.4753434494924
 20
-3893.9628832374838
 30
0.0
 41
0.9999377442723922
 10
-5200.4870689297104
 20
-3893.9919671753601
 30
0.0
 41
1.0
 10
-5200.4987944099221
 20
-3894.02105111322
 30
0.0
 41
0.9999508319139997
 10
-5200.5099408001779
 20
-3894.0503618674411
 30
0.0
 41
1.0
 10
-5200.5102488790881
 20
-3894.0511719974484
 30
0.0
 41
1.0
 10
-5200.5105569579982
 20
-3894.0519821274552
 30
0.0
 41
1.0
 10
-5200.5223195060671
 20
-3894.0829131416717
 30
0.0
 41
0.9999609244559986
 10
-5200.5335333628345
 20
-3894.1140472803736
 30
0.0
 41
1.0
 10
-5200.5338289656302
 20
-3894.1148679916273
 30
0.0
 41
1.0
 10
-5200.5341245684258
 20
-3894.115688702881
 30
0.0
 41
1.0
 10
-5200.5459296307845
 20
-3894.1484642640899
 30
0.0
 41
0.9999674621228309
 10
-5200.5572043803004
 20
-3894.1814260136371
 30
0.0
 41
1.0
 10
-5200.5623442186643
 20
-3894.196452339912
 30
0.0
 41
1.0
 10
-5200.5674840570291
 20
-3894.2114786661864
 30
0.0
 41
1.0
 10
-5200.5790851221773
 20
-3894.2453944000431
 30
0.0
 41
0.9999287563505066
 10
-5200.5898732625756
 20
-3894.2795774037481
 30
0.0
 41
1.0
 10
-5200.5945209883694
 20
-3894.2943040593327
 30
0.0
 41
1.0
 10
-5200.5991687141632
 20
-3894.3090307149168
 30
0.0
 41
1.0
 10
-5200.6006614031676
 20
-3894.3137604080657
 30
0.0
 41
0.9999998224270682
 10
-5200.602148453846
 20
-3894.318491876973
 30
0.0
 41
1.0
 10
-5200.7642140675252
 20
-3894.8333087305637
 30
0.0
 41
1.0
 10
-5200.9262796812045
 20
-3895.3481255841543
 30
0.0
 41
1.0
 10
-5201.0168105255934
 20
-3895.3481255841543
 30
0.0
 41
1.0
 10
-5201.1073413699824
 20
-3895.3481255841543
 30
0.0
 41
1.0
 10
-5200.9221329288439
 20
-3894.7594023781867
 30
0.0
 41
1.0
 10
-5200.7369244877054
 20
-3894.170679172219
 30
0.0
 41
1.0
 10
-5200.7359123118749
 20
-3894.1674747637117
 30
0.0
 41
1.0
 10
-5200.7286515449905
 20
-3894.1444441830799
 30
0.0
 41
1.0
 10
-5200.7213907780815
 20
-3894.1214136023732
 30
0.0
 41
0.9999825689800621
 10
-5200.7144024754043
 20
-3894.0982988882406
 30
0.0
 41
1.0
 10
-5200.7095733697406
 20
-3894.0823259972412
 30
0.0
 41
1.0
 10
-5200.704744264076
 20
-3894.0663531062423
 30
0.0
 41
1.0
 10
-5200.695029026424
 20
-3894.0342187023093
 30
0.0
 41
0.9999672543956264
 10
-5200.6858351458577
 20
-3894.0019312694958
 30
0.0
 41
1.0
 10
-5200.6855562580749
 20
-3894.0009518603697
 30
0.0
 41
1.0
 10
-5200.6852773702931
 20
-3893.9999724512436
 30
0.0
 41
1.0
 10
-5200.6766412653342
 20
-3893.9696438368305
 30
0.0
 41
0.9999899753832703
 10
-5200.6682771043415
 20
-3893.9392391008168
 30
0.0
 41
1.0
 10
-5200.6672665135011
 20
-3893.9355654809815
 30
0.0
 41
1.0
 10
-5200.6662559226606
 20
-3893.9318918611466
 30
0.0
 41
1.0
 10
-5200.6599129433907
 20
-3893.9088343649473
 30
0.0
 41
0.9999214237768115
 10
-5200.6541500005515
 20
-3893.885625099409
 30
0.0
 41
1.0
 10
-5200.6528734155645
 20
-3893.8804838719548
 30
0.0
 41
1.0
 10
-5200.6515968305775
 20
-3893.8753426445005
 30
0.0
 41
1.0
 10
-5200.6483870577104
 20
-3893.862415833868
 30
0.0
 41
0.9999828689954436
 10
-5200.6453288325138
 20
-3893.8494523338145
 30
0.0
 41
1.0
 10
-5200.6422706073154
 20
-3893.8364888337564
 30
0.0
 41
0.9999389874493601
 10
-5200.6394995091487
 20
-3893.823460937147
 30
0.0
 41
1.0
 10
-5200.6387857344198
 20
-3893.8201052338081
 30
0.0
 41
1.0
 10
-5200.6380719596909
 20
-3893.8167495304688
 30
0.0
 41
1.0
 10
-5200.633873312072
 20
-3893.7970102272038
 30
0.0
 41
0.9998933753089607
 10
-5200.6302528867263
 20
-3893.7771567324039
 30
0.0
 41
1.0
 10
-5200.6301156036552
 20
-3893.7764039068452
 30
0.0
 41
1.0
 10
-5200.629978320585
 20
-3893.7756510812869
 30
0.0
 41
1.0
 10
-5200.6260833290999
 20
-3893.7542919353832
 30
0.0
 41
0.9996850468257238
 10
-5200.62326496265
 20
-3893.7327642582463
 30
0.0
 41
1.0
 10
-5200.6230654591964
 20
-3893.7312403804908
 30
0.0
 41
1.0
 10
-5200.6228659557419
 20
-3893.7297165027348
 30
0.0
 41
1.0
 10
-5200.6201251685552
 20
-3893.7087814033803
 30
0.0
 41
0.9994698219440454
 10
-5200.6187527126331
 20
-3893.6877123107533
 30
0.0
 41
1.0
 10
-5200.618705005777
 20
-3893.6869799446686
 30
0.0
 41
1.0
 10
-5200.6186572989209
 20
-3893.6862475785833
 30
0.0
 41
1.0
 10
-5200.6173802567118
 20
-3893.6666432181223
 30
0.0
 41
0.9991805337874544
 10
-5200.6176930883394
 20
-3893.6469997988115
 30
0.0
 41
1.0
 10
-5200.6177014762707
 20
-3893.646473101237
 30
0.0
 41
1.0
 10
-5200.6177098642029
 20
-3893.6459464036625
 30
0.0
 41
1.0
 10
-5200.618005919966
 20
-3893.6273563794889
 30
0.0
 41
0.9988448951503838
 10
-5200.6200850745281
 20
-3893.60888061796
 30
0.0
 41
1.0
 10
-5200.6202444827368
 20
-3893.6074640864026
 30
0.0
 41
1.0
 10
-5200.6204038909455
 20
-3893.6060475548456
 30
0.0
 41
1.0
 10
-5200.6221642290911
 20
-3893.5904048564225
 30
0.0
 41
0.998550395345985
 10
-5200.6255958563215
 20
-3893.5750420201321
 30
0.0
 41
1.0
 10
-5200.6263544566309
 20
-3893.5716458900806
 30
0.0
 41
1.0
 10
-5200.6271130569403
 20
-3893.5682497600296
 30
0.0
 41
1.0
 10
-5200.629027483551
 20
-3893.5596791838448
 30
0.0
 41
0.9991037202913539
 10
-5200.6316599697166
 20
-3893.5513012472238
 30
0.0
 41
1.0
 10
-5200.6320581927175
 20
-3893.5500338950501
 30
0.0
 41
1.0
 10
-5200.6324564157185
 20
-3893.5487665428764
 30
0.0
 41
1.0
 10
-5200.6342924558885
 20
-3893.542923310581
 30
0.0
 41
0.9998874553503809
 10
-5200.6363029766489
 20
-3893.5371377930119
 30
0.0
 41
1.0
 10
-5200.6383134974176
 20
-3893.5313522754168
 30
0.0
 41
0.9994041877133071
 10
-5200.6407183617466
 20
-3893.5257192446952
 30
0.0
 41
1.0
 10
-5200.6411380410227
 20
-3893.5247362095079
 30
0.0
 41
1.0
 10
-5200.6415577202997
 20
-3893.5237531743201
 30
0.0
 41
1.0
 10
-5200.6443455986528
 20
-3893.5172229912137
 30
0.0
 41
0.999184712031752
 10
-5200.6476512343233
 20
-3893.5109390171529
 30
0.0
 41
1.0
 10
-5200.6477648983491
 20
-3893.5107229431933
 30
0.0
 41
1.0
 10
-5200.6478785623749
 20
-3893.5105068692337
 30
0.0
 41
1.0
 10
-5200.6509568699948
 20
-3893.5046550430925
 30
0.0
 41
0.9989253452613488
 10
-5200.6545638123989
 20
-3893.49911339952
 30
0.0
 41
1.0
 10
-5200.6546692294296
 20
-3893.498951438627
 30
0.0
 41
1.0
 10
-5200.6547746464603
 20
-3893.4987894777346
 30
0.0
 41
1.0
 10
-5200.658170754803
 20
-3893.4935717559451
 30
0.0
 41
0.9986467398889298
 10
-5200.6620904700676
 20
-3893.4887350210183
 30
0.0
 41
1.0
 10
-5200.6621778886602
 20
-3893.4886271507949
 30
0.0
 41
1.0
 10
-5200.6622653072527
 20
-3893.4885192805718
 30
0.0
 41
1.0
 10
-5200.6660101853295
 20
-3893.4838982860952
 30
0.0
 41
0.9984001187117416
 10
-5200.6702528583828
 20
-3893.4797296619658
 30
0.0
 41
1.0
 10
-5200.6703115787714
 20
-3893.4796719664455
 30
0.0
 41
1.0
 10
-5200.6703702991599
 20
-3893.4796142709256
 30
0.0
 41
1.0
 10
-5200.6744955314407
 20
-3893.4755610378334
 30
0.0
 41
0.9982442029718254
 10
-5200.6790711415688
 20
-3893.4720240855054
 30
0.0
 41
1.0
 10
-5200.6790926279009
 20
-3893.4720074765437
 30
0.0
 41
1.0
 10
-5200.6791141142339
 20
-3893.4719908675816
 30
0.0
 41
1.0
 10
-5200.6836467516987
 20
-3893.4684871331738
 30
0.0
 41
0.9982449713663812
 10
-5200.688561849609
 20
-3893.4655438748091
 30
0.0
 41
1.0
 10
-5200.6934769475156
 20
-3893.4626006164472
 30
0.0
 41
0.9983922143260977
 10
-5200.6986935913455
 20
-3893.4602325825717
 30
0.0
 41
1.0
 10
-5200.6987162724718
 20
-3893.4602222867425
 30
0.0
 41
1.0
 10
-5200.698738953598
 20
-3893.4602119909127
 30
0.0
 41
1.0
 10
-5200.704000959684
 20
-3893.4578233653765
 30
0.0
 41
0.9986516610696257
 10
-5200.7094822674871
 20
-3893.4559932001721
 30
0.0
 41
1.0
 10
-5200.7095500543692
 20
-3893.4559705666697
 30
0.0
 41
1.0
 10
-5200.7096178412521
 20
-3893.455947933167
 30
0.0
 41
1.0
 10
-5200.7152347228239
 20
-3893.4540725009551
 30
0.0
 41
0.9989435110503236
 10
-5200.7210000690957
 20
-3893.4527206921898
 30
0.0
 41
1.0
 10
-5200.7211080772759
 20
-3893.4526953673612
 30
0.0
 41
1.0
 10
-5200.721216085456
 20
-3893.4526700425331
 30
0.0
 41
1.0
 10
-5200.7271974480773
 20
-3893.4512675841138
 30
0.0
 41
0.9992248850446958
 10
-5200.7332706037996
 20
-3893.4503400238727
 30
0.0
 41
1.0
 10
-5200.7334119702173
 20
-3893.4503184328132
 30
0.0
 41
1.0
 10
-5200.7335533366349
 20
-3893.4502968417532
 30
0.0
 41
1.0
 10
-5200.7399092251862
 20
-3893.449326099395
 30
0.0
 41
0.9994396301695738
 10
-5200.7463158215696
 20
-3893.4487827921507
 30
0.0
 41
1.0
 10
-5200.7482298869509
 20
-3893.4486204710793
 30
0.0
 41
1.0
 10
-5200.7501439523321
 20
-3893.4484581500083
 30
0.0
 41
1.0
 10
-5200.7603786794834
 20
-3893.4475902006216
 30
0.0
 41
0.998769273649552
 10
-5200.7706490437795
 20
-3893.4477405110829
 30
0.0
 41
1.0
 10
-5200.7716744746212
 20
-3893.4477555186309
 30
0.0
 41
1.0
 10
-5200.7726999054621
 20
-3893.4477705261788
 30
0.0
 41
1.0
 10
-5200.7836554852965
 20
-3893.4479308650161
 30
0.0
 41
0.9989753092386441
 10
-5200.7945516853051
 20
-3893.4490811969986
 30
0.0
 41
1.0
 10
-5200.8054478853037
 20
-3893.4502315289801
 30
0.0
 41
0.998318920323046
 10
-5200.8161377556098
 20
-3893.4526350911115
 30
0.0
 41
1.0
 10
-5200.8170278561674
 20
-3893.4528352256248
 30
0.0
 41
1.0
 10
-5200.8179179567251
 20
-3893.4530353601385
 30
0.0
 41
1.0
 10
-5200.8303880281437
 20
-3893.455839191296
 30
0.0
 41
0.998553871901804
 10
-5200.8424849850499
 20
-3893.459965664847
 30
0.0
 41
1.0
 10
-5200.8427195373761
 20
-3893.4600456745534
 30
0.0
 41
1.0
 10
-5200.8429540897023
 20
-3893.4601256842598
 30
0.0
 41
1.0
 10
-5200.8555201512645
 20
-3893.4644121772235
 30
0.0
 41
0.9988468289756732
 10
-5200.8676171639017
 20
-3893.4698841248046
 30
0.0
 41
1.0
 10
-5200.8679354568958
 20
-3893.4700281010601
 30
0.0
 41
1.0
 10
-5200.8682537498898
 20
-3893.4701720773151
 30
0.0
 41
1.0
 10
-5200.8809873485161
 20
-3893.4759319774062
 30
0.0
 41
0.999132260516804
 10
-5200.8931973847139
 20
-3893.4827316832148
 30
0.0
 41
1.0
 10
-5200.8949575883098
 20
-3893.4837119314648
 30
0.0
 41
1.0
 10
-5200.8967177919058
 20
-3893.4846921797148
 30
0.0
 41
1.0
 10
-5200.9069354772409
 20
-3893.4903823556651
 30
0.0
 41
0.9993859882412245
 10
-5200.9167295776442
 20
-3893.4967741310829
 30
0.0
 41
1.0
 10
-5200.9172914055762
 20
-3893.4971407883372
 30
0.0
 41
1.0
 10
-5200.9178532335072
 20
-3893.4975074455915
 30
0.0
 41
1.0
 10
-5200.9265236780557
 20
-3893.5031659065048
 30
0.0
 41
0.9998821470953649
 10
-5200.9350163156341
 20
-3893.509087890593
 30
0.0
 41
1.0
 10
-5200.9435089532153
 20
-3893.5150098746822
 30
0.0
 41
0.9997976448876109
 10
-5200.9517565076676
 20
-3893.5212686792147
 30
0.0
 41
1.0
 10
-5200.9532201384418
 20
-3893.5223793816631
 30
0.0
 41
1.0
 10
-5200.954683769216
 20
-3893.5234900841115
 30
0.0
 41
1.0
 10
-5200.965858585223
 20
-3893.531970293544
 30
0.0
 41
0.9998091606785395
 10
-5200.9766936018323
 20
-3893.5408805617753
 30
0.0
 41
1.0
 10
-5200.9779941826746
 20
-3893.5419501055126
 30
0.0
 41
1.0
 10
-5200.979294763516
 20
-3893.5430196492498
 30
0.0
 41
1.0
 10
-5200.9927309418172
 20
-3893.5540690049634
 30
0.0
 41
0.9995035076977044
 10
-5201.0054445079959
 20
-3893.5659426894676
 30
0.0
 41
1.0
 10
-5201.0064092388402
 20
-3893.5668436884098
 30
0.0
 41
1.0
 10
-5201.0073739696845
 20
-3893.5677446873519
 30
0.0
 41
1.0
 10
-5201.0197162979439
 20
-3893.5792716586002
 30
0.0
 41
0.9994630423497152
 10
-5201.0312771385234
 20
-3893.5915822677816
 30
0.0
 41
1.0
 10
-5201.0316454133163
 20
-3893.5919744267267
 30
0.0
 41
1.0
 10
-5201.0320136881091
 20
-3893.5923665856722
 30
0.0
 41
1.0
 10
-5201.0428379791001
 20
-3893.6038928769626
 30
0.0
 41
0.9995160726559453
 10
-5201.0529245820544
 20
-3893.6160699499765
 30
0.0
 41
1.0
 10
-5201.0531179473437
 20
-3893.6163033906369
 30
0.0
 41
1.0
 10
-5201.0533113126339
 20
-3893.6165368312968
 30
0.0
 41
1.0
 10
-5201.0630111850078
 20
-3893.6282470229894
 30
0.0
 41
0.9996561514887821
 10
-5201.0720838068737
 20
-3893.6404496311543
 30
0.0
 41
1.0
 10
-5201.0726995697905
 20
-3893.6412778276454
 30
0.0
 41
1.0
 10
-5201.0733153327074
 20
-3893.6421060241364
 30
0.0
 41
1.0
 10
-5201.0811564287351
 20
-3893.652652239311
 30
0.0
 41
0.9998349084135625
 10
-5201.0886091569337
 20
-3893.6634763921111
 30
0.0
 41
1.0
 10
-5201.0960618851295
 20
-3893.6743005449066
 30
0.0
 41
0.9999728115040075
 10
-5201.1033541720062
 20
-3893.685233430776
 30
0.0
 41
1.0
 10
-5201.1034856949027
 20
-3893.6854306151226
 30
0.0
 41
1.0
 10
-5201.1036172178001
 20
-3893.6856277994689
 30
0.0
 41
1.0
 10
-5201.1111725504597
 20
-3893.6969550540139
 30
0.0
 41
0.9999972147945948
 10
-5201.1186743305961
 20
-3893.7083178460084
 30
0.0
 41
1.0
 10
-5201.1191714853157
 20
-3893.7090708760315
 30
0.0
 41
1.0
 10
-5201.1196686400353
 20
-3893.7098239060551
 30
0.0
 41
1.0
 10
-5201.12816472959
 20
-3893.722692758065
 30
0.0
 41
0.9999371993129085
 10
-5201.1363702599692
 20
-3893.7357487973177
 30
0.0
 41
1.0
 10
-5201.1367211506895
 20
-3893.7363071089458
 30
0.0
 41
1.0
 10
-5201.1370720414106
 20
-3893.7368654205738
 30
0.0
 41
1.0
 10
-5201.1459793532204
 20
-3893.7510380830681
 30
0.0
 41
0.999827206949642
 10
-5201.1543536848239
 20
-3893.7655320520348
 30
0.0
 41
1.0
 10
-5201.1558752057699
 20
-3893.7681654415901
 30
0.0
 41
1.0
 10
-5201.1573967267159
 20
-3893.7707988311449
 30
0.0
 41
1.0
 10
-5201.1688141002114
 20
-3893.7905595792213
 30
0.0
 41
0.9995217358365103
 10
-5201.178988054904
 20
-3893.8109883390471
 30
0.0
 41
1.0
 10
-5201.1797524148878
 20
-3893.8125231332342
 30
0.0
 41
1.0
 10
-5201.1805167748707
 20
-3893.8140579274213
 30
0.0
 41
1.0
 10
-5201.1892073109484
 20
-3893.8315080615771
 30
0.0
 41
0.9998269822061771
 10
-5201.1972427575784
 20
-3893.849269373377
 30
0.0
 41
1.0
 10
-5201.205278204201
 20
-3893.8670306851604
 30
0.0
 41
0.9998944786519555
 10
-5201.2127942793031
 20
-3893.8850179365695
 30
0.0
 41
1.0
 10
-5201.2132896469111
 20
-3893.8862034358608
 30
0.0
 41
1.0
 10
-5201.2137850145191
 20
-3893.8873889351521
 30
0.0
 41
1.0
 10
-5201.2218497236272
 20
-3893.9066891614411
 30
0.0
 41
0.9999506753643833
 10
-5201.2295294765263
 20
-3893.92614577118
 30
0.0
 41
1.0
 10
-5201.2309894726895
 20
-3893.9298446630501
 30
0.0
 41
1.0
 10
-5201.2324494688519
 20
-3893.9335435549201
 30
0.0
 41
1.0
 10
-5201.237209229419
 20
-3893.9456023809071
 30
0.0
 41
0.9999912397461978
 10
-5201.2418678738186
 20
-3893.9577006302516
 30
0.0
 41
1.0
 10
-5201.2465265181709
 20
-3893.9697988794724
 30
0.0
 41
0.9999927116909624
 10
-5201.2510926469458
 20
-3893.9819323484958
 30
0.0
 41
1.0
 10
-5201.2524894904427
 20
-3893.9856441486081
 30
0.0
 41
1.0
 10
-5201.2538863339396
 20
-3893.98935594872
 30
0.0
 41
1.0
 10
-5201.2612461496556
 20
-3894.0089130178294
 30
0.0
 41
0.9999487572274655
 10
-5201.2682085096812
 20
-3894.0286150832644
 30
0.0
 41
1.0
 10
-5201.2705678709281
 20
-3894.0352915966159
 30
0.0
 41
1.0
 10
-5201.2729272321749
 20
-3894.041968109967
 30
0.0
 41
1.0
 10
-5201.282395797577
 20
-3894.0687622278333
 30
0.0
 41
0.9999808445131949
 10
-5201.2915319564436
 20
-3894.0956715029197
 30
0.0
 41
1.0
 10
-5201.3006681153011
 20
-3894.122580777977
 30
0.0
 41
0.9999873938399388
 10
-5201.3095335847192
 20
-3894.149580443463
 30
0.0
 41
1.0
 10
-5201.3115428211368
 20
-3894.1556995454066
 30
0.0
 41
1.0
 10
-5201.3135520575543
 20
-3894.1618186473506
 30
0.0
 41
1.0
 10
-5201.3264359997875
 20
-3894.2010565166652
 30
0.0
 41
0.9999794892105529
 10
-5201.3388162757665
 20
-3894.240456200981
 30
0.0
 41
1.0
 10
-5201.3399315026236
 20
-3894.2440053614505
 30
0.0
 41
1.0
 10
-5201.3410467294798
 20
-3894.2475545219199
 30
0.0
 41
1.0
 10
-5201.3553025466308
 20
-3894.2929230336085
 30
0.0
 41
0.9999982762436748
 10
-5201.3693897905741
 20
-3894.338344171128
 30
0.0
 41
1.0
 10
-5201.5282038238311
 20
-3894.8432348776414
 30
0.0
 41
1.0
 10
-5201.6870178570889
 20
-3895.3481255841543
 30
0.0
 41
1.0
 10
-5201.7818929182358
 20
-3895.3481255841543
 30
0.0
 41
1.0
 10
-5201.8767679793837
 20
-3895.3481255841543
 30
0.0
 41
1.0
 10
-5201.5529395307685
 20
-3894.3153652722904
 30
0.0
 41
1.0
 10
-5201.2291110821534
 20
-3893.2826049604264
 30
0.0
 41
1.0
  0
LWPOLYLINE
  5
4D
100
AcDbEntity
  8
0
370
              15
390
0
  6
Continuous
 62
               7
100
AcDbPolyline
 90
      232
 70
             128
 10
-5203.7994656595356
 20
-3893.3910421931537
 42
0.0004370770461418
 10
-5203.8047533767203
 20
-3893.3979090435732
 10
-5203.8086818000556
 20
-3893.4030198941714
 42
0.003048176906133
 10
-5203.8217156697237
 20
-3893.4201925277866
 10
-5203.8255668389429
 20
-3893.4253313486734
 42
0.004205790609522
 10
-5203.8459653396048
 20
-3893.4530326705903
 10
-5203.8512058562592
 20
-3893.4602761583842
 42
0.0120947719977045
 10
-5203.8808102303983
 20
-3893.5033522636541
 10
-5203.8904294760587
 20
-3893.5181007318279
 42
0.0141599514952495
 10
-5203.92079390254
 20
-3893.5676690472037
 10
-5203.9247476223854
 20
-3893.5745536192039
 42
0.0071130059235361
 10
-5203.9452748616059
 20
-3893.6115049161999
 42
0.0068457720600214
 10
-5203.9647628084986
 20
-3893.649015081322
 10
-5203.9654440005361
 20
-3893.6503713011152
 42
0.0064119803565052
 10
-5203.9852582202475
 20
-3893.6911148456143
 10
-5203.9860116940927
 20
-3893.6927160860896
 42
0.005885618721276
 10
-5204.0062872285016
 20
-3893.7371548951542
 10
-5204.0071047259098
 20
-3893.7390039716229
 42
0.0053188745678549
 10
-5204.0279751529088
 20
-3893.7876016306727
 10
-5204.0288499377439
 20
-3893.7896998858014
 42
0.0047502723827109
 10
-5204.0504473065721
 20
-3893.8429212671922
 10
-5204.0513741351942
 20
-3893.8452689782553
 42
0.0042070913394029
 10
-5204.0738288702059
 20
-3893.9035799148128
 10
-5204.0748038138017
 20
-3893.906176611883
 42
0.0036679325769079
 10
-5204.0982492751509
 20
-3893.9700418792095
 10
-5204.0992700561183
 20
-3893.9728868183392
 42
0.0032572451531913
 10
-5204.1238332820612
 20
-3894.042773977591
 10
-5204.1306983337772
 20
-3894.0627208274959
 42
0.0026132801903616
 10
-5204.1655428566737
 20
-3894.1657099660242
 10
-5204.1718685339902
 20
-3894.1847335627094
 42
0.0020592499439439
 10
-5204.193254842321
 20
-3894.2499457061012
 10
-5204.1935600197748
 20
-3894.2508893754689
 42
0.0025609359649223
 10
-5204.2137420715862
 20
-3894.3144056305377
 10
-5204.2140012064419
 20
-3894.3152358812658
 42
0.0031361648531706
 10
-5204.2329502868661
 20
-3894.3773138614015
 10
-5204.2331633891854
 20
-3894.3780280048354
 42
0.0037229062832923
 10
-5204.2508434298516
 20
-3894.4389281981771
 10
-5204.2510112867576
 20
-3894.4395228962335
 42
0.0043076614497266
 10
-5204.2673853689785
 20
-3894.499506408145
 42
0.0047653022270401
 10
-5204.2826682394207
 20
-3894.5597766489982
 10
-5204.286114702114
 20
-3894.5739332192161
 42
0.0112966579181328
 10
-5204.3057011334031
 20
-3894.6631048377385
 10
-5204.3085017768381
 20
-3894.6773880539395
 42
0.0130053453250374
 10
-5204.3285855012027
 20
-3894.7960853897621
 10
-5204.3306394740239
 20
-3894.810493577636
 42
0.0138717857616498
 10
-5204.3410097766719
 20
-3894.9011790083191
 10
-5204.3429393252381
 20
-3894.9235293858619
 42
0.0071252778895972
 10
-5204.3462739900551
 20
-3894.969849349282
 10
-5204.3467700874398
 20
-3894.9784499821249
 42
0.0028881017615006
 10
-5204.3482839168
 20
-3895.0076249472472
 42
0.0060295660782604
 10
-5204.3492771367628
 20
-3895.0368206343205
 10
-5204.3493833649864
 20
-3895.0416600057561
 42
0.0229516934746207
 10
-5204.3486102621655
 20
-3895.0739363664015
 10
-5204.3481876846372
 20
-3895.0799768866268
 42
0.0123669997338397
 10
-5204.3462798201617
 20
-3895.1000895037059
 42
0.012857432420261
 10
-5204.3433602804298
 20
-3895.1200798364616
 10
-5204.3426476937821
 20
-3895.1242128263311
 42
0.0285710886794025
 10
-5204.3361982881215
 20
-3895.1520252167229
 10
-5204.3348314307223
 20
-3895.1566908377581
 42
0.0316276512682926
 10
-5204.3232503832551
 20
-3895.1885931197862
 10
-5204.3229454945458
 20
-3895.1892918207877
 42
0.0338979536330362
 10
-5204.3080023429829
 20
-3895.2180491546642
 10
-5204.3077714405981
 20
-3895.2184283162605
 42
0.0350225578204221
 10
-5204.2895354409775
 20
-3895.2441341655913
 10
-5204.2894468784534
 20
-3895.2442421218279
 42
0.0347476203108839
 10
-5204.2680044470762
 20
-3895.2669611990032
 42
0.0331339608550195
 10
-5204.2436800695159
 20
-3895.2865746303091
 10
-5204.2435701046506
 20
-3895.2866518711294
 42
0.0305237058849679
 10
-5204.2167155939214
 20
-3895.3031651592873
 10
-5204.216392630643
 20
-3895.3033375431878
 42
0.0273749269284752
 10
-5204.1871372253809
 20
-3895.3169517415467
 10
-5204.1866268059712
 20
-3895.3171560918991
 42
0.0240969556936883
 10
-5204.155079072505
 20
-3895.3280547685522
 10
-5204.1544207654861
 20
-3895.328247240182
 42
0.020964122004243
 10
-5204.1206807321287
 20
-3895.3365942857004
 10
-5204.1199175041766
 20
-3895.336749477543
 42
0.0181393371425334
 10
-5204.0840852535184
 20
-3895.3426912499604
 10
-5204.0832571801384
 20
-3895.3427978697669
 42
0.0156090712020976
 10
-5204.0454384375262
 20
-3895.3464715887594
 10
-5204.0411189166252
 20
-3895.3467554464437
 42
0.0137152047451357
 10
-5204.0083516039567
 20
-3895.3480075059033
 10
-5204.0037579849595
 20
-3895.3480569505596
 42
0.0051059212750216
 10
-5203.9801434263045
 20
-3895.348069976355
 42
0.0052258113342356
 10
-5203.9565336982096
 20
-3895.3475950809998
 10
-5203.9495110195521
 20
-3895.3473803785496
 42
0.0161511535347565
 10
-5203.9119373158683
 20
-3895.3450152775781
 10
-5203.9099360157052
 20
-3895.3448242524596
 42
0.0101219417518946
 10
-5203.8685332987498
 20
-3895.3400248295843
 10
-5203.8651279646128
 20
-3895.3395600465519
 42
0.0245297991155098
 10
-5203.8174490217762
 20
-3895.3306523018555
 10
-5203.8089666815531
 20
-3895.3286326528209
 42
0.0143512589335825
 10
-5203.7733035571109
 20
-3895.3190519254954
 42
0.0156561258635445
 10
-5203.7382819683644
 20
-3895.3073504921717
 10
-5203.7375318291888
 20
-3895.3070734619146
 42
0.0170140636237015
 10
-5203.7018722523808
 20
-3895.2925073144306
 10
-5203.7011618373799
 20
-3895.292188511989
 42
0.0183108392269047
 10
-5203.6652268984353
 20
-3895.2744545404762
 10
-5203.6645321940996
 20
-3895.2740794717397
 42
0.0194902510649864
 10
-5203.6286841525061
 20
-3895.2528810179087
 10
-5203.6279827320677
 20
-3895.252428450397
 42
0.0204871724760087
 10
-5203.5925813379008
 20
-3895.227475797838
 10
-5203.5918547410001
 20
-3895.2269177484427
 42
0.02125179495305
 10
-5203.5572557858213
 20
-3895.1979265948016
 10
-5203.5526041102021
 20
-3895.1936797426033
 42
0.0215248946613162
 10
-5203.5266014615927
 20
-3895.1678025818665
 10
-5203.5220984979551
 20
-3895.1629180474993
 42
0.0114578160001257
 10
-5203.5066192727863
 20
-3895.1453352652579
 10
-5203.5054998234136
 20
-3895.1440033577023
 42
0.0061530976283449
 10
-5203.4928523545886
 20
-3895.1285739796531
 42
0.0006325548980372
 10
-5203.4804145063972
 20
-3895.1129732180148
 10
-5203.4781104926678
 20
-3895.1100757868544
 42
0.0041897486170481
 10
-5203.4612649559258
 20
-3895.088523267761
 10
-5203.4554187402819
 20
-3895.0809129212976
 42
0.0092993137750918
 10
-5203.4277575606002
 20
-3895.0434840451649
 10
-5203.4195181272353
 20
-3895.0318900518928
 42
0.0159320044961767
 10
-5203.3848574499752
 20
-3894.979671168624
 10
-5203.3804218463038
 20
-3894.972503033166
 42
0.0085546208275152
 10
-5203.3569706599046
 20
-3894.9331144508978
 42
0.0084599925377869
 10
-5203.3348730504904
 20
-3894.8929506892755
 10
-5203.3340614947774
 20
-3894.8914146635016
 42
0.0081428347384308
 10
-5203.3117365754506
 20
-3894.8474413319741
 10
-5203.3108505513146
 20
-3894.8456233824877
 42
0.007657324862026
 10
-5203.2882098072541
 20
-3894.7973037961797
 10
-5203.2872618361853
 20
-3894.7951972755036
 42
0.0070681409111647
 10
-5203.2642173516542
 20
-3894.7419921128112
 10
-5203.2632183170062
 20
-3894.739593113648
 42
0.0064558245787551
 10
-5203.239685001713
 20
-3894.680960306433
 10
-5203.2386440603723
 20
-3894.6782667263274
 42
0.0058310215539033
 10
-5203.2145393915544
 20
-3894.6136617730835
 10
-5203.2134638789576
 20
-3894.6106732441785
 42
0.0052311310604116
 10
-5203.1887057554004
 20
-3894.5395510808421
 10
-5203.1876013675155
 20
-3894.5362683077174
 42
0.0046679519109632
 10
-5203.1621085284523
 20
-3894.4580835612101
 10
-5203.1579093123955
 20
-3894.4447848724121
 42
0.0041665917907251
 10
-5203.1375807084978
 20
-3894.3784861831177
 10
-5203.1338144649935
 20
-3894.3658277299228
 42
0.0015170628262985
 10
-5203.1216958065907
 20
-3894.3246397725393
 42
-0.0004887880930681
 10
-5203.1096618288811
 20
-3894.2834268089568
 10
-5203.1020141035278
 20
-3894.2573303618738
 42
0.0002583319765043
 10
-5203.0746926463717
 20
-3894.163922150266
 10
-5203.0665153620412
 20
-3894.1359114645438
 42
0.0006636017279775
 10
-5203.0471285855638
 20
-3894.0691743552516
 10
-5203.0466189207746
 20
-3894.0674111512362
 42
0.001058888705005
 10
-5203.0284740500374
 20
-3894.0041362935735
 10
-5203.0279758437318
 20
-3894.0023849578433
 42
0.0015655161024964
 10
-5203.0111488222701
 20
-3893.9425216589871
 10
-5203.0106658031582
 20
-3893.9407823991305
 42
0.0021639933535148
 10
-5202.9952368050308
 20
-3893.8842781570238
 10
-5202.99477338416
 20
-3893.8825516410557
 42
0.0028763190214069
 10
-5202.9808218112812
 20
-3893.8293533949441
 10
-5202.9803832260468
 20
-3893.8276409551663
 42
0.0037309614906998
 10
-5202.9679875556812
 20
-3893.7776948325736
 10
-5202.9675800349005
 20
-3893.7759987645109
 42
0.0047651032228361
 10
-5202.9568176436023
 20
-3893.7292497108747
 10
-5202.9564485849141
 20
-3893.7275737154205
 42
0.0060275195394227
 10
-5202.947395573754
 20
-3893.6839649440644
 10
-5202.94707370586
 20
-3893.6823147835685
 42
0.0075822403898922
 10
-5202.9398047737841
 20
-3893.6417869589177
 10
-5202.9395402369319
 20
-3893.640171425639
 42
0.009512814303697
 10
-5202.9341287124826
 20
-3893.6026614646225
 10
-5202.9334300905248
 20
-3893.5970679601123
 42
0.0121051427236705
 10
-5202.9307709570367
 20
-3893.5705776532591
 10
-5202.9306843081449
 20
-3893.5694372790558
 42
0.0069048963938828
 10
-5202.9291754262567
 20
-3893.5451424944258
 10
-5202.9290618963159
 20
-3893.5427898052644
 42
0.0169059382341678
 10
-5202.9287791683919
 20
-3893.5231699983228
 10
-5202.9288962335486
 20
-3893.5171362578776
 42
0.0052006321333832
 10
-5202.9291215784042
 20
-3893.5095767134248
 42
0.0054036732932084
 10
-5202.9311179297929
 20
-3893.4975745562051
 10
-5202.9316265151756
 20
-3893.4947086307425
 42
0.011204764942481
 10
-5202.9351649523087
 20
-3893.4770755031341
 10
-5202.9369474475852
 20
-3893.469121132237
 42
0.0240758847846176
 10
-5202.9460371913465
 20
-3893.4360965085875
 10
-5202.9478930721189
 20
-3893.4304343243725
 42
0.0256807162243027
 10
-5202.9622293524999
 20
-3893.3932609281064
 10
-5202.9627703129981
 20
-3893.3920477214274
 42
0.0268356238626568
 10
-5202.9797130191673
 20
-3893.3589475478548
 10
-5202.9802666840451
 20
-3893.3579955134633
 42
0.027466727550002
 10
-5202.9994867575724
 20
-3893.3287660223714
 10
-5203.0000249165441
 20
-3893.3280380486212
 42
0.0275034573966196
 10
-5203.0211821755247
 20
-3893.3024858037447
 10
-5203.0216891571363
 20
-3893.3019378460158
 42
0.0269557894428441
 10
-5203.0444294799654
 20
-3893.2798730513014
 10
-5203.0449038171173
 20
-3893.2794600173024
 42
0.0259126486061492
 10
-5203.0688592688866
 20
-3893.2606904813597
 10
-5203.0693123823048
 20
-3893.2603719021422
 42
0.0245165009833499
 10
-5203.0941039887139
 20
-3893.2446981952135
 10
-5203.0945566680984
 20
-3893.2444421545292
 42
0.0229286274509501
 10
-5203.1197985990293
 20
-3893.2316550014584
 10
-5203.1202766682582
 20
-3893.2314397566925
 42
0.0212988327811916
 10
-5203.1455804436591
 20
-3893.2213195986269
 10
-5203.1461108870435
 20
-3893.2211332320512
 42
0.0197559903848042
 10
-5203.171088705928
 20
-3893.2134514865356
 42
0.0183516400909443
 10
-5203.1965815894882
 20
-3893.2076930371391
 10
-5203.205218110269
 20
-3893.2060727138187
 42
0.0338066797845656
 10
-5203.2337688330726
 20
-3893.2026917836147
 10
-5203.2428693739266
 20
-3893.202233805614
 42
0.0091993021350127
 10
-5203.2534540844399
 20
-3893.2018962108559
 42
0.0028334752024717
 10
-5203.2640454761195
 20
-3893.2018133978518
 10
-5203.2641370213441
 20
-3893.2018132008643
 42
-0.0023620470664068
 10
-5203.2749116229006
 20
-3893.201739114741
 10
-5203.2785521398728
 20
-3893.2016968829462
 42
0.0008824838583757
 10
-5203.2966077389046
 20
-3893.2015193002912
 10
-5203.3009938820987
 20
-3893.2014839031763
 42
0.0038133703242662
 10
-5203.3278221716964
 20
-3893.2014720092466
 10
-5203.3294755371662
 20
-3893.2014838861837
 42
0.0060667218082526
 10
-5203.3596035859373
 20
-3893.202065931946
 10
-5203.3610286195271
 20
-3893.2021107639744
 42
0.0080359128929518
 10
-5203.3939744897807
 20
-3893.2036775787114
 10
-5203.3951814926695
 20
-3893.2037544391842
 42
0.009899905425508
 10
-5203.4304577979847
 20
-3893.2067030419817
 10
-5203.4314623720729
 20
-3893.2068070747578
 42
0.011774408096681
 10
-5203.4685780519649
 20
-3893.2115364272531
 10
-5203.4694003275563
 20
-3893.2116609431969
 42
0.0137438718481658
 10
-5203.5078591995489
 20
-3893.2185708264346
 10
-5203.5085249134163
 20
-3893.2187094219003
 42
0.015836370048707
 10
-5203.547824607469
 20
-3893.2281988846503
 10
-5203.548365941484
 20
-3893.228347887009
 42
0.0180558148593083
 10
-5203.5879974239378
 20
-3893.240812019862
 10
-5203.588453124753
 20
-3893.2409736356894
 42
0.0203661431550176
 10
-5203.6279008468582
 20
-3893.2568000869996
 10
-5203.628315230435
 20
-3893.2569862675409
 42
0.0226823343287295
 10
-5203.66705879852
 20
-3893.276551036442
 10
-5203.6674788151577
 20
-3893.2767876232119
 42
0.0248637894766798
 10
-5203.7049969649997
 20
-3893.3004509003617
 10
-5203.7098164618947
 20
-3893.3038366994624
 42
0.0267045909188916
 10
-5203.7372457718448
 20
-3893.3253813513629
 42
0.0139303292326738
 10
-5203.7628624696008
 20
-3893.3491058623317
 10
-5203.7633478270109
 20
-3893.3495811599932
 42
0.0283460253209179
 10
-5203.787755051374
 20
-3893.3763549111723
 10
-5203.7917219369492
 20
-3893.3812352448008
 42
0.0070694945509876
 10
-5203.7994656595356
 20
-3893.3910421931537
 42
0.0070694945509876
  0
LWPOLYLINE
  5
4E
100
AcDbEntity
  8
0
370
              15
390
0
  6
Continuous
 62
               7
100
AcDbPolyline
 90
      226
 70
             128
 10
-5204.1523477032597
 20
-3894.9632438388576
 42
-0.0026276921850945
 10
-5204.1523554916403
 20
-3894.9565664646761
 10
-5204.1523337558174
 20
-3894.9512507983191
 42
-0.0088677886749396
 10
-5204.1519560941715
 20
-3894.9339487490261
 10
-5204.1517214582764
 20
-3894.9280205856539
 42
-0.0077379613939037
 10
-5204.1501168471068
 20
-3894.8988937424942
 10
-5204.150030056082
 20
-3894.8976648870075
 42
-0.0068870683966717
 10
-5204.1473668479139
 20
-3894.8661418523807
 10
-5204.1472464256894
 20
-3894.8649177231509
 42
-0.0062128372628395
 10
-5204.1434870536987
 20
-3894.8310298297561
 10
-5204.1433366636529
 20
-3894.8298124119437
 42
-0.0056725442027437
 10
-5204.1384444772684
 20
-3894.793591901544
 10
-5204.1382671331385
 20
-3894.7923824915856
 42
-0.0052340529664098
 10
-5204.1322060739394
 20
-3894.7538621148447
 10
-5204.1320042756342
 20
-3894.7526615925958
 42
-0.0049767179903949
 10
-5204.1247304067738
 20
-3894.7118760226449
 10
-5204.12230550602
 20
-3894.6990208784837
 42
-0.0089027583610119
 10
-5204.1085974179778
 20
-3894.6328415209332
 10
-5204.1053228833089
 20
-3894.618337996053
 42
-0.0080316315693917
 10
-5204.0823680169678
 20
-3894.5237644415074
 10
-5204.0811695292296
 20
-3894.5191512713936
 42
-0.007426398683538
 10
-5204.0527683691507
 20
-3894.4161419903967
 10
-5204.050780414399
 20
-3894.4093283974948
 42
-0.0069710353240094
 10
-5204.0180499631824
 20
-3894.3026987457902
 10
-5204.0120547646902
 20
-3894.2840960922135
 42
-0.0052069290635984
 10
-5203.9891122459458
 20
-3894.2153670267603
 10
-5203.9873841261897
 20
-3894.2103641610556
 42
-0.0009166808858936
 10
-5203.9670749379993
 20
-3894.1519169879939
 42
-0.0025162195874889
 10
-5203.9463651731576
 20
-3894.0936112705876
 10
-5203.9426427113276
 20
-3894.0832960336147
 42
-0.0028212096460267
 10
-5203.9178251218964
 20
-3894.0157211391388
 10
-5203.9168420429687
 20
-3894.0130903160125
 42
-0.0031964267765217
 10
-5203.8932128198558
 20
-3893.9510681598476
 10
-5203.8922493714754
 20
-3893.9485870856702
 42
-0.00362811180239
 10
-5203.869738778345
 20
-3893.8918414817335
 10
-5203.8687949340192
 20
-3893.8895116670401
 42
-0.0041268373969944
 10
-5203.8473331676632
 20
-3893.837766178096
 10
-5203.8440698691411
 20
-3893.8300781175535
 42
-0.0047471334072716
 10
-5203.8283653914659
 20
-3893.79403499715
 10
-5203.8276759817854
 20
-3893.7924928919811
 42
-0.0025651200041721
 10
-5203.8128401799604
 20
-3893.7597591995141
 42
-0.0057143649792258
 10
-5203.7974652068115
 20
-3893.727277340909
 10
-5203.794662134952
 20
-3893.7215263435301
 42
-0.0065387009646049
 10
-5203.7763154372697
 20
-3893.6851021135417
 10
-5203.7754695858976
 20
-3893.6834761002378
 42
-0.0074509729742226
 10
-5203.7578513671033
 20
-3893.650806394623
 10
-5203.7570333934482
 20
-3893.6493422652543
 42
-0.0084647839927135
 10
-5203.7400700147409
 20
-3893.6201505819386
 10
-5203.7392843946454
 20
-3893.6188498350625
 42
-0.0095637421254904
 10
-5203.7229008573322
 20
-3893.5928602532576
 10
-5203.722153354588
 20
-3893.5917232734441
 42
-0.010719058723595
 10
-5203.7062732049262
 20
-3893.5686615354343
 10
-5203.7055715222641
 20
-3893.5676878868253
 42
-0.0118457700839974
 10
-5203.690116721702
 20
-3893.5472801250762
 42
-0.0129183905241955
 10
-5203.6736714476092
 20
-3893.52766352659
 10
-5203.6706569621738
 20
-3893.5242508165898
 42
-0.0217742362762339
 10
-5203.6529957498715
 20
-3893.5059296637796
 10
-5203.651921186839
 20
-3893.5049079445039
 42
-0.009726680470588
 10
-5203.6353154335411
 20
-3893.4897227821762
 42
-0.0187721936034715
 10
-5203.6178806580056
 20
-3893.4755154968529
 10
-5203.6148100561322
 20
-3893.4731995235006
 42
-0.0179429880669709
 10
-5203.5915680048838
 20
-3893.4569438792751
 10
-5203.5912027533586
 20
-3893.4567074671659
 42
-0.0170050052953737
 10
-5203.5676264084395
 20
-3893.4425610431472
 10
-5203.5672480930689
 20
-3893.4423511977861
 42
-0.0160193325988079
 10
-5203.5435572548013
 20
-3893.4301857458272
 42
-0.0151105651387201
 10
-5203.519154061647
 20
-3893.4195171720398
 10
-5203.5139154263361
 20
-3893.4174131075069
 42
-0.0271951299111131
 10
-5203.4780491375795
 20
-3893.4052262857417
 10
-5203.4711426672375
 20
-3893.4032912817011
 42
-0.0237602403226994
 10
-5203.4295630056786
 20
-3893.3937459573472
 10
-5203.4227567114704
 20
-3893.392520453609
 42
-0.0213721036723339
 10
-5203.394169227161
 20
-3893.3886256461069
 10
-5203.388154509229
 20
-3893.38806665931
 42
-0.0101468386478417
 10
-5203.3714052573396
 20
-3893.3868522720732
 10
-5203.3704712181843
 20
-3893.3868035792211
 42
-0.0100378635308563
 10
-5203.3555558086646
 20
-3893.3863259844657
 10
-5203.3545298818126
 20
-3893.3863137402327
 42
-0.0103628451041662
 10
-5203.3416590822308
 20
-3893.3864268866614
 10
-5203.3394325176696
 20
-3893.3864926242795
 42
-0.0115692379707024
 10
-5203.3310274433516
 20
-3893.3869355869692
 42
-0.0072439975734189
 10
-5203.3226436159421
 20
-3893.3876945275315
 10
-5203.3209635644598
 20
-3893.3878711866655
 42
-0.0217922976613517
 10
-5203.3093065921494
 20
-3893.3896132225418
 10
-5203.3027465976338
 20
-3893.3908879152305
 42
-0.0332951412760354
 10
-5203.2823073625686
 20
-3893.3962920949652
 10
-5203.2792901150415
 20
-3893.3973089271922
 42
-0.0184827848182996
 10
-5203.2654396000671
 20
-3893.4025541745491
 42
-0.0198005491698683
 10
-5203.2520321769243
 20
-3893.4088427459697
 10
-5203.2518435022794
 20
-3893.4089405329705
 42
-0.0212245256856357
 10
-5203.2386296208615
 20
-3893.4165170048427
 10
-5203.2384480784849
 20
-3893.4166315962739
 42
-0.0226092736958813
 10
-5203.2255977027016
 20
-3893.4255797930491
 10
-5203.2254132441894
 20
-3893.4257210331684
 42
-0.0238458138557997
 10
-5203.2130950511464
 20
-3893.4361208916175
 10
-5203.2128997632044
 20
-3893.4363023983524
 42
-0.0248160387991738
 10
-5203.2012796273257
 20
-3893.4482301660782
 10
-5203.201069249134
 20
-3893.4484687227773
 42
-0.0254108038210214
 10
-5203.1903087408909
 20
-3893.4619979104505
 10
-5203.1900839251557
 20
-3893.4623120927636
 42
-0.0255525589638378
 10
-5203.1803392685806
 20
-3893.4775151919289
 10
-5203.1801061472843
 20
-3893.4779233839872
 42
-0.0252142736368723
 10
-5203.1715280532026
 20
-3893.4948740504824
 10
-5203.1712978207679
 20
-3893.4953922919458
 42
-0.0244260728368561
 10
-5203.1640323570618
 20
-3893.5141674427623
 10
-5203.1631077147449
 20
-3893.5169540669331
 42
-0.0231314248852175
 10
-5203.1585154333452
 20
-3893.533284626365
 42
-0.0112127628767529
 10
-5203.1550518318381
 20
-3893.5499054344509
 10
-5203.1549315785805
 20
-3893.5505551148431
 42
-0.0210522385698229
 10
-5203.1523629316198
 20
-3893.568661166079
 10
-5203.1520118715616
 20
-3893.572201823049
 42
-0.019002476537034
 10
-5203.1504677242801
 20
-3893.5975560941556
 10
-5203.1503867265628
 20
-3893.6011037552676
 42
-0.0137970802141341
 10
-5203.1505416118544
 20
-3893.6336077803257
 10
-5203.1506261573841
 20
-3893.6362197268763
 42
-0.0081334432705073
 10
-5203.1521120908637
 20
-3893.666755302932
 42
-0.0073524948983574
 10
-5203.1545429443886
 20
-3893.6972309583011
 10
-5203.1546690865798
 20
-3893.698564660066
 42
-0.0066884361602164
 10
-5203.1582426454934
 20
-3893.7316241662056
 10
-5203.1584083541311
 20
-3893.7329863626119
 42
-0.0061357577418683
 10
-5203.1631934148008
 20
-3893.7686637342381
 10
-5203.1633971644442
 20
-3893.7700532491526
 42
-0.0056697143299481
 10
-5203.1694621981324
 20
-3893.8083821522159
 10
-5203.1697027408527
 20
-3893.8097980990497
 42
-0.0052719734064312
 10
-5203.1771159617238
 20
-3893.8508119527519
 10
-5203.1773922758166
 20
-3893.8522536513792
 42
-0.0049288036661188
 10
-5203.1862216885802
 20
-3893.8959856965298
 10
-5203.1865329370949
 20
-3893.8974526172196
 42
-0.0047414788268474
 10
-5203.1968567374306
 20
-3893.9439335623711
 10
-5203.2003335572845
 20
-3893.9589146743137
 42
-0.0084402445391315
 10
-5203.2193352060267
 20
-3894.0349391610562
 10
-5203.2199478704397
 20
-3894.0372256193
 42
-0.0039635015316285
 10
-5203.2420932413788
 20
-3894.1173266933429
 10
-5203.2434309183864
 20
-3894.122019973855
 42
-0.0072473396750369
 10
-5203.2701756132528
 20
-3894.210944383507
 10
-5203.2771968444486
 20
-3894.2331190169753
 42
-0.0051344333521726
 10
-5203.3058727770613
 20
-3894.3205538995467
 10
-5203.3080254053648
 20
-3894.3268967035829
 42
-0.001914960573106
 10
-5203.3335787444248
 20
-3894.4012536333767
 10
-5203.33422550668
 20
-3894.4031124356475
 42
-0.0021523906909994
 10
-5203.35907330997
 20
-3894.4735469284724
 10
-5203.3599943540194
 20
-3894.4761223618916
 42
-0.0024330779222563
 10
-5203.3836198779445
 20
-3894.5411840568959
 10
-5203.384524675329
 20
-3894.5436384600694
 42
-0.0027449159266244
 10
-5203.4069861302833
 20
-3894.6035530719087
 10
-5203.4078751334109
 20
-3894.6058854006019
 42
-0.0031082605850287
 10
-5203.4292293796825
 20
-3894.6608792939687
 10
-5203.4301029955295
 20
-3894.6630883324169
 42
-0.0035310651929912
 10
-5203.4504071114097
 20
-3894.7133880064048
 10
-5203.4512656482711
 20
-3894.7154723426042
 42
-0.0040244876416931
 10
-5203.4705768257036
 20
-3894.7613045143808
 10
-5203.4714204404017
 20
-3894.7632625121942
 42
-0.0046014293072997
 10
-5203.4897960663802
 20
-3894.8048541387352
 10
-5203.4906246878982
 20
-3894.8066839106996
 42
-0.0052767714404327
 10
-5203.5081224360583
 20
-3894.8442622130369
 10
-5203.508935661388
 20
-3894.8459616020323
 42
-0.0060671671809436
 10
-5203.525613618398
 20
-3894.8797540746086
 10
-5203.5264105712949
 20
-3894.881320652652
 42
-0.0069903572802152
 10
-5203.5423274058467
 20
-3894.9115550461856
 10
-5203.543106551353
 20
-3894.9129861502201
 42
-0.0080635892707897
 10
-5203.5583217318417
 20
-3894.9398904021668
 10
-5203.5590806414684
 20
-3894.9411832347328
 42
-0.0093005305816264
 10
-5203.5736547027582
 20
-3894.9649853111778
 10
-5203.5743897767188
 20
-3894.9661371508423
 42
-0.0107059666109955
 10
-5203.5883846237766
 20
-3894.9870647404105
 10
-5203.5890908089095
 20
-3894.9880733339628
 42
-0.0122722125107224
 10
-5203.6025701724247
 20
-3895.0063531522756
 10
-5203.6026028052711
 20
-3895.0063952057194
 42
-0.014183557542129
 10
-5203.616960955077
 20
-3895.0238526428393
 10
-5203.6176557434883
 20
-3895.0246501793044
 42
-0.01759571564637
 10
-5203.631646347445
 20
-3895.0396126603905
 42
-0.0080466437042992
 10
-5203.6463927305113
 20
-3895.0538453064783
 10
-5203.6509961783995
 20
-3895.0581474611754
 42
-0.0269601538615219
 10
-5203.676324241148
 20
-3895.0793803932052
 10
-5203.6829809379033
 20
-3895.0843756578802
 42
-0.0178364523321299
 10
-5203.7069753655942
 20
-3895.1010778888544
 10
-5203.7076998820112
 20
-3895.1015447652217
 42
-0.0174652991697964
 10
-5203.7313334824375
 20
-3895.1156312324329
 42
-0.0169242853282704
 10
-5203.7558801255364
 20
-3895.1280608051043
 10
-5203.7604787225791
 20
-3895.1301970501686
 42
-0.0318889416207949
 10
-5203.7955138501202
 20
-3895.1438312653058
 10
-5203.8023503891318
 20
-3895.1460013817778
 42
-0.0284442685288361
 10
-5203.8399553742875
 20
-3895.1556233783303
 10
-5203.8434712021099
 20
-3895.1563127589729
 42
-0.0243915691695764
 10
-5203.8748155364283
 20
-3895.1608849841359
 10
-5203.8798436117104
 20
-3895.1613695522578
 42
-0.0196644603380915
 10
-5203.9014031668585
 20
-3895.162594413875
 10
-5203.9065855739454
 20
-3895.162684742405
 42
-0.0100504243486871
 10
-5203.9178279021417
 20
-3895.1626547017531
 10
-5203.9209938882505
 20
-3895.1625825926039
 42
-0.0019752568219779
 10
-5203.9259031219444
 20
-3895.162451373013
 10
-5203.9261791523422
 20
-3895.1624429035978
 42
0.006538052938522
 10
-5203.9305368097412
 20
-3895.1623662123925
 42
-0.0167979247624613
 10
-5203.9348898917378
 20
-3895.1622002180461
 10
-5203.9352978259612
 20
-3895.1621709161382
 42
-0.0081285454011254
 10
-5203.9404538053413
 20
-3895.1617162044467
 10
-5203.9416277631226
 20
-3895.1615934093079
 42
-0.0126706770186912
 10
-5203.9490995913839
 20
-3895.1606199039265
 10
-5203.95137837947
 20
-3895.16026406845
 42
-0.0117855090567937
 10
-5203.9633322753962
 20
-3895.158107710824
 10
-5203.9688703232296
 20
-3895.1569733254
 42
-0.0251780579205292
 10
-5203.9915547123319
 20
-3895.1511233699557
 10
-5203.9960266368553
 20
-3895.1497266483007
 42
-0.0146528337427254
 10
-5204.0146659448692
 20
-3895.1432998178739
 42
-0.0166932631643441
 10
-5204.0328636989361
 20
-3895.1357189036303
 10
-5204.0333293736094
 20
-3895.1355064025202
 42
-0.0191687461281757
 10
-5204.0518477215273
 20
-3895.1261825489269
 10
-5204.0521809953098
 20
-3895.125998410761
 42
-0.022118451927173
 10
-5204.0705120066332
 20
-3895.1147847687594
 10
-5204.0707470061006
 20
-3895.1146263217952
 42
-0.025498661561898
 10
-5204.0883759985873
 20
-3895.1013848654311
 10
-5204.0906242150631
 20
-3895.0995095821058
 42
-0.029249315236084
 10
-5204.1031011297937
 20
-3895.0877999662434
 42
-0.0159048451665601
 10
-5204.1144851201325
 20
-3895.0749976301313
 10
-5204.1146170085967
 20
-3895.0748394532457
 42
-0.0343810460839692
 10
-5204.1248807183165
 20
-3895.0606519611265
 10
-5204.1280298717656
 20
-3895.0556014840386
 42
-0.0369111594476796
 10
-5204.1366191380857
 20
-3895.0392532893934
 42
-0.0191747542588273
 10
-5204.1433384723723
 20
-3895.0220123721551
 10
-5204.1435148090168
 20
-3895.0215030115041
 42
-0.0378169117423271
 10
-5204.1484942773122
 20
-3895.002608439408
 10
-5204.1490938097222
 20
-3894.9993522736099
 42
-0.0184841232065539
 10
-5204.1511655303975
 20
-3894.985176601916
 42
-0.0179861512733602
 10
-5204.1521988308323
 20
-3894.9708871339358
 10
-5204.15220447515
 20
-3894.9707313590247
 42
-0.0085494861439846
 10
-5204.1523477032597
 20
-3894.9632438388576
 42
-0.0085494861439846
  0
ENDBLK
  5
4F
100
AcDbEntity
  8
template
390
0
100
AcDbBlockEnd
  0
BLOCK
  5
50
100
AcDbEntity
  8
template
390
0
100
AcDbBlockBegin
  2
*D3
 70
               1
 10
0.0
 20
0.0
 30
0.0
  3
*D3
  1

  0
LINE
  5
51
100
AcDbEntity
  8
0
370
              -2
390
0
  6
Continuous
 62
               0
100
AcDbLine
 10
36.166307316098028
 20
52.926650939251431
 30
0.0
 11
36.166307316098028
 21
75.426650939251431
 31
0.0
  0
LINE
  5
52
100
AcDbEntity
  8
0
370
              -2
390
0
  6
Continuous
 62
               0
100
AcDbLine
 10
-35.833547259634543
 20
52.926650939251431
 30
0.0
 11
-35.833547259634543
 21
75.426650939251431
 31
0.0
  0
LINE
  5
53
100
AcDbEntity
  8
0
370
              -2
390
0
  6
Continuous
 62
               0
100
AcDbLine
 10
36.166307316098028
 20
75.426650939251431
 30
0.0
 11
-35.833547259634543
 21
75.426650939251431
 31
0.0
  0
CIRCLE
  5
54
102
{ACAD_REACTORS
330
55
102
}
100
AcDbEntity
  8
0
370
              -2
390
0
  6
Continuous
 62
               0
100
AcDbCircle
 10
36.166307316098028
 20
75.426650939251431
 30
0.0
 40
0.19998779296875
  0
HATCH
  5
55
100
AcDbEntity
  8
0
370
              -2
390
0
  6
Continuous
 62
               0
100
AcDbHatch
 10
0.0
 20
0.0
 30
0.0
210
0.0
220
0.0
230
1.0
  2
SOLID
 70
               1
 71
               1
 91
        1
 92
        1
 93
        1
 72
               2
 10
36.166307316098028
 20
75.426650939251431
 40
0.19998779296875
 50
0.0
 51
360.0
 73
               0
 97
        1
330
54
 75
               0
 76
               1
 98
        1
 10
0.0
 20
0.0
  0
CIRCLE
  5
56
102
{ACAD_REACTORS
330
57
102
}
100
AcDbEntity
  8
0
370
              -2
390
0
  6
Continuous
 62
               0
100
AcDbCircle
 10
-35.833547259634543
 20
75.426650939251431
 30
0.0
 40
0.19998779296875
  0
HATCH
  5
57
100
AcDbEntity
  8
0
370
              -2
390
0
  6
Continuous
 62
               0
100
AcDbHatch
 10
0.0
 20
0.0
 30
0.0
210
0.0
220
0.0
230
1.0
  2
SOLID
 70
               1
 71
               1
 91
        1
 92
        1
 93
        1
 72
               2
 10
-35.833547259634543
 20
75.426650939251431
 40
0.19998779296875
 50
0.0
 51
360.0
 73
               0
 97
        1
330
56
 75
               0
 76
               1
 98
        1
 10
0.0
 20
0.0
  0
MTEXT
  5
58
100
AcDbEntity
  8
0
390
0
 62
               0
100
AcDbMText
 10
-3.0086199717679847
 20
78.814412658001402
 30
0.0
 40
2.4432617187500001
 41
0.0
 71
               1
 72
               1
  1
φ72
  7
ＭＳ ゴシック
 73
               1
 44
0.7828267384257843
  0
POINT
  5
59
100
AcDbEntity
  8
Defpoints
370
               0
390
0
 62
               0
100
AcDbPoint
 10
-35.833547259634543
 20
50.426650939251431
 30
0.0
  0
POINT
  5
5A
100
AcDbEntity
  8
Defpoints
370
               0
390
0
 62
               0
100
AcDbPoint
 10
36.166307316098028
 20
50.426650939251431
 30
0.0
  0
POINT
  5
5B
100
AcDbEntity
  8
Defpoints
370
               0
390
0
 62
               0
100
AcDbPoint
 10
36.166307316098028
 20
75.426650939251431
 30
0.0
  0
ENDBLK
  5
5C
100
AcDbEntity
  8
template
390
0
100
AcDbBlockEnd
  0
BLOCK
  5
5D
100
AcDbEntity
  8
template
390
0
100
AcDbBlockBegin
  2
*D4
 70
               1
 10
0.0
 20
0.0
 30
0.0
  3
*D4
  1

  0
LINE
  5
5E
100
AcDbEntity
  8
0
370
              -2
390
0
  6
Continuous
 62
               0
100
AcDbLine
 10
34.163067161754952
 20
13.993840991950492
 30
0.0
 11
56.663067161754952
 21
13.993840991950492
 31
0.0
  0
LINE
  5
5F
100
AcDbEntity
  8
0
370
              -2
390
0
  6
Continuous
 62
               0
100
AcDbLine
 10
27.517079055372051
 20
-16.997018441668388
 30
0.0
 11
56.663067161754952
 21
-16.997018441668388
 31
0.0
  0
LINE
  5
60
100
AcDbEntity
  8
0
370
              -2
390
0
  6
Continuous
 62
               0
100
AcDbLine
 10
56.663067161754952
 20
13.993840991950492
 30
0.0
 11
56.663067161754952
 21
-16.997018441668388
 31
0.0
  0
CIRCLE
  5
61
102
{ACAD_REACTORS
330
62
102
}
100
AcDbEntity
  8
0
370
              -2
390
0
  6
Continuous
 62
               0
100
AcDbCircle
 10
56.663067161754952
 20
13.993840991950492
 30
0.0
 40
0.19998779296875
  0
HATCH
  5
62
100
AcDbEntity
  8
0
370
              -2
390
0
  6
Continuous
 62
               0
100
AcDbHatch
 10
0.0
 20
0.0
 30
0.0
210
0.0
220
0.0
230
1.0
  2
SOLID
 70
               1
 71
               1
 91
        1
 92
        1
 93
        1
 72
               2
 10
56.663067161754952
 20
13.993840991950492
 40
0.19998779296875
 50
0.0
 51
360.0
 73
               0
 97
        1
330
61
 75
               0
 76
               1
 98
        1
 10
0.0
 20
0.0
  0
CIRCLE
  5
63
102
{ACAD_REACTORS
330
64
102
}
100
AcDbEntity
  8
0
370
              -2
390
0
  6
Continuous
 62
               0
100
AcDbCircle
 10
56.663067161754952
 20
-16.997018441668388
 30
0.0
 40
0.19998779296875
  0
HATCH
  5
64
100
AcDbEntity
  8
0
370
              -2
390
0
  6
Continuous
 62
               0
100
AcDbHatch
 10
0.0
 20
0.0
 30
0.0
210
0.0
220
0.0
230
1.0
  2
SOLID
 70
               1
 71
               1
 91
        1
 92
        1
 93
        1
 72
               2
 10
56.663067161754952
 20
-16.997018441668388
 40
0.19998779296875
 50
0.0
 51
360.0
 73
               0
 97
        1
330
63
 75
               0
 76
               1
 98
        1
 10
0.0
 20
0.0
  0
MTEXT
  5
65
100
AcDbEntity
  8
0
390
0
 62
               0
100
AcDbMText
 10
53.275305443005891
 20
-3.0890887248588115
 30
0.0
 40
2.4432617187500001
 41
0.0
 71
               1
 72
               1
  1
31
  7
ＭＳ ゴシック
 11
0.0
 21
1.0
 31
0.0
 73
               1
 44
0.7828267384257843
  0
POINT
  5
66
100
AcDbEntity
  8
Defpoints
370
               0
390
0
 62
               0
100
AcDbPoint
 10
25.017079055372051
 20
-16.997018441668388
 30
0.0
  0
POINT
  5
67
100
AcDbEntity
  8
Defpoints
370
               0
390
0
 62
               0
100
AcDbPoint
 10
31.663067161754952
 20
13.993840991950492
 30
0.0
  0
POINT
  5
68
100
AcDbEntity
  8
Defpoints
370
               0
390
0
 62
               0
100
AcDbPoint
 10
56.663067161754952
 20
13.993840991950492
 30
0.0
  0
ENDBLK
  5
69
100
AcDbEntity
  8
template
390
0
100
AcDbBlockEnd
  0
BLOCK
  5
6A
100
AcDbEntity
  8
template
390
0
100
AcDbBlockBegin
  2
*D5
 70
               1
 10
0.0
 20
0.0
 30
0.0
  3
*D5
  1

  0
LINE
  5
6B
100
AcDbEntity
  8
0
370
              -2
390
0
  6
Continuous
 62
               0
100
AcDbLine
 10
27.517079055372051
 20
-16.997018441668388
 30
0.0
 11
56.663067161754952
 21
-16.997018441668388
 31
0.0
  0
LINE
  5
6C
100
AcDbEntity
  8
0
370
              -2
390
0
  6
Continuous
 62
               0
100
AcDbLine
 10
21.885666230834431
 20
-26.959021907311126
 30
0.0
 11
56.663067161754952
 21
-26.959021907311126
 31
0.0
  0
LINE
  5
6D
100
AcDbEntity
  8
0
370
              -2
390
0
  6
Continuous
 62
               0
100
AcDbLine
 10
56.663067161754952
 20
-16.997018441668388
 30
0.0
 11
56.663067161754952
 21
-26.959021907311126
 31
0.0
  0
CIRCLE
  5
6E
102
{ACAD_REACTORS
330
6F
102
}
100
AcDbEntity
  8
0
370
              -2
390
0
  6
Continuous
 62
               0
100
AcDbCircle
 10
56.663067161754952
 20
-16.997018441668388
 30
0.0
 40
0.19998779296875
  0
HATCH
  5
6F
100
AcDbEntity
  8
0
370
              -2
390
0
  6
Continuous
 62
               0
100
AcDbHatch
 10
0.0
 20
0.0
 30
0.0
210
0.0
220
0.0
230
1.0
  2
SOLID
 70
               1
 71
               1
 91
        1
 92
        1
 93
        1
 72
               2
 10
56.663067161754952
 20
-16.997018441668388
 40
0.19998779296875
 50
0.0
 51
360.0
 73
               0
 97
        1
330
6E
 75
               0
 76
               1
 98
        1
 10
0.0
 20
0.0
  0
CIRCLE
  5
70
102
{ACAD_REACTORS
330
71
102
}
100
AcDbEntity
  8
0
370
              -2
390
0
  6
Continuous
 62
               0
100
AcDbCircle
 10
56.663067161754952
 20
-26.959021907311126
 30
0.0
 40
0.19998779296875
  0
HATCH
  5
71
100
AcDbEntity
  8
0
370
              -2
390
0
  6
Continuous
 62
               0
100
AcDbHatch
 10
0.0
 20
0.0
 30
0.0
210
0.0
220
0.0
230
1.0
  2
SOLID
 70
               1
 71
               1
 91
        1
 92
        1
 93
        1
 72
               2
 10
56.663067161754952
 20
-26.959021907311126
 40
0.19998779296875
 50
0.0
 51
360.0
 73
               0
 97
        1
330
70
 75
               0
 76
               1
 98
        1
 10
0.0
 20
0.0
  0
MTEXT
  5
72
100
AcDbEntity
  8
0
390
0
 62
               0
100
AcDbMText
 10
53.275305443005891
 20
-23.565520174489848
 30
0.0
 40
2.4432617187500001
 41
0.0
 71
               1
 72
               1
  1
10
  7
ＭＳ ゴシック
 11
0.0
 21
1.0
 31
0.0
 73
               1
 44
0.7828267384257843
  0
POINT
  5
73
100
AcDbEntity
  8
Defpoints
370
               0
390
0
 62
               0
100
AcDbPoint
 10
19.385666230834431
 20
-26.959021907311126
 30
0.0
  0
POINT
  5
74
100
AcDbEntity
  8
Defpoints
370
               0
390
0
 62
               0
100
AcDbPoint
 10
25.017079055372051
 20
-16.997018441668388
 30
0.0
  0
POINT
  5
75
100
AcDbEntity
  8
Defpoints
370
               0
390
0
 62
               0
100
AcDbPoint
 10
56.663067161754952
 20
-16.997018441668388
 30
0.0
  0
ENDBLK
  5
76
100
AcDbEntity
  8
template
390
0
100
AcDbBlockEnd
  0
BLOCK
  5
77
100
AcDbEntity
  8
template
390
0
100
AcDbBlockBegin
  2
*D6
 70
               1
 10
0.0
 20
0.0
 30
0.0
  3
*D6
  1

  0
LINE
  5
78
100
AcDbEntity
  8
0
370
              -2
390
0
  6
Continuous
 62
               0
100
AcDbLine
 10
-24.982920944627949
 20
-19.497018441668388
 30
0.0
 11
-24.982920944627949
 21
-60.497018441668388
 31
0.0
  0
LINE
  5
79
100
AcDbEntity
  8
0
370
              -2
390
0
  6
Continuous
 62
               0
100
AcDbLine
 10
25.017079055372051
 20
-19.497018441668388
 30
0.0
 11
25.017079055372051
 21
-60.497018441668388
 31
0.0
  0
LINE
  5
7A
100
AcDbEntity
  8
0
370
              -2
390
0
  6
Continuous
 62
               0
100
AcDbLine
 10
-24.982920944627949
 20
-60.497018441668388
 30
0.0
 11
25.017079055372051
 21
-60.497018441668388
 31
0.0
  0
CIRCLE
  5
7B
102
{ACAD_REACTORS
330
7C
102
}
100
AcDbEntity
  8
0
370
              -2
390
0
  6
Continuous
 62
               0
100
AcDbCircle
 10
-24.982920944627949
 20
-60.497018441668388
 30
0.0
 40
0.19998779296875
  0
HATCH
  5
7C
100
AcDbEntity
  8
0
370
              -2
390
0
  6
Continuous
 62
               0
100
AcDbHatch
 10
0.0
 20
0.0
 30
0.0
210
0.0
220
0.0
230
1.0
  2
SOLID
 70
               1
 71
               1
 91
        1
 92
        1
 93
        1
 72
               2
 10
-24.982920944627949
 20
-60.497018441668388
 40
0.19998779296875
 50
0.0
 51
360.0
 73
               0
 97
        1
330
7B
 75
               0
 76
               1
 98
        1
 10
0.0
 20
0.0
  0
CIRCLE
  5
7D
102
{ACAD_REACTORS
330
7E
102
}
100
AcDbEntity
  8
0
370
              -2
390
0
  6
Continuous
 62
               0
100
AcDbCircle
 10
25.017079055372051
 20
-60.497018441668388
 30
0.0
 40
0.19998779296875
  0
HATCH
  5
7E
100
AcDbEntity
  8
0
370
              -2
390
0
  6
Continuous
 62
               0
100
AcDbHatch
 10
0.0
 20
0.0
 30
0.0
210
0.0
220
0.0
230
1.0
  2
SOLID
 70
               1
 71
               1
 91
        1
 92
        1
 93
        1
 72
               2
 10
25.017079055372051
 20
-60.497018441668388
 40
0.19998779296875
 50
0.0
 51
360.0
 73
               0
 97
        1
330
7D
 75
               0
 76
               1
 98
        1
 10
0.0
 20
0.0
  0
MTEXT
  5
7F
100
AcDbEntity
  8
0
390
0
 62
               0
100
AcDbMText
 10
-3.1579209446281311
 20
-57.109256722918417
 30
0.0
 40
2.4432617187500001
 41
0.0
 71
               1
 72
               1
  1
φ50
  7
ＭＳ ゴシック
 73
               1
 44
0.7828267384257843
  0
POINT
  5
80
100
AcDbEntity
  8
Defpoints
370
               0
390
0
 62
               0
100
AcDbPoint
 10
25.017079055372051
 20
-16.997018441668388
 30
0.0
  0
POINT
  5
81
100
AcDbEntity
  8
Defpoints
370
               0
390
0
 62
               0
100
AcDbPoint
 10
-24.982920944627949
 20
-16.997018441668388
 30
0.0
  0
POINT
  5
82
100
AcDbEntity
  8
Defpoints
370
               0
390
0
 62
               0
100
AcDbPoint
 10
-24.982920944627949
 20
-60.497018441668388
 30
0.0
  0
ENDBLK
  5
83
100
AcDbEntity
  8
template
390
0
100
AcDbBlockEnd
  0
BLOCK
  5
84
100
AcDbEntity
  8
template
390
0
100
AcDbBlockBegin
  2
*D7
 70
               1
 10
0.0
 20
0.0
 30
0.0
  3
*D7
  1

  0
LINE
  5
85
100
AcDbEntity
  8
0
370
              -2
390
0
  6
Continuous
 62
               0
100
AcDbLine
 10
-20.861221540174483
 20
-27.949308487225608
 30
0.0
 11
-20.861221540174483
 21
-50.449308487225608
 31
0.0
  0
LINE
  5
86
100
AcDbEntity
  8
0
370
              -2
390
0
  6
Continuous
 62
               0
100
AcDbLine
 10
20.895004287066513
 20
-27.949308487225608
 30
0.0
 11
20.895004287066513
 21
-50.449308487225608
 31
0.0
  0
LINE
  5
87
100
AcDbEntity
  8
0
370
              -2
390
0
  6
Continuous
 62
               0
100
AcDbLine
 10
-20.861221540174483
 20
-50.449308487225608
 30
0.0
 11
20.895004287066513
 21
-50.449308487225608
 31
0.0
  0
CIRCLE
  5
88
102
{ACAD_REACTORS
330
89
102
}
100
AcDbEntity
  8
0
370
              -2
390
0
  6
Continuous
 62
               0
100
AcDbCircle
 10
-20.861221540174483
 20
-50.449308487225608
 30
0.0
 40
0.19998779296875
  0
HATCH
  5
89
100
AcDbEntity
  8
0
370
              -2
390
0
  6
Continuous
 62
               0
100
AcDbHatch
 10
0.0
 20
0.0
 30
0.0
210
0.0
220
0.0
230
1.0
  2
SOLID
 70
               1
 71
               1
 91
        1
 92
        1
 93
        1
 72
               2
 10
-20.861221540174483
 20
-50.449308487225608
 40
0.19998779296875
 50
0.0
 51
360.0
 73
               0
 97
        1
330
88
 75
               0
 76
               1
 98
        1
 10
0.0
 20
0.0
  0
CIRCLE
  5
8A
102
{ACAD_REACTORS
330
8B
102
}
100
AcDbEntity
  8
0
370
              -2
390
0
  6
Continuous
 62
               0
100
AcDbCircle
 10
20.895004287066513
 20
-50.449308487225608
 30
0.0
 40
0.19998779296875
  0
HATCH
  5
8B
100
AcDbEntity
  8
0
370
              -2
390
0
  6
Continuous
 62
               0
100
AcDbHatch
 10
0.0
 20
0.0
 30
0.0
210
0.0
220
0.0
230
1.0
  2
SOLID
 70
               1
 71
               1
 91
        1
 92
        1
 93
        1
 72
               2
 10
20.895004287066513
 20
-50.449308487225608
 40
0.19998779296875
 50
0.0
 51
360.0
 73
               0
 97
        1
330
8A
 75
               0
 76
               1
 98
        1
 10
0.0
 20
0.0
  0
MTEXT
  5
8C
100
AcDbEntity
  8
0
390
0
 62
               0
100
AcDbMText
 10
-5.539358962989354
 20
-47.061546768475637
 30
0.0
 40
2.4432617187500001
 41
0.0
 71
               1
 72
               1
  1
G1 1/4"
  7
ＭＳ ゴシック
 73
               1
 44
0.7828267384257843
  0
POINT
  5
8D
100
AcDbEntity
  8
Defpoints
370
               0
390
0
 62
               0
100
AcDbPoint
 10
20.895004287066513
 20
-25.449308487225608
 30
0.0
  0
POINT
  5
8E
100
AcDbEntity
  8
Defpoints
370
               0
390
0
 62
               0
100
AcDbPoint
 10
-20.861221540174483
 20
-25.449308487225608
 30
0.0
  0
POINT
  5
8F
100
AcDbEntity
  8
Defpoints
370
               0
390
0
 62
               0
100
AcDbPoint
 10
-20.861221540174483
 20
-50.449308487225608
 30
0.0
  0
ENDBLK
  5
90
100
AcDbEntity
  8
template
390
0
100
AcDbBlockEnd
  0
BLOCK
  5
91
100
AcDbEntity
  8
template
390
0
100
AcDbBlockBegin
  2
*D8
 70
               1
 10
0.0
 20
0.0
 30
0.0
  3
*D8
  1

  0
LINE
  5
92
100
AcDbEntity
  8
0
370
              -2
390
0
  6
Continuous
 62
               0
100
AcDbLine
 10
-34.277177773270523
 20
42.940143327531587
 30
0.0
 11
-56.777177773270523
 21
42.940143327531587
 31
0.0
  0
LINE
  5
93
100
AcDbEntity
  8
0
370
              -2
390
0
  6
Continuous
 62
               0
100
AcDbLine
 10
-34.127407595594377
 20
13.993840991950492
 30
0.0
 11
-56.777177773270523
 21
13.993840991950492
 31
0.0
  0
LINE
  5
94
100
AcDbEntity
  8
0
370
              -2
390
0
  6
Continuous
 62
               0
100
AcDbLine
 10
-56.777177773270523
 20
42.940143327531587
 30
0.0
 11
-56.777177773270523
 21
13.993840991950492
 31
0.0
  0
CIRCLE
  5
95
102
{ACAD_REACTORS
330
96
102
}
100
AcDbEntity
  8
0
370
              -2
390
0
  6
Continuous
 62
               0
100
AcDbCircle
 10
-56.777177773270523
 20
42.940143327531587
 30
0.0
 40
0.19998779296875
  0
HATCH
  5
96
100
AcDbEntity
  8
0
370
              -2
390
0
  6
Continuous
 62
               0
100
AcDbHatch
 10
0.0
 20
0.0
 30
0.0
210
0.0
220
0.0
230
1.0
  2
SOLID
 70
               1
 71
               1
 91
        1
 92
        1
 93
        1
 72
               2
 10
-56.777177773270523
 20
42.940143327531587
 40
0.19998779296875
 50
0.0
 51
360.0
 73
               0
 97
        1
330
95
 75
               0
 76
               1
 98
        1
 10
0.0
 20
0.0
  0
CIRCLE
  5
97
102
{ACAD_REACTORS
330
98
102
}
100
AcDbEntity
  8
0
370
              -2
390
0
  6
Continuous
 62
               0
100
AcDbCircle
 10
-56.777177773270523
 20
13.993840991950492
 30
0.0
 40
0.19998779296875
  0
HATCH
  5
98
100
AcDbEntity
  8
0
370
              -2
390
0
  6
Continuous
 62
               0
100
AcDbHatch
 10
0.0
 20
0.0
 30
0.0
210
0.0
220
0.0
230
1.0
  2
SOLID
 70
               1
 71
               1
 91
        1
 92
        1
 93
        1
 72
               2
 10
-56.777177773270523
 20
13.993840991950492
 40
0.19998779296875
 50
0.0
 51
360.0
 73
               0
 97
        1
330
97
 75
               0
 76
               1
 98
        1
 10
0.0
 20
0.0
  0
MTEXT
  5
99
100
AcDbEntity
  8
0
390
0
 62
               0
100
AcDbMText
 10
-60.164939492020494
 20
23.704491823305943
 30
0.0
 40
2.4432617187500001
 41
0.0
 71
               1
 72
               1
  1
MAX.50
  7
ＭＳ ゴシック
 11
0.0
 21
1.0
 31
0.0
 73
               1
 44
0.7828267384257843
  0
POINT
  5
9A
100
AcDbEntity
  8
Defpoints
370
               0
390
0
 62
               0
100
AcDbPoint
 10
-31.627407595594377
 20
13.993840991950492
 30
0.0
  0
POINT
  5
9B
100
AcDbEntity
  8
Defpoints
370
               0
390
0
 62
               0
100
AcDbPoint
 10
-31.777177773270523
 20
42.940143327531587
 30
0.0
  0
POINT
  5
9C
100
AcDbEntity
  8
Defpoints
370
               0
390
0
 62
               0
100
AcDbPoint
 10
-56.777177773270523
 20
42.940143327531587
 30
0.0
  0
ENDBLK
  5
9D
100
AcDbEntity
  8
template
390
0
100
AcDbBlockEnd
  0
ENDSEC
  0
SECTION
  2
ENTITIES
  0
MTEXT
  5
9E
100
AcDbEntity
  8
template
390
0
 62
               7
100
AcDbMText
 10
-96.799999999951979
 20
-113.2920821466455
 30
0.0
 40
1.6288411458333332
 41
0.0
 71
               1
 72
               1
  1
品名
  7
ＭＳ ゴシック
 73
               1
 44
0.7828267384257843
  0
MTEXT
  5
9F
100
AcDbEntity
  8
template
390
0
 62
               7
100
AcDbMText
 10
-96.799999999951979
 20
-121.79231335942723
 30
0.0
 40
1.6288411458333332
 41
0.0
 71
               1
 72
               1
  1
仕様
  7
ＭＳ ゴシック
 73
               1
 44
0.7828267384257843
  0
MTEXT
  5
A0
100
AcDbEntity
  8
template
390
0
 62
               7
100
AcDbMText
 10
-91.499999999953616
 20
-116.15040338454946
 30
0.0
 40
2.4432617187500001
 41
0.0
 71
               1
 72
               1
  1
排水目皿 -VALPRA-
  7
ＭＳ ゴシック
 73
               1
 44
0.7828267384257843
  0
LINE
  5
A1
100
AcDbEntity
  8
template
370
               5
390
0
  6
Continuous
 62
               7
100
AcDbLine
 10
97.499999999950887
 20
-120.95080349094997
 30
0.0
 11
-97.5
 21
-120.95080349094997
 31
0.0
  0
LINE
  5
A2
100
AcDbEntity
  8
template
370
               5
390
0
  6
Continuous
 62
               7
100
AcDbLine
 10
97.499999999950887
 20
-112.45057227816778
 30
0.0
 11
-97.5
 21
-112.45057227816778
 31
0.0
  0
LINE
  5
A3
100
AcDbEntity
  8
template
370
               5
390
0
  6
Continuous
 62
               7
100
AcDbLine
 10
97.5
 20
-129.45103470373215
 30
0.0
 11
22.200000000018008
 21
-129.45103470373215
 31
0.0
  0
MTEXT
  5
A4
100
AcDbEntity
  8
template
390
0
 62
               7
100
AcDbMText
 10
-97.499999999931788
 20
-139.16858878579478
 30
0.0
 40
2.4432617187500001
 41
0.0
 71
               1
 72
               1
  1
111116SH
  7
ＭＳ ゴシック
 73
               1
 44
0.7828267384257843
  0
MTEXT
  5
A5
100
AcDbEntity
  8
template
390
0
 62
               7
100
AcDbMText
 10
73.100000000031287
 20
-121.79231335942723
 30
0.0
 40
1.6288411458333332
 41
0.0
 71
               1
 72
               1
  1
縮尺
  7
ＭＳ ゴシック
 73
               1
 44
0.7828267384257843
  0
LINE
  5
A6
100
AcDbEntity
  8
template
370
               5
390
0
  6
Continuous
 62
               7
100
AcDbLine
 10
72.400000000031469
 20
-129.45103470373215
 30
0.0
 11
72.400000000031469
 21
-120.95080349094997
 31
0.0
  0
MTEXT
  5
A7
100
AcDbEntity
  8
template
390
0
 62
               7
100
AcDbMText
 10
48.000000000038199
 20
-121.79231335942723
 30
0.0
 40
1.6288411458333332
 41
0.0
 71
               1
 72
               1
  1
容量
  7
ＭＳ ゴシック
 73
               1
 44
0.7828267384257843
  0
LINE
  5
A8
100
AcDbEntity
  8
template
370
               5
390
0
  6
Continuous
 62
               7
100
AcDbLine
 10
47.300000000037471
 20
-129.45103470373215
 30
0.0
 11
47.300000000037471
 21
-120.95080349094997
 31
0.0
  0
MTEXT
  5
A9
100
AcDbEntity
  8
template
390
0
 62
               7
100
AcDbMText
 10
22.900000000044201
 20
-113.2920821466455
 30
0.0
 40
1.6288411458333332
 41
0.0
 71
               1
 72
               1
  1
品番
  7
ＭＳ ゴシック
 73
               1
 44
0.7828267384257843
  0
MTEXT
  5
AA
100
AcDbEntity
  8
template
390
0
 62
               7
100
AcDbMText
 10
22.900000000044201
 20
-121.79231335942723
 30
0.0
 40
1.6288411458333332
 41
0.0
 71
               1
 72
               1
  1
重量
  7
ＭＳ ゴシック
 73
               1
 44
0.7828267384257843
  0
MTEXT
  5
AB
100
AcDbEntity
  8
template
390
0
 62
               7
100
AcDbMText
 10
28.200000000042564
 20
-116.15040338454946
 30
0.0
 40
2.4432617187500001
 41
0.0
 71
               1
 72
               1
  1
AWK73-9931
  7
ＭＳ ゴシック
 73
               1
 44
0.7828267384257843
  0
LINE
  5
AC
100
AcDbEntity
  8
template
370
               5
390
0
  6
Continuous
 62
               7
100
AcDbLine
 10
22.200000000044383
 20
-137.95126591651433
 30
0.0
 11
22.200000000044383
 21
-112.45057227816778
 31
0.0
  0
MTEXT
  5
AD
100
AcDbEntity
  8
template
390
0
 62
               7
100
AcDbMText
 10
25.187140625243046
 20
-132.44214769852078
 30
0.0
 40
2.4432617187500001
 41
0.0
 71
               1
 72
               1
  1
大洋金物株式会社 ティーフォルム事業部
  7
ＭＳ ゴシック
 73
               1
 44
0.7828267384257843
  0
INSERT
  5
AE
100
AcDbEntity
  8
template
390
0
 62
               7
100
AcDbBlockReference
  2
グループ
 10
5294.259098247011
 20
3760.3034021845829
 30
0.0
  0
LWPOLYLINE
  5
AF
100
AcDbEntity
  8
template
370
               5
390
0
  6
Continuous
 62
               7
100
AcDbPolyline
 90
        5
 70
             128
 10
97.5
 20
142.05635050454475
 10
-97.499999999952706
 20
142.05635050454475
 10
-97.499999999952706
 20
-137.95126591651433
 10
97.5
 20
-137.95126591651433
 10
97.5
 20
142.05635050454475
  0
MTEXT
  5
B0
100
AcDbEntity
  8
template
390
0
 62
               7
100
AcDbMText
 10
78.0
 20
-124.8747382812503
 30
0.0
 40
2.4432617187500001
 41
0.0
 71
               1
 72
               1
  1
1/1
  7
ＭＳ ゴシック
 73
               1
 44
0.7828267384257843
  0
LWPOLYLINE
  5
B1
100
AcDbEntity
  8
template
370
               9
390
0
  6
Continuous
 62
             250
100
AcDbPolyline
 90
        4
 70
             128
 10
-24.982920944627949
 20
7.5571016265535036
 10
-24.982920944627949
 20
-16.997018441668388
 10
25.017079055372051
 20
-16.997018441668388
 10
25.017079055372051
 20
7.5571016265535036
  0
LINE
  5
B2
100
AcDbEntity
  8
template
370
               9
390
0
  6
Continuous
 62
             250
100
AcDbLine
 10
31.158953506067519
 20
7.5571016265535036
 30
0.0
 11
-31.124795395321598
 21
7.5571016265535036
 31
0.0
  0
LWPOLYLINE
  5
B3
100
AcDbEntity
  8
template
370
               9
390
0
  6
Continuous
 62
             250
100
AcDbPolyline
 90
       34
 70
             128
 10
-31.627407595594377
 20
10.471989633434077
 10
-31.627407595594377
 20
8.0574616437024815
 10
-31.627399718288871
 20
8.0559689058040931
 42
0.0197506077695364
 10
-31.625550217061573
 20
8.014688215078877
 42
0.0222964177417676
 10
-31.620241531075408
 20
7.9737174575329846
 10
-31.620011707236699
 20
7.9724056805439432
 42
0.022071969971355
 10
-31.610618518745468
 20
7.9299172711557731
 10
-31.610602368225955
 20
7.9298569759166639
 42
0.0218461140587981
 10
-31.597555996525443
 20
7.8884743086923663
 42
0.0216273009005878
 10
-31.580971493089237
 20
7.8483941749041151
 42
0.021455093267223
 10
-31.561005416074295
 20
7.8099034199699418
 10
-31.560992137602625
 20
7.8098803047091678
 42
0.0213102141834624
 10
-31.53778263526965
 20
7.7731901102597476
 10
-31.53774478903415
 20
7.7731355719051862
 42
0.021123967536163
 10
-31.51142858739604
 20
7.7384382506320435
 10
-31.511360519248228
 20
7.7383559668264752
 42
0.0215860822794358
 10
-31.4820386169431
 20
7.7058728595884531
 10
-31.478039310403801
 20
7.7018095503140103
 42
0.0236353236429915
 10
-31.445580983167019
 20
7.6718086253335969
 10
-31.445446512458147
 20
7.671695634914613
 42
0.0230393933254426
 10
-31.410610270641882
 20
7.645061938786057
 10
-31.410525066458831
 20
7.6450028091685454
 42
0.0227473571346737
 10
-31.373574060594365
 20
7.6217753823161729
 10
-31.373534554737489
 20
7.6217529879136237
 42
0.0224024208197136
 10
-31.334719468076401
 20
7.6019922726777622
 42
0.0220714995828358
 10
-31.294297424713477
 20
7.5857549287479742
 42
0.0217695322602407
 10
-31.252603746681416
 20
7.5731171435077158
 10
-31.252558240993494
 20
7.5731054863908867
 42
0.0215208298617619
 10
-31.209835274303259
 20
7.5641002708052838
 10
-31.20849896701111
 20
7.5638781613388346
 42
0.0213250267402692
 10
-31.167511101098171
 20
7.5588501017277849
 10
-31.166192323094037
 20
7.5587451456358394
 42
0.0185432542109472
 10
-31.127566765410847
 20
7.5571089080244747
 10
-31.124795395321598
 20
7.5571016265535036
  0
LWPOLYLINE
  5
B4
100
AcDbEntity
  8
template
370
               9
390
0
  6
Continuous
 62
             250
100
AcDbPolyline
 90
       51
 70
             128
 10
-31.124795395321598
 20
10.977980108390966
 10
-31.124820128902684
 20
10.977980028143065
 42
0.0105067815305656
 10
-31.14881029838125
 20
10.977397978143472
 42
0.013857253881238
 10
-31.172739738468408
 20
10.97564843352302
 10
-31.174442033168816
 20
10.975476438359237
 42
0.0137871742946448
 10
-31.201481035804136
 20
10.971989049600325
 10
-31.201508447785272
 20
10.971984742775021
 42
0.0137268346249347
 10
-31.22826027526753
 20
10.967025668794577
 10
-31.228278395135021
 20
10.967021792574542
 42
0.0136788493756508
 10
-31.254682460953518
 20
10.960613407135043
 42
0.0136398828024546
 10
-31.280687817539729
 20
10.952775563713203
 42
0.0136252805135863
 10
-31.306216618803774
 20
10.943535396424068
 42
0.0136261694254148
 10
-31.331209044983552
 20
10.932916178503092
 42
0.0136352862924211
 10
-31.355591859583001
 20
10.920948208529353
 10
-31.355605279476549
 20
10.920941161173232
 42
0.0136629180013246
 10
-31.379325123839408
 20
10.907645753921315
 10
-31.379345580099653
 20
10.907633541638006
 42
0.0137045077849538
 10
-31.402342753552148
 20
10.893034975932551
 10
-31.40237013404203
 20
10.893016523107235
 42
0.0137583664891421
 10
-31.424584886493903
 20
10.877139210322639
 10
-31.42461911587543
 20
10.877113294078754
 42
0.0138212492171129
 10
-31.445991706234054
 20
10.859981850985605
 10
-31.447968480752934
 20
10.858305542101789
 42
0.0138662453906095
 10
-31.464662637073161
 20
10.843333638303193
 42
0.0093199059331049
 10
-31.480648220525836
 20
10.827600680775504
 10
-31.481232955928135
 20
10.827003326288377
 42
0.0119493748162438
 10
-31.497673602057148
 20
10.80938469862167
 10
-31.498199234941239
 20
10.808793701839022
 42
0.0131408218624402
 10
-31.514754058591279
 20
10.789164950487248
 10
-31.515285783408217
 20
10.788499785874137
 42
0.0131329979487368
 10
-31.531734288181724
 20
10.766777443541287
 10
-31.531749607814163
 20
10.766756067968345
 42
0.0131299727223623
 10
-31.547005539860947
 20
10.744243676853785
 10
-31.547015989093779
 20
10.744227350244273
 42
0.0131430890001356
 10
-31.561048504418977
 20
10.720977998361832
 42
0.0131668726538904
 10
-31.57383295497857
 20
10.697033866509628
 42
0.0132166878193464
 10
-31.585328618059975
 20
10.672464766711073
 42
0.0132825846373902
 10
-31.5955051989813
 20
10.647324181126351
 42
0.0133634639282596
 10
-31.604332382195935
 20
10.621665590041175
 42
0.0134481463375695
 10
-31.611775045315881
 20
10.59556115007581
 10
-31.611779830427622
 20
10.595542476066385
 42
0.0135485289893159
 10
-31.617811471875939
 20
10.569037002111145
 10
-31.617817184570413
 20
10.569008328438485
 42
0.0136567247870894
 10
-31.622408349407124
 20
10.54215661345097
 10
-31.622414064350778
 20
10.5421166476076
 42
0.013769409999045
 10
-31.625535480065992
 20
10.514973600570556
 10
-31.625834950122226
 20
10.511538465499143
 42
0.0138826435505909
 10
-31.627055991067209
 20
10.490935193942278
 10
-31.627163596680475
 20
10.487512844872981
 42
0.0069831804629002
 10
-31.627404573181593
 20
10.473716996687472
 10
-31.627407595594377
 20
10.471989633434077
  0
LINE
  5
B5
100
AcDbEntity
  8
template
370
               9
390
0
  6
Continuous
 62
             250
100
AcDbLine
 10
31.663067161754952
 20
10.471989633434077
 30
0.0
 11
31.663067161754952
 21
8.0574616437024815
 31
0.0
  0
LWPOLYLINE
  5
B6
100
AcDbEntity
  8
template
370
               9
390
0
  6
Continuous
 62
             250
100
AcDbPolyline
 90
       53
 70
             128
 10
31.158953506067519
 20
7.5571016265535036
 10
31.159860823509916
 20
7.5571043648210434
 42
0.011533389578242
 10
31.185596020898629
 20
7.5577757870210007
 42
0.0132216434284036
 10
31.211264313890752
 20
7.5597197890215284
 10
31.212110664530883
 20
7.5598064456262364
 42
0.0133216147033308
 10
31.239050798338212
 20
7.5632922168474579
 10
31.239105990723147
 20
7.5633008587255972
 42
0.0134217759751081
 10
31.265711275282229
 20
7.568201554774987
 10
31.265752221533148
 20
7.5682102393689092
 42
0.013520985368554
 10
31.291973457254244
 20
7.5745170787918141
 10
31.291999873781606
 20
7.5745241933723264
 42
0.0136179364182544
 10
31.317787823597428
 20
7.582228494771698
 42
0.0137048450251787
 10
31.343104844300797
 20
7.5913255123432464
 42
0.0138004339888859
 10
31.367874976934218
 20
7.6017978428899369
 42
0.0138784514981104
 10
31.392030905361025
 20
7.6136258807678132
 10
31.392048665633411
 20
7.6136351968566487
 42
0.0139482379344744
 10
31.415544193690039
 20
7.6268080598147208
 10
31.415576340509688
 20
7.6268272806951245
 42
0.0140055288533327
 10
31.438362226936079
 20
7.6413325373837324
 10
31.438408417777282
 20
7.6413637935525003
 42
0.0140477808125376
 10
31.460435594662158
 20
7.6571889326364726
 10
31.46049530068467
 20
7.6572344238752521
 42
0.0140724783742668
 10
31.481714898032806
 20
7.6743668764338508
 10
31.484350855735102
 20
7.6766205434573749
 42
0.0140691414359076
 10
31.499714913302341
 20
7.6905232992912715
 10
31.50093228580954
 20
7.6916888295863828
 42
0.0071152503658318
 10
31.513296984078806
 20
7.7038688933989761
 10
31.517090827739594
 20
7.7075545510165284
 42
0.0208660572907307
 10
31.54083331431957
 20
7.7326282292929136
 10
31.543188468323024
 20
7.7353330174410075
 42
0.0139450623669124
 10
31.560584084345464
 20
7.7564736354438537
 10
31.56063307435943
 20
7.7565366759772587
 42
0.0139522187087816
 10
31.576728387029107
 20
7.7784856912749092
 10
31.576763580162151
 20
7.7785366037819585
 42
0.0139596661614359
 10
31.591541766299088
 20
7.801245689669031
 10
31.591564989535073
 20
7.8012836535158385
 42
0.0139562073155498
 10
31.605008714742326
 20
7.8247048091529905
 10
31.605021782683252
 20
7.8247291230254632
 42
0.0139431326141969
 10
31.617113729203083
 20
7.8488142356522985
 42
0.0139158642805521
 10
31.627841308779352
 20
7.8735251623184013
 42
0.0138952473921637
 10
31.637175952877442
 20
7.8987887894827509
 42
0.0138570334698839
 10
31.645096553669646
 20
7.9245361221510393
 10
31.645102159910493
 20
7.9245563217677955
 42
0.013815455874946
 10
31.651596570473885
 20
7.9507430886515067
 10
31.65160442481374
 20
7.9507789749709445
 42
0.0137680051674526
 10
31.656658872162552
 20
7.9773562009518173
 10
31.656667243235461
 20
7.9774079409958176
 42
0.0137158373723833
 10
31.660267899183964
 20
8.0043266433817735
 10
31.660357326413759
 20
8.0051708159699047
 42
0.0136552675719121
 10
31.662368528795014
 20
8.0308264273044188
 10
31.662410227339024
 20
8.0316445666562686
 42
0.0118908047609608
 10
31.663064257635597
 20
8.0557343926129761
 10
31.663067161754952
 20
8.0574616437024815
  0
LWPOLYLINE
  5
B7
100
AcDbEntity
  8
template
370
               9
390
0
  6
Continuous
 62
             250
100
AcDbPolyline
 90
       54
 70
             128
 10
31.663067161754952
 20
10.471989633434077
 10
31.663064328598011
 20
10.472887459093727
 42
0.0119274574238633
 10
31.662368121074906
 20
10.498657729371644
 42
0.0135952179231741
 10
31.66035818232649
 20
10.524356728105431
 10
31.66026878802495
 20
10.525203017272361
 42
0.0136187450304999
 10
31.656665802897805
 20
10.552240899564822
 10
31.65665982538394
 20
10.552278007561199
 42
0.0136443432931683
 10
31.651602720868141
 20
10.579005491957105
 10
31.651597450457302
 20
10.579029709530914
 42
0.0136723539598493
 10
31.645100360735341
 20
10.605393037084923
 42
0.0136968229002184
 10
31.637174226000752
 20
10.631349982008032
 42
0.0137361248410514
 10
31.627839810123078
 20
10.656822770474264
 42
0.0137698999730583
 10
31.617118648630822
 20
10.681744776215055
 10
31.617112597724372
 20
10.681757838847716
 42
0.0138047953257658
 10
31.60502129388442
 20
10.706076755634513
 10
31.605008066323535
 20
10.706101613940973
 42
0.0138389009064529
 10
31.591563691164083
 20
10.729764165740107
 10
31.591541688597317
 20
10.729800511037865
 42
0.0138705240798434
 10
31.576761393735978
 20
10.752753471610504
 10
31.576728935099709
 20
10.752800932406444
 42
0.0138976875948882
 10
31.5606299566507
 20
10.774991151200084
 10
31.560585277345126
 20
10.775049266390852
 42
0.0139181981348821
 10
31.543184933295379
 20
10.796423695290741
 10
31.540899267781242
 20
10.799077004796345
 42
0.0139232428339447
 10
31.526809481199052
 20
10.814540704539468
 10
31.525626122052927
 20
10.815768951028986
 42
0.0070479906684108
 10
31.513296984078806
 20
10.828209930714365
 10
31.512654687350732
 20
10.828859668979021
 42
0.0118454672509633
 10
31.494017595784499
 20
10.846840125004292
 42
0.0135101884233977
 10
31.474494736279667
 20
10.863851377613173
 10
31.473834667998744
 20
10.864395867924941
 42
0.0135397132998896
 10
31.452295787952607
 20
10.881204387669186
 10
31.452249405389921
 20
10.881238604262307
 42
0.0135696006915609
 10
31.429925928824559
 20
10.896789370458009
 10
31.429888719414521
 20
10.896813818612372
 42
0.013600490092507
 10
31.406829357837523
 20
10.911082382321638
 10
31.406802113056074
 20
10.911098232666973
 42
0.0136328316870543
 10
31.383055569175667
 20
10.924060156767609
 10
31.383039090675084
 20
10.924068576751779
 42
0.0136667935389487
 10
31.358654050579389
 20
10.935699420121637
 42
0.0136994728269083
 10
31.333674286558562
 20
10.945976889060603
 42
0.0137425710441822
 10
31.308165760788143
 20
10.95486926984222
 42
0.0137747261166584
 10
31.28219915712998
 20
10.962347780304299
 10
31.282177958805732
 20
10.96235325794396
 42
0.0138097310522163
 10
31.255795894430776
 20
10.968398424801308
 10
31.255760370803728
 20
10.968405538300885
 42
0.0138419214342254
 10
31.229013170192957
 20
10.972995527539751
 10
31.228962494399639
 20
10.973002786167399
 42
0.0138694719061604
 10
31.20190047905453
 20
10.976115869313162
 10
31.198466986412313
 20
10.976414628379644
 42
0.0138853977224542
 10
31.177885224798047
 20
10.977630890939054
 10
31.174470858190944
 20
10.977737646980586
 42
0.0069467873859352
 10
31.160680719499396
 20
10.977977111773725
 10
31.158953506067519
 20
10.977980108390966
  0
LWPOLYLINE
  5
B8
100
AcDbEntity
  8
template
370
               9
390
0
  6
Continuous
 62
             250
100
AcDbPolyline
 90
        5
 70
             128
 10
31.663067161754952
 20
13.993840991950492
 10
31.663067161754952
 20
10.977980108390966
 10
-31.627407595594377
 20
10.977980108390966
 10
-31.627407595594377
 20
13.993840991950492
 10
31.663067161754952
 20
13.993840991950492
  0
LWPOLYLINE
  5
B9
100
AcDbEntity
  8
template
370
               9
390
0
  6
Continuous
 62
             250
100
AcDbPolyline
 90
        6
 70
             128
 10
20.895004287066513
 20
-16.897018441668479
 10
20.895004287066513
 20
-25.449308487225608
 10
19.385666230834431
 20
-26.959021907311126
 10
-19.352446529724148
 20
-26.959021907311126
 10
-20.861221540174483
 20
-25.449308487225608
 10
-20.861221540174483
 20
-16.897018441668479
  0
LINE
  5
BA
100
AcDbEntity
  8
template
370
               9
390
0
  6
Continuous
 62
             250
100
AcDbLine
 10
-20.861221540174483
 20
34.814454301847036
 30
0.0
 11
20.895004287066513
 21
34.814454301847036
 31
0.0
  0
LWPOLYLINE
  5
BB
100
AcDbEntity
  8
template
370
               9
390
0
  6
Continuous
 62
             250
100
AcDbPolyline
 90
        4
 70
             128
 10
-20.861221540174483
 20
34.781985328490919
 10
-20.861221540174483
 20
33.005388208335717
 10
20.895004287066513
 20
33.005388208335717
 10
20.895004287066513
 20
34.781985328490919
  0
LINE
  5
BC
100
AcDbEntity
  8
template
370
               9
390
0
  6
Continuous
 62
             250
100
AcDbLine
 10
-31.777177773270523
 20
42.940143327531587
 30
0.0
 11
-24.129702297359472
 21
40.870387037538421
 31
0.0
  0
LWPOLYLINE
  5
BD
100
AcDbEntity
  8
template
370
               9
390
0
  6
Continuous
 62
             250
100
AcDbPolyline
 90
       29
 70
             128
 10
-20.861221540174483
 20
34.781985328490919
 10
-22.409222073350975
 20
39.264017425092788
 42
0.002289925051037
 10
-22.41688323102062
 20
39.285812321692447
 10
-22.434260964225359
 20
39.334535083527499
 42
0.022810328835164
 10
-22.482118755442571
 20
39.451555976179861
 10
-22.503955437722652
 20
39.498692961816687
 42
0.018125042235127
 10
-22.586337255116632
 20
39.660843777212904
 10
-22.586544825593592
 20
39.66121809166134
 42
0.0180171825659054
 10
-22.67998024449389
 20
39.816264969621898
 10
-22.680149162564703
 20
39.816523707327633
 42
0.0179277969478959
 10
-22.784123542668567
 20
39.963955868813628
 10
-22.784241871909217
 20
39.96411149657979
 42
0.0178647986802333
 10
-22.898246889939401
 20
40.103428486940629
 10
-22.898310741442401
 20
40.103501063095791
 42
0.0178271307331581
 10
-23.021828588221979
 20
40.234192909669673
 42
0.0178236503757133
 10
-23.154342799393817
 20
40.355754576432446
 42
0.0178508811439634
 10
-23.295185148122073
 20
40.46756147816177
 10
-23.295268676639353
 20
40.46762305790935
 42
0.0179093057256122
 10
-23.44391047544741
 20
40.569197345199882
 10
-23.444086996973965
 20
40.569308914580233
 42
0.0179945876852796
 10
-23.599992250548894
 20
40.660167770622593
 10
-23.600276836962621
 20
40.660320179620612
 42
0.0181011481468901
 10
-23.762907129959785
 20
40.739981614960016
 10
-23.763317427302354
 20
40.740164488963728
 42
0.0182212856760648
 10
-23.932131507174745
 20
40.808148090149643
 10
-23.93268681419795
 20
40.808348533234948
 42
0.0183392171539001
 10
-24.107138261875662
 20
40.864178199483376
 10
-24.107444614363885
 20
40.864263993698842
 42
0.0022991876201301
 10
-24.129702297359472
 20
40.870387037538421
 42
0.0022991876201301
  0
LINE
  5
BE
100
AcDbEntity
  8
template
370
               9
390
0
  6
Continuous
 62
             250
100
AcDbLine
 10
31.814338794846662
 20
42.940143327531587
 30
0.0
 11
24.165924909300884
 21
40.870387037538421
 31
0.0
  0
LINE
  5
BF
100
AcDbEntity
  8
template
370
               9
390
0
  6
Continuous
 62
             250
100
AcDbLine
 10
20.895004287066513
 20
34.781985328490919
 30
0.0
 11
22.441503364826531
 21
39.264017425092788
 31
0.0
  0
LWPOLYLINE
  5
C0
100
AcDbEntity
  8
template
370
               9
390
0
  6
Continuous
 62
             250
100
AcDbPolyline
 90
       38
 70
             128
 10
24.165924909300884
 20
40.870387037538421
 42
0.0015856447213297
 10
24.15039691662696
 20
40.86616938959196
 10
24.115646918034145
 20
40.856612306577063
 42
0.0158992380001296
 10
24.031461140458305
 20
40.830553592403248
 10
23.997233386859989
 20
40.818753958202251
 42
0.012677273705265
 10
23.878381059124877
 20
40.774379090174079
 10
23.878086646764132
 20
40.77426058003357
 42
0.0126322787581401
 10
23.76221387321857
 20
40.724180859356693
 10
23.761974989886767
 20
40.724070372121332
 42
0.0125867146152518
 10
23.649245918642009
 20
40.668445457391044
 10
23.649057566602096
 20
40.668346546113753
 42
0.012541208312546
 10
23.539636217709813
 20
40.607336243392638
 10
23.539493684080298
 20
40.60725201683681
 42
0.012497647131447
 10
23.43354376334355
 20
40.541016520484845
 10
23.433442633868253
 20
40.540949726488179
 42
0.0124576303705116
 10
23.331127544595802
 20
40.469649552176179
 10
23.331063851462204
 20
40.469602766808293
 42
0.0124226611841774
 10
23.232546498748889
 20
40.39339848724785
 42
0.0123895011861031
 10
23.137959764278094
 20
40.31242667196102
 42
0.0123721420819159
 10
23.047525692135423
 20
40.226896376849254
 42
0.0123601995292609
 10
22.961403213276753
 20
40.136970521890817
 42
0.0123492063959713
 10
22.879801100867553
 20
40.042872374293893
 10
22.879752640970764
 20
40.042813622960693
 42
0.0123491985171555
 10
22.802802116962084
 20
39.944681378151017
 10
22.802732945366188
 20
39.944588532606303
 42
0.0123562288298303
 10
22.730589259539556
 20
39.842586632196799
 10
22.730502695391806
 20
39.842457592717892
 42
0.0123694996623008
 10
22.663322427996718
 20
39.736752266407166
 10
22.663221121251809
 20
39.736583799171058
 42
0.0123880529411332
 10
22.601160699743559
 20
39.62734145991044
 10
22.601047452432795
 20
39.627130089419097
 42
0.0124106309393379
 10
22.544263169094847
 20
39.514517482925385
 10
22.544140974964648
 20
39.51425941295247
 42
0.0124356358921234
 10
22.492788852990088
 20
39.398443601687177
 10
22.492661118331853
 20
39.3981350295212
 42
0.0124585431771763
 10
22.446896335640304
 20
39.279284181714502
 10
22.446837648272776
 20
39.279119660725883
 42
0.0015564347945859
 10
22.441503364826531
 20
39.264017425092788
 42
0.0015564347945859
  0
LWPOLYLINE
  5
C1
100
AcDbEntity
  8
template
370
               9
390
0
  6
Continuous
 62
             250
100
AcDbPolyline
 90
        5
 70
             128
 10
-31.777177773270523
 20
42.940143327531587
 10
31.814338794846662
 20
42.940143327531587
 10
31.814338794846662
 20
43.946681501564399
 10
-31.777177773270523
 20
43.946681501564399
 10
-31.777177773270523
 20
42.940143327531587
  0
LINE
  5
C2
100
AcDbEntity
  8
template
370
               9
390
0
  6
STYLE_01
 62
             250
100
AcDbLine
 10
0.0000000000236469
 20
76.826865959324095
 30
0.0
 11
0.0000000000236469
 21
-33.468735075232871
 31
0.0
  0
LWPOLYLINE
  5
C3
100
AcDbEntity
  8
template
370
              18
390
0
  6
Continuous
 62
             250
100
AcDbPolyline
 90
       57
 70
             128
 10
-35.833547259634543
 20
50.460370456995861
 42
-0.0036220008804975
 10
-35.286898299697896
 20
50.806058995885451
 10
-35.147561949854207
 20
50.892765608322861
 42
-0.007078754016591
 10
-34.312609969943878
 20
51.396085962394864
 10
-33.877028484620496
 20
51.650323462337383
 42
-0.0134576560521111
 10
-32.138128104489624
 20
52.603485860155615
 10
-31.818736622460165
 20
52.767538541526847
 42
-0.0127619638484831
 10
-29.385466384708707
 20
53.939878047249294
 10
-29.351356390762703
 20
53.955252245710199
 42
-0.0121858847928098
 10
-26.793646653467476
 20
55.033878247552366
 10
-26.759527619303299
 20
55.047297170947786
 42
-0.0117028177312224
 10
-24.084335620580532
 20
56.027792703876912
 10
-24.05050439110164
 20
56.039301633106788
 42
-0.0113028960850079
 10
-21.264849276339191
 20
56.917211892555315
 10
-21.231543019765013
 20
56.926886546921651
 42
-0.0109771581360061
 10
-18.342501584652382
 20
57.697731555356768
 10
-18.309902604471972
 20
57.705667247659221
 42
-0.0107175457038937
 10
-15.324604351146263
 20
58.364951575505984
 10
-15.292844847520428
 20
58.371254774355748
 42
-0.0105168818491836
 10
-12.218466911480391
 20
58.914475115677305
 10
-12.187634258488288
 20
58.919256651333399
 42
-0.0103687108967326
 10
-9.0313981439376221
 20
59.341907934687242
 10
-9.0015361937585112
 20
59.345278059544853
 42
-0.0102676095450718
 10
-5.7706990370270432
 20
59.642857411457044
 10
-5.741823850316905
 20
59.644920065642964
 42
-0.0102069270656863
 10
-2.4436945832821948
 20
59.812937237120877
 10
-2.4164684103143372
 20
59.813767512209779
 42
-0.0101694935523041
 10
0.9402363398367015
 20
59.847831653149569
 10
0.9672871610382572
 20
59.84755598100628
 42
-0.0102407009056913
 10
4.3112785602497752
 20
59.744959476262466
 10
4.3398401781660141
 20
59.743497219207256
 42
-0.0102869635152771
 10
7.6197579033296279
 20
59.50784048405103
 10
7.649325751906872
 20
59.505103645218696
 42
-0.0103651687212467
 10
10.857708310536509
 20
59.140914658540623
 10
10.888290889767632
 20
59.13679943768966
 42
-0.0104893781122318
 10
14.017716121562444
 20
58.648664219859256
 10
14.049286734841189
 20
58.643059031188841
 42
-0.0106642121116971
 10
17.092370756962737
 20
58.035563948339586
 10
17.124861912318011
 20
58.028353927496482
 42
-0.0108959734768395
 10
20.074263754348976
 20
57.306086477218287
 10
20.107563287532685
 20
57.297158487032902
 42
-0.0111916295685408
 10
22.955989137646611
 20
56.464701136397252
 10
22.989935626453189
 20
56.453949950268452
 42
-0.0115590298887855
 10
25.730143643287192
 20
55.515873173305408
 10
25.764521420766869
 20
55.503209269084437
 42
-0.0120069608346132
 10
28.389326884466755
 20
54.46406258142315
 10
28.423860678014535
 20
54.449422216872335
 42
-0.0125451174985183
 10
30.926141513903531
 20
53.313722600557867
 10
30.960496614907242
 20
53.297078314694318
 42
-0.0131857341595432
 10
33.333183646896032
 20
52.06929245193669
 10
33.78470586514868
 20
51.820337575937174
 42
-0.0139806308843272
 10
35.198695915135431
 20
50.988334668281823
 10
35.619231162610049
 20
50.724790573583505
 42
-0.0036943404985767
 10
36.166307316098028
 20
50.376288953738822
 10
36.166307316098028
 20
48.971302048870712
 10
-35.833547259634543
 20
48.971302048870712
 10
-35.833547259634543
 20
50.460370456995861
  0
LINE
  5
C4
100
AcDbEntity
  8
template
370
               9
390
0
  6
Continuous
 62
             250
100
AcDbLine
 10
5.5703995907924764
 20
48.98293832833906
 30
0.0
 11
5.5703995907924764
 21
43.946681501564399
 31
0.0
  0
LINE
  5
C5
100
AcDbEntity
  8
template
370
               9
390
0
  6
Continuous
 62
             250
100
AcDbLine
 10
-6.2895967346739781
 20
48.98293832833906
 30
0.0
 11
-6.2895967346739781
 21
43.946681501564399
 31
0.0
  0
LINE
  5
C6
100
AcDbEntity
  8
template
370
               9
390
0
  6
Continuous
 62
             250
100
AcDbLine
 10
-2.3540944092419522
 20
33.005388208335717
 30
0.0
 11
-2.3540944092419522
 21
14.19384099195031
 31
0.0
  0
LINE
  5
C7
100
AcDbEntity
  8
template
370
               9
390
0
  6
Continuous
 62
             250
100
AcDbLine
 10
-1.7294889564764162
 20
33.005388208335717
 30
0.0
 11
-1.7294889564764162
 21
14.19384099195031
 31
0.0
  0
LINE
  5
C8
100
AcDbEntity
  8
template
370
               9
390
0
  6
Continuous
 62
             250
100
AcDbLine
 10
1.7296766384506554
 20
33.005388208335717
 30
0.0
 11
1.7296766384506554
 21
14.19384099195031
 31
0.0
  0
LINE
  5
C9
100
AcDbEntity
  8
template
370
               9
390
0
  6
Continuous
 62
             250
100
AcDbLine
 10
2.3542820912161915
 20
33.005388208335717
 30
0.0
 11
2.3542820912161915
 21
14.19384099195031
 31
0.0
  0
LINE
  5
CA
100
AcDbEntity
  8
template
370
              18
390
0
  6
Continuous
 62
             250
100
AcDbLine
 10
-35.833547259634543
 20
50.460370456995861
 30
0.0
 11
36.166307316098028
 21
50.376288953738822
 31
0.0
  0
DIMENSION
  5
CB
100
AcDbEntity
  8
template
370
               5
390
0
  6
Continuous
 62
               7
100
AcDbDimension
  2
*D3
 10
36.166307316098028
 20
75.426650939251431
 30
0.0
 11
0.1663800282321972
 21
75.426650939251431
 31
0.0
 71
               5
 72
               1
 41
1.0
 42
0.0
  3
tfrom線あり
100
AcDbAlignedDimension
 13
-35.833547259634543
 23
50.426650939251431
 33
0.0
 14
36.166307316098028
 24
50.426650939251431
 34
0.0
100
AcDbRotatedDimension
1001
ACAD
1000
DSTYLE
1002
{
1070
             271
1070
               3
1070
             279
1070
               2
1070
             340
1005
2A
1070
               3
1000
φ<>
1002
}
  0
DIMENSION
  5
CC
100
AcDbEntity
  8
template
370
               5
390
0
  6
Continuous
 62
               7
100
AcDbDimension
  2
*D4
 10
56.663067161754952
 20
13.993840991950492
 30
0.0
 11
56.663067161754952
 21
-1.5015887248587205
 31
0.0
 71
               5
 72
               1
 41
1.0
 42
0.0
  3
tfrom線あり
100
AcDbAlignedDimension
 13
25.017079055372051
 23
-16.997018441668388
 33
0.0
 14
31.663067161754952
 24
13.993840991950492
 34
0.0
 50
90.0
100
AcDbRotatedDimension
1001
ACAD
1000
DSTYLE
1002
{
1070
             279
1070
               2
1070
             340
1005
2A
1002
}
  0
DIMENSION
  5
CD
100
AcDbEntity
  8
template
370
               5
390
0
  6
Continuous
 62
               7
100
AcDbDimension
  2
*D5
 10
56.663067161754952
 20
-16.997018441668388
 30
0.0
 11
56.663067161754952
 21
-21.978020174489757
 31
0.0
 71
               5
 72
               1
 41
1.0
 42
0.0
  3
tfrom線あり
100
AcDbAlignedDimension
 13
19.385666230834431
 23
-26.959021907311126
 33
0.0
 14
25.017079055372051
 24
-16.997018441668388
 34
0.0
 50
90.0
100
AcDbRotatedDimension
1001
ACAD
1000
DSTYLE
1002
{
1070
             279
1070
               2
1070
             340
1005
2A
1002
}
  0
DIMENSION
  5
CE
100
AcDbEntity
  8
template
370
               5
390
0
  6
Continuous
 62
               7
100
AcDbDimension
  2
*D6
 10
-24.982920944627949
 20
-60.497018441668388
 30
0.0
 11
0.0170790553720508
 21
-60.497018441668388
 31
0.0
 71
               5
 72
               1
 41
1.0
 42
0.0
  3
tfrom線あり
100
AcDbAlignedDimension
 13
25.017079055372051
 23
-16.997018441668388
 33
0.0
 14
-24.982920944627949
 24
-16.997018441668388
 34
0.0
100
AcDbRotatedDimension
1001
ACAD
1000
DSTYLE
1002
{
1070
             279
1070
               2
1070
             340
1005
2A
1070
               3
1000
φ<>
1002
}
  0
DIMENSION
  5
CF
100
AcDbEntity
  8
template
370
               5
390
0
  6
Continuous
 62
               7
100
AcDbDimension
  2
*D7
 10
-20.861221540174483
 20
-50.449308487225608
 30
0.0
 11
0.0168913734460148
 21
-50.449308487225608
 31
0.0
 71
               5
 72
               1
 41
1.0
 42
0.0
  1
G1 1/4"
  3
tfrom線あり
100
AcDbAlignedDimension
 13
20.895004287066513
 23
-25.449308487225608
 33
0.0
 14
-20.861221540174483
 24
-25.449308487225608
 34
0.0
100
AcDbRotatedDimension
1001
ACAD
1000
DSTYLE
1002
{
1070
             279
1070
               2
1070
             340
1005
2A
1002
}
  0
DIMENSION
  5
D0
100
AcDbEntity
  8
template
370
               5
390
0
  6
Continuous
 62
               7
100
AcDbDimension
  2
*D8
 10
-56.777177773270523
 20
42.940143327531587
 30
0.0
 11
-56.777177773270523
 21
28.466992159741039
 31
0.0
 71
               5
 72
               1
 41
1.0
 42
0.0
  1
MAX.50
  3
tfrom線あり
100
AcDbAlignedDimension
 13
-31.627407595594377
 23
13.993840991950492
 33
0.0
 14
-31.777177773270523
 24
42.940143327531587
 34
0.0
 50
90.0
100
AcDbRotatedDimension
1001
ACAD
1000
DSTYLE
1002
{
1070
             279
1070
               2
1070
             340
1005
2A
1002
}
  0
LINE
  5
D1
100
AcDbEntity
  8
template
370
               5
390
0
  6
Continuous
 62
               7
100
AcDbLine
 10
-19.352446529724148
 20
-26.959021907311126
 30
0.0
 11
-19.352446529724148
 21
-16.997018441668388
 31
0.0
  0
LINE
  5
D2
100
AcDbEntity
  8
template
370
               5
390
0
  6
Continuous
 62
               7
100
AcDbLine
 10
19.385666230834431
 20
-26.959021907311126
 30
0.0
 11
19.385666230834431
 21
-16.997018441668388
 31
0.0
  0
LINE
  5
D3
100
AcDbEntity
  8
template
370
               5
390
0
  6
Continuous
 62
               7
100
AcDbLine
 10
-20.861221540174483
 20
-25.449308487225608
 30
0.0
 11
20.895004287066513
 21
-25.449308487225608
 31
0.0
  0
LWPOLYLINE
  5
D4
100
AcDbEntity
  8
template
370
               5
390
0
  6
Continuous
 62
               7
100
AcDbPolyline
 90
        5
 70
             128
 10
97.5
 20
142.05635050454475
 10
-97.499999999952706
 20
142.05635050454475
 10
-97.499999999952706
 20
-137.95126591651433
 10
97.5
 20
-137.95126591651433
 10
97.5
 20
142.05635050454475
  0
ENDSEC
  0
SECTION
  2
OBJECTS
  0
DICTIONARY
  5
19
100
AcDbDictionary
280
               0
281
               1
  3
ACAD_GROUP
350
1A
  3
ACAD_MLINESTYLE
350
1B
  3
ACAD_LAYOUT
350
1E
  3
ACAD_PLOTSETTINGS
350
22
  3
ACAD_PLOTSTYLENAME
350
1F
  0
DICTIONARY
  5
1A
102
{ACAD_REACTORS
330
19
102
}
100
AcDbDictionary
280
               0
281
               1
  0
DICTIONARY
  5
1B
102
{ACAD_REACTORS
330
19
102
}
100
AcDbDictionary
280
               0
281
               1
  3
Standard
350
1C
  0
MLINESTYLE
  5
1C
102
{ACAD_REACTORS
330
1B
102
}
100
AcDbMlineStyle
  2
Standard
 70
               0
  3

 62
               0
 51
90.0
 52
90.0
 71
               2
 49
0.5
 62
             256
  6
ByLayer
 49
-0.5
 62
             256
  6
ByLayer
  0
ACDBDICTIONARYWDFLT
  5
1F
102
{ACAD_REACTORS
330
19
102
}
100
AcDbDictionary
281
               1
  3
Normal
350
1D
100
AcDbDictionaryWithDefault
340
1D
  0
ACDBPLACEHOLDER
  5
1D
102
{ACAD_REACTORS
330
1F
102
}
  0
LAYOUT
  5
20
102
{ACAD_REACTORS
330
1E
102
}
100
AcDbPlotSettings
  1

  2

  4

  6

 40
0.0
 41
0.0
 42
0.0
 43
0.0
 44
0.0
 45
0.0
 46
0.0
 47
0.0
 48
0.0
 49
0.0
140
0.0
141
0.0
142
1.0
143
1.0
 70
            1024
 72
               0
 73
               0
 74
               0
  7

 75
               0
147
1.0
148
0.0
149
0.0
100
AcDbLayout
  1
Model
 70
               0
 71
               0
 10
0.0
 20
0.0
 11
0.0
 21
0.0
 12
0.0
 22
0.0
 32
0.0
 14
0.0
 24
0.0
 34
0.0
 15
0.0
 25
0.0
 35
0.0
146
0.0
 13
0.0
 23
0.0
 33
0.0
 16
0.0
 26
0.0
 36
0.0
 17
0.0
 27
0.0
 37
0.0
 76
               0
330
A
331
0
345
0
346
0
  0
LAYOUT
  5
21
102
{ACAD_REACTORS
330
1E
102
}
100
AcDbPlotSettings
  1

  2

  4

  6

 40
0.0
 41
0.0
 42
0.0
 43
0.0
 44
0.0
 45
0.0
 46
0.0
 47
0.0
 48
0.0
 49
0.0
140
0.0
141
0.0
142
1.0
143
1.0
 70
               0
 72
               0
 73
               0
 74
               0
  7

 75
               0
147
1.0
148
0.0
149
0.0
100
AcDbLayout
  1
Layout1
 70
               0
 71
               0
 10
0.0
 20
0.0
 11
0.0
 21
0.0
 12
0.0
 22
0.0
 32
0.0
 14
0.0
 24
0.0
 34
0.0
 15
0.0
 25
0.0
 35
0.0
146
0.0
 13
0.0
 23
0.0
 33
0.0
 16
0.0
 26
0.0
 36
0.0
 17
0.0
 27
0.0
 37
0.0
 76
               0
330
B
331
0
345
0
346
0
  0
DICTIONARY
  5
1E
102
{ACAD_REACTORS
330
19
102
}
100
AcDbDictionary
280
               0
281
               1
  3
Layout1
350
21
  3
Model
350
20
  0
DICTIONARY
  5
22
102
{ACAD_REACTORS
330
19
102
}
100
AcDbDictionary
280
               0
281
               1
  0
ENDSEC
  0
EOF
