  0
SECTION
  2
HEADER
  9
$ACADVER
  1
AC1015
  9
$ACADMAINTVER
 70
               6
  9
$DWGCODEPAGE
  3
ANSI_932
  9
$INSBASE
 10
0.0
 20
0.0
 30
0.0
  9
$EXTMIN
 10
-975.00000000024124
 20
-1431.5255224711129
 30
0.0
  9
$EXTMAX
 10
975.00000000024124
 20
1405.9972926412995
 30
0.0
  9
$LIMMIN
 10
0.0
 20
0.0
  9
$LIMMAX
 10
0.0
 20
0.0
  9
$ORTHOMODE
 70
               0
  9
$REGENMODE
 70
               1
  9
$FILLMODE
 70
               1
  9
$QTEXTMODE
 70
               0
  9
$MIRRTEXT
 70
               1
  9
$LTSCALE
 40
25.399999999999999
  9
$ATTMODE
 70
               1
  9
$TEXTSIZE
 40
0.2
  9
$TRACEWID
 40
1.0
  9
$TEXTSTYLE
  7
Standard
  9
$CLAYER
  8
notes
  9
$CELTYPE
  6
Continuous
  9
$CECOLOR
 62
             256
  9
$CELTSCALE
 40
1.0
  9
$DISPSILH
 70
               0
  9
$DIMSCALE
 40
1.0
  9
$DIMASZ
 40
31.75
  9
$DIMEXO
 40
0.0
  9
$DIMDLI
 40
6.9999999999999396
  9
$DIMRND
 40
0.0
  9
$DIMDLE
 40
0.0
  9
$DIMEXE
 40
19.999999999996199
  9
$DIMTP
 40
0.0
  9
$DIMTM
 40
0.0
  9
$DIMTXT
 40
24.432617187500004
  9
$DIMCEN
 40
0.0
  9
$DIMTSZ
 40
0.0
  9
$DIMTOL
 70
               0
  9
$DIMLIM
 70
               0
  9
$DIMTIH
 70
               0
  9
$DIMTOH
 70
               0
  9
$DIMSE1
 70
               0
  9
$DIMSE2
 70
               0
  9
$DIMTAD
 70
               1
  9
$DIMZIN
 70
              11
  9
$DIMBLK
  1
VW_FILLEDARROW
  9
$DIMASO
 70
               1
  9
$DIMSHO
 70
               1
  9
$DIMPOST
  1
<>
  9
$DIMAPOST
  1
[]
  9
$DIMALT
 70
               0
  9
$DIMALTD
 70
               1
  9
$DIMALTF
 40
1.0
  9
$DIMLFAC
 40
1.0
  9
$DIMTOFL
 70
               0
  9
$DIMTVP
 40
0.0
  9
$DIMTIX
 70
               1
  9
$DIMSOXD
 70
               0
  9
$DIMSAH
 70
               0
  9
$DIMBLK1
  1

  9
$DIMBLK2
  1

  9
$DIMSTYLE
  2
JIS
  9
$DIMCLRD
 70
               0
  9
$DIMCLRE
 70
               0
  9
$DIMCLRT
 70
               0
  9
$DIMTFAC
 40
1.0
  9
$DIMGAP
 40
1.00000000000108
  9
$DIMJUST
 70
               0
  9
$DIMSD1
 70
               0
  9
$DIMSD2
 70
               0
  9
$DIMTOLJ
 70
               1
  9
$DIMTZIN
 70
              11
  9
$DIMALTZ
 70
              11
  9
$DIMALTTZ
 70
              11
  9
$DIMUPT
 70
               0
  9
$DIMDEC
 70
               1
  9
$DIMTDEC
 70
               1
  9
$DIMALTU
 70
               2
  9
$DIMALTTD
 70
               2
  9
$DIMTXSTY
  7
ＭＳ ゴシック
  9
$DIMAUNIT
 70
               0
  9
$DIMADEC
 70
               2
  9
$DIMALTRND
 40
0.0
  9
$DIMAZIN
 70
               0
  9
$DIMDSEP
 70
              46
  9
$DIMATFIT
 70
               0
  9
$DIMFRAC
 70
               2
  9
$DIMLDRBLK
  1

  9
$DIMLUNIT
 70
               2
  9
$DIMLWD
 70
              -2
  9
$DIMLWE
 70
              -2
  9
$DIMTMOVE
 70
               0
  9
$LUNITS
 70
               2
  9
$LUPREC
 70
               4
  9
$SKETCHINC
 40
0.1
  9
$FILLETRAD
 40
0.0
  9
$AUNITS
 70
               0
  9
$AUPREC
 70
               0
  9
$MENU
  1
acad
  9
$ELEVATION
 40
0.0
  9
$PELEVATION
 40
0.0
  9
$THICKNESS
 40
0.0
  9
$LIMCHECK
 70
               0
  9
$CHAMFERA
 40
0.0
  9
$CHAMFERB
 40
0.0
  9
$CHAMFERC
 40
0.0
  9
$CHAMFERD
 40
0.0
  9
$SKPOLY
 70
               0
  9
$TDCREATE
 40
2455569.420462963
  9
$TDUCREATE
 40
0.000000000
  9
$TDUPDATE
 40
2455569.420462963
  9
$TDUUPDATE
 40
0.000000000
  9
$TDINDWG
 40
0.0000000000
  9
$TDUSRTIMER
 40
0.0000000000
  9
$USRTIMER
 70
               1
  9
$ANGBASE
 50
0.0
  9
$ANGDIR
 70
               0
  9
$PDMODE
 70
               1
  9
$PDSIZE
 40
-2.0
  9
$PLINEWID
 40
0.0
  9
$SPLFRAME
 70
               0
  9
$SPLINETYPE
 70
               6
  9
$SPLINESEGS
 70
               8
  9
$HANDSEED
  5
191
  9
$SURFTAB1
 70
               6
  9
$SURFTAB2
 70
               6
  9
$SURFTYPE
 70
               6
  9
$SURFU
 70
               6
  9
$SURFV
 70
               6
  9
$UCSBASE
  2

  9
$UCSNAME
  2

  9
$UCSORG
 10
0.0
 20
0.0
 30
0.0
  9
$UCSXDIR
 10
1.0
 20
0.0
 30
0.0
  9
$UCSYDIR
 10
0.0
 20
1.0
 30
0.0
  9
$UCSORTHOREF
  2

  9
$UCSORTHOVIEW
 70
               0
  9
$UCSORGTOP
 10
0.0
 20
0.0
 30
0.0
  9
$UCSORGBOTTOM
 10
0.0
 20
0.0
 30
0.0
  9
$UCSORGLEFT
 10
0.0
 20
0.0
 30
0.0
  9
$UCSORGRIGHT
 10
0.0
 20
0.0
 30
0.0
  9
$UCSORGFRONT
 10
0.0
 20
0.0
 30
0.0
  9
$UCSORGBACK
 10
0.0
 20
0.0
 30
0.0
  9
$PUCSBASE
  2

  9
$PUCSNAME
  2

  9
$PUCSORG
 10
0.0
 20
0.0
 30
0.0
  9
$PUCSXDIR
 10
1.0
 20
0.0
 30
0.0
  9
$PUCSYDIR
 10
0.0
 20
1.0
 30
0.0
  9
$PUCSORTHOREF
  2

  9
$PUCSORTHOVIEW
 70
               0
  9
$PUCSORGTOP
 10
0.0
 20
0.0
 30
0.0
  9
$PUCSORGBOTTOM
 10
0.0
 20
0.0
 30
0.0
  9
$PUCSORGLEFT
 10
0.0
 20
0.0
 30
0.0
  9
$PUCSORGRIGHT
 10
0.0
 20
0.0
 30
0.0
  9
$PUCSORGFRONT
 10
0.0
 20
0.0
 30
0.0
  9
$PUCSORGBACK
 10
0.0
 20
0.0
 30
0.0
  9
$USERI1
 70
               0
  9
$USERI2
 70
               0
  9
$USERI3
 70
               0
  9
$USERI4
 70
               0
  9
$USERI5
 70
               0
  9
$USERR1
 40
0.0
  9
$USERR2
 40
0.0
  9
$USERR3
 40
0.0
  9
$USERR4
 40
0.0
  9
$USERR5
 40
0.0
  9
$WORLDVIEW
 70
               1
  9
$SHADEDGE
 70
               3
  9
$SHADEDIF
 70
              70
  9
$TILEMODE
 70
               1
  9
$MAXACTVP
 70
              64
  9
$PINSBASE
 10
0.0
 20
0.0
 30
0.0
  9
$PLIMCHECK
 70
               0
  9
$PEXTMIN
 10
1.0000000000000000E+20
 20
1.0000000000000000E+20
 30
1.0000000000000000E+20
  9
$PEXTMAX
 10
-1.0000000000000000E+20
 20
-1.0000000000000000E+20
 30
-1.0000000000000000E+20
  9
$PLIMMIN
 10
0.0
 20
0.0
  9
$PLIMMAX
 10
12.0
 20
9.0
  9
$UNITMODE
 70
               0
  9
$VISRETAIN
 70
               0
  9
$PLINEGEN
 70
               1
  9
$PSLTSCALE
 70
               0
  9
$TREEDEPTH
 70
            3020
  9
$CMLSTYLE
  2
Standard
  9
$CMLJUST
 70
               0
  9
$CMLSCALE
 40
1.0
  9
$PROXYGRAPHICS
 70
               0
  9
$MEASUREMENT
 70
               1
  9
$CELWEIGHT
370
               0
  9
$ENDCAPS
280
               0
  9
$JOINSTYLE
280
               0
  9
$LWDISPLAY
290
               1
  9
$INSUNITS
 70
               4
  9
$HYPERLINKBASE
  1

  9
$STYLESHEET
  1

  9
$XEDIT
290
               1
  9
$CEPSNTYPE
380
               0
  9
$PSTYLEMODE
290
               1
  9
$FINGERPRINTGUID
  2

  9
$VERSIONGUID
  2

  9
$EXTNAMES
290
               1
  9
$PSVPSCALE
 40
0.0
  0
ENDSEC
  0
SECTION
  2
CLASSES
  0
CLASS
  1
LWPOLYLINE
  2
AcDbPolyline
  3
AutoCAD 2000
 90
        0
280
               0
281
               1
  0
CLASS
  1
IMAGE
  2
AcDbRasterImage
  3
ISM
 90
      127
280
               0
281
               1
  0
CLASS
  1
OLE2FRAME
  2
AcDbOle2Frame
  3
AutoCAD 2000
 90
        0
280
               0
281
               1
  0
CLASS
  1
HATCH
  2
AcDbHatch
  3
AutoCAD 2000
 90
        0
280
               0
281
               1
  0
CLASS
  1
DICTIONARYVAR
  2
AcDbDictionaryVar
  3
AutoCAD 2000
 90
        0
280
               0
281
               0
  0
CLASS
  1
RASTERVARIABLES
  2
AcDbRasterVariables
  3
ISM
 90
        0
280
               0
281
               0
  0
CLASS
  1
IMAGEDEF
  2
AcDbRasterImageDef
  3
ISM
 90
        0
280
               0
281
               0
  0
CLASS
  1
IMAGEDEF_REACTOR
  2
AcDbRasterImageDefReactor
  3
ISM
 90
        1
280
               0
281
               0
  0
CLASS
  1
IDBUFFER
  2
AcDbIdBuffer
  3
AutoCAD 2000
 90
        0
280
               0
281
               0
  0
CLASS
  1
SPATIAL_FILTER
  2
AcDbSpatialFilter
  3
AutoCAD 2000
 90
        0
280
               0
281
               0
  0
CLASS
  1
XRECORD
  2
AcDbXrecord
  3
AutoCAD 2000
 90
        0
280
               0
281
               0
  0
CLASS
  1
SORTENTSTABLE
  2
AcDbSortentsTable
  3
AutoCAD 2000
 90
        0
280
               0
281
               0
  0
CLASS
  1
LAYER_INDEX
  2
AcDbLayerIndex
  3
AutoCAD 2000
 90
        0
280
               0
281
               0
  0
CLASS
  1
SPATIAL_INDEX
  2
AcDbSpatialIndex
  3
AutoCAD 2000
 90
        0
280
               0
281
               0
  0
CLASS
  1
OBJECT_PTR
  2
CAseDLPNTableRecord
  3
"ASE-LPNTableRecord"
 90
        1
280
               0
281
               0
  0
CLASS
  1
LAYOUT
  2
AcDbLayout
  3
AutoCAD 2000
 90
        0
280
               0
281
               0
  0
CLASS
  1
PLOTSETTINGS
  2
AcDbPlotSettings
  3
AutoCAD 2000
 90
        0
280
               0
281
               0
  0
CLASS
  1
ACDBDICTIONARYWDFLT
  2
AcDbDictionaryWithDefault
  3
AutoCAD 2000
 90
        0
280
               0
281
               0
  0
CLASS
  1
ACDBPLACEHOLDER
  2
AcDbPlaceHolder
  3
AutoCAD 2000
 90
        0
280
               0
281
               0
  0
ENDSEC
  0
SECTION
  2
TABLES
  0
TABLE
  2
VPORT
  5
7
100
AcDbSymbolTable
 70
               1
  0
VPORT
  5
15
100
AcDbSymbolTableRecord
100
AcDbViewportTableRecord
  2
*ACTIVE
 70
               0
 10
0.0
 20
0.0
 11
1.0
 21
1.0
 12
0.0
 22
-12.764114914906713
 13
0.0
 23
0.0
 14
1.0
 24
1.0
 15
0.0
 25
0.0
 16
0.0
 26
0.0
 36
1.0
 17
0.0
 27
0.0
 37
0.0
 40
2837.5228151124124
 41
0.688564
 42
50.0
 43
0.0
 44
0.0
 50
0.0
 51
0.0
 71
               0
 72
            2000
 73
               1
 74
               1
 75
               0
 76
               0
 77
               0
 78
               0
281
               0
 65
               0
110
0.0
120
0.0
130
0.0
111
1.0
121
0.0
131
0.0
112
0.0
122
1.0
132
0.0
345
0
346
0
 79
               0
146
0.0
  0
ENDTAB
  0
TABLE
  2
LTYPE
  5
4
100
AcDbSymbolTable
 70
              28
  0
LTYPE
  5
11
100
AcDbSymbolTableRecord
100
AcDbLinetypeTableRecord
  2
ByBlock
 70
              64
  3

 72
              65
 73
               0
 40
0.0
  0
LTYPE
  5
12
100
AcDbSymbolTableRecord
100
AcDbLinetypeTableRecord
  2
ByLayer
 70
              64
  3

 72
              65
 73
               0
 40
0.0
  0
LTYPE
  5
13
100
AcDbSymbolTableRecord
100
AcDbLinetypeTableRecord
  2
Continuous
 70
              64
  3
Solid line
 72
              65
 73
               0
 40
0.0
  0
LTYPE
  5
34
100
AcDbSymbolTableRecord
100
AcDbLinetypeTableRecord
  2
STYLE_01
 70
               0
  3

 72
              65
 73
               2
 40
0.236206
 49
0.15747
 74
               0
 49
-0.078736
 74
               0
  0
LTYPE
  5
35
100
AcDbSymbolTableRecord
100
AcDbLinetypeTableRecord
  2
STYLE_02
 70
               0
  3

 72
              65
 73
               2
 40
0.314942
 49
0.236206
 74
               0
 49
-0.078736
 74
               0
  0
LTYPE
  5
36
100
AcDbSymbolTableRecord
100
AcDbLinetypeTableRecord
  2
STYLE_03
 70
               0
  3

 72
              65
 73
               2
 40
0.4724119999999999
 49
0.393676
 74
               0
 49
-0.0787359999999999
 74
               0
  0
LTYPE
  5
37
100
AcDbSymbolTableRecord
100
AcDbLinetypeTableRecord
  2
STYLE_04
 70
               0
  3

 72
              65
 73
               2
 40
0.236206
 49
0.196838
 74
               0
 49
-0.039368
 74
               0
  0
LTYPE
  5
38
100
AcDbSymbolTableRecord
100
AcDbLinetypeTableRecord
  2
STYLE_05
 70
               0
  3

 72
              65
 73
               4
 40
0.21074
 49
0.118103
 74
               0
 49
-0.039368
 74
               0
 49
0.013901
 74
               0
 49
-0.039368
 74
               0
  0
LTYPE
  5
39
100
AcDbSymbolTableRecord
100
AcDbLinetypeTableRecord
  2
STYLE_06
 70
               0
  3

 72
              65
 73
               6
 40
0.368211
 49
0.118103
 74
               0
 49
-0.039368
 74
               0
 49
0.118103
 74
               0
 49
-0.039368
 74
               0
 49
0.013901
 74
               0
 49
-0.039368
 74
               0
  0
LTYPE
  5
3A
100
AcDbSymbolTableRecord
100
AcDbLinetypeTableRecord
  2
STYLE_07
 70
               0
  3

 72
              65
 73
               6
 40
0.264009
 49
0.118103
 74
               0
 49
-0.039368
 74
               0
 49
0.013901
 74
               0
 49
-0.039368
 74
               0
 49
0.013901
 74
               0
 49
-0.039368
 74
               0
  0
LTYPE
  5
3B
100
AcDbSymbolTableRecord
100
AcDbLinetypeTableRecord
  2
STYLE_08
 70
               0
  3

 72
              65
 73
               4
 40
0.5117809999999999
 49
0.3936769999999998
 74
               0
 49
-0.039368
 74
               0
 49
0.039368
 74
               0
 49
-0.039368
 74
               0
  0
LTYPE
  5
3C
100
AcDbSymbolTableRecord
100
AcDbLinetypeTableRecord
  2
STYLE_09
 70
               0
  3

 72
              65
 73
               6
 40
0.5905169999999999
 49
0.3936769999999998
 74
               0
 49
-0.039368
 74
               0
 49
0.039368
 74
               0
 49
-0.039368
 74
               0
 49
0.039368
 74
               0
 49
-0.039368
 74
               0
  0
LTYPE
  5
3D
100
AcDbSymbolTableRecord
100
AcDbLinetypeTableRecord
  2
STYLE_10
 70
               0
  3

 72
              65
 73
               4
 40
0.5413385826771654
 49
0.3838582677165354
 74
               0
 49
-0.0590551181102363
 74
               0
 49
0.0393700787401575
 74
               0
 49
-0.0590551181102362
 74
               0
  0
LTYPE
  5
3E
100
AcDbSymbolTableRecord
100
AcDbLinetypeTableRecord
  2
STYLE_11
 70
               0
  3

 72
              65
 73
               2
 40
0.2460629921259842
 49
0.187007874015748
 74
               0
 49
-0.0590551181102362
 74
               0
  0
LTYPE
  5
3F
100
AcDbSymbolTableRecord
100
AcDbLinetypeTableRecord
  2
STYLE_12
 70
               0
  3

 72
              65
 73
               2
 40
1.9049999999999994
 49
1.2699999999999998
 74
               0
 49
-0.6349999999999998
 74
               0
  0
LTYPE
  5
40
100
AcDbSymbolTableRecord
100
AcDbLinetypeTableRecord
  2
STYLE_13
 70
               0
  3

 72
              65
 73
               6
 40
6.3499999999999996
 49
3.1749999999999998
 74
               0
 49
-0.635
 74
               0
 49
0.635
 74
               0
 49
-0.635
 74
               0
 49
0.635
 74
               0
 49
-0.635
 74
               0
  0
LTYPE
  5
41
100
AcDbSymbolTableRecord
100
AcDbLinetypeTableRecord
  2
STYLE_14
 70
               0
  3

 72
              65
 73
               4
 40
10.16
 49
6.3499999999999996
 74
               0
 49
-1.27
 74
               0
 49
1.27
 74
               0
 49
-1.27
 74
               0
  0
LTYPE
  5
42
100
AcDbSymbolTableRecord
100
AcDbLinetypeTableRecord
  2
STYLE_15
 70
               0
  3

 72
              65
 73
               2
 40
0.6010000000000002
 49
0.6000000000000001
 74
               0
 49
-0.001
 74
               0
  0
LTYPE
  5
43
100
AcDbSymbolTableRecord
100
AcDbLinetypeTableRecord
  2
STYLE_16
 70
               0
  3

 72
              65
 73
               2
 40
0.15
 49
0.1
 74
               0
 49
-0.05
 74
               0
  0
LTYPE
  5
44
100
AcDbSymbolTableRecord
100
AcDbLinetypeTableRecord
  2
STYLE_17
 70
               0
  3

 72
              65
 73
               2
 40
1.5
 49
1.2
 74
               0
 49
-0.3
 74
               0
  0
LTYPE
  5
45
100
AcDbSymbolTableRecord
100
AcDbLinetypeTableRecord
  2
STYLE_18
 70
               0
  3

 72
              65
 73
               4
 40
3.5999999999999996
 49
2.3999999999999999
 74
               0
 49
-0.3000000000000003
 74
               0
 49
0.6
 74
               0
 49
-0.2999999999999997
 74
               0
  0
LTYPE
  5
46
100
AcDbSymbolTableRecord
100
AcDbLinetypeTableRecord
  2
STYLE_19
 70
               0
  3

 72
              65
 73
               6
 40
4.5
 49
2.3999999999999999
 74
               0
 49
-0.3000000000000003
 74
               0
 49
0.6
 74
               0
 49
-0.2999999999999997
 74
               0
 49
0.6
 74
               0
 49
-0.2999999999999997
 74
               0
  0
LTYPE
  5
47
100
AcDbSymbolTableRecord
100
AcDbLinetypeTableRecord
  2
STYLE_20
 70
               0
  3

 72
              65
 73
               4
 40
1.7999999999999998
 49
1.2
 74
               0
 49
-0.1500000000000001
 74
               0
 49
0.3
 74
               0
 49
-0.1499999999999999
 74
               0
  0
LTYPE
  5
48
100
AcDbSymbolTableRecord
100
AcDbLinetypeTableRecord
  2
STYLE_21
 70
               0
  3

 72
              65
 73
               2
 40
0.75
 49
0.6
 74
               0
 49
-0.15
 74
               0
  0
LTYPE
  5
49
100
AcDbSymbolTableRecord
100
AcDbLinetypeTableRecord
  2
STYLE_22
 70
               0
  3

 72
              65
 73
               2
 40
2.2000199999999999
 49
0.001
 74
               0
 49
-2.19902
 74
               0
  0
LTYPE
  5
4A
100
AcDbSymbolTableRecord
100
AcDbLinetypeTableRecord
  2
STYLE_23
 70
               0
  3

 72
              65
 73
               2
 40
1.25
 49
0.95
 74
               0
 49
-0.3
 74
               0
  0
LTYPE
  5
4B
100
AcDbSymbolTableRecord
100
AcDbLinetypeTableRecord
  2
STYLE_24
 70
               0
  3

 72
              65
 73
               4
 40
2.75
 49
1.9500000000000004
 74
               0
 49
-0.3
 74
               0
 49
0.1999999999999999
 74
               0
 49
-0.3
 74
               0
  0
LTYPE
  5
4C
100
AcDbSymbolTableRecord
100
AcDbLinetypeTableRecord
  2
STYLE_25
 70
               0
  3

 72
              65
 73
               2
 40
0.7874015748031495
 49
0.3937007874015748
 74
               0
 49
-0.3937007874015748
 74
               0
  0
ENDTAB
  0
TABLE
  2
LAYER
  5
2
100
AcDbSymbolTable
 70
               5
  0
LAYER
  5
14
100
AcDbSymbolTableRecord
100
AcDbLayerTableRecord
  2
0
 70
               0
 62
               7
  6
Continuous
290
               1
370
              -3
390
1D
  0
LAYER
  5
4D
100
AcDbSymbolTableRecord
100
AcDbLayerTableRecord
  2
Defpoints
 70
               0
 62
               7
  6
Continuous
290
               0
370
              -3
390
1D
  0
LAYER
  5
4E
100
AcDbSymbolTableRecord
100
AcDbLayerTableRecord
  2
template
 70
               0
 62
               7
  6
Continuous
290
               1
370
              -3
390
1D
  0
LAYER
  5
4F
100
AcDbSymbolTableRecord
100
AcDbLayerTableRecord
  2
notes
 70
               0
 62
               7
  6
Continuous
290
               1
370
              -3
390
1D
  0
LAYER
  5
50
100
AcDbSymbolTableRecord
100
AcDbLayerTableRecord
  2
FAA70-0005
 70
               0
 62
               7
  6
Continuous
290
               1
370
              -3
390
1D
  0
ENDTAB
  0
TABLE
  2
STYLE
  5
3
100
AcDbSymbolTable
 70
               2
  0
STYLE
  5
17
100
AcDbSymbolTableRecord
100
AcDbTextStyleTableRecord
  2
Standard
 70
               0
 40
0.0
 41
1.0
 50
0.0
 71
               0
 42
0.0
  3
txt
  4
BIGFONT.SHX
  0
STYLE
  5
33
100
AcDbSymbolTableRecord
100
AcDbTextStyleTableRecord
  2
ＭＳ ゴシック
 70
               0
 40
0.0
 41
1.0
 50
0.0
 71
               0
 42
0.0
  3

  4
ＭＳ ゴシック
1001
ACAD
1000
ＭＳ ゴシック
1071
        0
  0
ENDTAB
  0
TABLE
  2
VIEW
  5
5
100
AcDbSymbolTable
 70
               0
  0
ENDTAB
  0
TABLE
  2
UCS
  5
6
100
AcDbSymbolTable
 70
               0
  0
ENDTAB
  0
TABLE
  2
APPID
  5
8
100
AcDbSymbolTable
 70
               1
  0
APPID
  5
16
100
AcDbSymbolTableRecord
100
AcDbRegAppTableRecord
  2
ACAD
 70
               0
  0
ENDTAB
  0
TABLE
  2
DIMSTYLE
  5
9
100
AcDbSymbolTable
 70
               3
100
AcDbDimStyleTable
 71
               0
  0
DIMSTYLE
105
18
100
AcDbSymbolTableRecord
100
AcDbDimStyleTableRecord
  2
Standard
 70
               0
  3

  4

 40
1.0
 41
0.18
 42
0.0625
 43
0.38
 44
0.18
 45
0.0
 46
0.0
 47
0.0
 48
0.0
 71
               0
 72
               0
 73
               1
 74
               1
 75
               0
 76
               0
 77
               0
 78
               0
 79
               0
140
0.18
141
0.09
142
0.0
143
25.399999999999999
144
1.0
145
0.0
146
1.0
147
0.09
148
0.0
170
               0
171
               2
172
               0
173
               0
174
               0
175
               0
176
               0
177
               0
178
               0
179
               0
271
               4
272
               4
273
               2
274
               2
275
               0
276
               0
277
               2
278
              46
279
               0
280
               0
281
               0
282
               0
283
               1
284
               0
285
               0
286
               0
288
               0
289
               3
340
17
341
0
342
0
343
0
344
0
371
              -2
372
              -2
  0
DIMSTYLE
105
59
100
AcDbSymbolTableRecord
100
AcDbDimStyleTableRecord
  2
tform線あり
 70
               0
  3
<>
  4
[]
 40
1.0
 41
3.999755859375
 42
24.999999999999996
 43
0.9999999999999999
 44
0.0
 45
0.0
 46
0.0
 47
0.0
 48
0.0
 71
               0
 72
               0
 73
               0
 74
               0
 75
               0
 76
               0
 77
               1
 78
              11
 79
               0
140
24.432617187500004
141
0.0
142
0.0
143
1.0
144
1.0
145
0.0
146
1.0
147
0.4999999999999999
148
0.0
170
               0
171
               1
172
               0
173
               0
174
               1
175
               0
176
               0
177
               0
178
               0
179
               2
271
               1
272
               1
273
               2
274
               2
275
               0
276
               2
277
               2
278
              46
279
               0
280
               0
281
               0
282
               0
283
               1
284
              11
285
              11
286
              11
288
               0
289
               0
340
33
341
51
342
51
343
0
344
0
371
              -2
372
              -2
  0
DIMSTYLE
105
5E
100
AcDbSymbolTableRecord
100
AcDbDimStyleTableRecord
  2
JIS
 70
               0
  3
<>
  4
[]
 40
1.0
 41
31.75
 42
0.0
 43
6.9999999999999396
 44
19.999999999996199
 45
0.0
 46
0.0
 47
0.0
 48
0.0
 71
               0
 72
               0
 73
               0
 74
               0
 75
               0
 76
               0
 77
               1
 78
              11
 79
               0
140
24.432617187500004
141
0.0
142
0.0
143
1.0
144
1.0
145
0.0
146
1.0
147
1.00000000000108
148
0.0
170
               0
171
               1
172
               0
173
               0
174
               1
175
               0
176
               0
177
               0
178
               0
179
               2
271
               1
272
               1
273
               2
274
               2
275
               0
276
               2
277
               2
278
              46
279
               0
280
               0
281
               0
282
               0
283
               1
284
              11
285
              11
286
              11
288
               0
289
               0
340
33
341
5A
342
5A
343
0
344
0
371
              -2
372
              -2
  0
ENDTAB
  0
TABLE
  2
BLOCK_RECORD
  5
1
100
AcDbSymbolTable
 70
              18
  0
BLOCK_RECORD
  5
A
100
AcDbSymbolTableRecord
100
AcDbBlockTableRecord
  2
*MODEL_SPACE
340
20
  0
BLOCK_RECORD
  5
B
100
AcDbSymbolTableRecord
100
AcDbBlockTableRecord
  2
*PAPER_SPACE
340
21
  0
BLOCK_RECORD
  5
51
100
AcDbSymbolTableRecord
100
AcDbBlockTableRecord
  2
_DOT
340
0
  0
BLOCK_RECORD
  5
5A
100
AcDbSymbolTableRecord
100
AcDbBlockTableRecord
  2
VW_FILLEDARROW
340
0
  0
BLOCK_RECORD
  5
23
100
AcDbSymbolTableRecord
100
AcDbBlockTableRecord
  2
*D2
340
0
  0
BLOCK_RECORD
  5
24
100
AcDbSymbolTableRecord
100
AcDbBlockTableRecord
  2
*D3
340
0
  0
BLOCK_RECORD
  5
25
100
AcDbSymbolTableRecord
100
AcDbBlockTableRecord
  2
*D4
340
0
  0
BLOCK_RECORD
  5
26
100
AcDbSymbolTableRecord
100
AcDbBlockTableRecord
  2
*D5
340
0
  0
BLOCK_RECORD
  5
27
100
AcDbSymbolTableRecord
100
AcDbBlockTableRecord
  2
*D6
340
0
  0
BLOCK_RECORD
  5
28
100
AcDbSymbolTableRecord
100
AcDbBlockTableRecord
  2
*D7
340
0
  0
BLOCK_RECORD
  5
29
100
AcDbSymbolTableRecord
100
AcDbBlockTableRecord
  2
*D8
340
0
  0
BLOCK_RECORD
  5
2A
100
AcDbSymbolTableRecord
100
AcDbBlockTableRecord
  2
*D9
340
0
  0
BLOCK_RECORD
  5
2B
100
AcDbSymbolTableRecord
100
AcDbBlockTableRecord
  2
*D10
340
0
  0
BLOCK_RECORD
  5
2C
100
AcDbSymbolTableRecord
100
AcDbBlockTableRecord
  2
*D11
340
0
  0
BLOCK_RECORD
  5
2D
100
AcDbSymbolTableRecord
100
AcDbBlockTableRecord
  2
*D12
340
0
  0
BLOCK_RECORD
  5
2E
100
AcDbSymbolTableRecord
100
AcDbBlockTableRecord
  2
*D13
340
0
  0
BLOCK_RECORD
  5
2F
100
AcDbSymbolTableRecord
100
AcDbBlockTableRecord
  2
*D14
340
0
  0
BLOCK_RECORD
  5
30
100
AcDbSymbolTableRecord
100
AcDbBlockTableRecord
  2
*D15
340
0
  0
BLOCK_RECORD
  5
31
100
AcDbSymbolTableRecord
100
AcDbBlockTableRecord
  2
*D16
340
0
  0
BLOCK_RECORD
  5
32
100
AcDbSymbolTableRecord
100
AcDbBlockTableRecord
  2
*D17
340
0
  0
ENDTAB
  0
ENDSEC
  0
SECTION
  2
BLOCKS
  0
BLOCK
  5
D
100
AcDbEntity
  8
0
390
0
100
AcDbBlockBegin
  2
*MODEL_SPACE
 70
               0
 10
0.0
 20
0.0
 30
0.0
  3
*MODEL_SPACE
  1

  0
ENDBLK
  5
E
100
AcDbEntity
  8
0
390
0
100
AcDbBlockEnd
  0
BLOCK
  5
F
100
AcDbEntity
 67
               1
  8
0
390
0
100
AcDbBlockBegin
  2
*PAPER_SPACE
 70
               0
 10
0.0
 20
0.0
 30
0.0
  3
*PAPER_SPACE
  1

  0
ENDBLK
  5
10
100
AcDbEntity
 67
               1
  8
0
390
0
100
AcDbBlockEnd
  0
BLOCK
  5
52
100
AcDbEntity
  8
0
390
0
100
AcDbBlockBegin
  2
_DOT
 70
               0
 10
0.0
 20
0.0
 30
0.0
  3
_DOT
  1

  0
POLYLINE
  5
53
100
AcDbEntity
  8
0
370
              -2
390
0
  6
ByBlock
 62
               0
100
AcDb2dPolyline
 66
               1
 10
0.0
 20
0.0
 30
0.0
 70
               1
 40
0.5
 41
0.5
  0
VERTEX
  5
54
100
AcDbEntity
  8
0
370
              -2
390
0
  6
ByBlock
 62
               0
100
AcDbVertex
100
AcDb2dVertex
 10
-0.25
 20
0.0
 30
0.0
 42
1.0
  0
VERTEX
  5
55
100
AcDbEntity
  8
0
370
              -2
390
0
  6
ByBlock
 62
               0
100
AcDbVertex
100
AcDb2dVertex
 10
0.25
 20
0.0
 30
0.0
 42
1.0
  0
SEQEND
  5
56
100
AcDbEntity
  8
0
390
0
  0
LINE
  5
57
100
AcDbEntity
  8
0
370
              -2
390
0
  6
ByBlock
 62
               0
100
AcDbLine
 10
-0.5
 20
0.0
 30
0.0
 11
-1.0
 21
0.0
 31
0.0
  0
ENDBLK
  5
58
100
AcDbEntity
  8
0
390
0
100
AcDbBlockEnd
  0
BLOCK
  5
5B
100
AcDbEntity
  8
0
370
              -2
390
0
  6
ByBlock
 62
               0
100
AcDbBlockBegin
  2
VW_FILLEDARROW
 70
               0
 10
0.0
 20
0.0
 30
0.0
  3
VW_FILLEDARROW
  1

  0
SOLID
  5
5C
100
AcDbEntity
  8
0
370
              -2
390
0
 62
               0
100
AcDbTrace
 10
0.0
 20
0.0
 30
0.0
 11
-0.9921874999999999
 21
-0.2658558393652545
 31
0.0
 12
-0.9921874999999999
 22
0.2658558393652548
 32
0.0
 13
-0.9921874999999999
 23
0.2658558393652548
 33
0.0
  0
ENDBLK
  5
5D
100
AcDbEntity
  8
0
390
0
100
AcDbBlockEnd
  0
BLOCK
  5
5F
100
AcDbEntity
  8
notes
390
0
100
AcDbBlockBegin
  2
*D2
 70
               1
 10
0.0
 20
0.0
 30
0.0
  3
*D2
  1

  0
LINE
  5
60
100
AcDbEntity
  8
0
370
              -2
390
0
  6
Continuous
 62
               0
100
AcDbLine
 10
-610.31618676555786
 20
670.1126386821428
 30
0.0
 11
-610.31618676555786
 21
800.11263868214257
 31
0.0
  0
LINE
  5
61
100
AcDbEntity
  8
0
370
              -2
390
0
  6
Continuous
 62
               0
100
AcDbLine
 10
-110.31618676555792
 20
670.11263868214257
 30
0.0
 11
-110.31618676555792
 21
800.11263868214257
 31
0.0
  0
LINE
  5
62
100
AcDbEntity
  8
0
370
              -2
390
0
  6
Continuous
 62
               0
100
AcDbLine
 10
-610.31618676555786
 20
800.11263868214257
 30
0.0
 11
-110.31618676555792
 21
800.11263868214257
 31
0.0
  0
CIRCLE
  5
63
102
{ACAD_REACTORS
330
64
102
}
100
AcDbEntity
  8
0
370
              -2
390
0
  6
Continuous
 62
               0
100
AcDbCircle
 10
-610.31618676555786
 20
800.11263868214257
 30
0.0
 40
1.9998779296875
  0
HATCH
  5
64
100
AcDbEntity
  8
0
370
              -2
390
0
  6
Continuous
 62
               0
100
AcDbHatch
 10
0.0
 20
0.0
 30
0.0
210
0.0
220
0.0
230
1.0
  2
SOLID
 70
               1
 71
               1
 91
        1
 92
        1
 93
        1
 72
               2
 10
-610.31618676555786
 20
800.11263868214257
 40
1.9998779296875
 50
0.0
 51
360.0
 73
               0
 97
        1
330
63
 75
               0
 76
               1
 98
        1
 10
0.0
 20
0.0
  0
CIRCLE
  5
65
102
{ACAD_REACTORS
330
66
102
}
100
AcDbEntity
  8
0
370
              -2
390
0
  6
Continuous
 62
               0
100
AcDbCircle
 10
-110.31618676555792
 20
800.11263868214257
 30
0.0
 40
1.9998779296875
  0
HATCH
  5
66
100
AcDbEntity
  8
0
370
              -2
390
0
  6
Continuous
 62
               0
100
AcDbHatch
 10
0.0
 20
0.0
 30
0.0
210
0.0
220
0.0
230
1.0
  2
SOLID
 70
               1
 71
               1
 91
        1
 92
        1
 93
        1
 72
               2
 10
-110.31618676555792
 20
800.11263868214257
 40
1.9998779296875
 50
0.0
 51
360.0
 73
               0
 97
        1
330
65
 75
               0
 76
               1
 98
        1
 10
0.0
 20
0.0
  0
MTEXT
  5
67
100
AcDbEntity
  8
0
390
0
 62
               0
100
AcDbMText
 10
-384.12868844773345
 20
833.99025586964262
 30
0.0
 40
24.432617187500004
 41
0.0
 71
               1
 72
               1
  1
500
  7
ＭＳ ゴシック
 73
               1
 44
0.7828267384257843
  0
POINT
  5
68
100
AcDbEntity
  8
Defpoints
370
               0
390
0
 62
               0
100
AcDbPoint
 10
-110.31618676555792
 20
645.11263868214257
 30
0.0
  0
POINT
  5
69
100
AcDbEntity
  8
Defpoints
370
               0
390
0
 62
               0
100
AcDbPoint
 10
-610.31618676555786
 20
645.1126386821428
 30
0.0
  0
POINT
  5
6A
100
AcDbEntity
  8
Defpoints
370
               0
390
0
 62
               0
100
AcDbPoint
 10
-610.31618676555786
 20
800.11263868214257
 30
0.0
  0
ENDBLK
  5
6B
100
AcDbEntity
  8
notes
390
0
100
AcDbBlockEnd
  0
BLOCK
  5
6C
100
AcDbEntity
  8
notes
390
0
100
AcDbBlockBegin
  2
*D3
 70
               1
 10
0.0
 20
0.0
 30
0.0
  3
*D3
  1

  0
LINE
  5
6D
100
AcDbEntity
  8
0
370
              -2
390
0
  6
Continuous
 62
               0
100
AcDbLine
 10
-110.31618676555792
 20
670.11263868214257
 30
0.0
 11
-110.31618676555792
 21
750.11263868214257
 31
0.0
  0
LINE
  5
6E
100
AcDbEntity
  8
0
370
              -2
390
0
  6
Continuous
 62
               0
100
AcDbLine
 10
-155.31618676555792
 20
607.61263868214257
 30
0.0
 11
-155.31618676555792
 21
750.11263868214257
 31
0.0
  0
LINE
  5
6F
100
AcDbEntity
  8
0
370
              -2
390
0
  6
Continuous
 62
               0
100
AcDbLine
 10
-110.31618676555792
 20
750.11263868214257
 30
0.0
 11
-155.31618676555792
 21
750.11263868214257
 31
0.0
  0
CIRCLE
  5
70
102
{ACAD_REACTORS
330
71
102
}
100
AcDbEntity
  8
0
370
              -2
390
0
  6
Continuous
 62
               0
100
AcDbCircle
 10
-110.31618676555792
 20
750.11263868214257
 30
0.0
 40
1.9998779296875
  0
HATCH
  5
71
100
AcDbEntity
  8
0
370
              -2
390
0
  6
Continuous
 62
               0
100
AcDbHatch
 10
0.0
 20
0.0
 30
0.0
210
0.0
220
0.0
230
1.0
  2
SOLID
 70
               1
 71
               1
 91
        1
 92
        1
 93
        1
 72
               2
 10
-110.31618676555792
 20
750.11263868214257
 40
1.9998779296875
 50
0.0
 51
360.0
 73
               0
 97
        1
330
70
 75
               0
 76
               1
 98
        1
 10
0.0
 20
0.0
  0
CIRCLE
  5
72
102
{ACAD_REACTORS
330
73
102
}
100
AcDbEntity
  8
0
370
              -2
390
0
  6
Continuous
 62
               0
100
AcDbCircle
 10
-155.31618676555792
 20
750.11263868214257
 30
0.0
 40
1.9998779296875
  0
HATCH
  5
73
100
AcDbEntity
  8
0
370
              -2
390
0
  6
Continuous
 62
               0
100
AcDbHatch
 10
0.0
 20
0.0
 30
0.0
210
0.0
220
0.0
230
1.0
  2
SOLID
 70
               1
 71
               1
 91
        1
 92
        1
 93
        1
 72
               2
 10
-155.31618676555792
 20
750.11263868214257
 40
1.9998779296875
 50
0.0
 51
360.0
 73
               0
 97
        1
330
72
 75
               0
 76
               1
 98
        1
 10
0.0
 20
0.0
  0
MTEXT
  5
74
100
AcDbEntity
  8
0
390
0
 62
               0
100
AcDbMText
 10
-148.69118676555792
 20
783.99025586964262
 30
0.0
 40
24.432617187500004
 41
0.0
 71
               1
 72
               1
  1
45
  7
ＭＳ ゴシック
 73
               1
 44
0.7828267384257843
  0
POINT
  5
75
100
AcDbEntity
  8
Defpoints
370
               0
390
0
 62
               0
100
AcDbPoint
 10
-155.31618676555792
 20
582.61263868214257
 30
0.0
  0
POINT
  5
76
100
AcDbEntity
  8
Defpoints
370
               0
390
0
 62
               0
100
AcDbPoint
 10
-110.31618676555792
 20
645.11263868214257
 30
0.0
  0
POINT
  5
77
100
AcDbEntity
  8
Defpoints
370
               0
390
0
 62
               0
100
AcDbPoint
 10
-110.31618676555792
 20
750.11263868214257
 30
0.0
  0
ENDBLK
  5
78
100
AcDbEntity
  8
notes
390
0
100
AcDbBlockEnd
  0
BLOCK
  5
79
100
AcDbEntity
  8
notes
390
0
100
AcDbBlockBegin
  2
*D4
 70
               1
 10
0.0
 20
0.0
 30
0.0
  3
*D4
  1

  0
LINE
  5
7A
100
AcDbEntity
  8
0
370
              -2
390
0
  6
Continuous
 62
               0
100
AcDbLine
 10
-577.81591414186005
 20
-581.15093918595664
 30
0.0
 11
-577.81591414186005
 21
-465.8095592014094
 31
0.0
  0
LINE
  5
7B
100
AcDbEntity
  8
0
370
              -2
390
0
  6
Continuous
 62
               0
100
AcDbLine
 10
-142.81591414186008
 20
-581.15093918595664
 30
0.0
 11
-142.81591414186008
 21
-465.8095592014094
 31
0.0
  0
LINE
  5
7C
100
AcDbEntity
  8
0
370
              -2
390
0
  6
Continuous
 62
               0
100
AcDbLine
 10
-577.81591414186005
 20
-465.8095592014094
 30
0.0
 11
-142.81591414186008
 21
-465.8095592014094
 31
0.0
  0
CIRCLE
  5
7D
102
{ACAD_REACTORS
330
7E
102
}
100
AcDbEntity
  8
0
370
              -2
390
0
  6
Continuous
 62
               0
100
AcDbCircle
 10
-577.81591414186005
 20
-465.8095592014094
 30
0.0
 40
1.9998779296875
  0
HATCH
  5
7E
100
AcDbEntity
  8
0
370
              -2
390
0
  6
Continuous
 62
               0
100
AcDbHatch
 10
0.0
 20
0.0
 30
0.0
210
0.0
220
0.0
230
1.0
  2
SOLID
 70
               1
 71
               1
 91
        1
 92
        1
 93
        1
 72
               2
 10
-577.81591414186005
 20
-465.8095592014094
 40
1.9998779296875
 50
0.0
 51
360.0
 73
               0
 97
        1
330
7D
 75
               0
 76
               1
 98
        1
 10
0.0
 20
0.0
  0
CIRCLE
  5
7F
102
{ACAD_REACTORS
330
80
102
}
100
AcDbEntity
  8
0
370
              -2
390
0
  6
Continuous
 62
               0
100
AcDbCircle
 10
-142.81591414186008
 20
-465.8095592014094
 30
0.0
 40
1.9998779296875
  0
HATCH
  5
80
100
AcDbEntity
  8
0
370
              -2
390
0
  6
Continuous
 62
               0
100
AcDbHatch
 10
0.0
 20
0.0
 30
0.0
210
0.0
220
0.0
230
1.0
  2
SOLID
 70
               1
 71
               1
 91
        1
 92
        1
 93
        1
 72
               2
 10
-142.81591414186008
 20
-465.8095592014094
 40
1.9998779296875
 50
0.0
 51
360.0
 73
               0
 97
        1
330
7F
 75
               0
 76
               1
 98
        1
 10
0.0
 20
0.0
  0
MTEXT
  5
81
100
AcDbEntity
  8
0
390
0
 62
               0
100
AcDbMText
 10
-384.12841582403564
 20
-431.93194201390941
 30
0.0
 40
24.432617187500004
 41
0.0
 71
               1
 72
               1
  1
435
  7
ＭＳ ゴシック
 73
               1
 44
0.7828267384257843
  0
POINT
  5
82
100
AcDbEntity
  8
Defpoints
370
               0
390
0
 62
               0
100
AcDbPoint
 10
-142.81591414186008
 20
-606.15093918595664
 30
0.0
  0
POINT
  5
83
100
AcDbEntity
  8
Defpoints
370
               0
390
0
 62
               0
100
AcDbPoint
 10
-577.81591414186005
 20
-606.15093918595664
 30
0.0
  0
POINT
  5
84
100
AcDbEntity
  8
Defpoints
370
               0
390
0
 62
               0
100
AcDbPoint
 10
-577.81591414186005
 20
-465.8095592014094
 30
0.0
  0
ENDBLK
  5
85
100
AcDbEntity
  8
notes
390
0
100
AcDbBlockEnd
  0
BLOCK
  5
86
100
AcDbEntity
  8
notes
390
0
100
AcDbBlockBegin
  2
*D5
 70
               1
 10
0.0
 20
0.0
 30
0.0
  3
*D5
  1

  0
LINE
  5
87
100
AcDbEntity
  8
0
370
              -2
390
0
  6
Continuous
 62
               0
100
AcDbLine
 10
-110.31618676555792
 20
450.11263868214263
 30
0.0
 11
-110.31618676555792
 21
300.11263868214263
 31
0.0
  0
LINE
  5
88
100
AcDbEntity
  8
0
370
              -2
390
0
  6
Continuous
 62
               0
100
AcDbLine
 10
-210.31618676555792
 20
375.11263868214263
 30
0.0
 11
-210.31618676555792
 21
300.11263868214263
 31
0.0
  0
LINE
  5
89
100
AcDbEntity
  8
0
370
              -2
390
0
  6
Continuous
 62
               0
100
AcDbLine
 10
-110.31618676555792
 20
300.11263868214263
 30
0.0
 11
-210.31618676555792
 21
300.11263868214263
 31
0.0
  0
CIRCLE
  5
8A
102
{ACAD_REACTORS
330
8B
102
}
100
AcDbEntity
  8
0
370
              -2
390
0
  6
Continuous
 62
               0
100
AcDbCircle
 10
-110.31618676555792
 20
300.11263868214263
 30
0.0
 40
1.9998779296875
  0
HATCH
  5
8B
100
AcDbEntity
  8
0
370
              -2
390
0
  6
Continuous
 62
               0
100
AcDbHatch
 10
0.0
 20
0.0
 30
0.0
210
0.0
220
0.0
230
1.0
  2
SOLID
 70
               1
 71
               1
 91
        1
 92
        1
 93
        1
 72
               2
 10
-110.31618676555792
 20
300.11263868214263
 40
1.9998779296875
 50
0.0
 51
360.0
 73
               0
 97
        1
330
8A
 75
               0
 76
               1
 98
        1
 10
0.0
 20
0.0
  0
CIRCLE
  5
8C
102
{ACAD_REACTORS
330
8D
102
}
100
AcDbEntity
  8
0
370
              -2
390
0
  6
Continuous
 62
               0
100
AcDbCircle
 10
-210.31618676555792
 20
300.11263868214263
 30
0.0
 40
1.9998779296875
  0
HATCH
  5
8D
100
AcDbEntity
  8
0
370
              -2
390
0
  6
Continuous
 62
               0
100
AcDbHatch
 10
0.0
 20
0.0
 30
0.0
210
0.0
220
0.0
230
1.0
  2
SOLID
 70
               1
 71
               1
 91
        1
 92
        1
 93
        1
 72
               2
 10
-210.31618676555792
 20
300.11263868214263
 40
1.9998779296875
 50
0.0
 51
360.0
 73
               0
 97
        1
330
8C
 75
               0
 76
               1
 98
        1
 10
0.0
 20
0.0
  0
MTEXT
  5
8E
100
AcDbEntity
  8
0
390
0
 62
               0
100
AcDbMText
 10
-184.12868844773345
 20
333.99025586964262
 30
0.0
 40
24.432617187500004
 41
0.0
 71
               1
 72
               1
  1
100
  7
ＭＳ ゴシック
 73
               1
 44
0.7828267384257843
  0
POINT
  5
8F
100
AcDbEntity
  8
Defpoints
370
               0
390
0
 62
               0
100
AcDbPoint
 10
-210.31618676555792
 20
400.11263868214263
 30
0.0
  0
POINT
  5
90
100
AcDbEntity
  8
Defpoints
370
               0
390
0
 62
               0
100
AcDbPoint
 10
-110.31618676555792
 20
475.11263868214263
 30
0.0
  0
POINT
  5
91
100
AcDbEntity
  8
Defpoints
370
               0
390
0
 62
               0
100
AcDbPoint
 10
-110.31618676555792
 20
300.11263868214263
 30
0.0
  0
ENDBLK
  5
92
100
AcDbEntity
  8
notes
390
0
100
AcDbBlockEnd
  0
BLOCK
  5
93
100
AcDbEntity
  8
notes
390
0
100
AcDbBlockBegin
  2
*D6
 70
               1
 10
0.0
 20
0.0
 30
0.0
  3
*D6
  1

  0
LINE
  5
94
100
AcDbEntity
  8
0
370
              -2
390
0
  6
Continuous
 62
               0
100
AcDbLine
 10
-210.31618676555794
 20
375.46435448696155
 30
0.0
 11
-210.31618676555794
 21
300.11263868214263
 31
0.0
  0
LINE
  5
95
100
AcDbEntity
  8
0
370
              -2
390
0
  6
Continuous
 62
               0
100
AcDbLine
 10
-560.31523665162558
 20
384.18502936260751
 30
0.0
 11
-560.31523665162558
 21
300.11263868214263
 31
0.0
  0
LINE
  5
96
100
AcDbEntity
  8
0
370
              -2
390
0
  6
Continuous
 62
               0
100
AcDbLine
 10
-210.31618676555794
 20
300.11263868214263
 30
0.0
 11
-560.31523665162558
 21
300.11263868214263
 31
0.0
  0
CIRCLE
  5
97
102
{ACAD_REACTORS
330
98
102
}
100
AcDbEntity
  8
0
370
              -2
390
0
  6
Continuous
 62
               0
100
AcDbCircle
 10
-210.31618676555794
 20
300.11263868214263
 30
0.0
 40
1.9998779296875
  0
HATCH
  5
98
100
AcDbEntity
  8
0
370
              -2
390
0
  6
Continuous
 62
               0
100
AcDbHatch
 10
0.0
 20
0.0
 30
0.0
210
0.0
220
0.0
230
1.0
  2
SOLID
 70
               1
 71
               1
 91
        1
 92
        1
 93
        1
 72
               2
 10
-210.31618676555794
 20
300.11263868214263
 40
1.9998779296875
 50
0.0
 51
360.0
 73
               0
 97
        1
330
97
 75
               0
 76
               1
 98
        1
 10
0.0
 20
0.0
  0
CIRCLE
  5
99
102
{ACAD_REACTORS
330
9A
102
}
100
AcDbEntity
  8
0
370
              -2
390
0
  6
Continuous
 62
               0
100
AcDbCircle
 10
-560.31523665162558
 20
300.11263868214263
 30
0.0
 40
1.9998779296875
  0
HATCH
  5
9A
100
AcDbEntity
  8
0
370
              -2
390
0
  6
Continuous
 62
               0
100
AcDbHatch
 10
0.0
 20
0.0
 30
0.0
210
0.0
220
0.0
230
1.0
  2
SOLID
 70
               1
 71
               1
 91
        1
 92
        1
 93
        1
 72
               2
 10
-560.31523665162558
 20
300.11263868214263
 40
1.9998779296875
 50
0.0
 51
360.0
 73
               0
 97
        1
330
99
 75
               0
 76
               1
 98
        1
 10
0.0
 20
0.0
  0
MTEXT
  5
9B
100
AcDbEntity
  8
0
390
0
 62
               0
100
AcDbMText
 10
-409.12821339076731
 20
333.99025586964262
 30
0.0
 40
24.432617187500004
 41
0.0
 71
               1
 72
               1
  1
350
  7
ＭＳ ゴシック
 73
               1
 44
0.7828267384257843
  0
POINT
  5
9C
100
AcDbEntity
  8
Defpoints
370
               0
390
0
 62
               0
100
AcDbPoint
 10
-560.31523665162558
 20
409.18502936260751
 30
0.0
  0
POINT
  5
9D
100
AcDbEntity
  8
Defpoints
370
               0
390
0
 62
               0
100
AcDbPoint
 10
-210.31618676555794
 20
400.46435448696155
 30
0.0
  0
POINT
  5
9E
100
AcDbEntity
  8
Defpoints
370
               0
390
0
 62
               0
100
AcDbPoint
 10
-210.31618676555794
 20
300.11263868214263
 30
0.0
  0
ENDBLK
  5
9F
100
AcDbEntity
  8
notes
390
0
100
AcDbBlockEnd
  0
BLOCK
  5
A0
100
AcDbEntity
  8
notes
390
0
100
AcDbBlockBegin
  2
*D7
 70
               1
 10
0.0
 20
0.0
 30
0.0
  3
*D7
  1

  0
LINE
  5
A1
100
AcDbEntity
  8
0
370
              -2
390
0
  6
Continuous
 62
               0
100
AcDbLine
 10
505.0
 20
-675.79864711933124
 30
0.0
 11
481.0
 21
-675.79864711933124
 31
0.0
  0
LINE
  5
A2
100
AcDbEntity
  8
0
370
              -2
390
0
  6
Continuous
 62
               0
100
AcDbLine
 10
505.0
 20
-565.79864711933112
 30
0.0
 11
481.0
 21
-565.79864711933112
 31
0.0
  0
LINE
  5
A3
100
AcDbEntity
  8
0
370
              -2
390
0
  6
Continuous
 62
               0
100
AcDbLine
 10
481.0
 20
-565.79864711933112
 30
0.0
 11
481.0
 21
-407.08654530825879
 31
0.0
  0
LINE
  5
A4
100
AcDbEntity
  8
0
370
              -2
390
0
  6
Continuous
 62
               0
100
AcDbLine
 10
481.0
 20
-675.79864711933124
 30
0.0
 11
481.0
 21
-565.79864711933112
 31
0.0
  0
CIRCLE
  5
A5
102
{ACAD_REACTORS
330
A6
102
}
100
AcDbEntity
  8
0
370
              -2
390
0
  6
Continuous
 62
               0
100
AcDbCircle
 10
481.0
 20
-675.79864711933124
 30
0.0
 40
1.9998779296875
  0
HATCH
  5
A6
100
AcDbEntity
  8
0
370
              -2
390
0
  6
Continuous
 62
               0
100
AcDbHatch
 10
0.0
 20
0.0
 30
0.0
210
0.0
220
0.0
230
1.0
  2
SOLID
 70
               1
 71
               1
 91
        1
 92
        1
 93
        1
 72
               2
 10
481.0
 20
-675.79864711933124
 40
1.9998779296875
 50
0.0
 51
360.0
 73
               0
 97
        1
330
A5
 75
               0
 76
               1
 98
        1
 10
0.0
 20
0.0
  0
CIRCLE
  5
A7
102
{ACAD_REACTORS
330
A8
102
}
100
AcDbEntity
  8
0
370
              -2
390
0
  6
Continuous
 62
               0
100
AcDbCircle
 10
481.0
 20
-565.79864711933112
 30
0.0
 40
1.9998779296875
  0
HATCH
  5
A8
100
AcDbEntity
  8
0
370
              -2
390
0
  6
Continuous
 62
               0
100
AcDbHatch
 10
0.0
 20
0.0
 30
0.0
210
0.0
220
0.0
230
1.0
  2
SOLID
 70
               1
 71
               1
 91
        1
 92
        1
 93
        1
 72
               2
 10
481.0
 20
-565.79864711933112
 40
1.9998779296875
 50
0.0
 51
360.0
 73
               0
 97
        1
330
A7
 75
               0
 76
               1
 98
        1
 10
0.0
 20
0.0
  0
MTEXT
  5
A9
100
AcDbEntity
  8
0
390
0
 62
               0
100
AcDbMText
 10
447.12238281250001
 20
-549.96154530825879
 30
0.0
 40
24.432617187500004
 41
0.0
 71
               1
 72
               1
  1
110(深さ)
  7
ＭＳ ゴシック
 11
0.0
 21
1.0
 31
0.0
 73
               1
 44
0.7828267384257843
  0
POINT
  5
AA
100
AcDbEntity
  8
Defpoints
370
               0
390
0
 62
               0
100
AcDbPoint
 10
480.0
 20
-565.79864711933112
 30
0.0
  0
POINT
  5
AB
100
AcDbEntity
  8
Defpoints
370
               0
390
0
 62
               0
100
AcDbPoint
 10
480.0
 20
-675.79864711933124
 30
0.0
  0
POINT
  5
AC
100
AcDbEntity
  8
Defpoints
370
               0
390
0
 62
               0
100
AcDbPoint
 10
481.0
 20
-675.79864711933124
 30
0.0
  0
ENDBLK
  5
AD
100
AcDbEntity
  8
notes
390
0
100
AcDbBlockEnd
  0
BLOCK
  5
AE
100
AcDbEntity
  8
notes
390
0
100
AcDbBlockBegin
  2
*D8
 70
               1
 10
0.0
 20
0.0
 30
0.0
  3
*D8
  1

  0
LINE
  5
AF
100
AcDbEntity
  8
0
370
              -2
390
0
  6
Continuous
 62
               0
100
AcDbLine
 10
-90.316186765557916
 20
650.11263868214257
 30
0.0
 11
39.683813234442084
 21
650.11263868214257
 31
0.0
  0
LINE
  5
B0
100
AcDbEntity
  8
0
370
              -2
390
0
  6
Continuous
 62
               0
100
AcDbLine
 10
-185.31618676555792
 20
400.11263868214263
 30
0.0
 11
39.683813234442084
 21
400.11263868214263
 31
0.0
  0
LINE
  5
B1
100
AcDbEntity
  8
0
370
              -2
390
0
  6
Continuous
 62
               0
100
AcDbLine
 10
39.683813234442084
 20
650.11263868214257
 30
0.0
 11
39.683813234442084
 21
400.11263868214263
 31
0.0
  0
CIRCLE
  5
B2
102
{ACAD_REACTORS
330
B3
102
}
100
AcDbEntity
  8
0
370
              -2
390
0
  6
Continuous
 62
               0
100
AcDbCircle
 10
39.683813234442084
 20
650.11263868214257
 30
0.0
 40
1.9998779296875
  0
HATCH
  5
B3
100
AcDbEntity
  8
0
370
              -2
390
0
  6
Continuous
 62
               0
100
AcDbHatch
 10
0.0
 20
0.0
 30
0.0
210
0.0
220
0.0
230
1.0
  2
SOLID
 70
               1
 71
               1
 91
        1
 92
        1
 93
        1
 72
               2
 10
39.683813234442084
 20
650.11263868214257
 40
1.9998779296875
 50
0.0
 51
360.0
 73
               0
 97
        1
330
B2
 75
               0
 76
               1
 98
        1
 10
0.0
 20
0.0
  0
CIRCLE
  5
B4
102
{ACAD_REACTORS
330
B5
102
}
100
AcDbEntity
  8
0
370
              -2
390
0
  6
Continuous
 62
               0
100
AcDbCircle
 10
39.683813234442084
 20
400.11263868214263
 30
0.0
 40
1.9998779296875
  0
HATCH
  5
B5
100
AcDbEntity
  8
0
370
              -2
390
0
  6
Continuous
 62
               0
100
AcDbHatch
 10
0.0
 20
0.0
 30
0.0
210
0.0
220
0.0
230
1.0
  2
SOLID
 70
               1
 71
               1
 91
        1
 92
        1
 93
        1
 72
               2
 10
39.683813234442084
 20
400.11263868214263
 40
1.9998779296875
 50
0.0
 51
360.0
 73
               0
 97
        1
330
B4
 75
               0
 76
               1
 98
        1
 10
0.0
 20
0.0
  0
MTEXT
  5
B6
100
AcDbEntity
  8
0
390
0
 62
               0
100
AcDbMText
 10
5.8061960469420768
 20
501.30013699996715
 30
0.0
 40
24.432617187500004
 41
0.0
 71
               1
 72
               1
  1
250
  7
ＭＳ ゴシック
 11
0.0
 21
1.0
 31
0.0
 73
               1
 44
0.7828267384257843
  0
POINT
  5
B7
100
AcDbEntity
  8
Defpoints
370
               0
390
0
 62
               0
100
AcDbPoint
 10
-210.31618676555792
 20
400.11263868214263
 30
0.0
  0
POINT
  5
B8
100
AcDbEntity
  8
Defpoints
370
               0
390
0
 62
               0
100
AcDbPoint
 10
-115.31618676555792
 20
650.11263868214257
 30
0.0
  0
POINT
  5
B9
100
AcDbEntity
  8
Defpoints
370
               0
390
0
 62
               0
100
AcDbPoint
 10
39.683813234442084
 20
650.11263868214257
 30
0.0
  0
ENDBLK
  5
BA
100
AcDbEntity
  8
notes
390
0
100
AcDbBlockEnd
  0
BLOCK
  5
BB
100
AcDbEntity
  8
notes
390
0
100
AcDbBlockBegin
  2
*D9
 70
               1
 10
0.0
 20
0.0
 30
0.0
  3
*D9
  1

  0
LINE
  5
BC
100
AcDbEntity
  8
0
370
              -2
390
0
  6
Continuous
 62
               0
100
AcDbLine
 10
-92.316186765557973
 20
-565.80955920140946
 30
0.0
 11
-10.316186765557859
 21
-565.80955920140946
 31
0.0
  0
LINE
  5
BD
100
AcDbEntity
  8
0
370
              -2
390
0
  6
Continuous
 62
               0
100
AcDbLine
 10
-175.03908807241487
 20
-705.80955920140946
 30
0.0
 11
-10.316186765557859
 21
-705.80955920140946
 31
0.0
  0
LINE
  5
BE
100
AcDbEntity
  8
0
370
              -2
390
0
  6
Continuous
 62
               0
100
AcDbLine
 10
-10.316186765557859
 20
-565.80955920140946
 30
0.0
 11
-10.316186765557859
 21
-705.80955920140946
 31
0.0
  0
CIRCLE
  5
BF
102
{ACAD_REACTORS
330
C0
102
}
100
AcDbEntity
  8
0
370
              -2
390
0
  6
Continuous
 62
               0
100
AcDbCircle
 10
-10.316186765557859
 20
-565.80955920140946
 30
0.0
 40
1.9998779296875
  0
HATCH
  5
C0
100
AcDbEntity
  8
0
370
              -2
390
0
  6
Continuous
 62
               0
100
AcDbHatch
 10
0.0
 20
0.0
 30
0.0
210
0.0
220
0.0
230
1.0
  2
SOLID
 70
               1
 71
               1
 91
        1
 92
        1
 93
        1
 72
               2
 10
-10.316186765557859
 20
-565.80955920140946
 40
1.9998779296875
 50
0.0
 51
360.0
 73
               0
 97
        1
330
BF
 75
               0
 76
               1
 98
        1
 10
0.0
 20
0.0
  0
CIRCLE
  5
C1
102
{ACAD_REACTORS
330
C2
102
}
100
AcDbEntity
  8
0
370
              -2
390
0
  6
Continuous
 62
               0
100
AcDbCircle
 10
-10.316186765557859
 20
-705.80955920140946
 30
0.0
 40
1.9998779296875
  0
HATCH
  5
C2
100
AcDbEntity
  8
0
370
              -2
390
0
  6
Continuous
 62
               0
100
AcDbHatch
 10
0.0
 20
0.0
 30
0.0
210
0.0
220
0.0
230
1.0
  2
SOLID
 70
               1
 71
               1
 91
        1
 92
        1
 93
        1
 72
               2
 10
-10.316186765557859
 20
-705.80955920140946
 40
1.9998779296875
 50
0.0
 51
360.0
 73
               0
 97
        1
330
C1
 75
               0
 76
               1
 98
        1
 10
0.0
 20
0.0
  0
MTEXT
  5
C3
100
AcDbEntity
  8
0
390
0
 62
               0
100
AcDbMText
 10
-44.193803953057866
 20
-659.62206088358494
 30
0.0
 40
24.432617187500004
 41
0.0
 71
               1
 72
               1
  1
140
  7
ＭＳ ゴシック
 11
0.0
 21
1.0
 31
0.0
 73
               1
 44
0.7828267384257843
  0
POINT
  5
C4
100
AcDbEntity
  8
Defpoints
370
               0
390
0
 62
               0
100
AcDbPoint
 10
-200.03908807241487
 20
-705.80955920140946
 30
0.0
  0
POINT
  5
C5
100
AcDbEntity
  8
Defpoints
370
               0
390
0
 62
               0
100
AcDbPoint
 10
-117.31618676555797
 20
-565.80955920140946
 30
0.0
  0
POINT
  5
C6
100
AcDbEntity
  8
Defpoints
370
               0
390
0
 62
               0
100
AcDbPoint
 10
-10.316186765557859
 20
-565.80955920140946
 30
0.0
  0
ENDBLK
  5
C7
100
AcDbEntity
  8
notes
390
0
100
AcDbBlockEnd
  0
BLOCK
  5
C8
100
AcDbEntity
  8
notes
390
0
100
AcDbBlockBegin
  2
*D10
 70
               1
 10
0.0
 20
0.0
 30
0.0
  3
*D10
  1

  0
LINE
  5
C9
100
AcDbEntity
  8
0
370
              -2
390
0
  6
Continuous
 62
               0
100
AcDbLine
 10
-90.316186765557916
 20
650.11263868214257
 30
0.0
 11
-10.316186765557916
 21
650.11263868214257
 31
0.0
  0
LINE
  5
CA
100
AcDbEntity
  8
0
370
              -2
390
0
  6
Continuous
 62
               0
100
AcDbLine
 10
-112.81618676555792
 20
565.11263868214257
 30
0.0
 11
-10.316186765557916
 21
565.11263868214257
 31
0.0
  0
LINE
  5
CB
100
AcDbEntity
  8
0
370
              -2
390
0
  6
Continuous
 62
               0
100
AcDbLine
 10
-10.316186765557916
 20
650.11263868214257
 30
0.0
 11
-10.316186765557916
 21
565.11263868214257
 31
0.0
  0
CIRCLE
  5
CC
102
{ACAD_REACTORS
330
CD
102
}
100
AcDbEntity
  8
0
370
              -2
390
0
  6
Continuous
 62
               0
100
AcDbCircle
 10
-10.316186765557916
 20
650.11263868214257
 30
0.0
 40
1.9998779296875
  0
HATCH
  5
CD
100
AcDbEntity
  8
0
370
              -2
390
0
  6
Continuous
 62
               0
100
AcDbHatch
 10
0.0
 20
0.0
 30
0.0
210
0.0
220
0.0
230
1.0
  2
SOLID
 70
               1
 71
               1
 91
        1
 92
        1
 93
        1
 72
               2
 10
-10.316186765557916
 20
650.11263868214257
 40
1.9998779296875
 50
0.0
 51
360.0
 73
               0
 97
        1
330
CC
 75
               0
 76
               1
 98
        1
 10
0.0
 20
0.0
  0
CIRCLE
  5
CE
102
{ACAD_REACTORS
330
CF
102
}
100
AcDbEntity
  8
0
370
              -2
390
0
  6
Continuous
 62
               0
100
AcDbCircle
 10
-10.316186765557916
 20
565.11263868214257
 30
0.0
 40
1.9998779296875
  0
HATCH
  5
CF
100
AcDbEntity
  8
0
370
              -2
390
0
  6
Continuous
 62
               0
100
AcDbHatch
 10
0.0
 20
0.0
 30
0.0
210
0.0
220
0.0
230
1.0
  2
SOLID
 70
               1
 71
               1
 91
        1
 92
        1
 93
        1
 72
               2
 10
-10.316186765557916
 20
565.11263868214257
 40
1.9998779296875
 50
0.0
 51
360.0
 73
               0
 97
        1
330
CE
 75
               0
 76
               1
 98
        1
 10
0.0
 20
0.0
  0
MTEXT
  5
D0
100
AcDbEntity
  8
0
390
0
 62
               0
100
AcDbMText
 10
-44.193803953057923
 20
591.73763868214257
 30
0.0
 40
24.432617187500004
 41
0.0
 71
               1
 72
               1
  1
85
  7
ＭＳ ゴシック
 11
0.0
 21
1.0
 31
0.0
 73
               1
 44
0.7828267384257843
  0
POINT
  5
D1
100
AcDbEntity
  8
Defpoints
370
               0
390
0
 62
               0
100
AcDbPoint
 10
-137.81618676555792
 20
565.11263868214257
 30
0.0
  0
POINT
  5
D2
100
AcDbEntity
  8
Defpoints
370
               0
390
0
 62
               0
100
AcDbPoint
 10
-115.31618676555792
 20
650.11263868214257
 30
0.0
  0
POINT
  5
D3
100
AcDbEntity
  8
Defpoints
370
               0
390
0
 62
               0
100
AcDbPoint
 10
-10.316186765557916
 20
650.11263868214257
 30
0.0
  0
ENDBLK
  5
D4
100
AcDbEntity
  8
notes
390
0
100
AcDbBlockEnd
  0
BLOCK
  5
D5
100
AcDbEntity
  8
notes
390
0
100
AcDbBlockBegin
  2
*D11
 70
               1
 10
0.0
 20
0.0
 30
0.0
  3
*D11
  1

  0
LINE
  5
D6
100
AcDbEntity
  8
0
370
              -2
390
0
  6
Continuous
 62
               0
100
AcDbLine
 10
-635.31618676555786
 20
600.11302049095355
 30
0.0
 11
-710.31618676555786
 21
600.11302049095355
 31
0.0
  0
LINE
  5
D7
100
AcDbEntity
  8
0
370
              -2
390
0
  6
Continuous
 62
               0
100
AcDbLine
 10
-618.83290364800905
 20
445.1130204909536
 30
0.0
 11
-710.31618676555786
 21
445.1130204909536
 31
0.0
  0
LINE
  5
D8
100
AcDbEntity
  8
0
370
              -2
390
0
  6
Continuous
 62
               0
100
AcDbLine
 10
-710.31618676555786
 20
600.11302049095355
 30
0.0
 11
-710.31618676555786
 21
445.1130204909536
 31
0.0
  0
CIRCLE
  5
D9
102
{ACAD_REACTORS
330
DA
102
}
100
AcDbEntity
  8
0
370
              -2
390
0
  6
Continuous
 62
               0
100
AcDbCircle
 10
-710.31618676555786
 20
600.11302049095355
 30
0.0
 40
1.9998779296875
  0
HATCH
  5
DA
100
AcDbEntity
  8
0
370
              -2
390
0
  6
Continuous
 62
               0
100
AcDbHatch
 10
0.0
 20
0.0
 30
0.0
210
0.0
220
0.0
230
1.0
  2
SOLID
 70
               1
 71
               1
 91
        1
 92
        1
 93
        1
 72
               2
 10
-710.31618676555786
 20
600.11302049095355
 40
1.9998779296875
 50
0.0
 51
360.0
 73
               0
 97
        1
330
D9
 75
               0
 76
               1
 98
        1
 10
0.0
 20
0.0
  0
CIRCLE
  5
DB
102
{ACAD_REACTORS
330
DC
102
}
100
AcDbEntity
  8
0
370
              -2
390
0
  6
Continuous
 62
               0
100
AcDbCircle
 10
-710.31618676555786
 20
445.1130204909536
 30
0.0
 40
1.9998779296875
  0
HATCH
  5
DC
100
AcDbEntity
  8
0
370
              -2
390
0
  6
Continuous
 62
               0
100
AcDbHatch
 10
0.0
 20
0.0
 30
0.0
210
0.0
220
0.0
230
1.0
  2
SOLID
 70
               1
 71
               1
 91
        1
 92
        1
 93
        1
 72
               2
 10
-710.31618676555786
 20
445.1130204909536
 40
1.9998779296875
 50
0.0
 51
360.0
 73
               0
 97
        1
330
DB
 75
               0
 76
               1
 98
        1
 10
0.0
 20
0.0
  0
MTEXT
  5
DD
100
AcDbEntity
  8
0
390
0
 62
               0
100
AcDbMText
 10
-744.19380395305802
 20
498.80051880877812
 30
0.0
 40
24.432617187500004
 41
0.0
 71
               1
 72
               1
  1
155
  7
ＭＳ ゴシック
 11
0.0
 21
1.0
 31
0.0
 73
               1
 44
0.7828267384257843
  0
POINT
  5
DE
100
AcDbEntity
  8
Defpoints
370
               0
390
0
 62
               0
100
AcDbPoint
 10
-593.83290364800905
 20
445.1130204909536
 30
0.0
  0
POINT
  5
DF
100
AcDbEntity
  8
Defpoints
370
               0
390
0
 62
               0
100
AcDbPoint
 10
-610.31618676555786
 20
600.11302049095355
 30
0.0
  0
POINT
  5
E0
100
AcDbEntity
  8
Defpoints
370
               0
390
0
 62
               0
100
AcDbPoint
 10
-710.31618676555786
 20
600.11302049095355
 30
0.0
  0
ENDBLK
  5
E1
100
AcDbEntity
  8
notes
390
0
100
AcDbBlockEnd
  0
BLOCK
  5
E2
100
AcDbEntity
  8
notes
390
0
100
AcDbBlockBegin
  2
*D12
 70
               1
 10
0.0
 20
0.0
 30
0.0
  3
*D12
  1

  0
LINE
  5
E3
100
AcDbEntity
  8
0
370
              -2
390
0
  6
Continuous
 62
               0
100
AcDbLine
 10
-628.31618676555786
 20
-565.80955920140946
 30
0.0
 11
-710.31618676555786
 21
-565.80955920140946
 31
0.0
  0
LINE
  5
E4
100
AcDbEntity
  8
0
370
              -2
390
0
  6
Continuous
 62
               0
100
AcDbLine
 10
-617.81591414186005
 20
-605.80955920140946
 30
0.0
 11
-710.31618676555786
 21
-605.80955920140946
 31
0.0
  0
LINE
  5
E5
100
AcDbEntity
  8
0
370
              -2
390
0
  6
Continuous
 62
               0
100
AcDbLine
 10
-710.31618676555786
 20
-565.80955920140946
 30
0.0
 11
-710.31618676555786
 21
-605.80955920140946
 31
0.0
  0
CIRCLE
  5
E6
102
{ACAD_REACTORS
330
E7
102
}
100
AcDbEntity
  8
0
370
              -2
390
0
  6
Continuous
 62
               0
100
AcDbCircle
 10
-710.31618676555786
 20
-565.80955920140946
 30
0.0
 40
1.9998779296875
  0
HATCH
  5
E7
100
AcDbEntity
  8
0
370
              -2
390
0
  6
Continuous
 62
               0
100
AcDbHatch
 10
0.0
 20
0.0
 30
0.0
210
0.0
220
0.0
230
1.0
  2
SOLID
 70
               1
 71
               1
 91
        1
 92
        1
 93
        1
 72
               2
 10
-710.31618676555786
 20
-565.80955920140946
 40
1.9998779296875
 50
0.0
 51
360.0
 73
               0
 97
        1
330
E6
 75
               0
 76
               1
 98
        1
 10
0.0
 20
0.0
  0
CIRCLE
  5
E8
102
{ACAD_REACTORS
330
E9
102
}
100
AcDbEntity
  8
0
370
              -2
390
0
  6
Continuous
 62
               0
100
AcDbCircle
 10
-710.31618676555786
 20
-605.80955920140946
 30
0.0
 40
1.9998779296875
  0
HATCH
  5
E9
100
AcDbEntity
  8
0
370
              -2
390
0
  6
Continuous
 62
               0
100
AcDbHatch
 10
0.0
 20
0.0
 30
0.0
210
0.0
220
0.0
230
1.0
  2
SOLID
 70
               1
 71
               1
 91
        1
 92
        1
 93
        1
 72
               2
 10
-710.31618676555786
 20
-605.80955920140946
 40
1.9998779296875
 50
0.0
 51
360.0
 73
               0
 97
        1
330
E8
 75
               0
 76
               1
 98
        1
 10
0.0
 20
0.0
  0
MTEXT
  5
EA
100
AcDbEntity
  8
0
390
0
 62
               0
100
AcDbMText
 10
-744.19380395305802
 20
-601.68455920140946
 30
0.0
 40
24.432617187500004
 41
0.0
 71
               1
 72
               1
  1
40
  7
ＭＳ ゴシック
 11
0.0
 21
1.0
 31
0.0
 73
               1
 44
0.7828267384257843
  0
POINT
  5
EB
100
AcDbEntity
  8
Defpoints
370
               0
390
0
 62
               0
100
AcDbPoint
 10
-592.81591414186005
 20
-605.80955920140946
 30
0.0
  0
POINT
  5
EC
100
AcDbEntity
  8
Defpoints
370
               0
390
0
 62
               0
100
AcDbPoint
 10
-603.31618676555786
 20
-565.80955920140946
 30
0.0
  0
POINT
  5
ED
100
AcDbEntity
  8
Defpoints
370
               0
390
0
 62
               0
100
AcDbPoint
 10
-710.31618676555786
 20
-565.80955920140946
 30
0.0
  0
ENDBLK
  5
EE
100
AcDbEntity
  8
notes
390
0
100
AcDbBlockEnd
  0
BLOCK
  5
EF
100
AcDbEntity
  8
notes
390
0
100
AcDbBlockBegin
  2
*D13
 70
               1
 10
0.0
 20
0.0
 30
0.0
  3
*D13
  1

  0
LINE
  5
F0
100
AcDbEntity
  8
0
370
              -2
390
0
  6
Continuous
 62
               0
100
AcDbLine
 10
-635.31618676555786
 20
600.11302049095355
 30
0.0
 11
-710.31618676555786
 21
600.11302049095355
 31
0.0
  0
LINE
  5
F1
100
AcDbEntity
  8
0
370
              -2
390
0
  6
Continuous
 62
               0
100
AcDbLine
 10
-630.31618676555786
 20
650.1126386821428
 30
0.0
 11
-710.31618676555786
 21
650.1126386821428
 31
0.0
  0
LINE
  5
F2
100
AcDbEntity
  8
0
370
              -2
390
0
  6
Continuous
 62
               0
100
AcDbLine
 10
-710.31618676555786
 20
600.11302049095355
 30
0.0
 11
-710.31618676555786
 21
650.1126386821428
 31
0.0
  0
CIRCLE
  5
F3
102
{ACAD_REACTORS
330
F4
102
}
100
AcDbEntity
  8
0
370
              -2
390
0
  6
Continuous
 62
               0
100
AcDbCircle
 10
-710.31618676555786
 20
600.11302049095355
 30
0.0
 40
1.9998779296875
  0
HATCH
  5
F4
100
AcDbEntity
  8
0
370
              -2
390
0
  6
Continuous
 62
               0
100
AcDbHatch
 10
0.0
 20
0.0
 30
0.0
210
0.0
220
0.0
230
1.0
  2
SOLID
 70
               1
 71
               1
 91
        1
 92
        1
 93
        1
 72
               2
 10
-710.31618676555786
 20
600.11302049095355
 40
1.9998779296875
 50
0.0
 51
360.0
 73
               0
 97
        1
330
F3
 75
               0
 76
               1
 98
        1
 10
0.0
 20
0.0
  0
CIRCLE
  5
F5
102
{ACAD_REACTORS
330
F6
102
}
100
AcDbEntity
  8
0
370
              -2
390
0
  6
Continuous
 62
               0
100
AcDbCircle
 10
-710.31618676555786
 20
650.1126386821428
 30
0.0
 40
1.9998779296875
  0
HATCH
  5
F6
100
AcDbEntity
  8
0
370
              -2
390
0
  6
Continuous
 62
               0
100
AcDbHatch
 10
0.0
 20
0.0
 30
0.0
210
0.0
220
0.0
230
1.0
  2
SOLID
 70
               1
 71
               1
 91
        1
 92
        1
 93
        1
 72
               2
 10
-710.31618676555786
 20
650.1126386821428
 40
1.9998779296875
 50
0.0
 51
360.0
 73
               0
 97
        1
330
F5
 75
               0
 76
               1
 98
        1
 10
0.0
 20
0.0
  0
MTEXT
  5
F7
100
AcDbEntity
  8
0
390
0
 62
               0
100
AcDbMText
 10
-744.19380395305802
 20
609.23782958654817
 30
0.0
 40
24.432617187500004
 41
0.0
 71
               1
 72
               1
  1
50
  7
ＭＳ ゴシック
 11
0.0
 21
1.0
 31
0.0
 73
               1
 44
0.7828267384257843
  0
POINT
  5
F8
100
AcDbEntity
  8
Defpoints
370
               0
390
0
 62
               0
100
AcDbPoint
 10
-605.31618676555786
 20
650.1126386821428
 30
0.0
  0
POINT
  5
F9
100
AcDbEntity
  8
Defpoints
370
               0
390
0
 62
               0
100
AcDbPoint
 10
-610.31618676555786
 20
600.11302049095355
 30
0.0
  0
POINT
  5
FA
100
AcDbEntity
  8
Defpoints
370
               0
390
0
 62
               0
100
AcDbPoint
 10
-710.31618676555786
 20
600.11302049095355
 30
0.0
  0
ENDBLK
  5
FB
100
AcDbEntity
  8
notes
390
0
100
AcDbBlockEnd
  0
BLOCK
  5
FC
100
AcDbEntity
  8
notes
390
0
100
AcDbBlockBegin
  2
*D14
 70
               1
 10
0.0
 20
0.0
 30
0.0
  3
*D14
  1

  0
LINE
  5
FD
100
AcDbEntity
  8
0
370
              -2
390
0
  6
Continuous
 62
               0
100
AcDbLine
 10
-110.31618676555786
 20
-653.80955920140934
 30
0.0
 11
-110.31618676555786
 21
-805.80955920140946
 31
0.0
  0
LINE
  5
FE
100
AcDbEntity
  8
0
370
              -2
390
0
  6
Continuous
 62
               0
100
AcDbLine
 10
-360.31591414186011
 20
-727.93393799915248
 30
0.0
 11
-360.31591414186011
 21
-805.80955920140946
 31
0.0
  0
LINE
  5
FF
100
AcDbEntity
  8
0
370
              -2
390
0
  6
Continuous
 62
               0
100
AcDbLine
 10
-110.31618676555786
 20
-805.80955920140946
 30
0.0
 11
-360.31591414186011
 21
-805.80955920140946
 31
0.0
  0
CIRCLE
  5
100
102
{ACAD_REACTORS
330
101
102
}
100
AcDbEntity
  8
0
370
              -2
390
0
  6
Continuous
 62
               0
100
AcDbCircle
 10
-110.31618676555786
 20
-805.80955920140946
 30
0.0
 40
1.9998779296875
  0
HATCH
  5
101
100
AcDbEntity
  8
0
370
              -2
390
0
  6
Continuous
 62
               0
100
AcDbHatch
 10
0.0
 20
0.0
 30
0.0
210
0.0
220
0.0
230
1.0
  2
SOLID
 70
               1
 71
               1
 91
        1
 92
        1
 93
        1
 72
               2
 10
-110.31618676555786
 20
-805.80955920140946
 40
1.9998779296875
 50
0.0
 51
360.0
 73
               0
 97
        1
330
100
 75
               0
 76
               1
 98
        1
 10
0.0
 20
0.0
  0
CIRCLE
  5
102
102
{ACAD_REACTORS
330
103
102
}
100
AcDbEntity
  8
0
370
              -2
390
0
  6
Continuous
 62
               0
100
AcDbCircle
 10
-360.31591414186011
 20
-805.80955920140946
 30
0.0
 40
1.9998779296875
  0
HATCH
  5
103
100
AcDbEntity
  8
0
370
              -2
390
0
  6
Continuous
 62
               0
100
AcDbHatch
 10
0.0
 20
0.0
 30
0.0
210
0.0
220
0.0
230
1.0
  2
SOLID
 70
               1
 71
               1
 91
        1
 92
        1
 93
        1
 72
               2
 10
-360.31591414186011
 20
-805.80955920140946
 40
1.9998779296875
 50
0.0
 51
360.0
 73
               0
 97
        1
330
102
 75
               0
 76
               1
 98
        1
 10
0.0
 20
0.0
  0
MTEXT
  5
104
100
AcDbEntity
  8
0
390
0
 62
               0
100
AcDbMText
 10
-259.12855213588449
 20
-771.93194201390941
 30
0.0
 40
24.432617187500004
 41
0.0
 71
               1
 72
               1
  1
250
  7
ＭＳ ゴシック
 73
               1
 44
0.7828267384257843
  0
POINT
  5
105
100
AcDbEntity
  8
Defpoints
370
               0
390
0
 62
               0
100
AcDbPoint
 10
-360.31591414186011
 20
-702.93393799915248
 30
0.0
  0
POINT
  5
106
100
AcDbEntity
  8
Defpoints
370
               0
390
0
 62
               0
100
AcDbPoint
 10
-110.31618676555786
 20
-628.80955920140934
 30
0.0
  0
POINT
  5
107
100
AcDbEntity
  8
Defpoints
370
               0
390
0
 62
               0
100
AcDbPoint
 10
-110.31618676555786
 20
-805.80955920140946
 30
0.0
  0
ENDBLK
  5
108
100
AcDbEntity
  8
notes
390
0
100
AcDbBlockEnd
  0
BLOCK
  5
109
100
AcDbEntity
  8
notes
390
0
100
AcDbBlockBegin
  2
*D15
 70
               1
 10
0.0
 20
0.0
 30
0.0
  3
*D15
  1

  0
LINE
  5
10A
100
AcDbEntity
  8
0
370
              -2
390
0
  6
Continuous
 62
               0
100
AcDbLine
 10
475.30000000000001
 20
-730.77033147962129
 30
0.0
 11
475.30000000000001
 21
-805.80955920140946
 31
0.0
  0
LINE
  5
10B
100
AcDbEntity
  8
0
370
              -2
390
0
  6
Continuous
 62
               0
100
AcDbLine
 10
370.31098674016442
 20
-730.79888219418228
 30
0.0
 11
370.31098674016442
 21
-805.80955920140946
 31
0.0
  0
LINE
  5
10C
100
AcDbEntity
  8
0
370
              -2
390
0
  6
Continuous
 62
               0
100
AcDbLine
 10
475.30000000000001
 20
-805.80955920140946
 30
0.0
 11
370.31098674016442
 21
-805.80955920140946
 31
0.0
  0
CIRCLE
  5
10D
102
{ACAD_REACTORS
330
10E
102
}
100
AcDbEntity
  8
0
370
              -2
390
0
  6
Continuous
 62
               0
100
AcDbCircle
 10
475.30000000000001
 20
-805.80955920140946
 30
0.0
 40
1.9998779296875
  0
HATCH
  5
10E
100
AcDbEntity
  8
0
370
              -2
390
0
  6
Continuous
 62
               0
100
AcDbHatch
 10
0.0
 20
0.0
 30
0.0
210
0.0
220
0.0
230
1.0
  2
SOLID
 70
               1
 71
               1
 91
        1
 92
        1
 93
        1
 72
               2
 10
475.30000000000001
 20
-805.80955920140946
 40
1.9998779296875
 50
0.0
 51
360.0
 73
               0
 97
        1
330
10D
 75
               0
 76
               1
 98
        1
 10
0.0
 20
0.0
  0
CIRCLE
  5
10F
102
{ACAD_REACTORS
330
110
102
}
100
AcDbEntity
  8
0
370
              -2
390
0
  6
Continuous
 62
               0
100
AcDbCircle
 10
370.31098674016442
 20
-805.80955920140946
 30
0.0
 40
1.9998779296875
  0
HATCH
  5
110
100
AcDbEntity
  8
0
370
              -2
390
0
  6
Continuous
 62
               0
100
AcDbHatch
 10
0.0
 20
0.0
 30
0.0
210
0.0
220
0.0
230
1.0
  2
SOLID
 70
               1
 71
               1
 91
        1
 92
        1
 93
        1
 72
               2
 10
370.31098674016442
 20
-805.80955920140946
 40
1.9998779296875
 50
0.0
 51
360.0
 73
               0
 97
        1
330
10F
 75
               0
 76
               1
 98
        1
 10
0.0
 20
0.0
  0
MTEXT
  5
111
100
AcDbEntity
  8
0
390
0
 62
               0
100
AcDbMText
 10
398.99299168790668
 20
-771.93194201390941
 30
0.0
 40
24.432617187500004
 41
0.0
 71
               1
 72
               1
  1
105
  7
ＭＳ ゴシック
 73
               1
 44
0.7828267384257843
  0
POINT
  5
112
100
AcDbEntity
  8
Defpoints
370
               0
390
0
 62
               0
100
AcDbPoint
 10
370.31098674016442
 20
-705.79888219418228
 30
0.0
  0
POINT
  5
113
100
AcDbEntity
  8
Defpoints
370
               0
390
0
 62
               0
100
AcDbPoint
 10
475.30000000000001
 20
-705.77033147962129
 30
0.0
  0
POINT
  5
114
100
AcDbEntity
  8
Defpoints
370
               0
390
0
 62
               0
100
AcDbPoint
 10
475.30000000000001
 20
-805.80955920140946
 30
0.0
  0
ENDBLK
  5
115
100
AcDbEntity
  8
notes
390
0
100
AcDbBlockEnd
  0
BLOCK
  5
116
100
AcDbEntity
  8
notes
390
0
100
AcDbBlockBegin
  2
*D16
 70
               1
 10
0.0
 20
0.0
 30
0.0
  3
*D16
  1

  0
LINE
  5
117
100
AcDbEntity
  8
0
370
              -2
390
0
  6
Continuous
 62
               0
100
AcDbLine
 10
638.31098674016766
 20
-565.79864711933112
 30
0.0
 11
720.31098674016766
 21
-565.79864711933112
 31
0.0
  0
LINE
  5
118
100
AcDbEntity
  8
0
370
              -2
390
0
  6
Continuous
 62
               0
100
AcDbLine
 10
637.89434232729354
 20
-640.77033147962129
 30
0.0
 11
720.31098674016766
 21
-640.77033147962129
 31
0.0
  0
LINE
  5
119
100
AcDbEntity
  8
0
370
              -2
390
0
  6
Continuous
 62
               0
100
AcDbLine
 10
720.31098674016766
 20
-565.79864711933112
 30
0.0
 11
720.31098674016766
 21
-640.77033147962129
 31
0.0
  0
CIRCLE
  5
11A
102
{ACAD_REACTORS
330
11B
102
}
100
AcDbEntity
  8
0
370
              -2
390
0
  6
Continuous
 62
               0
100
AcDbCircle
 10
720.31098674016766
 20
-565.79864711933112
 30
0.0
 40
1.9998779296875
  0
HATCH
  5
11B
100
AcDbEntity
  8
0
370
              -2
390
0
  6
Continuous
 62
               0
100
AcDbHatch
 10
0.0
 20
0.0
 30
0.0
210
0.0
220
0.0
230
1.0
  2
SOLID
 70
               1
 71
               1
 91
        1
 92
        1
 93
        1
 72
               2
 10
720.31098674016766
 20
-565.79864711933112
 40
1.9998779296875
 50
0.0
 51
360.0
 73
               0
 97
        1
330
11A
 75
               0
 76
               1
 98
        1
 10
0.0
 20
0.0
  0
CIRCLE
  5
11C
102
{ACAD_REACTORS
330
11D
102
}
100
AcDbEntity
  8
0
370
              -2
390
0
  6
Continuous
 62
               0
100
AcDbCircle
 10
720.31098674016766
 20
-640.77033147962129
 30
0.0
 40
1.9998779296875
  0
HATCH
  5
11D
100
AcDbEntity
  8
0
370
              -2
390
0
  6
Continuous
 62
               0
100
AcDbHatch
 10
0.0
 20
0.0
 30
0.0
210
0.0
220
0.0
230
1.0
  2
SOLID
 70
               1
 71
               1
 91
        1
 92
        1
 93
        1
 72
               2
 10
720.31098674016766
 20
-640.77033147962129
 40
1.9998779296875
 50
0.0
 51
360.0
 73
               0
 97
        1
330
11C
 75
               0
 76
               1
 98
        1
 10
0.0
 20
0.0
  0
MTEXT
  5
11E
100
AcDbEntity
  8
0
390
0
 62
               0
100
AcDbMText
 10
686.4333695526675
 20
-619.15948929947626
 30
0.0
 40
24.432617187500004
 41
0.0
 71
               1
 72
               1
  1
75
  7
ＭＳ ゴシック
 11
0.0
 21
1.0
 31
0.0
 73
               1
 44
0.7828267384257843
  0
POINT
  5
11F
100
AcDbEntity
  8
Defpoints
370
               0
390
0
 62
               0
100
AcDbPoint
 10
612.89434232729354
 20
-640.77033147962129
 30
0.0
  0
POINT
  5
120
100
AcDbEntity
  8
Defpoints
370
               0
390
0
 62
               0
100
AcDbPoint
 10
613.31098674016766
 20
-565.79864711933112
 30
0.0
  0
POINT
  5
121
100
AcDbEntity
  8
Defpoints
370
               0
390
0
 62
               0
100
AcDbPoint
 10
720.31098674016766
 20
-565.79864711933112
 30
0.0
  0
ENDBLK
  5
122
100
AcDbEntity
  8
notes
390
0
100
AcDbBlockEnd
  0
BLOCK
  5
123
100
AcDbEntity
  8
notes
390
0
100
AcDbBlockBegin
  2
*D17
 70
               1
 10
0.0
 20
0.0
 30
0.0
  3
*D17
  1

  0
LINE
  5
124
100
AcDbEntity
  8
0
370
              -2
390
0
  6
Continuous
 62
               0
100
AcDbLine
 10
638.31098674016766
 20
-640.77033147962129
 30
0.0
 11
720.31098674016766
 21
-640.77033147962129
 31
0.0
  0
LINE
  5
125
100
AcDbEntity
  8
0
370
              -2
390
0
  6
Continuous
 62
               0
100
AcDbLine
 10
540.44801988561153
 20
-705.77033147962129
 30
0.0
 11
720.31098674016766
 21
-705.77033147962129
 31
0.0
  0
LINE
  5
126
100
AcDbEntity
  8
0
370
              -2
390
0
  6
Continuous
 62
               0
100
AcDbLine
 10
720.31098674016766
 20
-640.77033147962129
 30
0.0
 11
720.31098674016766
 21
-705.77033147962129
 31
0.0
  0
CIRCLE
  5
127
102
{ACAD_REACTORS
330
128
102
}
100
AcDbEntity
  8
0
370
              -2
390
0
  6
Continuous
 62
               0
100
AcDbCircle
 10
720.31098674016766
 20
-640.77033147962129
 30
0.0
 40
1.9998779296875
  0
HATCH
  5
128
100
AcDbEntity
  8
0
370
              -2
390
0
  6
Continuous
 62
               0
100
AcDbHatch
 10
0.0
 20
0.0
 30
0.0
210
0.0
220
0.0
230
1.0
  2
SOLID
 70
               1
 71
               1
 91
        1
 92
        1
 93
        1
 72
               2
 10
720.31098674016766
 20
-640.77033147962129
 40
1.9998779296875
 50
0.0
 51
360.0
 73
               0
 97
        1
330
127
 75
               0
 76
               1
 98
        1
 10
0.0
 20
0.0
  0
CIRCLE
  5
129
102
{ACAD_REACTORS
330
12A
102
}
100
AcDbEntity
  8
0
370
              -2
390
0
  6
Continuous
 62
               0
100
AcDbCircle
 10
720.31098674016766
 20
-705.77033147962129
 30
0.0
 40
1.9998779296875
  0
HATCH
  5
12A
100
AcDbEntity
  8
0
370
              -2
390
0
  6
Continuous
 62
               0
100
AcDbHatch
 10
0.0
 20
0.0
 30
0.0
210
0.0
220
0.0
230
1.0
  2
SOLID
 70
               1
 71
               1
 91
        1
 92
        1
 93
        1
 72
               2
 10
720.31098674016766
 20
-705.77033147962129
 40
1.9998779296875
 50
0.0
 51
360.0
 73
               0
 97
        1
330
129
 75
               0
 76
               1
 98
        1
 10
0.0
 20
0.0
  0
MTEXT
  5
12B
100
AcDbEntity
  8
0
390
0
 62
               0
100
AcDbMText
 10
686.4333695526675
 20
-689.14533147962129
 30
0.0
 40
24.432617187500004
 41
0.0
 71
               1
 72
               1
  1
65
  7
ＭＳ ゴシック
 11
0.0
 21
1.0
 31
0.0
 73
               1
 44
0.7828267384257843
  0
POINT
  5
12C
100
AcDbEntity
  8
Defpoints
370
               0
390
0
 62
               0
100
AcDbPoint
 10
515.44801988561153
 20
-705.77033147962129
 30
0.0
  0
POINT
  5
12D
100
AcDbEntity
  8
Defpoints
370
               0
390
0
 62
               0
100
AcDbPoint
 10
613.31098674016766
 20
-640.77033147962129
 30
0.0
  0
POINT
  5
12E
100
AcDbEntity
  8
Defpoints
370
               0
390
0
 62
               0
100
AcDbPoint
 10
720.31098674016766
 20
-640.77033147962129
 30
0.0
  0
ENDBLK
  5
12F
100
AcDbEntity
  8
notes
390
0
100
AcDbBlockEnd
  0
ENDSEC
  0
SECTION
  2
ENTITIES
  0
MTEXT
  5
130
100
AcDbEntity
  8
template
390
0
 62
               7
100
AcDbMText
 10
-967.99999999975921
 20
-1147.4176292337004
 30
0.0
 40
16.288411458333332
 41
0.0
 71
               1
 72
               1
  1
品名
  7
ＭＳ ゴシック
 73
               1
 44
0.7828267384257843
  0
MTEXT
  5
131
100
AcDbEntity
  8
template
390
0
 62
               7
100
AcDbMText
 10
-967.99999999975921
 20
-1232.4176292337004
 30
0.0
 40
16.288411458333332
 41
0.0
 71
               1
 72
               1
  1
仕様
  7
ＭＳ ゴシック
 73
               1
 44
0.7828267384257843
  0
LINE
  5
132
100
AcDbEntity
  8
template
370
               5
390
0
  6
Continuous
 62
               7
100
AcDbLine
 10
974.99999999975876
 20
-1224.0027073587005
 30
0.0
 11
-975.00000000024124
 21
-1224.0027073587005
 31
0.0
  0
LWPOLYLINE
  5
133
100
AcDbEntity
  8
template
370
               5
390
0
  6
Continuous
 62
               7
100
AcDbPolyline
 90
        5
 70
             128
 10
975.00000000024124
 20
1405.9972926412995
 10
-974.99999999975921
 20
1405.9972926412995
 10
-974.99999999975921
 20
-1394.0027073587005
 10
975.00000000024124
 20
-1394.0027073587005
 10
975.00000000024124
 20
1405.9972926412995
  0
LINE
  5
134
100
AcDbEntity
  8
template
370
               5
390
0
  6
Continuous
 62
               7
100
AcDbLine
 10
974.99999999975876
 20
-1139.0027073587005
 30
0.0
 11
-975.00000000024124
 21
-1139.0027073587005
 31
0.0
  0
LINE
  5
135
100
AcDbEntity
  8
template
370
               5
390
0
  6
Continuous
 62
               7
100
AcDbLine
 10
975.00000000024124
 20
-1309.0027073587005
 30
0.0
 11
222.00000000024124
 21
-1309.0027073587005
 31
0.0
  0
MTEXT
  5
136
100
AcDbEntity
  8
template
390
0
 62
               7
100
AcDbMText
 10
-974.99999999955594
 20
-1405.8565294155574
 30
0.0
 40
21.717881944444446
 41
0.0
 71
               1
 72
               1
  1
100707SH
  7
ＭＳ ゴシック
 73
               1
 44
0.7828267384257843
  0
MTEXT
  5
137
100
AcDbEntity
  8
template
390
0
 62
               7
100
AcDbMText
 10
251.87140625250089
 20
-1338.9131018320081
 30
0.0
 40
24.432617187500004
 41
0.0
 71
               1
 72
               1
  1
大洋金物株式会社 ティーフォルム事業部
  7
ＭＳ ゴシック
 73
               1
 44
0.7828267384257843
  0
LWPOLYLINE
  5
138
100
AcDbEntity
  8
template
370
              15
390
0
  6
Continuous
 62
               7
100
AcDbPolyline
 90
        8
 70
             129
 10
887.42850780307481
 20
-1334.4897210236859
 10
887.42850780307481
 20
-1340.4871097172618
 10
877.92731088507162
 20
-1340.4871097172618
 10
877.92731088507162
 20
-1364.9380729807706
 10
869.57193362328871
 20
-1364.9380729807706
 10
869.57193362328871
 20
-1340.4871097172618
 10
860.23897667697929
 20
-1340.4871097172618
 10
860.23897667697929
 20
-1334.4897210236859
  0
LWPOLYLINE
  5
139
100
AcDbEntity
  8
template
370
              15
390
0
  6
Continuous
 62
               7
100
AcDbPolyline
 90
      101
 70
             128
 10
900.15679963363186
 20
-1335.2179695166224
 10
900.17214966241932
 20
-1335.2136087599365
 42
-0.0222221607810854
 10
900.46215423908779
 20
-1335.1449842946927
 10
900.47794800307429
 20
-1335.1419808715971
 42
-0.014688356559039
 10
900.74065070830557
 20
-1335.0999776846463
 42
-0.0127458844179387
 10
901.00528967546688
 20
-1335.0724407165731
 10
901.06774475377142
 20
-1335.0675472939856
 42
-0.0198099018566567
 10
901.45859386324378
 20
-1335.0524621365889
 10
901.51040533269202
 20
-1335.052515912254
 42
-0.0147617382758946
 10
902.00502879367286
 20
-1335.0676359374993
 10
902.07772024854262
 20
-1335.0720085443868
 42
-0.0162624549003259
 10
902.46787387800578
 20
-1335.108241419659
 10
902.58940626925369
 20
-1335.123527978654
 42
-0.0080020874669953
 10
902.73498530035658
 20
-1335.1442108259239
 10
902.7733047709587
 20
-1335.1502821037361
 42
-0.0053821929670671
 10
902.84178887626649
 20
-1335.1618896275565
 10
902.11538317706777
 20
-1337.3428180832705
 42
0.0108667757404252
 10
902.04806610693095
 20
-1337.3296309680495
 10
902.01059808374748
 20
-1337.3231332254561
 42
0.0170663203308407
 10
901.86738129683317
 20
-1337.3033036281645
 10
901.79950596414892
 20
-1337.2962564575769
 42
0.022016237527511
 10
901.51912655629349
 20
-1337.2795740968068
 10
901.4412709892415
 20
-1337.2783747295402
 42
0.0282606915787174
 10
901.1056346656635
 20
-1337.2921780065094
 10
901.0617213918872
 20
-1337.2964779965134
 42
0.0169677213689883
 10
900.8157968969324
 20
-1337.3290150460648
 42
0.0190576269863938
 10
900.57288893435111
 20
-1337.3791619181716
 10
900.56662974624146
 20
-1337.3807048922806
 42
0.0213685642844219
 10
900.31624526176552
 20
-1337.4539051773847
 10
900.31075536684762
 20
-1337.4557681734445
 42
0.0237595297598762
 10
900.0572604819472
 20
-1337.5554526953408
 10
900.05215840791925
 20
-1337.5577444708183
 42
0.0261857468820268
 10
899.79998763168942
 20
-1337.6872808081928
 10
899.78956144260201
 20
-1337.6933462826612
 42
0.0272553062019216
 10
899.55313166736369
 20
-1337.8487184886053
 10
899.51836865385417
 20
-1337.8743796366975
 42
0.0325996893174496
 10
899.36821331020269
 20
-1338.001127509669
 10
899.34450388107439
 20
-1338.023945538187
 42
0.0138050960646071
 10
899.25262072486953
 20
-1338.1173951997334
 42
0.0125280103807631
 10
899.16577819202939
 20
-1338.2155585263413
 10
899.14209774712754
 20
-1338.2437170245209
 42
0.0205218024737993
 10
899.01699767161494
 20
-1338.4055103387484
 10
898.99453133112684
 20
-1338.437170068577
 42
0.0163110129582284
 10
898.83882095187778
 20
-1338.6725005036431
 10
898.83609705582444
 20
-1338.6769242656324
 42
0.0131897341893592
 10
898.68929653491978
 20
-1338.9300563579945
 10
898.68759643955218
 20
-1338.9331745971326
 42
0.0107895576066518
 10
898.54981973733584
 20
-1339.1993898067788
 10
898.5490868478164
 20
-1339.2008840394142
 42
0.0091371507212813
 10
898.42060689916866
 20
-1339.4754092371695
 10
898.3908612677576
 20
-1339.5421157443325
 42
0.0135418326353806
 10
898.21914732868549
 20
-1339.9570535296023
 10
898.18554252025274
 20
-1340.0449196718796
 42
0.0092834542410109
 10
898.01431346033087
 20
-1340.5188181701878
 10
897.98869633261529
 20
-1340.594059239975
 42
0.0054261043583896
 10
897.88105818432018
 20
-1340.9218232130465
 10
897.86353219810644
 20
-1340.9772113753916
 42
0.0008225090834056
 10
897.79486214631288
 20
-1341.1954801334257
 10
896.81017301437942
 20
-1344.2203714266823
 10
900.04279685445317
 20
-1344.2203714266823
 10
899.53860442459973
 20
-1346.1248497250347
 10
896.28254814261641
 20
-1346.1248497250347
 10
890.45339911026258
 20
-1364.9380727910395
 10
888.62830149995239
 20
-1364.9380727910395
 10
894.46297953545331
 20
-1346.1248497250347
 10
892.05786316641297
 20
-1346.1248497250347
 10
892.56205559626642
 20
-1344.2203714266823
 10
894.99060440721632
 20
-1344.2203714266823
 10
895.85075932540508
 20
-1341.5839584259834
 42
-0.0005863560663871
 10
895.88749400358756
 20
-1341.4671320057578
 10
895.96358183726875
 20
-1341.2261397063062
 42
-0.0087522378926939
 10
896.1630499807236
 20
-1340.6308636191654
 10
896.25531425613894
 20
-1340.3707234506471
 42
-0.0077400953830347
 10
896.51324791527031
 20
-1339.6777187730986
 10
896.52901288685257
 20
-1339.6372878897039
 42
-0.0082369946330004
 10
896.77609735746114
 20
-1339.0332088235168
 42
-0.008572523836512
 10
897.0433434534641
 20
-1338.4377827842295
 10
897.14497305447117
 20
-1338.2213616822451
 42
-0.0168109410596296
 10
897.43191748320146
 20
-1337.6601541561402
 10
897.55776087364029
 20
-1337.4331901231792
 42
-0.0007817726870542
 10
897.61204522371713
 20
-1337.3356458781118
 10
897.61217352974154
 20
-1337.3354161693626
 42
-0.0036626142154888
 10
897.6670613937556
 20
-1337.2388182894067
 42
-0.0080221150682828
 10
897.72418564915529
 20
-1337.1435390546651
 10
897.75488560052349
 20
-1337.0941481055315
 42
-0.0202139325568373
 10
897.88254134033059
 20
-1336.9061665048496
 10
897.93660880551784
 20
-1336.8330876406094
 42
-0.024932379180228
 10
898.19577159923369
 20
-1336.5170423984587
 10
898.21991141336389
 20
-1336.4904281255426
 42
-0.0242132121541015
 10
898.55959215490452
 20
-1336.1505446393401
 10
898.60750372765483
 20
-1336.1070355031541
 42
-0.0251017527862725
 10
898.8914854282973
 20
-1335.8740427573875
 10
898.8929309051116
 20
-1335.872973499808
 42
-0.0130868069032225
 10
899.19119155506837
 20
-1335.6641930312662
 10
899.19275337420891
 20
-1335.6631595909926
 42
-0.0290329526391612
 10
899.50386451560439
 20
-1335.4823340893618
 10
899.53371007759324
 20
-1335.4672317065208
 42
-0.0160250190046887
 10
899.79961449135521
 20
-1335.3432155963092
 42
-0.0267600374780034
 10
900.07489056882514
 20
-1335.24246727576
 10
900.10162648834489
 20
-1335.2342747169348
 42
-0.0049981587669928
 10
900.15679963363186
 20
-1335.2179695166224
 42
-0.0049981587669928
  0
LWPOLYLINE
  5
13A
100
AcDbEntity
  8
template
370
              15
390
0
  6
Continuous
 62
               7
100
AcDbPolyline
 90
      118
 70
             128
 10
919.97116719807877
 20
-1344.2943547545096
 10
921.84628912257813
 20
-1344.2943547545096
 10
921.00825021697824
 20
-1346.9759212809097
 42
-0.0010587229175637
 10
921.03970603266498
 20
-1346.9390167474201
 10
921.09790012318217
 20
-1346.8710344913786
 42
-0.007187474041742
 10
921.2482753412653
 20
-1346.7003937993659
 10
921.38999811454232
 20
-1346.5441576580365
 42
-0.0148118053514229
 10
921.84012740725598
 20
-1346.0765438120227
 10
921.92734974216137
 20
-1345.9911464911656
 42
-0.0086273358692734
 10
922.26289854316542
 20
-1345.6737708571534
 10
922.30673225939449
 20
-1345.6337212128174
 42
-0.0103138323113875
 10
922.56475596162477
 20
-1345.407558075482
 10
922.61053036794647
 20
-1345.3690760282263
 42
-0.0060206748568711
 10
922.78337843206418
 20
-1345.2272813774675
 10
922.78540956295365
 20
-1345.2256556718335
 42
-0.0067069027295735
 10
922.95770237761258
 20
-1345.0915050380413
 10
922.96025114354075
 20
-1345.0895748681644
 42
-0.0076184352053114
 10
923.13115640940987
 20
-1344.9641999929222
 42
-0.0089652861671896
 10
923.3061173721444
 20
-1344.8445667325893
 10
923.34246909228909
 20
-1344.8206555191064
 42
-0.015691624593689
 10
923.5384285894495
 20
-1344.7003930326323
 42
-0.0023299011065672
 10
923.73869063343864
 20
-1344.5872150930861
 10
923.75407476580926
 20
-1344.5786150980266
 42
-0.0107669341484633
 10
923.98831159090764
 20
-1344.4542149646784
 10
924.0105763919853
 20
-1344.4429982147271
 42
-0.0078058045897446
 10
924.29416650994767
 20
-1344.3056367590843
 10
924.30407359764718
 20
-1344.3010276312202
 42
-0.0181829330471498
 10
924.61438300225996
 20
-1344.1701638901257
 10
924.66843844482923
 20
-1344.1496487701813
 42
-0.0208411536031729
 10
925.01752341227984
 20
-1344.0335583076881
 10
925.03187951240579
 20
-1344.029439862735
 42
-0.0222799817141168
 10
925.3605993063245
 20
-1343.9507982965943
 10
925.36948826955972
 20
-1343.9490862860096
 42
-0.0215509523885687
 10
925.68595923784142
 20
-1343.9021705974747
 10
925.72844119889146
 20
-1343.8977330706837
 42
-0.0182545924869084
 10
925.96254997819551
 20
-1343.881889245293
 10
926.00195099453231
 20
-1343.8806647002141
 42
-0.0072962856536588
 10
926.15787387423256
 20
-1343.8780953716916
 10
926.18697354480901
 20
-1343.8780405362879
 42
-0.0059227516318488
 10
926.2847230439495
 20
-1343.8790142480784
 10
926.31396526143385
 20
-1343.8796520146821
 42
-0.0011833111926424
 10
926.35321654515383
 20
-1343.8806010189917
 10
925.55782994954666
 20
-1346.4193349640907
 42
0.0143932051597791
 10
925.53142856719319
 20
-1346.4091359940444
 10
925.52415659477879
 20
-1346.4065647751881
 42
0.0234388603545264
 10
925.48232572884444
 20
-1346.3939455394723
 10
925.47364406593397
 20
-1346.3917645774677
 42
0.019916274298132
 10
925.41335523185762
 20
-1346.3791478421333
 10
925.39254129404776
 20
-1346.3756506427042
 42
0.0293643550665467
 10
925.28946643528775
 20
-1346.3645005970509
 10
925.26478125456833
 20
-1346.3632889800324
 42
0.0214606686870905
 10
925.11164033861292
 20
-1346.362350419615
 10
925.10226842779775
 20
-1346.3626953311591
 42
0.0167564054179101
 10
924.93074823668258
 20
-1346.3747723735278
 10
924.92228844393048
 20
-1346.3756537139543
 42
0.0137677553235364
 10
924.7349351306716
 20
-1346.4004030224969
 10
924.72758339115785
 20
-1346.4015809424659
 42
0.0118497261485763
 10
924.52708562705266
 20
-1346.4385982926558
 10
924.52093561980928
 20
-1346.4398851553751
 42
0.0106421143887448
 10
924.3100547325248
 20
-1346.4887175309498
 10
924.30514592413533
 20
-1346.489964873635
 42
0.0099746379704902
 10
924.08668745497062
 20
-1346.5501394019504
 10
924.02513941480242
 20
-1346.5684212805804
 42
0.0191613675859606
 10
923.68915495228407
 20
-1346.6823986608683
 10
923.60109517954311
 20
-1346.7160855711907
 42
0.0205274080140434
 10
923.21578840764073
 20
-1346.881913979018
 10
923.15813912566045
 20
-1346.9095819435895
 42
0.0181256912195504
 10
922.89986218499166
 20
-1347.0452657625683
 10
922.84690680167887
 20
-1347.0755833757823
 42
0.0140709242406199
 10
922.7019518670495
 20
-1347.1640780492173
 10
922.67570299843396
 20
-1347.1811348679307
 42
0.0086667884382084
 10
922.58677683688848
 20
-1347.2411375358156
 42
0.0036408192028526
 10
922.49934359884855
 20
-1347.3033183936127
 10
922.46411672438649
 20
-1347.3287593395207
 42
0.0052260781280036
 10
922.30788802699112
 20
-1347.4440917261584
 10
922.29168117073573
 20
-1347.4563198367732
 42
0.0050024435898691
 10
922.10567782768931
 20
-1347.5996024050257
 10
922.09035967116165
 20
-1347.6116484274812
 42
0.0136138710281096
 10
921.8799184028353
 20
-1347.7866149323957
 10
921.84625052704291
 20
-1347.8161939051088
 42
0.0172815186913769
 10
921.58184698538344
 20
-1348.065190577729
 10
921.57928463953772
 20
-1348.0677763948793
 42
0.0189403857996514
 10
921.3287028409602
 20
-1348.3405816596817
 10
921.29607134742241
 20
-1348.3789255911809
 42
0.0185044199503909
 10
921.10411490844263
 20
-1348.6221741723034
 42
0.0088565243901851
 10
920.92565480180838
 20
-1348.8756905924622
 10
920.91647682216558
 20
-1348.8892319722136
 42
0.0157195347235619
 10
920.73325621582876
 20
-1349.178754181534
 10
920.68717327390414
 20
-1349.256906378544
 42
0.0095451879782055
 10
920.52208772376298
 20
-1349.5495010209065
 10
920.51093980482938
 20
-1349.5701716930459
 42
0.0100351706257762
 10
920.3788960556742
 20
-1349.8272272535294
 42
0.0086935915419065
 10
920.25656490388428
 20
-1350.0890603989249
 10
920.25324416246576
 20
-1350.0965027219056
 42
0.0072580174864728
 10
920.13289771051677
 20
-1350.3770947134979
 10
920.1296360772144
 20
-1350.3850147395065
 42
0.0060005122617236
 10
920.01043540886576
 20
-1350.6846244101273
 10
920.00722443052996
 20
-1350.6929859380166
 42
0.0049017786975415
 10
919.88832427167449
 20
-1351.011914918615
 10
919.88515846528207
 20
-1351.0206678558511
 42
0.0039415167603075
 10
919.76572218722345
 20
-1351.3592099182706
 10
919.76259108457339
 20
-1351.3683131191406
 42
0.003103583876673
 10
919.64178629887647
 20
-1351.7267529809258
 10
919.63867625435
 20
-1351.736173602289
 42
0.0025070747151878
 10
919.51577490304112
 20
-1352.1148208192124
 10
919.47848100660917
 20
-1352.2317124844858
 42
0.0029081910284429
 10
919.28646270879267
 20
-1352.8458761427953
 10
919.24565954028117
 20
-1352.9790993850534
 42
0.000926645373264
 10
918.97724216596794
 20
-1353.861323844972
 10
918.95635469331069
 20
-1353.9304357242631
 42
-0.000580999366583
 10
918.67901801273479
 20
-1354.8442438308516
 10
918.61273621446503
 20
-1355.0617287630014
 42
-0.0012018708169937
 10
918.46575190503268
 20
-1355.539891427532
 10
918.4134320535336
 20
-1355.7086505681834
 42
-0.0002691059606651
 10
918.36986257229864
 20
-1355.8489181887398
 10
915.53690667400929
 20
-1364.9380727910395
 10
913.71891778203076
 20
-1364.9380727910395
 10
919.97116719807877
 20
-1344.2943547545096
  0
SPLINE
  5
13B
100
AcDbEntity
  8
template
370
              15
390
0
  6
Continuous
 62
               7
100
AcDbSpline
210
0.0
220
0.0
230
1.0
 70
              13
 71
               2
 72
             782
 73
             779
 74
               0
 42
0.000001
 43
0.000001
 40
0.0
 40
0.0
 40
0.0
 40
1.0
 40
1.0
 40
2.0
 40
2.0
 40
3.0
 40
3.0
 40
4.0
 40
4.0
 40
5.0
 40
5.0
 40
6.0
 40
6.0
 40
7.0
 40
7.0
 40
8.0
 40
8.0
 40
9.0
 40
9.0
 40
10.0
 40
10.0
 40
11.0
 40
11.0
 40
12.0
 40
12.0
 40
13.0
 40
13.0
 40
14.0
 40
14.0
 40
15.0
 40
15.0
 40
16.0
 40
16.0
 40
17.0
 40
17.0
 40
18.0
 40
18.0
 40
19.0
 40
19.0
 40
20.0
 40
20.0
 40
21.0
 40
21.0
 40
22.0
 40
22.0
 40
23.0
 40
23.0
 40
24.0
 40
24.0
 40
25.0
 40
25.0
 40
26.0
 40
26.0
 40
27.0
 40
27.0
 40
28.0
 40
28.0
 40
29.0
 40
29.0
 40
30.0
 40
30.0
 40
31.0
 40
31.0
 40
32.0
 40
32.0
 40
33.0
 40
33.0
 40
34.0
 40
34.0
 40
35.0
 40
35.0
 40
36.0
 40
36.0
 40
37.0
 40
37.0
 40
38.0
 40
38.0
 40
39.0
 40
39.0
 40
40.0
 40
40.0
 40
41.0
 40
41.0
 40
42.0
 40
42.0
 40
43.0
 40
43.0
 40
44.0
 40
44.0
 40
45.0
 40
45.0
 40
46.0
 40
46.0
 40
47.0
 40
47.0
 40
48.0
 40
48.0
 40
49.0
 40
49.0
 40
50.0
 40
50.0
 40
51.0
 40
51.0
 40
52.0
 40
52.0
 40
53.0
 40
53.0
 40
54.0
 40
54.0
 40
55.0
 40
55.0
 40
56.0
 40
56.0
 40
57.0
 40
57.0
 40
58.0
 40
58.0
 40
59.0
 40
59.0
 40
60.0
 40
60.0
 40
61.0
 40
61.0
 40
62.0
 40
62.0
 40
63.0
 40
63.0
 40
64.0
 40
64.0
 40
65.0
 40
65.0
 40
66.0
 40
66.0
 40
67.0
 40
67.0
 40
68.0
 40
68.0
 40
69.0
 40
69.0
 40
70.0
 40
70.0
 40
71.0
 40
71.0
 40
72.0
 40
72.0
 40
73.0
 40
73.0
 40
74.0
 40
74.0
 40
75.0
 40
75.0
 40
76.0
 40
76.0
 40
77.0
 40
77.0
 40
78.0
 40
78.0
 40
79.0
 40
79.0
 40
80.0
 40
80.0
 40
81.0
 40
81.0
 40
82.0
 40
82.0
 40
83.0
 40
83.0
 40
84.0
 40
84.0
 40
85.0
 40
85.0
 40
86.0
 40
86.0
 40
87.0
 40
87.0
 40
88.0
 40
88.0
 40
89.0
 40
89.0
 40
90.0
 40
90.0
 40
91.0
 40
91.0
 40
92.0
 40
92.0
 40
93.0
 40
93.0
 40
94.0
 40
94.0
 40
95.0
 40
95.0
 40
96.0
 40
96.0
 40
97.0
 40
97.0
 40
98.0
 40
98.0
 40
99.0
 40
99.0
 40
100.0
 40
100.0
 40
101.0
 40
101.0
 40
102.0
 40
102.0
 40
103.0
 40
103.0
 40
104.0
 40
104.0
 40
105.0
 40
105.0
 40
106.0
 40
106.0
 40
107.0
 40
107.0
 40
108.0
 40
108.0
 40
109.0
 40
109.0
 40
110.0
 40
110.0
 40
111.0
 40
111.0
 40
112.0
 40
112.0
 40
113.0
 40
113.0
 40
114.0
 40
114.0
 40
115.0
 40
115.0
 40
116.0
 40
116.0
 40
117.0
 40
117.0
 40
118.0
 40
118.0
 40
119.0
 40
119.0
 40
120.0
 40
120.0
 40
121.0
 40
121.0
 40
122.0
 40
122.0
 40
123.0
 40
123.0
 40
124.0
 40
124.0
 40
125.0
 40
125.0
 40
126.0
 40
126.0
 40
127.0
 40
127.0
 40
128.0
 40
128.0
 40
129.0
 40
129.0
 40
130.0
 40
130.0
 40
131.0
 40
131.0
 40
132.0
 40
132.0
 40
133.0
 40
133.0
 40
134.0
 40
134.0
 40
135.0
 40
135.0
 40
136.0
 40
136.0
 40
137.0
 40
137.0
 40
138.0
 40
138.0
 40
139.0
 40
139.0
 40
140.0
 40
140.0
 40
141.0
 40
141.0
 40
142.0
 40
142.0
 40
143.0
 40
143.0
 40
144.0
 40
144.0
 40
145.0
 40
145.0
 40
146.0
 40
146.0
 40
147.0
 40
147.0
 40
148.0
 40
148.0
 40
149.0
 40
149.0
 40
150.0
 40
150.0
 40
151.0
 40
151.0
 40
152.0
 40
152.0
 40
153.0
 40
153.0
 40
154.0
 40
154.0
 40
155.0
 40
155.0
 40
156.0
 40
156.0
 40
157.0
 40
157.0
 40
158.0
 40
158.0
 40
159.0
 40
159.0
 40
160.0
 40
160.0
 40
161.0
 40
161.0
 40
162.0
 40
162.0
 40
163.0
 40
163.0
 40
164.0
 40
164.0
 40
165.0
 40
165.0
 40
166.0
 40
166.0
 40
167.0
 40
167.0
 40
168.0
 40
168.0
 40
169.0
 40
169.0
 40
170.0
 40
170.0
 40
171.0
 40
171.0
 40
172.0
 40
172.0
 40
173.0
 40
173.0
 40
174.0
 40
174.0
 40
175.0
 40
175.0
 40
176.0
 40
176.0
 40
177.0
 40
177.0
 40
178.0
 40
178.0
 40
179.0
 40
179.0
 40
180.0
 40
180.0
 40
181.0
 40
181.0
 40
182.0
 40
182.0
 40
183.0
 40
183.0
 40
184.0
 40
184.0
 40
185.0
 40
185.0
 40
186.0
 40
186.0
 40
187.0
 40
187.0
 40
188.0
 40
188.0
 40
189.0
 40
189.0
 40
190.0
 40
190.0
 40
191.0
 40
191.0
 40
192.0
 40
192.0
 40
193.0
 40
193.0
 40
194.0
 40
194.0
 40
195.0
 40
195.0
 40
196.0
 40
196.0
 40
197.0
 40
197.0
 40
198.0
 40
198.0
 40
199.0
 40
199.0
 40
200.0
 40
200.0
 40
201.0
 40
201.0
 40
202.0
 40
202.0
 40
203.0
 40
203.0
 40
204.0
 40
204.0
 40
205.0
 40
205.0
 40
206.0
 40
206.0
 40
207.0
 40
207.0
 40
208.0
 40
208.0
 40
209.0
 40
209.0
 40
210.0
 40
210.0
 40
211.0
 40
211.0
 40
212.0
 40
212.0
 40
213.0
 40
213.0
 40
214.0
 40
214.0
 40
215.0
 40
215.0
 40
216.0
 40
216.0
 40
217.0
 40
217.0
 40
218.0
 40
218.0
 40
219.0
 40
219.0
 40
220.0
 40
220.0
 40
221.0
 40
221.0
 40
222.0
 40
222.0
 40
223.0
 40
223.0
 40
224.0
 40
224.0
 40
225.0
 40
225.0
 40
226.0
 40
226.0
 40
227.0
 40
227.0
 40
228.0
 40
228.0
 40
229.0
 40
229.0
 40
230.0
 40
230.0
 40
231.0
 40
231.0
 40
232.0
 40
232.0
 40
233.0
 40
233.0
 40
234.0
 40
234.0
 40
235.0
 40
235.0
 40
236.0
 40
236.0
 40
237.0
 40
237.0
 40
238.0
 40
238.0
 40
239.0
 40
239.0
 40
240.0
 40
240.0
 40
241.0
 40
241.0
 40
242.0
 40
242.0
 40
243.0
 40
243.0
 40
244.0
 40
244.0
 40
245.0
 40
245.0
 40
246.0
 40
246.0
 40
247.0
 40
247.0
 40
248.0
 40
248.0
 40
249.0
 40
249.0
 40
250.0
 40
250.0
 40
251.0
 40
251.0
 40
252.0
 40
252.0
 40
253.0
 40
253.0
 40
254.0
 40
254.0
 40
255.0
 40
255.0
 40
256.0
 40
256.0
 40
257.0
 40
257.0
 40
258.0
 40
258.0
 40
259.0
 40
259.0
 40
260.0
 40
260.0
 40
261.0
 40
261.0
 40
262.0
 40
262.0
 40
263.0
 40
263.0
 40
264.0
 40
264.0
 40
265.0
 40
265.0
 40
266.0
 40
266.0
 40
267.0
 40
267.0
 40
268.0
 40
268.0
 40
269.0
 40
269.0
 40
270.0
 40
270.0
 40
271.0
 40
271.0
 40
272.0
 40
272.0
 40
273.0
 40
273.0
 40
274.0
 40
274.0
 40
275.0
 40
275.0
 40
276.0
 40
276.0
 40
277.0
 40
277.0
 40
278.0
 40
278.0
 40
279.0
 40
279.0
 40
280.0
 40
280.0
 40
281.0
 40
281.0
 40
282.0
 40
282.0
 40
283.0
 40
283.0
 40
284.0
 40
284.0
 40
285.0
 40
285.0
 40
286.0
 40
286.0
 40
287.0
 40
287.0
 40
288.0
 40
288.0
 40
289.0
 40
289.0
 40
290.0
 40
290.0
 40
291.0
 40
291.0
 40
292.0
 40
292.0
 40
293.0
 40
293.0
 40
294.0
 40
294.0
 40
295.0
 40
295.0
 40
296.0
 40
296.0
 40
297.0
 40
297.0
 40
298.0
 40
298.0
 40
299.0
 40
299.0
 40
300.0
 40
300.0
 40
301.0
 40
301.0
 40
302.0
 40
302.0
 40
303.0
 40
303.0
 40
304.0
 40
304.0
 40
305.0
 40
305.0
 40
306.0
 40
306.0
 40
307.0
 40
307.0
 40
308.0
 40
308.0
 40
309.0
 40
309.0
 40
310.0
 40
310.0
 40
311.0
 40
311.0
 40
312.0
 40
312.0
 40
313.0
 40
313.0
 40
314.0
 40
314.0
 40
315.0
 40
315.0
 40
316.0
 40
316.0
 40
317.0
 40
317.0
 40
318.0
 40
318.0
 40
319.0
 40
319.0
 40
320.0
 40
320.0
 40
321.0
 40
321.0
 40
322.0
 40
322.0
 40
323.0
 40
323.0
 40
324.0
 40
324.0
 40
325.0
 40
325.0
 40
326.0
 40
326.0
 40
327.0
 40
327.0
 40
328.0
 40
328.0
 40
329.0
 40
329.0
 40
330.0
 40
330.0
 40
331.0
 40
331.0
 40
332.0
 40
332.0
 40
333.0
 40
333.0
 40
334.0
 40
334.0
 40
335.0
 40
335.0
 40
336.0
 40
336.0
 40
337.0
 40
337.0
 40
338.0
 40
338.0
 40
339.0
 40
339.0
 40
340.0
 40
340.0
 40
341.0
 40
341.0
 40
342.0
 40
342.0
 40
343.0
 40
343.0
 40
344.0
 40
344.0
 40
345.0
 40
345.0
 40
346.0
 40
346.0
 40
347.0
 40
347.0
 40
348.0
 40
348.0
 40
349.0
 40
349.0
 40
350.0
 40
350.0
 40
351.0
 40
351.0
 40
352.0
 40
352.0
 40
353.0
 40
353.0
 40
354.0
 40
354.0
 40
355.0
 40
355.0
 40
356.0
 40
356.0
 40
357.0
 40
357.0
 40
358.0
 40
358.0
 40
359.0
 40
359.0
 40
360.0
 40
360.0
 40
361.0
 40
361.0
 40
362.0
 40
362.0
 40
363.0
 40
363.0
 40
364.0
 40
364.0
 40
365.0
 40
365.0
 40
366.0
 40
366.0
 40
367.0
 40
367.0
 40
368.0
 40
368.0
 40
369.0
 40
369.0
 40
370.0
 40
370.0
 40
371.0
 40
371.0
 40
372.0
 40
372.0
 40
373.0
 40
373.0
 40
374.0
 40
374.0
 40
375.0
 40
375.0
 40
376.0
 40
376.0
 40
377.0
 40
377.0
 40
378.0
 40
378.0
 40
379.0
 40
379.0
 40
380.0
 40
380.0
 40
381.0
 40
381.0
 40
382.0
 40
382.0
 40
383.0
 40
383.0
 40
384.0
 40
384.0
 40
385.0
 40
385.0
 40
386.0
 40
386.0
 40
387.0
 40
387.0
 40
388.0
 40
388.0
 40
389.0
 40
389.0
 40
389.0
 10
930.2998716488114
 20
-1344.2834283911473
 30
0.0
 41
1.0
 10
931.11829575753177
 20
-1344.2834283911473
 30
0.0
 41
1.0
 10
931.93671986625236
 20
-1344.2834283911473
 30
0.0
 41
1.0
 10
931.52296613073554
 20
-1345.626054655397
 30
0.0
 41
1.0
 10
931.10921239521872
 20
-1346.9686809196467
 30
0.0
 41
1.0
 10
931.12755189041513
 20
-1346.9399801466907
 30
0.0
 41
0.9999957264415196
 10
931.14605888725828
 20
-1346.9113870965209
 30
0.0
 41
1.0
 10
931.17648821137527
 20
-1346.8643742181769
 30
0.0
 41
1.0
 10
931.20691753549204
 20
-1346.8173613398328
 30
0.0
 41
1.0
 10
931.28628318059828
 20
-1346.6947425329292
 30
0.0
 41
0.9995394069080912
 10
931.37294157215069
 20
-1346.577164471187
 30
0.0
 41
1.0
 10
931.40869843441101
 20
-1346.5286495785926
 30
0.0
 41
1.0
 10
931.44445529667109
 20
-1346.4801346859986
 30
0.0
 41
1.0
 10
931.5781819644892
 20
-1346.298694410872
 30
0.0
 41
0.9994460617143478
 10
931.72368244577569
 20
-1346.1265520132242
 30
0.0
 41
1.0
 10
931.72807062675224
 20
-1346.1213603328397
 30
0.0
 41
1.0
 10
931.73245880772879
 20
-1346.1161686524554
 30
0.0
 41
1.0
 10
931.86918292706446
 20
-1345.9544096155739
 30
0.0
 41
0.9994359394934225
 10
932.01645715741506
 20
-1345.8021934144101
 30
0.0
 41
1.0
 10
932.01884051136858
 20
-1345.7997300840366
 30
0.0
 41
1.0
 10
932.02122386532233
 20
-1345.7972667536631
 30
0.0
 41
1.0
 10
932.16373138776521
 20
-1345.6499772132465
 30
0.0
 41
0.9995293688568138
 10
932.31500306874864
 20
-1345.5117040010814
 30
0.0
 41
1.0
 10
932.33429682801011
 20
-1345.4940681154319
 30
0.0
 41
1.0
 10
932.35359058727158
 20
-1345.4764322297824
 30
0.0
 41
1.0
 10
932.46627474972843
 20
-1345.3734307889192
 30
0.0
 41
0.9997087614803856
 10
932.58379763868584
 20
-1345.2759865081193
 30
0.0
 41
1.0
 10
932.60296371186564
 20
-1345.2600949296079
 30
0.0
 41
1.0
 10
932.62212978504544
 20
-1345.2442033510963
 30
0.0
 41
1.0
 10
932.70132052764211
 20
-1345.1785422273203
 30
0.0
 41
0.9999595338696479
 10
932.78167979849604
 20
-1345.1143164966666
 30
0.0
 41
1.0
 10
932.86203906935475
 20
-1345.0500907660089
 30
0.0
 41
0.9999749417508532
 10
932.94329960371124
 20
-1344.9870092120523
 30
0.0
 41
1.0
 10
932.96428574987658
 20
-1344.9707179247484
 30
0.0
 41
1.0
 10
932.9852718960417
 20
-1344.9544266374448
 30
0.0
 41
1.0
 10
933.06983978133326
 20
-1344.8887776276117
 30
0.0
 41
0.9999792037128117
 10
933.15524738109707
 20
-1344.8242248459724
 30
0.0
 41
1.0
 10
933.17607220693276
 20
-1344.8084850237719
 30
0.0
 41
1.0
 10
933.19689703276845
 20
-1344.7927452015715
 30
0.0
 41
1.0
 10
933.24065498076266
 20
-1344.7596720644074
 30
0.0
 41
0.9999993374142183
 10
933.28433666700971
 20
-1344.7264982689048
 30
0.0
 41
1.0
 10
933.32801835314513
 20
-1344.6933244734864
 30
0.0
 41
0.999916095381571
 10
933.37254476405769
 20
-1344.6612934082934
 30
0.0
 41
1.0
 10
933.40536665148466
 20
-1344.6376822527031
 30
0.0
 41
1.0
 10
933.43818853891139
 20
-1344.6140710971126
 30
0.0
 41
1.0
 10
933.54835872466992
 20
-1344.534817720745
 30
0.0
 41
0.9980964527232353
 10
933.66744771817025
 20
-1344.4697302478889
 30
0.0
 41
1.0
 10
933.70448032509876
 20
-1344.4494902682954
 30
0.0
 41
1.0
 10
933.74151293202726
 20
-1344.4292502887022
 30
0.0
 41
1.0
 10
933.9208399452998
 20
-1344.3312400380014
 30
0.0
 41
0.9984572810572853
 10
934.10992851165884
 20
-1344.2537177766549
 30
0.0
 41
1.0
 10
934.11357478105606
 20
-1344.2522228843163
 30
0.0
 41
1.0
 10
934.11722105045328
 20
-1344.2507279919778
 30
0.0
 41
1.0
 10
934.29901707801878
 20
-1344.1761955153083
 30
0.0
 41
0.9987838528034378
 10
934.48726973657699
 20
-1344.1199298751428
 30
0.0
 41
1.0
 10
934.49150768577488
 20
-1344.1186632214528
 30
0.0
 41
1.0
 10
934.49574563497276
 20
-1344.1173965677629
 30
0.0
 41
1.0
 10
934.67552239513498
 20
-1344.0636642349773
 30
0.0
 41
0.9990652816207152
 10
934.85926832685209
 20
-1344.025660555435
 30
0.0
 41
1.0
 10
934.86445672788227
 20
-1344.0245874523289
 30
0.0
 41
1.0
 10
934.86964512891245
 20
-1344.0235143492225
 30
0.0
 41
1.0
 10
935.0430142585667
 20
-1343.9876568758932
 30
0.0
 41
0.9992909934269906
 10
935.21859002502629
 20
-1343.9649464434265
 30
0.0
 41
1.0
 10
935.39416579148474
 20
-1343.94223601096
 30
0.0
 41
0.9994553539448537
 10
935.57085722457782
 20
-1343.9311567067537
 30
0.0
 41
1.0
 10
935.60629163237377
 20
-1343.9289348187058
 30
0.0
 41
1.0
 10
935.64172604016971
 20
-1343.9267129306581
 30
0.0
 41
1.0
 10
935.80795180673863
 20
-1343.9162898682464
 30
0.0
 41
0.9990928098292949
 10
935.97446159864103
 20
-1343.920049509481
 30
0.0
 41
1.0
 10
936.0130234339133
 20
-1343.920920201014
 30
0.0
 41
1.0
 10
936.05158526918558
 20
-1343.9217908925471
 30
0.0
 41
1.0
 10
936.14097139054411
 20
-1343.9238091507154
 30
0.0
 41
0.9998382089204494
 10
936.23022707332984
 20
-1343.9290412772434
 30
0.0
 41
1.0
 10
936.23065697954871
 20
-1343.9290664781456
 30
0.0
 41
1.0
 10
936.23108688576758
 20
-1343.9290916790478
 30
0.0
 41
1.0
 10
936.31948275611489
 20
-1343.9342734037714
 30
0.0
 41
0.9997558016759395
 10
936.40756333331683
 20
-1343.943355919138
 30
0.0
 41
1.0
 10
936.40803947174618
 20
-1343.9434050166205
 30
0.0
 41
1.0
 10
936.4085156101753
 20
-1343.9434541141029
 30
0.0
 41
1.0
 10
936.4956439105174
 20
-1343.9524384345045
 30
0.0
 41
0.9996565144181567
 10
936.58218176385981
 20
-1343.9659757411937
 30
0.0
 41
1.0
 10
936.58264768923527
 20
-1343.9660486269247
 30
0.0
 41
1.0
 10
936.58311361461051
 20
-1343.9661215126557
 30
0.0
 41
1.0
 10
936.66871961719971
 20
-1343.9795130478822
 30
0.0
 41
0.9995321806866595
 10
936.75334669752965
 20
-1343.9981135363118
 30
0.0
 41
1.0
 10
936.75373589210221
 20
-1343.9981990787778
 30
0.0
 41
1.0
 10
936.75412508667478
 20
-1343.9982846212438
 30
0.0
 41
1.0
 10
936.83797377785822
 20
-1344.0167140247413
 30
0.0
 41
0.9993819199220153
 10
936.92032031205395
 20
-1344.0409894080017
 30
0.0
 41
1.0
 10
936.92055874555308
 20
-1344.0410596971115
 30
0.0
 41
1.0
 10
936.92079717905222
 20
-1344.041129986221
 30
0.0
 41
1.0
 10
937.00266684625126
 20
-1344.065264791263
 30
0.0
 41
0.999208856850645
 10
937.08235936523829
 20
-1344.0958300270568
 30
0.0
 41
1.0
 10
937.16204035611736
 20
-1344.1263896277901
 30
0.0
 41
0.9990226101773349
 10
937.23871102602448
 20
-1344.1638670594048
 30
0.0
 41
1.0
 10
937.31537016782295
 20
-1344.2013388559583
 30
0.0
 41
0.9988424273972705
 10
937.38807379503442
 20
-1344.2460036312104
 30
0.0
 41
1.0
 10
937.38834150341404
 20
-1344.2461680952829
 30
0.0
 41
1.0
 10
937.38860921179366
 20
-1344.2463325593553
 30
0.0
 41
1.0
 10
937.46184825576483
 20
-1344.2913262627528
 30
0.0
 41
0.9986928844491333
 10
937.53011112247395
 20
-1344.3435619970321
 30
0.0
 41
1.0
 10
937.53069241469689
 20
-1344.34400681026
 30
0.0
 41
1.0
 10
937.53127370691982
 20
-1344.3444516234881
 30
0.0
 41
1.0
 10
937.60069915807594
 20
-1344.3975769842243
 30
0.0
 41
0.9986007262279092
 10
937.66412532784216
 20
-1344.4577377539172
 30
0.0
 41
1.0
 10
937.66501974329935
 20
-1344.4585861217522
 30
0.0
 41
1.0
 10
937.66591415875632
 20
-1344.4594344895872
 30
0.0
 41
1.0
 10
937.73112915943807
 20
-1344.5212919949515
 30
0.0
 41
0.9985581491382116
 10
937.78933677113923
 20
-1344.5897844852225
 30
0.0
 41
1.0
 10
937.79859522473498
 20
-1344.6006788429243
 30
0.0
 41
1.0
 10
937.80785367833073
 20
-1344.611573200626
 30
0.0
 41
1.0
 10
937.88457819722453
 20
-1344.7018544063021
 30
0.0
 41
0.9970460233520673
 10
937.94657009838375
 20
-1344.8028214904837
 30
0.0
 41
1.0
 10
937.96103946346352
 20
-1344.8263879495653
 30
0.0
 41
1.0
 10
937.9755088285433
 20
-1344.8499544086469
 30
0.0
 41
1.0
 10
938.01524552855449
 20
-1344.9146741326767
 30
0.0
 41
0.9988468816636217
 10
938.0485918993063
 20
-1344.9829065851047
 30
0.0
 41
1.0
 10
938.05562792179717
 20
-1344.9973035062408
 30
0.0
 41
1.0
 10
938.06266394428803
 20
-1345.011700427377
 30
0.0
 41
1.0
 10
938.08193827005698
 20
-1345.0511390375307
 30
0.0
 41
0.9998431189999509
 10
938.09980359755286
 20
-1345.0912355919731
 30
0.0
 41
1.0
 10
938.11766892505534
 20
-1345.1313321464306
 30
0.0
 41
0.9999989989856564
 10
938.13564764848888
 20
-1345.17137798404
 30
0.0
 41
1.0
 10
938.14181996007369
 20
-1345.1851262008313
 30
0.0
 41
1.0
 10
938.14799227165827
 20
-1345.1988744176228
 30
0.0
 41
1.0
 10
938.17831561826756
 20
-1345.2664166888292
 30
0.0
 41
0.9998790356321446
 10
938.20652349840452
 20
-1345.3348694407641
 30
0.0
 41
1.0
 10
938.21335867968924
 20
-1345.3514565421922
 30
0.0
 41
1.0
 10
938.22019386097372
 20
-1345.3680436436202
 30
0.0
 41
1.0
 10
938.24375152335506
 20
-1345.4252115985075
 30
0.0
 41
0.9998227574561257
 10
938.26514027174494
 20
-1345.4832259067871
 30
0.0
 41
1.0
 10
938.28652902013346
 20
-1345.5412402150616
 30
0.0
 41
0.9996797971041002
 10
938.30495530509302
 20
-1345.6002623341808
 30
0.0
 41
1.0
 10
938.30885910781876
 20
-1345.6127667923506
 30
0.0
 41
1.0
 10
938.31276291054451
 20
-1345.6252712505204
 30
0.0
 41
1.0
 10
938.33899680095487
 20
-1345.7093022859767
 30
0.0
 41
0.9979274938734666
 10
938.35422132443387
 20
-1345.796006644636
 30
0.0
 41
1.0
 10
938.35644501169486
 20
-1345.8086706454555
 30
0.0
 41
1.0
 10
938.35866869895563
 20
-1345.8213346462751
 30
0.0
 41
1.0
 10
938.36959863865422
 20
-1345.8835811535671
 30
0.0
 41
0.9994985982138278
 10
938.37656680383157
 20
-1345.9463946547112
 30
0.0
 41
1.0
 10
938.38353496900868
 20
-1346.0092081558537
 30
0.0
 41
0.9996372611200959
 10
938.38711083477642
 20
-1346.0723057345372
 30
0.0
 41
1.0
 10
938.3872794122658
 20
-1346.0752803516184
 30
0.0
 41
1.0
 10
938.38744798975495
 20
-1346.0782549686999
 30
0.0
 41
1.0
 10
938.39136101050144
 20
-1346.147301781547
 30
0.0
 41
0.9997730630736205
 10
938.39232932398954
 20
-1346.2164526055863
 30
0.0
 41
1.0
 10
938.39238643040767
 20
-1346.220530784725
 30
0.0
 41
1.0
 10
938.39244353682557
 20
-1346.2246089638638
 30
0.0
 41
1.0
 10
938.39352606314992
 20
-1346.3019161461848
 30
0.0
 41
0.9998772614070829
 10
938.39218597641798
 20
-1346.3792192927522
 30
0.0
 41
1.0
 10
938.39209671321942
 20
-1346.3843684565841
 30
0.0
 41
1.0
 10
938.39200745002063
 20
-1346.389517620416
 30
0.0
 41
1.0
 10
938.39048883689134
 20
-1346.4771190946517
 30
0.0
 41
0.9999415567324228
 10
938.38707652664539
 20
-1346.564667256328
 30
0.0
 41
1.0
 10
938.3868352059701
 20
-1346.5708587160639
 30
0.0
 41
1.0
 10
938.38659388529481
 20
-1346.5770501758
 30
0.0
 41
1.0
 10
938.38269893369738
 20
-1346.6769812569614
 30
0.0
 41
0.9999716810426355
 10
938.37730035057848
 20
-1346.7768423952002
 30
0.0
 41
1.0
 10
938.37408755179013
 20
-1346.8362716448494
 30
0.0
 41
1.0
 10
938.37087475300177
 20
-1346.8957008944985
 30
0.0
 41
1.0
 10
938.36280084384953
 20
-1347.0450492957764
 30
0.0
 41
0.9999819129896909
 10
938.35293105223286
 20
-1347.1942897734855
 30
0.0
 41
1.0
 10
938.34306126061642
 20
-1347.3435302511969
 30
0.0
 41
1.0
 10
938.34062194005242
 20
-1347.3807232970462
 30
0.0
 41
1.0
 10
938.36332017390691
 20
-1347.3419822996771
 30
0.0
 41
0.9999982128112354
 10
938.38616473266939
 20
-1347.3033274057068
 30
0.0
 41
1.0
 10
938.41307429253902
 20
-1347.2577941916775
 30
0.0
 41
1.0
 10
938.43998385240866
 20
-1347.2122609776482
 30
0.0
 41
1.0
 10
938.51664753093473
 20
-1347.0825396555781
 30
0.0
 41
0.9998609190058647
 10
938.59759484379788
 20
-1346.9554472736468
 30
0.0
 41
1.0
 10
938.62724316527715
 20
-1346.9088975406933
 30
0.0
 41
1.0
 10
938.65689148675642
 20
-1346.8623478077398
 30
0.0
 41
1.0
 10
938.73916370699544
 20
-1346.7331752377413
 30
0.0
 41
0.9999067609731949
 10
938.82493271646081
 20
-1346.6062975482982
 30
0.0
 41
1.0
 10
938.82733741966604
 20
-1346.6027402822372
 30
0.0
 41
1.0
 10
938.82974212287104
 20
-1346.5991830161761
 30
0.0
 41
1.0
 10
938.91070172593049
 20
-1346.4794198588493
 30
0.0
 41
0.9998784952151213
 10
938.99535533560629
 20
-1346.3622386421484
 30
0.0
 41
1.0
 10
939.08000894528618
 20
-1346.2450574254417
 30
0.0
 41
0.9998532968283316
 10
939.16862656610351
 20
-1346.1308445169777
 30
0.0
 41
1.0
 10
939.18858835509764
 20
-1346.1051171959539
 30
0.0
 41
1.0
 10
939.20855014409176
 20
-1346.0793898749298
 30
0.0
 41
1.0
 10
939.32703419385166
 20
-1345.9266842639597
 30
0.0
 41
0.9991551975795044
 10
939.45765864347482
 20
-1345.7842247018768
 30
0.0
 41
1.0
 10
939.46116825945455
 20
-1345.7803971002527
 30
0.0
 41
1.0
 10
939.46467787543406
 20
-1345.7765694986283
 30
0.0
 41
1.0
 10
939.58828309309797
 20
-1345.6417651397937
 30
0.0
 41
0.9997418144181497
 10
939.71788523279884
 20
-1345.5127157291809
 30
0.0
 41
1.0
 10
939.84748737249993
 20
-1345.383666318568
 30
0.0
 41
0.9989238204633263
 10
939.98848992075227
 20
-1345.267181356528
 30
0.0
 41
1.0
 10
940.03373759889109
 20
-1345.2298013649197
 30
0.0
 41
1.0
 10
940.07898527702991
 20
-1345.1924213733116
 30
0.0
 41
1.0
 10
940.21922533425027
 20
-1345.0765663200216
 30
0.0
 41
0.9990825084096641
 10
940.36886526685498
 20
-1344.973137322188
 30
0.0
 41
1.0
 10
940.37891063091138
 20
-1344.966194109109
 30
0.0
 41
1.0
 10
940.38895599496777
 20
-1344.9592508960297
 30
0.0
 41
1.0
 10
940.51850519945697
 20
-1344.8697083243562
 30
0.0
 41
0.9998164899826874
 10
940.65138940283509
 20
-1344.7851940828386
 30
0.0
 41
1.0
 10
940.66323496336008
 20
-1344.7776603163138
 30
0.0
 41
1.0
 10
940.67508052388484
 20
-1344.7701265497888
 30
0.0
 41
1.0
 10
940.78427360620958
 20
-1344.7006798413236
 30
0.0
 41
0.9997473449130626
 10
940.89647756346085
 20
-1344.6362108835067
 30
0.0
 41
1.0
 10
941.00868152070939
 20
-1344.5717419256916
 30
0.0
 41
0.9999327861146483
 10
941.12235013147733
 20
-1344.5098919340076
 30
0.0
 41
1.0
 10
941.12290213403639
 20
-1344.5095915753295
 30
0.0
 41
1.0
 10
941.12345413659523
 20
-1344.5092912166513
 30
0.0
 41
1.0
 10
941.23822675248084
 20
-1344.4468405076111
 30
0.0
 41
0.9996956420484349
 10
941.35594007831992
 20
-1344.390127040637
 30
0.0
 41
1.0
 10
941.38638048321195
 20
-1344.3754610639073
 30
0.0
 41
1.0
 10
941.41682088810421
 20
-1344.3607950871776
 30
0.0
 41
1.0
 10
941.51979799484889
 20
-1344.3111814287338
 30
0.0
 41
0.9998070570177154
 10
941.62464438379061
 20
-1344.2656508418322
 30
0.0
 41
1.0
 10
941.72949077273256
 20
-1344.2201202549309
 30
0.0
 41
0.9997827436148085
 10
941.83614370934515
 20
-1344.178999083618
 30
0.0
 41
1.0
 10
941.85536655897477
 20
-1344.1715875099862
 30
0.0
 41
1.0
 10
941.87458940860415
 20
-1344.1641759363547
 30
0.0
 41
1.0
 10
942.01968804447597
 20
-1344.1082316177783
 30
0.0
 41
0.9988031841976239
 10
942.16955840707988
 20
-1344.0667315536109
 30
0.0
 41
1.0
 10
942.19447565544374
 20
-1344.0598318078037
 30
0.0
 41
1.0
 10
942.2193929038076
 20
-1344.0529320619967
 30
0.0
 41
1.0
 10
942.38666292945481
 20
-1344.0066139195897
 30
0.0
 41
0.9984748040549795
 10
942.55801983810397
 20
-1343.9790196873248
 30
0.0
 41
1.0
 10
942.56275897435262
 20
-1343.9782565268115
 30
0.0
 41
1.0
 10
942.56749811060126
 20
-1343.9774933662979
 30
0.0
 41
1.0
 10
942.72937674675268
 20
-1343.95142545506
 30
0.0
 41
0.998443649547978
 10
942.89315149047775
 20
-1343.9435475012413
 30
0.0
 41
1.0
 10
942.91484869861029
 20
-1343.9425038140416
 30
0.0
 41
1.0
 10
942.93654590674259
 20
-1343.9414601268418
 30
0.0
 41
1.0
 10
943.0569262342035
 20
-1343.9356695474225
 30
0.0
 41
0.9987954789335666
 10
943.17729447911233
 20
-1343.9417060751648
 30
0.0
 41
1.0
 10
943.19725927160903
 20
-1343.9427073195034
 30
0.0
 41
1.0
 10
943.21722406410572
 20
-1343.9437085638422
 30
0.0
 41
1.0
 10
943.29766272402435
 20
-1343.9477426029073
 30
0.0
 41
0.9997941595877162
 10
943.3778715021167
 20
-1343.9550366688281
 30
0.0
 41
1.0
 10
943.45808028020747
 20
-1343.9623307347488
 30
0.0
 41
0.9998589466236795
 10
943.5379988270588
 20
-1343.9723145891985
 30
0.0
 41
1.0
 10
943.57040502887071
 20
-1343.9763629461181
 30
0.0
 41
1.0
 10
943.60281123068262
 20
-1343.9804113030377
 30
0.0
 41
1.0
 10
943.7475421811555
 20
-1343.9984918713265
 30
0.0
 41
0.9993495063249314
 10
943.89059342492283
 20
-1344.0269575810685
 30
0.0
 41
1.0
 10
943.92352712207162
 20
-1344.0335110442825
 30
0.0
 41
1.0
 10
943.95646081922018
 20
-1344.0400645074967
 30
0.0
 41
1.0
 10
944.0657546424261
 20
-1344.0618128416324
 30
0.0
 41
0.9996788715560626
 10
944.17380621438474
 20
-1344.0890706409959
 30
0.0
 41
1.0
 10
944.17586921692418
 20
-1344.089591067569
 30
0.0
 41
1.0
 10
944.1779322194634
 20
-1344.0901114941421
 30
0.0
 41
1.0
 10
944.28185778634179
 20
-1344.1163284403592
 30
0.0
 41
0.999548065449255
 10
944.38402002157045
 20
-1344.1487433969833
 30
0.0
 41
1.0
 10
944.38570966370048
 20
-1344.1492795018976
 30
0.0
 41
1.0
 10
944.38739930583051
 20
-1344.1498156068117
 30
0.0
 41
1.0
 10
944.4861822568007
 20
-1344.181158353608
 30
0.0
 41
0.99938679594567
 10
944.58252941524256
 20
-1344.2193377228975
 30
0.0
 41
1.0
 10
944.58377236432739
 20
-1344.2198302647939
 30
0.0
 41
1.0
 10
944.58501531341244
 20
-1344.2203228066901
 30
0.0
 41
1.0
 10
944.67887657368419
 20
-1344.2575170921868
 30
0.0
 41
0.9992050256521704
 10
944.76947624871832
 20
-1344.302070991426
 30
0.0
 41
1.0
 10
944.77021093143094
 20
-1344.3024322838869
 30
0.0
 41
1.0
 10
944.77094561414356
 20
-1344.3027935763478
 30
0.0
 41
1.0
 10
944.86007592375154
 20
-1344.3466248906648
 30
0.0
 41
0.9990222350741962
 10
944.94498598514542
 20
-1344.398158158363
 30
0.0
 41
1.0
 10
944.94516987042766
 20
-1344.3982697612676
 30
0.0
 41
1.0
 10
944.9453537557099
 20
-1344.3983813641721
 30
0.0
 41
1.0
 10
945.02989604653931
 20
-1344.4496914260617
 30
0.0
 41
0.9988642743805265
 10
945.10917058115797
 20
-1344.5088156135866
 30
0.0
 41
1.0
 10
945.18844511577686
 20
-1344.5679398011116
 30
0.0
 41
0.9987681233310275
 10
945.26146890005361
 20
-1344.6346304925132
 30
0.0
 41
1.0
 10
945.2617978280191
 20
-1344.6349308937272
 30
0.0
 41
1.0
 10
945.26212675598481
 20
-1344.6352312949411
 30
0.0
 41
1.0
 10
945.33580839619367
 20
-1344.7025227887716
 30
0.0
 41
0.9987496570899374
 10
945.402402201521
 20
-1344.7768356028585
 30
0.0
 41
1.0
 10
945.40317437128078
 20
-1344.7776972762156
 30
0.0
 41
1.0
 10
945.40394654104057
 20
-1344.7785589495727
 30
0.0
 41
1.0
 10
945.47208468588883
 20
-1344.8545951103754
 30
0.0
 41
0.9988147669827443
 10
945.53250694011376
 20
-1344.9368961172177
 30
0.0
 41
1.0
 10
945.5336262661915
 20
-1344.93842074857
 30
0.0
 41
1.0
 10
945.53474559226925
 20
-1344.9399453799226
 30
0.0
 41
1.0
 10
945.59740649864921
 20
-1345.0252956494696
 30
0.0
 41
0.9989452636215835
 10
945.65197341161024
 20
-1345.1160343386266
 30
0.0
 41
1.0
 10
945.65332213769625
 20
-1345.1182771196536
 30
0.0
 41
1.0
 10
945.65467086378226
 20
-1345.1205199006804
 30
0.0
 41
1.0
 10
945.71193522891485
 20
-1345.21574415189
 30
0.0
 41
0.9991046436070096
 10
945.76094444223622
 20
-1345.3154685849152
 30
0.0
 41
1.0
 10
945.76240830382653
 20
-1345.3184472649882
 30
0.0
 41
1.0
 10
945.76387216541661
 20
-1345.321425945061
 30
0.0
 41
1.0
 10
945.81580910191838
 20
-1345.4271077382316
 30
0.0
 41
0.9992763831101544
 10
945.85956223047333
 20
-1345.5364318001871
 30
0.0
 41
1.0
 10
945.86104150013671
 20
-1345.5401279877208
 30
0.0
 41
1.0
 10
945.86252076980008
 20
-1345.5438241752545
 30
0.0
 41
1.0
 10
945.90923243768248
 20
-1345.6605406122792
 30
0.0
 41
0.9994163472883221
 10
945.94786546887144
 20
-1345.7801742007416
 30
0.0
 41
1.0
 10
945.94910362111841
 20
-1345.7840083445246
 30
0.0
 41
1.0
 10
945.95034177336515
 20
-1345.7878424883077
 30
0.0
 41
1.0
 10
945.99022533438165
 20
-1345.9113485497835
 30
0.0
 41
0.9997268055890486
 10
946.02429339029436
 20
-1346.0365835817363
 30
0.0
 41
1.0
 10
946.02522357056455
 20
-1346.0400029478471
 30
0.0
 41
1.0
 10
946.02615375083451
 20
-1346.043422313958
 30
0.0
 41
1.0
 10
946.05836144620662
 20
-1346.1618186136884
 30
0.0
 41
0.9996701319000485
 10
946.08444706297678
 20
-1346.2817125669503
 30
0.0
 41
1.0
 10
946.11053267974785
 20
-1346.4016065202172
 30
0.0
 41
0.9995785451109926
 10
946.12961625708817
 20
-1346.5228122812528
 30
0.0
 41
1.0
 10
946.13383603926127
 20
-1346.5496134360139
 30
0.0
 41
1.0
 10
946.13805582143436
 20
-1346.5764145907751
 30
0.0
 41
1.0
 10
946.16463079737287
 20
-1346.7452005644786
 30
0.0
 41
0.9979925101217007
 10
946.1696563832993
 20
-1346.9159918925702
 30
0.0
 41
1.0
 10
946.17048119572405
 20
-1346.94402261605
 30
0.0
 41
1.0
 10
946.17130600814858
 20
-1346.9720533395298
 30
0.0
 41
1.0
 10
946.17468196922596
 20
-1347.08678322066
 30
0.0
 41
0.9995314902262579
 10
946.17103177708714
 20
-1347.2015047044138
 30
0.0
 41
1.0
 10
946.167381584949
 20
-1347.3162261881639
 30
0.0
 41
0.9996245486943731
 10
946.15745248981807
 20
-1347.430575459287
 30
0.0
 41
1.0
 10
946.15728944182388
 20
-1347.4324532154237
 30
0.0
 41
1.0
 10
946.15712639382946
 20
-1347.4343309715603
 30
0.0
 41
1.0
 10
946.14687120270969
 20
-1347.5524357549568
 30
0.0
 41
0.9997286095001295
 10
946.13112587913884
 20
-1347.6699346638475
 30
0.0
 41
1.0
 10
946.13073238648849
 20
-1347.6728710885504
 30
0.0
 41
1.0
 10
946.13033889383792
 20
-1347.6758075132532
 30
0.0
 41
1.0
 10
946.11380658496591
 20
-1347.7991792715518
 30
0.0
 41
0.9998265533969647
 10
946.09269112623315
 20
-1347.9218497463398
 30
0.0
 41
1.0
 10
946.09201458409598
 20
-1347.9257801248475
 30
0.0
 41
1.0
 10
946.09133804195881
 20
-1347.9297105033552
 30
0.0
 41
1.0
 10
946.06886949895147
 20
-1348.0602417351606
 30
0.0
 41
0.9999022530854445
 10
946.04276003434143
 20
-1348.1900937037992
 30
0.0
 41
1.0
 10
946.04178139317628
 20
-1348.1949608461855
 30
0.0
 41
1.0
 10
946.04080275201113
 20
-1348.1998279885715
 30
0.0
 41
1.0
 10
946.0127360050692
 20
-1348.3394142419907
 30
0.0
 41
0.9999524761936938
 10
945.98195303623584
 20
-1348.478426735149
 30
0.0
 41
1.0
 10
945.98067692906034
 20
-1348.4841894944516
 30
0.0
 41
1.0
 10
945.97940082188484
 20
-1348.4899522537539
 30
0.0
 41
1.0
 10
945.94606563869979
 20
-1348.6404902655211
 30
0.0
 41
0.9999813588727876
 10
945.91089463789967
 20
-1348.7906099781944
 30
0.0
 41
1.0
 10
945.9093407124451
 20
-1348.7972425686091
 30
0.0
 41
1.0
 10
945.9077867869903
 20
-1348.8038751590238
 30
0.0
 41
1.0
 10
945.86950793527717
 20
-1348.9672600525423
 30
0.0
 41
0.999995523769549
 10
945.83025205730019
 20
-1349.1304129561336
 30
0.0
 41
1.0
 10
945.81797042166613
 20
-1349.1814571466552
 30
0.0
 41
1.0
 10
945.80568878603208
 20
-1349.2325013371772
 30
0.0
 41
1.0
 10
945.74186963679153
 20
-1349.4977426217936
 30
0.0
 41
0.9999993604477683
 10
945.67745068963654
 20
-1349.7628388724243
 30
0.0
 41
1.0
 10
945.67273185407862
 20
-1349.7822577805093
 30
0.0
 41
1.0
 10
945.6680130185207
 20
-1349.8016766885944
 30
0.0
 41
1.0
 10
945.59415640026054
 20
-1350.1056107553527
 30
0.0
 41
0.9999659914737111
 10
945.51529680437557
 20
-1350.4082853019104
 30
0.0
 41
1.0
 10
945.5103441154447
 20
-1350.4272944390941
 30
0.0
 41
1.0
 10
945.50539142651382
 20
-1350.4463035762776
 30
0.0
 41
1.0
 10
945.41662645277006
 20
-1350.7869963971909
 30
0.0
 41
0.999944197602444
 10
945.32068341980448
 20
-1351.1257378224973
 30
0.0
 41
1.0
 10
945.30398290137919
 20
-1351.1847015350243
 30
0.0
 41
1.0
 10
945.28728238295389
 20
-1351.2436652475512
 30
0.0
 41
1.0
 10
945.15793831314181
 20
-1351.7003340978968
 30
0.0
 41
0.9999625120728927
 10
945.02070554582133
 20
-1352.1546946318829
 30
0.0
 41
1.0
 10
944.98491560273396
 20
-1352.2731906585241
 30
0.0
 41
1.0
 10
944.94912565964682
 20
-1352.3916866851653
 30
0.0
 41
1.0
 10
944.87460545561021
 20
-1352.6384137632529
 30
0.0
 41
0.9999793386303909
 10
944.79691943247121
 20
-1352.8841624024938
 30
0.0
 41
1.0
 10
944.71923340933381
 20
-1353.1299110417299
 30
0.0
 41
1.0
 10
944.708453850463
 20
-1353.1639289461045
 30
0.0
 41
1.0
 10
942.85808079719391
 20
-1359.0510008685719
 30
0.0
 41
1.0
 10
941.00770774392481
 20
-1364.9380727910395
 30
0.0
 41
1.0
 10
940.04645105390114
 20
-1364.9380727910395
 30
0.0
 41
1.0
 10
939.08519436387769
 20
-1364.9380727910395
 30
0.0
 41
1.0
 10
940.70413914255596
 20
-1359.7900442892501
 30
0.0
 41
1.0
 10
942.32308392123446
 20
-1354.6420157874607
 30
0.0
 41
1.0
 10
942.36824974440538
 20
-1354.4979845652017
 30
0.0
 41
1.0
 10
942.41341556757629
 20
-1354.3539533429428
 30
0.0
 41
1.0
 10
942.5837199849384
 20
-1353.8108623137823
 30
0.0
 41
0.9999911657879025
 10
942.74945279662597
 20
-1353.2663587823947
 30
0.0
 41
1.0
 10
942.77914874012686
 20
-1353.168794842343
 30
0.0
 41
1.0
 10
942.80884468362774
 20
-1353.0712309022913
 30
0.0
 41
1.0
 10
942.91518560830673
 20
-1352.7218552510294
 30
0.0
 41
0.9999952428170973
 10
943.01936919763125
 20
-1352.3718302266816
 30
0.0
 41
1.0
 10
943.02442866796173
 20
-1352.354831952413
 30
0.0
 41
1.0
 10
943.02948813829221
 20
-1352.3378336781441
 30
0.0
 41
1.0
 10
943.123552786956
 20
-1352.0218052023333
 30
0.0
 41
0.999993168752778
 10
943.21527862482981
 20
-1351.7050899890614
 30
0.0
 41
1.0
 10
943.22021388928511
 20
-1351.6880492798055
 30
0.0
 41
1.0
 10
943.22514915374018
 20
-1351.6710085705495
 30
0.0
 41
1.0
 10
943.30700446270316
 20
-1351.3883747757923
 30
0.0
 41
0.9999893840791808
 10
943.38625168916042
 20
-1351.1049986465443
 30
0.0
 41
1.0
 10
943.46549891561745
 20
-1350.8216225172976
 30
0.0
 41
0.9999833980061547
 10
943.54147515636191
 20
-1350.5373519342579
 30
0.0
 41
1.0
 10
943.55047909308314
 20
-1350.5036630557834
 30
0.0
 41
1.0
 10
943.55948302980437
 20
-1350.469974177309
 30
0.0
 41
1.0
 10
943.62844757866924
 20
-1350.2119383450174
 30
0.0
 41
0.9999233658066118
 10
943.69100254989053
 20
-1349.9522741862913
 30
0.0
 41
1.0
 10
943.75355752111091
 20
-1349.6926100275689
 30
0.0
 41
1.0
 10
943.79304093996848
 20
-1349.5288033631427
 30
0.0
 41
1.0
 10
943.79801954394475
 20
-1349.5081484012767
 30
0.0
 41
1.0
 10
943.80299814792079
 20
-1349.4874934394106
 30
0.0
 41
1.0
 10
943.83252435882559
 20
-1349.3649966987186
 30
0.0
 41
0.999986867087802
 10
943.86079344282211
 20
-1349.2422037530712
 30
0.0
 41
1.0
 10
943.8646909299805
 20
-1349.2252741656516
 30
0.0
 41
1.0
 10
943.86858841713888
 20
-1349.2083445782321
 30
0.0
 41
1.0
 10
943.88906252682023
 20
-1349.1194108074178
 30
0.0
 41
0.9999778173354701
 10
943.9083501249338
 20
-1349.0302121901952
 30
0.0
 41
1.0
 10
943.9276377230492
 20
-1348.9410135729654
 30
0.0
 41
0.9999602692863169
 10
943.94533208168082
 20
-1348.8514852845344
 30
0.0
 41
1.0
 10
943.94853591375818
 20
-1348.8352748296506
 30
0.0
 41
1.0
 10
943.95173974583531
 20
-1348.8190643747671
 30
0.0
 41
1.0
 10
943.97584176862165
 20
-1348.6971151765679
 30
0.0
 41
0.9995617985320474
 10
943.99268511584
 20
-1348.5739534288643
 30
0.0
 41
1.0
 10
943.99514960574629
 20
-1348.5559326114976
 30
0.0
 41
1.0
 10
943.99761409565258
 20
-1348.5379117941311
 30
0.0
 41
1.0
 10
944.01789735670081
 20
-1348.3895967444294
 30
0.0
 41
0.9991121410639822
 10
944.0256227102891
 20
-1348.2401006456248
 30
0.0
 41
1.0
 10
944.0265415003139
 20
-1348.2223208090443
 30
0.0
 41
1.0
 10
944.02746029033847
 20
-1348.2045409724637
 30
0.0
 41
1.0
 10
944.03334806387738
 20
-1348.0906045468155
 30
0.0
 41
0.9989792494904952
 10
944.02892897176002
 20
-1347.97660171092
 30
0.0
 41
1.0
 10
944.02828099989142
 20
-1347.9598854649935
 30
0.0
 41
1.0
 10
944.02763302802259
 20
-1347.9431692190669
 30
0.0
 41
1.0
 10
944.02450987964289
 20
-1347.8625988750248
 30
0.0
 41
0.9997820295393732
 10
944.01802588226701
 20
-1347.7822291532777
 30
0.0
 41
1.0
 10
944.01154188489136
 20
-1347.7018594315332
 30
0.0
 41
0.9998335105972681
 10
944.00212968938013
 20
-1347.6217798150888
 30
0.0
 41
1.0
 10
944.00053476470362
 20
-1347.6082100846031
 30
0.0
 41
1.0
 10
943.99893984002688
 20
-1347.5946403541175
 30
0.0
 41
1.0
 10
943.98633779516217
 20
-1347.4874212766972
 30
0.0
 41
0.9996876457879126
 10
943.96839388236367
 20
-1347.3809658489815
 30
0.0
 41
1.0
 10
943.96616221921886
 20
-1347.3677261137429
 30
0.0
 41
1.0
 10
943.96393055607405
 20
-1347.3544863785044
 30
0.0
 41
1.0
 10
943.95013473465269
 20
-1347.2726402345447
 30
0.0
 41
0.9995547496495103
 10
943.93148141275992
 20
-1347.1917627373523
 30
0.0
 41
1.0
 10
943.93110745588865
 20
-1347.1901413266467
 30
0.0
 41
1.0
 10
943.93073349901738
 20
-1347.188519915941
 30
0.0
 41
1.0
 10
943.91282809086761
 20
-1347.1108852401626
 30
0.0
 41
0.9994899427175781
 10
943.89000318218791
 20
-1347.0345519573266
 30
0.0
 41
1.0
 10
943.88954465544771
 20
-1347.0330185075391
 30
0.0
 41
1.0
 10
943.88908612870728
 20
-1347.0314850577518
 30
0.0
 41
1.0
 10
943.8671782735089
 20
-1346.9582186744938
 30
0.0
 41
0.9993784877591215
 10
943.84016263840203
 20
-1346.8866779693333
 30
0.0
 41
1.0
 10
943.83963094742512
 20
-1346.8852699866129
 30
0.0
 41
1.0
 10
943.83909925644821
 20
-1346.8838620038925
 30
0.0
 41
1.0
 10
943.81314700329563
 20
-1346.8151372641751
 30
0.0
 41
0.9992430832255019
 10
943.78193046813612
 20
-1346.7486381121059
 30
0.0
 41
1.0
 10
943.78134835207993
 20
-1346.7473980569894
 30
0.0
 41
1.0
 10
943.78076623602351
 20
-1346.7461580018726
 30
0.0
 41
1.0
 10
943.75071393297708
 20
-1346.6821389600384
 30
0.0
 41
0.9990789632799674
 10
943.71528330620004
 20
-1346.6209323482881
 30
0.0
 41
1.0
 10
943.7146876000179
 20
-1346.6199032624286
 30
0.0
 41
1.0
 10
943.71409189383553
 20
-1346.6188741765689
 30
0.0
 41
1.0
 10
943.67985267942345
 20
-1346.5597257365387
 30
0.0
 41
0.9988874801121053
 10
943.64019340339132
 20
-1346.5040660241207
 30
0.0
 41
1.0
 10
943.63963787732746
 20
-1346.5032863724464
 30
0.0
 41
1.0
 10
943.6390823512636
 20
-1346.5025067207723
 30
0.0
 41
1.0
 10
943.60053412735988
 20
-1346.4484063117038
 30
0.0
 41
0.9986762060693959
 10
943.55663165608303
 20
-1346.3985525972635
 30
0.0
 41
1.0
 10
943.55618769575062
 20
-1346.3980484554465
 30
0.0
 41
1.0
 10
943.55574373541822
 20
-1346.3975443136296
 30
0.0
 41
1.0
 10
943.51272918480618
 20
-1346.3486988828236
 30
0.0
 41
0.9984621642487389
 10
943.46457162802903
 20
-1346.3049155823533
 30
0.0
 41
1.0
 10
943.46432499351272
 20
-1346.3046913501898
 30
0.0
 41
1.0
 10
943.46407835899618
 20
-1346.3044671180264
 30
0.0
 41
1.0
 10
943.41641407125098
 20
-1346.2611322818818
 30
0.0
 41
0.9982724693851235
 10
943.36399543940979
 20
-1346.2236879313646
 30
0.0
 41
1.0
 10
943.31157680756905
 20
-1346.1862435808471
 30
0.0
 41
0.9981399180158077
 10
943.25499074417576
 20
-1346.1554570614037
 30
0.0
 41
1.0
 10
943.25494508209704
 20
-1346.1554322182465
 30
0.0
 41
1.0
 10
943.25489942001809
 20
-1346.155407375089
 30
0.0
 41
1.0
 10
943.19822203246736
 20
-1346.1245711693309
 30
0.0
 41
0.9980927086836591
 10
943.13817668140041
 20
-1346.1009543604782
 30
0.0
 41
1.0
 10
943.13773651168935
 20
-1346.1007812346033
 30
0.0
 41
1.0
 10
943.13729634197807
 20
-1346.1006081087287
 30
0.0
 41
1.0
 10
943.07637065148833
 20
-1346.0766450481262
 30
0.0
 41
0.998141135656237
 10
943.01298213008954
 20
-1346.0602724066207
 30
0.0
 41
1.0
 10
943.01210001338791
 20
-1346.0600445644152
 30
0.0
 41
1.0
 10
943.01121789668605
 20
-1346.0598167222097
 30
0.0
 41
1.0
 10
942.94606514188376
 20
-1346.0429883962931
 30
0.0
 41
0.9983031812935362
 10
942.87939771288848
 20
-1346.0338490351169
 30
0.0
 41
1.0
 10
942.87052668748515
 20
-1346.0326329164457
 30
0.0
 41
1.0
 10
942.86165566208183
 20
-1346.0314167977745
 30
0.0
 41
1.0
 10
942.80730601957748
 20
-1346.0239660677832
 30
0.0
 41
0.9983887708263814
 10
942.75246217028416
 20
-1346.0227213941498
 30
0.0
 41
1.0
 10
942.74439876506653
 20
-1346.022538396275
 30
0.0
 41
1.0
 10
942.73633535984891
 20
-1346.0223553984001
 30
0.0
 41
1.0
 10
942.6976183209913
 20
-1346.0214767205166
 30
0.0
 41
0.9998869563081312
 10
942.65889236778867
 20
-1346.0217625898763
 30
0.0
 41
1.0
 10
942.62016641457512
 20
-1346.022048459236
 30
0.0
 41
0.9999972320171694
 10
942.58144223535396
 20
-1346.0225165587653
 30
0.0
 41
1.0
 10
942.56208921878465
 20
-1346.0227504988545
 30
0.0
 41
1.0
 10
942.54273620221534
 20
-1346.0229844389437
 30
0.0
 41
1.0
 10
942.46530598984464
 20
-1346.0239204186516
 30
0.0
 41
0.99973049450861
 10
942.38800268360706
 20
-1346.0284495124379
 30
0.0
 41
1.0
 10
942.37895304190283
 20
-1346.0289797184278
 30
0.0
 41
1.0
 10
942.36990340019838
 20
-1346.0295099244177
 30
0.0
 41
1.0
 10
942.27450081055326
 20
-1346.0350994301834
 30
0.0
 41
0.999788830641602
 10
942.17940847471209
 20
-1346.0446043946722
 30
0.0
 41
1.0
 10
942.17068741313824
 20
-1346.0454761093044
 30
0.0
 41
1.0
 10
942.16196635156416
 20
-1346.0463478239367
 30
0.0
 41
1.0
 10
942.04943189257574
 20
-1346.0575962176902
 30
0.0
 41
0.9984170238190914
 10
941.93887274522444
 20
-1346.081412299626
 30
0.0
 41
1.0
 10
941.90249161423958
 20
-1346.0892493354318
 30
0.0
 41
1.0
 10
941.86611048325472
 20
-1346.0970863712375
 30
0.0
 41
1.0
 10
941.7509194148322
 20
-1346.1219002377475
 30
0.0
 41
0.9976592854200007
 10
941.64019124842548
 20
-1346.1621989148948
 30
0.0
 41
1.0
 10
941.52946308202286
 20
-1346.2024975920413
 30
0.0
 41
0.9993255074352693
 10
941.42199128323364
 20
-1346.2508144905328
 30
0.0
 41
1.0
 10
941.41736610430848
 20
-1346.2528938667333
 30
0.0
 41
1.0
 10
941.4127409253831
 20
-1346.2549732429338
 30
0.0
 41
1.0
 10
941.29601876874699
 20
-1346.3074488938253
 30
0.0
 41
0.997647507827563
 10
941.18757142443746
 20
-1346.3753968834831
 30
0.0
 41
1.0
 10
941.16922903030331
 20
-1346.3868893622971
 30
0.0
 41
1.0
 10
941.15088663616893
 20
-1346.3983818411114
 30
0.0
 41
1.0
 10
941.06668444461502
 20
-1346.4511389618808
 30
0.0
 41
0.9995131336406626
 10
940.98593672965603
 20
-1346.5090451738349
 30
0.0
 41
1.0
 10
940.90518901469818
 20
-1346.5669513857886
 30
0.0
 41
0.9995810107606323
 10
940.82792736696865
 20
-1346.6294330682551
 30
0.0
 41
1.0
 10
940.82495733575934
 20
-1346.6318349397193
 30
0.0
 41
1.0
 10
940.82198730454979
 20
-1346.6342368111832
 30
0.0
 41
1.0
 10
940.73878559440459
 20
-1346.7015222365751
 30
0.0
 41
0.9996617837955281
 10
940.65919490727219
 20
-1346.7730426921321
 30
0.0
 41
1.0
 10
940.64706415639102
 20
-1346.7839434251264
 30
0.0
 41
1.0
 10
940.63493340550986
 20
-1346.7948441581209
 30
0.0
 41
1.0
 10
940.56665787811153
 20
-1346.8561967735948
 30
0.0
 41
0.9997267750052296
 10
940.5013243698304
 20
-1346.9206733101178
 30
0.0
 41
1.0
 10
940.43599086154745
 20
-1346.9851498466423
 30
0.0
 41
0.9999667288961452
 10
940.37171791839432
 20
-1347.0506836535433
 30
0.0
 41
1.0
 10
940.30289047062206
 20
-1347.1208613122988
 30
0.0
 41
1.0
 10
940.2340630228498
 20
-1347.1910389710542
 30
0.0
 41
1.0
 10
940.03213518415282
 20
-1347.3969280954652
 30
0.0
 41
0.9988205335175352
 10
939.85112956717285
 20
-1347.6214323275262
 30
0.0
 41
1.0
 10
939.82048960226848
 20
-1347.6594355779557
 30
0.0
 41
1.0
 10
939.78984963736411
 20
-1347.6974388283854
 30
0.0
 41
1.0
 10
939.54756409057563
 20
-1347.9979495613052
 30
0.0
 41
0.9997077826754609
 10
939.32008613947119
 20
-1348.3098193555204
 30
0.0
 41
1.0
 10
939.31836272433998
 20
-1348.3121821389009
 30
0.0
 41
1.0
 10
939.31663930920899
 20
-1348.3145449222814
 30
0.0
 41
1.0
 10
939.08571452784372
 20
-1348.6311402832555
 30
0.0
 41
0.9989147567078961
 10
938.88525102495942
 20
-1348.9678497444413
 30
0.0
 41
1.0
 10
938.86050987965086
 20
-1349.0094063249967
 30
0.0
 41
1.0
 10
938.83576873434208
 20
-1349.0509629055521
 30
0.0
 41
1.0
 10
938.68055743570608
 20
-1349.3116642900027
 30
0.0
 41
0.9997476598181463
 10
938.53721244819849
 20
-1349.5790740385817
 30
0.0
 41
1.0
 10
938.39386746068953
 20
-1349.8464837871627
 30
0.0
 41
0.9996258967110346
 10
938.26535920875676
 20
-1350.1213317237887
 30
0.0
 41
1.0
 10
938.252159299308
 20
-1350.1495631238822
 30
0.0
 41
1.0
 10
938.23895938985925
 20
-1350.177794523976
 30
0.0
 41
1.0
 10
938.09875066886048
 20
-1350.4776669219273
 30
0.0
 41
0.9998735413944457
 10
937.96814932213738
 20
-1350.7818465214004
 30
0.0
 41
1.0
 10
937.96470649407934
 20
-1350.7898651068592
 30
0.0
 41
1.0
 10
937.9612636660213
 20
-1350.797883692318
 30
0.0
 41
1.0
 10
937.83754797541997
 20
-1351.0860261208613
 30
0.0
 41
0.9999377418860833
 10
937.72029317324223
 20
-1351.3768575885433
 30
0.0
 41
1.0
 10
937.60303837107062
 20
-1351.6676890562103
 30
0.0
 41
0.9999508299505275
 10
937.4915744276941
 20
-1351.9607887330289
 30
0.0
 41
1.0
 10
937.48849365902947
 20
-1351.9688897589986
 30
0.0
 41
1.0
 10
937.48541289036484
 20
-1351.9769907849682
 30
0.0
 41
1.0
 10
937.36778740966656
 20
-1352.2862925137065
 30
0.0
 41
0.9999609228429508
 10
937.25564880679099
 20
-1352.5976255297255
 30
0.0
 41
1.0
 10
937.25269279644021
 20
-1352.6058323701386
 30
0.0
 41
1.0
 10
937.24973678608922
 20
-1352.6140392105517
 30
0.0
 41
1.0
 10
937.13168616251642
 20
-1352.9417859073851
 30
0.0
 41
0.9999674607401002
 10
937.0189386364475
 20
-1353.2713945273822
 30
0.0
 41
1.0
 10
936.96754024588427
 20
-1353.4216537230764
 30
0.0
 41
1.0
 10
936.9161418553208
 20
-1353.5719129187707
 30
0.0
 41
1.0
 10
936.80013124856214
 20
-1353.9110609012755
 30
0.0
 41
0.9999287532308114
 10
936.69224984459424
 20
-1354.2528816402441
 30
0.0
 41
1.0
 10
936.64577258845111
 20
-1354.4001441846276
 30
0.0
 41
1.0
 10
936.59929533230797
 20
-1354.5474067290113
 30
0.0
 41
1.0
 10
936.58436844058906
 20
-1354.5947023793287
 30
0.0
 41
0.9999998222374198
 10
936.56949793189301
 20
-1354.6420157874607
 30
0.0
 41
1.0
 10
934.94884179509745
 20
-1359.7900442892501
 30
0.0
 41
1.0
 10
933.32818565830212
 20
-1364.9380727910395
 30
0.0
 41
1.0
 10
932.42287721441107
 20
-1364.9380727910395
 30
0.0
 41
1.0
 10
931.51756877052026
 20
-1364.9380727910395
 30
0.0
 41
1.0
 10
933.36965318190619
 20
-1359.0510008685719
 30
0.0
 41
1.0
 10
935.22173759329235
 20
-1353.1639289461045
 30
0.0
 41
1.0
 10
935.23185935159518
 20
-1353.1318857326548
 30
0.0
 41
1.0
 10
935.30446702044492
 20
-1352.901586190829
 30
0.0
 41
1.0
 10
935.37707468929102
 20
-1352.6712866490147
 30
0.0
 41
0.9999825681973533
 10
935.44695772849923
 20
-1352.4401457539611
 30
0.0
 41
1.0
 10
935.49524879066234
 20
-1352.2804211704577
 30
0.0
 41
1.0
 10
935.54353985282523
 20
-1352.1206965869542
 30
0.0
 41
1.0
 10
935.6406922061426
 20
-1351.7993613651781
 30
0.0
 41
0.9999672528963995
 10
935.7326310117669
 20
-1351.4764958195883
 30
0.0
 41
1.0
 10
935.73541989543583
 20
-1351.4667019742017
 30
0.0
 41
1.0
 10
935.73820877910453
 20
-1351.456908128815
 30
0.0
 41
1.0
 10
935.82456981739006
 20
-1351.1536302740028
 30
0.0
 41
0.9999899749168788
 10
935.90821142692494
 20
-1350.8495911855493
 30
0.0
 41
1.0
 10
935.91831734594098
 20
-1350.8128559478764
 30
0.0
 41
1.0
 10
935.92842326495702
 20
-1350.7761207102035
 30
0.0
 41
1.0
 10
935.99185303645891
 20
-1350.5455520971004
 30
0.0
 41
0.9999214200504425
 10
936.04948246483741
 20
-1350.3134657548876
 30
0.0
 41
1.0
 10
936.06224831701684
 20
-1350.2620548694958
 30
0.0
 41
1.0
 10
936.07501416919649
 20
-1350.2106439841039
 30
0.0
 41
1.0
 10
936.10711189321592
 20
-1350.0813794126748
 30
0.0
 41
0.9999828681659024
 10
936.13769414521039
 20
-1349.9517479382109
 30
0.0
 41
1.0
 10
936.16827639720827
 20
-1349.8221164637337
 30
0.0
 41
0.9999389844476455
 10
936.19598738599734
 20
-1349.6918410078331
 30
0.0
 41
1.0
 10
936.20312512971645
 20
-1349.658284904001
 30
0.0
 41
1.0
 10
936.21026287343557
 20
-1349.6247288001687
 30
0.0
 41
1.0
 10
936.25224934966354
 20
-1349.4273411366009
 30
0.0
 41
0.9998933699440841
 10
936.28845361406616
 20
-1349.2288115288418
 30
0.0
 41
1.0
 10
936.28982643928316
 20
-1349.2212835081418
 30
0.0
 41
1.0
 10
936.29119926450016
 20
-1349.2137554874419
 30
0.0
 41
1.0
 10
936.33014917933497
 20
-1349.0001698382905
 30
0.0
 41
0.9996850305194081
 10
936.35833285559374
 20
-1348.7848988328547
 30
0.0
 41
1.0
 10
936.36032788896318
 20
-1348.7696604787313
 30
0.0
 41
1.0
 10
936.36232292233262
 20
-1348.754422124608
 30
0.0
 41
1.0
 10
936.38973078479125
 20
-1348.5450768974556
 30
0.0
 41
0.9994697936706691
 10
936.40345534401104
 20
-1348.3343917021243
 30
0.0
 41
1.0
 10
936.40393241326069
 20
-1348.3270682299135
 30
0.0
 41
1.0
 10
936.40440948251035
 20
-1348.3197447577029
 30
0.0
 41
1.0
 10
936.41717990323082
 20
-1348.123706506794
 30
0.0
 41
0.9991804893136627
 10
936.41405158695784
 20
-1347.92727765682
 30
0.0
 41
1.0
 10
936.41396770813571
 20
-1347.9220108554077
 30
0.0
 41
1.0
 10
936.41388382931359
 20
-1347.9167440539952
 30
0.0
 41
1.0
 10
936.41092327068509
 20
-1347.7308488068481
 30
0.0
 41
0.9988448329321686
 10
936.39013172506134
 20
-1347.5460962170132
 30
0.0
 41
1.0
 10
936.38853765135809
 20
-1347.531931361241
 30
0.0
 41
1.0
 10
936.38694357765507
 20
-1347.5177665054689
 30
0.0
 41
1.0
 10
936.36934017943736
 20
-1347.3613436271789
 30
0.0
 41
0.9985503209458388
 10
936.33502390713807
 20
-1347.2077194430906
 30
0.0
 41
1.0
 10
936.32743791506664
 20
-1347.1737591156898
 30
0.0
 41
1.0
 10
936.31985192299544
 20
-1347.1397987882892
 30
0.0
 41
1.0
 10
936.30070763483809
 20
-1347.0540952589995
 30
0.0
 41
0.99910367813697
 10
936.2743827731872
 20
-1346.9703181716764
 30
0.0
 41
1.0
 10
936.27040054773101
 20
-1346.9576450091652
 30
0.0
 41
1.0
 10
936.26641832227483
 20
-1346.944971846654
 30
0.0
 41
1.0
 10
936.24805791153472
 20
-1346.8865410843471
 30
0.0
 41
0.9998874504367915
 10
936.22795270385768
 20
-1346.8286874821281
 30
0.0
 41
1.0
 10
936.20784749617928
 20
-1346.7708338799048
 30
0.0
 41
0.9994041637543918
 10
936.18379888324489
 20
-1346.7145051760147
 30
0.0
 41
1.0
 10
936.17960209902117
 20
-1346.7046751115333
 30
0.0
 41
1.0
 10
936.17540531479722
 20
-1346.694845047052
 30
0.0
 41
1.0
 10
936.14752648380295
 20
-1346.6295448810852
 30
0.0
 41
0.9991846840702715
 10
936.11447012710937
 20
-1346.5667068498037
 30
0.0
 41
1.0
 10
936.11333352071438
 20
-1346.5645462333491
 30
0.0
 41
1.0
 10
936.11219691431938
 20
-1346.5623856168947
 30
0.0
 41
1.0
 10
936.08141377041625
 20
-1346.5038688185236
 30
0.0
 41
0.9989253167923408
 10
936.04534434636116
 20
-1346.4484538901334
 30
0.0
 41
1.0
 10
936.04429022168642
 20
-1346.4468343953704
 30
0.0
 41
1.0
 10
936.04323609701169
 20
-1346.4452149006072
 30
0.0
 41
1.0
 10
936.0092749223063
 20
-1346.3930389617433
 30
0.0
 41
0.9986467172837072
 10
935.97007776966893
 20
-1346.3446729281136
 30
0.0
 41
1.0
 10
935.96920364096832
 20
-1346.3435943258355
 30
0.0
 41
1.0
 10
935.96832951226793
 20
-1346.3425157235577
 30
0.0
 41
1.0
 10
935.93088061703133
 20
-1346.2963068944837
 30
0.0
 41
0.99840011042675
 10
935.8884538865143
 20
-1346.254621787115
 30
0.0
 41
1.0
 10
935.88786674840503
 20
-1346.2540449122337
 30
0.0
 41
1.0
 10
935.88727961029554
 20
-1346.2534680373524
 30
0.0
 41
1.0
 10
935.84602715599772
 20
-1346.2129366797469
 30
0.0
 41
0.9982442159083902
 10
935.80027105466161
 20
-1346.1775681184861
 30
0.0
 41
1.0
 10
935.80005625920035
 20
-1346.1774020858434
 30
0.0
 41
1.0
 10
935.79984146373909
 20
-1346.1772360532004
 30
0.0
 41
1.0
 10
935.75451495332663
 20
-1346.1421995572264
 30
0.0
 41
0.9982450060836455
 10
935.70536397425417
 20
-1346.1127677741924
 30
0.0
 41
1.0
 10
935.6562129951817
 20
-1346.0833359911583
 30
0.0
 41
0.9983922639633414
 10
935.60404668901651
 20
-1346.0596563565043
 30
0.0
 41
1.0
 10
935.60381981169257
 20
-1346.059553371023
 30
0.0
 41
1.0
 10
935.60359293436863
 20
-1346.0594503855418
 30
0.0
 41
1.0
 10
935.55097287355488
 20
-1346.0355647799249
 30
0.0
 41
0.9986517147149867
 10
935.49615990068719
 20
-1346.0172636608033
 30
0.0
 41
1.0
 10
935.49548197925924
 20
-1346.0170373143719
 30
0.0
 41
1.0
 10
935.49480405783129
 20
-1346.0168109679403
 30
0.0
 41
1.0
 10
935.43863524210747
 20
-1345.9980571559556
 30
0.0
 41
0.998943559895604
 10
935.38098185495573
 20
-1345.984539453721
 30
0.0
 41
1.0
 10
935.37990173537423
 20
-1345.9842862034679
 30
0.0
 41
1.0
 10
935.37882161579273
 20
-1345.9840329532151
 30
0.0
 41
1.0
 10
935.31900798947754
 20
-1345.9700087504746
 30
0.0
 41
0.9992249241240081
 10
935.25827648057975
 20
-1345.9607334077593
 30
0.0
 41
1.0
 10
935.25686279228921
 20
-1345.9605174993517
 30
0.0
 41
1.0
 10
935.25544910399844
 20
-1345.9603015909438
 30
0.0
 41
1.0
 10
935.19189021852003
 20
-1345.950594431413
 30
0.0
 41
0.9994396597833676
 10
935.12782428198375
 20
-1345.9451615090672
 30
0.0
 41
1.0
 10
935.10868361450503
 20
-1345.9435383413484
 30
0.0
 41
1.0
 10
935.08954294702653
 20
-1345.9419151736297
 30
0.0
 41
1.0
 10
934.98719567553348
 20
-1345.9332359158468
 30
0.0
 41
0.9987693403121462
 10
934.88449205194593
 20
-1345.9347389792995
 30
0.0
 41
1.0
 10
934.8742377177191
 20
-1345.9348890510737
 30
0.0
 41
1.0
 10
934.86398338349204
 20
-1345.9350391228479
 30
0.0
 41
1.0
 10
934.75442761731347
 20
-1345.9366424671352
 30
0.0
 41
0.9989753644965994
 10
934.64546561729708
 20
-1345.9481454740603
 30
0.0
 41
1.0
 10
934.5365036172816
 20
-1345.9596484809856
 30
0.0
 41
0.9983190067306857
 10
934.42960480631746
 20
-1345.9836834727719
 30
0.0
 41
1.0
 10
934.42070385470993
 20
-1345.9856847513347
 30
0.0
 41
1.0
 10
934.41180290310217
 20
-1345.9876860298978
 30
0.0
 41
1.0
 10
934.2871021889232
 20
-1346.0157235788099
 30
0.0
 41
0.9985539388303085
 10
934.16613243524466
 20
-1346.0569872548558
 30
0.0
 41
1.0
 10
934.16378700428481
 20
-1346.0577872986714
 30
0.0
 41
1.0
 10
934.16144157332519
 20
-1346.058587342487
 30
0.0
 41
1.0
 10
934.0357809577265
 20
-1346.1014511061644
 30
0.0
 41
0.9988468746493728
 10
933.91481061542595
 20
-1346.156169191227
 30
0.0
 41
1.0
 10
933.91162779343745
 20
-1346.1576088657869
 30
0.0
 41
1.0
 10
933.90844497144894
 20
-1346.1590485403467
 30
0.0
 41
1.0
 10
933.7811089851723
 20
-1346.2166459745285
 30
0.0
 41
0.9991322885919611
 10
933.65900840111681
 20
-1346.2846413067093
 30
0.0
 41
1.0
 10
933.64140639007064
 20
-1346.2944435087006
 30
0.0
 41
1.0
 10
933.62380437902425
 20
-1346.3042457106917
 30
0.0
 41
1.0
 10
933.52162769796837
 20
-1346.3611458264716
 30
0.0
 41
0.9993860037849203
 10
933.42368669389589
 20
-1346.4250618420597
 30
0.0
 41
1.0
 10
933.4180683810448
 20
-1346.4287283367539
 30
0.0
 41
1.0
 10
933.41245006819372
 20
-1346.4323948314479
 30
0.0
 41
1.0
 10
933.32574568982182
 20
-1346.4889778576485
 30
0.0
 41
0.9998821494952412
 10
933.24081931400974
 20
-1346.548196087725
 30
0.0
 41
1.0
 10
933.15589293819653
 20
-1346.6074143178021
 30
0.0
 41
0.9997976482743544
 10
933.07341730779513
 20
-1346.6700007258423
 30
0.0
 41
1.0
 10
933.05878104298927
 20
-1346.6811074156226
 30
0.0
 41
1.0
 10
933.04414477818364
 20
-1346.6922141054031
 30
0.0
 41
1.0
 10
932.93239661816779
 20
-1346.7770138930061
 30
0.0
 41
0.9998091630801348
 10
932.82404634013574
 20
-1346.8661142437113
 30
0.0
 41
1.0
 10
932.81104058766186
 20
-1346.8768093441547
 30
0.0
 41
1.0
 10
932.79803483518776
 20
-1346.8875044445981
 30
0.0
 41
1.0
 10
932.66367305220751
 20
-1346.9979949961901
 30
0.0
 41
0.9995035112317073
 10
932.53653717444763
 20
-1347.1167288132015
 30
0.0
 41
1.0
 10
932.52688986405678
 20
-1347.1257385593626
 30
0.0
 41
1.0
 10
932.51724255366616
 20
-1347.1347483055235
 30
0.0
 41
1.0
 10
932.39381949090171
 20
-1347.2500146772784
 30
0.0
 41
0.9994630424298753
 10
932.2782110851183
 20
-1347.3731174205132
 30
0.0
 41
1.0
 10
932.27452824634588
 20
-1347.3770390000273
 30
0.0
 41
1.0
 10
932.27084540757346
 20
-1347.3809605795414
 30
0.0
 41
1.0
 10
932.16260267933444
 20
-1347.4962201637481
 30
0.0
 41
0.9995160693749807
 10
932.06173664980224
 20
-1347.617987581621
 30
0.0
 41
1.0
 10
932.05980292972163
 20
-1347.6203220058292
 30
0.0
 41
1.0
 10
932.05786920964078
 20
-1347.6226564300373
 30
0.0
 41
1.0
 10
931.96087062026959
 20
-1347.7397549994944
 30
0.0
 41
0.9996561470514085
 10
931.87014440160442
 20
-1347.8617777619427
 30
0.0
 41
1.0
 10
931.86398673570102
 20
-1347.8700595509868
 30
0.0
 41
1.0
 10
931.85782906979762
 20
-1347.8783413400311
 30
0.0
 41
1.0
 10
931.77941818293675
 20
-1347.9838005243944
 30
0.0
 41
0.9998349055172082
 10
931.70489090100637
 20
-1348.0920391080554
 30
0.0
 41
1.0
 10
931.63036361906188
 20
-1348.2002776917368
 30
0.0
 41
0.9999728109560008
 10
931.55744072314837
 20
-1348.3096036172974
 30
0.0
 41
1.0
 10
931.55612550774458
 20
-1348.3115753867883
 30
0.0
 41
1.0
 10
931.55481029234056
 20
-1348.3135471562789
 30
0.0
 41
1.0
 10
931.47925696564153
 20
-1348.4268166207871
 30
0.0
 41
0.9999972147300966
 10
931.40423915530391
 20
-1348.5404414635675
 30
0.0
 41
1.0
 10
931.3992676126461
 20
-1348.5479715520937
 30
0.0
 41
1.0
 10
931.39429606998829
 20
-1348.5555016406197
 30
0.0
 41
1.0
 10
931.30933517437006
 20
-1348.6841866603991
 30
0.0
 41
0.9999371979008837
 10
931.22727982496281
 20
-1348.8147435741812
 30
0.0
 41
1.0
 10
931.22377094060198
 20
-1348.8203265022448
 30
0.0
 41
1.0
 10
931.22026205624115
 20
-1348.8259094303082
 30
0.0
 41
1.0
 10
931.13118893811111
 20
-1348.967632200219
 30
0.0
 41
0.9998272025611414
 10
931.04744554722492
 20
-1349.1125680769687
 30
0.0
 41
1.0
 10
931.03223037520365
 20
-1349.1389011914207
 30
0.0
 41
1.0
 10
931.01701520318238
 20
-1349.1652343058727
 30
0.0
 41
1.0
 10
930.9028414682532
 20
-1349.3628364115268
 30
0.0
 41
0.9995217214838235
 10
930.80110177869688
 20
-1349.5671187393903
 30
0.0
 41
1.0
 10
930.79345821606171
 20
-1349.5824661890933
 30
0.0
 41
1.0
 10
930.78581465342654
 20
-1349.5978136387964
 30
0.0
 41
1.0
 10
930.69890936083698
 20
-1349.7723100968774
 30
0.0
 41
0.9998269762607057
 10
930.6185548945648
 20
-1349.9499183836012
 30
0.0
 41
1.0
 10
930.53820042829102
 20
-1350.1275266703287
 30
0.0
 41
0.9998944747388824
 10
930.46303963372452
 20
-1350.3073943959623
 30
0.0
 41
1.0
 10
930.45808596413758
 20
-1350.3192490508698
 30
0.0
 41
1.0
 10
930.45313229455064
 20
-1350.3311037057772
 30
0.0
 41
1.0
 10
930.37248523399535
 20
-1350.5241006458014
 30
0.0
 41
0.9999506734411425
 10
930.29568770508899
 20
-1350.7186614506641
 30
0.0
 41
1.0
 10
930.28108773981899
 20
-1350.7556493724674
 30
0.0
 41
1.0
 10
930.2664877745492
 20
-1350.7926372942709
 30
0.0
 41
1.0
 10
930.218890176179
 20
-1350.9132222555363
 30
0.0
 41
0.9999912393906437
 10
930.17230373216285
 20
-1351.0342014582161
 30
0.0
 41
1.0
 10
930.12571728814237
 20
-1351.1551806609068
 30
0.0
 41
0.9999927113988336
 10
930.0800559937511
 20
-1351.2765120684005
 30
0.0
 41
1.0
 10
930.06608756235096
 20
-1351.3136290504062
 30
0.0
 41
1.0
 10
930.05211913095081
 20
-1351.3507460324117
 30
0.0
 41
1.0
 10
929.9785209737579
 20
-1351.5463114039201
 30
0.0
 41
0.9999487550949038
 10
929.90889734878715
 20
-1351.7433267691001
 30
0.0
 41
1.0
 10
929.88530373885442
 20
-1351.8100900793816
 30
0.0
 41
1.0
 10
929.86171012892146
 20
-1351.8768533896632
 30
0.0
 41
1.0
 10
929.76702449454842
 20
-1352.1447872244951
 30
0.0
 41
0.9999808436943115
 10
929.67566290590366
 20
-1352.413872655769
 30
0.0
 41
1.0
 10
929.58430131726004
 20
-1352.6829580870399
 30
0.0
 41
0.9999873932910779
 10
929.49564660854026
 20
-1352.9529474420588
 30
0.0
 41
1.0
 10
929.47555425167275
 20
-1353.0141367748056
 30
0.0
 41
1.0
 10
929.45546189480547
 20
-1353.0753261075527
 30
0.0
 41
1.0
 10
929.32662247235135
 20
-1353.4676941280636
 30
0.0
 41
0.9999794883039168
 10
929.20281968739914
 20
-1353.861680334322
 30
0.0
 41
1.0
 10
929.19166742795346
 20
-1353.897170944585
 30
0.0
 41
1.0
 10
929.18051516850778
 20
-1353.9326615548482
 30
0.0
 41
1.0
 10
929.03795700461592
 20
-1354.386334306917
 30
0.0
 41
0.9999982761847003
 10
928.89708456460289
 20
-1354.840533329033
 30
0.0
 41
1.0
 10
927.30894423203017
 20
-1359.8893030600361
 30
0.0
 41
1.0
 10
925.72080389945768
 20
-1364.9380727910395
 30
0.0
 41
1.0
 10
924.77205328798118
 20
-1364.9380727910395
 30
0.0
 41
1.0
 10
923.82330267650491
 20
-1364.9380727910395
 30
0.0
 41
1.0
 10
927.06158716265804
 20
-1354.6107505910934
 30
0.0
 41
1.0
 10
930.2998716488114
 20
-1344.2834283911473
 30
0.0
 41
1.0
  0
LWPOLYLINE
  5
13C
100
AcDbEntity
  8
template
370
              15
390
0
  6
Continuous
 62
               7
100
AcDbPolyline
 90
      232
 70
             128
 10
904.59632587498436
 20
-1345.3677712226624
 42
0.0004370800688942
 10
904.54344870094337
 20
-1345.4364378618782
 10
904.50416446978488
 20
-1345.4875449748151
 42
0.0030481992175033
 10
904.37382575264928
 20
-1345.6592666671813
 10
904.33531408091517
 20
-1345.7106534509476
 42
0.0042058245754843
 10
904.13132903023552
 20
-1345.9876591960349
 10
904.07892390774464
 20
-1346.0600920428019
 42
0.0120948898745121
 10
903.78287999098006
 20
-1346.4908416473561
 10
903.68668749186486
 20
-1346.6383223825705
 42
0.0141601263944433
 10
903.3830434449394
 20
-1347.1339917193113
 10
903.34350617750715
 20
-1347.202835686754
 42
0.007113108130734
 10
903.13823385427486
 20
-1347.5723384855812
 42
0.006845879100657
 10
902.94335432743446
 20
-1347.9474300490519
 10
902.93654246497408
 20
-1347.9609917627808
 42
0.006412088029089
 10
902.7384002149322
 20
-1348.3684162376946
 10
902.73086552941277
 20
-1348.3844280944211
 42
0.0058857236447245
 10
902.5281101375449
 20
-1348.8288042054473
 10
902.519935211247
 20
-1348.84729435909
 42
0.0053189741892973
 10
902.31123089857465
 20
-1349.3332578330196
 10
902.30248309289823
 20
-1349.3542397112042
 42
0.0047503650421677
 10
902.08650936674417
 20
-1349.8864391444226
 10
902.07724111839934
 20
-1349.9099155205217
 42
0.0042071762171555
 10
901.85269373466576
 20
-1350.4930091146075
 10
901.84294433232299
 20
-1350.5189752894612
 42
0.0036680086485393
 10
901.60848968901519
 20
-1351.1576106739806
 10
901.59828190916323
 20
-1351.1860592083367
 42
0.0032573142625932
 10
901.35264962320025
 20
-1351.8849118680789
 10
901.28399910235134
 20
-1352.0843749521559
 42
0.002613336664943
 10
900.93555390359779
 20
-1353.114238235815
 10
900.87229711609575
 20
-1353.304469071212
 42
0.0020592950742665
 10
900.65843404712996
 20
-1353.9565727238212
 10
900.65538225596288
 20
-1353.9660092122438
 42
0.002560992853577
 10
900.45356175448114
 20
-1354.6011544345968
 10
900.45097038735139
 20
-1354.6094567755467
 42
0.0031362356240186
 10
900.26147960167737
 20
-1355.2302196317169
 10
900.25934855875153
 20
-1355.2373609379226
 42
0.0037229918031744
 10
900.08254817182365
 20
-1355.8463462399022
 10
900.08086958261811
 20
-1355.8522931300731
 42
0.004307762370928
 10
899.91712878055205
 20
-1356.4521118618454
 42
0.0047654161824855
 10
899.76430005803331
 20
-1357.0547979507596
 10
899.72983544919703
 20
-1357.1963597278977
 42
0.0112969368444723
 10
899.53397109105254
 20
-1358.0880518885274
 10
899.50596470195683
 20
-1358.2308799346197
 42
0.013005676257198
 10
899.30512745831015
 20
-1359.4178210062646
 10
899.28458770816201
 20
-1359.5618991197491
 42
0.013872153214824
 10
899.18088470362522
 20
-1360.4687286055673
 10
899.16158921571673
 20
-1360.6922263274982
 42
0.007125469700868
 10
899.12824256979479
 20
-1361.1554133363397
 10
899.12328159563253
 20
-1361.2414173308807
 42
0.0028881799194909
 10
899.10814330234166
 20
-1361.5331590407422
 42
0.0060297297137747
 10
899.09821110256576
 20
-1361.8251079768722
 10
899.09714882089884
 20
-1361.873500348792
 42
0.0229523164158221
 10
899.10487984868473
 20
-1362.1962551950737
 10
899.10910562220511
 20
-1362.2566587290901
 42
0.0123673300666911
 10
899.12818426872332
 20
-1362.4577794542647
 42
0.0128577674466601
 10
899.15737965912922
 20
-1362.6576773041882
 10
899.16450553251661
 20
-1362.6990061187885
 42
0.0285717853763729
 10
899.22899953421302
 20
-1362.9771222701038
 10
899.24266805787897
 20
-1363.02377703958
 42
0.0316283099157371
 10
899.35847863779304
 20
-1363.3427915414049
 10
899.36152732954861
 20
-1363.3497779137306
 42
0.0338984824237989
 10
899.5109590405159
 20
-1363.6373438779196
 10
899.51326776988526
 20
-1363.641134907195
 42
0.0350228718354488
 10
899.69562806055933
 20
-1363.8981868918725
 10
899.69651331233422
 20
-1363.8992659696364
 42
0.034747674752544
 10
899.91093799957434
 20
-1364.1264510168567
 42
0.033133770191277
 10
900.15418132532068
 20
-1364.3225796789336
 10
900.15528142383687
 20
-1364.3233523821063
 42
0.030523331908205
 10
900.42382611941116
 20
-1364.4884805521983
 10
900.4270561639114
 20
-1364.4902045640606
 42
0.0273744481150256
 10
900.7196098754855
 20
-1364.6263427079509
 10
900.72471441062316
 20
-1364.6283862924206
 42
0.0240964406193148
 10
901.04019148626685
 20
-1364.7373700187015
 10
901.04677481547901
 20
-1364.7392947583771
 42
0.0209636179811426
 10
901.3841749681344
 20
-1364.8227629063097
 10
901.39180742858025
 20
-1364.8243148193105
 42
0.018138870469164
 10
901.75012982057592
 20
-1364.883730912524
 10
901.75841066895691
 20
-1364.8847970963416
 42
0.0156086547589
 10
902.13659803315045
 20
-1364.9215332829185
 10
902.17979328547494
 20
-1364.9243717853974
 42
0.0137148329020605
 10
902.5074664307715
 20
-1364.9368920406487
 10
902.55340262069694
 20
-1364.9373864737638
 42
0.0051057823879829
 10
902.78954820728973
 20
-1364.9375167281728
 42
0.0052256693314421
 10
903.02564549106819
 20
-1364.9327679037087
 10
903.09587227481779
 20
-1364.9306209376946
 42
0.0161507179049549
 10
903.47160935292482
 20
-1364.9069705673676
 10
903.49162231329228
 20
-1364.9050603720805
 42
0.0101216737833131
 10
903.9056495347852
 20
-1364.8570674417147
 10
903.93970282420969
 20
-1364.8524197449053
 42
0.0245291776396805
 10
904.41649247975988
 20
-1364.7633446668294
 10
904.5013157952892
 20
-1364.7431487464823
 42
0.0143509212555146
 10
904.85794689922432
 20
-1364.6473441127046
 42
0.0156557857035105
 10
905.2081629639531
 20
-1364.5303328968853
 10
905.21566417844633
 20
-1364.5275627351316
 42
0.0170137333627814
 10
905.57226017412427
 20
-1364.3819051202618
 10
905.57936409653507
 20
-1364.3787172846967
 42
0.0183105364411949
 10
905.93871376470133
 20
-1364.2013822428723
 10
905.9456605293401
 20
-1364.1976318080001
 42
0.0194899958156656
 10
906.30414127032736
 20
-1363.9856528261073
 10
906.31115514966086
 20
-1363.9811274838144
 42
0.0204869852952677
 10
906.66516945175317
 20
-1363.7316074687299
 10
906.67243506034197
 20
-1363.7260274033802
 42
0.0212516938557277
 10
907.01842499144982
 20
-1363.4361234064859
 10
907.0649416855274
 20
-1363.3936560963903
 42
0.0215248918252195
 10
907.32496785441322
 20
-1363.1348918173976
 10
907.36999758878733
 20
-1363.0860476960545
 42
0.0114578554957285
 10
907.52478974247106
 20
-1362.9102247625892
 10
907.53598427846669
 20
-1362.8969059990332
 42
0.0061531305144363
 10
907.66245892445227
 20
-1362.7426164657381
 42
0.0006325587125236
 10
907.78683740865904
 20
-1362.5866130899933
 10
907.80987754365538
 20
-1362.5576395694031
 42
0.0041897761556575
 10
907.97833294762722
 20
-1362.3421201933425
 10
908.03679506752019
 20
-1362.266018846356
 42
0.0092993880039738
 10
908.31340699474345
 20
-1361.8917400824728
 10
908.39580148794653
 20
-1361.7758030788987
 42
0.0159321727087961
 10
908.74240797058542
 20
-1361.2536288581475
 10
908.7867641059745
 20
-1361.1819492938976
 42
0.0085547317020661
 10
909.02127587130008
 20
-1360.7880743446729
 42
0.0084601156892093
 10
909.24225204874597
 20
-1360.3864474956335
 10
909.25036752257256
 20
-1360.3710878133677
 42
0.0081429654286075
 10
909.47361679300934
 20
-1359.9313663008281
 10
909.48247695719397
 20
-1359.9131874588074
 42
0.0076574581326176
 10
909.70888446775893
 20
-1359.4300045835587
 10
909.71836410848437
 20
-1359.4089401052515
 42
0.0070682724200649
 10
909.94880901629517
 20
-1358.8769028004606
 10
909.95879930027286
 20
-1358.8529136114585
 42
0.0064559514448318
 10
910.19413250845309
 20
-1358.2666013449439
 10
910.20454186661959
 20
-1358.2396664194976
 42
0.0058311413908921
 10
910.44558860338475
 20
-1357.5936343251076
 10
910.45634368077003
 20
-1357.5637499839531
 42
0.005231242581968
 10
910.70392495881561
 20
-1356.8525475701049
 10
910.71496879519054
 20
-1356.8197208580491
 42
0.0046680544797481
 10
910.96989722292597
 20
-1356.0378945422915
 10
911.01188937296911
 20
-1355.9049113050003
 42
0.0041666856443508
 10
911.21517538536364
 20
-1355.2419425299965
 10
911.25283782602969
 20
-1355.1153614223356
 42
0.0015170975157275
 10
911.37402440444043
 20
-1354.7034930708492
 42
-0.0004887993118589
 10
911.49436417751758
 20
-1354.2913746589643
 10
911.57084143505858
 20
-1354.0304172728661
 42
0.0002583378927045
 10
911.84405600518585
 20
-1353.096360569471
 10
911.92582885469528
 20
-1352.8162613101183
 42
0.0006636169672675
 10
912.11969661471085
 20
-1352.148908386517
 10
912.1247932690751
 20
-1352.1312768035768
 42
0.0010589131325097
 10
912.30624196997451
 20
-1351.498545460588
 10
912.31122404046164
 20
-1351.4810325535445
 42
0.0015655524462192
 10
912.47949424763783
 20
-1350.8824158743671
 10
912.4843244480453
 20
-1350.8650237154577
 42
0.00216404404803
 10
912.63861442003872
 20
-1350.299996697413
 10
912.64324863947058
 20
-1350.2827319674122
 42
0.0028763871852292
 10
912.78276435752173
 20
-1349.7507640165722
 10
912.7871502216849
 20
-1349.7336400384338
 42
0.0037310511945268
 10
912.91110691352583
 20
-1349.234192444394
 10
912.91518213381732
 20
-1349.2172321731377
 42
0.004765219777324
 10
913.02280603432314
 20
-1348.7497544048433
 10
913.02649663364309
 20
-1348.732994849709
 42
0.0060276699300457
 10
913.11702673280024
 20
-1348.2969190545491
 10
913.12024542309041
 20
-1348.2804178402353
 42
0.0075824337757567
 10
913.19293473250491
 20
-1347.8751506758138
 10
913.19558010988499
 20
-1347.8589957283648
 42
0.0095130624609931
 10
913.24969534551633
 20
-1347.4839063752916
 10
913.25668156939923
 20
-1347.4279728171732
 42
0.0121054653225039
 10
913.28327289997674
 20
-1347.1630769887011
 10
913.28413938973631
 20
-1347.1516735457722
 42
0.0069050827386349
 10
913.29922820777415
 20
-1346.9087323189278
 10
913.30036350744285
 20
-1346.8852060618794
 42
0.016906397670735
 10
913.30319078642287
 20
-1346.6890133345823
 10
913.30202013489179
 20
-1346.6286775732387
 42
0.0052007732894061
 10
913.29976668629865
 20
-1346.553084183081
 42
0.0054038123297046
 10
913.27980317445895
 20
-1346.4330658870658
 10
913.27471731858941
 20
-1346.4044074004898
 42
0.0112050460469442
 10
913.23933295653023
 20
-1346.2280809621479
 10
913.22150799449014
 20
-1346.1485393754301
 42
0.0240764468009415
 10
913.13061062834345
 20
-1345.8183023399274
 10
913.11205186553025
 20
-1345.7616821749341
 42
0.0256812331836603
 10
912.968688945341
 20
-1345.3899579686777
 10
912.9632795195198
 20
-1345.3778266336881
 42
0.0268360501216529
 10
912.79385227866987
 20
-1345.0468334996669
 10
912.78831587103537
 20
-1345.0373138293558
 42
0.0274670231723947
 10
912.59611489462145
 20
-1344.7450264544373
 10
912.59073359465788
 20
-1344.7377473068946
 42
0.0275035967097687
 10
912.37916071509699
 20
-1344.482231416592
 10
912.37409121413066
 20
-1344.4767523289618
 42
0.0269557673529156
 10
912.14668767069088
 20
-1344.2561100429994
 10
912.14194461290799
 20
-1344.2519800885384
 42
0.025912480220906
 10
911.9023897814775
 20
-1344.064289561386
 10
911.8978589362946
 20
-1344.0611040590552
 42
0.024516215300875
 10
911.64994258320075
 20
-1343.9043710499454
 10
911.6454160368778
 20
-1343.9018108527453
 42
0.0229282588841135
 10
911.39299648004931
 20
-1343.7739426602457
 10
911.38821598621121
 20
-1343.771790360483
 42
0.0212984135700922
 10
911.13517803375066
 20
-1343.6705914432414
 10
911.12987374878139
 20
-1343.6687278804816
 42
0.0197555462349515
 10
910.88009541105816
 20
-1343.5919124625166
 42
0.018351189679319
 10
910.6251666855926
 20
-1343.5343295555506
 10
910.53880148887356
 20
-1343.5181267651662
 42
0.0338057877144368
 10
910.25329413961163
 20
-1343.4843183600256
 10
910.1622887345693
 20
-1343.4797387047643
 42
0.0091990524498059
 10
910.0564416259358
 20
-1343.4763628488422
 42
0.0028333980787695
 10
909.9505277099156
 20
-1343.4755347413254
 10
909.94961225689349
 20
-1343.4755327715015
 42
-0.0023619827796491
 10
909.84186624175709
 20
-1343.4747919304225
 10
909.80546107161172
 20
-1343.4743696239598
 42
0.0008824598477199
 10
909.62490508172482
 20
-1343.4725938457213
 10
909.58104364935593
 20
-1343.4722398841959
 42
0.003813266576831
 10
909.31276075346
 20
-1343.4721209481295
 10
909.29622709868363
 20
-1343.472239714273
 42
0.0060665569336746
 10
908.99494660708933
 20
-1343.4780600136939
 10
908.98069627506698
 20
-1343.4785083216614
 42
0.0080356953336584
 10
908.65123755872833
 20
-1343.4941760437282
 10
908.6391675436405
 20
-1343.4949446266687
 42
0.0098996399107011
 10
908.286404458991
 20
-1343.5244298558669
 10
908.27635874961493
 20
-1343.5254701520651
 42
0.0117740981369001
 10
907.90520189126346
 20
-1343.5727623995954
 10
907.89697919478363
 20
-1343.5740075161657
 42
0.0137435215134469
 10
907.51239037530286
 20
-1343.6431044897265
 10
907.50573333617513
 20
-1343.644490385961
 42
0.0158359869387037
 10
907.11273624237151
 20
-1343.739382474442
 10
907.1073230555055
 20
-1343.7408724153122
 42
0.018055412402743
 10
906.71100801089233
 20
-1343.8655104315512
 10
906.70645122280962
 20
-1343.8671264678173
 42
0.0203657431283344
 10
906.31197370499422
 20
-1344.0253868093346
 10
906.30783016599094
 20
-1344.0272484307748
 42
0.0226819684657389
 10
905.92039410978623
 20
-1344.2228910094468
 10
905.91619431876916
 20
-1344.2252566013658
 42
0.0248634984606434
 10
905.54101237758732
 20
-1344.4618832473132
 10
905.49281744880318
 20
-1344.4957402891391
 42
0.0267044190886253
 10
905.21852475188757
 20
-1344.7111806650069
 42
0.0139303002202625
 10
904.96235758594707
 20
-1344.9484195059204
 10
904.95750420022773
 20
-1344.9531721687788
 42
0.0283460963444223
 10
904.71343160599918
 20
-1345.2209028292255
 10
904.6737631008441
 20
-1345.269704406697
 42
0.0070695364826236
 10
904.59632587498436
 20
-1345.3677712226624
 42
0.0070695364826236
  0
LWPOLYLINE
  5
13D
100
AcDbEntity
  8
template
370
              15
390
0
  6
Continuous
 62
               7
100
AcDbPolyline
 90
      226
 70
             128
 10
901.06750543773796
 20
-1361.0893600288464
 42
-0.0026277636664043
 10
901.0674275539377
 20
-1361.0225881031367
 10
901.06764491216995
 20
-1360.9694328856604
 42
-0.0088680296726247
 10
901.07142152846313
 20
-1360.7964171032534
 10
901.07376788757529
 20
-1360.7371370778037
 42
-0.0077381705620078
 10
901.08981399833851
 20
-1360.4458765820057
 10
901.09068190951143
 20
-1360.4335883483204
 42
-0.0068872530540591
 10
901.11731398925758
 20
-1360.1183665962719
 10
901.11851821344567
 20
-1360.1061256172325
 42
-0.0062130021488738
 10
901.15611193027166
 20
-1359.76725592601
 10
901.15761583380868
 20
-1359.7550820540775
 42
-0.0056726929665411
 10
901.20653769331057
 20
-1359.3928868319672
 10
901.20831113895542
 20
-1359.3807930317189
 42
-0.0052341884493045
 10
901.26892172521775
 20
-1358.9955997761872
 10
901.27093971399199
 20
-1358.9835948462085
 42
-0.0049768450169079
 10
901.34367839541596
 20
-1358.5757502787885
 10
901.36792741014006
 20
-1358.4472022957698
 42
-0.0089029805623122
 10
901.50500826193479
 20
-1357.7854268483475
 10
901.53775363725345
 20
-1357.640395417824
 42
-0.0080318257099722
 10
901.7673022515919
 20
-1356.6946857859787
 10
901.7792871780423
 20
-1356.6485551507803
 42
-0.0074265721318179
 10
902.06329871689263
 20
-1355.6184905723987
 10
902.08317826000689
 20
-1355.5503565118174
 42
-0.0069711922702116
 10
902.41048283851569
 20
-1354.4840887714822
 10
902.47043478561909
 20
-1354.2980674131181
 42
-0.0052070422892398
 10
902.69986001088046
 20
-1353.6107953360804
 10
902.71714120305091
 20
-1353.5607680554683
 42
-0.0009167004449756
 10
902.92023309034221
 20
-1352.9763122073091
 42
-0.0025162726943297
 10
903.12733072060155
 20
-1352.3932709431556
 10
903.16455533240901
 20
-1352.2901213972443
 42
-0.0028212681458763
 10
903.41273125137332
 20
-1351.6143907650703
 10
903.42256201412147
 20
-1351.5880833204003
 42
-0.0031964916823738
 10
903.65885427178614
 20
-1350.9678785582664
 10
903.66848872578976
 20
-1350.9430685681116
 42
-0.0036281836451793
 10
903.89359468688644
 20
-1350.3756278872302
 10
903.90303309705064
 20
-1350.3523304557107
 42
-0.0041269166828747
 10
904.11765079370298
 20
-1349.8348895597489
 10
904.15028375012071
 20
-1349.7580111133948
 42
-0.0047472213057719
 10
904.30732855567749
 20
-1349.3975896455045
 10
904.31422263688205
 20
-1349.3821690481807
 42
-0.00256516599971
 10
904.46258067073586
 20
-1349.054840992424
 42
-0.0057144634995011
 10
904.61633036450598
 20
-1348.730031319064
 10
904.64436106991184
 20
-1348.6725229366602
 42
-0.006538806837368
 10
904.82782809764831
 20
-1348.3082904400023
 10
904.83628655342454
 20
-1348.2920308606369
 42
-0.0074510843021862
 10
905.01246879930454
 20
-1347.96534257951
 10
905.0206484698308
 20
-1347.9507018022496
 42
-0.0084648979858305
 10
905.19028232293567
 20
-1347.6587927912801
 10
905.19813844942701
 20
-1347.6457857996236
 42
-0.0095638542799694
 10
905.36197389701783
 20
-1347.3858969276507
 10
905.36944884068657
 20
-1347.3745275662
 42
-0.0107191626808372
 10
905.52825042107725
 20
-1347.1439163316513
 10
905.53526715480848
 20
-1347.1341802392863
 42
-0.0118458573905522
 10
905.68981525332083
 20
-1346.9301080439759
 42
-0.0129184518185808
 10
905.85426787692631
 20
-1346.7339475278009
 10
905.88441264928611
 20
-1346.6998214489051
 42
-0.0217742579632616
 10
906.06102497162078
 20
-1346.516614678656
 10
906.07177051607619
 20
-1346.5063978454577
 42
-0.0097266568653853
 10
906.23782813493699
 20
-1346.3545502710156
 42
-0.0187720905718141
 10
906.41217571082893
 20
-1346.2124814176248
 10
906.44288170149866
 20
-1346.1893223352317
 42
-0.0179428207521123
 10
906.67530242149678
 20
-1346.0267701581186
 10
906.67895474840952
 20
-1346.0244062232327
 42
-0.0170047877698064
 10
906.91471838594293
 20
-1345.8829457090792
 10
906.91850137468828
 20
-1345.8808474040436
 42
-0.0160190788364929
 10
907.15540992232468
 20
-1345.7591961020548
 42
-0.0151102861488684
 10
907.39944170477656
 20
-1345.6525133259984
 10
907.45182820698324
 20
-1345.6314731931056
 42
-0.0271945441886609
 10
907.81049076604131
 20
-1345.5096083823996
 10
907.87955556653151
 20
-1345.4902588411328
 42
-0.0237596594022422
 10
908.29535241355211
 20
-1345.3948081291519
 10
908.36341526727961
 20
-1345.3825534410257
 42
-0.0213715440558594
 10
908.64929019872784
 20
-1345.3436064095151
 10
908.70943736494837
 20
-1345.3380166948141
 42
-0.010146565582428
 10
908.87692989693983
 20
-1345.3258731515502
 10
908.88627028313476
 20
-1345.3253862365532
 42
-0.0100375910887082
 10
909.03542438370073
 20
-1345.3206104186277
 10
909.04568365338127
 20
-1345.3204879796133
 42
-0.0103625633383002
 10
909.17439164803591
 20
-1345.3216194131398
 10
909.19665729930693
 20
-1345.3222767716049
 42
-0.0115689250240391
 10
909.2807080368309
 20
-1345.32670627785
 42
-0.0072438037445269
 10
909.3645463162652
 20
-1345.3342954775987
 10
909.38134682574287
 20
-1345.3360620203234
 42
-0.0217917313125148
 10
909.49791658905747
 20
-1345.3534819130446
 10
909.56351667962485
 20
-1345.3662285214591
 42
-0.0332943556751125
 10
909.7679088446514
 20
-1345.4202688127662
 10
909.79808141320132
 20
-1345.4304368898845
 42
-0.0184824084806983
 10
909.93658646966696
 20
-1345.4828879052711
 42
-0.0198002050698816
 10
910.07066081016319
 20
-1345.5457719654687
 10
910.07254744754323
 20
-1345.5467497523503
 42
-0.0212242342972079
 10
910.20468638994612
 20
-1345.6225124911437
 10
910.20650168548855
 20
-1345.6236582933516
 42
-0.0226090605791358
 10
910.33500558670949
 20
-1345.7131379369155
 10
910.33685002844777
 20
-1345.7145501899035
 42
-0.0238457052230627
 10
910.46003210974027
 20
-1345.8185460857653
 10
910.46198483829971
 20
-1345.820360963532
 42
-0.0248160564145157
 10
910.57818634560044
 20
-1345.9396355647409
 10
910.58028997900237
 20
-1345.9420208984452
 42
-0.0254109591448422
 10
910.68789519686879
 20
-1346.0773092844101
 10
910.6901432187824
 20
-1346.0804508328101
 42
-0.0255528488295465
 10
910.78758989757989
 20
-1346.2324778870454
 10
910.78992099749576
 20
-1346.2365594986522
 42
-0.0252146793220649
 10
910.8757020235048
 20
-1346.4060617446489
 10
910.87800426266244
 20
-1346.411243826562
 42
-0.0244265635956101
 10
910.95065895642438
 20
-1346.5989903986103
 10
910.95990535789156
 20
-1346.6268558169443
 42
-0.0231319612896614
 10
911.00582813688425
 20
-1346.7901568637481
 42
-0.0112130424351627
 10
911.04046415942275
 20
-1346.9563604639366
 10
911.04166668453513
 20
-1346.9628570508239
 42
-0.021052788123071
 10
911.06735315990613
 20
-1347.1439126962673
 10
911.07086375472772
 20
-1347.1793182448125
 42
-0.019002989242482
 10
911.08630522827229
 20
-1347.4328540910856
 10
911.08711520471638
 20
-1347.4683297054539
 42
-0.013797455366187
 10
911.08556635188097
 20
-1347.7933611121803
 10
911.08472089692509
 20
-1347.8194798567829
 42
-0.0081336634216165
 10
911.06986156170274
 20
-1348.1248273243793
 42
-0.0073526923572461
 10
911.04555302832819
 20
-1348.4295755686635
 10
911.04429160454538
 20
-1348.4429122433305
 42
-0.0066886138691538
 10
911.00855601849798
 20
-1348.7734982868349
 10
911.00689892902892
 20
-1348.7871199058191
 42
-0.0061359187356184
 10
910.95904832697875
 20
-1349.1438838859146
 10
910.95701082590517
 20
-1349.1577786887483
 42
-0.005669861006597
 10
910.89636049513956
 20
-1349.5410572575788
 10
910.89395506181518
 20
-1349.555216376817
 42
-0.0052721077276839
 10
910.81982286101697
 20
-1349.9653437164875
 10
910.81705971217389
 20
-1349.9797603518809
 42
-0.0049289272180206
 10
910.72876559407723
 20
-1350.4170688629874
 10
910.72565309939114
 20
-1350.4317377158193
 42
-0.0047415956710064
 10
910.62241510786066
 20
-1350.8965344732221
 10
910.5876468974991
 20
-1351.0463415686131
 42
-0.0084404470902746
 10
910.39763045392783
 20
-1351.8065655931423
 10
910.39150376594148
 20
-1351.8294297172977
 42
-0.0039635940257327
 10
910.17005008165893
 20
-1352.63041858154
 10
910.15667328647805
 20
-1352.677350198137
 42
-0.0072475040836658
 10
909.88922639861721
 20
-1353.5665699145197
 10
909.81901407179203
 20
-1353.7883102644848
 42
-0.0051345458827559
 10
909.53225469972858
 20
-1354.6626354523103
 10
909.51072843294355
 20
-1354.726061719492
 42
-0.0019150016600946
 10
909.2551950260945
 20
-1355.4696108396663
 10
909.24872742171283
 20
-1355.4881983045454
 42
-0.002152436275301
 10
909.00024937063449
 20
-1356.1925241262957
 10
908.99103894992936
 20
-1356.2182777046212
 42
-0.0024331286819815
 10
908.75478369090206
 20
-1356.8688770127155
 10
908.74573573836324
 20
-1356.8934203190381
 42
-0.0027449721786579
 10
908.52112116751596
 20
-1357.4925501979942
 10
908.51223116012966
 20
-1357.5158727878313
 42
-0.0031083229768914
 10
908.29868867351388
 20
-1358.0657968254261
 10
908.28995254184065
 20
-1358.0878865412781
 42
-0.003531134328038
 10
908.08691135624645
 20
-1358.590869667014
 10
908.07832601710311
 20
-1358.6117123905142
 42
-0.0040245640952481
 10
907.88521421330438
 20
-1359.0700217131166
 10
907.87677809970137
 20
-1359.0896010811889
 42
-0.0046015135851945
 10
907.69302180653767
 20
-1359.505506110831
 10
907.68473562871736
 20
-1359.5238032502657
 42
-0.0052768638273235
 10
907.50975810975365
 20
-1359.8995761345534
 10
907.50162589911952
 20
-1359.9165694731116
 42
-0.0060672675640944
 10
907.33484628636074
 20
-1360.2544850962108
 10
907.32687680588174
 20
-1360.2701503552032
 42
-0.0069904648869667
 10
907.16770841187781
 20
-1360.5724861618719
 10
907.15991701226562
 20
-1360.5867967111014
 42
-0.0080637022766071
 10
907.00776515192115
 20
-1360.8558320142522
 10
907.00017611929184
 20
-1360.8687598798494
 42
-0.0093006455665655
 10
906.85443544275836
 20
-1361.1067742783562
 10
906.84708477601976
 20
-1361.1182922475216
 42
-0.0107060778053624
 10
906.7071362325762
 20
-1361.3275625649082
 10
906.70007446429327
 20
-1361.3376481074788
 42
-0.0122723111405101
 10
906.56528074609855
 20
-1361.5204414369632
 10
906.56495452254012
 20
-1361.5208618247784
 42
-0.0141836319622845
 10
906.42137291957033
 20
-1361.6954315826024
 10
906.41442516392249
 20
-1361.7034065828623
 42
-0.0175957477213479
 10
906.27451899588368
 20
-1361.8530274712718
 42
-0.0080466359667675
 10
906.12705523084583
 20
-1361.9953499994303
 10
906.08102068633616
 20
-1362.0383704375142
 42
-0.0269600260396854
 10
905.82774044035273
 20
-1362.2506936960237
 10
905.76117330405964
 20
-1362.3006451106448
 42
-0.0178362839753907
 10
905.52122881440027
 20
-1362.4676630368997
 10
905.51398384339745
 20
-1362.472331549106
 42
-0.0174650732650567
 10
905.2776476459585
 20
-1362.6131925140637
 42
-0.0169240130169037
 10
905.03218140010085
 20
-1362.7374847738411
 10
904.98619524454307
 20
-1362.7588467294083
 42
-0.0318883036842759
 10
904.63584438892508
 20
-1362.8951850389178
 10
904.56747885375535
 20
-1362.9168856593949
 42
-0.0284435909897104
 10
904.19142872746716
 20
-1363.0131030948687
 10
904.15627056696894
 20
-1363.0199966906971
 42
-0.0243909341012603
 10
903.84282710604975
 20
-1363.0657177217272
 10
903.79254637928307
 20
-1363.0705632686283
 42
-0.019663929293603
 10
903.57695080175131
 20
-1363.0828115541424
 10
903.52512673058777
 20
-1363.0837148148792
 42
-0.0100501510682157
 10
903.41270344892359
 20
-1363.083414416526
 10
903.38104358753844
 20
-1363.0826933446397
 42
-0.0019752031127482
 10
903.3319512508981
 20
-1363.0813811844309
 10
903.32919094768522
 20
-1363.0812964926049
 42
0.0065378751966033
 10
903.28561437292137
 20
-1363.0805296013898
 42
-0.0167974694648595
 10
903.24208354999473
 20
-1363.0788697028643
 10
903.23800421072747
 20
-1363.0785766919689
 42
-0.0081283276279439
 10
903.18644441299284
 20
-1363.0740296983313
 10
903.17470483911029
 20
-1363.0728017807526
 42
-0.0126703440179329
 10
903.0999865433223
 20
-1363.0630669896821
 10
903.07719867564015
 20
-1363.0595087337658
 42
-0.0117852088427127
 10
902.95765968980027
 20
-1363.0379457386073
 10
902.90227923804468
 20
-1363.0266021983741
 42
-0.0251774592301785
 10
902.67543519903961
 20
-1362.9681041889419
 10
902.6307160091867
 20
-1362.9541373696061
 42
-0.0146525199894809
 10
902.44432302164728
 20
-1362.8898708424076
 42
-0.0166929435857381
 10
902.2623453655176
 20
-1362.8140637093518
 10
902.25768873424749
 20
-1362.8119388087391
 42
-0.0191684358431032
 10
902.07250510300037
 20
-1362.7187027249504
 10
902.06917251724121
 20
-1362.7168614773959
 42
-0.0221181781814091
 10
901.88586221333958
 20
-1362.6047279790255
 10
901.88351240933048
 20
-1362.603143681034
 42
-0.0254984685385396
 10
901.7072222589461
 20
-1362.4707325310653
 10
901.68474011124295
 20
-1362.451980222128
 42
-0.0292492648805239
 10
901.55997117240031
 20
-1362.3348874224851
 42
-0.0159048957505198
 10
901.44613117494987
 20
-1362.2068674308855
 10
901.44481238437083
 20
-1362.2052858178658
 42
-0.0343813379568621
 10
901.34217512274472
 20
-1362.0634144920966
 10
901.31068359138385
 20
-1362.0129111000024
 42
-0.0369117275700532
 10
901.22479108948664
 20
-1361.849433859054
 42
-0.0191751379908197
 10
901.15759770393038
 20
-1361.6770292530505
 10
901.15583438017006
 20
-1361.6719359083731
 42
-0.0378178042235001
 10
901.10603966138615
 20
-1361.4829951322931
 10
901.10004436565578
 20
-1361.4504345140958
 42
-0.0184846046467774
 10
901.07932716636105
 20
-1361.3086816935499
 42
-0.0179866351308287
 10
901.06899416128726
 20
-1361.1657908804655
 10
901.06893771884165
 20
-1361.1642331938563
 42
-0.008549718612402
 10
901.06750543773796
 20
-1361.0893600288464
 42
-0.008549718612402
  0
MTEXT
  5
13E
100
AcDbEntity
  8
template
390
0
 62
               7
100
AcDbMText
 10
784.00000000049999
 20
-1261.0000901712006
 30
0.0
 40
24.432617187500004
 41
0.0
 71
               1
 72
               1
  1
1:10
  7
ＭＳ ゴシック
 73
               1
 44
0.7828267384257843
  0
MTEXT
  5
13F
100
AcDbEntity
  8
template
390
0
 62
               7
100
AcDbMText
 10
731.00000000049999
 20
-1232.4176292337004
 30
0.0
 40
16.288411458333332
 41
0.0
 71
               1
 72
               1
  1
縮尺
  7
ＭＳ ゴシック
 73
               1
 44
0.7828267384257843
  0
LINE
  5
140
100
AcDbEntity
  8
template
370
               5
390
0
  6
Continuous
 62
               7
100
AcDbLine
 10
724.00000000049999
 20
-1309.0027073587005
 30
0.0
 11
724.00000000049999
 21
-1224.0027073587005
 31
0.0
  0
MTEXT
  5
141
100
AcDbEntity
  8
template
390
0
 62
               7
100
AcDbMText
 10
480.00000000049999
 20
-1232.4176292337004
 30
0.0
 40
16.288411458333332
 41
0.0
 71
               1
 72
               1
  1
容量
  7
ＭＳ ゴシック
 73
               1
 44
0.7828267384257843
  0
MTEXT
  5
142
100
AcDbEntity
  8
template
390
0
 62
               7
100
AcDbMText
 10
533.00000000049999
 20
-1261.0000901712006
 30
0.0
 40
24.432617187500004
 41
0.0
 71
               1
 72
               1
  1
4.8L
  7
ＭＳ ゴシック
 73
               1
 44
0.7828267384257843
  0
LINE
  5
143
100
AcDbEntity
  8
template
370
               5
390
0
  6
Continuous
 62
               7
100
AcDbLine
 10
473.00000000049999
 20
-1309.0027073587005
 30
0.0
 11
473.00000000049999
 21
-1224.0027073587005
 31
0.0
  0
MTEXT
  5
144
100
AcDbEntity
  8
template
390
0
 62
               7
100
AcDbMText
 10
229.00000000049999
 20
-1147.4176292337004
 30
0.0
 40
16.288411458333332
 41
0.0
 71
               1
 72
               1
  1
品番
  7
ＭＳ ゴシック
 73
               1
 44
0.7828267384257843
  0
MTEXT
  5
145
100
AcDbEntity
  8
template
390
0
 62
               7
100
AcDbMText
 10
229.00000000049999
 20
-1232.4176292337004
 30
0.0
 40
16.288411458333332
 41
0.0
 71
               1
 72
               1
  1
重量
  7
ＭＳ ゴシック
 73
               1
 44
0.7828267384257843
  0
MTEXT
  5
146
100
AcDbEntity
  8
template
390
0
 62
               7
100
AcDbMText
 10
282.00000000049999
 20
-1175.9456140930099
 30
0.0
 40
23.96924122016161
 41
0.0
 71
               1
 72
               1
  1
FAA70-0005
  7
ＭＳ ゴシック
 73
               1
 44
0.7828267384257842
  0
MTEXT
  5
147
100
AcDbEntity
  8
template
390
0
 62
               7
100
AcDbMText
 10
282.00000000049999
 20
-1261.0000901712006
 30
0.0
 40
24.432617187500004
 41
0.0
 71
               1
 72
               1
  1
8.3kg
  7
ＭＳ ゴシック
 73
               1
 44
0.7828267384257843
  0
LINE
  5
148
100
AcDbEntity
  8
template
370
               5
390
0
  6
Continuous
 62
               7
100
AcDbLine
 10
222.00000000049999
 20
-1394.0027073587005
 30
0.0
 11
222.00000000049999
 21
-1139.0027073587005
 31
0.0
  0
MTEXT
  5
149
100
AcDbEntity
  8
template
390
0
 62
               7
100
AcDbMText
 10
-914.99999999975921
 20
-1176.0000901712006
 30
0.0
 40
24.432617187500004
 41
0.0
 71
               1
 72
               1
  1
手洗器 -DURAVIT,Happy D-　
  7
ＭＳ ゴシック
 73
               1
 44
0.7828267384257843
  0
DIMENSION
  5
14A
100
AcDbEntity
  8
notes
370
               5
390
0
  6
Continuous
 62
               7
100
AcDbDimension
  2
*D2
 10
-610.31618676555786
 20
800.11263868214257
 30
0.0
 11
-360.31618676555792
 21
800.11263868214257
 31
0.0
 71
               5
 72
               1
 41
1.0
 42
0.0
  3
tform線あり
100
AcDbAlignedDimension
 13
-110.31618676555792
 23
645.11263868214257
 33
0.0
 14
-610.31618676555786
 24
645.1126386821428
 34
0.0
100
AcDbRotatedDimension
1001
ACAD
1000
DSTYLE
1002
{
1070
             279
1070
               2
1070
             340
1005
33
1070
             147
1040
5.0
1002
}
  0
DIMENSION
  5
14B
100
AcDbEntity
  8
notes
370
               5
390
0
  6
Continuous
 62
               7
100
AcDbDimension
  2
*D3
 10
-110.31618676555792
 20
750.11263868214257
 30
0.0
 11
-132.81618676555792
 21
750.11263868214257
 31
0.0
 71
               5
 72
               1
 41
1.0
 42
0.0
  3
tform線あり
100
AcDbAlignedDimension
 13
-155.31618676555792
 23
582.61263868214257
 33
0.0
 14
-110.31618676555792
 24
645.11263868214257
 34
0.0
100
AcDbRotatedDimension
1001
ACAD
1000
DSTYLE
1002
{
1070
             279
1070
               2
1070
             340
1005
33
1070
             147
1040
5.0
1002
}
  0
DIMENSION
  5
14C
100
AcDbEntity
  8
notes
370
               5
390
0
  6
Continuous
 62
               7
100
AcDbDimension
  2
*D4
 10
-577.81591414186005
 20
-465.8095592014094
 30
0.0
 11
-360.31591414186011
 21
-465.8095592014094
 31
0.0
 71
               5
 72
               1
 41
1.0
 42
0.0
  3
tform線あり
100
AcDbAlignedDimension
 13
-142.81591414186008
 23
-606.15093918595664
 33
0.0
 14
-577.81591414186005
 24
-606.15093918595664
 34
0.0
100
AcDbRotatedDimension
1001
ACAD
1000
DSTYLE
1002
{
1070
             279
1070
               2
1070
             340
1005
33
1070
             147
1040
5.0
1002
}
  0
DIMENSION
  5
14D
100
AcDbEntity
  8
notes
370
               5
390
0
  6
Continuous
 62
               7
100
AcDbDimension
  2
*D5
 10
-110.31618676555792
 20
300.11263868214263
 30
0.0
 11
-160.31618676555792
 21
300.11263868214263
 31
0.0
 71
               5
 72
               1
 41
1.0
 42
0.0
  3
tform線あり
100
AcDbAlignedDimension
 13
-210.31618676555792
 23
400.11263868214263
 33
0.0
 14
-110.31618676555792
 24
475.11263868214263
 34
0.0
100
AcDbRotatedDimension
1001
ACAD
1000
DSTYLE
1002
{
1070
             279
1070
               2
1070
             340
1005
33
1070
             147
1040
5.0
1002
}
  0
DIMENSION
  5
14E
100
AcDbEntity
  8
notes
370
               5
390
0
  6
Continuous
 62
               7
100
AcDbDimension
  2
*D6
 10
-210.31618676555794
 20
300.11263868214263
 30
0.0
 11
-385.31571170859178
 21
300.11263868214263
 31
0.0
 71
               5
 72
               1
 41
1.0
 42
0.0
  3
tform線あり
100
AcDbAlignedDimension
 13
-560.31523665162558
 23
409.18502936260751
 33
0.0
 14
-210.31618676555794
 24
400.46435448696155
 34
0.0
100
AcDbRotatedDimension
1001
ACAD
1000
DSTYLE
1002
{
1070
             279
1070
               2
1070
             340
1005
33
1070
             147
1040
5.0
1002
}
  0
DIMENSION
  5
14F
100
AcDbEntity
  8
notes
370
               5
390
0
  6
Continuous
 62
               7
100
AcDbDimension
  2
*D7
 10
481.0
 20
-675.79864711933124
 30
0.0
 11
486.0
 21
-549.96154530825879
 31
0.0
 70
             128
 71
               5
 72
               1
 41
1.0
 42
0.0
  3
tform線あり
100
AcDbAlignedDimension
 13
480.0
 23
-565.79864711933112
 33
0.0
 14
480.0
 24
-675.79864711933124
 34
0.0
 50
90.0
100
AcDbRotatedDimension
1001
ACAD
1000
DSTYLE
1002
{
1070
             271
1070
               0
1070
             279
1070
               2
1070
             340
1005
33
1070
               3
1000
<>(深さ)
1070
             174
1070
               0
1070
             147
1040
5.0
1002
}
  0
DIMENSION
  5
150
100
AcDbEntity
  8
notes
370
               5
390
0
  6
Continuous
 62
               7
100
AcDbDimension
  2
*D8
 10
39.683813234442084
 20
650.11263868214257
 30
0.0
 11
39.683813234442084
 21
525.11263868214257
 31
0.0
 71
               5
 72
               1
 41
1.0
 42
0.0
  3
tform線あり
100
AcDbAlignedDimension
 13
-210.31618676555792
 23
400.11263868214263
 33
0.0
 14
-115.31618676555792
 24
650.11263868214257
 34
0.0
 50
90.0
100
AcDbRotatedDimension
1001
ACAD
1000
DSTYLE
1002
{
1070
             279
1070
               2
1070
             340
1005
33
1070
             147
1040
5.0
1002
}
  0
DIMENSION
  5
151
100
AcDbEntity
  8
notes
370
               5
390
0
  6
Continuous
 62
               7
100
AcDbDimension
  2
*D9
 10
-10.316186765557859
 20
-565.80955920140946
 30
0.0
 11
-10.316186765557859
 21
-635.80955920140946
 31
0.0
 71
               5
 72
               1
 41
1.0
 42
0.0
  3
tform線あり
100
AcDbAlignedDimension
 13
-200.03908807241487
 23
-705.80955920140946
 33
0.0
 14
-117.31618676555797
 24
-565.80955920140946
 34
0.0
 50
90.0
100
AcDbRotatedDimension
1001
ACAD
1000
DSTYLE
1002
{
1070
             279
1070
               2
1070
             340
1005
33
1070
             147
1040
5.0
1002
}
  0
DIMENSION
  5
152
100
AcDbEntity
  8
notes
370
               5
390
0
  6
Continuous
 62
               7
100
AcDbDimension
  2
*D10
 10
-10.316186765557916
 20
650.11263868214257
 30
0.0
 11
-5.3161867655579158
 21
607.61263868214257
 31
0.0
 70
             128
 71
               5
 72
               1
 41
1.0
 42
0.0
  3
tform線あり
100
AcDbAlignedDimension
 13
-137.81618676555792
 23
565.11263868214257
 33
0.0
 14
-115.31618676555792
 24
650.11263868214257
 34
0.0
 50
90.0
100
AcDbRotatedDimension
1001
ACAD
1000
DSTYLE
1002
{
1070
             279
1070
               2
1070
             340
1005
33
1070
             147
1040
5.0
1002
}
  0
DIMENSION
  5
153
100
AcDbEntity
  8
notes
370
               5
390
0
  6
Continuous
 62
               7
100
AcDbDimension
  2
*D11
 10
-710.31618676555786
 20
600.11302049095355
 30
0.0
 11
-710.31618676555786
 21
522.61302049095355
 31
0.0
 71
               5
 72
               1
 41
1.0
 42
0.0
  3
tform線あり
100
AcDbAlignedDimension
 13
-593.83290364800905
 23
445.1130204909536
 33
0.0
 14
-610.31618676555786
 24
600.11302049095355
 34
0.0
 50
90.0
100
AcDbRotatedDimension
1001
ACAD
1000
DSTYLE
1002
{
1070
             279
1070
               2
1070
             340
1005
33
1070
             147
1040
5.0
1002
}
  0
DIMENSION
  5
154
100
AcDbEntity
  8
notes
370
               5
390
0
  6
Continuous
 62
               7
100
AcDbDimension
  2
*D12
 10
-710.31618676555786
 20
-565.80955920140946
 30
0.0
 11
-710.31618676555786
 21
-585.80955920140946
 31
0.0
 71
               5
 72
               1
 41
1.0
 42
0.0
  3
tform線あり
100
AcDbAlignedDimension
 13
-592.81591414186005
 23
-605.80955920140946
 33
0.0
 14
-603.31618676555786
 24
-565.80955920140946
 34
0.0
 50
90.0
100
AcDbRotatedDimension
1001
ACAD
1000
DSTYLE
1002
{
1070
             279
1070
               2
1070
             340
1005
33
1070
             147
1040
5.0
1002
}
  0
DIMENSION
  5
155
100
AcDbEntity
  8
notes
370
               5
390
0
  6
Continuous
 62
               7
100
AcDbDimension
  2
*D13
 10
-710.31618676555786
 20
600.11302049095355
 30
0.0
 11
-710.31618676555786
 21
625.11282958654817
 31
0.0
 71
               5
 72
               1
 41
1.0
 42
0.0
  3
tform線あり
100
AcDbAlignedDimension
 13
-605.31618676555786
 23
650.1126386821428
 33
0.0
 14
-610.31618676555786
 24
600.11302049095355
 34
0.0
 50
90.0
100
AcDbRotatedDimension
1001
ACAD
1000
DSTYLE
1002
{
1070
             279
1070
               2
1070
             340
1005
33
1070
             147
1040
5.0
1002
}
  0
DIMENSION
  5
156
100
AcDbEntity
  8
notes
370
               5
390
0
  6
Continuous
 62
               7
100
AcDbDimension
  2
*D14
 10
-110.31618676555786
 20
-805.80955920140946
 30
0.0
 11
-235.31605045370898
 21
-805.80955920140946
 31
0.0
 71
               5
 72
               1
 41
1.0
 42
0.0
  3
tform線あり
100
AcDbAlignedDimension
 13
-360.31591414186011
 23
-702.93393799915248
 33
0.0
 14
-110.31618676555786
 24
-628.80955920140934
 34
0.0
100
AcDbRotatedDimension
1001
ACAD
1000
DSTYLE
1002
{
1070
             279
1070
               2
1070
             340
1005
33
1070
             147
1040
5.0
1002
}
  0
DIMENSION
  5
157
100
AcDbEntity
  8
notes
370
               5
390
0
  6
Continuous
 62
               7
100
AcDbDimension
  2
*D15
 10
475.30000000000001
 20
-805.80955920140946
 30
0.0
 11
422.80549337008222
 21
-805.80955920140946
 31
0.0
 71
               5
 72
               1
 41
1.0
 42
0.0
  3
tform線あり
100
AcDbAlignedDimension
 13
370.31098674016442
 23
-705.79888219418228
 33
0.0
 14
475.30000000000001
 24
-705.77033147962129
 34
0.0
100
AcDbRotatedDimension
1001
ACAD
1000
DSTYLE
1002
{
1070
             279
1070
               2
1070
             340
1005
33
1070
             147
1040
5.0
1002
}
  0
DIMENSION
  5
158
100
AcDbEntity
  8
notes
370
               5
390
0
  6
Continuous
 62
               7
100
AcDbDimension
  2
*D16
 10
720.31098674016766
 20
-565.79864711933112
 30
0.0
 11
720.31098674016766
 21
-603.28448929947626
 31
0.0
 71
               5
 72
               1
 41
1.0
 42
0.0
  3
tform線あり
100
AcDbAlignedDimension
 13
612.89434232729354
 23
-640.77033147962129
 33
0.0
 14
613.31098674016766
 24
-565.79864711933112
 34
0.0
 50
90.0
100
AcDbRotatedDimension
1001
ACAD
1000
DSTYLE
1002
{
1070
             279
1070
               2
1070
             340
1005
33
1070
             147
1040
5.0
1002
}
  0
DIMENSION
  5
159
100
AcDbEntity
  8
notes
370
               5
390
0
  6
Continuous
 62
               7
100
AcDbDimension
  2
*D17
 10
720.31098674016766
 20
-640.77033147962129
 30
0.0
 11
720.31098674016766
 21
-673.27033147962129
 31
0.0
 71
               5
 72
               1
 41
1.0
 42
0.0
  3
tform線あり
100
AcDbAlignedDimension
 13
515.44801988561153
 23
-705.77033147962129
 33
0.0
 14
613.31098674016766
 24
-640.77033147962129
 34
0.0
 50
90.0
100
AcDbRotatedDimension
1001
ACAD
1000
DSTYLE
1002
{
1070
             279
1070
               2
1070
             340
1005
33
1070
             147
1040
5.0
1002
}
  0
MTEXT
  5
15A
100
AcDbEntity
  8
notes
390
0
 62
               7
100
AcDbMText
 10
-698.34058670492504
 20
166.84983940972222
 30
0.0
 40
24.432617187500004
 41
928.34058670492504
 71
               1
 72
               1
  1
＝φ30もしくはφ35の水栓取付用穴あけ加工を承ります。\P   必要な場合、ご注文の際にご指示ください。
  7
ＭＳ ゴシック
 73
               1
 44
1.0437689845677123
  0
CIRCLE
  5
15B
100
AcDbEntity
  8
notes
370
              15
390
0
  6
STYLE_25
 62
               7
100
AcDbCircle
 10
-721.67029335246252
 20
149.30273782191676
 30
0.0
 40
17.5
  0
MTEXT
  5
15C
100
AcDbEntity
  8
notes
390
0
 62
               7
100
AcDbMText
 10
-58.187214363613776
 20
-488.67533530926676
 30
0.0
 40
24.432617187500004
 41
0.0
 71
               1
 72
               1
  1
壁取付ボルト穴(2ヶ所)
  7
ＭＳ ゴシック
 73
               1
 44
0.7828267384257843
  0
LINE
  5
15D
100
AcDbEntity
  8
notes
370
               5
390
0
  6
Continuous
 62
               7
100
AcDbLine
 10
-142.81591414186008
 20
-605.80955920140946
 30
0.0
 11
-45.016094297285427
 21
-522.25558145997957
 31
0.0
  0
MTEXT
  5
15E
100
AcDbEntity
  8
notes
390
0
 62
               7
100
AcDbMText
 10
-914.99999999975876
 20
-1261.0000901712006
 30
0.0
 40
24.432617187500004
 41
0.0
 71
               1
 72
               1
  1
壁掛け/オーバーフローなし/壁取付ボルト付属/陶器/ホワイト
  7
ＭＳ ゴシック
 73
               1
 44
1.1307497332816883
  0
LWPOLYLINE
  5
15F
100
AcDbEntity
  8
FAA70-0005
370
              15
390
0
  6
Continuous
 62
               7
100
AcDbPolyline
 90
        8
 70
             129
 10
-110.31618676555792
 20
645.11263868214257
 42
0.414213562373095
 10
-115.31618676555792
 20
650.11263868214257
 10
-605.31618676555786
 20
650.1126386821428
 42
0.414213562373095
 10
-610.31618676555786
 20
645.1126386821428
 10
-610.31618676555786
 20
500.11263868214263
 42
0.4142135623730947
 10
-510.31618676555792
 20
400.11263868214263
 10
-210.31618676555792
 20
400.11263868214263
 42
0.414213562373095
 10
-110.31618676555792
 20
500.11263868214263
  0
LWPOLYLINE
  5
160
100
AcDbEntity
  8
FAA70-0005
370
              15
390
0
  6
Continuous
 62
               7
100
AcDbPolyline
 90
       14
 70
             128
 10
-225.31618676555792
 20
600.11302049095355
 42
-0.414213562373095
 10
-210.31618676555792
 20
585.11302049095355
 10
-210.31618676555792
 20
584.61291992922975
 10
-210.31618676555792
 20
496.78002236336607
 10
-210.31618676555792
 20
495.1130204909536
 42
-0.414213562373095
 10
-260.31618676555792
 20
445.1130204909536
 10
-360.31512746651282
 20
445.1130204909536
 10
-510.31523665162564
 20
445.1130204909536
 42
-0.4142135623730944
 10
-560.31523665162558
 20
495.1130204909536
 10
-560.31523665162558
 20
496.78002236336607
 10
-560.31523665162558
 20
584.61291992922975
 10
-560.31523665162558
 20
585.11302049095343
 42
-0.4142135623730928
 10
-545.31523665162558
 20
600.11302049095355
 10
-225.31618676555792
 20
600.11302049095355
  0
CIRCLE
  5
161
100
AcDbEntity
  8
FAA70-0005
370
              15
390
0
  6
Continuous
 62
               7
100
AcDbCircle
 10
-360.31618676555792
 20
545.11263868214257
 30
0.0
 40
37.5
  0
CIRCLE
  5
162
100
AcDbEntity
  8
FAA70-0005
370
              15
390
0
  6
Continuous
 62
               7
100
AcDbCircle
 10
-360.31618676555792
 20
545.11263868214257
 30
0.0
 40
26.0
  0
CIRCLE
  5
163
100
AcDbEntity
  8
FAA70-0005
370
              15
390
0
  6
STYLE_25
 62
               7
100
AcDbCircle
 10
-155.31618676555792
 20
565.11263868214257
 30
0.0
 40
17.5
  0
LWPOLYLINE
  5
164
100
AcDbEntity
  8
FAA70-0005
370
              15
390
0
  6
Continuous
 62
               7
100
AcDbPolyline
 90
       25
 70
             129
 10
-110.31618676555797
 20
-572.80955920140946
 42
0.414213562373095
 10
-117.31618676555797
 20
-565.80955920140946
 10
-603.31618676555786
 20
-565.80955920140946
 42
0.414213562373095
 10
-610.31618676555786
 20
-572.80955920140946
 10
-610.31618676555786
 20
-628.80955920140946
 10
-610.29999999999995
 20
-638.80000000000007
 42
0.414213562373095
 10
-603.29999999999995
 20
-645.79999999999995
 10
-554.39999999999986
 20
-645.79999999999995
 42
-0.3312061653634981
 10
-547.70579099505517
 20
-650.78069668314959
 10
-547.70000000000005
 20
-650.79999999999995
 10
-530.12524266344008
 20
-698.83309882361129
 42
0.3268550056216394
 10
-520.59328545870085
 20
-705.80955920140946
 10
-475.57320993485109
 20
-705.80955920140946
 42
0.2228902359544699
 10
-467.88355262137287
 20
-702.20245920072671
 10
-463.50549757081137
 20
-696.93634475470776
 10
-257.12687596030457
 20
-696.93634475470776
 10
-252.74882090974302
 20
-702.20245920072682
 42
0.2228902359544753
 10
-245.05916359626497
 20
-705.80955920140946
 10
-200.03908807241487
 20
-705.80955920140946
 42
0.3268550056216538
 10
-190.50713086767567
 20
-698.8330988236105
 10
-173.0
 20
-650.79999999999995
 10
-172.99420900494499
 20
-650.78069668314993
 42
-0.3312061653634787
 10
-166.30000000000001
 20
-645.79999999999995
 10
-117.30000000000001
 20
-645.79999999999995
 42
0.414213562373095
 10
-110.30000000000001
 20
-638.79999999999995
  0
ARC
  5
165
100
AcDbEntity
  8
FAA70-0005
370
              15
390
0
  6
Continuous
 62
               7
100
AcDbCircle
 10
-392.12215871651284
 20
-695.93393799915248
 30
0.0
 40
7.0000000000000151
100
AcDbArc
 50
189.67811049635344
 51
270.0
  0
ARC
  5
166
100
AcDbEntity
  8
FAA70-0005
370
              15
390
0
  6
Continuous
 62
               7
100
AcDbCircle
 10
-328.50966956720737
 20
-695.93393799915248
 30
0.0
 40
7.0
100
AcDbArc
 50
270.0
 51
351.76688509061449
  0
LINE
  5
167
100
AcDbEntity
  8
FAA70-0005
370
              15
390
0
  6
Continuous
 62
               7
100
AcDbLine
 10
-392.12215871651284
 20
-702.93393799915248
 30
0.0
 11
-328.50966956720737
 21
-702.93393799915248
 31
0.0
  0
LINE
  5
168
100
AcDbEntity
  8
FAA70-0005
370
              15
390
0
  6
STYLE_25
 62
               7
100
AcDbLine
 10
-127.81591414186008
 20
-605.80955920140946
 30
0.0
 11
-157.81591414186008
 21
-605.80955920140946
 31
0.0
  0
LINE
  5
169
100
AcDbEntity
  8
FAA70-0005
370
              15
390
0
  6
STYLE_25
 62
               7
100
AcDbLine
 10
-142.81591414186008
 20
-620.80955920140934
 30
0.0
 11
-142.81591414186008
 21
-590.80955920140946
 31
0.0
  0
LINE
  5
16A
100
AcDbEntity
  8
FAA70-0005
370
              15
390
0
  6
STYLE_25
 62
               7
100
AcDbLine
 10
-592.81591414186005
 20
-605.80955920140946
 30
0.0
 11
-562.81591414186005
 21
-605.80955920140946
 31
0.0
  0
LINE
  5
16B
100
AcDbEntity
  8
FAA70-0005
370
              15
390
0
  6
STYLE_25
 62
               7
100
AcDbLine
 10
-577.81591414186005
 20
-620.80955920140934
 30
0.0
 11
-577.81591414186005
 21
-590.80955920140946
 31
0.0
  0
LINE
  5
16C
100
AcDbEntity
  8
FAA70-0005
370
              15
390
0
  6
Continuous
 62
               7
100
AcDbLine
 10
-554.39999999999986
 20
-645.79999999999995
 30
0.0
 11
-166.30000000000001
 21
-645.79999999999995
 31
0.0
  0
LINE
  5
16D
100
AcDbEntity
  8
FAA70-0005
370
              15
390
0
  6
Continuous
 62
               7
100
AcDbLine
 10
370.31098674016442
 20
-572.77033147962129
 30
0.0
 11
370.31098674016442
 21
-705.79888219418228
 31
0.0
  0
LINE
  5
16E
100
AcDbEntity
  8
FAA70-0005
370
              15
390
0
  6
Continuous
 62
               7
100
AcDbLine
 10
620.31098674016766
 20
-572.79864711933112
 30
0.0
 11
620.31098674016766
 21
-633.77033147962129
 31
0.0
  0
LINE
  5
16F
100
AcDbEntity
  8
FAA70-0005
370
              15
390
0
  6
Continuous
 62
               7
100
AcDbLine
 10
612.89434232729354
 20
-640.77033147962129
 30
0.0
 11
377.44801988561159
 21
-640.77033147962129
 31
0.0
  0
LINE
  5
170
100
AcDbEntity
  8
FAA70-0005
370
              15
390
0
  6
Continuous
 62
               7
100
AcDbLine
 10
376.68200567488049
 20
-565.79864711933112
 30
0.0
 11
613.31098674016766
 21
-565.79864711933112
 31
0.0
  0
LINE
  5
171
100
AcDbEntity
  8
FAA70-0005
370
              15
390
0
  6
STYLE_25
 62
               7
100
AcDbLine
 10
565.31098674016744
 20
-620.79864711933124
 30
0.0
 11
565.31098674016744
 21
-572.77033147962061
 31
0.0
  0
LINE
  5
172
100
AcDbEntity
  8
FAA70-0005
370
              15
390
0
  6
STYLE_25
 62
               7
100
AcDbLine
 10
430.31098674016431
 20
-572.7703314796214
 30
0.0
 11
430.31098674016431
 21
-668.79864711933124
 31
0.0
  0
LINE
  5
173
100
AcDbEntity
  8
FAA70-0005
370
              15
390
0
  6
STYLE_25
 62
               7
100
AcDbLine
 10
437.31098674016431
 20
-675.79864711933124
 30
0.0
 11
510.31098674016749
 21
-675.79864711933124
 31
0.0
  0
LINE
  5
174
100
AcDbEntity
  8
FAA70-0005
370
              15
390
0
  6
STYLE_25
 62
               7
100
AcDbLine
 10
501.3109867401684
 20
-680.0
 30
0.0
 11
505.31098674016727
 21
-676.0
 31
0.0
  0
LINE
  5
175
100
AcDbEntity
  8
FAA70-0005
370
              15
390
0
  6
STYLE_25
 62
               7
100
AcDbLine
 10
501.3109867401684
 20
-680.0
 30
0.0
 11
501.3109867401684
 21
-702.93393799915248
 31
0.0
  0
LINE
  5
176
100
AcDbEntity
  8
FAA70-0005
370
              15
390
0
  6
STYLE_25
 62
               7
100
AcDbLine
 10
501.3109867401684
 20
-680.0
 30
0.0
 11
449.31098674016431
 21
-680.0
 31
0.0
  0
LINE
  5
177
100
AcDbEntity
  8
FAA70-0005
370
              15
390
0
  6
STYLE_25
 62
               7
100
AcDbLine
 10
449.31098674016431
 20
-680.0
 30
0.0
 11
445.31098674016431
 21
-676.0
 31
0.0
  0
LINE
  5
178
100
AcDbEntity
  8
FAA70-0005
370
              15
390
0
  6
STYLE_25
 62
               7
100
AcDbLine
 10
449.31098674016431
 20
-680.0
 30
0.0
 11
449.31098674016431
 21
-702.93393799915248
 31
0.0
  0
ARC
  5
179
100
AcDbEntity
  8
FAA70-0005
370
              15
390
0
  6
Continuous
 62
               7
100
AcDbCircle
 10
377.31098674016442
 20
-572.79888170932406
 30
0.0
 40
6.9999999999999689
100
AcDbArc
 50
89.978674659222008
 51
180.0
  0
ARC
  5
17A
100
AcDbEntity
  8
FAA70-0005
370
              15
390
0
  6
Continuous
 62
               7
100
AcDbCircle
 10
377.31098674016442
 20
-633.77033147962129
 30
0.0
 40
7.0
100
AcDbArc
 50
180.0
 51
270.0
  0
ARC
  5
17B
100
AcDbEntity
  8
FAA70-0005
370
              15
390
0
  6
Continuous
 62
               7
100
AcDbCircle
 10
613.31098674016766
 20
-633.77033147962129
 30
0.0
 40
7.0
100
AcDbArc
 50
270.0
 51
0.0
  0
ARC
  5
17C
100
AcDbEntity
  8
FAA70-0005
370
              15
390
0
  6
STYLE_25
 62
               7
100
AcDbCircle
 10
572.31098674016744
 20
-572.77033196447951
 30
0.0
 40
7.0000000000000258
100
AcDbArc
 50
89.978674659222008
 51
180.0
  0
ARC
  5
17D
100
AcDbEntity
  8
FAA70-0005
370
              15
390
0
  6
STYLE_25
 62
               7
100
AcDbCircle
 10
423.31098674016431
 20
-572.81195913782585
 30
0.0
 40
7.0
100
AcDbArc
 50
0.0
 51
90.0
  0
ARC
  5
17E
100
AcDbEntity
  8
FAA70-0005
370
              15
390
0
  6
Continuous
 62
               7
100
AcDbCircle
 10
515.14918308468259
 20
-630.77033147962129
 30
0.0
 40
75.0
100
AcDbArc
 50
270.0
 51
0.0
  0
LINE
  5
17F
100
AcDbEntity
  8
FAA70-0005
370
              15
390
0
  6
STYLE_25
 62
               7
100
AcDbLine
 10
449.31098674016431
 20
-702.93393799915248
 30
0.0
 11
501.3109867401684
 21
-702.93393799915248
 31
0.0
  0
ARC
  5
180
100
AcDbEntity
  8
FAA70-0005
370
              15
390
0
  6
STYLE_25
 62
               7
100
AcDbCircle
 10
-565.97684014284005
 20
-572.80955920094152
 30
0.0
 40
6.9999999999999272
100
AcDbArc
 50
2.8928280903191235
 51
90.0
  0
LINE
  5
181
100
AcDbEntity
  8
FAA70-0005
370
              15
390
0
  6
STYLE_25
 62
               7
100
AcDbLine
 10
-439.43526984601874
 20
-675.79999999999995
 30
0.0
 11
-330.31773530340996
 21
-675.79999999999995
 31
0.0
  0
ARC
  5
182
100
AcDbEntity
  8
FAA70-0005
370
              15
390
0
  6
STYLE_25
 62
               7
100
AcDbCircle
 10
-202.8936995491955
 20
-572.62230677336254
 30
0.0
 40
7.0
100
AcDbArc
 50
90.0
 51
177.10717190968089
  0
LINE
  5
183
100
AcDbEntity
  8
FAA70-0005
370
              15
390
0
  6
STYLE_25
 62
               7
100
AcDbLine
 10
-334.31591414185806
 20
-680.0
 30
0.0
 11
-330.3159141418592
 21
-676.0
 31
0.0
  0
LINE
  5
184
100
AcDbEntity
  8
FAA70-0005
370
              15
390
0
  6
STYLE_25
 62
               7
100
AcDbLine
 10
-334.31591414185806
 20
-680.0
 30
0.0
 11
-334.31591414185806
 21
-702.93393799915248
 31
0.0
  0
LINE
  5
185
100
AcDbEntity
  8
FAA70-0005
370
              15
390
0
  6
STYLE_25
 62
               7
100
AcDbLine
 10
-334.31591414185806
 20
-680.0
 30
0.0
 11
-386.31591414186215
 21
-680.0
 31
0.0
  0
LINE
  5
186
100
AcDbEntity
  8
FAA70-0005
370
              15
390
0
  6
STYLE_25
 62
               7
100
AcDbLine
 10
-386.31591414186215
 20
-680.0
 30
0.0
 11
-390.31591414186215
 21
-676.0
 31
0.0
  0
LINE
  5
187
100
AcDbEntity
  8
FAA70-0005
370
              15
390
0
  6
STYLE_25
 62
               7
100
AcDbLine
 10
-386.31591414186215
 20
-680.0
 30
0.0
 11
-386.31591414186215
 21
-702.93393799915248
 31
0.0
  0
LINE
  5
188
100
AcDbEntity
  8
FAA70-0005
370
              15
390
0
  6
STYLE_03
 62
               7
100
AcDbLine
 10
-386.31591414186215
 20
-702.93393799915248
 30
0.0
 11
-334.31591414185806
 21
-702.93393799915248
 31
0.0
  0
ARC
  5
189
100
AcDbEntity
  8
FAA70-0005
370
              15
390
0
  6
Continuous
 62
               7
100
AcDbCircle
 10
613.31098674016766
 20
-572.79864711933112
 30
0.0
 40
7.0
100
AcDbArc
 50
0.0
 51
90.0
  0
CIRCLE
  5
18A
100
AcDbEntity
  8
FAA70-0005
370
              15
390
0
  6
STYLE_25
 62
               7
100
AcDbCircle
 10
-577.81591414186005
 20
-605.80955920140946
 30
0.0
 40
10.0
  0
CIRCLE
  5
18B
100
AcDbEntity
  8
FAA70-0005
370
              15
390
0
  6
STYLE_25
 62
               7
100
AcDbCircle
 10
-142.81591414186011
 20
-605.80955920140946
 30
0.0
 40
10.0
  0
LINE
  5
18C
100
AcDbEntity
  8
FAA70-0005
370
              15
390
0
  6
Continuous
 62
               7
100
AcDbLine
 10
515.14918308468259
 20
-705.77033147962129
 30
0.0
 11
370.31098674016442
 21
-705.79888219418228
 31
0.0
  0
ARC
  5
18D
100
AcDbEntity
  8
FAA70-0005
370
              15
390
0
  6
STYLE_25
 62
               7
100
AcDbCircle
 10
437.31098674016431
 20
-668.79864711933124
 30
0.0
 40
7.0
100
AcDbArc
 50
180.0
 51
270.0
  0
ARC
  5
18E
100
AcDbEntity
  8
FAA70-0005
370
              15
390
0
  6
STYLE_25
 62
               7
100
AcDbCircle
 10
510.31098674016749
 20
-620.79864711933124
 30
0.0
 40
55.0
100
AcDbArc
 50
270.0
 51
0.0
  0
ARC
  5
18F
100
AcDbEntity
  8
FAA70-0005
370
              15
390
0
  6
STYLE_25
 62
               7
100
AcDbCircle
 10
-325.55389086039253
 20
-559.52894153572311
 30
0.0
 40
116.36860938535166
100
AcDbArc
 50
267.65379617410218
 51
353.71463232980364
  0
ARC
  5
190
100
AcDbEntity
  8
FAA70-0005
370
              15
390
0
  6
STYLE_25
 62
               7
100
AcDbCircle
 10
-443.68258909808389
 20
-559.52894153572311
 30
0.0
 40
116.36860938535153
100
AcDbArc
 50
186.28536767019636
 51
272.34620382589782
  0
ENDSEC
  0
SECTION
  2
OBJECTS
  0
DICTIONARY
  5
19
100
AcDbDictionary
280
               0
281
               1
  3
ACAD_GROUP
350
1A
  3
ACAD_MLINESTYLE
350
1B
  3
ACAD_LAYOUT
350
1E
  3
ACAD_PLOTSETTINGS
350
22
  3
ACAD_PLOTSTYLENAME
350
1F
  0
DICTIONARY
  5
1A
102
{ACAD_REACTORS
330
19
102
}
100
AcDbDictionary
280
               0
281
               1
  0
DICTIONARY
  5
1B
102
{ACAD_REACTORS
330
19
102
}
100
AcDbDictionary
280
               0
281
               1
  3
Standard
350
1C
  0
MLINESTYLE
  5
1C
102
{ACAD_REACTORS
330
1B
102
}
100
AcDbMlineStyle
  2
Standard
 70
               0
  3

 62
               0
 51
90.0
 52
90.0
 71
               2
 49
0.5
 62
             256
  6
ByLayer
 49
-0.5
 62
             256
  6
ByLayer
  0
ACDBDICTIONARYWDFLT
  5
1F
102
{ACAD_REACTORS
330
19
102
}
100
AcDbDictionary
281
               1
  3
Normal
350
1D
100
AcDbDictionaryWithDefault
340
1D
  0
ACDBPLACEHOLDER
  5
1D
102
{ACAD_REACTORS
330
1F
102
}
  0
LAYOUT
  5
20
102
{ACAD_REACTORS
330
1E
102
}
100
AcDbPlotSettings
  1

  2

  4

  6

 40
0.0
 41
0.0
 42
0.0
 43
0.0
 44
0.0
 45
0.0
 46
0.0
 47
0.0
 48
0.0
 49
0.0
140
0.0
141
0.0
142
1.0
143
1.0
 70
            1024
 72
               0
 73
               0
 74
               0
  7

 75
               0
147
1.0
148
0.0
149
0.0
100
AcDbLayout
  1
Model
 70
               0
 71
               0
 10
0.0
 20
0.0
 11
0.0
 21
0.0
 12
0.0
 22
0.0
 32
0.0
 14
0.0
 24
0.0
 34
0.0
 15
0.0
 25
0.0
 35
0.0
146
0.0
 13
0.0
 23
0.0
 33
0.0
 16
0.0
 26
0.0
 36
0.0
 17
0.0
 27
0.0
 37
0.0
 76
               0
330
A
331
0
345
0
346
0
  0
LAYOUT
  5
21
102
{ACAD_REACTORS
330
1E
102
}
100
AcDbPlotSettings
  1

  2

  4

  6

 40
0.0
 41
0.0
 42
0.0
 43
0.0
 44
0.0
 45
0.0
 46
0.0
 47
0.0
 48
0.0
 49
0.0
140
0.0
141
0.0
142
1.0
143
1.0
 70
               0
 72
               0
 73
               0
 74
               0
  7

 75
               0
147
1.0
148
0.0
149
0.0
100
AcDbLayout
  1
Layout1
 70
               0
 71
               0
 10
0.0
 20
0.0
 11
0.0
 21
0.0
 12
0.0
 22
0.0
 32
0.0
 14
0.0
 24
0.0
 34
0.0
 15
0.0
 25
0.0
 35
0.0
146
0.0
 13
0.0
 23
0.0
 33
0.0
 16
0.0
 26
0.0
 36
0.0
 17
0.0
 27
0.0
 37
0.0
 76
               0
330
B
331
0
345
0
346
0
  0
DICTIONARY
  5
1E
102
{ACAD_REACTORS
330
19
102
}
100
AcDbDictionary
280
               0
281
               1
  3
Layout1
350
21
  3
Model
350
20
  0
DICTIONARY
  5
22
102
{ACAD_REACTORS
330
19
102
}
100
AcDbDictionary
280
               0
281
               1
  0
ENDSEC
  0
EOF
