  0
SECTION
  2
HEADER
  9
$ACADVER
  1
AC1015
  9
$ACADMAINTVER
 70
               6
  9
$DWGCODEPAGE
  3
ANSI_932
  9
$INSBASE
 10
0.0
 20
0.0
 30
0.0
  9
$EXTMIN
 10
-975.00000000024124
 20
-1431.5255224711129
 30
-14.428611111111111
  9
$EXTMAX
 10
975.00000000024124
 20
1405.9972926412995
 30
14.428611111111111
  9
$LIMMIN
 10
0.0
 20
0.0
  9
$LIMMAX
 10
0.0
 20
0.0
  9
$ORTHOMODE
 70
               0
  9
$REGENMODE
 70
               1
  9
$FILLMODE
 70
               1
  9
$QTEXTMODE
 70
               0
  9
$MIRRTEXT
 70
               1
  9
$LTSCALE
 40
25.399999999999999
  9
$ATTMODE
 70
               1
  9
$TEXTSIZE
 40
0.2
  9
$TRACEWID
 40
1.0
  9
$TEXTSTYLE
  7
Standard
  9
$CLAYER
  8
FAA70-0107
  9
$CELTYPE
  6
Continuous
  9
$CECOLOR
 62
             256
  9
$CELTSCALE
 40
1.0
  9
$DISPSILH
 70
               0
  9
$DIMSCALE
 40
1.0
  9
$DIMASZ
 40
31.75
  9
$DIMEXO
 40
0.0
  9
$DIMDLI
 40
6.9999999999999396
  9
$DIMRND
 40
0.0
  9
$DIMDLE
 40
0.0
  9
$DIMEXE
 40
19.999999999996199
  9
$DIMTP
 40
0.0
  9
$DIMTM
 40
0.0
  9
$DIMTXT
 40
24.432617187500004
  9
$DIMCEN
 40
0.0
  9
$DIMTSZ
 40
0.0
  9
$DIMTOL
 70
               0
  9
$DIMLIM
 70
               0
  9
$DIMTIH
 70
               0
  9
$DIMTOH
 70
               0
  9
$DIMSE1
 70
               0
  9
$DIMSE2
 70
               0
  9
$DIMTAD
 70
               1
  9
$DIMZIN
 70
              11
  9
$DIMBLK
  1
VW_FILLEDARROW
  9
$DIMASO
 70
               1
  9
$DIMSHO
 70
               1
  9
$DIMPOST
  1
<>
  9
$DIMAPOST
  1
[]
  9
$DIMALT
 70
               0
  9
$DIMALTD
 70
               1
  9
$DIMALTF
 40
1.0
  9
$DIMLFAC
 40
1.0
  9
$DIMTOFL
 70
               0
  9
$DIMTVP
 40
0.0
  9
$DIMTIX
 70
               1
  9
$DIMSOXD
 70
               0
  9
$DIMSAH
 70
               0
  9
$DIMBLK1
  1

  9
$DIMBLK2
  1

  9
$DIMSTYLE
  2
JIS
  9
$DIMCLRD
 70
               0
  9
$DIMCLRE
 70
               0
  9
$DIMCLRT
 70
               0
  9
$DIMTFAC
 40
1.0
  9
$DIMGAP
 40
1.00000000000108
  9
$DIMJUST
 70
               0
  9
$DIMSD1
 70
               0
  9
$DIMSD2
 70
               0
  9
$DIMTOLJ
 70
               1
  9
$DIMTZIN
 70
              11
  9
$DIMALTZ
 70
              11
  9
$DIMALTTZ
 70
              11
  9
$DIMUPT
 70
               0
  9
$DIMDEC
 70
               1
  9
$DIMTDEC
 70
               1
  9
$DIMALTU
 70
               2
  9
$DIMALTTD
 70
               2
  9
$DIMTXSTY
  7
ＭＳ ゴシック
  9
$DIMAUNIT
 70
               0
  9
$DIMADEC
 70
               2
  9
$DIMALTRND
 40
0.0
  9
$DIMAZIN
 70
               0
  9
$DIMDSEP
 70
              46
  9
$DIMATFIT
 70
               0
  9
$DIMFRAC
 70
               2
  9
$DIMLDRBLK
  1

  9
$DIMLUNIT
 70
               2
  9
$DIMLWD
 70
              -2
  9
$DIMLWE
 70
              -2
  9
$DIMTMOVE
 70
               0
  9
$LUNITS
 70
               2
  9
$LUPREC
 70
               4
  9
$SKETCHINC
 40
0.1
  9
$FILLETRAD
 40
0.0
  9
$AUNITS
 70
               0
  9
$AUPREC
 70
               0
  9
$MENU
  1
acad
  9
$ELEVATION
 40
0.0
  9
$PELEVATION
 40
0.0
  9
$THICKNESS
 40
0.0
  9
$LIMCHECK
 70
               0
  9
$CHAMFERA
 40
0.0
  9
$CHAMFERB
 40
0.0
  9
$CHAMFERC
 40
0.0
  9
$CHAMFERD
 40
0.0
  9
$SKPOLY
 70
               0
  9
$TDCREATE
 40
2455847.690486111
  9
$TDUCREATE
 40
0.000000000
  9
$TDUPDATE
 40
2455847.690486111
  9
$TDUUPDATE
 40
0.000000000
  9
$TDINDWG
 40
0.0000000000
  9
$TDUSRTIMER
 40
0.0000000000
  9
$USRTIMER
 70
               1
  9
$ANGBASE
 50
0.0
  9
$ANGDIR
 70
               0
  9
$PDMODE
 70
               1
  9
$PDSIZE
 40
-2.0
  9
$PLINEWID
 40
0.0
  9
$SPLFRAME
 70
               0
  9
$SPLINETYPE
 70
               6
  9
$SPLINESEGS
 70
               8
  9
$HANDSEED
  5
147
  9
$SURFTAB1
 70
               6
  9
$SURFTAB2
 70
               6
  9
$SURFTYPE
 70
               6
  9
$SURFU
 70
               6
  9
$SURFV
 70
               6
  9
$UCSBASE
  2

  9
$UCSNAME
  2

  9
$UCSORG
 10
0.0
 20
0.0
 30
0.0
  9
$UCSXDIR
 10
1.0
 20
0.0
 30
0.0
  9
$UCSYDIR
 10
0.0
 20
1.0
 30
0.0
  9
$UCSORTHOREF
  2

  9
$UCSORTHOVIEW
 70
               0
  9
$UCSORGTOP
 10
0.0
 20
0.0
 30
0.0
  9
$UCSORGBOTTOM
 10
0.0
 20
0.0
 30
0.0
  9
$UCSORGLEFT
 10
0.0
 20
0.0
 30
0.0
  9
$UCSORGRIGHT
 10
0.0
 20
0.0
 30
0.0
  9
$UCSORGFRONT
 10
0.0
 20
0.0
 30
0.0
  9
$UCSORGBACK
 10
0.0
 20
0.0
 30
0.0
  9
$PUCSBASE
  2

  9
$PUCSNAME
  2

  9
$PUCSORG
 10
0.0
 20
0.0
 30
0.0
  9
$PUCSXDIR
 10
1.0
 20
0.0
 30
0.0
  9
$PUCSYDIR
 10
0.0
 20
1.0
 30
0.0
  9
$PUCSORTHOREF
  2

  9
$PUCSORTHOVIEW
 70
               0
  9
$PUCSORGTOP
 10
0.0
 20
0.0
 30
0.0
  9
$PUCSORGBOTTOM
 10
0.0
 20
0.0
 30
0.0
  9
$PUCSORGLEFT
 10
0.0
 20
0.0
 30
0.0
  9
$PUCSORGRIGHT
 10
0.0
 20
0.0
 30
0.0
  9
$PUCSORGFRONT
 10
0.0
 20
0.0
 30
0.0
  9
$PUCSORGBACK
 10
0.0
 20
0.0
 30
0.0
  9
$USERI1
 70
               0
  9
$USERI2
 70
               0
  9
$USERI3
 70
               0
  9
$USERI4
 70
               0
  9
$USERI5
 70
               0
  9
$USERR1
 40
0.0
  9
$USERR2
 40
0.0
  9
$USERR3
 40
0.0
  9
$USERR4
 40
0.0
  9
$USERR5
 40
0.0
  9
$WORLDVIEW
 70
               1
  9
$SHADEDGE
 70
               3
  9
$SHADEDIF
 70
              70
  9
$TILEMODE
 70
               1
  9
$MAXACTVP
 70
              64
  9
$PINSBASE
 10
0.0
 20
0.0
 30
0.0
  9
$PLIMCHECK
 70
               0
  9
$PEXTMIN
 10
1.0000000000000000E+20
 20
1.0000000000000000E+20
 30
1.0000000000000000E+20
  9
$PEXTMAX
 10
-1.0000000000000000E+20
 20
-1.0000000000000000E+20
 30
-1.0000000000000000E+20
  9
$PLIMMIN
 10
0.0
 20
0.0
  9
$PLIMMAX
 10
12.0
 20
9.0
  9
$UNITMODE
 70
               0
  9
$VISRETAIN
 70
               0
  9
$PLINEGEN
 70
               1
  9
$PSLTSCALE
 70
               0
  9
$TREEDEPTH
 70
            3020
  9
$CMLSTYLE
  2
Standard
  9
$CMLJUST
 70
               0
  9
$CMLSCALE
 40
1.0
  9
$PROXYGRAPHICS
 70
               0
  9
$MEASUREMENT
 70
               1
  9
$CELWEIGHT
370
               0
  9
$ENDCAPS
280
               0
  9
$JOINSTYLE
280
               0
  9
$LWDISPLAY
290
               1
  9
$INSUNITS
 70
               4
  9
$HYPERLINKBASE
  1

  9
$STYLESHEET
  1

  9
$XEDIT
290
               1
  9
$CEPSNTYPE
380
               0
  9
$PSTYLEMODE
290
               1
  9
$FINGERPRINTGUID
  2

  9
$VERSIONGUID
  2

  9
$EXTNAMES
290
               1
  9
$PSVPSCALE
 40
0.0
  0
ENDSEC
  0
SECTION
  2
CLASSES
  0
CLASS
  1
LWPOLYLINE
  2
AcDbPolyline
  3
AutoCAD 2000
 90
        0
280
               0
281
               1
  0
CLASS
  1
IMAGE
  2
AcDbRasterImage
  3
ISM
 90
      127
280
               0
281
               1
  0
CLASS
  1
OLE2FRAME
  2
AcDbOle2Frame
  3
AutoCAD 2000
 90
        0
280
               0
281
               1
  0
CLASS
  1
HATCH
  2
AcDbHatch
  3
AutoCAD 2000
 90
        0
280
               0
281
               1
  0
CLASS
  1
DICTIONARYVAR
  2
AcDbDictionaryVar
  3
AutoCAD 2000
 90
        0
280
               0
281
               0
  0
CLASS
  1
RASTERVARIABLES
  2
AcDbRasterVariables
  3
ISM
 90
        0
280
               0
281
               0
  0
CLASS
  1
IMAGEDEF
  2
AcDbRasterImageDef
  3
ISM
 90
        0
280
               0
281
               0
  0
CLASS
  1
IMAGEDEF_REACTOR
  2
AcDbRasterImageDefReactor
  3
ISM
 90
        1
280
               0
281
               0
  0
CLASS
  1
IDBUFFER
  2
AcDbIdBuffer
  3
AutoCAD 2000
 90
        0
280
               0
281
               0
  0
CLASS
  1
SPATIAL_FILTER
  2
AcDbSpatialFilter
  3
AutoCAD 2000
 90
        0
280
               0
281
               0
  0
CLASS
  1
XRECORD
  2
AcDbXrecord
  3
AutoCAD 2000
 90
        0
280
               0
281
               0
  0
CLASS
  1
SORTENTSTABLE
  2
AcDbSortentsTable
  3
AutoCAD 2000
 90
        0
280
               0
281
               0
  0
CLASS
  1
LAYER_INDEX
  2
AcDbLayerIndex
  3
AutoCAD 2000
 90
        0
280
               0
281
               0
  0
CLASS
  1
SPATIAL_INDEX
  2
AcDbSpatialIndex
  3
AutoCAD 2000
 90
        0
280
               0
281
               0
  0
CLASS
  1
OBJECT_PTR
  2
CAseDLPNTableRecord
  3
"ASE-LPNTableRecord"
 90
        1
280
               0
281
               0
  0
CLASS
  1
LAYOUT
  2
AcDbLayout
  3
AutoCAD 2000
 90
        0
280
               0
281
               0
  0
CLASS
  1
PLOTSETTINGS
  2
AcDbPlotSettings
  3
AutoCAD 2000
 90
        0
280
               0
281
               0
  0
CLASS
  1
ACDBDICTIONARYWDFLT
  2
AcDbDictionaryWithDefault
  3
AutoCAD 2000
 90
        0
280
               0
281
               0
  0
CLASS
  1
ACDBPLACEHOLDER
  2
AcDbPlaceHolder
  3
AutoCAD 2000
 90
        0
280
               0
281
               0
  0
ENDSEC
  0
SECTION
  2
TABLES
  0
TABLE
  2
VPORT
  5
7
100
AcDbSymbolTable
 70
               1
  0
VPORT
  5
15
100
AcDbSymbolTableRecord
100
AcDbViewportTableRecord
  2
*ACTIVE
 70
               0
 10
0.0
 20
0.0
 11
1.0
 21
1.0
 12
0.0
 22
-12.764114914906713
 13
0.0
 23
0.0
 14
1.0
 24
1.0
 15
0.0
 25
0.0
 16
0.0
 26
0.0
 36
1.0
 17
0.0
 27
0.0
 37
0.0
 40
2837.5228151124124
 41
0.688564
 42
50.0
 43
0.0
 44
0.0
 50
0.0
 51
0.0
 71
               0
 72
            2000
 73
               1
 74
               1
 75
               0
 76
               0
 77
               0
 78
               0
281
               0
 65
               0
110
0.0
120
0.0
130
0.0
111
1.0
121
0.0
131
0.0
112
0.0
122
1.0
132
0.0
345
0
346
0
 79
               0
146
0.0
  0
ENDTAB
  0
TABLE
  2
LTYPE
  5
4
100
AcDbSymbolTable
 70
              17
  0
LTYPE
  5
11
100
AcDbSymbolTableRecord
100
AcDbLinetypeTableRecord
  2
ByBlock
 70
              64
  3

 72
              65
 73
               0
 40
0.0
  0
LTYPE
  5
12
100
AcDbSymbolTableRecord
100
AcDbLinetypeTableRecord
  2
ByLayer
 70
              64
  3

 72
              65
 73
               0
 40
0.0
  0
LTYPE
  5
13
100
AcDbSymbolTableRecord
100
AcDbLinetypeTableRecord
  2
Continuous
 70
              64
  3
Solid line
 72
              65
 73
               0
 40
0.0
  0
LTYPE
  5
30
100
AcDbSymbolTableRecord
100
AcDbLinetypeTableRecord
  2
STYLE_01
 70
               0
  3

 72
              65
 73
               2
 40
0.4921259842519685
 49
0.3740157480314961
 74
               0
 49
-0.1181102362204724
 74
               0
  0
LTYPE
  5
31
100
AcDbSymbolTableRecord
100
AcDbLinetypeTableRecord
  2
STYLE_02
 70
               0
  3

 72
              65
 73
               4
 40
1.0826771653543308
 49
0.7677165354330708
 74
               0
 49
-0.1181102362204725
 74
               0
 49
0.078740157480315
 74
               0
 49
-0.1181102362204724
 74
               0
  0
LTYPE
  5
32
100
AcDbSymbolTableRecord
100
AcDbLinetypeTableRecord
  2
STYLE_03
 70
               0
  3

 72
              65
 73
               6
 40
1.2795275590551181
 49
0.7677165354330708
 74
               0
 49
-0.1181102362204725
 74
               0
 49
0.078740157480315
 74
               0
 49
-0.1181102362204724
 74
               0
 49
0.078740157480315
 74
               0
 49
-0.1181102362204724
 74
               0
  0
LTYPE
  5
33
100
AcDbSymbolTableRecord
100
AcDbLinetypeTableRecord
  2
STYLE_04
 70
               0
  3

 72
              65
 73
               2
 40
0.7499999999999998
 49
0.4999999999999999
 74
               0
 49
-0.2499999999999999
 74
               0
  0
LTYPE
  5
34
100
AcDbSymbolTableRecord
100
AcDbLinetypeTableRecord
  2
STYLE_05
 70
               0
  3

 72
              65
 73
               2
 40
0.41656
 49
0.13885
 74
               0
 49
-0.27771
 74
               0
  0
LTYPE
  5
35
100
AcDbSymbolTableRecord
100
AcDbLinetypeTableRecord
  2
STYLE_06
 70
               0
  3

 72
              65
 73
               4
 40
2.0832800000000002
 49
1.25
 74
               0
 49
-0.41656
 74
               0
 49
0.1388600000000001
 74
               0
 49
-0.2778600000000001
 74
               0
  0
LTYPE
  5
36
100
AcDbSymbolTableRecord
100
AcDbLinetypeTableRecord
  2
STYLE_07
 70
               0
  3

 72
              65
 73
               6
 40
3.75
 49
1.25
 74
               0
 49
-0.41656
 74
               0
 49
1.2500000000000002
 74
               0
 49
-0.4167199999999999
 74
               0
 49
0.1388600000000001
 74
               0
 49
-0.2778599999999998
 74
               0
  0
LTYPE
  5
37
100
AcDbSymbolTableRecord
100
AcDbLinetypeTableRecord
  2
STYLE_08
 70
               0
  3

 72
              65
 73
               6
 40
2.5
 49
1.25
 74
               0
 49
-0.41656
 74
               0
 49
0.1388600000000001
 74
               0
 49
-0.2778600000000001
 74
               0
 49
0.1388599999999998
 74
               0
 49
-0.2778600000000001
 74
               0
  0
LTYPE
  5
38
100
AcDbSymbolTableRecord
100
AcDbLinetypeTableRecord
  2
STYLE_09
 70
               0
  3

 72
              65
 73
               4
 40
10.0
 49
7.5
 74
               0
 49
-0.5555699999999997
 74
               0
 49
1.3888600000000006
 74
               0
 49
-0.5555699999999997
 74
               0
  0
LTYPE
  5
39
100
AcDbSymbolTableRecord
100
AcDbLinetypeTableRecord
  2
STYLE_10
 70
               0
  3

 72
              65
 73
               6
 40
11.875
 49
7.5
 74
               0
 49
-0.5555699999999997
 74
               0
 49
1.3888600000000006
 74
               0
 49
-0.5555699999999997
 74
               0
 49
1.25
 74
               0
 49
-0.625
 74
               0
  0
LTYPE
  5
3A
100
AcDbSymbolTableRecord
100
AcDbLinetypeTableRecord
  2
STYLE_11
 70
               0
  3

 72
              65
 73
               2
 40
0.1388889763779528
 49
0.0694444881889764
 74
               0
 49
-0.0694444881889764
 74
               0
  0
LTYPE
  5
3B
100
AcDbSymbolTableRecord
100
AcDbLinetypeTableRecord
  2
STYLE_12
 70
               0
  3

 72
              65
 73
               2
 40
0.7874015748031495
 49
0.3937007874015748
 74
               0
 49
-0.3937007874015748
 74
               0
  0
LTYPE
  5
3C
100
AcDbSymbolTableRecord
100
AcDbLinetypeTableRecord
  2
STYLE_13
 70
               0
  3

 72
              65
 73
               2
 40
1.1811023622047243
 49
0.5905511811023622
 74
               0
 49
-0.5905511811023622
 74
               0
  0
LTYPE
  5
3D
100
AcDbSymbolTableRecord
100
AcDbLinetypeTableRecord
  2
STYLE_14
 70
               0
  3

 72
              65
 73
               2
 40
3.9370078740157477
 49
1.9685039370078738
 74
               0
 49
-1.9685039370078738
 74
               0
  0
ENDTAB
  0
TABLE
  2
LAYER
  5
2
100
AcDbSymbolTable
 70
               5
  0
LAYER
  5
14
100
AcDbSymbolTableRecord
100
AcDbLayerTableRecord
  2
0
 70
               0
 62
               7
  6
Continuous
290
               1
370
              -3
390
1D
  0
LAYER
  5
3E
100
AcDbSymbolTableRecord
100
AcDbLayerTableRecord
  2
Defpoints
 70
               0
 62
               7
  6
Continuous
290
               0
370
              -3
390
1D
  0
LAYER
  5
3F
100
AcDbSymbolTableRecord
100
AcDbLayerTableRecord
  2
template
 70
               0
 62
               7
  6
Continuous
290
               1
370
              -3
390
1D
  0
LAYER
  5
40
100
AcDbSymbolTableRecord
100
AcDbLayerTableRecord
  2
notes
 70
               0
 62
               7
  6
Continuous
290
               1
370
              -3
390
1D
  0
LAYER
  5
41
100
AcDbSymbolTableRecord
100
AcDbLayerTableRecord
  2
FAA70-0107
 70
               0
 62
               7
  6
Continuous
290
               1
370
              -3
390
1D
  0
ENDTAB
  0
TABLE
  2
STYLE
  5
3
100
AcDbSymbolTable
 70
               2
  0
STYLE
  5
17
100
AcDbSymbolTableRecord
100
AcDbTextStyleTableRecord
  2
Standard
 70
               0
 40
0.0
 41
1.0
 50
0.0
 71
               0
 42
0.0
  3
txt
  4
BIGFONT.SHX
  0
STYLE
  5
2F
100
AcDbSymbolTableRecord
100
AcDbTextStyleTableRecord
  2
ＭＳ ゴシック
 70
               0
 40
0.0
 41
1.0
 50
0.0
 71
               0
 42
0.0
  3

  4
ＭＳ ゴシック
1001
ACAD
1000
ＭＳ ゴシック
1071
        0
  0
ENDTAB
  0
TABLE
  2
VIEW
  5
5
100
AcDbSymbolTable
 70
               0
  0
ENDTAB
  0
TABLE
  2
UCS
  5
6
100
AcDbSymbolTable
 70
               0
  0
ENDTAB
  0
TABLE
  2
APPID
  5
8
100
AcDbSymbolTable
 70
               1
  0
APPID
  5
16
100
AcDbSymbolTableRecord
100
AcDbRegAppTableRecord
  2
ACAD
 70
               0
  0
ENDTAB
  0
TABLE
  2
DIMSTYLE
  5
9
100
AcDbSymbolTable
 70
               3
100
AcDbDimStyleTable
 71
               0
  0
DIMSTYLE
105
18
100
AcDbSymbolTableRecord
100
AcDbDimStyleTableRecord
  2
Standard
 70
               0
  3

  4

 40
1.0
 41
0.18
 42
0.0625
 43
0.38
 44
0.18
 45
0.0
 46
0.0
 47
0.0
 48
0.0
 71
               0
 72
               0
 73
               1
 74
               1
 75
               0
 76
               0
 77
               0
 78
               0
 79
               0
140
0.18
141
0.09
142
0.0
143
25.399999999999999
144
1.0
145
0.0
146
1.0
147
0.09
148
0.0
170
               0
171
               2
172
               0
173
               0
174
               0
175
               0
176
               0
177
               0
178
               0
179
               0
271
               4
272
               4
273
               2
274
               2
275
               0
276
               0
277
               2
278
              46
279
               0
280
               0
281
               0
282
               0
283
               1
284
               0
285
               0
286
               0
288
               0
289
               3
340
17
341
0
342
0
343
0
344
0
371
              -2
372
              -2
  0
DIMSTYLE
105
4A
100
AcDbSymbolTableRecord
100
AcDbDimStyleTableRecord
  2
tfrom線あり
 70
               0
  3
<>
  4
[]
 40
1.0
 41
3.999755859375
 42
24.999999999999996
 43
0.9999999999999999
 44
0.0
 45
0.0
 46
0.0
 47
0.0
 48
0.0
 71
               0
 72
               0
 73
               0
 74
               0
 75
               0
 76
               0
 77
               1
 78
              11
 79
               0
140
24.432617187500004
141
0.0
142
0.0
143
1.0
144
1.0
145
0.0
146
1.0
147
0.4999999999999999
148
0.0
170
               0
171
               1
172
               0
173
               0
174
               1
175
               0
176
               0
177
               0
178
               0
179
               2
271
               1
272
               1
273
               2
274
               2
275
               0
276
               2
277
               2
278
              46
279
               0
280
               0
281
               0
282
               0
283
               1
284
              11
285
              11
286
              11
288
               0
289
               0
340
2F
341
42
342
42
343
0
344
0
371
              -2
372
              -2
  0
DIMSTYLE
105
4F
100
AcDbSymbolTableRecord
100
AcDbDimStyleTableRecord
  2
JIS
 70
               0
  3
<>
  4
[]
 40
1.0
 41
31.75
 42
0.0
 43
6.9999999999999396
 44
19.999999999996199
 45
0.0
 46
0.0
 47
0.0
 48
0.0
 71
               0
 72
               0
 73
               0
 74
               0
 75
               0
 76
               0
 77
               1
 78
              11
 79
               0
140
24.432617187500004
141
0.0
142
0.0
143
1.0
144
1.0
145
0.0
146
1.0
147
1.00000000000108
148
0.0
170
               0
171
               1
172
               0
173
               0
174
               1
175
               0
176
               0
177
               0
178
               0
179
               2
271
               1
272
               1
273
               2
274
               2
275
               0
276
               2
277
               2
278
              46
279
               0
280
               0
281
               0
282
               0
283
               1
284
              11
285
              11
286
              11
288
               0
289
               0
340
2F
341
4B
342
4B
343
0
344
0
371
              -2
372
              -2
  0
ENDTAB
  0
TABLE
  2
BLOCK_RECORD
  5
1
100
AcDbSymbolTable
 70
              14
  0
BLOCK_RECORD
  5
A
100
AcDbSymbolTableRecord
100
AcDbBlockTableRecord
  2
*MODEL_SPACE
340
20
  0
BLOCK_RECORD
  5
B
100
AcDbSymbolTableRecord
100
AcDbBlockTableRecord
  2
*PAPER_SPACE
340
21
  0
BLOCK_RECORD
  5
42
100
AcDbSymbolTableRecord
100
AcDbBlockTableRecord
  2
_DOT
340
0
  0
BLOCK_RECORD
  5
4B
100
AcDbSymbolTableRecord
100
AcDbBlockTableRecord
  2
VW_FILLEDARROW
340
0
  0
BLOCK_RECORD
  5
23
100
AcDbSymbolTableRecord
100
AcDbBlockTableRecord
  2
グループ
340
0
102
{BLKREFS
331
EA
102
}
  0
BLOCK_RECORD
  5
24
100
AcDbSymbolTableRecord
100
AcDbBlockTableRecord
  2
*D3
340
0
  0
BLOCK_RECORD
  5
25
100
AcDbSymbolTableRecord
100
AcDbBlockTableRecord
  2
*D4
340
0
  0
BLOCK_RECORD
  5
26
100
AcDbSymbolTableRecord
100
AcDbBlockTableRecord
  2
*D5
340
0
  0
BLOCK_RECORD
  5
27
100
AcDbSymbolTableRecord
100
AcDbBlockTableRecord
  2
*D6
340
0
  0
BLOCK_RECORD
  5
28
100
AcDbSymbolTableRecord
100
AcDbBlockTableRecord
  2
*D7
340
0
  0
BLOCK_RECORD
  5
29
100
AcDbSymbolTableRecord
100
AcDbBlockTableRecord
  2
*D8
340
0
  0
BLOCK_RECORD
  5
2A
100
AcDbSymbolTableRecord
100
AcDbBlockTableRecord
  2
*D9
340
0
  0
BLOCK_RECORD
  5
2B
100
AcDbSymbolTableRecord
100
AcDbBlockTableRecord
  2
*D10
340
0
  0
BLOCK_RECORD
  5
2C
100
AcDbSymbolTableRecord
100
AcDbBlockTableRecord
  2
*D11
340
0
  0
BLOCK_RECORD
  5
2D
100
AcDbSymbolTableRecord
100
AcDbBlockTableRecord
  2
*D12
340
0
  0
BLOCK_RECORD
  5
2E
100
AcDbSymbolTableRecord
100
AcDbBlockTableRecord
  2
*D13
340
0
  0
ENDTAB
  0
ENDSEC
  0
SECTION
  2
BLOCKS
  0
BLOCK
  5
D
100
AcDbEntity
  8
0
390
0
100
AcDbBlockBegin
  2
*MODEL_SPACE
 70
               0
 10
0.0
 20
0.0
 30
0.0
  3
*MODEL_SPACE
  1

  0
ENDBLK
  5
E
100
AcDbEntity
  8
0
390
0
100
AcDbBlockEnd
  0
BLOCK
  5
F
100
AcDbEntity
 67
               1
  8
0
390
0
100
AcDbBlockBegin
  2
*PAPER_SPACE
 70
               0
 10
0.0
 20
0.0
 30
0.0
  3
*PAPER_SPACE
  1

  0
ENDBLK
  5
10
100
AcDbEntity
 67
               1
  8
0
390
0
100
AcDbBlockEnd
  0
BLOCK
  5
43
100
AcDbEntity
  8
0
390
0
100
AcDbBlockBegin
  2
_DOT
 70
               0
 10
0.0
 20
0.0
 30
0.0
  3
_DOT
  1

  0
POLYLINE
  5
44
100
AcDbEntity
  8
0
370
              -2
390
0
  6
ByBlock
 62
               0
100
AcDb2dPolyline
 66
               1
 10
0.0
 20
0.0
 30
0.0
 70
               1
 40
0.5
 41
0.5
  0
VERTEX
  5
45
100
AcDbEntity
  8
0
370
              -2
390
0
  6
ByBlock
 62
               0
100
AcDbVertex
100
AcDb2dVertex
 10
-0.25
 20
0.0
 30
0.0
 42
1.0
  0
VERTEX
  5
46
100
AcDbEntity
  8
0
370
              -2
390
0
  6
ByBlock
 62
               0
100
AcDbVertex
100
AcDb2dVertex
 10
0.25
 20
0.0
 30
0.0
 42
1.0
  0
SEQEND
  5
47
100
AcDbEntity
  8
0
390
0
  0
LINE
  5
48
100
AcDbEntity
  8
0
370
              -2
390
0
  6
ByBlock
 62
               0
100
AcDbLine
 10
-0.5
 20
0.0
 30
0.0
 11
-1.0
 21
0.0
 31
0.0
  0
ENDBLK
  5
49
100
AcDbEntity
  8
0
390
0
100
AcDbBlockEnd
  0
BLOCK
  5
4C
100
AcDbEntity
  8
0
370
              -2
390
0
  6
ByBlock
 62
               0
100
AcDbBlockBegin
  2
VW_FILLEDARROW
 70
               0
 10
0.0
 20
0.0
 30
0.0
  3
VW_FILLEDARROW
  1

  0
SOLID
  5
4D
100
AcDbEntity
  8
0
370
              -2
390
0
 62
               0
100
AcDbTrace
 10
0.0
 20
0.0
 30
0.0
 11
-0.9921874999999999
 21
-0.2658558393652545
 31
0.0
 12
-0.9921874999999999
 22
0.2658558393652548
 32
0.0
 13
-0.9921874999999999
 23
0.2658558393652548
 33
0.0
  0
ENDBLK
  5
4E
100
AcDbEntity
  8
0
390
0
100
AcDbBlockEnd
  0
BLOCK
  5
50
100
AcDbEntity
  8
template
390
0
100
AcDbBlockBegin
  2
グループ
 70
               0
 10
0.0
 20
0.0
 30
0.0
  3
グループ
  1

  0
LWPOLYLINE
  5
51
100
AcDbEntity
  8
0
370
              15
390
0
  6
Continuous
 62
               7
100
AcDbPolyline
 90
        8
 70
             129
 10
887.42850780307481
 20
-1257.211288754517
 10
887.42850780307481
 20
-1263.2086774480929
 10
877.92731088507139
 20
-1263.2086774480929
 10
877.92731088507139
 20
-1287.6596407116017
 10
869.57193362328871
 20
-1287.6596407116017
 10
869.57193362328871
 20
-1263.2086774480929
 10
860.23897667697929
 20
-1263.2086774480929
 10
860.23897667697929
 20
-1257.211288754517
  0
LWPOLYLINE
  5
52
100
AcDbEntity
  8
0
370
              15
390
0
  6
Continuous
 62
               7
100
AcDbPolyline
 90
      101
 70
             128
 10
900.15679963363164
 20
-1257.9395372474535
 10
900.17214966241863
 20
-1257.9351764907678
 42
-0.0222221607811955
 10
900.46215423908779
 20
-1257.8665520255238
 10
900.47794800308361
 20
-1257.8635486024264
 42
-0.0146883565585152
 10
900.74065070830557
 20
-1257.8215454154774
 42
-0.0127458844187406
 10
901.00528967545358
 20
-1257.7940084474053
 10
901.06774475377142
 20
-1257.7891150248167
 42
-0.0198099018566978
 10
901.45859386324832
 20
-1257.7740298674203
 10
901.51040533269202
 20
-1257.7740836430853
 42
-0.0147617382765651
 10
902.00502879366275
 20
-1257.7892036683299
 10
902.0777202485441
 20
-1257.7935762752179
 42
-0.0162624549001414
 10
902.46787387800578
 20
-1257.8298091504901
 10
902.58940626926119
 20
-1257.8450957094863
 42
-0.0080020874671211
 10
902.73498530035647
 20
-1257.865778556755
 10
902.7733047709487
 20
-1257.8718498345656
 42
-0.0053821929675584
 10
902.84178887626626
 20
-1257.8834573583877
 10
902.11538317706777
 20
-1260.0643858141016
 42
0.0108667757401997
 10
902.04806610693652
 20
-1260.0511986988818
 10
902.01059808374737
 20
-1260.0447009562872
 42
0.0170663203308855
 10
901.86738129683181
 20
-1260.0248713589954
 10
901.79950596414892
 20
-1260.017824188408
 42
0.0220162375276392
 10
901.51912655629246
 20
-1260.0011418276379
 10
901.44127098924173
 20
-1259.9999424603714
 42
0.028260691578391
 10
901.10563466566362
 20
-1260.0137457373403
 10
901.06172139188834
 20
-1260.0180457273443
 42
0.01696772136908
 10
900.81579689693228
 20
-1260.0505827768961
 42
0.0190576269870822
 10
900.57288893435009
 20
-1260.1007296490029
 10
900.56662974624135
 20
-1260.1022726231117
 42
0.0213685642841591
 10
900.31624526176608
 20
-1260.1754729082156
 10
900.31075536684739
 20
-1260.1773359042754
 42
0.0237595297594327
 10
900.05726048194617
 20
-1260.2770204261722
 10
900.05215840791902
 20
-1260.2793122016492
 42
0.0261857468817637
 10
899.79998763168578
 20
-1260.4088485390257
 10
899.78956144260292
 20
-1260.4149140134916
 42
0.0272553062019101
 10
899.55313166736369
 20
-1260.5702862194366
 10
899.51836865385712
 20
-1260.5959473675266
 42
0.0325996893171852
 10
899.36821331020269
 20
-1260.7226952405001
 10
899.34450388107427
 20
-1260.7455132690181
 42
0.0138050960639914
 10
899.25262072486953
 20
-1260.8389629305648
 42
0.0125280103805281
 10
899.16577819203565
 20
-1260.9371262571651
 10
899.14209774712765
 20
-1260.9652847553521
 42
0.0205218024729119
 10
899.01699767161574
 20
-1261.1270780695786
 10
898.99453133112684
 20
-1261.1587377994081
 42
0.0163110129581913
 10
898.83882095187528
 20
-1261.3940682344783
 10
898.83609705582455
 20
-1261.3984919964635
 42
0.0131897341896935
 10
898.68929653491978
 20
-1261.6516240888257
 10
898.68759643955218
 20
-1261.6547423279635
 42
0.0107895576061042
 10
898.54981973734277
 20
-1261.9209575375958
 10
898.54908684781628
 20
-1261.9224517702453
 42
0.0091371507215707
 10
898.42060689916661
 20
-1262.1969769680054
 10
898.3908612677576
 20
-1262.2636834751638
 42
0.0135418326351206
 10
898.21914732868856
 20
-1262.6786212604259
 10
898.18554252025376
 20
-1262.7664874027084
 42
0.0092834542408643
 10
898.01431346033075
 20
-1263.2403859010192
 10
897.9886963326129
 20
-1263.3156269708131
 42
0.0054261043588871
 10
897.88105818432018
 20
-1263.6433909438774
 10
897.8635321981302
 20
-1263.6987791061474
 42
0.0008225090822836
 10
897.79486214631265
 20
-1263.9170478642568
 10
896.81017301437919
 20
-1266.9419391575134
 10
900.04279685445317
 20
-1266.9419391575134
 10
899.53860442459973
 20
-1268.8464174558658
 10
896.28254814261641
 20
-1268.8464174558658
 10
890.45339911026258
 20
-1287.6596405218706
 10
888.62830149995216
 20
-1287.6596405218706
 10
894.46297953545309
 20
-1268.8464174558658
 10
892.05786316641274
 20
-1268.8464174558658
 10
892.56205559626619
 20
-1266.9419391575134
 10
894.99060440721632
 20
-1266.9419391575134
 10
895.85075932540485
 20
-1264.3055261568145
 42
-0.0005863560637126
 10
895.88749400356267
 20
-1264.1886997366685
 10
895.96358183726886
 20
-1263.9477074371373
 42
-0.0087522378925693
 10
896.16304998072576
 20
-1263.3524313499906
 10
896.25531425613713
 20
-1263.0922911814835
 42
-0.0077400953830536
 10
896.51324791527031
 20
-1262.3992865039295
 10
896.52901288684689
 20
-1262.3588556205493
 42
-0.0082369946330518
 10
896.77609735746114
 20
-1261.7547765543477
 42
-0.0085725238363833
 10
897.0433434534657
 20
-1261.1593505150572
 10
897.14497305447276
 20
-1260.942929413073
 42
-0.0168109410597693
 10
897.43191748320135
 20
-1260.3817218869713
 10
897.55776087360562
 20
-1260.1547578540724
 42
-0.0007817726864684
 10
897.61204522371702
 20
-1260.0572136089427
 10
897.61217352972051
 20
-1260.0569839002308
 42
-0.0036626142151402
 10
897.6670613937556
 20
-1259.9603860202378
 42
-0.0080221150679748
 10
897.72418564916165
 20
-1259.8651067854862
 10
897.75488560052349
 20
-1259.8157158363629
 42
-0.020213932556849
 10
897.88254134033025
 20
-1259.6277342356814
 10
897.93660880551784
 20
-1259.5546553714405
 42
-0.0249323791798447
 10
898.1957715992371
 20
-1259.2386101292859
 10
898.219911413364
 20
-1259.2119958563735
 42
-0.0242132121536684
 10
898.55959215490498
 20
-1258.8721123701705
 10
898.60750372765756
 20
-1258.8286032339827
 42
-0.025101752785879
 10
898.8914854282973
 20
-1258.5956104882189
 10
898.89293090511126
 20
-1258.5945412306398
 42
-0.0130868069041441
 10
899.19119155506837
 20
-1258.3857607620973
 10
899.19275337420993
 20
-1258.384727321823
 42
-0.0290329526391372
 10
899.50386451560439
 20
-1258.2039018201931
 10
899.53371007758813
 20
-1258.1887994373546
 42
-0.016025019004918
 10
899.7996144913551
 20
-1258.06478332714
 42
-0.0267600374781188
 10
900.07489056882275
 20
-1257.964035006592
 10
900.10162648834466
 20
-1257.9558424477659
 42
-0.0049981587669859
 10
900.15679963363164
 20
-1257.9395372474535
 42
-0.0049981587669859
  0
LWPOLYLINE
  5
53
100
AcDbEntity
  8
0
370
              15
390
0
  6
Continuous
 62
               7
100
AcDbPolyline
 90
      118
 70
             128
 10
919.97116719807855
 20
-1267.0159224853408
 10
921.84628912257813
 20
-1267.0159224853408
 10
921.00825021697824
 20
-1269.6974890117408
 42
-0.001058722924262
 10
921.03970603257312
 20
-1269.6605844783585
 10
921.09790012318206
 20
-1269.5926022222097
 42
-0.0071874740402453
 10
921.24827534127746
 20
-1269.4219615301836
 10
921.38999811454244
 20
-1269.2657253888674
 42
-0.0148118053512363
 10
921.84012740725746
 20
-1268.7981115428522
 10
921.92734974216137
 20
-1268.7127142219967
 42
-0.0086273358691141
 10
922.26289854316531
 20
-1268.3953385879845
 10
922.30673225939188
 20
-1268.3552889436507
 42
-0.0103138323110509
 10
922.56475596162466
 20
-1268.1291258063131
 10
922.61053036795204
 20
-1268.0906437590527
 42
-0.0060206748566072
 10
922.78337843206396
 20
-1267.9488491082984
 10
922.78540956294933
 20
-1267.9472234026678
 42
-0.0067069027288347
 10
922.95770237761246
 20
-1267.8130727688722
 10
922.96025114354279
 20
-1267.8111425989937
 42
-0.0076184352042729
 10
923.13115640940987
 20
-1267.6857677237531
 42
-0.0089652861674684
 10
923.30611737214042
 20
-1267.5661344634234
 10
923.34246909228841
 20
-1267.5422232499384
 42
-0.0156916245936593
 10
923.53842858944938
 20
-1267.4219607634632
 42
-0.0023299011062486
 10
923.73869063342659
 20
-1267.3087828239238
 10
923.75407476580904
 20
-1267.3001828288577
 42
-0.0107669341494395
 10
923.98831159090253
 20
-1267.1757826955122
 10
924.0105763919853
 20
-1267.1645659455583
 42
-0.0078058045895926
 10
924.29416650993699
 20
-1267.0272044899202
 10
924.30407359764718
 20
-1267.0225953620513
 42
-0.0181829330468968
 10
924.614383002267
 20
-1266.891731620954
 10
924.66843844482719
 20
-1266.8712165010131
 42
-0.0208411536029725
 10
925.01752341227973
 20
-1266.7551260385189
 10
925.03187951240523
 20
-1266.7510075935661
 42
-0.0222799817137944
 10
925.3605993063245
 20
-1266.6723660274251
 10
925.36948826956393
 20
-1266.6706540168395
 42
-0.0215509523880942
 10
925.6859592378413
 20
-1266.623738328306
 10
925.72844119888737
 20
-1266.6193008015155
 42
-0.018254592487748
 10
925.96254997819551
 20
-1266.6034569761241
 10
926.00195099454879
 20
-1266.6022324310447
 42
-0.0072962856530757
 10
926.15787387423245
 20
-1266.5996631025228
 10
926.18697354479775
 20
-1266.599608267119
 42
-0.0059227516312653
 10
926.28472304394938
 20
-1266.6005819789093
 10
926.31396526136143
 20
-1266.6012197455113
 42
-0.0011833111917452
 10
926.35321654515383
 20
-1266.6021687498228
 10
925.55782994954666
 20
-1269.1409026949218
 42
0.0143932051524636
 10
925.53142856719489
 20
-1269.130703724876
 10
925.52415659477867
 20
-1269.128132506019
 42
0.0234388603511661
 10
925.48232572884683
 20
-1269.1155132703041
 10
925.47364406593385
 20
-1269.1133323082988
 42
0.0199162742985344
 10
925.41335523185251
 20
-1269.1007155729635
 10
925.39254129404765
 20
-1269.0972183735353
 42
0.029364355066766
 10
925.28946643528764
 20
-1269.086068327882
 10
925.26478125456822
 20
-1269.0848567108635
 42
0.0214606686869771
 10
925.11164033861894
 20
-1269.0839181504462
 10
925.10226842779787
 20
-1269.0842630619904
 42
0.0167564054186783
 10
924.93074823668655
 20
-1269.0963401043587
 10
924.92228844393037
 20
-1269.0972214447856
 42
0.0137677553246137
 10
924.73493513066762
 20
-1269.1219707533287
 10
924.72758339115785
 20
-1269.123148673297
 42
0.0118497261481205
 10
924.52708562705527
 20
-1269.1601660234862
 10
924.52093561980928
 20
-1269.1614528862062
 42
0.0106421143890181
 10
924.31005473251707
 20
-1269.2102852617827
 10
924.3051459241351
 20
-1269.2115326044661
 42
0.0099746379699856
 10
924.08668745497448
 20
-1269.2717071327802
 10
924.02513941480242
 20
-1269.2899890114115
 42
0.0191613675861811
 10
923.68915495228578
 20
-1269.403966391699
 10
923.60109517954061
 20
-1269.4376533020229
 42
0.020527408014578
 10
923.21578840764073
 20
-1269.6034817098491
 10
923.15813912565523
 20
-1269.6311496744231
 42
0.0181256912193595
 10
922.89986218499178
 20
-1269.7668334933992
 10
922.84690680167637
 20
-1269.7971511066148
 42
0.0140709242410276
 10
922.70195186704939
 20
-1269.8856457800484
 10
922.67570299844169
 20
-1269.9027025987568
 42
0.0086667884386833
 10
922.58677683688836
 20
-1269.9627052666467
 42
0.0036408192029251
 10
922.49934359885242
 20
-1270.0248861244411
 10
922.46411672438637
 20
-1270.0503270703518
 42
0.0052260781284525
 10
922.30788802698623
 20
-1270.1656594569929
 10
922.29168117073573
 20
-1270.1778875676041
 42
0.0050024435892504
 10
922.1056778276743
 20
-1270.3211701358684
 10
922.09035967116176
 20
-1270.3332161583121
 42
0.0136138710277444
 10
921.87991840283121
 20
-1270.5081826632299
 10
921.8462505270428
 20
-1270.5377616359397
 42
0.0172815186913073
 10
921.58184698538014
 20
-1270.7867583085633
 10
921.57928463953772
 20
-1270.7893441257102
 42
0.0189403857991616
 10
921.32870284095702
 20
-1271.0621493905164
 10
921.29607134742253
 20
-1271.100493322012
 42
0.0185044199506342
 10
921.10411490844263
 20
-1271.3437419031347
 42
0.0088565243901835
 10
920.92565480181418
 20
-1271.5972583232847
 10
920.91647682216569
 20
-1271.6107997030447
 42
0.0157195347233255
 10
920.73325621582558
 20
-1271.9003219123706
 10
920.68717327389959
 20
-1271.9784741093831
 42
0.009545187978228
 10
920.52208772376309
 20
-1272.2710687517379
 10
920.51093980482904
 20
-1272.291739423878
 42
0.0100351706255189
 10
920.37889605567409
 20
-1272.5487949843605
 42
0.0086935915425524
 10
920.2565649038803
 20
-1272.8106281297642
 10
920.25324416246553
 20
-1272.8180704527367
 42
0.0072580174868629
 10
920.13289771051973
 20
-1273.0986624443221
 10
920.12963607721429
 20
-1273.1065824703378
 42
0.006000512261904
 10
920.01043540887053
 20
-1273.4061921409459
 10
920.00722443053007
 20
-1273.4145536688475
 42
0.0049017786976095
 10
919.88832427167415
 20
-1273.7334826494478
 10
919.88515846528219
 20
-1273.7422355866825
 42
0.0039415167598885
 10
919.7657221872264
 20
-1274.0807776490929
 10
919.76259108457327
 20
-1274.0898808499717
 42
0.0031035838761655
 10
919.64178629888522
 20
-1274.44832071173
 10
919.63867625434978
 20
-1274.4577413331199
 42
0.0025070747153511
 10
919.51577490303225
 20
-1274.8363885500708
 10
919.47848100660906
 20
-1274.9532802153169
 42
0.0029081910284191
 10
919.28646270879904
 20
-1275.567443873606
 10
919.24565954028128
 20
-1275.7006671158845
 42
0.0009266453734063
 10
918.97724216596419
 20
-1276.5828915758152
 10
918.95635469330853
 20
-1276.6520034551008
 42
-0.000580999366583
 10
918.67901801273467
 20
-1277.5658115616829
 10
918.61273621446662
 20
-1277.7832964938264
 42
-0.0012018708165607
 10
918.46575190503256
 20
-1278.2614591583633
 10
918.41343205341332
 20
-1278.4302182994024
 42
-0.000269105960794
 10
918.36986257229842
 20
-1278.570485919571
 10
915.53690667400929
 20
-1287.6596405218706
 10
913.71891778203076
 20
-1287.6596405218706
 10
919.97116719807855
 20
-1267.0159224853408
  0
SPLINE
  5
54
100
AcDbEntity
  8
0
370
              15
390
0
  6
Continuous
 62
               7
100
AcDbSpline
210
0.0
220
0.0
230
1.0
 70
              13
 71
               2
 72
             782
 73
             779
 74
               0
 42
0.000001
 43
0.000001
 40
0.0
 40
0.0
 40
0.0
 40
1.0
 40
1.0
 40
2.0
 40
2.0
 40
3.0
 40
3.0
 40
4.0
 40
4.0
 40
5.0
 40
5.0
 40
6.0
 40
6.0
 40
7.0
 40
7.0
 40
8.0
 40
8.0
 40
9.0
 40
9.0
 40
10.0
 40
10.0
 40
11.0
 40
11.0
 40
12.0
 40
12.0
 40
13.0
 40
13.0
 40
14.0
 40
14.0
 40
15.0
 40
15.0
 40
16.0
 40
16.0
 40
17.0
 40
17.0
 40
18.0
 40
18.0
 40
19.0
 40
19.0
 40
20.0
 40
20.0
 40
21.0
 40
21.0
 40
22.0
 40
22.0
 40
23.0
 40
23.0
 40
24.0
 40
24.0
 40
25.0
 40
25.0
 40
26.0
 40
26.0
 40
27.0
 40
27.0
 40
28.0
 40
28.0
 40
29.0
 40
29.0
 40
30.0
 40
30.0
 40
31.0
 40
31.0
 40
32.0
 40
32.0
 40
33.0
 40
33.0
 40
34.0
 40
34.0
 40
35.0
 40
35.0
 40
36.0
 40
36.0
 40
37.0
 40
37.0
 40
38.0
 40
38.0
 40
39.0
 40
39.0
 40
40.0
 40
40.0
 40
41.0
 40
41.0
 40
42.0
 40
42.0
 40
43.0
 40
43.0
 40
44.0
 40
44.0
 40
45.0
 40
45.0
 40
46.0
 40
46.0
 40
47.0
 40
47.0
 40
48.0
 40
48.0
 40
49.0
 40
49.0
 40
50.0
 40
50.0
 40
51.0
 40
51.0
 40
52.0
 40
52.0
 40
53.0
 40
53.0
 40
54.0
 40
54.0
 40
55.0
 40
55.0
 40
56.0
 40
56.0
 40
57.0
 40
57.0
 40
58.0
 40
58.0
 40
59.0
 40
59.0
 40
60.0
 40
60.0
 40
61.0
 40
61.0
 40
62.0
 40
62.0
 40
63.0
 40
63.0
 40
64.0
 40
64.0
 40
65.0
 40
65.0
 40
66.0
 40
66.0
 40
67.0
 40
67.0
 40
68.0
 40
68.0
 40
69.0
 40
69.0
 40
70.0
 40
70.0
 40
71.0
 40
71.0
 40
72.0
 40
72.0
 40
73.0
 40
73.0
 40
74.0
 40
74.0
 40
75.0
 40
75.0
 40
76.0
 40
76.0
 40
77.0
 40
77.0
 40
78.0
 40
78.0
 40
79.0
 40
79.0
 40
80.0
 40
80.0
 40
81.0
 40
81.0
 40
82.0
 40
82.0
 40
83.0
 40
83.0
 40
84.0
 40
84.0
 40
85.0
 40
85.0
 40
86.0
 40
86.0
 40
87.0
 40
87.0
 40
88.0
 40
88.0
 40
89.0
 40
89.0
 40
90.0
 40
90.0
 40
91.0
 40
91.0
 40
92.0
 40
92.0
 40
93.0
 40
93.0
 40
94.0
 40
94.0
 40
95.0
 40
95.0
 40
96.0
 40
96.0
 40
97.0
 40
97.0
 40
98.0
 40
98.0
 40
99.0
 40
99.0
 40
100.0
 40
100.0
 40
101.0
 40
101.0
 40
102.0
 40
102.0
 40
103.0
 40
103.0
 40
104.0
 40
104.0
 40
105.0
 40
105.0
 40
106.0
 40
106.0
 40
107.0
 40
107.0
 40
108.0
 40
108.0
 40
109.0
 40
109.0
 40
110.0
 40
110.0
 40
111.0
 40
111.0
 40
112.0
 40
112.0
 40
113.0
 40
113.0
 40
114.0
 40
114.0
 40
115.0
 40
115.0
 40
116.0
 40
116.0
 40
117.0
 40
117.0
 40
118.0
 40
118.0
 40
119.0
 40
119.0
 40
120.0
 40
120.0
 40
121.0
 40
121.0
 40
122.0
 40
122.0
 40
123.0
 40
123.0
 40
124.0
 40
124.0
 40
125.0
 40
125.0
 40
126.0
 40
126.0
 40
127.0
 40
127.0
 40
128.0
 40
128.0
 40
129.0
 40
129.0
 40
130.0
 40
130.0
 40
131.0
 40
131.0
 40
132.0
 40
132.0
 40
133.0
 40
133.0
 40
134.0
 40
134.0
 40
135.0
 40
135.0
 40
136.0
 40
136.0
 40
137.0
 40
137.0
 40
138.0
 40
138.0
 40
139.0
 40
139.0
 40
140.0
 40
140.0
 40
141.0
 40
141.0
 40
142.0
 40
142.0
 40
143.0
 40
143.0
 40
144.0
 40
144.0
 40
145.0
 40
145.0
 40
146.0
 40
146.0
 40
147.0
 40
147.0
 40
148.0
 40
148.0
 40
149.0
 40
149.0
 40
150.0
 40
150.0
 40
151.0
 40
151.0
 40
152.0
 40
152.0
 40
153.0
 40
153.0
 40
154.0
 40
154.0
 40
155.0
 40
155.0
 40
156.0
 40
156.0
 40
157.0
 40
157.0
 40
158.0
 40
158.0
 40
159.0
 40
159.0
 40
160.0
 40
160.0
 40
161.0
 40
161.0
 40
162.0
 40
162.0
 40
163.0
 40
163.0
 40
164.0
 40
164.0
 40
165.0
 40
165.0
 40
166.0
 40
166.0
 40
167.0
 40
167.0
 40
168.0
 40
168.0
 40
169.0
 40
169.0
 40
170.0
 40
170.0
 40
171.0
 40
171.0
 40
172.0
 40
172.0
 40
173.0
 40
173.0
 40
174.0
 40
174.0
 40
175.0
 40
175.0
 40
176.0
 40
176.0
 40
177.0
 40
177.0
 40
178.0
 40
178.0
 40
179.0
 40
179.0
 40
180.0
 40
180.0
 40
181.0
 40
181.0
 40
182.0
 40
182.0
 40
183.0
 40
183.0
 40
184.0
 40
184.0
 40
185.0
 40
185.0
 40
186.0
 40
186.0
 40
187.0
 40
187.0
 40
188.0
 40
188.0
 40
189.0
 40
189.0
 40
190.0
 40
190.0
 40
191.0
 40
191.0
 40
192.0
 40
192.0
 40
193.0
 40
193.0
 40
194.0
 40
194.0
 40
195.0
 40
195.0
 40
196.0
 40
196.0
 40
197.0
 40
197.0
 40
198.0
 40
198.0
 40
199.0
 40
199.0
 40
200.0
 40
200.0
 40
201.0
 40
201.0
 40
202.0
 40
202.0
 40
203.0
 40
203.0
 40
204.0
 40
204.0
 40
205.0
 40
205.0
 40
206.0
 40
206.0
 40
207.0
 40
207.0
 40
208.0
 40
208.0
 40
209.0
 40
209.0
 40
210.0
 40
210.0
 40
211.0
 40
211.0
 40
212.0
 40
212.0
 40
213.0
 40
213.0
 40
214.0
 40
214.0
 40
215.0
 40
215.0
 40
216.0
 40
216.0
 40
217.0
 40
217.0
 40
218.0
 40
218.0
 40
219.0
 40
219.0
 40
220.0
 40
220.0
 40
221.0
 40
221.0
 40
222.0
 40
222.0
 40
223.0
 40
223.0
 40
224.0
 40
224.0
 40
225.0
 40
225.0
 40
226.0
 40
226.0
 40
227.0
 40
227.0
 40
228.0
 40
228.0
 40
229.0
 40
229.0
 40
230.0
 40
230.0
 40
231.0
 40
231.0
 40
232.0
 40
232.0
 40
233.0
 40
233.0
 40
234.0
 40
234.0
 40
235.0
 40
235.0
 40
236.0
 40
236.0
 40
237.0
 40
237.0
 40
238.0
 40
238.0
 40
239.0
 40
239.0
 40
240.0
 40
240.0
 40
241.0
 40
241.0
 40
242.0
 40
242.0
 40
243.0
 40
243.0
 40
244.0
 40
244.0
 40
245.0
 40
245.0
 40
246.0
 40
246.0
 40
247.0
 40
247.0
 40
248.0
 40
248.0
 40
249.0
 40
249.0
 40
250.0
 40
250.0
 40
251.0
 40
251.0
 40
252.0
 40
252.0
 40
253.0
 40
253.0
 40
254.0
 40
254.0
 40
255.0
 40
255.0
 40
256.0
 40
256.0
 40
257.0
 40
257.0
 40
258.0
 40
258.0
 40
259.0
 40
259.0
 40
260.0
 40
260.0
 40
261.0
 40
261.0
 40
262.0
 40
262.0
 40
263.0
 40
263.0
 40
264.0
 40
264.0
 40
265.0
 40
265.0
 40
266.0
 40
266.0
 40
267.0
 40
267.0
 40
268.0
 40
268.0
 40
269.0
 40
269.0
 40
270.0
 40
270.0
 40
271.0
 40
271.0
 40
272.0
 40
272.0
 40
273.0
 40
273.0
 40
274.0
 40
274.0
 40
275.0
 40
275.0
 40
276.0
 40
276.0
 40
277.0
 40
277.0
 40
278.0
 40
278.0
 40
279.0
 40
279.0
 40
280.0
 40
280.0
 40
281.0
 40
281.0
 40
282.0
 40
282.0
 40
283.0
 40
283.0
 40
284.0
 40
284.0
 40
285.0
 40
285.0
 40
286.0
 40
286.0
 40
287.0
 40
287.0
 40
288.0
 40
288.0
 40
289.0
 40
289.0
 40
290.0
 40
290.0
 40
291.0
 40
291.0
 40
292.0
 40
292.0
 40
293.0
 40
293.0
 40
294.0
 40
294.0
 40
295.0
 40
295.0
 40
296.0
 40
296.0
 40
297.0
 40
297.0
 40
298.0
 40
298.0
 40
299.0
 40
299.0
 40
300.0
 40
300.0
 40
301.0
 40
301.0
 40
302.0
 40
302.0
 40
303.0
 40
303.0
 40
304.0
 40
304.0
 40
305.0
 40
305.0
 40
306.0
 40
306.0
 40
307.0
 40
307.0
 40
308.0
 40
308.0
 40
309.0
 40
309.0
 40
310.0
 40
310.0
 40
311.0
 40
311.0
 40
312.0
 40
312.0
 40
313.0
 40
313.0
 40
314.0
 40
314.0
 40
315.0
 40
315.0
 40
316.0
 40
316.0
 40
317.0
 40
317.0
 40
318.0
 40
318.0
 40
319.0
 40
319.0
 40
320.0
 40
320.0
 40
321.0
 40
321.0
 40
322.0
 40
322.0
 40
323.0
 40
323.0
 40
324.0
 40
324.0
 40
325.0
 40
325.0
 40
326.0
 40
326.0
 40
327.0
 40
327.0
 40
328.0
 40
328.0
 40
329.0
 40
329.0
 40
330.0
 40
330.0
 40
331.0
 40
331.0
 40
332.0
 40
332.0
 40
333.0
 40
333.0
 40
334.0
 40
334.0
 40
335.0
 40
335.0
 40
336.0
 40
336.0
 40
337.0
 40
337.0
 40
338.0
 40
338.0
 40
339.0
 40
339.0
 40
340.0
 40
340.0
 40
341.0
 40
341.0
 40
342.0
 40
342.0
 40
343.0
 40
343.0
 40
344.0
 40
344.0
 40
345.0
 40
345.0
 40
346.0
 40
346.0
 40
347.0
 40
347.0
 40
348.0
 40
348.0
 40
349.0
 40
349.0
 40
350.0
 40
350.0
 40
351.0
 40
351.0
 40
352.0
 40
352.0
 40
353.0
 40
353.0
 40
354.0
 40
354.0
 40
355.0
 40
355.0
 40
356.0
 40
356.0
 40
357.0
 40
357.0
 40
358.0
 40
358.0
 40
359.0
 40
359.0
 40
360.0
 40
360.0
 40
361.0
 40
361.0
 40
362.0
 40
362.0
 40
363.0
 40
363.0
 40
364.0
 40
364.0
 40
365.0
 40
365.0
 40
366.0
 40
366.0
 40
367.0
 40
367.0
 40
368.0
 40
368.0
 40
369.0
 40
369.0
 40
370.0
 40
370.0
 40
371.0
 40
371.0
 40
372.0
 40
372.0
 40
373.0
 40
373.0
 40
374.0
 40
374.0
 40
375.0
 40
375.0
 40
376.0
 40
376.0
 40
377.0
 40
377.0
 40
378.0
 40
378.0
 40
379.0
 40
379.0
 40
380.0
 40
380.0
 40
381.0
 40
381.0
 40
382.0
 40
382.0
 40
383.0
 40
383.0
 40
384.0
 40
384.0
 40
385.0
 40
385.0
 40
386.0
 40
386.0
 40
387.0
 40
387.0
 40
388.0
 40
388.0
 40
389.0
 40
389.0
 40
389.0
 10
930.29987164881118
 20
-1267.0049961219784
 30
0.0
 41
1.0
 10
931.11829575753165
 20
-1267.0049961219784
 30
0.0
 41
1.0
 10
931.93671986625213
 20
-1267.0049961219784
 30
0.0
 41
1.0
 10
931.52296613073543
 20
-1268.3476223862281
 30
0.0
 41
1.0
 10
931.10921239521872
 20
-1269.6902486504778
 30
0.0
 41
1.0
 10
931.12755189039331
 20
-1269.6615478775557
 30
0.0
 41
0.9999957264440478
 10
931.1460588872136
 20
-1269.6329548274211
 30
0.0
 41
1.0
 10
931.17648821135276
 20
-1269.5859419490425
 30
0.0
 41
1.0
 10
931.20691753549193
 20
-1269.5389290706639
 30
0.0
 41
1.0
 10
931.28628318059737
 20
-1269.4163102637613
 30
0.0
 41
0.9995394069081057
 10
931.37294157214922
 20
-1269.2987322020199
 30
0.0
 41
1.0
 10
931.40869843440873
 20
-1269.2502173094267
 30
0.0
 41
1.0
 10
931.44445529666837
 20
-1269.2017024168335
 30
0.0
 41
1.0
 10
931.57818196448693
 20
-1269.0202621417061
 30
0.0
 41
0.9994460617143366
 10
931.72368244577569
 20
-1268.8481197440556
 30
0.0
 41
1.0
 10
931.72807062675156
 20
-1268.8429280636719
 30
0.0
 41
1.0
 10
931.73245880772754
 20
-1268.8377363832883
 30
0.0
 41
1.0
 10
931.86918292706468
 20
-1268.6759773464048
 30
0.0
 41
0.9994359394934497
 10
932.01645715741495
 20
-1268.5237611452412
 30
0.0
 41
1.0
 10
932.01884051136676
 20
-1268.5212978148697
 30
0.0
 41
1.0
 10
932.02122386531869
 20
-1268.518834484498
 30
0.0
 41
1.0
 10
932.16373138776532
 20
-1268.3715449440776
 30
0.0
 41
0.9995293688567843
 10
932.31500306874852
 20
-1268.2332717319123
 30
0.0
 41
1.0
 10
932.33429682800966
 20
-1268.215635846263
 30
0.0
 41
1.0
 10
932.3535905872709
 20
-1268.1979999606137
 30
0.0
 41
1.0
 10
932.4662747497282
 20
-1268.0949985197503
 30
0.0
 41
0.9997087614804034
 10
932.58379763868572
 20
-1267.9975542389504
 30
0.0
 41
1.0
 10
932.60296371186269
 20
-1267.9816626604415
 30
0.0
 41
1.0
 10
932.62212978503953
 20
-1267.9657710819324
 30
0.0
 41
1.0
 10
932.70132052764529
 20
-1267.9001099581487
 30
0.0
 41
0.999959533869816
 10
932.78167979849593
 20
-1267.8358842274974
 30
0.0
 41
1.0
 10
932.86203906934702
 20
-1267.7716584968457
 30
0.0
 41
0.999974941751071
 10
932.94329960368816
 20
-1267.7085769429011
 30
0.0
 41
1.0
 10
932.96428574985521
 20
-1267.6922856555962
 30
0.0
 41
1.0
 10
932.98527189602214
 20
-1267.675994368291
 30
0.0
 41
1.0
 10
933.0698397813278
 20
-1267.6103453584469
 30
0.0
 41
0.9999792037132063
 10
933.15524738109696
 20
-1267.5457925768037
 30
0.0
 41
1.0
 10
933.17607220698414
 20
-1267.5300527545646
 30
0.0
 41
1.0
 10
933.19689703287122
 20
-1267.5143129323253
 30
0.0
 41
1.0
 10
933.24065498083905
 20
-1267.481239795181
 30
0.0
 41
0.999999337381311
 10
933.28433666700971
 20
-1267.4480659997359
 30
0.0
 41
1.0
 10
933.32801835315365
 20
-1267.4148922043114
 30
0.0
 41
0.9999160953814502
 10
933.37254476407406
 20
-1267.3828611391125
 30
0.0
 41
1.0
 10
933.40536665149284
 20
-1267.3592499835281
 30
0.0
 41
1.0
 10
933.4381885389115
 20
-1267.335638827944
 30
0.0
 41
1.0
 10
933.54835872467049
 20
-1267.2563854515756
 30
0.0
 41
0.9980964527231465
 10
933.66744771817071
 20
-1267.1912979787201
 30
0.0
 41
1.0
 10
933.70448032509921
 20
-1267.1710579991268
 30
0.0
 41
1.0
 10
933.7415129320276
 20
-1267.1508180195333
 30
0.0
 41
1.0
 10
933.92083994530026
 20
-1267.0528077688323
 30
0.0
 41
0.9984572810572647
 10
934.10992851165872
 20
-1266.9752855074862
 30
0.0
 41
1.0
 10
934.11357478105572
 20
-1266.9737906151477
 30
0.0
 41
1.0
 10
934.11722105045271
 20
-1266.9722957228093
 30
0.0
 41
1.0
 10
934.29901707801889
 20
-1266.8977632461392
 30
0.0
 41
0.9987838528034255
 10
934.48726973657688
 20
-1266.8414976059739
 30
0.0
 41
1.0
 10
934.49150768577397
 20
-1266.8402309522842
 30
0.0
 41
1.0
 10
934.49574563497106
 20
-1266.8389642985944
 30
0.0
 41
1.0
 10
934.67552239513452
 20
-1266.7852319658084
 30
0.0
 41
0.999065281620712
 10
934.85926832685197
 20
-1266.7472282862661
 30
0.0
 41
1.0
 10
934.86445672788477
 20
-1266.7461551831593
 30
0.0
 41
1.0
 10
934.86964512891757
 20
-1266.7450820800525
 30
0.0
 41
1.0
 10
935.04301425856931
 20
-1266.7092246067239
 30
0.0
 41
0.9992909934270214
 10
935.21859002502617
 20
-1266.6865141742576
 30
0.0
 41
1.0
 10
935.39416579148133
 20
-1266.6638037417913
 30
0.0
 41
0.9994553539448328
 10
935.57085722457191
 20
-1266.6527244375852
 30
0.0
 41
1.0
 10
935.60629163237218
 20
-1266.6505025495371
 30
0.0
 41
1.0
 10
935.64172604017256
 20
-1266.648280661489
 30
0.0
 41
1.0
 10
935.80795180674011
 20
-1266.6378575990775
 30
0.0
 41
0.9990928098293147
 10
935.97446159864091
 20
-1266.6416172403119
 30
0.0
 41
1.0
 10
936.01302343391262
 20
-1266.6424879318449
 30
0.0
 41
1.0
 10
936.05158526918433
 20
-1266.6433586233779
 30
0.0
 41
1.0
 10
936.14097139054331
 20
-1266.6453768815466
 30
0.0
 41
0.9998382089204658
 10
936.23022707332973
 20
-1266.6506090080748
 30
0.0
 41
1.0
 10
936.23065697955474
 20
-1266.6506342089774
 30
0.0
 41
1.0
 10
936.23108688577975
 20
-1266.6506594098798
 30
0.0
 41
1.0
 10
936.31948275612103
 20
-1266.6558411346032
 30
0.0
 41
0.9997558016757747
 10
936.40756333331672
 20
-1266.6649236499693
 30
0.0
 41
1.0
 10
936.40803947174948
 20
-1266.6649727474523
 30
0.0
 41
1.0
 10
936.40851561018223
 20
-1266.6650218449352
 30
0.0
 41
1.0
 10
936.49564391052047
 20
-1266.6740061653361
 30
0.0
 41
0.9996565144181486
 10
936.58218176385969
 20
-1266.6875434720246
 30
0.0
 41
1.0
 10
936.58264768923721
 20
-1266.6876163577558
 30
0.0
 41
1.0
 10
936.58311361461472
 20
-1266.6876892434873
 30
0.0
 41
1.0
 10
936.66871961720187
 20
-1266.7010807787137
 30
0.0
 41
0.9995321806867449
 10
936.75334669752976
 20
-1266.719681267143
 30
0.0
 41
1.0
 10
936.75373589210267
 20
-1266.7197668096092
 30
0.0
 41
1.0
 10
936.75412508667546
 20
-1266.7198523520751
 30
0.0
 41
1.0
 10
936.83797377785879
 20
-1266.7382817555726
 30
0.0
 41
0.9993819199219466
 10
936.92032031205395
 20
-1266.762557138833
 30
0.0
 41
1.0
 10
936.92055874555172
 20
-1266.7626274279423
 30
0.0
 41
1.0
 10
936.92079717904949
 20
-1266.7626977170517
 30
0.0
 41
1.0
 10
937.00266684624944
 20
-1266.7868325220932
 30
0.0
 41
0.9992088568504867
 10
937.0823593652384
 20
-1266.8173977578881
 30
0.0
 41
1.0
 10
937.16204035611736
 20
-1266.8479573586212
 30
0.0
 41
0.9990226101773279
 10
937.23871102602459
 20
-1266.8854347902356
 30
0.0
 41
1.0
 10
937.31537016782215
 20
-1266.9229065867887
 30
0.0
 41
0.9988424273972592
 10
937.38807379503442
 20
-1266.9675713620418
 30
0.0
 41
1.0
 10
937.38834150341404
 20
-1266.9677358261142
 30
0.0
 41
1.0
 10
937.38860921179366
 20
-1266.9679002901867
 30
0.0
 41
1.0
 10
937.46184825576483
 20
-1267.0128939935842
 30
0.0
 41
0.9986928844490697
 10
937.53011112247441
 20
-1267.0651297278637
 30
0.0
 41
1.0
 10
937.53069241469711
 20
-1267.0655745410916
 30
0.0
 41
1.0
 10
937.53127370691982
 20
-1267.0660193543195
 30
0.0
 41
1.0
 10
937.60069915807469
 20
-1267.1191447150545
 30
0.0
 41
0.9986007262277377
 10
937.66412532784102
 20
-1267.1793054847478
 30
0.0
 41
1.0
 10
937.66501974329867
 20
-1267.1801538525833
 30
0.0
 41
1.0
 10
937.66591415875621
 20
-1267.1810022204186
 30
0.0
 41
1.0
 10
937.73112915943761
 20
-1267.2428597257826
 30
0.0
 41
0.9985581491381588
 10
937.78933677113957
 20
-1267.3113522160545
 30
0.0
 41
1.0
 10
937.79859522473521
 20
-1267.3222465737558
 30
0.0
 41
1.0
 10
937.80785367833073
 20
-1267.3331409314574
 30
0.0
 41
1.0
 10
937.8845781972243
 20
-1267.4234221371328
 30
0.0
 41
0.9970460233520636
 10
937.9465700983842
 20
-1267.524389221315
 30
0.0
 41
1.0
 10
937.96103946346375
 20
-1267.5479556803962
 30
0.0
 41
1.0
 10
937.9755088285433
 20
-1267.5715221394776
 30
0.0
 41
1.0
 10
938.01524552855506
 20
-1267.6362418635088
 30
0.0
 41
0.9988468816637008
 10
938.0485918993063
 20
-1267.7044743159358
 30
0.0
 41
1.0
 10
938.05562792179717
 20
-1267.7188712370721
 30
0.0
 41
1.0
 10
938.06266394428803
 20
-1267.7332681582081
 30
0.0
 41
1.0
 10
938.08193827005834
 20
-1267.7727067683643
 30
0.0
 41
0.9998431189998359
 10
938.09980359755275
 20
-1267.8128033228043
 30
0.0
 41
1.0
 10
938.1176689250384
 20
-1267.8528998772244
 30
0.0
 41
0.99999899899345
 10
938.13564764845444
 20
-1267.8929457147947
 30
0.0
 41
1.0
 10
938.1418199600563
 20
-1267.9066939316244
 30
0.0
 41
1.0
 10
938.14799227165815
 20
-1267.9204421484542
 30
0.0
 41
1.0
 10
938.17831561826836
 20
-1267.9879844196626
 30
0.0
 41
0.9998790356323302
 10
938.20652349840884
 20
-1268.0564371716059
 30
0.0
 41
1.0
 10
938.21335867969242
 20
-1268.0730242730315
 30
0.0
 41
1.0
 10
938.22019386097588
 20
-1268.089611374457
 30
0.0
 41
1.0
 10
938.24375152335585
 20
-1268.1467793293411
 30
0.0
 41
0.9998227574561462
 10
938.26514027174483
 20
-1268.204793637618
 30
0.0
 41
1.0
 10
938.28652902013459
 20
-1268.2628079458973
 30
0.0
 41
0.999679797104286
 10
938.3049553050945
 20
-1268.3218300650171
 30
0.0
 41
1.0
 10
938.30885910781944
 20
-1268.3343345231842
 30
0.0
 41
1.0
 10
938.31276291054451
 20
-1268.3468389813515
 30
0.0
 41
1.0
 10
938.33899680095487
 20
-1268.4308700168076
 30
0.0
 41
0.9979274938734355
 10
938.35422132443409
 20
-1268.517574375468
 30
0.0
 41
1.0
 10
938.35644501169509
 20
-1268.5302383762883
 30
0.0
 41
1.0
 10
938.35866869895608
 20
-1268.5429023771082
 30
0.0
 41
1.0
 10
938.36959863865457
 20
-1268.6051488843993
 30
0.0
 41
0.999498598213714
 10
938.37656680383157
 20
-1268.6679623855425
 30
0.0
 41
1.0
 10
938.38353496900879
 20
-1268.7307758866878
 30
0.0
 41
0.9996372611201025
 10
938.38711083477631
 20
-1268.7938734653694
 30
0.0
 41
1.0
 10
938.38727941226557
 20
-1268.7968480824502
 30
0.0
 41
1.0
 10
938.38744798975483
 20
-1268.799822699531
 30
0.0
 41
1.0
 10
938.3913610105011
 20
-1268.8688695123801
 30
0.0
 41
0.9997730630736667
 10
938.39232932398943
 20
-1268.9380203364169
 30
0.0
 41
1.0
 10
938.39238643040744
 20
-1268.9420985155559
 30
0.0
 41
1.0
 10
938.39244353682557
 20
-1268.9461766946949
 30
0.0
 41
1.0
 10
938.39352606314981
 20
-1269.0234838770157
 30
0.0
 41
0.9998772614070077
 10
938.39218597641809
 20
-1269.1007870235755
 30
0.0
 41
1.0
 10
938.39209671321942
 20
-1269.1059361874113
 30
0.0
 41
1.0
 10
938.39200745002063
 20
-1269.1110853512471
 30
0.0
 41
1.0
 10
938.39048883689122
 20
-1269.198686825481
 30
0.0
 41
0.9999415567324036
 10
938.38707652664505
 20
-1269.2862349871659
 30
0.0
 41
1.0
 10
938.38683520596987
 20
-1269.2924264468984
 30
0.0
 41
1.0
 10
938.38659388529481
 20
-1269.2986179066311
 30
0.0
 41
1.0
 10
938.38269893369772
 20
-1269.3985489877889
 30
0.0
 41
0.9999716810421983
 10
938.37730035057973
 20
-1269.498410126009
 30
0.0
 41
1.0
 10
938.37408755179058
 20
-1269.5578393756746
 30
0.0
 41
1.0
 10
938.37087475300132
 20
-1269.6172686253401
 30
0.0
 41
1.0
 10
938.36280084384907
 20
-1269.7666170266132
 30
0.0
 41
0.9999819129911648
 10
938.35293105223286
 20
-1269.9158575043166
 30
0.0
 41
1.0
 10
938.3430612606162
 20
-1270.065097982028
 30
0.0
 41
1.0
 10
938.34062194005242
 20
-1270.1022910278773
 30
0.0
 41
1.0
 10
938.36332017387917
 20
-1270.0635500305546
 30
0.0
 41
0.9999982128024194
 10
938.38616473263914
 20
-1270.0248951365891
 30
0.0
 41
1.0
 10
938.41307429252379
 20
-1269.9793619225343
 30
0.0
 41
1.0
 10
938.43998385240843
 20
-1269.9338287084793
 30
0.0
 41
1.0
 10
938.51664753093712
 20
-1269.8041073864051
 30
0.0
 41
0.9998609190057932
 10
938.59759484379958
 20
-1269.6770150044747
 30
0.0
 41
1.0
 10
938.62724316527556
 20
-1269.6304652715266
 30
0.0
 41
1.0
 10
938.65689148675153
 20
-1269.5839155385784
 30
0.0
 41
1.0
 10
938.73916370699294
 20
-1269.4547429685763
 30
0.0
 41
0.9999067609734439
 10
938.82493271646069
 20
-1269.3278652791296
 30
0.0
 41
1.0
 10
938.82733741966047
 20
-1269.3243080130765
 30
0.0
 41
1.0
 10
938.82974212286024
 20
-1269.3207507470231
 30
0.0
 41
1.0
 10
938.9107017259247
 20
-1269.2009875896883
 30
0.0
 41
0.9998784952148133
 10
938.99535533560606
 20
-1269.0838063729793
 30
0.0
 41
1.0
 10
939.08000894528652
 20
-1268.9666251562719
 30
0.0
 41
0.9998532968281958
 10
939.16862656610829
 20
-1268.8524122478027
 30
0.0
 41
1.0
 10
939.1885883550982
 20
-1268.8266849267841
 30
0.0
 41
1.0
 10
939.20855014408812
 20
-1268.8009576057655
 30
0.0
 41
1.0
 10
939.3270341938495
 20
-1268.6482519947933
 30
0.0
 41
0.9991551975795091
 10
939.4576586434747
 20
-1268.5057924327079
 30
0.0
 41
1.0
 10
939.46116825945955
 20
-1268.5019648310781
 30
0.0
 41
1.0
 10
939.46467787544452
 20
-1268.498137229448
 30
0.0
 41
1.0
 10
939.58828309310343
 20
-1268.3633328706192
 30
0.0
 41
0.9997418144181147
 10
939.71788523279884
 20
-1268.234283460012
 30
0.0
 41
1.0
 10
939.84748737249856
 20
-1268.1052340494002
 30
0.0
 41
0.9989238204632881
 10
939.98848992074863
 20
-1267.9887490873623
 30
0.0
 41
1.0
 10
940.03373759889155
 20
-1267.9513690957508
 30
0.0
 41
1.0
 10
940.07898527703435
 20
-1267.9139891041393
 30
0.0
 41
1.0
 10
940.21922533425413
 20
-1267.79813405085
 30
0.0
 41
0.9990825084096954
 10
940.36886526685498
 20
-1267.6947050530193
 30
0.0
 41
1.0
 10
940.37891063091308
 20
-1267.687761839939
 30
0.0
 41
1.0
 10
940.38895599497118
 20
-1267.6808186268586
 30
0.0
 41
1.0
 10
940.51850519945867
 20
-1267.5912760551864
 30
0.0
 41
0.9998164899825629
 10
940.65138940283521
 20
-1267.50676181367
 30
0.0
 41
1.0
 10
940.66323496335917
 20
-1267.4992280471456
 30
0.0
 41
1.0
 10
940.67508052388314
 20
-1267.4916942806212
 30
0.0
 41
1.0
 10
940.78427360621083
 20
-1267.4222475721538
 30
0.0
 41
0.9997473449130689
 10
940.89647756346085
 20
-1267.3577786143378
 30
0.0
 41
1.0
 10
941.00868152070893
 20
-1267.293309656523
 30
0.0
 41
0.9999327861141362
 10
941.12235013147631
 20
-1267.2314596648391
 30
0.0
 41
1.0
 10
941.12290213403571
 20
-1267.2311593061609
 30
0.0
 41
1.0
 10
941.12345413659511
 20
-1267.2308589474824
 30
0.0
 41
1.0
 10
941.23822675248164
 20
-1267.168408238442
 30
0.0
 41
0.9996956420484106
 10
941.35594007832344
 20
-1267.1116947714663
 30
0.0
 41
1.0
 10
941.38638048321138
 20
-1267.0970287947387
 30
0.0
 41
1.0
 10
941.41682088809932
 20
-1267.082362818011
 30
0.0
 41
1.0
 10
941.51979799484525
 20
-1267.0327491595663
 30
0.0
 41
0.9998070570177102
 10
941.62464438379038
 20
-1266.9872185726636
 30
0.0
 41
1.0
 10
941.72949077273415
 20
-1266.9416879857613
 30
0.0
 41
0.9997827436147657
 10
941.83614370934481
 20
-1266.9005668144491
 30
0.0
 41
1.0
 10
941.85536655897442
 20
-1266.8931552408176
 30
0.0
 41
1.0
 10
941.87458940860404
 20
-1266.8857436671858
 30
0.0
 41
1.0
 10
942.01968804447586
 20
-1266.8297993486094
 30
0.0
 41
0.9988031841976413
 10
942.16955840708033
 20
-1266.7882992844418
 30
0.0
 41
1.0
 10
942.1944756554451
 20
-1266.7813995386346
 30
0.0
 41
1.0
 10
942.21939290380988
 20
-1266.7744997928271
 30
0.0
 41
1.0
 10
942.38666292945641
 20
-1266.7281816504205
 30
0.0
 41
0.9984748040550251
 10
942.55801983810409
 20
-1266.7005874181559
 30
0.0
 41
1.0
 10
942.56275897435319
 20
-1266.6998242576424
 30
0.0
 41
1.0
 10
942.56749811060229
 20
-1266.6990610971291
 30
0.0
 41
1.0
 10
942.72937674675313
 20
-1266.6729931858911
 30
0.0
 41
0.9984436495479774
 10
942.89315149047775
 20
-1266.6651152320724
 30
0.0
 41
1.0
 10
942.91484869860801
 20
-1266.6640715448727
 30
0.0
 41
1.0
 10
942.93654590673816
 20
-1266.6630278576731
 30
0.0
 41
1.0
 10
943.05692623420134
 20
-1266.6572372782537
 30
0.0
 41
0.9987954789335245
 10
943.17729447911222
 20
-1266.6632738059959
 30
0.0
 41
1.0
 10
943.19725927160812
 20
-1266.6642750503347
 30
0.0
 41
1.0
 10
943.21722406410413
 20
-1266.6652762946733
 30
0.0
 41
1.0
 10
943.29766272402344
 20
-1266.6693103337384
 30
0.0
 41
0.9997941595876252
 10
943.37787150211648
 20
-1266.6766043996593
 30
0.0
 41
1.0
 10
943.45808028020804
 20
-1266.6838984655799
 30
0.0
 41
0.9998589466238367
 10
943.53799882705994
 20
-1266.6938823200298
 30
0.0
 41
1.0
 10
943.57040502887116
 20
-1266.6979306769495
 30
0.0
 41
1.0
 10
943.60281123068239
 20
-1266.7019790338688
 30
0.0
 41
1.0
 10
943.74754218115447
 20
-1266.7200596021576
 30
0.0
 41
0.9993495063249621
 10
943.89059342492055
 20
-1266.7485253118994
 30
0.0
 41
1.0
 10
943.92352712207048
 20
-1266.7550787751138
 30
0.0
 41
1.0
 10
943.95646081922041
 20
-1266.761632238328
 30
0.0
 41
1.0
 10
944.06575464242667
 20
-1266.7833805724636
 30
0.0
 41
0.9996788715561414
 10
944.17380621438451
 20
-1266.8106383718271
 30
0.0
 41
1.0
 10
944.17586921692441
 20
-1266.8111587984004
 30
0.0
 41
1.0
 10
944.17793221946431
 20
-1266.8116792249734
 30
0.0
 41
1.0
 10
944.28185778634247
 20
-1266.8378961711906
 30
0.0
 41
0.9995480654492135
 10
944.38402002157034
 20
-1266.8703111278146
 30
0.0
 41
1.0
 10
944.38570966369809
 20
-1266.870847232728
 30
0.0
 41
1.0
 10
944.38739930582585
 20
-1266.8713833376416
 30
0.0
 41
1.0
 10
944.48618225679877
 20
-1266.9027260844384
 30
0.0
 41
0.9993867959456012
 10
944.58252941524233
 20
-1266.9409054537286
 30
0.0
 41
1.0
 10
944.58377236432784
 20
-1266.9413979956253
 30
0.0
 41
1.0
 10
944.58501531341335
 20
-1266.9418905375217
 30
0.0
 41
1.0
 10
944.67887657368578
 20
-1266.9790848230189
 30
0.0
 41
0.9992050256522287
 10
944.76947624871821
 20
-1267.0236387222571
 30
0.0
 41
1.0
 10
944.77021093143071
 20
-1267.024000014718
 30
0.0
 41
1.0
 10
944.77094561414333
 20
-1267.0243613071789
 30
0.0
 41
1.0
 10
944.86007592375222
 20
-1267.0681926214961
 30
0.0
 41
0.9990222350741458
 10
944.94498598514531
 20
-1267.1197258891943
 30
0.0
 41
1.0
 10
944.94516987042846
 20
-1267.1198374920996
 30
0.0
 41
1.0
 10
944.94535375571161
 20
-1267.1199490950046
 30
0.0
 41
1.0
 10
945.0298960465401
 20
-1267.1712591568935
 30
0.0
 41
0.9988642743805046
 10
945.10917058115797
 20
-1267.2303833444178
 30
0.0
 41
1.0
 10
945.18844511577663
 20
-1267.2895075319427
 30
0.0
 41
0.9987681233310821
 10
945.26146890005271
 20
-1267.3561982233434
 30
0.0
 41
1.0
 10
945.26179782801864
 20
-1267.3564986245578
 30
0.0
 41
1.0
 10
945.2621267559847
 20
-1267.356799025772
 30
0.0
 41
1.0
 10
945.33580839619219
 20
-1267.4240905196011
 30
0.0
 41
0.9987496570899134
 10
945.40240220151952
 20
-1267.4984033336877
 30
0.0
 41
1.0
 10
945.4031743712801
 20
-1267.4992650070458
 30
0.0
 41
1.0
 10
945.40394654104057
 20
-1267.5001266804038
 30
0.0
 41
1.0
 10
945.4720846858894
 20
-1267.5761628412074
 30
0.0
 41
0.9988147669827986
 10
945.53250694011433
 20
-1267.6584638480497
 30
0.0
 41
1.0
 10
945.53362626619173
 20
-1267.6599884794018
 30
0.0
 41
1.0
 10
945.53474559226902
 20
-1267.6615131107537
 30
0.0
 41
1.0
 10
945.59740649864943
 20
-1267.7468633803012
 30
0.0
 41
0.9989452636215691
 10
945.65197341161092
 20
-1267.8376020694593
 30
0.0
 41
1.0
 10
945.65332213769648
 20
-1267.8398448504854
 30
0.0
 41
1.0
 10
945.65467086378214
 20
-1267.8420876315113
 30
0.0
 41
1.0
 10
945.71193522891599
 20
-1267.9373118827239
 30
0.0
 41
0.9991046436070938
 10
945.76094444223759
 20
-1268.0370363157492
 30
0.0
 41
1.0
 10
945.76240830382699
 20
-1268.0400149958205
 30
0.0
 41
1.0
 10
945.7638721654165
 20
-1268.0429936758919
 30
0.0
 41
1.0
 10
945.81580910191758
 20
-1268.1486754690611
 30
0.0
 41
0.9992763831101126
 10
945.85956223047333
 20
-1268.2579995310184
 30
0.0
 41
1.0
 10
945.86104150013671
 20
-1268.2616957185519
 30
0.0
 41
1.0
 10
945.86252076979997
 20
-1268.2653919060856
 30
0.0
 41
1.0
 10
945.90923243768111
 20
-1268.3821083431067
 30
0.0
 41
0.9994163472882808
 10
945.94786546887121
 20
-1268.5017419315718
 30
0.0
 41
1.0
 10
945.94910362111841
 20
-1268.5055760753557
 30
0.0
 41
1.0
 10
945.95034177336549
 20
-1268.5094102191397
 30
0.0
 41
1.0
 10
945.99022533438188
 20
-1268.6329162806151
 30
0.0
 41
0.9997268055891129
 10
946.02429339029436
 20
-1268.7581513125674
 30
0.0
 41
1.0
 10
946.02522357056375
 20
-1268.7615706786755
 30
0.0
 41
1.0
 10
946.02615375083315
 20
-1268.7649900447839
 30
0.0
 41
1.0
 10
946.05836144620616
 20
-1268.8833863445172
 30
0.0
 41
0.9996701319000749
 10
946.08444706297678
 20
-1269.0032802977817
 30
0.0
 41
1.0
 10
946.11053267974717
 20
-1269.123174251044
 30
0.0
 41
0.9995785451109329
 10
946.12961625708738
 20
-1269.2443800120786
 30
0.0
 41
1.0
 10
946.1338360392607
 20
-1269.2711811668414
 30
0.0
 41
1.0
 10
946.13805582143402
 20
-1269.297982321604
 30
0.0
 41
1.0
 10
946.16463079737321
 20
-1269.4667682953086
 30
0.0
 41
0.9979925101215773
 10
946.16965638329941
 20
-1269.6375596234013
 30
0.0
 41
1.0
 10
946.17048119572405
 20
-1269.6655903468845
 30
0.0
 41
1.0
 10
946.1713060081488
 20
-1269.6936210703675
 30
0.0
 41
1.0
 10
946.17468196922573
 20
-1269.8083509514963
 30
0.0
 41
0.9995314902263373
 10
946.17103177708725
 20
-1269.9230724352451
 30
0.0
 41
1.0
 10
946.16738158494911
 20
-1270.0377939189934
 30
0.0
 41
0.9996245486943733
 10
946.15745248981875
 20
-1270.1521431901101
 30
0.0
 41
1.0
 10
946.1572894418241
 20
-1270.1540209462507
 30
0.0
 41
1.0
 10
946.15712639382934
 20
-1270.1558987023914
 30
0.0
 41
1.0
 10
946.14687120271014
 20
-1270.2740034857839
 30
0.0
 41
0.9997286095001177
 10
946.13112587913861
 20
-1270.3915023946799
 30
0.0
 41
1.0
 10
946.13073238648826
 20
-1270.3944388193822
 30
0.0
 41
1.0
 10
946.1303388938378
 20
-1270.3973752440843
 30
0.0
 41
1.0
 10
946.11380658496728
 20
-1270.5207470023731
 30
0.0
 41
0.9998265533968732
 10
946.09269112623542
 20
-1270.6434174771578
 30
0.0
 41
1.0
 10
946.09201458409711
 20
-1270.6473478556718
 30
0.0
 41
1.0
 10
946.09133804195881
 20
-1270.6512782341861
 30
0.0
 41
1.0
 10
946.06886949895136
 20
-1270.7818094659924
 30
0.0
 41
0.9999022530851953
 10
946.0427600343412
 20
-1270.9116614346319
 30
0.0
 41
1.0
 10
946.04178139317628
 20
-1270.9165285770173
 30
0.0
 41
1.0
 10
946.04080275201125
 20
-1270.9213957194027
 30
0.0
 41
1.0
 10
946.01273600506806
 20
-1271.060981972827
 30
0.0
 41
0.9999524761938338
 10
945.98195303623356
 20
-1271.1999944659906
 30
0.0
 41
1.0
 10
945.9806769290592
 20
-1271.2057572252879
 30
0.0
 41
1.0
 10
945.97940082188484
 20
-1271.2115199845853
 30
0.0
 41
1.0
 10
945.94606563869854
 20
-1271.3620579963567
 30
0.0
 41
0.9999813588717741
 10
945.91089463790593
 20
-1271.5121777089994
 30
0.0
 41
1.0
 10
945.90934071244806
 20
-1271.5188102994271
 30
0.0
 41
1.0
 10
945.9077867869903
 20
-1271.525442889855
 30
0.0
 41
1.0
 10
945.86950793528104
 20
-1271.6888277833568
 30
0.0
 41
0.9999955237627469
 10
945.8302520572995
 20
-1271.8519806869679
 30
0.0
 41
1.0
 10
945.81797042166579
 20
-1271.903024877488
 30
0.0
 41
1.0
 10
945.80568878603208
 20
-1271.9540690680083
 30
0.0
 41
1.0
 10
945.74186963678403
 20
-1272.2193103526556
 30
0.0
 41
0.9999993604774109
 10
945.67745068963688
 20
-1272.484406603254
 30
0.0
 41
1.0
 10
945.67273185407885
 20
-1272.50382551134
 30
0.0
 41
1.0
 10
945.66801301852081
 20
-1272.5232444194257
 30
0.0
 41
1.0
 10
945.59415640025884
 20
-1272.8271784861904
 30
0.0
 41
0.9999659914730109
 10
945.51529680437534
 20
-1273.1298530327426
 30
0.0
 41
1.0
 10
945.51034411544447
 20
-1273.1488621699257
 30
0.0
 41
1.0
 10
945.50539142651371
 20
-1273.1678713071087
 30
0.0
 41
1.0
 10
945.41662645276665
 20
-1273.5085641280334
 30
0.0
 41
0.9999441976024747
 10
945.32068341980096
 20
-1273.8473055533407
 30
0.0
 41
1.0
 10
945.30398290137737
 20
-1273.9062692658613
 30
0.0
 41
1.0
 10
945.28728238295378
 20
-1273.9652329783821
 30
0.0
 41
1.0
 10
945.15793831313829
 20
-1274.4219018287397
 30
0.0
 41
0.9999625120735415
 10
945.02070554581019
 20
-1274.8762623627508
 30
0.0
 41
1.0
 10
944.98491560272362
 20
-1274.9947583893897
 30
0.0
 41
1.0
 10
944.94912565963705
 20
-1275.1132544160287
 30
0.0
 41
1.0
 10
944.87460545560293
 20
-1275.3599814941076
 30
0.0
 41
0.9999793386319124
 10
944.79691943247121
 20
-1275.6057301333249
 30
0.0
 41
1.0
 10
944.71923340933358
 20
-1275.851478772561
 30
0.0
 41
1.0
 10
944.708453850463
 20
-1275.8854966769356
 30
0.0
 41
1.0
 10
942.85808079719379
 20
-1281.7725685994033
 30
0.0
 41
1.0
 10
941.00770774392458
 20
-1287.6596405218706
 30
0.0
 41
1.0
 10
940.04645105390102
 20
-1287.6596405218706
 30
0.0
 41
1.0
 10
939.08519436387746
 20
-1287.6596405218706
 30
0.0
 41
1.0
 10
940.70413914255596
 20
-1282.5116120200812
 30
0.0
 41
1.0
 10
942.32308392123446
 20
-1277.3635835182918
 30
0.0
 41
1.0
 10
942.3682497444114
 20
-1277.2195522960135
 30
0.0
 41
1.0
 10
942.41341556758834
 20
-1277.0755210737352
 30
0.0
 41
1.0
 10
942.58371998494897
 20
-1276.5324300445791
 30
0.0
 41
0.9999911657924731
 10
942.74945279662597
 20
-1275.9879265132258
 30
0.0
 41
1.0
 10
942.77914874012004
 20
-1275.8903625731964
 30
0.0
 41
1.0
 10
942.80884468361421
 20
-1275.7927986331667
 30
0.0
 41
1.0
 10
942.91518560830036
 20
-1275.4434229818812
 30
0.0
 41
0.9999952428166751
 10
943.01936919763114
 20
-1275.0933979575125
 30
0.0
 41
1.0
 10
943.02442866795536
 20
-1275.076399683265
 30
0.0
 41
1.0
 10
943.02948813827959
 20
-1275.0594014090175
 30
0.0
 41
1.0
 10
943.1235527869494
 20
-1274.7433729331856
 30
0.0
 41
0.9999931687499483
 10
943.21527862482969
 20
-1274.4266577198925
 30
0.0
 41
1.0
 10
943.2202138892892
 20
-1274.4096170106218
 30
0.0
 41
1.0
 10
943.22514915374859
 20
-1274.3925763013513
 30
0.0
 41
1.0
 10
943.30700446270339
 20
-1274.109942506622
 30
0.0
 41
0.9999893840806493
 10
943.38625168916019
 20
-1273.8265663773755
 30
0.0
 41
1.0
 10
943.46549891562108
 20
-1273.5431902481146
 30
0.0
 41
0.9999833980062017
 10
943.54147515636419
 20
-1273.2589196650804
 30
0.0
 41
1.0
 10
943.55047909308246
 20
-1273.225230786617
 30
0.0
 41
1.0
 10
943.55948302980084
 20
-1273.1915419081533
 30
0.0
 41
1.0
 10
943.6284475786689
 20
-1272.9335060758508
 30
0.0
 41
0.9999233658064279
 10
943.69100254989064
 20
-1272.6738419171224
 30
0.0
 41
1.0
 10
943.75355752111091
 20
-1272.4141777584
 30
0.0
 41
1.0
 10
943.79304093996848
 20
-1272.2503710939739
 30
0.0
 41
1.0
 10
943.7980195439427
 20
-1272.2297161321158
 30
0.0
 41
1.0
 10
943.80299814791704
 20
-1272.2090611702577
 30
0.0
 41
1.0
 10
943.83252435882378
 20
-1272.0865644295575
 30
0.0
 41
0.9999868670850101
 10
943.86079344282223
 20
-1271.9637714839023
 30
0.0
 41
1.0
 10
943.86469092998459
 20
-1271.9468418964648
 30
0.0
 41
1.0
 10
943.86858841714707
 20
-1271.9299123090273
 30
0.0
 41
1.0
 10
943.8890625268225
 20
-1271.8409785382394
 30
0.0
 41
0.9999778173347331
 10
943.9083501249338
 20
-1271.7517799210264
 30
0.0
 41
1.0
 10
943.92763772304966
 20
-1271.662581303794
 30
0.0
 41
0.9999602692860068
 10
943.94533208167934
 20
-1271.5730530153724
 30
0.0
 41
1.0
 10
943.94853591375727
 20
-1271.5568425604852
 30
0.0
 41
1.0
 10
943.9517397458352
 20
-1271.5406321055982
 30
0.0
 41
1.0
 10
943.97584176862108
 20
-1271.4186829074015
 30
0.0
 41
0.99956179853206
 10
943.99268511583966
 20
-1271.2955211596968
 30
0.0
 41
1.0
 10
943.99514960574584
 20
-1271.2775003423312
 30
0.0
 41
1.0
 10
943.99761409565212
 20
-1271.2594795249656
 30
0.0
 41
1.0
 10
944.01789735670059
 20
-1271.1111644752634
 30
0.0
 41
0.9991121410639693
 10
944.0256227102891
 20
-1270.9616683764557
 30
0.0
 41
1.0
 10
944.02654150031367
 20
-1270.9438885398786
 30
0.0
 41
1.0
 10
944.02746029033835
 20
-1270.9261087033015
 30
0.0
 41
1.0
 10
944.03334806387761
 20
-1270.8121722776475
 30
0.0
 41
0.9989792494904508
 10
944.02892897176002
 20
-1270.6981694417514
 30
0.0
 41
1.0
 10
944.02828099989142
 20
-1270.6814531958244
 30
0.0
 41
1.0
 10
944.02763302802271
 20
-1270.6647369498976
 30
0.0
 41
1.0
 10
944.02450987964266
 20
-1270.5841666058559
 30
0.0
 41
0.9997820295394546
 10
944.01802588226701
 20
-1270.5037968841089
 30
0.0
 41
1.0
 10
944.01154188489124
 20
-1270.4234271623636
 30
0.0
 41
0.9998335105971562
 10
944.00212968937922
 20
-1270.3433475459121
 30
0.0
 41
1.0
 10
944.00053476470305
 20
-1270.3297778154306
 30
0.0
 41
1.0
 10
943.99893984002688
 20
-1270.3162080849488
 30
0.0
 41
1.0
 10
943.98633779516274
 20
-1270.2089890075351
 30
0.0
 41
0.9996876457879411
 10
943.96839388236424
 20
-1270.1025335798174
 30
0.0
 41
1.0
 10
943.96616221921909
 20
-1270.0892938445768
 30
0.0
 41
1.0
 10
943.96393055607393
 20
-1270.0760541093359
 30
0.0
 41
1.0
 10
943.95013473465281
 20
-1269.9942079653758
 30
0.0
 41
0.9995547496494107
 10
943.93148141275981
 20
-1269.9133304681834
 30
0.0
 41
1.0
 10
943.9311074558882
 20
-1269.9117090574769
 30
0.0
 41
1.0
 10
943.9307334990167
 20
-1269.9100876467701
 30
0.0
 41
1.0
 10
943.91282809086692
 20
-1269.8324529709912
 30
0.0
 41
0.9994899427175527
 10
943.89000318218791
 20
-1269.7561196881579
 30
0.0
 41
1.0
 10
943.8895446554468
 20
-1269.7545862383681
 30
0.0
 41
1.0
 10
943.88908612870569
 20
-1269.7530527885785
 30
0.0
 41
1.0
 10
943.86717827350833
 20
-1269.6797864053226
 30
0.0
 41
0.9993784877590231
 10
943.84016263840203
 20
-1269.6082457001644
 30
0.0
 41
1.0
 10
943.83963094742512
 20
-1269.6068377174438
 30
0.0
 41
1.0
 10
943.83909925644821
 20
-1269.6054297347232
 30
0.0
 41
1.0
 10
943.81314700329574
 20
-1269.5367049950059
 30
0.0
 41
0.999243083225472
 10
943.78193046813601
 20
-1269.470205842937
 30
0.0
 41
1.0
 10
943.78134835207925
 20
-1269.4689657878193
 30
0.0
 41
1.0
 10
943.78076623602237
 20
-1269.4677257327014
 30
0.0
 41
1.0
 10
943.75071393297685
 20
-1269.4037066908693
 30
0.0
 41
0.9990789632798898
 10
943.71528330619992
 20
-1269.3425000791192
 30
0.0
 41
1.0
 10
943.71468760001835
 20
-1269.3414709932606
 30
0.0
 41
1.0
 10
943.71409189383667
 20
-1269.340441907402
 30
0.0
 41
1.0
 10
943.67985267942277
 20
-1269.2812934673689
 30
0.0
 41
0.9988874801121135
 10
943.64019340339121
 20
-1269.2256337549516
 30
0.0
 41
1.0
 10
943.639637877327
 20
-1269.2248541032768
 30
0.0
 41
1.0
 10
943.63908235126291
 20
-1269.2240744516023
 30
0.0
 41
1.0
 10
943.60053412735908
 20
-1269.1699740425338
 30
0.0
 41
0.9986762060692881
 10
943.55663165608303
 20
-1269.1201203280948
 30
0.0
 41
1.0
 10
943.55618769575062
 20
-1269.1196161862781
 30
0.0
 41
1.0
 10
943.55574373541833
 20
-1269.1191120444612
 30
0.0
 41
1.0
 10
943.51272918480743
 20
-1269.070266613656
 30
0.0
 41
0.998462164248778
 10
943.46457162802903
 20
-1269.0264833131844
 30
0.0
 41
1.0
 10
943.46432499351272
 20
-1269.0262590810212
 30
0.0
 41
1.0
 10
943.46407835899629
 20
-1269.0260348488578
 30
0.0
 41
1.0
 10
943.41641407125087
 20
-1268.9827000127129
 30
0.0
 41
0.998272469385192
 10
943.36399543940979
 20
-1268.9452556621954
 30
0.0
 41
1.0
 10
943.31157680756871
 20
-1268.9078113116782
 30
0.0
 41
0.9981399180160316
 10
943.25499074417496
 20
-1268.8770247922344
 30
0.0
 41
1.0
 10
943.25494508209658
 20
-1268.8769999490773
 30
0.0
 41
1.0
 10
943.25489942001809
 20
-1268.8769751059201
 30
0.0
 41
1.0
 10
943.19822203246781
 20
-1268.8461389001623
 30
0.0
 41
0.9980927086837029
 10
943.13817668140155
 20
-1268.8225220913098
 30
0.0
 41
1.0
 10
943.13773651168981
 20
-1268.8223489654347
 30
0.0
 41
1.0
 10
943.13729634197807
 20
-1268.8221758395598
 30
0.0
 41
1.0
 10
943.07637065148822
 20
-1268.7982127789573
 30
0.0
 41
0.9981411356562172
 10
943.0129821300884
 20
-1268.7818401374516
 30
0.0
 41
1.0
 10
943.01210001338723
 20
-1268.7816122952463
 30
0.0
 41
1.0
 10
943.01121789668605
 20
-1268.7813844530408
 30
0.0
 41
1.0
 10
942.9460651418832
 20
-1268.764556127124
 30
0.0
 41
0.9983031812935216
 10
942.87939771288757
 20
-1268.7554167659478
 30
0.0
 41
1.0
 10
942.87052668748595
 20
-1268.7542006472768
 30
0.0
 41
1.0
 10
942.86165566208433
 20
-1268.7529845286058
 30
0.0
 41
1.0
 10
942.80730601957862
 20
-1268.7455337986146
 30
0.0
 41
0.9983887708263813
 10
942.75246217028428
 20
-1268.7442891249812
 30
0.0
 41
1.0
 10
942.74439876507051
 20
-1268.7441061271063
 30
0.0
 41
1.0
 10
942.73633535985675
 20
-1268.7439231292315
 30
0.0
 41
1.0
 10
942.69761832099516
 20
-1268.7430444513477
 30
0.0
 41
0.9998869563079831
 10
942.65889236778878
 20
-1268.7433303207074
 30
0.0
 41
1.0
 10
942.62016641454215
 20
-1268.7436161900673
 30
0.0
 41
0.9999972320166541
 10
942.58144223528654
 20
-1268.7440842895971
 30
0.0
 41
1.0
 10
942.562089218751
 20
-1268.7443182296861
 30
0.0
 41
1.0
 10
942.54273620221534
 20
-1268.744552169775
 30
0.0
 41
1.0
 10
942.46530598984361
 20
-1268.7454881494828
 30
0.0
 41
0.9997304945088075
 10
942.38800268360478
 20
-1268.7500172432688
 30
0.0
 41
1.0
 10
942.3789530419017
 20
-1268.7505474492586
 30
0.0
 41
1.0
 10
942.3699034001985
 20
-1268.7510776552485
 30
0.0
 41
1.0
 10
942.27450081055133
 20
-1268.7566671610145
 30
0.0
 41
0.9997888306415331
 10
942.17940847470788
 20
-1268.766172125504
 30
0.0
 41
1.0
 10
942.17068741313608
 20
-1268.767043840136
 30
0.0
 41
1.0
 10
942.16196635156427
 20
-1268.767915554768
 30
0.0
 41
1.0
 10
942.0494318925754
 20
-1268.7791639485213
 30
0.0
 41
0.998417023819027
 10
941.93887274522331
 20
-1268.8029800304573
 30
0.0
 41
1.0
 10
941.90249161423799
 20
-1268.8108170662631
 30
0.0
 41
1.0
 10
941.86611048325278
 20
-1268.8186541020691
 30
0.0
 41
1.0
 10
941.75091941483083
 20
-1268.8434679685788
 30
0.0
 41
0.997659285419874
 10
941.64019124842537
 20
-1268.8837666457262
 30
0.0
 41
1.0
 10
941.52946308201854
 20
-1268.9240653228737
 30
0.0
 41
0.9993255074351433
 10
941.42199128322727
 20
-1268.9723822213668
 30
0.0
 41
1.0
 10
941.41736610430507
 20
-1268.974461597566
 30
0.0
 41
1.0
 10
941.41274092538299
 20
-1268.9765409737652
 30
0.0
 41
1.0
 10
941.29601876874528
 20
-1269.0290166246571
 30
0.0
 41
0.9976475078274768
 10
941.18757142443462
 20
-1269.0969646143158
 30
0.0
 41
1.0
 10
941.16922903029854
 20
-1269.1084570931312
 30
0.0
 41
1.0
 10
941.15088663616257
 20
-1269.1199495719463
 30
0.0
 41
1.0
 10
941.06668444461354
 20
-1269.1727066927128
 30
0.0
 41
0.9995131336406922
 10
940.98593672965615
 20
-1269.230612904666
 30
0.0
 41
1.0
 10
940.9051890146992
 20
-1269.2885191166188
 30
0.0
 41
0.9995810107606254
 10
940.82792736697081
 20
-1269.3510007990844
 30
0.0
 41
1.0
 10
940.82495733576025
 20
-1269.3534026705493
 30
0.0
 41
1.0
 10
940.82198730454979
 20
-1269.3558045420141
 30
0.0
 41
1.0
 10
940.73878559440084
 20
-1269.4230899674092
 30
0.0
 41
0.9996617837954765
 10
940.65919490726253
 20
-1269.4946104229718
 30
0.0
 41
1.0
 10
940.64706415638659
 20
-1269.5055111559614
 30
0.0
 41
1.0
 10
940.63493340551065
 20
-1269.5164118889511
 30
0.0
 41
1.0
 10
940.56665787811335
 20
-1269.5777645044243
 30
0.0
 41
0.9997267750051793
 10
940.50132436983029
 20
-1269.6422410409491
 30
0.0
 41
1.0
 10
940.435990861542
 20
-1269.7067175774787
 30
0.0
 41
0.9999667288962736
 10
940.37171791838364
 20
-1269.7722513843853
 30
0.0
 41
1.0
 10
940.3028904706166
 20
-1269.8424290431353
 30
0.0
 41
1.0
 10
940.23406302284968
 20
-1269.9126067018851
 30
0.0
 41
1.0
 10
940.03213518415509
 20
-1270.1184958262938
 30
0.0
 41
0.9988205335175261
 10
939.85112956717626
 20
-1270.3430000583533
 30
0.0
 41
1.0
 10
939.82048960227007
 20
-1270.3810033087848
 30
0.0
 41
1.0
 10
939.789849637364
 20
-1270.4190065592165
 30
0.0
 41
1.0
 10
939.54756409057109
 20
-1270.719517292142
 30
0.0
 41
0.999707782675563
 10
939.32008613946289
 20
-1271.0313870863631
 30
0.0
 41
1.0
 10
939.31836272433588
 20
-1271.0337498697377
 30
0.0
 41
1.0
 10
939.31663930920899
 20
-1271.0361126531125
 30
0.0
 41
1.0
 10
939.08571452784452
 20
-1271.3527080140857
 30
0.0
 41
0.9989147567078999
 10
938.88525102496089
 20
-1271.6894174752701
 30
0.0
 41
1.0
 10
938.86050987965189
 20
-1271.7309740558262
 30
0.0
 41
1.0
 10
938.83576873434288
 20
-1271.772530636382
 30
0.0
 41
1.0
 10
938.68055743570767
 20
-1272.0332320208313
 30
0.0
 41
0.9997476598181253
 10
938.53721244819849
 20
-1272.3006417694128
 30
0.0
 41
1.0
 10
938.39386746068806
 20
-1272.5680515179968
 30
0.0
 41
0.9996258967109512
 10
938.26535920875733
 20
-1272.8428994546189
 30
0.0
 41
1.0
 10
938.25215929930755
 20
-1272.8711308547147
 30
0.0
 41
1.0
 10
938.23895938985777
 20
-1272.8993622548105
 30
0.0
 41
1.0
 10
938.09875066885945
 20
-1273.1992346527602
 30
0.0
 41
0.9998735413945121
 10
937.96814932213738
 20
-1273.5034142522318
 30
0.0
 41
1.0
 10
937.96470649407593
 20
-1273.5114328376985
 30
0.0
 41
1.0
 10
937.96126366601459
 20
-1273.5194514231653
 30
0.0
 41
1.0
 10
937.8375479754186
 20
-1273.8075938516959
 30
0.0
 41
0.9999377418864015
 10
937.72029317324223
 20
-1274.0984253193742
 30
0.0
 41
1.0
 10
937.60303837106608
 20
-1274.3892567870525
 30
0.0
 41
0.9999508299501182
 10
937.49157442769308
 20
-1274.6823564638628
 30
0.0
 41
1.0
 10
937.4884936590289
 20
-1274.6904574898313
 30
0.0
 41
1.0
 10
937.48541289036473
 20
-1274.6985585157995
 30
0.0
 41
1.0
 10
937.36778740966395
 20
-1275.0078602445446
 30
0.0
 41
0.9999609228429682
 10
937.2556488067944
 20
-1275.3191932605478
 30
0.0
 41
1.0
 10
937.25269279644181
 20
-1275.3274001009654
 30
0.0
 41
1.0
 10
937.24973678608922
 20
-1275.335606941383
 30
0.0
 41
1.0
 10
937.13168616251278
 20
-1275.6633536382265
 30
0.0
 41
0.9999674607402643
 10
937.01893863644489
 20
-1275.992962258221
 30
0.0
 41
1.0
 10
936.96754024588415
 20
-1276.1432214539077
 30
0.0
 41
1.0
 10
936.91614185532342
 20
-1276.2934806495944
 30
0.0
 41
1.0
 10
936.80013124856521
 20
-1276.6326286320987
 30
0.0
 41
0.9999287532307613
 10
936.69224984459413
 20
-1276.974449371075
 30
0.0
 41
1.0
 10
936.64577258847112
 20
-1277.1217119153948
 30
0.0
 41
1.0
 10
936.59929533234811
 20
-1277.2689744597146
 30
0.0
 41
1.0
 10
936.584368440606
 20
-1277.3162701101055
 30
0.0
 41
0.9999998222708292
 10
936.56949793189301
 20
-1277.3635835182918
 30
0.0
 41
1.0
 10
934.94884179509756
 20
-1282.5116120200812
 30
0.0
 41
1.0
 10
933.32818565830212
 20
-1287.6596405218706
 30
0.0
 41
1.0
 10
932.42287721441119
 20
-1287.6596405218706
 30
0.0
 41
1.0
 10
931.51756877052026
 20
-1287.6596405218706
 30
0.0
 41
1.0
 10
933.3696531819063
 20
-1281.7725685994033
 30
0.0
 41
1.0
 10
935.22173759329235
 20
-1275.8854966769356
 30
0.0
 41
1.0
 10
935.23185935159495
 20
-1275.8534534634859
 30
0.0
 41
1.0
 10
935.30446702044469
 20
-1275.6231539216601
 30
0.0
 41
1.0
 10
935.37707468929659
 20
-1275.3928543798274
 30
0.0
 41
0.9999825681970972
 10
935.4469577285106
 20
-1275.1617134847536
 30
0.0
 41
1.0
 10
935.49524879066882
 20
-1275.001988901266
 30
0.0
 41
1.0
 10
935.54353985282705
 20
-1274.8422643177787
 30
0.0
 41
1.0
 10
935.64069220614147
 20
-1274.5209290960124
 30
0.0
 41
0.9999672528970431
 10
935.73263101176678
 20
-1274.1980635504192
 30
0.0
 41
1.0
 10
935.73541989543651
 20
-1274.1882697050291
 30
0.0
 41
1.0
 10
935.73820877910634
 20
-1274.1784758596391
 30
0.0
 41
1.0
 10
935.8245698173946
 20
-1273.8751980048173
 30
0.0
 41
0.9999899749137989
 10
935.90821142692482
 20
-1273.5711589163807
 30
0.0
 41
1.0
 10
935.91831734594257
 20
-1273.5344236787014
 30
0.0
 41
1.0
 10
935.92842326496032
 20
-1273.4976884410221
 30
0.0
 41
1.0
 10
935.99185303645913
 20
-1273.2671198279293
 30
0.0
 41
0.9999214200505243
 10
936.0494824648373
 20
-1273.0350334857189
 30
0.0
 41
1.0
 10
936.06224831701957
 20
-1272.9836226003163
 30
0.0
 41
1.0
 10
936.07501416920172
 20
-1272.9322117149136
 30
0.0
 41
1.0
 10
936.10711189321387
 20
-1272.8029471435138
 30
0.0
 41
0.9999828681671548
 10
936.1376941452105
 20
-1272.673315669042
 30
0.0
 41
1.0
 10
936.16827639720327
 20
-1272.5436841945852
 30
0.0
 41
0.9999389844483548
 10
936.19598738599063
 20
-1272.4134087386956
 30
0.0
 41
1.0
 10
936.20312512971304
 20
-1272.3798526348476
 30
0.0
 41
1.0
 10
936.21026287343557
 20
-1272.3462965309996
 30
0.0
 41
1.0
 10
936.25224934966684
 20
-1272.1489088674168
 30
0.0
 41
0.9998933699441034
 10
936.288453614069
 20
-1271.9503792596579
 30
0.0
 41
1.0
 10
936.28982643928452
 20
-1271.9428512389654
 30
0.0
 41
1.0
 10
936.29119926450016
 20
-1271.935323218273
 30
0.0
 41
1.0
 10
936.33014917933508
 20
-1271.7217375691216
 30
0.0
 41
0.9996850305193759
 10
936.35833285559374
 20
-1271.5064665636853
 30
0.0
 41
1.0
 10
936.36032788896284
 20
-1271.4912282095647
 30
0.0
 41
1.0
 10
936.36232292233194
 20
-1271.4759898554441
 30
0.0
 41
1.0
 10
936.38973078479125
 20
-1271.2666446282876
 30
0.0
 41
0.999469793670707
 10
936.40345534401104
 20
-1271.0559594329552
 30
0.0
 41
1.0
 10
936.40393241326069
 20
-1271.0486359607444
 30
0.0
 41
1.0
 10
936.40440948251035
 20
-1271.0413124885335
 30
0.0
 41
1.0
 10
936.41717990323059
 20
-1270.8452742376251
 30
0.0
 41
0.9991804893137241
 10
936.41405158695784
 20
-1270.6488453876511
 30
0.0
 41
1.0
 10
936.41396770813571
 20
-1270.6435785862386
 30
0.0
 41
1.0
 10
936.41388382931359
 20
-1270.6383117848259
 30
0.0
 41
1.0
 10
936.41092327068509
 20
-1270.4524165376777
 30
0.0
 41
0.9988448329321498
 10
936.39013172506134
 20
-1270.2676639478443
 30
0.0
 41
1.0
 10
936.38853765135832
 20
-1270.2534990920733
 30
0.0
 41
1.0
 10
936.3869435776553
 20
-1270.2393342363023
 30
0.0
 41
1.0
 10
936.3693401794377
 20
-1270.0829113580123
 30
0.0
 41
0.9985503209458696
 10
936.33502390713795
 20
-1269.9292871739217
 30
0.0
 41
1.0
 10
936.32743791506664
 20
-1269.8953268465216
 30
0.0
 41
1.0
 10
936.31985192299544
 20
-1269.8613665191212
 30
0.0
 41
1.0
 10
936.30070763483832
 20
-1269.7756629898324
 30
0.0
 41
0.999103678137057
 10
936.2743827731872
 20
-1269.6918859025075
 30
0.0
 41
1.0
 10
936.2704005477309
 20
-1269.6792127399958
 30
0.0
 41
1.0
 10
936.2664183222746
 20
-1269.6665395774844
 30
0.0
 41
1.0
 10
936.24805791153676
 20
-1269.6081088151848
 30
0.0
 41
0.9998874504369181
 10
936.22795270385757
 20
-1269.5502552129592
 30
0.0
 41
1.0
 10
936.20784749617872
 20
-1269.4924016107354
 30
0.0
 41
0.9994041637544437
 10
936.18379888324432
 20
-1269.4360729068449
 30
0.0
 41
1.0
 10
936.17960209902014
 20
-1269.4262428423626
 30
0.0
 41
1.0
 10
936.17540531479597
 20
-1269.4164127778802
 30
0.0
 41
1.0
 10
936.14752648380136
 20
-1269.3511126119126
 30
0.0
 41
0.9991846840701105
 10
936.11447012710914
 20
-1269.2882745806348
 30
0.0
 41
1.0
 10
936.11333352071426
 20
-1269.2861139641805
 30
0.0
 41
1.0
 10
936.11219691431938
 20
-1269.2839533477259
 30
0.0
 41
1.0
 10
936.08141377041613
 20
-1269.2254365493548
 30
0.0
 41
0.9989253167923984
 10
936.04534434636116
 20
-1269.1700216209642
 30
0.0
 41
1.0
 10
936.04429022168711
 20
-1269.1684021262022
 30
0.0
 41
1.0
 10
936.04323609701316
 20
-1269.1667826314404
 30
0.0
 41
1.0
 10
936.00927492230642
 20
-1269.1146066925746
 30
0.0
 41
0.9986467172837485
 10
935.97007776966882
 20
-1269.0662406589445
 30
0.0
 41
1.0
 10
935.96920364096854
 20
-1269.0651620566668
 30
0.0
 41
1.0
 10
935.96832951226827
 20
-1269.0640834543892
 30
0.0
 41
1.0
 10
935.93088061703156
 20
-1269.0178746253155
 30
0.0
 41
0.9984001104268853
 10
935.88845388651418
 20
-1268.9761895179463
 30
0.0
 41
1.0
 10
935.88786674840503
 20
-1268.9756126430652
 30
0.0
 41
1.0
 10
935.88727961029588
 20
-1268.9750357681842
 30
0.0
 41
1.0
 10
935.84602715599738
 20
-1268.9345044105778
 30
0.0
 41
0.9982442159083311
 10
935.80027105466149
 20
-1268.8991358493172
 30
0.0
 41
1.0
 10
935.80005625919944
 20
-1268.8989698166738
 30
0.0
 41
1.0
 10
935.79984146373738
 20
-1268.8988037840304
 30
0.0
 41
1.0
 10
935.75451495332504
 20
-1268.8637672880564
 30
0.0
 41
0.9982450060836395
 10
935.70536397425417
 20
-1268.8343355050233
 30
0.0
 41
1.0
 10
935.65621299518284
 20
-1268.8049037219901
 30
0.0
 41
0.9983922639635626
 10
935.60404668901776
 20
-1268.7812240873359
 30
0.0
 41
1.0
 10
935.60381981169326
 20
-1268.7811211018543
 30
0.0
 41
1.0
 10
935.60359293436863
 20
-1268.7810181163729
 30
0.0
 41
1.0
 10
935.55097287355557
 20
-1268.7571325107563
 30
0.0
 41
0.9986517147150654
 10
935.49615990068833
 20
-1268.7388313916347
 30
0.0
 41
1.0
 10
935.49548197925969
 20
-1268.738605045203
 30
0.0
 41
1.0
 10
935.49480405783117
 20
-1268.7383786987714
 30
0.0
 41
1.0
 10
935.43863524210724
 20
-1268.7196248867867
 30
0.0
 41
0.9989435598956521
 10
935.38098185495539
 20
-1268.7061071845521
 30
0.0
 41
1.0
 10
935.37990173537401
 20
-1268.7058539342993
 30
0.0
 41
1.0
 10
935.37882161579273
 20
-1268.7056006840462
 30
0.0
 41
1.0
 10
935.31900798947754
 20
-1268.6915764813057
 30
0.0
 41
0.9992249241240742
 10
935.25827648058032
 20
-1268.6823011385902
 30
0.0
 41
1.0
 10
935.25686279228944
 20
-1268.6820852301826
 30
0.0
 41
1.0
 10
935.25544910399856
 20
-1268.6818693217747
 30
0.0
 41
1.0
 10
935.19189021851855
 20
-1268.6721621622439
 30
0.0
 41
0.9994396597833952
 10
935.12782428198057
 20
-1268.6667292398981
 30
0.0
 41
1.0
 10
935.10868361450355
 20
-1268.6651060721797
 30
0.0
 41
1.0
 10
935.08954294702653
 20
-1268.663482904461
 30
0.0
 41
1.0
 10
934.98719567553405
 20
-1268.6548036466779
 30
0.0
 41
0.9987693403121726
 10
934.8844920519474
 20
-1268.6563067101304
 30
0.0
 41
1.0
 10
934.8742377177191
 20
-1268.6564567819046
 30
0.0
 41
1.0
 10
934.86398338349068
 20
-1268.6566068536788
 30
0.0
 41
1.0
 10
934.75442761731256
 20
-1268.6582101979664
 30
0.0
 41
0.9989753644966171
 10
934.64546561729696
 20
-1268.6697132048917
 30
0.0
 41
1.0
 10
934.53650361727955
 20
-1268.6812162118169
 30
0.0
 41
0.9983190067305292
 10
934.42960480631371
 20
-1268.7052512036039
 30
0.0
 41
1.0
 10
934.42070385470788
 20
-1268.7072524821665
 30
0.0
 41
1.0
 10
934.41180290310206
 20
-1268.7092537607289
 30
0.0
 41
1.0
 10
934.2871021889232
 20
-1268.737291309641
 30
0.0
 41
0.9985539388302818
 10
934.16613243524523
 20
-1268.7785549856869
 30
0.0
 41
1.0
 10
934.16378700428515
 20
-1268.7793550295028
 30
0.0
 41
1.0
 10
934.16144157332508
 20
-1268.7801550733184
 30
0.0
 41
1.0
 10
934.03578095772707
 20
-1268.8230188369953
 30
0.0
 41
0.9988468746493668
 10
933.91481061542777
 20
-1268.8777369220572
 30
0.0
 41
1.0
 10
933.91162779343836
 20
-1268.8791765966175
 30
0.0
 41
1.0
 10
933.90844497144894
 20
-1268.8806162711778
 30
0.0
 41
1.0
 10
933.78110898517116
 20
-1268.9382137053601
 30
0.0
 41
0.9991322885918755
 10
933.6590084011151
 20
-1269.0062090375418
 30
0.0
 41
1.0
 10
933.64140639006996
 20
-1269.0160112395322
 30
0.0
 41
1.0
 10
933.62380437902482
 20
-1269.0258134415226
 30
0.0
 41
1.0
 10
933.52162769796848
 20
-1269.0827135573027
 30
0.0
 41
0.9993860037849144
 10
933.423686693896
 20
-1269.1466295728908
 30
0.0
 41
1.0
 10
933.41806838104276
 20
-1269.1502960675862
 30
0.0
 41
1.0
 10
933.41245006818951
 20
-1269.1539625622818
 30
0.0
 41
1.0
 10
933.32574568982352
 20
-1269.2105455884787
 30
0.0
 41
0.9998821494955138
 10
933.24081931400974
 20
-1269.2697638185559
 30
0.0
 41
1.0
 10
933.15589293819596
 20
-1269.3289820486334
 30
0.0
 41
0.9997976482743766
 10
933.07341730779126
 20
-1269.3915684566762
 30
0.0
 41
1.0
 10
933.05878104298733
 20
-1269.4026751464553
 30
0.0
 41
1.0
 10
933.04414477818341
 20
-1269.4137818362342
 30
0.0
 41
1.0
 10
932.93239661816813
 20
-1269.498581623837
 30
0.0
 41
0.9998091630798436
 10
932.82404634013938
 20
-1269.5876819745392
 30
0.0
 41
1.0
 10
932.81104058766346
 20
-1269.598377074984
 30
0.0
 41
1.0
 10
932.79803483518765
 20
-1269.609072175429
 30
0.0
 41
1.0
 10
932.66367305220297
 20
-1269.7195627270248
 30
0.0
 41
0.9995035112317429
 10
932.53653717443706
 20
-1269.8382965440419
 30
0.0
 41
1.0
 10
932.52688986405224
 20
-1269.8473062901976
 30
0.0
 41
1.0
 10
932.5172425536673
 20
-1269.8563160363533
 30
0.0
 41
1.0
 10
932.39381949090136
 20
-1269.9715824081097
 30
0.0
 41
0.9994630424299164
 10
932.27821108511819
 20
-1270.0946851513443
 30
0.0
 41
1.0
 10
932.27452824634611
 20
-1270.0986067308581
 30
0.0
 41
1.0
 10
932.27084540757403
 20
-1270.1025283103718
 30
0.0
 41
1.0
 10
932.16260267933399
 20
-1270.2177878945799
 30
0.0
 41
0.9995160693750356
 10
932.06173664980236
 20
-1270.3395553124519
 30
0.0
 41
1.0
 10
932.05980292972504
 20
-1270.341889736656
 30
0.0
 41
1.0
 10
932.05786920964772
 20
-1270.34422416086
 30
0.0
 41
1.0
 10
931.96087062027323
 20
-1270.4613227303212
 30
0.0
 41
0.9996561470514556
 10
931.87014440160453
 20
-1270.5833454927738
 30
0.0
 41
1.0
 10
931.86398673570034
 20
-1270.591627281819
 30
0.0
 41
1.0
 10
931.85782906979614
 20
-1270.5999090708644
 30
0.0
 41
1.0
 10
931.77941818293448
 20
-1270.7053682552287
 30
0.0
 41
0.99983490551725
 10
931.70489090100637
 20
-1270.8136068388862
 30
0.0
 41
1.0
 10
931.63036361906506
 20
-1270.9218454225629
 30
0.0
 41
0.9999728109563214
 10
931.55744072314769
 20
-1271.0311713481292
 30
0.0
 41
1.0
 10
931.55612550774413
 20
-1271.0331431176196
 30
0.0
 41
1.0
 10
931.55481029234045
 20
-1271.03511488711
 30
0.0
 41
1.0
 10
931.47925696563425
 20
-1271.1483843516294
 30
0.0
 41
0.9999972147470585
 10
931.40423915530982
 20
-1271.2620091943893
 30
0.0
 41
1.0
 10
931.39926761264894
 20
-1271.2695392829201
 30
0.0
 41
1.0
 10
931.39429606998806
 20
-1271.2770693714506
 30
0.0
 41
1.0
 10
931.30933517436711
 20
-1271.4057543912345
 30
0.0
 41
0.9999371979007725
 10
931.2272798249619
 20
-1271.5363113050137
 30
0.0
 41
1.0
 10
931.22377094060153
 20
-1271.5418942330766
 30
0.0
 41
1.0
 10
931.22026205624104
 20
-1271.5474771611393
 30
0.0
 41
1.0
 10
931.13118893811611
 20
-1271.6891999310426
 30
0.0
 41
0.9998272025609964
 10
931.04744554723663
 20
-1271.8341358077796
 30
0.0
 41
1.0
 10
931.03223037520956
 20
-1271.8604689222416
 30
0.0
 41
1.0
 10
931.01701520318238
 20
-1271.8868020367036
 30
0.0
 41
1.0
 10
930.9028414682507
 20
-1272.0844041423618
 30
0.0
 41
0.9995217214838198
 10
930.80110177869415
 20
-1272.2886864702261
 30
0.0
 41
1.0
 10
930.79345821606239
 20
-1272.3040339199224
 30
0.0
 41
1.0
 10
930.78581465343063
 20
-1272.3193813696189
 30
0.0
 41
1.0
 10
930.69890936084028
 20
-1272.4938778277017
 30
0.0
 41
0.9998269762608313
 10
930.61855489456468
 20
-1272.6714861144324
 30
0.0
 41
1.0
 10
930.53820042828988
 20
-1272.8490944011614
 30
0.0
 41
0.9998944747387677
 10
930.46303963372588
 20
-1273.0289621267902
 30
0.0
 41
1.0
 10
930.4580859641344
 20
-1273.0408167817086
 30
0.0
 41
1.0
 10
930.45313229454291
 20
-1273.0526714366267
 30
0.0
 41
1.0
 10
930.37248523399148
 20
-1273.2456683766418
 30
0.0
 41
0.999950673441408
 10
930.29568770508899
 20
-1273.4402291814954
 30
0.0
 41
1.0
 10
930.28108773981705
 20
-1273.4772171033042
 30
0.0
 41
1.0
 10
930.26648777454511
 20
-1273.5142050251127
 30
0.0
 41
1.0
 10
930.21889017618196
 20
-1273.6347899863599
 30
0.0
 41
0.9999912393922585
 10
930.17230373216285
 20
-1273.7557691890472
 30
0.0
 41
1.0
 10
930.12571728814726
 20
-1273.876748391725
 30
0.0
 41
0.9999927113977396
 10
930.08005599374985
 20
-1273.998079799235
 30
0.0
 41
1.0
 10
930.06608756235028
 20
-1274.0351967812389
 30
0.0
 41
1.0
 10
930.0521191309507
 20
-1274.0723137632428
 30
0.0
 41
1.0
 10
929.97852097375721
 20
-1274.2678791347535
 30
0.0
 41
0.9999487550950708
 10
929.90889734878579
 20
-1274.4648944999353
 30
0.0
 41
1.0
 10
929.88530373885339
 20
-1274.5316578102156
 30
0.0
 41
1.0
 10
929.861710128921
 20
-1274.5984211204957
 30
0.0
 41
1.0
 10
929.7670244945482
 20
-1274.8663549553271
 30
0.0
 41
0.9999808436942207
 10
929.67566290590366
 20
-1275.1354403866001
 30
0.0
 41
1.0
 10
929.58430131725822
 20
-1275.4045258178767
 30
0.0
 41
0.999987393289213
 10
929.49564660853639
 20
-1275.6745151729012
 30
0.0
 41
1.0
 10
929.47555425167093
 20
-1275.7357045056424
 30
0.0
 41
1.0
 10
929.45546189480535
 20
-1275.7968938383838
 30
0.0
 41
1.0
 10
929.32662247235203
 20
-1276.1892618588915
 30
0.0
 41
0.9999794883029083
 10
929.20281968739096
 20
-1276.5832480651793
 30
0.0
 41
1.0
 10
929.19166742795323
 20
-1276.6187386754173
 30
0.0
 41
1.0
 10
929.1805151685154
 20
-1276.6542292856554
 30
0.0
 41
1.0
 10
929.03795700461239
 20
-1277.107902037759
 30
0.0
 41
0.9999982761701056
 10
928.89708456460289
 20
-1277.5621010598641
 30
0.0
 41
1.0
 10
927.30894423203029
 20
-1282.6108707908675
 30
0.0
 41
1.0
 10
925.72080389945768
 20
-1287.6596405218706
 30
0.0
 41
1.0
 10
924.77205328798129
 20
-1287.6596405218706
 30
0.0
 41
1.0
 10
923.82330267650491
 20
-1287.6596405218706
 30
0.0
 41
1.0
 10
927.06158716265804
 20
-1277.3323183219245
 30
0.0
 41
1.0
 10
930.29987164881118
 20
-1267.0049961219784
 30
0.0
 41
1.0
  0
LWPOLYLINE
  5
55
100
AcDbEntity
  8
0
370
              15
390
0
  6
Continuous
 62
               7
100
AcDbPolyline
 90
      232
 70
             128
 10
904.59632587498413
 20
-1268.0893389534936
 42
0.0004370800692117
 10
904.54344870091234
 20
-1268.1580055927495
 10
904.50416446978466
 20
-1268.2091127056465
 42
0.0030481992172802
 10
904.37382575268362
 20
-1268.3808343979665
 10
904.33531408091505
 20
-1268.4322211817787
 42
0.004205824576405
 10
904.131329030232
 20
-1268.7092269268708
 10
904.07892390774452
 20
-1268.7816597736332
 42
0.0120948898744582
 10
903.78287999098211
 20
-1269.2124093781836
 10
903.68668749185713
 20
-1269.3598901134133
 42
0.0141601263949862
 10
903.38304344493918
 20
-1269.8555594501424
 10
903.3435061775125
 20
-1269.9244034175754
 42
0.0071131081303798
 10
903.13823385427486
 20
-1270.2939062164123
 42
0.0068458791003417
 10
902.9433543274306
 20
-1270.6689977798908
 10
902.93654246497408
 20
-1270.6825594936122
 42
0.0064120880289223
 10
902.73840021493447
 20
-1271.089983968521
 10
902.73086552941277
 20
-1271.1059958252522
 42
0.0058857236448259
 10
902.52811013754138
 20
-1271.5503719362866
 10
902.51993521124712
 20
-1271.5688620899211
 42
0.0053189741896757
 10
902.31123089858136
 20
-1272.0548255638348
 10
902.30248309289823
 20
-1272.0758074420351
 42
0.0047503650417849
 10
902.08650936674803
 20
-1272.6080068752433
 10
902.07724111839934
 20
-1272.6314832513526
 42
0.0042071762172264
 10
901.85269373466895
 20
-1273.2145768454291
 10
901.84294433232287
 20
-1273.2405430202921
 42
0.0036680086484012
 10
901.6084896890178
 20
-1273.879178404804
 10
901.59828190916301
 20
-1273.907626939168
 42
0.0032573142627743
 10
901.3526496232007
 20
-1274.6064795989087
 10
901.28399910235737
 20
-1274.8059426829693
 42
0.0026133366649138
 10
900.93555390359768
 20
-1275.8358059666461
 10
900.872297116097
 20
-1276.026036802039
 42
0.0020592950739396
 10
900.65843404712984
 20
-1276.6781404546523
 10
900.65538225597163
 20
-1276.6875769430471
 42
0.0025609928533846
 10
900.45356175448092
 20
-1277.3227221654279
 10
900.45097038734718
 20
-1277.331024506391
 42
0.0031362356246049
 10
900.26147960167737
 20
-1277.951787362548
 10
900.25934855875028
 20
-1277.9589286687581
 42
0.0037229918030943
 10
900.08254817182365
 20
-1278.5679139707331
 10
900.08086958261606
 20
-1278.5738608609117
 42
0.0043077623707283
 10
899.91712878055216
 20
-1279.1736795926768
 42
0.0047654161821928
 10
899.76430005803581
 20
-1279.77636568158
 10
899.72983544919703
 20
-1279.9179274587286
 42
0.0112969368447341
 10
899.53397109105174
 20
-1280.809619619361
 10
899.50596470195671
 20
-1280.9524476654508
 42
0.0130056762570143
 10
899.30512745831015
 20
-1282.1393887370957
 10
899.28458770816292
 20
-1282.2834668505743
 42
0.0138721532145176
 10
899.18088470362522
 20
-1283.1902963363984
 10
899.16158921571719
 20
-1283.4137940583255
 42
0.0071254697009206
 10
899.12824256979468
 20
-1283.8769810671706
 10
899.12328159563083
 20
-1283.9629850617403
 42
0.0028881799206537
 10
899.10814330234155
 20
-1284.2547267715736
 42
0.0060297297136665
 10
899.09821110256632
 20
-1284.5466757076808
 10
899.09714882089884
 20
-1284.5950680796261
 42
0.0229523164157624
 10
899.10487984868473
 20
-1284.9178229259051
 10
899.10910562220511
 20
-1284.9782264599205
 42
0.0123673300666928
 10
899.12818426872343
 20
-1285.179347185096
 42
0.0128577674467638
 10
899.15737965912933
 20
-1285.3792450350204
 10
899.16450553251673
 20
-1285.4205738496198
 42
0.0285717853763926
 10
899.22899953421245
 20
-1285.6986900009329
 10
899.24266805787886
 20
-1285.7453447704102
 42
0.0316283099153373
 10
899.35847863779304
 20
-1286.0643592722361
 10
899.36152732954884
 20
-1286.0713456445621
 42
0.0338984824238867
 10
899.51095904051567
 20
-1286.3589116087508
 10
899.51326776988526
 20
-1286.3627026380261
 42
0.0350228718354981
 10
899.6956280605591
 20
-1286.6197546227036
 10
899.69651331233501
 20
-1286.6208337004687
 42
0.0347476747529485
 10
899.91093799957423
 20
-1286.8480187476875
 42
0.0331337701910574
 10
900.15418132532091
 20
-1287.0441474097654
 10
900.15528142383675
 20
-1287.0449201129377
 42
0.030523331908236
 10
900.42382611941048
 20
-1287.210048283029
 10
900.4270561639114
 20
-1287.2117722948915
 42
0.0273744481157507
 10
900.71960987548698
 20
-1287.3479104387825
 10
900.72471441062328
 20
-1287.3499540232517
 42
0.0240964406197549
 10
901.0401914862698
 20
-1287.4589377495331
 10
901.0467748154789
 20
-1287.460862489208
 42
0.0209636179812577
 10
901.38417496812804
 20
-1287.5443306371394
 10
901.39180742858014
 20
-1287.5458825501416
 42
0.0181388704693506
 10
901.75012982057888
 20
-1287.6052986433556
 10
901.7584106689568
 20
-1287.6063648271727
 42
0.0156086547585285
 10
902.13659803314545
 20
-1287.6431010137494
 10
902.17979328547915
 20
-1287.6459395162287
 42
0.0137148329026534
 10
902.50746643077161
 20
-1287.6584597714796
 10
902.55340262071343
 20
-1287.6589542045947
 42
0.0051057823887168
 10
902.78954820728984
 20
-1287.6590844590041
 42
0.0052256693311738
 10
903.02564549107444
 20
-1287.6543356345396
 10
903.09587227481791
 20
-1287.6521886685257
 42
0.0161507179049648
 10
903.47160935292106
 20
-1287.6285382981989
 10
903.49162231329217
 20
-1287.6266281029116
 42
0.0101216737832706
 10
903.90564953478179
 20
-1287.5786351725462
 10
903.93970282420958
 20
-1287.5739874757364
 42
0.0245291776397392
 10
904.41649247975874
 20
-1287.4849123976605
 10
904.50131579528295
 20
-1287.4647164773148
 42
0.014350921255892
 10
904.85794689922443
 20
-1287.3689118435354
 42
0.0156557857041937
 10
905.20816296395094
 20
-1287.2519006277169
 10
905.21566417844633
 20
-1287.2491304659625
 42
0.0170137333631318
 10
905.57226017412859
 20
-1287.1034728510911
 10
905.57936409653519
 20
-1287.1002850155278
 42
0.0183105364409703
 10
905.93871376470281
 20
-1286.9229499737028
 10
905.94566052934022
 20
-1286.9191995388314
 42
0.0194899958149863
 10
906.30414127032441
 20
-1286.7072205569405
 10
906.31115514966086
 20
-1286.7026952146457
 42
0.0204869852948548
 10
906.6651694517559
 20
-1286.4531751995589
 10
906.67243506034174
 20
-1286.4475951342115
 42
0.0212516938558301
 10
907.01842499145323
 20
-1286.1576911373136
 10
907.0649416855241
 20
-1286.1152238272243
 42
0.0215248918249088
 10
907.3249678544131
 20
-1285.8564595482285
 10
907.36999758879347
 20
-1285.807615426879
 42
0.0114578554957303
 10
907.52478974247106
 20
-1285.6317924934206
 10
907.53598427845941
 20
-1285.6184737298731
 42
0.0061531305129475
 10
907.66245892445204
 20
-1285.4641841965695
 42
0.0006325587127869
 10
907.78683740873873
 20
-1285.3081808207239
 10
907.80987754365538
 20
-1285.2792073002342
 42
0.0041897761554223
 10
907.97833294762052
 20
-1285.0636879241822
 10
908.0367950675203
 20
-1284.9875865771874
 42
0.0092993880039111
 10
908.31340699474765
 20
-1284.6133078132982
 10
908.39580148794448
 20
-1284.4973708097325
 42
0.0159321727086435
 10
908.74240797058519
 20
-1283.9751965889786
 10
908.78676410597222
 20
-1283.9035170247319
 42
0.0085547317020677
 10
909.02127587130008
 20
-1283.509642075504
 42
0.0084601156889796
 10
909.24225204874233
 20
-1283.1080152264717
 10
909.25036752257256
 20
-1283.0926555441988
 42
0.0081429654285291
 10
909.47361679301139
 20
-1282.6529340316554
 10
909.48247695719408
 20
-1282.6347551896388
 42
0.0076574581328677
 10
909.70888446776098
 20
-1282.151572314385
 10
909.71836410848448
 20
-1282.1305078360824
 42
0.0070682724199216
 10
909.94880901629006
 20
-1281.5984705313044
 10
909.95879930027297
 20
-1281.5744813422898
 42
0.0064559514449726
 10
910.19413250845673
 20
-1280.9881690757652
 10
910.20454186661959
 20
-1280.9612341503284
 42
0.0058311413905565
 10
910.44558860338202
 20
-1280.3152020559457
 10
910.45634368076981
 20
-1280.2853177147845
 42
0.005231242581842
 10
910.70392495881435
 20
-1279.574115300939
 10
910.71496879519054
 20
-1279.54128858888
 42
0.0046680544797109
 10
910.96989722292221
 20
-1278.7594622731342
 10
911.01188937296934
 20
-1278.6264790358307
 42
0.0041666856446573
 10
911.21517538536352
 20
-1277.9635102608277
 10
911.25283782602673
 20
-1277.8369291531762
 42
0.0015170975155628
 10
911.37402440444032
 20
-1277.4250608016803
 42
-0.0004887993110782
 10
911.49436417759705
 20
-1277.0129423895239
 10
911.57084143505858
 20
-1276.7519850036972
 42
0.0002583378927851
 10
911.84405600512878
 20
-1275.8179283004981
 10
911.92582885467425
 20
-1275.5378290410217
 42
0.0006636169672048
 10
912.11969661471085
 20
-1274.8704761173481
 10
912.12479326907146
 20
-1274.8528445344211
 42
0.001058913132359
 10
912.30624196997451
 20
-1274.2201131914192
 10
912.311224040453
 20
-1274.2026002844061
 42
0.001565552446104
 10
912.47949424763772
 20
-1273.6039836051982
 10
912.48432444804803
 20
-1273.5865914462793
 42
0.0021640440475715
 10
912.63861442003872
 20
-1273.0215644282443
 10
912.64324863947297
 20
-1273.0042996982347
 42
0.0028763871855162
 10
912.78276435752161
 20
-1272.4723317474034
 10
912.78715022168831
 20
-1272.455207769251
 42
0.0037310511946012
 10
912.91110691352571
 20
-1271.9557601752249
 10
912.91518213381175
 20
-1271.938799903992
 42
0.0047652197771973
 10
913.02280603432325
 20
-1271.4713221356744
 10
913.02649663364798
 20
-1271.4545625805181
 42
0.0060276699306858
 10
913.11702673280024
 20
-1271.0184867853802
 10
913.12024542308893
 20
-1271.0019855710732
 42
0.0075824337759324
 10
913.1929347325048
 20
-1270.5967184066449
 10
913.19558010988601
 20
-1270.5805634591886
 42
0.0095130624609909
 10
913.24969534551633
 20
-1270.2054741061224
 10
913.25668156939889
 20
-1270.1495405480057
 42
0.0121054653234112
 10
913.28327289997685
 20
-1269.8846447195322
 10
913.28413938973642
 20
-1269.873241276603
 42
0.0069050827391706
 10
913.29922820777404
 20
-1269.6303000497587
 10
913.30036350744274
 20
-1269.6067737927103
 42
0.0169063976707962
 10
913.30319078642287
 20
-1269.4105810654132
 10
913.30202013489179
 20
-1269.3502453040694
 42
0.0052007732893967
 10
913.29976668629865
 20
-1269.2746519139121
 42
0.0054038123296969
 10
913.27980317446054
 20
-1269.1546336179065
 10
913.2747173185893
 20
-1269.125975131321
 42
0.0112050460451102
 10
913.23933295653137
 20
-1268.9496486929847
 10
913.22150799449014
 20
-1268.870107106261
 42
0.024076446800975
 10
913.13061062834413
 20
-1268.5398700707603
 10
913.11205186553093
 20
-1268.483249905767
 42
0.0256812331834053
 10
912.968688945341
 20
-1268.1115256995088
 10
912.96327951951923
 20
-1268.0993943645183
 42
0.0268360501212235
 10
912.79385227866965
 20
-1267.7684012304981
 10
912.78831587103434
 20
-1267.7588815601853
 42
0.0274670231727127
 10
912.59611489462134
 20
-1267.4665941852686
 10
912.59073359465913
 20
-1267.4593150377277
 42
0.0275035967105314
 10
912.37916071509687
 20
-1267.2037991474231
 10
912.37409121412998
 20
-1267.1983200597922
 42
0.0269557673524463
 10
912.14668767069077
 20
-1266.9776777738302
 10
912.14194461290833
 20
-1266.9735478193695
 42
0.025912480221177
 10
911.90238978147738
 20
-1266.7858572922173
 10
911.89785893629505
 20
-1266.7826717898868
 42
0.0245162153002886
 10
911.64994258320064
 20
-1266.6259387807763
 10
911.64541603687815
 20
-1266.6233785835764
 42
0.0229282588829592
 10
911.39299648004908
 20
-1266.4955103910766
 10
911.38821598621109
 20
-1266.4933580913141
 42
0.0212984135693904
 10
911.13517803375066
 20
-1266.3921591740723
 10
911.12987374878207
 20
-1266.3902956113127
 42
0.0197555462341033
 10
910.88009541105816
 20
-1266.3134801933475
 42
0.0183511896784652
 10
910.62516668559419
 20
-1266.2558972863819
 10
910.53880148887231
 20
-1266.2396944959971
 42
0.0338057877150354
 10
910.25329413961174
 20
-1266.2058860908569
 10
910.16228873457555
 20
-1266.2013064355956
 42
0.0091990524488401
 10
910.0564416259358
 20
-1266.1979305796733
 42
0.0028333980777335
 10
909.9505277099438
 20
-1266.1971024721565
 10
909.94961225689349
 20
-1266.1971005023324
 42
-0.0023619827799693
 10
909.84186624176084
 20
-1266.1963596612538
 10
909.80546107161172
 20
-1266.1959373547911
 42
0.0008824598485298
 10
909.62490508169446
 20
-1266.1941615765522
 10
909.58104364935593
 20
-1266.1938076150273
 42
0.003813266576811
 10
909.31276075349149
 20
-1266.1936886789604
 10
909.29622709868363
 20
-1266.1938074451041
 42
0.0060665569335534
 10
908.9949466070974
 20
-1266.1996277445248
 10
908.98069627506698
 20
-1266.2000760524925
 42
0.0080356953336903
 10
908.65123755872389
 20
-1266.2157437745595
 10
908.6391675436405
 20
-1266.2165123574998
 42
0.0098996399105945
 10
908.28640445898736
 20
-1266.2459975866982
 10
908.27635874961493
 20
-1266.2470378828962
 42
0.0117740981366489
 10
907.90520189126732
 20
-1266.2943301304258
 10
907.89697919478363
 20
-1266.2955752469968
 42
0.0137435215135065
 10
907.51239037529808
 20
-1266.3646722205585
 10
907.50573333617513
 20
-1266.3660581167919
 42
0.0158359869385322
 10
907.11273624237276
 20
-1266.4609502052729
 10
907.1073230555055
 20
-1266.4624401461433
 42
0.018055412402713
 10
906.71100801089335
 20
-1266.5870781623819
 10
906.70645122280973
 20
-1266.5886941986482
 42
0.0203657431282945
 10
906.3119737049991
 20
-1266.7469545401639
 10
906.30783016599105
 20
-1266.7488161616061
 42
0.022681968465513
 10
905.92039410978794
 20
-1266.9444587402766
 10
905.91619431876927
 20
-1266.9468243321967
 42
0.0248634984606092
 10
905.5410123775888
 20
-1267.1834509781436
 10
905.49281744880352
 20
-1267.2173080199702
 42
0.0267044190885524
 10
905.21852475188757
 20
-1267.4327483958377
 42
0.0139303002197481
 10
904.9623575859506
 20
-1267.6699872367481
 10
904.95750420022785
 20
-1267.6747398996099
 42
0.0283460963442526
 10
904.71343160599974
 20
-1267.9424705600561
 10
904.6737631008441
 20
-1267.9912721375281
 42
0.0070695364819109
 10
904.59632587498413
 20
-1268.0893389534936
 42
0.0070695364819109
  0
LWPOLYLINE
  5
56
100
AcDbEntity
  8
0
370
              15
390
0
  6
Continuous
 62
               7
100
AcDbPolyline
 90
      226
 70
             128
 10
901.06750543773774
 20
-1283.8109277596775
 42
-0.0026277636624697
 10
901.06742755393759
 20
-1283.7441558339601
 10
901.06764491216973
 20
-1283.6910006164912
 42
-0.0088680296737846
 10
901.07142152846279
 20
-1283.5179848340915
 10
901.07376788757529
 20
-1283.4587048086346
 42
-0.0077381705614697
 10
901.08981399833795
 20
-1283.1674443128438
 10
901.09068190951155
 20
-1283.1551560791513
 42
-0.0068872530537054
 10
901.11731398925804
 20
-1282.8399343270992
 10
901.11851821344578
 20
-1282.8276933480638
 42
-0.0062130021486449
 10
901.15611193027257
 20
-1282.4888236568331
 10
901.15761583380868
 20
-1282.4766497849087
 42
-0.0056726929675333
 10
901.20653769331
 20
-1282.1144545628015
 10
901.20831113895531
 20
-1282.1023607625498
 42
-0.0052341884493721
 10
901.26892172521798
 20
-1281.7171675070163
 10
901.27093971399199
 20
-1281.7051625770396
 42
-0.0049768450170808
 10
901.3436783954179
 20
-1281.2973180096101
 10
901.36792741014017
 20
-1281.1687700266011
 42
-0.0089029805624026
 10
901.5050082619357
 20
-1280.5069945791752
 10
901.53775363725345
 20
-1280.3619631486551
 42
-0.0080318257100698
 10
901.76730225159565
 20
-1279.4162535167957
 10
901.77928717804241
 20
-1279.3701228816112
 42
-0.0074265721318057
 10
902.06329871688865
 20
-1278.3400583032433
 10
902.08317826001166
 20
-1278.2719242426322
 42
-0.0069711922701329
 10
902.41048283851558
 20
-1277.2056565023136
 10
902.47043478562125
 20
-1277.0196351439424
 42
-0.0052070422895317
 10
902.69986001088046
 20
-1276.3323630669115
 10
902.71714120305683
 20
-1276.2823357862824
 42
-0.0009167004450361
 10
902.92023309034209
 20
-1275.6978799381404
 42
-0.0025162726942938
 10
903.12733072060678
 20
-1275.1148386739715
 10
903.16455533241026
 20
-1275.0116891280716
 42
-0.0028212681456328
 10
903.4127312513732
 20
-1274.3359584959012
 10
903.42256201413329
 20
-1274.3096510511991
 42
-0.0031964916817203
 10
903.65885427178625
 20
-1273.6894462890975
 10
903.66848872578657
 20
-1273.6646362989507
 42
-0.0036281836450875
 10
903.89359468688644
 20
-1273.0971956180611
 10
903.90303309704564
 20
-1273.0738981865541
 42
-0.0041269166833236
 10
904.11765079370309
 20
-1272.5564572905801
 10
904.15028375012298
 20
-1272.4795788442209
 42
-0.004747221305617
 10
904.30732855567749
 20
-1272.1191573763356
 10
904.31422263688773
 20
-1272.1037367789991
 42
-0.0025651659996072
 10
904.46258067073586
 20
-1271.7764087232551
 42
-0.0057144634997853
 10
904.61633036450633
 20
-1271.4515990498942
 10
904.6443610699115
 20
-1271.3940906674918
 42
-0.0065388068371175
 10
904.82782809764808
 20
-1271.0298581708334
 10
904.83628655341829
 20
-1271.0135985914799
 42
-0.0074510843026147
 10
905.01246879930443
 20
-1270.6869103103413
 10
905.02064846983137
 20
-1270.6722695330798
 42
-0.0084648979866004
 10
905.19028232293556
 20
-1270.3803605221112
 10
905.19813844942348
 20
-1270.3673535304606
 42
-0.0095638542807126
 10
905.36197389701795
 20
-1270.1074646584818
 10
905.36944884069146
 20
-1270.0960952970238
 42
-0.0107191626802504
 10
905.52825042107725
 20
-1269.8654840624822
 10
905.53526715480757
 20
-1269.8557479701185
 42
-0.0118458573901384
 10
905.68981525332083
 20
-1269.651675774807
 42
-0.0129184518180422
 10
905.85426787693052
 20
-1269.4555152586274
 10
905.88441264928633
 20
-1269.4213891797363
 42
-0.0217742579638605
 10
906.06102497162078
 20
-1269.2381824094869
 10
906.07177051607789
 20
-1269.227965576287
 42
-0.0097266568651212
 10
906.23782813493688
 20
-1269.0761180018467
 42
-0.0187720905726351
 10
906.41217571082541
 20
-1268.9340491484584
 10
906.44288170149866
 20
-1268.9108900660628
 42
-0.0179428207521285
 10
906.67530242149678
 20
-1268.7483378889497
 10
906.67895474841396
 20
-1268.7459739540611
 42
-0.0170047877699502
 10
906.91471838594293
 20
-1268.6045134399105
 10
906.91850137469214
 20
-1268.6024151348727
 42
-0.0160190788367999
 10
907.15540992232479
 20
-1268.4807638328862
 42
-0.0151102861496382
 10
907.39944170477122
 20
-1268.3740810568315
 10
907.45182820698324
 20
-1268.3530409239368
 42
-0.0271945441887192
 10
907.81049076604165
 20
-1268.2311761132307
 10
907.87955556653105
 20
-1268.2118265719641
 42
-0.0237596594020759
 10
908.295352413552
 20
-1268.1163758599828
 10
908.36341526728268
 20
-1268.1041211718561
 42
-0.0213715440555279
 10
908.64929019872773
 20
-1268.0651741403462
 10
908.70943736494939
 20
-1268.059584425645
 42
-0.0101465655812499
 10
908.87692989693994
 20
-1268.0474408823811
 10
908.88627028313556
 20
-1268.0469539673841
 42
-0.0100375910879551
 10
909.03542438370073
 20
-1268.0421781494588
 10
909.04568365337718
 20
-1268.0420557104444
 42
-0.0103625633384108
 10
909.17439164803591
 20
-1268.043187143971
 10
909.19665729930955
 20
-1268.0438445024361
 42
-0.0115689250218643
 10
909.28070803683067
 20
-1268.0482740086809
 42
-0.0072438037430159
 10
909.364546316271
 20
-1268.0558632084305
 10
909.38134682574264
 20
-1268.0576297511545
 42
-0.0217917313140796
 10
909.49791658905463
 20
-1268.0750496438754
 10
909.56351667962645
 20
-1268.0877962522909
 42
-0.0332943556754757
 10
909.7679088446514
 20
-1268.141836543597
 10
909.79808141320223
 20
-1268.1520046207158
 42
-0.0184824084790043
 10
909.93658646966685
 20
-1268.204455636102
 42
-0.0198002050694909
 10
910.07066081016478
 20
-1268.2673396963007
 10
910.07254744754312
 20
-1268.2683174831814
 42
-0.0212242342983729
 10
910.20468638994362
 20
-1268.3440802219736
 10
910.20650168548855
 20
-1268.3452260241829
 42
-0.0226090605802666
 10
910.33500558671085
 20
-1268.4347056677479
 10
910.33685002844766
 20
-1268.4361179207349
 42
-0.0238457052241296
 10
910.46003210973936
 20
-1268.540113816596
 10
910.4619848382996
 20
-1268.5419286943634
 42
-0.0248160564155601
 10
910.57818634559931
 20
-1268.6612032955709
 10
910.58028997900237
 20
-1268.6635886292765
 42
-0.0254109591459934
 10
910.68789519686845
 20
-1268.798877015241
 10
910.6901432187824
 20
-1268.8020185636415
 42
-0.0255528488282633
 10
910.78758989757966
 20
-1268.9540456178756
 10
910.78992099749564
 20
-1268.9581272294831
 42
-0.0252146793218459
 10
910.87570202350526
 20
-1269.1276294754812
 10
910.87800426266244
 20
-1269.1328115573931
 42
-0.0244265635947783
 10
910.95065895642415
 20
-1269.3205581294401
 10
910.95990535789269
 20
-1269.3484235477786
 42
-0.0231319612902914
 10
911.00582813688436
 20
-1269.5117245945792
 42
-0.0112130424367948
 10
911.04046415942162
 20
-1269.6779281947627
 10
911.04166668453502
 20
-1269.6844247816553
 42
-0.0210527881238475
 10
911.06735315990568
 20
-1269.865480427095
 10
911.07086375472772
 20
-1269.9008859756436
 42
-0.0190029892425786
 10
911.08630522827229
 20
-1270.1544218219126
 10
911.08711520471638
 20
-1270.1898974362848
 42
-0.0137974553662444
 10
911.08556635188086
 20
-1270.5149288430184
 10
911.08472089692543
 20
-1270.5410475876063
 42
-0.0081336634214859
 10
911.06986156170274
 20
-1270.8463950552105
 42
-0.0073526923576519
 10
911.0455530283283
 20
-1271.1511432994944
 10
911.04429160454538
 20
-1271.1644799741616
 42
-0.0066886138694153
 10
911.00855601849935
 20
-1271.4950660176546
 10
911.00689892902892
 20
-1271.5086876366504
 42
-0.0061359187353345
 10
910.95904832697852
 20
-1271.8654516167469
 10
910.95701082590517
 20
-1271.8793464195796
 42
-0.0056698610066056
 10
910.89636049513865
 20
-1272.2626249884147
 10
910.89395506181506
 20
-1272.2767841076484
 42
-0.0052721077276971
 10
910.81982286101731
 20
-1272.6869114473161
 10
910.81705971217366
 20
-1272.7013280827123
 42
-0.0049289272177742
 10
910.7287655940745
 20
-1273.1386365938306
 10
910.72565309939114
 20
-1273.1533054466504
 42
-0.0047415956711864
 10
910.62241510785884
 20
-1273.618102204061
 10
910.5876468974991
 20
-1273.7679092994442
 42
-0.0084404470905287
 10
910.39763045392795
 20
-1274.5281333239727
 10
910.39150376594159
 20
-1274.5509974481288
 42
-0.0039635940257047
 10
910.17005008165768
 20
-1275.3519863123759
 10
910.15667328647805
 20
-1275.3989179289679
 42
-0.0072475040837385
 10
909.88922639861846
 20
-1276.2881376453472
 10
909.81901407179146
 20
-1276.5098779953184
 42
-0.0051345458829167
 10
909.5322546997287
 20
-1277.3842031831414
 10
909.51072843295651
 20
-1277.4476294502854
 42
-0.0019150016601091
 10
909.2551950260945
 20
-1278.1911785704974
 10
909.24872742170805
 20
-1278.2097660353904
 42
-0.0021524362753139
 10
909.00024937063438
 20
-1278.914091857127
 10
908.99103894995005
 20
-1278.9398454353945
 42
-0.0024331286820813
 10
908.75478369090195
 20
-1279.5904447435464
 10
908.74573573834505
 20
-1279.6149880499179
 42
-0.0027449721789461
 10
908.52112116751607
 20
-1280.2141179288253
 10
908.51223116013296
 20
-1280.2374405186538
 42
-0.0031083229770231
 10
908.29868867351388
 20
-1280.7873645562572
 10
908.28995254183644
 20
-1280.8094542721196
 42
-0.0035311343283131
 10
908.08691135624645
 20
-1281.3124373978451
 10
908.07832601710174
 20
-1281.3332801213483
 42
-0.0040245640948463
 10
907.88521421330427
 20
-1281.7915894439479
 10
907.87677809969819
 20
-1281.8111688120268
 42
-0.0046015135851402
 10
907.69302180653744
 20
-1282.2270738416621
 10
907.68473562870793
 20
-1282.2453709811168
 42
-0.0052768638270841
 10
907.50975810975365
 20
-1282.6211438653845
 10
907.50162589912986
 20
-1282.6381372039211
 42
-0.0060672675646069
 10
907.33484628636074
 20
-1282.9760528270419
 10
907.32687680588231
 20
-1282.9917180860332
 42
-0.0069904648873142
 10
907.1677084118777
 20
-1283.2940538927028
 10
907.15991701226517
 20
-1283.3083644419335
 42
-0.008063702276836
 10
907.00776515192103
 20
-1283.5773997450833
 10
907.00017611929047
 20
-1283.5903276106831
 42
-0.0093006455665394
 10
906.85443544275824
 20
-1283.8283420091871
 10
906.84708477601271
 20
-1283.8398599783632
 42
-0.010706077805079
 10
906.7071362325762
 20
-1284.0491302957394
 10
906.7000744642969
 20
-1284.0592158383049
 42
-0.0122723111417298
 10
906.56528074609844
 20
-1284.2420091677941
 10
906.5649545225408
 20
-1284.2424295556084
 42
-0.0141836319623085
 10
906.42137291957033
 20
-1284.4169993134333
 10
906.41442516391794
 20
-1284.4249743136986
 42
-0.0175957477207174
 10
906.27451899588368
 20
-1284.574595202103
 42
-0.0080466359673644
 10
906.12705523085378
 20
-1284.7169177302537
 10
906.08102068633593
 20
-1284.7599381683453
 42
-0.0269600260399761
 10
905.82774044035671
 20
-1284.9722614268519
 10
905.76117330405248
 20
-1285.0222128414812
 42
-0.0178362839751624
 10
905.52122881440027
 20
-1285.1892307677308
 10
905.51398384340109
 20
-1285.1938992799348
 42
-0.0174650732652146
 10
905.2776476459585
 20
-1285.3347602448948
 42
-0.0169240130168463
 10
905.03218140010028
 20
-1285.4590525046724
 10
904.98619524454296
 20
-1285.4804144602394
 42
-0.031888303684225
 10
904.63584438892462
 20
-1285.6167527697492
 10
904.56747885375785
 20
-1285.6384533902251
 42
-0.0284435909903825
 10
904.19142872746727
 20
-1285.7346708256996
 10
904.15627056696667
 20
-1285.7415644215284
 42
-0.0243909341014052
 10
903.84282710604975
 20
-1285.7872854525583
 10
903.79254637928307
 20
-1285.7921309994597
 42
-0.0196639292931304
 10
903.57695080175131
 20
-1285.8043792849735
 10
903.52512673058641
 20
-1285.8052825457103
 42
-0.0100501510681853
 10
903.41270344892359
 20
-1285.8049821473571
 10
903.38104358754617
 20
-1285.804261075471
 42
-0.0019752031102469
 10
903.33195125089821
 20
-1285.8029489152623
 10
903.32919094768533
 20
-1285.8028642234362
 42
0.0065378751992508
 10
903.28561437292126
 20
-1285.8020973322209
 42
-0.0167974694688809
 10
903.24208354999359
 20
-1285.8004374336949
 10
903.23800421072735
 20
-1285.8001444227998
 42
-0.0081283276288259
 10
903.18644441299386
 20
-1285.7955974291626
 10
903.17470483911029
 20
-1285.7943695115837
 42
-0.0126703440173329
 10
903.0999865433165
 20
-1285.7846347205123
 10
903.07719867564003
 20
-1285.7810764645969
 42
-0.0117852088435398
 10
902.95765968980743
 20
-1285.7595134694398
 10
902.90227923804468
 20
-1285.7481699292052
 42
-0.025177459229294
 10
902.67543519903802
 20
-1285.6896719197728
 10
902.63071600918363
 20
-1285.6757051004363
 42
-0.014652519988295
 10
902.44432302164728
 20
-1285.611438573239
 42
-0.0166929435854701
 10
902.2623453655192
 20
-1285.5356314401836
 10
902.25768873424738
 20
-1285.5335065395702
 42
-0.019168435843974
 10
902.07250510299968
 20
-1285.440270455781
 10
902.06917251724121
 20
-1285.4384292082268
 42
-0.0221181781813434
 10
901.88586221333844
 20
-1285.3262957098557
 10
901.88351240933059
 20
-1285.3247114118651
 42
-0.0254984685387022
 10
901.70722225894519
 20
-1285.1923002618953
 10
901.6847401112434
 20
-1285.1735479529593
 42
-0.0292492648806343
 10
901.55997117240031
 20
-1285.0564551533162
 42
-0.0159048957495093
 10
901.44613117495066
 20
-1284.9284351617177
 10
901.44481238437083
 20
-1284.9268535486972
 42
-0.0343813379563006
 10
901.34217512274495
 20
-1284.7849822229284
 10
901.31068359138396
 20
-1284.734478830834
 42
-0.0369117275705285
 10
901.22479108948642
 20
-1284.5710015898851
 42
-0.0191751379901884
 10
901.15759770392981
 20
-1284.3985969838802
 10
901.15583438016995
 20
-1284.3935036392043
 42
-0.0378178042228275
 10
901.10603966138569
 20
-1284.2045628631224
 10
901.10004436565464
 20
-1284.172002244921
 42
-0.0184846046474123
 10
901.07932716636105
 20
-1284.0302494243811
 42
-0.0179866351323981
 10
901.06899416128738
 20
-1283.8873586112979
 10
901.06893771884165
 20
-1283.8858009246874
 42
-0.0085497186109164
 10
901.06750543773774
 20
-1283.8109277596775
 42
-0.0085497186109164
  0
ENDBLK
  5
57
100
AcDbEntity
  8
template
390
0
100
AcDbBlockEnd
  0
BLOCK
  5
58
100
AcDbEntity
  8
template
390
0
100
AcDbBlockBegin
  2
*D3
 70
               1
 10
0.0
 20
0.0
 30
0.0
  3
*D3
  1

  0
LINE
  5
59
100
AcDbEntity
  8
0
370
              -2
390
0
  6
Continuous
 62
               0
100
AcDbLine
 10
681.29556257700801
 20
-438.35685258879118
 30
0.0
 11
681.29556257700801
 21
-387.0
 31
0.0
  0
LINE
  5
5A
100
AcDbEntity
  8
0
370
              -2
390
0
  6
Continuous
 62
               0
100
AcDbLine
 10
756.29556257700801
 20
-434.67842629439559
 30
0.0
 11
756.29556257700801
 21
-387.0
 31
0.0
  0
LINE
  5
5B
100
AcDbEntity
  8
0
370
              -2
390
0
  6
Continuous
 62
               0
100
AcDbLine
 10
681.29556257700801
 20
-387.0
 30
0.0
 11
756.29556257700801
 21
-387.0
 31
0.0
  0
CIRCLE
  5
5C
102
{ACAD_REACTORS
330
5D
102
}
100
AcDbEntity
  8
0
370
              -2
390
0
  6
Continuous
 62
               0
100
AcDbCircle
 10
681.29556257700801
 20
-387.0
 30
0.0
 40
1.9998779296875
  0
HATCH
  5
5D
100
AcDbEntity
  8
0
370
              -2
390
0
  6
Continuous
 62
               0
100
AcDbHatch
 10
0.0
 20
0.0
 30
0.0
210
0.0
220
0.0
230
1.0
  2
SOLID
 70
               1
 71
               1
 91
        1
 92
        1
 93
        1
 72
               2
 10
681.29556257700801
 20
-387.0
 40
1.9998779296875
 50
0.0
 51
360.0
 73
               0
 97
        1
330
5C
 75
               0
 76
               1
 98
        1
 10
0.0
 20
0.0
  0
CIRCLE
  5
5E
102
{ACAD_REACTORS
330
5F
102
}
100
AcDbEntity
  8
0
370
              -2
390
0
  6
Continuous
 62
               0
100
AcDbCircle
 10
756.29556257700801
 20
-387.0
 30
0.0
 40
1.9998779296875
  0
HATCH
  5
5F
100
AcDbEntity
  8
0
370
              -2
390
0
  6
Continuous
 62
               0
100
AcDbHatch
 10
0.0
 20
0.0
 30
0.0
210
0.0
220
0.0
230
1.0
  2
SOLID
 70
               1
 71
               1
 91
        1
 92
        1
 93
        1
 72
               2
 10
756.29556257700801
 20
-387.0
 40
1.9998779296875
 50
0.0
 51
360.0
 73
               0
 97
        1
330
5E
 75
               0
 76
               1
 98
        1
 10
0.0
 20
0.0
  0
MTEXT
  5
60
100
AcDbEntity
  8
0
390
0
 62
               0
100
AcDbMText
 10
702.92056257700801
 20
-353.12238281250001
 30
0.0
 40
24.432617187500004
 41
0.0
 71
               1
 72
               1
  1
75
  7
ＭＳ ゴシック
 73
               1
 44
0.7828267384257843
  0
POINT
  5
61
100
AcDbEntity
  8
Defpoints
370
               0
390
0
 62
               0
100
AcDbPoint
 10
756.29556257700801
 20
-459.67842629439559
 30
0.0
  0
POINT
  5
62
100
AcDbEntity
  8
Defpoints
370
               0
390
0
 62
               0
100
AcDbPoint
 10
681.29556257700801
 20
-463.35685258879118
 30
0.0
  0
POINT
  5
63
100
AcDbEntity
  8
Defpoints
370
               0
390
0
 62
               0
100
AcDbPoint
 10
681.29556257700801
 20
-387.0
 30
0.0
  0
ENDBLK
  5
64
100
AcDbEntity
  8
template
390
0
100
AcDbBlockEnd
  0
BLOCK
  5
65
100
AcDbEntity
  8
notes
390
0
100
AcDbBlockBegin
  2
*D4
 70
               1
 10
0.0
 20
0.0
 30
0.0
  3
*D4
  1

  0
LINE
  5
66
100
AcDbEntity
  8
0
370
              -2
390
0
  6
Continuous
 62
               0
100
AcDbLine
 10
-689.65485899213581
 20
586.56534529476153
 30
0.0
 11
-689.65485899213581
 21
902.56534529476153
 31
0.0
  0
LINE
  5
67
100
AcDbEntity
  8
0
370
              -2
390
0
  6
Continuous
 62
               0
100
AcDbLine
 10
-259.65485899213542
 20
586.56534529476153
 30
0.0
 11
-259.65485899213542
 21
902.56534529476153
 31
0.0
  0
LINE
  5
68
100
AcDbEntity
  8
0
370
              -2
390
0
  6
Continuous
 62
               0
100
AcDbLine
 10
-689.65485899213581
 20
902.56534529476153
 30
0.0
 11
-259.65485899213542
 21
902.56534529476153
 31
0.0
  0
CIRCLE
  5
69
102
{ACAD_REACTORS
330
6A
102
}
100
AcDbEntity
  8
0
370
              -2
390
0
  6
Continuous
 62
               0
100
AcDbCircle
 10
-689.65485899213581
 20
902.56534529476153
 30
0.0
 40
1.9998779296875
  0
HATCH
  5
6A
100
AcDbEntity
  8
0
370
              -2
390
0
  6
Continuous
 62
               0
100
AcDbHatch
 10
0.0
 20
0.0
 30
0.0
210
0.0
220
0.0
230
1.0
  2
SOLID
 70
               1
 71
               1
 91
        1
 92
        1
 93
        1
 72
               2
 10
-689.65485899213581
 20
902.56534529476153
 40
1.9998779296875
 50
0.0
 51
360.0
 73
               0
 97
        1
330
69
 75
               0
 76
               1
 98
        1
 10
0.0
 20
0.0
  0
CIRCLE
  5
6B
102
{ACAD_REACTORS
330
6C
102
}
100
AcDbEntity
  8
0
370
              -2
390
0
  6
Continuous
 62
               0
100
AcDbCircle
 10
-259.65485899213542
 20
902.56534529476153
 30
0.0
 40
1.9998779296875
  0
HATCH
  5
6C
100
AcDbEntity
  8
0
370
              -2
390
0
  6
Continuous
 62
               0
100
AcDbHatch
 10
0.0
 20
0.0
 30
0.0
210
0.0
220
0.0
230
1.0
  2
SOLID
 70
               1
 71
               1
 91
        1
 92
        1
 93
        1
 72
               2
 10
-259.65485899213542
 20
902.56534529476153
 40
1.9998779296875
 50
0.0
 51
360.0
 73
               0
 97
        1
330
6B
 75
               0
 76
               1
 98
        1
 10
0.0
 20
0.0
  0
MTEXT
  5
6D
100
AcDbEntity
  8
0
390
0
 62
               0
100
AcDbMText
 10
-498.46736067431112
 20
936.44296248226146
 30
0.0
 40
24.432617187500004
 41
0.0
 71
               1
 72
               1
  1
430
  7
ＭＳ ゴシック
 73
               1
 44
0.7828267384257843
  0
POINT
  5
6E
100
AcDbEntity
  8
Defpoints
370
               0
390
0
 62
               0
100
AcDbPoint
 10
-259.65485899213542
 20
561.56534529476153
 30
0.0
  0
POINT
  5
6F
100
AcDbEntity
  8
Defpoints
370
               0
390
0
 62
               0
100
AcDbPoint
 10
-689.65485899213581
 20
561.56534529476153
 30
0.0
  0
POINT
  5
70
100
AcDbEntity
  8
Defpoints
370
               0
390
0
 62
               0
100
AcDbPoint
 10
-689.65485899213581
 20
902.56534529476153
 30
0.0
  0
ENDBLK
  5
71
100
AcDbEntity
  8
notes
390
0
100
AcDbBlockEnd
  0
BLOCK
  5
72
100
AcDbEntity
  8
notes
390
0
100
AcDbBlockBegin
  2
*D5
 70
               1
 10
0.0
 20
0.0
 30
0.0
  3
*D5
  1

  0
LINE
  5
73
100
AcDbEntity
  8
0
370
              -2
390
0
  6
Continuous
 62
               0
100
AcDbLine
 10
-554.60729166666692
 20
715.69410370404967
 30
0.0
 11
-554.60729166666692
 21
852.56534529476153
 31
0.0
  0
LINE
  5
74
100
AcDbEntity
  8
0
370
              -2
390
0
  6
Continuous
 62
               0
100
AcDbLine
 10
-394.60729166666647
 20
715.69410370404967
 30
0.0
 11
-394.60729166666647
 21
852.56534529476153
 31
0.0
  0
LINE
  5
75
100
AcDbEntity
  8
0
370
              -2
390
0
  6
Continuous
 62
               0
100
AcDbLine
 10
-554.60729166666692
 20
852.56534529476153
 30
0.0
 11
-394.60729166666647
 21
852.56534529476153
 31
0.0
  0
CIRCLE
  5
76
102
{ACAD_REACTORS
330
77
102
}
100
AcDbEntity
  8
0
370
              -2
390
0
  6
Continuous
 62
               0
100
AcDbCircle
 10
-554.60729166666692
 20
852.56534529476153
 30
0.0
 40
1.9998779296875
  0
HATCH
  5
77
100
AcDbEntity
  8
0
370
              -2
390
0
  6
Continuous
 62
               0
100
AcDbHatch
 10
0.0
 20
0.0
 30
0.0
210
0.0
220
0.0
230
1.0
  2
SOLID
 70
               1
 71
               1
 91
        1
 92
        1
 93
        1
 72
               2
 10
-554.60729166666692
 20
852.56534529476153
 40
1.9998779296875
 50
0.0
 51
360.0
 73
               0
 97
        1
330
76
 75
               0
 76
               1
 98
        1
 10
0.0
 20
0.0
  0
CIRCLE
  5
78
102
{ACAD_REACTORS
330
79
102
}
100
AcDbEntity
  8
0
370
              -2
390
0
  6
Continuous
 62
               0
100
AcDbCircle
 10
-394.60729166666647
 20
852.56534529476153
 30
0.0
 40
1.9998779296875
  0
HATCH
  5
79
100
AcDbEntity
  8
0
370
              -2
390
0
  6
Continuous
 62
               0
100
AcDbHatch
 10
0.0
 20
0.0
 30
0.0
210
0.0
220
0.0
230
1.0
  2
SOLID
 70
               1
 71
               1
 91
        1
 92
        1
 93
        1
 72
               2
 10
-394.60729166666647
 20
852.56534529476153
 40
1.9998779296875
 50
0.0
 51
360.0
 73
               0
 97
        1
330
78
 75
               0
 76
               1
 98
        1
 10
0.0
 20
0.0
  0
MTEXT
  5
7A
100
AcDbEntity
  8
0
390
0
 62
               0
100
AcDbMText
 10
-498.41979334884229
 20
886.44296248226146
 30
0.0
 40
24.432617187500004
 41
0.0
 71
               1
 72
               1
  1
160
  7
ＭＳ ゴシック
 73
               1
 44
0.7828267384257843
  0
POINT
  5
7B
100
AcDbEntity
  8
Defpoints
370
               0
390
0
 62
               0
100
AcDbPoint
 10
-394.60729166666647
 20
690.69410370404967
 30
0.0
  0
POINT
  5
7C
100
AcDbEntity
  8
Defpoints
370
               0
390
0
 62
               0
100
AcDbPoint
 10
-554.60729166666692
 20
690.69410370404967
 30
0.0
  0
POINT
  5
7D
100
AcDbEntity
  8
Defpoints
370
               0
390
0
 62
               0
100
AcDbPoint
 10
-554.60729166666692
 20
852.56534529476153
 30
0.0
  0
ENDBLK
  5
7E
100
AcDbEntity
  8
notes
390
0
100
AcDbBlockEnd
  0
BLOCK
  5
7F
100
AcDbEntity
  8
notes
390
0
100
AcDbBlockBegin
  2
*D6
 70
               1
 10
0.0
 20
0.0
 30
0.0
  3
*D6
  1

  0
LINE
  5
80
100
AcDbEntity
  8
0
370
              -2
390
0
  6
Continuous
 62
               0
100
AcDbLine
 10
-246.76062342355897
 20
-463.35685258879118
 30
0.0
 11
-159.76062342355897
 21
-463.35685258879118
 31
0.0
  0
LINE
  5
81
100
AcDbEntity
  8
0
370
              -2
390
0
  6
Continuous
 62
               0
100
AcDbLine
 10
-421.26964441965248
 20
-613.35685258879039
 30
0.0
 11
-159.76062342355897
 21
-613.35685258879039
 31
0.0
  0
LINE
  5
82
100
AcDbEntity
  8
0
370
              -2
390
0
  6
Continuous
 62
               0
100
AcDbLine
 10
-159.76062342355897
 20
-463.35685258879118
 30
0.0
 11
-159.76062342355897
 21
-613.35685258879039
 31
0.0
  0
CIRCLE
  5
83
102
{ACAD_REACTORS
330
84
102
}
100
AcDbEntity
  8
0
370
              -2
390
0
  6
Continuous
 62
               0
100
AcDbCircle
 10
-159.76062342355897
 20
-463.35685258879118
 30
0.0
 40
1.9998779296875
  0
HATCH
  5
84
100
AcDbEntity
  8
0
370
              -2
390
0
  6
Continuous
 62
               0
100
AcDbHatch
 10
0.0
 20
0.0
 30
0.0
210
0.0
220
0.0
230
1.0
  2
SOLID
 70
               1
 71
               1
 91
        1
 92
        1
 93
        1
 72
               2
 10
-159.76062342355897
 20
-463.35685258879118
 40
1.9998779296875
 50
0.0
 51
360.0
 73
               0
 97
        1
330
83
 75
               0
 76
               1
 98
        1
 10
0.0
 20
0.0
  0
CIRCLE
  5
85
102
{ACAD_REACTORS
330
86
102
}
100
AcDbEntity
  8
0
370
              -2
390
0
  6
Continuous
 62
               0
100
AcDbCircle
 10
-159.76062342355897
 20
-613.35685258879039
 30
0.0
 40
1.9998779296875
  0
HATCH
  5
86
100
AcDbEntity
  8
0
370
              -2
390
0
  6
Continuous
 62
               0
100
AcDbHatch
 10
0.0
 20
0.0
 30
0.0
210
0.0
220
0.0
230
1.0
  2
SOLID
 70
               1
 71
               1
 91
        1
 92
        1
 93
        1
 72
               2
 10
-159.76062342355897
 20
-613.35685258879039
 40
1.9998779296875
 50
0.0
 51
360.0
 73
               0
 97
        1
330
85
 75
               0
 76
               1
 98
        1
 10
0.0
 20
0.0
  0
MTEXT
  5
87
100
AcDbEntity
  8
0
390
0
 62
               0
100
AcDbMText
 10
-193.63824061105896
 20
-562.16935427096632
 30
0.0
 40
24.432617187500004
 41
0.0
 71
               1
 72
               1
  1
150
  7
ＭＳ ゴシック
 11
0.0
 21
1.0
 31
0.0
 73
               1
 44
0.7828267384257843
  0
POINT
  5
88
100
AcDbEntity
  8
Defpoints
370
               0
390
0
 62
               0
100
AcDbPoint
 10
-446.26964441965248
 20
-613.35685258879039
 30
0.0
  0
POINT
  5
89
100
AcDbEntity
  8
Defpoints
370
               0
390
0
 62
               0
100
AcDbPoint
 10
-271.76062342355897
 20
-463.35685258879118
 30
0.0
  0
POINT
  5
8A
100
AcDbEntity
  8
Defpoints
370
               0
390
0
 62
               0
100
AcDbPoint
 10
-159.76062342355897
 20
-463.35685258879118
 30
0.0
  0
ENDBLK
  5
8B
100
AcDbEntity
  8
notes
390
0
100
AcDbBlockEnd
  0
BLOCK
  5
8C
100
AcDbEntity
  8
notes
390
0
100
AcDbBlockBegin
  2
*D7
 70
               1
 10
0.0
 20
0.0
 30
0.0
  3
*D7
  1

  0
LINE
  5
8D
100
AcDbEntity
  8
0
370
              -2
390
0
  6
Continuous
 62
               0
100
AcDbLine
 10
301.29556257700875
 20
-463.35685258879118
 30
0.0
 11
225.29556257700875
 21
-463.35685258879118
 31
0.0
  0
LINE
  5
8E
100
AcDbEntity
  8
0
370
              -2
390
0
  6
Continuous
 62
               0
100
AcDbLine
 10
306.29556257700875
 20
-493.35685258879118
 30
0.0
 11
225.29556257700875
 21
-493.35685258879118
 31
0.0
  0
LINE
  5
8F
100
AcDbEntity
  8
0
370
              -2
390
0
  6
Continuous
 62
               0
100
AcDbLine
 10
225.29556257700875
 20
-463.35685258879118
 30
0.0
 11
225.29556257700875
 21
-425.44018592212456
 31
0.0
  0
LINE
  5
90
100
AcDbEntity
  8
0
370
              -2
390
0
  6
Continuous
 62
               0
100
AcDbLine
 10
225.29556257700875
 20
-463.35685258879118
 30
0.0
 11
225.29556257700875
 21
-493.35685258879118
 31
0.0
  0
CIRCLE
  5
91
102
{ACAD_REACTORS
330
92
102
}
100
AcDbEntity
  8
0
370
              -2
390
0
  6
Continuous
 62
               0
100
AcDbCircle
 10
225.29556257700875
 20
-463.35685258879118
 30
0.0
 40
1.9998779296875
  0
HATCH
  5
92
100
AcDbEntity
  8
0
370
              -2
390
0
  6
Continuous
 62
               0
100
AcDbHatch
 10
0.0
 20
0.0
 30
0.0
210
0.0
220
0.0
230
1.0
  2
SOLID
 70
               1
 71
               1
 91
        1
 92
        1
 93
        1
 72
               2
 10
225.29556257700875
 20
-463.35685258879118
 40
1.9998779296875
 50
0.0
 51
360.0
 73
               0
 97
        1
330
91
 75
               0
 76
               1
 98
        1
 10
0.0
 20
0.0
  0
CIRCLE
  5
93
102
{ACAD_REACTORS
330
94
102
}
100
AcDbEntity
  8
0
370
              -2
390
0
  6
Continuous
 62
               0
100
AcDbCircle
 10
225.29556257700875
 20
-493.35685258879118
 30
0.0
 40
1.9998779296875
  0
HATCH
  5
94
100
AcDbEntity
  8
0
370
              -2
390
0
  6
Continuous
 62
               0
100
AcDbHatch
 10
0.0
 20
0.0
 30
0.0
210
0.0
220
0.0
230
1.0
  2
SOLID
 70
               1
 71
               1
 91
        1
 92
        1
 93
        1
 72
               2
 10
225.29556257700875
 20
-493.35685258879118
 40
1.9998779296875
 50
0.0
 51
360.0
 73
               0
 97
        1
330
93
 75
               0
 76
               1
 98
        1
 10
0.0
 20
0.0
  0
MTEXT
  5
95
100
AcDbEntity
  8
0
390
0
 62
               0
100
AcDbMText
 10
191.41794538950876
 20
-457.19018592212456
 30
0.0
 40
24.432617187500004
 41
0.0
 71
               1
 72
               1
  1
30
  7
ＭＳ ゴシック
 11
0.0
 21
1.0
 31
0.0
 73
               1
 44
0.7828267384257843
  0
POINT
  5
96
100
AcDbEntity
  8
Defpoints
370
               0
390
0
 62
               0
100
AcDbPoint
 10
331.29556257700875
 20
-493.35685258879118
 30
0.0
  0
POINT
  5
97
100
AcDbEntity
  8
Defpoints
370
               0
390
0
 62
               0
100
AcDbPoint
 10
326.29556257700875
 20
-463.35685258879118
 30
0.0
  0
POINT
  5
98
100
AcDbEntity
  8
Defpoints
370
               0
390
0
 62
               0
100
AcDbPoint
 10
225.29556257700875
 20
-463.35685258879118
 30
0.0
  0
ENDBLK
  5
99
100
AcDbEntity
  8
notes
390
0
100
AcDbBlockEnd
  0
BLOCK
  5
9A
100
AcDbEntity
  8
notes
390
0
100
AcDbBlockBegin
  2
*D8
 70
               1
 10
0.0
 20
0.0
 30
0.0
  3
*D8
  1

  0
LINE
  5
9B
100
AcDbEntity
  8
0
370
              -2
390
0
  6
Continuous
 62
               0
100
AcDbLine
 10
306.29556257700875
 20
-493.35685258879118
 30
0.0
 11
225.29556257700875
 21
-493.35685258879118
 31
0.0
  0
LINE
  5
9C
100
AcDbEntity
  8
0
370
              -2
390
0
  6
Continuous
 62
               0
100
AcDbLine
 10
478.79556257700818
 20
-613.35685258879039
 30
0.0
 11
225.29556257700875
 21
-613.35685258879039
 31
0.0
  0
LINE
  5
9D
100
AcDbEntity
  8
0
370
              -2
390
0
  6
Continuous
 62
               0
100
AcDbLine
 10
225.29556257700875
 20
-493.35685258879118
 30
0.0
 11
225.29556257700875
 21
-613.35685258879039
 31
0.0
  0
CIRCLE
  5
9E
102
{ACAD_REACTORS
330
9F
102
}
100
AcDbEntity
  8
0
370
              -2
390
0
  6
Continuous
 62
               0
100
AcDbCircle
 10
225.29556257700875
 20
-493.35685258879118
 30
0.0
 40
1.9998779296875
  0
HATCH
  5
9F
100
AcDbEntity
  8
0
370
              -2
390
0
  6
Continuous
 62
               0
100
AcDbHatch
 10
0.0
 20
0.0
 30
0.0
210
0.0
220
0.0
230
1.0
  2
SOLID
 70
               1
 71
               1
 91
        1
 92
        1
 93
        1
 72
               2
 10
225.29556257700875
 20
-493.35685258879118
 40
1.9998779296875
 50
0.0
 51
360.0
 73
               0
 97
        1
330
9E
 75
               0
 76
               1
 98
        1
 10
0.0
 20
0.0
  0
CIRCLE
  5
A0
102
{ACAD_REACTORS
330
A1
102
}
100
AcDbEntity
  8
0
370
              -2
390
0
  6
Continuous
 62
               0
100
AcDbCircle
 10
225.29556257700875
 20
-613.35685258879039
 30
0.0
 40
1.9998779296875
  0
HATCH
  5
A1
100
AcDbEntity
  8
0
370
              -2
390
0
  6
Continuous
 62
               0
100
AcDbHatch
 10
0.0
 20
0.0
 30
0.0
210
0.0
220
0.0
230
1.0
  2
SOLID
 70
               1
 71
               1
 91
        1
 92
        1
 93
        1
 72
               2
 10
225.29556257700875
 20
-613.35685258879039
 40
1.9998779296875
 50
0.0
 51
360.0
 73
               0
 97
        1
330
A0
 75
               0
 76
               1
 98
        1
 10
0.0
 20
0.0
  0
MTEXT
  5
A2
100
AcDbEntity
  8
0
390
0
 62
               0
100
AcDbMText
 10
191.41794538950876
 20
-577.16935427096632
 30
0.0
 40
24.432617187500004
 41
0.0
 71
               1
 72
               1
  1
120
  7
ＭＳ ゴシック
 11
0.0
 21
1.0
 31
0.0
 73
               1
 44
0.7828267384257843
  0
POINT
  5
A3
100
AcDbEntity
  8
Defpoints
370
               0
390
0
 62
               0
100
AcDbPoint
 10
503.79556257700818
 20
-613.35685258879039
 30
0.0
  0
POINT
  5
A4
100
AcDbEntity
  8
Defpoints
370
               0
390
0
 62
               0
100
AcDbPoint
 10
331.29556257700875
 20
-493.35685258879118
 30
0.0
  0
POINT
  5
A5
100
AcDbEntity
  8
Defpoints
370
               0
390
0
 62
               0
100
AcDbPoint
 10
225.29556257700875
 20
-493.35685258879118
 30
0.0
  0
ENDBLK
  5
A6
100
AcDbEntity
  8
notes
390
0
100
AcDbBlockEnd
  0
BLOCK
  5
A7
100
AcDbEntity
  8
notes
390
0
100
AcDbBlockBegin
  2
*D9
 70
               1
 10
0.0
 20
0.0
 30
0.0
  3
*D9
  1

  0
LINE
  5
A8
100
AcDbEntity
  8
0
370
              -2
390
0
  6
Continuous
 62
               0
100
AcDbLine
 10
756.29556257700801
 20
-513.35685258879118
 30
0.0
 11
756.29556257700801
 21
-713.35685258879107
 31
0.0
  0
LINE
  5
A9
100
AcDbEntity
  8
0
370
              -2
390
0
  6
Continuous
 62
               0
100
AcDbLine
 10
541.29556257700801
 20
-638.35685258879039
 30
0.0
 11
541.29556257700801
 21
-713.35685258879107
 31
0.0
  0
LINE
  5
AA
100
AcDbEntity
  8
0
370
              -2
390
0
  6
Continuous
 62
               0
100
AcDbLine
 10
756.29556257700801
 20
-713.35685258879107
 30
0.0
 11
541.29556257700801
 21
-713.35685258879107
 31
0.0
  0
CIRCLE
  5
AB
102
{ACAD_REACTORS
330
AC
102
}
100
AcDbEntity
  8
0
370
              -2
390
0
  6
Continuous
 62
               0
100
AcDbCircle
 10
756.29556257700801
 20
-713.35685258879107
 30
0.0
 40
1.9998779296875
  0
HATCH
  5
AC
100
AcDbEntity
  8
0
370
              -2
390
0
  6
Continuous
 62
               0
100
AcDbHatch
 10
0.0
 20
0.0
 30
0.0
210
0.0
220
0.0
230
1.0
  2
SOLID
 70
               1
 71
               1
 91
        1
 92
        1
 93
        1
 72
               2
 10
756.29556257700801
 20
-713.35685258879107
 40
1.9998779296875
 50
0.0
 51
360.0
 73
               0
 97
        1
330
AB
 75
               0
 76
               1
 98
        1
 10
0.0
 20
0.0
  0
CIRCLE
  5
AD
102
{ACAD_REACTORS
330
AE
102
}
100
AcDbEntity
  8
0
370
              -2
390
0
  6
Continuous
 62
               0
100
AcDbCircle
 10
541.29556257700801
 20
-713.35685258879107
 30
0.0
 40
1.9998779296875
  0
HATCH
  5
AE
100
AcDbEntity
  8
0
370
              -2
390
0
  6
Continuous
 62
               0
100
AcDbHatch
 10
0.0
 20
0.0
 30
0.0
210
0.0
220
0.0
230
1.0
  2
SOLID
 70
               1
 71
               1
 91
        1
 92
        1
 93
        1
 72
               2
 10
541.29556257700801
 20
-713.35685258879107
 40
1.9998779296875
 50
0.0
 51
360.0
 73
               0
 97
        1
330
AD
 75
               0
 76
               1
 98
        1
 10
0.0
 20
0.0
  0
MTEXT
  5
AF
100
AcDbEntity
  8
0
390
0
 62
               0
100
AcDbMText
 10
624.98306089483253
 20
-679.47923540129091
 30
0.0
 40
24.432617187500004
 41
0.0
 71
               1
 72
               1
  1
215
  7
ＭＳ ゴシック
 73
               1
 44
0.7828267384257843
  0
POINT
  5
B0
100
AcDbEntity
  8
Defpoints
370
               0
390
0
 62
               0
100
AcDbPoint
 10
541.29556257700801
 20
-613.35685258879039
 30
0.0
  0
POINT
  5
B1
100
AcDbEntity
  8
Defpoints
370
               0
390
0
 62
               0
100
AcDbPoint
 10
756.29556257700801
 20
-488.35685258879118
 30
0.0
  0
POINT
  5
B2
100
AcDbEntity
  8
Defpoints
370
               0
390
0
 62
               0
100
AcDbPoint
 10
756.29556257700801
 20
-713.35685258879107
 30
0.0
  0
ENDBLK
  5
B3
100
AcDbEntity
  8
notes
390
0
100
AcDbBlockEnd
  0
BLOCK
  5
B4
100
AcDbEntity
  8
notes
390
0
100
AcDbBlockBegin
  2
*D10
 70
               1
 10
0.0
 20
0.0
 30
0.0
  3
*D10
  1

  0
LINE
  5
B5
100
AcDbEntity
  8
0
370
              -2
390
0
  6
Continuous
 62
               0
100
AcDbLine
 10
-570.28571914395479
 20
680.9682217787531
 30
0.0
 11
-712.4390388485765
 21
751.45467162812224
 31
0.0
  0
CIRCLE
  5
B6
102
{ACAD_REACTORS
330
B7
102
}
100
AcDbEntity
  8
0
370
              -2
390
0
  6
Continuous
 62
               0
100
AcDbCircle
 10
-570.28571914395479
 20
680.9682217787531
 30
0.0
 40
1.9998779296875
  0
HATCH
  5
B7
100
AcDbEntity
  8
0
370
              -2
390
0
  6
Continuous
 62
               0
100
AcDbHatch
 10
0.0
 20
0.0
 30
0.0
210
0.0
220
0.0
230
1.0
  2
SOLID
 70
               1
 71
               1
 91
        1
 92
        1
 93
        1
 72
               2
 10
-570.28571914395479
 20
680.9682217787531
 40
1.9998779296875
 50
0.0
 51
360.0
 73
               0
 97
        1
330
B6
 75
               0
 76
               1
 98
        1
 10
0.0
 20
0.0
  0
LINE
  5
B8
100
AcDbEntity
  8
0
370
              -2
390
0
  6
Continuous
 62
               0
100
AcDbLine
 10
-712.4390388485765
 20
751.45467162812224
 30
0.0
 11
-835.9390388485765
 21
751.45467162812224
 31
0.0
  0
MTEXT
  5
B9
100
AcDbEntity
  8
0
390
0
 62
               0
100
AcDbMText
 10
-835.9390388485765
 20
785.33228881562218
 30
0.0
 40
24.432617187500004
 41
0.0
 71
               1
 72
               1
  1
φ35
  7
ＭＳ ゴシック
 73
               1
 44
0.7828267384257843
  0
POINT
  5
BA
100
AcDbEntity
  8
Defpoints
370
               0
390
0
 62
               0
100
AcDbPoint
 10
-538.92886418937906
 20
665.41998562934623
 30
0.0
  0
POINT
  5
BB
100
AcDbEntity
  8
Defpoints
370
               0
390
0
 62
               0
100
AcDbPoint
 10
-570.28571914395479
 20
680.9682217787531
 30
0.0
  0
ENDBLK
  5
BC
100
AcDbEntity
  8
notes
390
0
100
AcDbBlockEnd
  0
BLOCK
  5
BD
100
AcDbEntity
  8
notes
390
0
100
AcDbBlockBegin
  2
*D11
 70
               1
 10
0.0
 20
0.0
 30
0.0
  3
*D11
  1

  0
LINE
  5
BE
100
AcDbEntity
  8
0
370
              -2
390
0
  6
Continuous
 62
               0
100
AcDbLine
 10
516.29556257700801
 20
-463.35685258879118
 30
0.0
 11
531.72604166666633
 21
-463.35685258879118
 31
0.0
  0
LINE
  5
BF
100
AcDbEntity
  8
0
370
              -2
390
0
  6
Continuous
 62
               0
100
AcDbLine
 10
516.29556257700801
 20
-588.3568525887905
 30
0.0
 11
531.72604166666633
 21
-588.3568525887905
 31
0.0
  0
LINE
  5
C0
100
AcDbEntity
  8
0
370
              -2
390
0
  6
Continuous
 62
               0
100
AcDbLine
 10
531.72604166666633
 20
-463.35685258879118
 30
0.0
 11
531.72604166666633
 21
-313.01770833333353
 31
0.0
  0
LINE
  5
C1
100
AcDbEntity
  8
0
370
              -2
390
0
  6
Continuous
 62
               0
100
AcDbLine
 10
531.72604166666633
 20
-463.35685258879118
 30
0.0
 11
531.72604166666633
 21
-588.3568525887905
 31
0.0
  0
CIRCLE
  5
C2
102
{ACAD_REACTORS
330
C3
102
}
100
AcDbEntity
  8
0
370
              -2
390
0
  6
Continuous
 62
               0
100
AcDbCircle
 10
531.72604166666633
 20
-463.35685258879118
 30
0.0
 40
1.9998779296875
  0
HATCH
  5
C3
100
AcDbEntity
  8
0
370
              -2
390
0
  6
Continuous
 62
               0
100
AcDbHatch
 10
0.0
 20
0.0
 30
0.0
210
0.0
220
0.0
230
1.0
  2
SOLID
 70
               1
 71
               1
 91
        1
 92
        1
 93
        1
 72
               2
 10
531.72604166666633
 20
-463.35685258879118
 40
1.9998779296875
 50
0.0
 51
360.0
 73
               0
 97
        1
330
C2
 75
               0
 76
               1
 98
        1
 10
0.0
 20
0.0
  0
CIRCLE
  5
C4
102
{ACAD_REACTORS
330
C5
102
}
100
AcDbEntity
  8
0
370
              -2
390
0
  6
Continuous
 62
               0
100
AcDbCircle
 10
531.72604166666633
 20
-588.3568525887905
 30
0.0
 40
1.9998779296875
  0
HATCH
  5
C5
100
AcDbEntity
  8
0
370
              -2
390
0
  6
Continuous
 62
               0
100
AcDbHatch
 10
0.0
 20
0.0
 30
0.0
210
0.0
220
0.0
230
1.0
  2
SOLID
 70
               1
 71
               1
 91
        1
 92
        1
 93
        1
 72
               2
 10
531.72604166666633
 20
-588.3568525887905
 40
1.9998779296875
 50
0.0
 51
360.0
 73
               0
 97
        1
330
C4
 75
               0
 76
               1
 98
        1
 10
0.0
 20
0.0
  0
MTEXT
  5
C6
100
AcDbEntity
  8
0
390
0
 62
               0
100
AcDbMText
 10
497.8484244791664
 20
-455.89270833333353
 30
0.0
 40
24.432617187500004
 41
0.0
 71
               1
 72
               1
  1
125(深さ)
  7
ＭＳ ゴシック
 11
0.0
 21
1.0
 31
0.0
 73
               1
 44
0.7828267384257843
  0
POINT
  5
C7
100
AcDbEntity
  8
Defpoints
370
               0
390
0
 62
               0
100
AcDbPoint
 10
541.29556257700801
 20
-588.3568525887905
 30
0.0
  0
POINT
  5
C8
100
AcDbEntity
  8
Defpoints
370
               0
390
0
 62
               0
100
AcDbPoint
 10
541.29556257700801
 20
-463.35685258879118
 30
0.0
  0
POINT
  5
C9
100
AcDbEntity
  8
Defpoints
370
               0
390
0
 62
               0
100
AcDbPoint
 10
531.72604166666633
 20
-463.35685258879118
 30
0.0
  0
ENDBLK
  5
CA
100
AcDbEntity
  8
notes
390
0
100
AcDbBlockEnd
  0
BLOCK
  5
CB
100
AcDbEntity
  8
FAA70-0107
390
0
100
AcDbBlockBegin
  2
*D12
 70
               1
 10
0.0
 20
0.0
 30
0.0
  3
*D12
  1

  0
LINE
  5
CC
100
AcDbEntity
  8
0
370
              -2
390
0
  6
Continuous
 62
               0
100
AcDbLine
 10
-674.65485899213513
 20
442.73704500506307
 30
0.0
 11
-674.65485899213513
 21
242.0
 31
0.0
  0
LINE
  5
CD
100
AcDbEntity
  8
0
370
              -2
390
0
  6
Continuous
 62
               0
100
AcDbLine
 10
-274.65485899213508
 20
442.73704500506307
 30
0.0
 11
-274.65485899213508
 21
242.0
 31
0.0
  0
LINE
  5
CE
100
AcDbEntity
  8
0
370
              -2
390
0
  6
Continuous
 62
               0
100
AcDbLine
 10
-674.65485899213513
 20
242.0
 30
0.0
 11
-274.65485899213508
 21
242.0
 31
0.0
  0
CIRCLE
  5
CF
102
{ACAD_REACTORS
330
D0
102
}
100
AcDbEntity
  8
0
370
              -2
390
0
  6
Continuous
 62
               0
100
AcDbCircle
 10
-674.65485899213513
 20
242.0
 30
0.0
 40
1.9998779296875
  0
HATCH
  5
D0
100
AcDbEntity
  8
0
370
              -2
390
0
  6
Continuous
 62
               0
100
AcDbHatch
 10
0.0
 20
0.0
 30
0.0
210
0.0
220
0.0
230
1.0
  2
SOLID
 70
               1
 71
               1
 91
        1
 92
        1
 93
        1
 72
               2
 10
-674.65485899213513
 20
242.0
 40
1.9998779296875
 50
0.0
 51
360.0
 73
               0
 97
        1
330
CF
 75
               0
 76
               1
 98
        1
 10
0.0
 20
0.0
  0
CIRCLE
  5
D1
102
{ACAD_REACTORS
330
D2
102
}
100
AcDbEntity
  8
0
370
              -2
390
0
  6
Continuous
 62
               0
100
AcDbCircle
 10
-274.65485899213508
 20
242.0
 30
0.0
 40
1.9998779296875
  0
HATCH
  5
D2
100
AcDbEntity
  8
0
370
              -2
390
0
  6
Continuous
 62
               0
100
AcDbHatch
 10
0.0
 20
0.0
 30
0.0
210
0.0
220
0.0
230
1.0
  2
SOLID
 70
               1
 71
               1
 91
        1
 92
        1
 93
        1
 72
               2
 10
-274.65485899213508
 20
242.0
 40
1.9998779296875
 50
0.0
 51
360.0
 73
               0
 97
        1
330
D1
 75
               0
 76
               1
 98
        1
 10
0.0
 20
0.0
  0
MTEXT
  5
D3
100
AcDbEntity
  8
0
390
0
 62
               0
100
AcDbMText
 10
-498.46736067431061
 20
275.87761718749999
 30
0.0
 40
24.432617187500004
 41
0.0
 71
               1
 72
               1
  1
400
  7
ＭＳ ゴシック
 73
               1
 44
0.7828267384257843
  0
POINT
  5
D4
100
AcDbEntity
  8
Defpoints
370
               0
390
0
 62
               0
100
AcDbPoint
 10
-274.65485899213508
 20
467.73704500506307
 30
0.0
  0
POINT
  5
D5
100
AcDbEntity
  8
Defpoints
370
               0
390
0
 62
               0
100
AcDbPoint
 10
-674.65485899213513
 20
467.73704500506307
 30
0.0
  0
POINT
  5
D6
100
AcDbEntity
  8
Defpoints
370
               0
390
0
 62
               0
100
AcDbPoint
 10
-674.65485899213513
 20
242.0
 30
0.0
  0
ENDBLK
  5
D7
100
AcDbEntity
  8
FAA70-0107
390
0
100
AcDbBlockEnd
  0
BLOCK
  5
D8
100
AcDbEntity
  8
FAA70-0107
390
0
100
AcDbBlockBegin
  2
*D13
 70
               1
 10
0.0
 20
0.0
 30
0.0
  3
*D13
  1

  0
LINE
  5
D9
100
AcDbEntity
  8
0
370
              -2
390
0
  6
Continuous
 62
               0
100
AcDbLine
 10
558.02373035636469
 20
381.72292515527369
 30
0.0
 11
636.00000000000023
 21
278.00000000000006
 31
0.0
  0
CIRCLE
  5
DA
102
{ACAD_REACTORS
330
DB
102
}
100
AcDbEntity
  8
0
370
              -2
390
0
  6
Continuous
 62
               0
100
AcDbCircle
 10
558.02373035636469
 20
381.72292515527369
 30
0.0
 40
1.9998779296875
  0
HATCH
  5
DB
100
AcDbEntity
  8
0
370
              -2
390
0
  6
Continuous
 62
               0
100
AcDbHatch
 10
0.0
 20
0.0
 30
0.0
210
0.0
220
0.0
230
1.0
  2
SOLID
 70
               1
 71
               1
 91
        1
 92
        1
 93
        1
 72
               2
 10
558.02373035636469
 20
381.72292515527369
 40
1.9998779296875
 50
0.0
 51
360.0
 73
               0
 97
        1
330
DA
 75
               0
 76
               1
 98
        1
 10
0.0
 20
0.0
  0
LINE
  5
DC
100
AcDbEntity
  8
0
370
              -2
390
0
  6
Continuous
 62
               0
100
AcDbLine
 10
636.00000000000023
 20
278.00000000000006
 30
0.0
 11
775.37500000000023
 21
278.00000000000006
 31
0.0
  0
MTEXT
  5
DD
100
AcDbEntity
  8
0
390
0
 62
               0
100
AcDbMText
 10
696.00000000000023
 20
311.87761718750005
 30
0.0
 40
24.432617187500004
 41
0.0
 71
               1
 72
               1
  1
φ390
  7
ＭＳ ゴシック
 73
               1
 44
0.7828267384257843
  0
POINT
  5
DE
100
AcDbEntity
  8
Defpoints
370
               0
390
0
 62
               0
100
AcDbPoint
 10
323.66981327806752
 20
693.45717343424985
 30
0.0
  0
POINT
  5
DF
100
AcDbEntity
  8
Defpoints
370
               0
390
0
 62
               0
100
AcDbPoint
 10
558.02373035636469
 20
381.72292515527369
 30
0.0
  0
ENDBLK
  5
E0
100
AcDbEntity
  8
FAA70-0107
390
0
100
AcDbBlockEnd
  0
ENDSEC
  0
SECTION
  2
ENTITIES
  0
MTEXT
  5
E1
100
AcDbEntity
  8
template
390
0
 62
               7
100
AcDbMText
 10
-967.99999999975921
 20
-1147.4176292337004
 30
0.0
 40
16.288411458333332
 41
0.0
 71
               1
 72
               1
  1
品名
  7
ＭＳ ゴシック
 73
               1
 44
0.7828267384257843
  0
MTEXT
  5
E2
100
AcDbEntity
  8
template
390
0
 62
               7
100
AcDbMText
 10
-967.99999999975921
 20
-1232.4176292337004
 30
0.0
 40
16.288411458333332
 41
0.0
 71
               1
 72
               1
  1
仕様
  7
ＭＳ ゴシック
 73
               1
 44
0.7828267384257843
  0
LINE
  5
E3
100
AcDbEntity
  8
template
370
               5
390
0
  6
Continuous
 62
               7
100
AcDbLine
 10
974.99999999975876
 20
-1224.0027073587005
 30
0.0
 11
-975.00000000024124
 21
-1224.0027073587005
 31
0.0
  0
LWPOLYLINE
  5
E4
100
AcDbEntity
  8
template
370
               5
390
0
  6
Continuous
 62
               7
100
AcDbPolyline
 90
        5
 70
             128
 10
975.00000000024124
 20
1405.9972926412995
 10
-974.99999999975921
 20
1405.9972926412995
 10
-974.99999999975921
 20
-1394.0027073587005
 10
975.00000000024124
 20
-1394.0027073587005
 10
975.00000000024124
 20
1405.9972926412995
  0
LINE
  5
E5
100
AcDbEntity
  8
template
370
               5
390
0
  6
Continuous
 62
               7
100
AcDbLine
 10
974.99999999975876
 20
-1139.0027073587005
 30
0.0
 11
-975.00000000024124
 21
-1139.0027073587005
 31
0.0
  0
LINE
  5
E6
100
AcDbEntity
  8
template
370
               5
390
0
  6
Continuous
 62
               7
100
AcDbLine
 10
975.00000000024124
 20
-1309.0027073587005
 30
0.0
 11
222.00000000024124
 21
-1309.0027073587005
 31
0.0
  0
MTEXT
  5
E7
100
AcDbEntity
  8
template
390
0
 62
               7
100
AcDbMText
 10
-914.99999999975921
 20
-1261.0000901712006
 30
0.0
 40
24.432617187500004
 41
0.0
 71
               1
 72
               1
  1
アンダーカウンター/オーバーフローなし/カウンター固定金具,型 紙付属/\P陶器/ホワイト
  7
ＭＳ ゴシック
 73
               1
 44
1.1307497332816883
  0
MTEXT
  5
E8
100
AcDbEntity
  8
template
390
0
 62
               7
100
AcDbMText
 10
-974.99999999955594
 20
-1405.8565294155574
 30
0.0
 40
21.717881944444446
 41
0.0
 71
               1
 72
               1
  1
100707SH
  7
ＭＳ ゴシック
 73
               1
 44
0.7828267384257843
  0
MTEXT
  5
E9
100
AcDbEntity
  8
template
390
0
 62
               7
100
AcDbMText
 10
251.87140625250089
 20
-1338.9131018320081
 30
0.0
 40
24.432617187500004
 41
0.0
 71
               1
 72
               1
  1
大洋金物株式会社 ティーフォルム事業部
  7
ＭＳ ゴシック
 73
               1
 44
0.7828267384257843
  0
INSERT
  5
EA
100
AcDbEntity
  8
template
390
0
 62
               7
100
AcDbBlockReference
  2
グループ
 10
0.0000000000000568
 20
-77.278432269168945
 30
0.0
  0
MTEXT
  5
EB
100
AcDbEntity
  8
template
390
0
 62
               7
100
AcDbMText
 10
784.00000000049999
 20
-1261.0000901712006
 30
0.0
 40
24.432617187500004
 41
0.0
 71
               1
 72
               1
  1
1:10
  7
ＭＳ ゴシック
 73
               1
 44
0.7828267384257843
  0
MTEXT
  5
EC
100
AcDbEntity
  8
template
390
0
 62
               7
100
AcDbMText
 10
731.00000000049999
 20
-1232.4176292337004
 30
0.0
 40
16.288411458333332
 41
0.0
 71
               1
 72
               1
  1
縮尺
  7
ＭＳ ゴシック
 73
               1
 44
0.7828267384257843
  0
LINE
  5
ED
100
AcDbEntity
  8
template
370
               5
390
0
  6
Continuous
 62
               7
100
AcDbLine
 10
724.00000000049999
 20
-1309.0027073587005
 30
0.0
 11
724.00000000049999
 21
-1224.0027073587005
 31
0.0
  0
MTEXT
  5
EE
100
AcDbEntity
  8
template
390
0
 62
               7
100
AcDbMText
 10
480.00000000049999
 20
-1232.4176292337004
 30
0.0
 40
16.288411458333332
 41
0.0
 71
               1
 72
               1
  1
容量
  7
ＭＳ ゴシック
 73
               1
 44
0.7828267384257843
  0
MTEXT
  5
EF
100
AcDbEntity
  8
template
390
0
 62
               7
100
AcDbMText
 10
533.00000000049999
 20
-1261.0000901712006
 30
0.0
 40
24.432617187500004
 41
0.0
 71
               1
 72
               1
  1
6L
  7
ＭＳ ゴシック
 73
               1
 44
0.7828267384257843
  0
LINE
  5
F0
100
AcDbEntity
  8
template
370
               5
390
0
  6
Continuous
 62
               7
100
AcDbLine
 10
473.00000000049999
 20
-1309.0027073587005
 30
0.0
 11
473.00000000049999
 21
-1224.0027073587005
 31
0.0
  0
MTEXT
  5
F1
100
AcDbEntity
  8
template
390
0
 62
               7
100
AcDbMText
 10
229.00000000049999
 20
-1147.4176292337004
 30
0.0
 40
16.288411458333332
 41
0.0
 71
               1
 72
               1
  1
品番
  7
ＭＳ ゴシック
 73
               1
 44
0.7828267384257843
  0
MTEXT
  5
F2
100
AcDbEntity
  8
template
390
0
 62
               7
100
AcDbMText
 10
229.00000000049999
 20
-1232.4176292337004
 30
0.0
 40
16.288411458333332
 41
0.0
 71
               1
 72
               1
  1
重量
  7
ＭＳ ゴシック
 73
               1
 44
0.7828267384257843
  0
MTEXT
  5
F3
100
AcDbEntity
  8
template
390
0
 62
               7
100
AcDbMText
 10
282.00000000049999
 20
-1176.0000901712006
 30
0.0
 40
24.432617187500004
 41
0.0
 71
               1
 72
               1
  1
FAA70-0107
  7
ＭＳ ゴシック
 73
               1
 44
0.7828267384257843
  0
MTEXT
  5
F4
100
AcDbEntity
  8
template
390
0
 62
               7
100
AcDbMText
 10
282.00000000049999
 20
-1261.0000901712006
 30
0.0
 40
24.432617187500004
 41
0.0
 71
               1
 72
               1
  1
6.7kg
  7
ＭＳ ゴシック
 73
               1
 44
0.7828267384257843
  0
LINE
  5
F5
100
AcDbEntity
  8
template
370
               5
390
0
  6
Continuous
 62
               7
100
AcDbLine
 10
222.00000000049999
 20
-1394.0027073587005
 30
0.0
 11
222.00000000049999
 21
-1139.0027073587005
 31
0.0
  0
MTEXT
  5
F6
100
AcDbEntity
  8
template
390
0
 62
               7
100
AcDbMText
 10
-914.99999999975921
 20
-1176.0000901712006
 30
0.0
 40
24.432617187500004
 41
0.0
 71
               1
 72
               1
  1
洗面器･手洗器 -DURAVIT,Architec-　
  7
ＭＳ ゴシック
 73
               1
 44
0.7828267384257843
  0
DIMENSION
  5
F7
100
AcDbEntity
  8
template
370
               5
390
0
  6
Continuous
 62
               7
100
AcDbDimension
  2
*D3
 10
681.29556257700801
 20
-387.0
 30
0.0
 11
718.79556257700801
 21
-382.0
 31
0.0
 70
             128
 71
               5
 72
               1
 41
1.0
 42
0.0
  3
tfrom線あり
100
AcDbAlignedDimension
 13
756.29556257700801
 23
-459.67842629439559
 33
0.0
 14
681.29556257700801
 24
-463.35685258879118
 34
0.0
100
AcDbRotatedDimension
1001
ACAD
1000
DSTYLE
1002
{
1070
             279
1070
               2
1070
             340
1005
2F
1070
             147
1040
5.0
1002
}
  0
DIMENSION
  5
F8
100
AcDbEntity
  8
notes
370
               5
390
0
  6
Continuous
 62
               7
100
AcDbDimension
  2
*D4
 10
-689.65485899213581
 20
902.56534529476153
 30
0.0
 11
-474.65485899213559
 21
902.56534529476153
 31
0.0
 71
               5
 72
               1
 41
1.0
 42
0.0
  3
tfrom線あり
100
AcDbAlignedDimension
 13
-259.65485899213542
 23
561.56534529476153
 33
0.0
 14
-689.65485899213581
 24
561.56534529476153
 34
0.0
100
AcDbRotatedDimension
1001
ACAD
1000
DSTYLE
1002
{
1070
             279
1070
               2
1070
             340
1005
2F
1070
             147
1040
5.0
1002
}
  0
DIMENSION
  5
F9
100
AcDbEntity
  8
notes
370
               5
390
0
  6
Continuous
 62
               7
100
AcDbDimension
  2
*D5
 10
-554.60729166666692
 20
852.56534529476153
 30
0.0
 11
-474.60729166666675
 21
852.56534529476153
 31
0.0
 71
               5
 72
               1
 41
1.0
 42
0.0
  3
tfrom線あり
100
AcDbAlignedDimension
 13
-394.60729166666647
 23
690.69410370404967
 33
0.0
 14
-554.60729166666692
 24
690.69410370404967
 34
0.0
100
AcDbRotatedDimension
1001
ACAD
1000
DSTYLE
1002
{
1070
             279
1070
               2
1070
             340
1005
2F
1070
             147
1040
5.0
1002
}
  0
DIMENSION
  5
FA
100
AcDbEntity
  8
notes
370
               5
390
0
  6
Continuous
 62
               7
100
AcDbDimension
  2
*D6
 10
-159.76062342355897
 20
-463.35685258879118
 30
0.0
 11
-159.76062342355897
 21
-538.35685258879084
 31
0.0
 71
               5
 72
               1
 41
1.0
 42
0.0
  3
tfrom線あり
100
AcDbAlignedDimension
 13
-446.26964441965248
 23
-613.35685258879039
 33
0.0
 14
-271.76062342355897
 24
-463.35685258879118
 34
0.0
 50
90.0
100
AcDbRotatedDimension
1001
ACAD
1000
DSTYLE
1002
{
1070
             279
1070
               2
1070
             340
1005
2F
1070
             147
1040
5.0
1002
}
  0
DIMENSION
  5
FB
100
AcDbEntity
  8
notes
370
               5
390
0
  6
Continuous
 62
               7
100
AcDbDimension
  2
*D7
 10
225.29556257700875
 20
-463.35685258879118
 30
0.0
 11
220.29556257700875
 21
-457.19018592212456
 31
0.0
 70
             128
 71
               5
 72
               1
 41
1.0
 42
0.0
  3
tfrom線あり
100
AcDbAlignedDimension
 13
331.29556257700875
 23
-493.35685258879118
 33
0.0
 14
326.29556257700875
 24
-463.35685258879118
 34
0.0
 50
90.0
100
AcDbRotatedDimension
1001
ACAD
1000
DSTYLE
1002
{
1070
             279
1070
               2
1070
             340
1005
2F
1070
             174
1070
               0
1070
             147
1040
5.0
1002
}
  0
DIMENSION
  5
FC
100
AcDbEntity
  8
notes
370
               5
390
0
  6
Continuous
 62
               7
100
AcDbDimension
  2
*D8
 10
225.29556257700875
 20
-493.35685258879118
 30
0.0
 11
225.29556257700875
 21
-553.35685258879084
 31
0.0
 71
               5
 72
               1
 41
1.0
 42
0.0
  3
tfrom線あり
100
AcDbAlignedDimension
 13
503.79556257700818
 23
-613.35685258879039
 33
0.0
 14
331.29556257700875
 24
-493.35685258879118
 34
0.0
 50
90.0
100
AcDbRotatedDimension
1001
ACAD
1000
DSTYLE
1002
{
1070
             279
1070
               2
1070
             340
1005
2F
1070
             147
1040
5.0
1002
}
  0
DIMENSION
  5
FD
100
AcDbEntity
  8
notes
370
               5
390
0
  6
Continuous
 62
               7
100
AcDbDimension
  2
*D9
 10
756.29556257700801
 20
-713.35685258879107
 30
0.0
 11
648.79556257700801
 21
-713.35685258879107
 31
0.0
 71
               5
 72
               1
 41
1.0
 42
0.0
  3
tfrom線あり
100
AcDbAlignedDimension
 13
541.29556257700801
 23
-613.35685258879039
 33
0.0
 14
756.29556257700801
 24
-488.35685258879118
 34
0.0
100
AcDbRotatedDimension
1001
ACAD
1000
DSTYLE
1002
{
1070
             279
1070
               2
1070
             340
1005
2F
1070
             147
1040
5.0
1002
}
  0
DIMENSION
  5
FE
100
AcDbEntity
  8
notes
370
               5
390
0
  6
Continuous
 62
               7
100
AcDbDimension
  2
*D10
 10
-538.92886418937906
 20
665.41998562934623
 30
0.0
 11
-772.43903884857718
 21
751.45467162812088
 31
0.0
 70
               3
 71
               5
 72
               1
 41
1.0
 42
0.0
  3
tfrom線あり
100
AcDbDiametricDimension
 15
-570.28571914395479
 25
680.9682217787531
 35
0.0
 40
158.66917128230057
1001
ACAD
1000
DSTYLE
1002
{
1070
             289
1070
               0
1070
             342
1005
42
1070
             340
1005
2F
1070
              73
1070
               1
1070
              74
1070
               1
1070
              75
1070
               1
1070
              76
1070
               1
1070
               3
1000

1070
             174
1070
               0
1070
             147
1040
5.0
1002
}
  0
DIMENSION
  5
FF
100
AcDbEntity
  8
notes
370
               5
390
0
  6
Continuous
 62
               7
100
AcDbDimension
  2
*D11
 10
531.72604166666633
 20
-463.35685258879118
 30
0.0
 11
526.72604166666633
 21
-455.89270833333353
 31
0.0
 70
             128
 71
               5
 72
               1
 41
1.0
 42
0.0
  3
tfrom線あり
100
AcDbAlignedDimension
 13
541.29556257700801
 23
-588.3568525887905
 33
0.0
 14
541.29556257700801
 24
-463.35685258879118
 34
0.0
 50
90.0
100
AcDbRotatedDimension
1001
ACAD
1000
DSTYLE
1002
{
1070
             279
1070
               2
1070
             340
1005
2F
1070
               3
1000
<>(深さ)
1070
             174
1070
               0
1070
             147
1040
5.0
1002
}
  0
MTEXT
  5
100
100
AcDbEntity
  8
notes
390
0
 62
               7
100
AcDbMText
 10
-845.14599872448707
 20
100.2962250722864
 30
0.0
 40
24.432617187500004
 41
835.03870705781992
 71
               1
 72
               1
  1
＝φ30もしくはφ35の水栓取付用穴あけ加工を承ります。\P  必要な場合、ご注文の際にご指示ください。
  7
ＭＳ ゴシック
 73
               1
 44
1.0437689845677123
  0
MTEXT
  5
101
100
AcDbEntity
  8
notes
390
0
 62
               7
100
AcDbMText
 10
80.892708333333346
 20
100.2962250722864
 30
0.0
 40
24.432617187500004
 41
765.0
 71
               1
 72
               1
  1
※陶器製品には寸法公差があります。\P  洗面器の収め方をご確認の上、必ず現物を合わせて\P  カウンターの切込を行ってください。
  7
ＭＳ ゴシック
 73
               1
 44
1.0437689845677123
  0
MTEXT
  5
102
100
AcDbEntity
  8
notes
390
0
 62
               7
100
AcDbMText
 10
303.79097434119541
 20
975.33475489677676
 30
0.0
 40
24.432617187500004
 41
0.0
 71
               1
 72
               1
  1
カウンター切込寸法
  7
ＭＳ ゴシック
 73
               1
 44
0.7828267384257843
  0
CIRCLE
  5
103
100
AcDbEntity
  8
notes
370
              15
390
0
  6
STYLE_12
 62
               7
100
AcDbCircle
 10
-865.21620008264813
 20
85.520388074484742
 30
0.0
 40
17.500000000000227
  0
CIRCLE
  5
104
100
AcDbEntity
  8
FAA70-0107
370
              15
390
0
  6
Continuous
 62
               7
100
AcDbCircle
 10
-474.65485899213508
 20
537.56534529476153
 30
0.0
 40
214.99999999999966
  0
CIRCLE
  5
105
100
AcDbEntity
  8
FAA70-0107
370
              15
390
0
  6
Continuous
 62
               7
100
AcDbCircle
 10
-474.65485899213508
 20
537.56534529476153
 30
0.0
 40
200.0
  0
ARC
  5
106
100
AcDbEntity
  8
FAA70-0107
370
              15
390
0
  6
Continuous
 62
               7
100
AcDbCircle
 10
-474.65485899213508
 20
537.56534529476153
 30
0.0
 40
113.00000000000009
100
AcDbArc
 50
44.706796724182979
 51
135.29320327581726
  0
LINE
  5
107
100
AcDbEntity
  8
FAA70-0107
370
              15
390
0
  6
Continuous
 62
               7
100
AcDbLine
 10
-614.71924436014433
 20
676.80692655367284
 30
0.0
 11
-554.96577021533994
 21
617.05847417077575
 31
0.0
  0
LINE
  5
108
100
AcDbEntity
  8
FAA70-0107
370
              15
390
0
  6
Continuous
 62
               7
100
AcDbLine
 10
-334.59047362412645
 20
676.80692655367284
 30
0.0
 11
-394.34394776893072
 21
617.05847417077575
 31
0.0
  0
CIRCLE
  5
109
100
AcDbEntity
  8
FAA70-0107
370
              15
390
0
  6
Continuous
 62
               7
100
AcDbCircle
 10
-554.60729166666692
 20
673.19410370404967
 30
0.0
 40
17.500000000000227
  0
CIRCLE
  5
10A
100
AcDbEntity
  8
FAA70-0107
370
              15
390
0
  6
Continuous
 62
               7
100
AcDbCircle
 10
-474.65485899213508
 20
537.59004929476168
 30
0.0
 40
26.0
  0
CIRCLE
  5
10B
100
AcDbEntity
  8
FAA70-0107
370
              15
390
0
  6
Continuous
 62
               7
100
AcDbCircle
 10
-474.65485899213508
 20
537.59004929476168
 30
0.0
 40
37.5
  0
LWPOLYLINE
  5
10C
100
AcDbEntity
  8
FAA70-0107
370
              15
390
0
  6
Continuous
 62
               7
100
AcDbPolyline
 90
       16
 70
             129
 10
-261.0135606547783
 20
-491.89238649472293
 10
-259.76062342355897
 20
-488.35685258879141
 10
-259.76062342355897
 20
-468.35685258879118
 42
0.4142135623730917
 10
-264.76062342355891
 20
-463.35685258879118
 10
-684.76062342355931
 20
-463.35685258879118
 42
0.4142135623730917
 10
-689.76062342355931
 20
-468.35685258879118
 10
-689.76062342355931
 20
-488.35685258879118
 10
-688.29615732949219
 20
-491.89238649472361
 10
-632.30834006060468
 20
-605.14914954474739
 42
0.2853046609261524
 10
-627.82610974664499
 20
-607.93338524938076
 10
-508.02210883270379
 20
-607.93338524938076
 42
0.4392732550689725
 10
-503.04007356461778
 20
-613.35685258879039
 10
-446.26964441965248
 20
-613.35685258879039
 42
0.4392732550689618
 10
-441.28760915156641
 20
-607.93338524938076
 10
-321.4836082376259
 20
-607.93338524938076
 42
0.2853046609261634
 10
-317.00137792366644
 20
-605.14914954474739
  0
ARC
  5
10D
100
AcDbEntity
  8
FAA70-0107
370
              15
390
0
  6
Continuous
 62
               7
100
AcDbCircle
 10
-467.64440789776307
 20
-311.793386801103
 30
0.0
 40
284.82072294326736
100
AcDbArc
 50
219.2217973479359
 51
255.8598002536277
  0
ARC
  5
10E
100
AcDbEntity
  8
FAA70-0107
370
              15
390
0
  6
Continuous
 62
               7
100
AcDbCircle
 10
-481.66531008650719
 20
-311.793386801103
 30
0.0
 40
284.82072294326616
100
AcDbArc
 50
271.27136999842861
 51
284.14019974637222
  0
LINE
  5
10F
100
AcDbEntity
  8
FAA70-0107
370
              15
390
0
  6
Continuous
 62
               7
100
AcDbLine
 10
-508.04007356461773
 20
-608.35685258879039
 30
0.0
 11
-508.04007356461784
 21
-593.7349311205885
 31
0.0
  0
LINE
  5
110
100
AcDbEntity
  8
FAA70-0107
370
              15
390
0
  6
Continuous
 62
               7
100
AcDbLine
 10
-441.26964441965248
 20
-608.35685258879039
 30
0.0
 11
-441.26964441965248
 21
-593.7349311205885
 31
0.0
  0
LINE
  5
111
100
AcDbEntity
  8
FAA70-0107
370
              15
390
0
  6
Continuous
 62
               7
100
AcDbLine
 10
-684.76062342355931
 20
-493.35685258879118
 30
0.0
 11
-264.76062342355891
 21
-493.35685258879118
 31
0.0
  0
ARC
  5
112
100
AcDbEntity
  8
FAA70-0107
370
              15
390
0
  6
Continuous
 62
               7
100
AcDbCircle
 10
-684.76062342355931
 20
-488.35685258879118
 30
0.0
 40
5.0
100
AcDbArc
 50
180.0
 51
270.0
  0
ARC
  5
113
100
AcDbEntity
  8
FAA70-0107
370
              15
390
0
  6
Continuous
 62
               7
100
AcDbCircle
 10
-264.76062342355891
 20
-488.35685258879118
 30
0.0
 40
5.0
100
AcDbArc
 50
270.0
 51
0.0
  0
ARC
  5
114
100
AcDbEntity
  8
FAA70-0107
370
              15
390
0
  6
Continuous
 62
               7
100
AcDbCircle
 10
-467.64440789776307
 20
-311.793386801103
 30
0.0
 40
284.82072294326645
100
AcDbArc
 50
255.8598002536277
 51
268.72863000156809
  0
ARC
  5
115
100
AcDbEntity
  8
FAA70-0107
370
              15
390
0
  6
Continuous
 62
               7
100
AcDbCircle
 10
-481.66531008650719
 20
-311.793386801103
 30
0.0
 40
284.82072294326622
100
AcDbArc
 50
284.14019974637222
 51
320.77820265206401
  0
LINE
  5
116
100
AcDbEntity
  8
FAA70-0107
370
              15
390
0
  6
Continuous
 62
               7
100
AcDbLine
 10
697.01835464210808
 20
-493.35685258798014
 30
0.0
 11
679.15574819291805
 21
-606.24061722746046
 31
0.0
  0
LINE
  5
117
100
AcDbEntity
  8
FAA70-0107
370
              15
390
0
  6
Continuous
 62
               7
100
AcDbLine
 10
326.29556257700875
 20
-463.35685258879118
 30
0.0
 11
326.29556257700875
 21
-488.35685258879118
 31
0.0
  0
LINE
  5
118
100
AcDbEntity
  8
FAA70-0107
370
              15
390
0
  6
Continuous
 62
               7
100
AcDbLine
 10
326.29556257700875
 20
-463.35685258879118
 30
0.0
 11
756.29556257700801
 21
-463.35685258879118
 31
0.0
  0
LINE
  5
119
100
AcDbEntity
  8
FAA70-0107
370
              15
390
0
  6
Continuous
 62
               7
100
AcDbLine
 10
756.29556257700801
 20
-463.35685258879118
 30
0.0
 11
756.29556257700801
 21
-488.35685258879118
 31
0.0
  0
LINE
  5
11A
100
AcDbEntity
  8
FAA70-0107
370
              15
390
0
  6
Continuous
 62
               7
100
AcDbLine
 10
751.29556257700801
 20
-493.35685258879118
 30
0.0
 11
331.29556257700875
 21
-493.35685258879118
 31
0.0
  0
ARC
  5
11B
100
AcDbEntity
  8
FAA70-0107
370
              15
390
0
  6
Continuous
 62
               7
100
AcDbCircle
 10
751.29556257700801
 20
-488.35685258879118
 30
0.0
 40
5.0
100
AcDbArc
 50
270.0
 51
0.0
  0
ARC
  5
11C
100
AcDbEntity
  8
FAA70-0107
370
              15
390
0
  6
Continuous
 62
               7
100
AcDbCircle
 10
331.29556257700875
 20
-488.35685258879118
 30
0.0
 40
5.0
100
AcDbArc
 50
180.0
 51
270.0
  0
LINE
  5
11D
100
AcDbEntity
  8
FAA70-0107
370
              15
390
0
  6
Continuous
 62
               7
100
AcDbLine
 10
678.91937245606664
 20
-606.24061722746046
 30
0.0
 11
567.8120668715037
 21
-606.24061722746046
 31
0.0
  0
LINE
  5
11E
100
AcDbEntity
  8
FAA70-0107
370
              15
390
0
  6
Continuous
 62
               7
100
AcDbLine
 10
578.79556257700801
 20
-606.24061722746046
 30
0.0
 11
578.79556257700801
 21
-613.35685258879039
 31
0.0
  0
LINE
  5
11F
100
AcDbEntity
  8
FAA70-0107
370
              15
390
0
  6
Continuous
 62
               7
100
AcDbLine
 10
578.16951389262954
 20
-613.35685258879039
 30
0.0
 11
503.79556257700818
 21
-613.35685258879039
 31
0.0
  0
LINE
  5
120
100
AcDbEntity
  8
FAA70-0107
370
              15
390
0
  6
Continuous
 62
               7
100
AcDbLine
 10
503.79556257700818
 20
-599.12438186613031
 30
0.0
 11
503.79556257700818
 21
-613.35685258879039
 31
0.0
  0
ARC
  5
121
100
AcDbEntity
  8
FAA70-0107
370
              15
390
0
  6
STYLE_12
 62
               7
100
AcDbCircle
 10
538.96170463488943
 20
-363.17120592749353
 30
0.0
 40
220.31803041368661
100
AcDbArc
 50
207.18461624687595
 51
262.26891206893345
  0
LINE
  5
122
100
AcDbEntity
  8
FAA70-0107
370
              15
390
0
  6
STYLE_12
 62
               7
100
AcDbLine
 10
733.75011538189051
 20
-467.82982585681873
 30
0.0
 11
736.29556257700688
 21
-463.35685258879073
 31
0.0
  0
LINE
  5
123
100
AcDbEntity
  8
FAA70-0107
370
              15
390
0
  6
STYLE_12
 62
               7
100
AcDbLine
 10
729.40449652888219
 20
-470.35685258879118
 30
0.0
 11
621.13367308797456
 21
-470.35685258879118
 31
0.0
  0
LINE
  5
124
100
AcDbEntity
  8
FAA70-0107
370
              15
390
0
  6
STYLE_12
 62
               7
100
AcDbLine
 10
616.13367308797456
 20
-475.35685258879118
 30
0.0
 11
616.13367308797456
 21
-548.35685258879107
 31
0.0
  0
ARC
  5
125
100
AcDbEntity
  8
FAA70-0107
370
              15
390
0
  6
STYLE_12
 62
               7
100
AcDbCircle
 10
621.13367308797456
 20
-475.35685258879118
 30
0.0
 40
5.0
100
AcDbArc
 50
90.0
 51
180.0
  0
LINE
  5
126
100
AcDbEntity
  8
FAA70-0107
370
              15
390
0
  6
STYLE_12
 62
               7
100
AcDbLine
 10
567.19039020094283
 20
-588.3568525887905
 30
0.0
 11
515.29556257700801
 21
-588.3568525887905
 31
0.0
  0
ARC
  5
127
100
AcDbEntity
  8
FAA70-0107
370
              15
390
0
  6
Continuous
 62
               7
100
AcDbCircle
 10
516.77830659220649
 20
-410.03492836394855
 30
0.0
 40
188.04684203920777
100
AcDbArc
 50
287.41904476919973
 51
330.8878385213423
  0
LINE
  5
128
100
AcDbEntity
  8
FAA70-0107
370
              15
390
0
  6
Continuous
 62
               7
100
AcDbLine
 10
681.06899871944802
 20
-501.52363500099216
 30
0.0
 11
685.82375710723818
 21
-494.35158948519427
 31
0.0
  0
ARC
  5
129
100
AcDbEntity
  8
FAA70-0107
370
              15
390
0
  6
Continuous
 62
               7
100
AcDbCircle
 10
689.09295069763334
 20
-499.22120422632076
 30
0.0
 40
5.8652173400478143
100
AcDbArc
 50
89.0155690535492
 51
123.87525618098186
  0
ARC
  5
12A
100
AcDbEntity
  8
FAA70-0107
370
              15
390
0
  6
Continuous
 62
               7
100
AcDbCircle
 10
540.4076265363517
 20
-336.19250250771194
 30
0.0
 40
257.03159395494737
100
AcDbArc
 50
218.54543702025856
 51
259.95224956690714
  0
ARC
  5
12B
100
AcDbEntity
  8
FAA70-0107
370
              15
390
0
  6
Continuous
 62
               7
100
AcDbCircle
 10
494.08976395744156
 20
-598.8783204145218
 30
0.0
 40
9.7089171940824084
100
AcDbArc
 50
358.54774821122589
 51
81.268506320288409
  0
ARC
  5
12C
100
AcDbEntity
  8
FAA70-0107
370
              15
390
0
  6
STYLE_12
 62
               7
100
AcDbCircle
 10
512.81460736878262
 20
-588.17067772464168
 30
0.0
 40
2.4879308320896132
100
AcDbArc
 50
355.70847614359019
 51
43.756072318570034
  0
LINE
  5
12D
100
AcDbEntity
  8
FAA70-0107
370
              15
390
0
  6
STYLE_12
 62
               7
100
AcDbLine
 10
515.29556257700801
 20
-587.98450286047375
 30
0.0
 11
515.29556257700801
 21
-613.35685258879039
 31
0.0
  0
LINE
  5
12E
100
AcDbEntity
  8
FAA70-0107
370
              15
390
0
  6
STYLE_12
 62
               7
100
AcDbLine
 10
514.61161659665345
 20
-586.45005061215932
 30
0.0
 11
510.33465151780013
 21
-582.15240280920057
 31
0.0
  0
ARC
  5
12F
100
AcDbEntity
  8
FAA70-0107
370
              15
390
0
  6
STYLE_12
 62
               7
100
AcDbCircle
 10
569.72393159720104
 20
-588.17067772464168
 30
0.0
 40
2.4879308320897344
100
AcDbArc
 50
136.24392768142997
 51
184.29152385640964
  0
LINE
  5
130
100
AcDbEntity
  8
FAA70-0107
370
              15
390
0
  6
STYLE_12
 62
               7
100
AcDbLine
 10
567.24297638897542
 20
-587.98450286047375
 30
0.0
 11
567.24297638897542
 21
-613.35685258879039
 31
0.0
  0
LINE
  5
131
100
AcDbEntity
  8
FAA70-0107
370
              15
390
0
  6
STYLE_12
 62
               7
100
AcDbLine
 10
567.92692236933021
 20
-586.45005061215932
 30
0.0
 11
572.20388744818342
 21
-582.15240280920057
 31
0.0
  0
LINE
  5
132
100
AcDbEntity
  8
FAA70-0107
370
              15
390
0
  6
Continuous
 62
               7
100
AcDbLine
 10
567.8120668715037
 20
-599.12438186613031
 30
0.0
 11
567.8120668715037
 21
-606.24061722746046
 31
0.0
  0
ARC
  5
133
100
AcDbEntity
  8
FAA70-0107
370
              15
390
0
  6
Continuous
 62
               7
100
AcDbCircle
 10
577.49231891797672
 20
-598.11171026644979
 30
0.0
 40
9.7330767721236882
100
AcDbArc
 50
114.02788999709128
 51
185.97211000290818
  0
ARC
  5
134
100
AcDbEntity
  8
FAA70-0107
370
              15
390
0
  6
STYLE_12
 62
               7
100
AcDbCircle
 10
729.40449652888219
 20
-465.35685258879118
 30
0.0
 40
5.0
100
AcDbArc
 50
270.0
 51
330.35697510963132
  0
ARC
  5
135
100
AcDbEntity
  8
FAA70-0107
370
              15
390
0
  6
STYLE_12
 62
               7
100
AcDbCircle
 10
681.24754790791917
 20
-483.35685258879141
 30
0.0
 40
13.000000000000227
100
AcDbArc
 50
90.0
 51
155.92908242157671
  0
CIRCLE
  5
136
100
AcDbEntity
  8
FAA70-0107
370
              15
390
0
  6
STYLE_12
 62
               7
100
AcDbCircle
 10
-394.60729166666647
 20
673.19410370404967
 30
0.0
 40
17.5
  0
CIRCLE
  5
137
100
AcDbEntity
  8
FAA70-0107
370
               5
390
0
  6
STYLE_12
 62
               7
100
AcDbCircle
 10
440.84677181721605
 20
537.56534529476153
 30
0.0
 40
214.99999999999932
  0
CIRCLE
  5
138
100
AcDbEntity
  8
FAA70-0107
370
               5
390
0
  6
STYLE_12
 62
               7
100
AcDbCircle
 10
359.22608632459441
 20
673.19410370404967
 30
0.0
 40
17.5
  0
CIRCLE
  5
139
100
AcDbEntity
  8
FAA70-0107
370
               5
390
0
  6
STYLE_12
 62
               7
100
AcDbCircle
 10
440.84677181721605
 20
537.59004929476168
 30
0.0
 40
25.999999999999943
  0
CIRCLE
  5
13A
100
AcDbEntity
  8
FAA70-0107
370
               5
390
0
  6
STYLE_12
 62
               7
100
AcDbCircle
 10
522.11467430983703
 20
673.19410370404967
 30
0.0
 40
17.5
  0
CIRCLE
  5
13B
100
AcDbEntity
  8
FAA70-0107
370
              15
390
0
  6
Continuous
 62
               7
100
AcDbCircle
 10
440.84677181721605
 20
537.59004929476168
 30
0.0
 40
195.0
  0
ARC
  5
13C
100
AcDbEntity
  8
FAA70-0107
370
              15
390
0
  6
STYLE_12
 62
               7
100
AcDbCircle
 10
-472.37358723804897
 20
-362.95836279463771
 30
0.0
 40
220.31803041368644
100
AcDbArc
 50
277.73108793106655
 51
332.78949886184205
  0
ARC
  5
13D
100
AcDbEntity
  8
FAA70-0107
370
              15
390
0
  6
STYLE_12
 62
               7
100
AcDbCircle
 10
-446.22648997194216
 20
-587.95783459178563
 30
0.0
 40
2.4879308320897344
100
AcDbArc
 50
136.24392768142997
 51
184.29152385640984
  0
LINE
  5
13E
100
AcDbEntity
  8
FAA70-0107
370
              15
390
0
  6
STYLE_12
 62
               7
100
AcDbLine
 10
-448.70744518016767
 20
-587.7716597276177
 30
0.0
 11
-448.70744518016767
 21
-613.35685258879039
 31
0.0
  0
LINE
  5
13F
100
AcDbEntity
  8
FAA70-0107
370
              15
390
0
  6
STYLE_12
 62
               7
100
AcDbLine
 10
-448.0234991998131
 20
-586.23720747930327
 30
0.0
 11
-443.74653412095967
 21
-581.93955967634452
 31
0.0
  0
ARC
  5
140
100
AcDbEntity
  8
FAA70-0107
370
              15
390
0
  6
STYLE_12
 62
               7
100
AcDbCircle
 10
-476.93613074622118
 20
-362.95836279463771
 30
0.0
 40
220.31803041368764
100
AcDbArc
 50
207.58450494924739
 51
262.26891206893345
  0
ARC
  5
141
100
AcDbEntity
  8
FAA70-0107
370
              15
390
0
  6
STYLE_12
 62
               7
100
AcDbCircle
 10
-503.08322801232799
 20
-587.95783459178563
 30
0.0
 40
2.4879308320895563
100
AcDbArc
 50
355.70847614359013
 51
43.756072318570943
  0
LINE
  5
142
100
AcDbEntity
  8
FAA70-0107
370
              15
390
0
  6
STYLE_12
 62
               7
100
AcDbLine
 10
-500.60227280410254
 20
-588.3568525887905
 30
0.0
 11
-500.60227280410254
 21
-613.35685258879039
 31
0.0
  0
LINE
  5
143
100
AcDbEntity
  8
FAA70-0107
370
              15
390
0
  6
STYLE_12
 62
               7
100
AcDbLine
 10
-501.28621878445711
 20
-586.23720747930327
 30
0.0
 11
-505.56318386331048
 21
-581.93955967634452
 31
0.0
  0
ARC
  5
144
100
AcDbEntity
  8
FAA70-0107
370
              15
390
0
  6
STYLE_12
 62
               7
100
AcDbCircle
 10
506.17392648791116
 20
-422.59011587685961
 30
0.0
 40
172.37134324229308
100
AcDbArc
 50
292.963708921879
 51
341.22981041930967
  0
DIMENSION
  5
145
100
AcDbEntity
  8
FAA70-0107
370
               5
390
0
  6
Continuous
 62
               7
100
AcDbDimension
  2
*D12
 10
-674.65485899213513
 20
242.0
 30
0.0
 11
-474.65485899213508
 21
242.0
 31
0.0
 71
               5
 72
               1
 41
1.0
 42
0.0
  3
tfrom線あり
100
AcDbAlignedDimension
 13
-274.65485899213508
 23
467.73704500506307
 33
0.0
 14
-674.65485899213513
 24
467.73704500506307
 34
0.0
100
AcDbRotatedDimension
1001
ACAD
1000
DSTYLE
1002
{
1070
             279
1070
               2
1070
             340
1005
2F
1070
             147
1040
5.0
1002
}
  0
DIMENSION
  5
146
100
AcDbEntity
  8
FAA70-0107
370
               5
390
0
  6
Continuous
 62
               7
100
AcDbDimension
  2
*D13
 10
323.66981327806752
 20
693.45717343424985
 30
0.0
 11
696.0
 21
278.00000000000006
 31
0.0
 70
               3
 71
               5
 72
               1
 41
1.0
 42
0.0
  3
tfrom線あり
100
AcDbDiametricDimension
 15
558.02373035636469
 25
381.72292515527369
 35
0.0
 40
129.76418546850061
1001
ACAD
1000
DSTYLE
1002
{
1070
             289
1070
               0
1070
             342
1005
42
1070
             340
1005
2F
1070
              75
1070
               1
1070
              76
1070
               1
1070
               3
1000

1070
             174
1070
               0
1070
             147
1040
5.0
1002
}
  0
ENDSEC
  0
SECTION
  2
OBJECTS
  0
DICTIONARY
  5
19
100
AcDbDictionary
280
               0
281
               1
  3
ACAD_GROUP
350
1A
  3
ACAD_MLINESTYLE
350
1B
  3
ACAD_LAYOUT
350
1E
  3
ACAD_PLOTSETTINGS
350
22
  3
ACAD_PLOTSTYLENAME
350
1F
  0
DICTIONARY
  5
1A
102
{ACAD_REACTORS
330
19
102
}
100
AcDbDictionary
280
               0
281
               1
  0
DICTIONARY
  5
1B
102
{ACAD_REACTORS
330
19
102
}
100
AcDbDictionary
280
               0
281
               1
  3
Standard
350
1C
  0
MLINESTYLE
  5
1C
102
{ACAD_REACTORS
330
1B
102
}
100
AcDbMlineStyle
  2
Standard
 70
               0
  3

 62
               0
 51
90.0
 52
90.0
 71
               2
 49
0.5
 62
             256
  6
ByLayer
 49
-0.5
 62
             256
  6
ByLayer
  0
ACDBDICTIONARYWDFLT
  5
1F
102
{ACAD_REACTORS
330
19
102
}
100
AcDbDictionary
281
               1
  3
Normal
350
1D
100
AcDbDictionaryWithDefault
340
1D
  0
ACDBPLACEHOLDER
  5
1D
102
{ACAD_REACTORS
330
1F
102
}
  0
LAYOUT
  5
20
102
{ACAD_REACTORS
330
1E
102
}
100
AcDbPlotSettings
  1

  2

  4

  6

 40
0.0
 41
0.0
 42
0.0
 43
0.0
 44
0.0
 45
0.0
 46
0.0
 47
0.0
 48
0.0
 49
0.0
140
0.0
141
0.0
142
1.0
143
1.0
 70
            1024
 72
               0
 73
               0
 74
               0
  7

 75
               0
147
1.0
148
0.0
149
0.0
100
AcDbLayout
  1
Model
 70
               0
 71
               0
 10
0.0
 20
0.0
 11
0.0
 21
0.0
 12
0.0
 22
0.0
 32
0.0
 14
0.0
 24
0.0
 34
0.0
 15
0.0
 25
0.0
 35
0.0
146
0.0
 13
0.0
 23
0.0
 33
0.0
 16
0.0
 26
0.0
 36
0.0
 17
0.0
 27
0.0
 37
0.0
 76
               0
330
A
331
0
345
0
346
0
  0
LAYOUT
  5
21
102
{ACAD_REACTORS
330
1E
102
}
100
AcDbPlotSettings
  1

  2

  4

  6

 40
0.0
 41
0.0
 42
0.0
 43
0.0
 44
0.0
 45
0.0
 46
0.0
 47
0.0
 48
0.0
 49
0.0
140
0.0
141
0.0
142
1.0
143
1.0
 70
               0
 72
               0
 73
               0
 74
               0
  7

 75
               0
147
1.0
148
0.0
149
0.0
100
AcDbLayout
  1
Layout1
 70
               0
 71
               0
 10
0.0
 20
0.0
 11
0.0
 21
0.0
 12
0.0
 22
0.0
 32
0.0
 14
0.0
 24
0.0
 34
0.0
 15
0.0
 25
0.0
 35
0.0
146
0.0
 13
0.0
 23
0.0
 33
0.0
 16
0.0
 26
0.0
 36
0.0
 17
0.0
 27
0.0
 37
0.0
 76
               0
330
B
331
0
345
0
346
0
  0
DICTIONARY
  5
1E
102
{ACAD_REACTORS
330
19
102
}
100
AcDbDictionary
280
               0
281
               1
  3
Layout1
350
21
  3
Model
350
20
  0
DICTIONARY
  5
22
102
{ACAD_REACTORS
330
19
102
}
100
AcDbDictionary
280
               0
281
               1
  0
ENDSEC
  0
EOF
