  0
SECTION
  2
HEADER
  9
$ACADVER
  1
AC1015
  9
$ACADMAINTVER
 70
               6
  9
$DWGCODEPAGE
  3
ANSI_932
  9
$INSBASE
 10
0.0
 20
0.0
 30
0.0
  9
$EXTMIN
 10
-975.00000000024124
 20
-1431.5255224711129
 30
-14.428611111111111
  9
$EXTMAX
 10
975.00000000024124
 20
1405.9972926412995
 30
14.428611111111111
  9
$LIMMIN
 10
0.0
 20
0.0
  9
$LIMMAX
 10
0.0
 20
0.0
  9
$ORTHOMODE
 70
               0
  9
$REGENMODE
 70
               1
  9
$FILLMODE
 70
               1
  9
$QTEXTMODE
 70
               0
  9
$MIRRTEXT
 70
               1
  9
$LTSCALE
 40
50.799999999999997
  9
$ATTMODE
 70
               1
  9
$TEXTSIZE
 40
0.2
  9
$TRACEWID
 40
1.0
  9
$TEXTSTYLE
  7
Standard
  9
$CLAYER
  8
template
  9
$CELTYPE
  6
Continuous
  9
$CECOLOR
 62
             256
  9
$CELTSCALE
 40
1.0
  9
$DISPSILH
 70
               0
  9
$DIMSCALE
 40
1.0
  9
$DIMASZ
 40
31.75
  9
$DIMEXO
 40
0.0
  9
$DIMDLI
 40
6.9999999999999396
  9
$DIMRND
 40
0.0
  9
$DIMDLE
 40
0.0
  9
$DIMEXE
 40
19.999999999996199
  9
$DIMTP
 40
0.0
  9
$DIMTM
 40
0.0
  9
$DIMTXT
 40
24.432617187500004
  9
$DIMCEN
 40
0.0
  9
$DIMTSZ
 40
0.0
  9
$DIMTOL
 70
               0
  9
$DIMLIM
 70
               0
  9
$DIMTIH
 70
               0
  9
$DIMTOH
 70
               0
  9
$DIMSE1
 70
               0
  9
$DIMSE2
 70
               0
  9
$DIMTAD
 70
               1
  9
$DIMZIN
 70
              11
  9
$DIMBLK
  1
VW_FILLEDARROW
  9
$DIMASO
 70
               1
  9
$DIMSHO
 70
               1
  9
$DIMPOST
  1
<>
  9
$DIMAPOST
  1
[]
  9
$DIMALT
 70
               0
  9
$DIMALTD
 70
               1
  9
$DIMALTF
 40
1.0
  9
$DIMLFAC
 40
1.0
  9
$DIMTOFL
 70
               0
  9
$DIMTVP
 40
0.0
  9
$DIMTIX
 70
               1
  9
$DIMSOXD
 70
               0
  9
$DIMSAH
 70
               0
  9
$DIMBLK1
  1

  9
$DIMBLK2
  1

  9
$DIMSTYLE
  2
JIS
  9
$DIMCLRD
 70
               0
  9
$DIMCLRE
 70
               0
  9
$DIMCLRT
 70
               0
  9
$DIMTFAC
 40
1.0
  9
$DIMGAP
 40
1.00000000000108
  9
$DIMJUST
 70
               0
  9
$DIMSD1
 70
               0
  9
$DIMSD2
 70
               0
  9
$DIMTOLJ
 70
               1
  9
$DIMTZIN
 70
              11
  9
$DIMALTZ
 70
              11
  9
$DIMALTTZ
 70
              11
  9
$DIMUPT
 70
               0
  9
$DIMDEC
 70
               1
  9
$DIMTDEC
 70
               1
  9
$DIMALTU
 70
               2
  9
$DIMALTTD
 70
               2
  9
$DIMTXSTY
  7
ＭＳ ゴシック
  9
$DIMAUNIT
 70
               0
  9
$DIMADEC
 70
               2
  9
$DIMALTRND
 40
0.0
  9
$DIMAZIN
 70
               0
  9
$DIMDSEP
 70
              46
  9
$DIMATFIT
 70
               0
  9
$DIMFRAC
 70
               2
  9
$DIMLDRBLK
  1

  9
$DIMLUNIT
 70
               2
  9
$DIMLWD
 70
              -2
  9
$DIMLWE
 70
              -2
  9
$DIMTMOVE
 70
               0
  9
$LUNITS
 70
               2
  9
$LUPREC
 70
               4
  9
$SKETCHINC
 40
0.1
  9
$FILLETRAD
 40
0.0
  9
$AUNITS
 70
               0
  9
$AUPREC
 70
               0
  9
$MENU
  1
acad
  9
$ELEVATION
 40
0.0
  9
$PELEVATION
 40
0.0
  9
$THICKNESS
 40
0.0
  9
$LIMCHECK
 70
               0
  9
$CHAMFERA
 40
0.0
  9
$CHAMFERB
 40
0.0
  9
$CHAMFERC
 40
0.0
  9
$CHAMFERD
 40
0.0
  9
$SKPOLY
 70
               0
  9
$TDCREATE
 40
2455758.709282408
  9
$TDUCREATE
 40
0.000000000
  9
$TDUPDATE
 40
2455758.709282408
  9
$TDUUPDATE
 40
0.000000000
  9
$TDINDWG
 40
0.0000000000
  9
$TDUSRTIMER
 40
0.0000000000
  9
$USRTIMER
 70
               1
  9
$ANGBASE
 50
0.0
  9
$ANGDIR
 70
               0
  9
$PDMODE
 70
               1
  9
$PDSIZE
 40
-2.0
  9
$PLINEWID
 40
0.0
  9
$SPLFRAME
 70
               0
  9
$SPLINETYPE
 70
               6
  9
$SPLINESEGS
 70
               8
  9
$HANDSEED
  5
14E
  9
$SURFTAB1
 70
               6
  9
$SURFTAB2
 70
               6
  9
$SURFTYPE
 70
               6
  9
$SURFU
 70
               6
  9
$SURFV
 70
               6
  9
$UCSBASE
  2

  9
$UCSNAME
  2

  9
$UCSORG
 10
0.0
 20
0.0
 30
0.0
  9
$UCSXDIR
 10
1.0
 20
0.0
 30
0.0
  9
$UCSYDIR
 10
0.0
 20
1.0
 30
0.0
  9
$UCSORTHOREF
  2

  9
$UCSORTHOVIEW
 70
               0
  9
$UCSORGTOP
 10
0.0
 20
0.0
 30
0.0
  9
$UCSORGBOTTOM
 10
0.0
 20
0.0
 30
0.0
  9
$UCSORGLEFT
 10
0.0
 20
0.0
 30
0.0
  9
$UCSORGRIGHT
 10
0.0
 20
0.0
 30
0.0
  9
$UCSORGFRONT
 10
0.0
 20
0.0
 30
0.0
  9
$UCSORGBACK
 10
0.0
 20
0.0
 30
0.0
  9
$PUCSBASE
  2

  9
$PUCSNAME
  2

  9
$PUCSORG
 10
0.0
 20
0.0
 30
0.0
  9
$PUCSXDIR
 10
1.0
 20
0.0
 30
0.0
  9
$PUCSYDIR
 10
0.0
 20
1.0
 30
0.0
  9
$PUCSORTHOREF
  2

  9
$PUCSORTHOVIEW
 70
               0
  9
$PUCSORGTOP
 10
0.0
 20
0.0
 30
0.0
  9
$PUCSORGBOTTOM
 10
0.0
 20
0.0
 30
0.0
  9
$PUCSORGLEFT
 10
0.0
 20
0.0
 30
0.0
  9
$PUCSORGRIGHT
 10
0.0
 20
0.0
 30
0.0
  9
$PUCSORGFRONT
 10
0.0
 20
0.0
 30
0.0
  9
$PUCSORGBACK
 10
0.0
 20
0.0
 30
0.0
  9
$USERI1
 70
               0
  9
$USERI2
 70
               0
  9
$USERI3
 70
               0
  9
$USERI4
 70
               0
  9
$USERI5
 70
               0
  9
$USERR1
 40
0.0
  9
$USERR2
 40
0.0
  9
$USERR3
 40
0.0
  9
$USERR4
 40
0.0
  9
$USERR5
 40
0.0
  9
$WORLDVIEW
 70
               1
  9
$SHADEDGE
 70
               3
  9
$SHADEDIF
 70
              70
  9
$TILEMODE
 70
               1
  9
$MAXACTVP
 70
              64
  9
$PINSBASE
 10
0.0
 20
0.0
 30
0.0
  9
$PLIMCHECK
 70
               0
  9
$PEXTMIN
 10
1.0000000000000000E+20
 20
1.0000000000000000E+20
 30
1.0000000000000000E+20
  9
$PEXTMAX
 10
-1.0000000000000000E+20
 20
-1.0000000000000000E+20
 30
-1.0000000000000000E+20
  9
$PLIMMIN
 10
0.0
 20
0.0
  9
$PLIMMAX
 10
12.0
 20
9.0
  9
$UNITMODE
 70
               0
  9
$VISRETAIN
 70
               0
  9
$PLINEGEN
 70
               1
  9
$PSLTSCALE
 70
               0
  9
$TREEDEPTH
 70
            3020
  9
$CMLSTYLE
  2
Standard
  9
$CMLJUST
 70
               0
  9
$CMLSCALE
 40
1.0
  9
$PROXYGRAPHICS
 70
               0
  9
$MEASUREMENT
 70
               1
  9
$CELWEIGHT
370
               0
  9
$ENDCAPS
280
               0
  9
$JOINSTYLE
280
               0
  9
$LWDISPLAY
290
               1
  9
$INSUNITS
 70
               4
  9
$HYPERLINKBASE
  1

  9
$STYLESHEET
  1

  9
$XEDIT
290
               1
  9
$CEPSNTYPE
380
               0
  9
$PSTYLEMODE
290
               1
  9
$FINGERPRINTGUID
  2

  9
$VERSIONGUID
  2

  9
$EXTNAMES
290
               1
  9
$PSVPSCALE
 40
0.0
  0
ENDSEC
  0
SECTION
  2
CLASSES
  0
CLASS
  1
LWPOLYLINE
  2
AcDbPolyline
  3
AutoCAD 2000
 90
        0
280
               0
281
               1
  0
CLASS
  1
IMAGE
  2
AcDbRasterImage
  3
ISM
 90
      127
280
               0
281
               1
  0
CLASS
  1
OLE2FRAME
  2
AcDbOle2Frame
  3
AutoCAD 2000
 90
        0
280
               0
281
               1
  0
CLASS
  1
HATCH
  2
AcDbHatch
  3
AutoCAD 2000
 90
        0
280
               0
281
               1
  0
CLASS
  1
DICTIONARYVAR
  2
AcDbDictionaryVar
  3
AutoCAD 2000
 90
        0
280
               0
281
               0
  0
CLASS
  1
RASTERVARIABLES
  2
AcDbRasterVariables
  3
ISM
 90
        0
280
               0
281
               0
  0
CLASS
  1
IMAGEDEF
  2
AcDbRasterImageDef
  3
ISM
 90
        0
280
               0
281
               0
  0
CLASS
  1
IMAGEDEF_REACTOR
  2
AcDbRasterImageDefReactor
  3
ISM
 90
        1
280
               0
281
               0
  0
CLASS
  1
IDBUFFER
  2
AcDbIdBuffer
  3
AutoCAD 2000
 90
        0
280
               0
281
               0
  0
CLASS
  1
SPATIAL_FILTER
  2
AcDbSpatialFilter
  3
AutoCAD 2000
 90
        0
280
               0
281
               0
  0
CLASS
  1
XRECORD
  2
AcDbXrecord
  3
AutoCAD 2000
 90
        0
280
               0
281
               0
  0
CLASS
  1
SORTENTSTABLE
  2
AcDbSortentsTable
  3
AutoCAD 2000
 90
        0
280
               0
281
               0
  0
CLASS
  1
LAYER_INDEX
  2
AcDbLayerIndex
  3
AutoCAD 2000
 90
        0
280
               0
281
               0
  0
CLASS
  1
SPATIAL_INDEX
  2
AcDbSpatialIndex
  3
AutoCAD 2000
 90
        0
280
               0
281
               0
  0
CLASS
  1
OBJECT_PTR
  2
CAseDLPNTableRecord
  3
"ASE-LPNTableRecord"
 90
        1
280
               0
281
               0
  0
CLASS
  1
LAYOUT
  2
AcDbLayout
  3
AutoCAD 2000
 90
        0
280
               0
281
               0
  0
CLASS
  1
PLOTSETTINGS
  2
AcDbPlotSettings
  3
AutoCAD 2000
 90
        0
280
               0
281
               0
  0
CLASS
  1
ACDBDICTIONARYWDFLT
  2
AcDbDictionaryWithDefault
  3
AutoCAD 2000
 90
        0
280
               0
281
               0
  0
CLASS
  1
ACDBPLACEHOLDER
  2
AcDbPlaceHolder
  3
AutoCAD 2000
 90
        0
280
               0
281
               0
  0
ENDSEC
  0
SECTION
  2
TABLES
  0
TABLE
  2
VPORT
  5
7
100
AcDbSymbolTable
 70
               1
  0
VPORT
  5
15
100
AcDbSymbolTableRecord
100
AcDbViewportTableRecord
  2
*ACTIVE
 70
               0
 10
0.0
 20
0.0
 11
1.0
 21
1.0
 12
0.0
 22
-12.764114914906713
 13
0.0
 23
0.0
 14
1.0
 24
1.0
 15
0.0
 25
0.0
 16
0.0
 26
0.0
 36
1.0
 17
0.0
 27
0.0
 37
0.0
 40
2837.5228151124124
 41
0.688564
 42
50.0
 43
0.0
 44
0.0
 50
0.0
 51
0.0
 71
               0
 72
            2000
 73
               1
 74
               1
 75
               0
 76
               0
 77
               0
 78
               0
281
               0
 65
               0
110
0.0
120
0.0
130
0.0
111
1.0
121
0.0
131
0.0
112
0.0
122
1.0
132
0.0
345
0
346
0
 79
               0
146
0.0
  0
ENDTAB
  0
TABLE
  2
LTYPE
  5
4
100
AcDbSymbolTable
 70
              17
  0
LTYPE
  5
11
100
AcDbSymbolTableRecord
100
AcDbLinetypeTableRecord
  2
ByBlock
 70
              64
  3

 72
              65
 73
               0
 40
0.0
  0
LTYPE
  5
12
100
AcDbSymbolTableRecord
100
AcDbLinetypeTableRecord
  2
ByLayer
 70
              64
  3

 72
              65
 73
               0
 40
0.0
  0
LTYPE
  5
13
100
AcDbSymbolTableRecord
100
AcDbLinetypeTableRecord
  2
Continuous
 70
              64
  3
Solid line
 72
              65
 73
               0
 40
0.0
  0
LTYPE
  5
2E
100
AcDbSymbolTableRecord
100
AcDbLinetypeTableRecord
  2
STYLE_01
 70
               0
  3

 72
              65
 73
               2
 40
0.516732283464567
 49
0.344488188976378
 74
               0
 49
-0.172244094488189
 74
               0
  0
LTYPE
  5
2F
100
AcDbSymbolTableRecord
100
AcDbLinetypeTableRecord
  2
STYLE_02
 70
               0
  3

 72
              65
 73
               2
 40
0.6944250000000001
 49
0.48607
 74
               0
 49
-0.2083550000000001
 74
               0
  0
LTYPE
  5
30
100
AcDbSymbolTableRecord
100
AcDbLinetypeTableRecord
  2
STYLE_03
 70
               0
  3

 72
              65
 73
               2
 40
1.25
 49
1.0416400000000001
 74
               0
 49
-0.2083599999999999
 74
               0
  0
LTYPE
  5
31
100
AcDbSymbolTableRecord
100
AcDbLinetypeTableRecord
  2
STYLE_04
 70
               0
  3

 72
              65
 73
               2
 40
1.5277099999999999
 49
1.3194249999999998
 74
               0
 49
-0.208285
 74
               0
  0
LTYPE
  5
32
100
AcDbSymbolTableRecord
100
AcDbLinetypeTableRecord
  2
STYLE_05
 70
               0
  3

 72
              65
 73
               2
 40
0.20828
 49
0.069425
 74
               0
 49
-0.138855
 74
               0
  0
LTYPE
  5
33
100
AcDbSymbolTableRecord
100
AcDbLinetypeTableRecord
  2
STYLE_06
 70
               0
  3

 72
              65
 73
               4
 40
1.0416400000000001
 49
0.625
 74
               0
 49
-0.20828
 74
               0
 49
0.06943
 74
               0
 49
-0.13893
 74
               0
  0
LTYPE
  5
34
100
AcDbSymbolTableRecord
100
AcDbLinetypeTableRecord
  2
STYLE_07
 70
               0
  3

 72
              65
 73
               6
 40
1.875
 49
0.625
 74
               0
 49
-0.20828
 74
               0
 49
0.6250000000000001
 74
               0
 49
-0.2083599999999999
 74
               0
 49
0.06943
 74
               0
 49
-0.1389299999999999
 74
               0
  0
LTYPE
  5
35
100
AcDbSymbolTableRecord
100
AcDbLinetypeTableRecord
  2
STYLE_08
 70
               0
  3

 72
              65
 73
               6
 40
1.25
 49
0.625
 74
               0
 49
-0.20828
 74
               0
 49
0.06943
 74
               0
 49
-0.13893
 74
               0
 49
0.0694299999999999
 74
               0
 49
-0.13893
 74
               0
  0
LTYPE
  5
36
100
AcDbSymbolTableRecord
100
AcDbLinetypeTableRecord
  2
STYLE_09
 70
               0
  3

 72
              65
 73
               4
 40
5.0
 49
3.75
 74
               0
 49
-0.2777849999999998
 74
               0
 49
0.6944300000000003
 74
               0
 49
-0.2777849999999998
 74
               0
  0
LTYPE
  5
37
100
AcDbSymbolTableRecord
100
AcDbLinetypeTableRecord
  2
STYLE_10
 70
               0
  3

 72
              65
 73
               6
 40
5.9375
 49
3.75
 74
               0
 49
-0.2777849999999998
 74
               0
 49
0.6944300000000003
 74
               0
 49
-0.2777849999999998
 74
               0
 49
0.625
 74
               0
 49
-0.3125
 74
               0
  0
LTYPE
  5
38
100
AcDbSymbolTableRecord
100
AcDbLinetypeTableRecord
  2
STYLE_11
 70
               0
  3

 72
              65
 73
               2
 40
0.0694444881889764
 49
0.0347222440944882
 74
               0
 49
-0.0347222440944882
 74
               0
  0
LTYPE
  5
39
100
AcDbSymbolTableRecord
100
AcDbLinetypeTableRecord
  2
STYLE_12
 70
               0
  3

 72
              65
 73
               2
 40
0.3937007874015748
 49
0.1968503937007874
 74
               0
 49
-0.1968503937007874
 74
               0
  0
LTYPE
  5
3A
100
AcDbSymbolTableRecord
100
AcDbLinetypeTableRecord
  2
STYLE_13
 70
               0
  3

 72
              65
 73
               2
 40
0.5905511811023622
 49
0.2952755905511811
 74
               0
 49
-0.2952755905511811
 74
               0
  0
LTYPE
  5
3B
100
AcDbSymbolTableRecord
100
AcDbLinetypeTableRecord
  2
STYLE_14
 70
               0
  3

 72
              65
 73
               2
 40
1.9685039370078738
 49
0.9842519685039369
 74
               0
 49
-0.9842519685039369
 74
               0
  0
ENDTAB
  0
TABLE
  2
LAYER
  5
2
100
AcDbSymbolTable
 70
               5
  0
LAYER
  5
14
100
AcDbSymbolTableRecord
100
AcDbLayerTableRecord
  2
0
 70
               0
 62
               7
  6
Continuous
290
               1
370
              -3
390
1D
  0
LAYER
  5
3C
100
AcDbSymbolTableRecord
100
AcDbLayerTableRecord
  2
Defpoints
 70
               0
 62
               7
  6
Continuous
290
               0
370
              -3
390
1D
  0
LAYER
  5
3D
100
AcDbSymbolTableRecord
100
AcDbLayerTableRecord
  2
template
 70
               0
 62
               7
  6
Continuous
290
               1
370
              -3
390
1D
  0
LAYER
  5
3E
100
AcDbSymbolTableRecord
100
AcDbLayerTableRecord
  2
notes
 70
               0
 62
               7
  6
Continuous
290
               1
370
              -3
390
1D
  0
LAYER
  5
3F
100
AcDbSymbolTableRecord
100
AcDbLayerTableRecord
  2
FAA70-0112
 70
               0
 62
               7
  6
Continuous
290
               1
370
              -3
390
1D
  0
ENDTAB
  0
TABLE
  2
STYLE
  5
3
100
AcDbSymbolTable
 70
               2
  0
STYLE
  5
17
100
AcDbSymbolTableRecord
100
AcDbTextStyleTableRecord
  2
Standard
 70
               0
 40
0.0
 41
1.0
 50
0.0
 71
               0
 42
0.0
  3
txt
  4
BIGFONT.SHX
  0
STYLE
  5
2D
100
AcDbSymbolTableRecord
100
AcDbTextStyleTableRecord
  2
ＭＳ ゴシック
 70
               0
 40
0.0
 41
1.0
 50
0.0
 71
               0
 42
0.0
  3

  4
ＭＳ ゴシック
1001
ACAD
1000
ＭＳ ゴシック
1071
        0
  0
ENDTAB
  0
TABLE
  2
VIEW
  5
5
100
AcDbSymbolTable
 70
               0
  0
ENDTAB
  0
TABLE
  2
UCS
  5
6
100
AcDbSymbolTable
 70
               0
  0
ENDTAB
  0
TABLE
  2
APPID
  5
8
100
AcDbSymbolTable
 70
               1
  0
APPID
  5
16
100
AcDbSymbolTableRecord
100
AcDbRegAppTableRecord
  2
ACAD
 70
               0
  0
ENDTAB
  0
TABLE
  2
DIMSTYLE
  5
9
100
AcDbSymbolTable
 70
               3
100
AcDbDimStyleTable
 71
               0
  0
DIMSTYLE
105
18
100
AcDbSymbolTableRecord
100
AcDbDimStyleTableRecord
  2
Standard
 70
               0
  3

  4

 40
1.0
 41
0.18
 42
0.0625
 43
0.38
 44
0.18
 45
0.0
 46
0.0
 47
0.0
 48
0.0
 71
               0
 72
               0
 73
               1
 74
               1
 75
               0
 76
               0
 77
               0
 78
               0
 79
               0
140
0.18
141
0.09
142
0.0
143
25.399999999999999
144
1.0
145
0.0
146
1.0
147
0.09
148
0.0
170
               0
171
               2
172
               0
173
               0
174
               0
175
               0
176
               0
177
               0
178
               0
179
               0
271
               4
272
               4
273
               2
274
               2
275
               0
276
               0
277
               2
278
              46
279
               0
280
               0
281
               0
282
               0
283
               1
284
               0
285
               0
286
               0
288
               0
289
               3
340
17
341
0
342
0
343
0
344
0
371
              -2
372
              -2
  0
DIMSTYLE
105
48
100
AcDbSymbolTableRecord
100
AcDbDimStyleTableRecord
  2
tfrom線あり
 70
               0
  3
<>
  4
[]
 40
1.0
 41
3.999755859375
 42
24.999999999999996
 43
0.9999999999999999
 44
0.0
 45
0.0
 46
0.0
 47
0.0
 48
0.0
 71
               0
 72
               0
 73
               0
 74
               0
 75
               0
 76
               0
 77
               1
 78
              11
 79
               0
140
24.432617187500004
141
0.0
142
0.0
143
1.0
144
1.0
145
0.0
146
1.0
147
0.4999999999999999
148
0.0
170
               0
171
               1
172
               0
173
               0
174
               1
175
               0
176
               0
177
               0
178
               0
179
               2
271
               1
272
               1
273
               2
274
               2
275
               0
276
               2
277
               2
278
              46
279
               0
280
               0
281
               0
282
               0
283
               1
284
              11
285
              11
286
              11
288
               0
289
               0
340
2D
341
40
342
40
343
0
344
0
371
              -2
372
              -2
  0
DIMSTYLE
105
4D
100
AcDbSymbolTableRecord
100
AcDbDimStyleTableRecord
  2
JIS
 70
               0
  3
<>
  4
[]
 40
1.0
 41
31.75
 42
0.0
 43
6.9999999999999396
 44
19.999999999996199
 45
0.0
 46
0.0
 47
0.0
 48
0.0
 71
               0
 72
               0
 73
               0
 74
               0
 75
               0
 76
               0
 77
               1
 78
              11
 79
               0
140
24.432617187500004
141
0.0
142
0.0
143
1.0
144
1.0
145
0.0
146
1.0
147
1.00000000000108
148
0.0
170
               0
171
               1
172
               0
173
               0
174
               1
175
               0
176
               0
177
               0
178
               0
179
               2
271
               1
272
               1
273
               2
274
               2
275
               0
276
               2
277
               2
278
              46
279
               0
280
               0
281
               0
282
               0
283
               1
284
              11
285
              11
286
              11
288
               0
289
               0
340
2D
341
49
342
49
343
0
344
0
371
              -2
372
              -2
  0
ENDTAB
  0
TABLE
  2
BLOCK_RECORD
  5
1
100
AcDbSymbolTable
 70
              12
  0
BLOCK_RECORD
  5
A
100
AcDbSymbolTableRecord
100
AcDbBlockTableRecord
  2
*MODEL_SPACE
340
20
  0
BLOCK_RECORD
  5
B
100
AcDbSymbolTableRecord
100
AcDbBlockTableRecord
  2
*PAPER_SPACE
340
21
  0
BLOCK_RECORD
  5
40
100
AcDbSymbolTableRecord
100
AcDbBlockTableRecord
  2
_DOT
340
0
  0
BLOCK_RECORD
  5
49
100
AcDbSymbolTableRecord
100
AcDbBlockTableRecord
  2
VW_FILLEDARROW
340
0
  0
BLOCK_RECORD
  5
23
100
AcDbSymbolTableRecord
100
AcDbBlockTableRecord
  2
グループ
340
0
102
{BLKREFS
331
D0
102
}
  0
BLOCK_RECORD
  5
24
100
AcDbSymbolTableRecord
100
AcDbBlockTableRecord
  2
*D3
340
0
  0
BLOCK_RECORD
  5
25
100
AcDbSymbolTableRecord
100
AcDbBlockTableRecord
  2
*D4
340
0
  0
BLOCK_RECORD
  5
26
100
AcDbSymbolTableRecord
100
AcDbBlockTableRecord
  2
*D5
340
0
  0
BLOCK_RECORD
  5
27
100
AcDbSymbolTableRecord
100
AcDbBlockTableRecord
  2
*D6
340
0
  0
BLOCK_RECORD
  5
28
100
AcDbSymbolTableRecord
100
AcDbBlockTableRecord
  2
*D7
340
0
  0
BLOCK_RECORD
  5
29
100
AcDbSymbolTableRecord
100
AcDbBlockTableRecord
  2
*D8
340
0
  0
BLOCK_RECORD
  5
2A
100
AcDbSymbolTableRecord
100
AcDbBlockTableRecord
  2
*D9
340
0
  0
BLOCK_RECORD
  5
2B
100
AcDbSymbolTableRecord
100
AcDbBlockTableRecord
  2
*D10
340
0
  0
BLOCK_RECORD
  5
2C
100
AcDbSymbolTableRecord
100
AcDbBlockTableRecord
  2
*D11
340
0
  0
ENDTAB
  0
ENDSEC
  0
SECTION
  2
BLOCKS
  0
BLOCK
  5
D
100
AcDbEntity
  8
0
390
0
100
AcDbBlockBegin
  2
*MODEL_SPACE
 70
               0
 10
0.0
 20
0.0
 30
0.0
  3
*MODEL_SPACE
  1

  0
ENDBLK
  5
E
100
AcDbEntity
  8
0
390
0
100
AcDbBlockEnd
  0
BLOCK
  5
F
100
AcDbEntity
 67
               1
  8
0
390
0
100
AcDbBlockBegin
  2
*PAPER_SPACE
 70
               0
 10
0.0
 20
0.0
 30
0.0
  3
*PAPER_SPACE
  1

  0
ENDBLK
  5
10
100
AcDbEntity
 67
               1
  8
0
390
0
100
AcDbBlockEnd
  0
BLOCK
  5
41
100
AcDbEntity
  8
0
390
0
100
AcDbBlockBegin
  2
_DOT
 70
               0
 10
0.0
 20
0.0
 30
0.0
  3
_DOT
  1

  0
POLYLINE
  5
42
100
AcDbEntity
  8
0
370
              -2
390
0
  6
ByBlock
 62
               0
100
AcDb2dPolyline
 66
               1
 10
0.0
 20
0.0
 30
0.0
 70
               1
 40
0.5
 41
0.5
  0
VERTEX
  5
43
100
AcDbEntity
  8
0
370
              -2
390
0
  6
ByBlock
 62
               0
100
AcDbVertex
100
AcDb2dVertex
 10
-0.25
 20
0.0
 30
0.0
 42
1.0
  0
VERTEX
  5
44
100
AcDbEntity
  8
0
370
              -2
390
0
  6
ByBlock
 62
               0
100
AcDbVertex
100
AcDb2dVertex
 10
0.25
 20
0.0
 30
0.0
 42
1.0
  0
SEQEND
  5
45
100
AcDbEntity
  8
0
390
0
  0
LINE
  5
46
100
AcDbEntity
  8
0
370
              -2
390
0
  6
ByBlock
 62
               0
100
AcDbLine
 10
-0.5
 20
0.0
 30
0.0
 11
-1.0
 21
0.0
 31
0.0
  0
ENDBLK
  5
47
100
AcDbEntity
  8
0
390
0
100
AcDbBlockEnd
  0
BLOCK
  5
4A
100
AcDbEntity
  8
0
370
              -2
390
0
  6
ByBlock
 62
               0
100
AcDbBlockBegin
  2
VW_FILLEDARROW
 70
               0
 10
0.0
 20
0.0
 30
0.0
  3
VW_FILLEDARROW
  1

  0
SOLID
  5
4B
100
AcDbEntity
  8
0
370
              -2
390
0
 62
               0
100
AcDbTrace
 10
0.0
 20
0.0
 30
0.0
 11
-0.9921874999999999
 21
-0.2658558393652545
 31
0.0
 12
-0.9921874999999999
 22
0.2658558393652548
 32
0.0
 13
-0.9921874999999999
 23
0.2658558393652548
 33
0.0
  0
ENDBLK
  5
4C
100
AcDbEntity
  8
0
390
0
100
AcDbBlockEnd
  0
BLOCK
  5
4E
100
AcDbEntity
  8
template
390
0
100
AcDbBlockBegin
  2
グループ
 70
               0
 10
0.0
 20
0.0
 30
0.0
  3
グループ
  1

  0
LWPOLYLINE
  5
4F
100
AcDbEntity
  8
0
370
              15
390
0
  6
Continuous
 62
               7
100
AcDbPolyline
 90
        8
 70
             129
 10
892.42850780307617
 20
-1334.4897210236859
 10
892.42850780307617
 20
-1340.4871097172618
 10
882.92731088507287
 20
-1340.4871097172618
 10
882.92731088507287
 20
-1364.9380729807706
 10
874.57193362329008
 20
-1364.9380729807706
 10
874.57193362329008
 20
-1340.4871097172618
 10
865.23897667698066
 20
-1340.4871097172618
 10
865.23897667698066
 20
-1334.4897210236859
  0
LWPOLYLINE
  5
50
100
AcDbEntity
  8
0
370
              15
390
0
  6
Continuous
 62
               7
100
AcDbPolyline
 90
      101
 70
             128
 10
905.15679963363311
 20
-1335.2179695166224
 10
905.17214966241818
 20
-1335.2136087599372
 42
-0.0222221607812481
 10
905.46215423908916
 20
-1335.1449842946927
 10
905.4779480030777
 20
-1335.1419808715966
 42
-0.0146883565588088
 10
905.74065070830693
 20
-1335.0999776846463
 42
-0.0127458844185962
 10
906.00528967545768
 20
-1335.072440716574
 10
906.06774475377279
 20
-1335.0675472939856
 42
-0.0198099018565774
 10
906.45859386324651
 20
-1335.0524621365889
 10
906.51040533269338
 20
-1335.052515912254
 42
-0.0147617382761115
 10
907.00502879367161
 20
-1335.0676359374993
 10
907.07772024853932
 20
-1335.0720085443863
 42
-0.0162624549003114
 10
907.46787387800714
 20
-1335.108241419659
 10
907.58940626926903
 20
-1335.1235279786558
 42
-0.0080020874663786
 10
907.73498530035795
 20
-1335.1442108259239
 10
907.77330477095495
 20
-1335.1502821037352
 42
-0.0053821929666184
 10
907.84178887626774
 20
-1335.1618896275565
 10
907.11538317706913
 20
-1337.3428180832705
 42
0.0108667757390338
 10
907.04806610693402
 20
-1337.3296309680497
 10
907.01059808374885
 20
-1337.3231332254561
 42
0.0170663203314851
 10
906.86738129682988
 20
-1337.303303628164
 10
906.79950596415028
 20
-1337.2962564575769
 42
0.0220162375275148
 10
906.51912655629519
 20
-1337.2795740968068
 10
906.44127098924423
 20
-1337.2783747295402
 42
0.0282606915785506
 10
906.10563466566498
 20
-1337.2921780065094
 10
906.06172139188845
 20
-1337.2964779965134
 42
0.0169677213689015
 10
905.81579689693376
 20
-1337.3290150460648
 42
0.0190576269864765
 10
905.57288893435339
 20
-1337.3791619181713
 10
905.56662974624282
 20
-1337.3807048922806
 42
0.0213685642846389
 10
905.31624526176427
 20
-1337.4539051773856
 10
905.31075536684887
 20
-1337.4557681734445
 42
0.0237595297597155
 10
905.05726048195061
 20
-1337.5554526953399
 10
905.0521584079205
 20
-1337.5577444708183
 42
0.0261857468820653
 10
904.79998763169158
 20
-1337.6872808081923
 10
904.78956144260235
 20
-1337.6933462826619
 42
0.0272553062018636
 10
904.55313166736505
 20
-1337.8487184886053
 10
904.51836865385769
 20
-1337.8743796366959
 42
0.0325996893165463
 10
904.36821331020406
 20
-1338.001127509669
 10
904.34450388107769
 20
-1338.023945538185
 42
0.0138050960646815
 10
904.25262072487089
 20
-1338.1173951997334
 42
0.0125280103803657
 10
904.16577819203997
 20
-1338.2155585263306
 10
904.14209774712901
 20
-1338.2437170245209
 42
0.020521802474163
 10
904.01699767161426
 20
-1338.4055103387516
 10
903.9945313311282
 20
-1338.437170068577
 42
0.0163110129586342
 10
903.83882095187516
 20
-1338.6725005036496
 10
903.83609705582592
 20
-1338.6769242656324
 42
0.0131897341891734
 10
903.68929653492523
 20
-1338.9300563579873
 10
903.68759643955354
 20
-1338.9331745971326
 42
0.0107895576068036
 10
903.54981973734118
 20
-1339.199389806771
 10
903.54908684781776
 20
-1339.2008840394142
 42
0.0091371507220272
 10
903.42060689917059
 20
-1339.4754092371682
 10
903.39086126775896
 20
-1339.5421157443325
 42
0.0135418326351083
 10
903.21914732868572
 20
-1339.9570535296054
 10
903.18554252025547
 20
-1340.0449196718762
 42
0.0092834542409937
 10
903.01431346033223
 20
-1340.5188181701878
 10
902.98869633261234
 20
-1340.5940592399877
 42
0.0054261043579944
 10
902.88105818432155
 20
-1340.9218232130465
 10
902.86353219812247
 20
-1340.977211375345
 42
0.0008225090814062
 10
902.79486214631413
 20
-1341.1954801334257
 10
901.81017301438067
 20
-1344.2203714266823
 10
905.04279685445454
 20
-1344.2203714266823
 10
904.53860442460109
 20
-1346.1248497250347
 10
901.28254814261777
 20
-1346.1248497250347
 10
895.45339911026394
 20
-1364.9380727910395
 10
893.62830149995364
 20
-1364.9380727910395
 10
899.46297953545456
 20
-1346.1248497250347
 10
897.05786316641422
 20
-1346.1248497250347
 10
897.56205559626767
 20
-1344.2203714266823
 10
899.99060440721769
 20
-1344.2203714266823
 10
900.85075932540633
 20
-1341.5839584259834
 42
-0.0005863560654877
 10
900.88749400355357
 20
-1341.4671320058696
 10
900.96358183727023
 20
-1341.2261397063062
 42
-0.0087522378929445
 10
901.1630499807253
 20
-1340.6308636191645
 10
901.2553142561427
 20
-1340.3707234506408
 42
-0.0077400953831172
 10
901.51324791527168
 20
-1339.6777187730986
 10
901.52901288684643
 20
-1339.6372878897232
 42
-0.008236994633286
 10
901.7760973574625
 20
-1339.0332088235168
 42
-0.0085725238365112
 10
902.04334345346547
 20
-1338.4377827842295
 10
902.14497305447469
 20
-1338.2213616822405
 42
-0.0168109410596011
 10
902.43191748320282
 20
-1337.6601541561402
 10
902.55776087368838
 20
-1337.4331901230951
 42
-0.0007817726862376
 10
902.6120452237185
 20
-1337.3356458781118
 10
902.6121735297362
 20
-1337.3354161693746
 42
-0.0036626142164797
 10
902.66706139375697
 20
-1337.2388182894067
 42
-0.0080221150675448
 10
902.72418564916381
 20
-1337.1435390546535
 10
902.75488560052486
 20
-1337.0941481055315
 42
-0.0202139325567066
 10
902.88254134033446
 20
-1336.9061665048464
 10
902.9366088055192
 20
-1336.8330876406094
 42
-0.0249323791804535
 10
903.19577159923654
 20
-1336.5170423984571
 10
903.21991141336537
 20
-1336.4904281255426
 42
-0.0242132121540217
 10
903.55959215490395
 20
-1336.1505446393417
 10
903.60750372765801
 20
-1336.1070355031525
 42
-0.0251017527858147
 10
903.89148542829867
 20
-1335.8740427573875
 10
903.89293090511342
 20
-1335.8729734998078
 42
-0.013086806903326
 10
904.19119155506974
 20
-1335.6641930312662
 10
904.19275337421004
 20
-1335.6631595909928
 42
-0.029032952638984
 10
904.50386451560576
 20
-1335.4823340893618
 10
904.53371007759563
 20
-1335.4672317065204
 42
-0.0160250190047914
 10
904.79961449135658
 20
-1335.3432155963092
 42
-0.0267600374783849
 10
905.07489056882571
 20
-1335.2424672757604
 10
905.10162648834614
 20
-1335.2342747169348
 42
-0.0049981587669901
 10
905.15679963363311
 20
-1335.2179695166224
 42
-0.0049981587669901
  0
LWPOLYLINE
  5
51
100
AcDbEntity
  8
0
370
              15
390
0
  6
Continuous
 62
               7
100
AcDbPolyline
 90
      118
 70
             128
 10
924.97116719808002
 20
-1344.2943547545096
 10
926.84628912257949
 20
-1344.2943547545096
 10
926.0082502169796
 20
-1346.9759212809097
 42
-0.0010587229280502
 10
926.03970603242374
 20
-1346.9390167477038
 10
926.09790012318354
 20
-1346.8710344913786
 42
-0.0071874740406547
 10
926.24827534128246
 20
-1346.7003937993486
 10
926.3899981145438
 20
-1346.5441576580365
 42
-0.0148118053514726
 10
926.84012740725063
 20
-1346.0765438120293
 10
926.92734974215023
 20
-1345.9911464911777
 42
-0.0086273358694512
 10
927.26289854316678
 20
-1345.6737708571534
 10
927.30673225939574
 20
-1345.6337212128176
 42
-0.0103138323116298
 10
927.56475596162613
 20
-1345.407558075482
 10
927.61053036794681
 20
-1345.3690760282273
 42
-0.0060206748571547
 10
927.78337843206543
 20
-1345.2272813774675
 10
927.78540956294728
 20
-1345.2256556718396
 42
-0.0067069027297939
 10
927.95770237761394
 20
-1345.0915050380413
 10
927.96025114354495
 20
-1345.0895748681621
 42
-0.0076184352051365
 10
928.13115640941123
 20
-1344.9641999929222
 42
-0.008965286167665
 10
928.30611737214326
 20
-1344.8445667325911
 10
928.34246909228909
 20
-1344.8206555191075
 42
-0.015691624593986
 10
928.53842858945086
 20
-1344.7003930326323
 42
-0.0023299011065881
 10
928.73869063339748
 20
-1344.5872150931098
 10
928.75407476581051
 20
-1344.5786150980266
 42
-0.0107669341482351
 10
928.98831159091537
 20
-1344.4542149646752
 10
929.01057639198666
 20
-1344.4429982147271
 42
-0.007805804589878
 10
929.29416650994301
 20
-1344.3056367590871
 10
929.30407359764854
 20
-1344.3010276312202
 42
-0.0181829330471953
 10
929.61438300226371
 20
-1344.1701638901247
 10
929.6684384448339
 20
-1344.14964877018
 42
-0.0208411536029638
 10
930.01752341228121
 20
-1344.0335583076881
 10
930.0318795124083
 20
-1344.0294398627348
 42
-0.0222799817142485
 10
930.36059930632587
 20
-1343.9507982965943
 10
930.36948826956007
 20
-1343.9490862860098
 42
-0.0215509523886278
 10
930.68595923784278
 20
-1343.9021705974747
 10
930.7284411988968
 20
-1343.8977330706832
 42
-0.0182545924865007
 10
930.96254997819688
 20
-1343.881889245293
 10
931.00195099454686
 20
-1343.8806647002139
 42
-0.0072962856536474
 10
931.15787387423393
 20
-1343.8780953716916
 10
931.18697354480764
 20
-1343.8780405362879
 42
-0.0059227516320163
 10
931.28472304395086
 20
-1343.8790142480784
 10
931.31396526151423
 20
-1343.8796520146836
 42
-0.0011833111885493
 10
931.35321654515519
 20
-1343.8806010189917
 10
930.55782994954802
 20
-1346.4193349640907
 42
0.0143932051599673
 10
930.53142856719683
 20
-1346.4091359940453
 10
930.52415659478015
 20
-1346.4065647751881
 42
0.0234388603534218
 10
930.48232572884524
 20
-1346.393945539472
 10
930.47364406593533
 20
-1346.3917645774677
 42
0.0199162742971658
 10
930.41335523185967
 20
-1346.3791478421333
 10
930.39254129404912
 20
-1346.3756506427042
 42
0.0293643550677899
 10
930.28946643528661
 20
-1346.3645005970509
 10
930.2647812545697
 20
-1346.3632889800324
 42
0.0214606686871044
 10
930.11164033861382
 20
-1346.362350419615
 10
930.10226842779923
 20
-1346.3626953311591
 42
0.0167564054177716
 10
929.93074823668678
 20
-1346.3747723735275
 10
929.92228844393185
 20
-1346.3756537139543
 42
0.0137677553238239
 10
929.73493513066865
 20
-1346.4004030224976
 10
929.72758339115921
 20
-1346.4015809424659
 42
0.0118497261486543
 10
929.52708562705152
 20
-1346.4385982926563
 10
929.52093561981064
 20
-1346.4398851553751
 42
0.0106421143889744
 10
929.31005473252662
 20
-1346.4887175309498
 10
929.30514592413658
 20
-1346.489964873635
 42
0.0099746379704818
 10
929.08668745497584
 20
-1346.5501394019493
 10
929.02513941480379
 20
-1346.5684212805804
 42
0.0191613675859051
 10
928.68915495228998
 20
-1346.6823986608667
 10
928.60109517954209
 20
-1346.7160855711916
 42
0.0205274080142259
 10
928.21578840764209
 20
-1346.881913979018
 10
928.15813912566421
 20
-1346.9095819435884
 42
0.0181256912191537
 10
927.89986218499314
 20
-1347.0452657625683
 10
927.84690680168262
 20
-1347.075583375781
 42
0.0140709242405824
 10
927.70195186705087
 20
-1347.1640780492173
 10
927.67570299842873
 20
-1347.1811348679353
 42
0.0086667884416233
 10
927.58677683688984
 20
-1347.2411375358156
 42
0.003640819202319
 10
927.49934359885367
 20
-1347.30331839361
 10
927.46411672438785
 20
-1347.3287593395207
 42
0.0052260781276823
 10
927.3078880270009
 20
-1347.444091726152
 10
927.29168117073709
 20
-1347.4563198367732
 42
0.0050024435896554
 10
927.10567782767373
 20
-1347.5996024050389
 10
927.09035967116313
 20
-1347.6116484274812
 42
0.0136138710279453
 10
926.87991840283996
 20
-1347.7866149323927
 10
926.84625052704428
 20
-1347.8161939051088
 42
0.0172815186912056
 10
926.58184698538776
 20
-1348.0651905777261
 10
926.57928463953908
 20
-1348.0677763948793
 42
0.0189403857988586
 10
926.32870284096475
 20
-1348.3405816596778
 10
926.29607134742344
 20
-1348.3789255911813
 42
0.0185044199506319
 10
926.10411490844399
 20
-1348.6221741723034
 42
0.0088565243899288
 10
925.92565480181611
 20
-1348.8756905924529
 10
925.91647682216706
 20
-1348.8892319722136
 42
0.0157195347236437
 10
925.7332562158258
 20
-1349.1787541815413
 10
925.68717327390061
 20
-1349.2569063785525
 42
0.009545187977839
 10
925.52208772376446
 20
-1349.5495010209065
 10
925.51093980483154
 20
-1349.5701716930446
 42
0.0100351706256503
 10
925.37889605567557
 20
-1349.8272272535294
 42
0.0086935915419776
 10
925.25656490388144
 20
-1350.0890603989342
 10
925.25324416246701
 20
-1350.0965027219056
 42
0.0072580174863657
 10
925.13289771052575
 20
-1350.3770947134797
 10
925.12963607721576
 20
-1350.3850147395065
 42
0.0060005122612228
 10
925.01043540887736
 20
-1350.6846244101007
 10
925.00722443053144
 20
-1350.6929859380166
 42
0.0049017786976775
 10
924.8883242716737
 20
-1351.0119149186214
 10
924.88515846528355
 20
-1351.0206678558511
 42
0.0039415167599871
 10
924.7657221872264
 20
-1351.3592099182661
 10
924.76259108457475
 20
-1351.3683131191406
 42
0.0031035838765322
 10
924.64178629888772
 20
-1351.7267529808958
 10
924.63867625435125
 20
-1351.736173602289
 42
0.0025070747152874
 10
924.51577490303737
 20
-1352.114820819228
 10
924.47848100661054
 20
-1352.2317124844858
 42
0.0029081910282688
 10
924.2864627087996
 20
-1352.8458761427771
 10
924.24565954028265
 20
-1352.9790993850534
 42
0.0009266453732116
 10
923.97724216598124
 20
-1353.8613238449329
 10
923.95635469330557
 20
-1353.930435724285
 42
-0.0005809993664755
 10
923.67901801273615
 20
-1354.8442438308516
 10
923.61273621443991
 20
-1355.0617287630878
 42
-0.0012018708163875
 10
923.46575190503404
 20
-1355.539891427532
 10
923.41343205359351
 20
-1355.7086505679949
 42
-0.0002691059603299
 10
923.36986257229989
 20
-1355.8489181887398
 10
920.53690667401065
 20
-1364.9380727910395
 10
918.71891778203212
 20
-1364.9380727910395
 10
924.97116719808002
 20
-1344.2943547545096
  0
SPLINE
  5
52
100
AcDbEntity
  8
0
370
              15
390
0
  6
Continuous
 62
               7
100
AcDbSpline
210
0.0
220
0.0
230
1.0
 70
              13
 71
               2
 72
             782
 73
             779
 74
               0
 42
0.000001
 43
0.000001
 40
0.0
 40
0.0
 40
0.0
 40
1.0
 40
1.0
 40
2.0
 40
2.0
 40
3.0
 40
3.0
 40
4.0
 40
4.0
 40
5.0
 40
5.0
 40
6.0
 40
6.0
 40
7.0
 40
7.0
 40
8.0
 40
8.0
 40
9.0
 40
9.0
 40
10.0
 40
10.0
 40
11.0
 40
11.0
 40
12.0
 40
12.0
 40
13.0
 40
13.0
 40
14.0
 40
14.0
 40
15.0
 40
15.0
 40
16.0
 40
16.0
 40
17.0
 40
17.0
 40
18.0
 40
18.0
 40
19.0
 40
19.0
 40
20.0
 40
20.0
 40
21.0
 40
21.0
 40
22.0
 40
22.0
 40
23.0
 40
23.0
 40
24.0
 40
24.0
 40
25.0
 40
25.0
 40
26.0
 40
26.0
 40
27.0
 40
27.0
 40
28.0
 40
28.0
 40
29.0
 40
29.0
 40
30.0
 40
30.0
 40
31.0
 40
31.0
 40
32.0
 40
32.0
 40
33.0
 40
33.0
 40
34.0
 40
34.0
 40
35.0
 40
35.0
 40
36.0
 40
36.0
 40
37.0
 40
37.0
 40
38.0
 40
38.0
 40
39.0
 40
39.0
 40
40.0
 40
40.0
 40
41.0
 40
41.0
 40
42.0
 40
42.0
 40
43.0
 40
43.0
 40
44.0
 40
44.0
 40
45.0
 40
45.0
 40
46.0
 40
46.0
 40
47.0
 40
47.0
 40
48.0
 40
48.0
 40
49.0
 40
49.0
 40
50.0
 40
50.0
 40
51.0
 40
51.0
 40
52.0
 40
52.0
 40
53.0
 40
53.0
 40
54.0
 40
54.0
 40
55.0
 40
55.0
 40
56.0
 40
56.0
 40
57.0
 40
57.0
 40
58.0
 40
58.0
 40
59.0
 40
59.0
 40
60.0
 40
60.0
 40
61.0
 40
61.0
 40
62.0
 40
62.0
 40
63.0
 40
63.0
 40
64.0
 40
64.0
 40
65.0
 40
65.0
 40
66.0
 40
66.0
 40
67.0
 40
67.0
 40
68.0
 40
68.0
 40
69.0
 40
69.0
 40
70.0
 40
70.0
 40
71.0
 40
71.0
 40
72.0
 40
72.0
 40
73.0
 40
73.0
 40
74.0
 40
74.0
 40
75.0
 40
75.0
 40
76.0
 40
76.0
 40
77.0
 40
77.0
 40
78.0
 40
78.0
 40
79.0
 40
79.0
 40
80.0
 40
80.0
 40
81.0
 40
81.0
 40
82.0
 40
82.0
 40
83.0
 40
83.0
 40
84.0
 40
84.0
 40
85.0
 40
85.0
 40
86.0
 40
86.0
 40
87.0
 40
87.0
 40
88.0
 40
88.0
 40
89.0
 40
89.0
 40
90.0
 40
90.0
 40
91.0
 40
91.0
 40
92.0
 40
92.0
 40
93.0
 40
93.0
 40
94.0
 40
94.0
 40
95.0
 40
95.0
 40
96.0
 40
96.0
 40
97.0
 40
97.0
 40
98.0
 40
98.0
 40
99.0
 40
99.0
 40
100.0
 40
100.0
 40
101.0
 40
101.0
 40
102.0
 40
102.0
 40
103.0
 40
103.0
 40
104.0
 40
104.0
 40
105.0
 40
105.0
 40
106.0
 40
106.0
 40
107.0
 40
107.0
 40
108.0
 40
108.0
 40
109.0
 40
109.0
 40
110.0
 40
110.0
 40
111.0
 40
111.0
 40
112.0
 40
112.0
 40
113.0
 40
113.0
 40
114.0
 40
114.0
 40
115.0
 40
115.0
 40
116.0
 40
116.0
 40
117.0
 40
117.0
 40
118.0
 40
118.0
 40
119.0
 40
119.0
 40
120.0
 40
120.0
 40
121.0
 40
121.0
 40
122.0
 40
122.0
 40
123.0
 40
123.0
 40
124.0
 40
124.0
 40
125.0
 40
125.0
 40
126.0
 40
126.0
 40
127.0
 40
127.0
 40
128.0
 40
128.0
 40
129.0
 40
129.0
 40
130.0
 40
130.0
 40
131.0
 40
131.0
 40
132.0
 40
132.0
 40
133.0
 40
133.0
 40
134.0
 40
134.0
 40
135.0
 40
135.0
 40
136.0
 40
136.0
 40
137.0
 40
137.0
 40
138.0
 40
138.0
 40
139.0
 40
139.0
 40
140.0
 40
140.0
 40
141.0
 40
141.0
 40
142.0
 40
142.0
 40
143.0
 40
143.0
 40
144.0
 40
144.0
 40
145.0
 40
145.0
 40
146.0
 40
146.0
 40
147.0
 40
147.0
 40
148.0
 40
148.0
 40
149.0
 40
149.0
 40
150.0
 40
150.0
 40
151.0
 40
151.0
 40
152.0
 40
152.0
 40
153.0
 40
153.0
 40
154.0
 40
154.0
 40
155.0
 40
155.0
 40
156.0
 40
156.0
 40
157.0
 40
157.0
 40
158.0
 40
158.0
 40
159.0
 40
159.0
 40
160.0
 40
160.0
 40
161.0
 40
161.0
 40
162.0
 40
162.0
 40
163.0
 40
163.0
 40
164.0
 40
164.0
 40
165.0
 40
165.0
 40
166.0
 40
166.0
 40
167.0
 40
167.0
 40
168.0
 40
168.0
 40
169.0
 40
169.0
 40
170.0
 40
170.0
 40
171.0
 40
171.0
 40
172.0
 40
172.0
 40
173.0
 40
173.0
 40
174.0
 40
174.0
 40
175.0
 40
175.0
 40
176.0
 40
176.0
 40
177.0
 40
177.0
 40
178.0
 40
178.0
 40
179.0
 40
179.0
 40
180.0
 40
180.0
 40
181.0
 40
181.0
 40
182.0
 40
182.0
 40
183.0
 40
183.0
 40
184.0
 40
184.0
 40
185.0
 40
185.0
 40
186.0
 40
186.0
 40
187.0
 40
187.0
 40
188.0
 40
188.0
 40
189.0
 40
189.0
 40
190.0
 40
190.0
 40
191.0
 40
191.0
 40
192.0
 40
192.0
 40
193.0
 40
193.0
 40
194.0
 40
194.0
 40
195.0
 40
195.0
 40
196.0
 40
196.0
 40
197.0
 40
197.0
 40
198.0
 40
198.0
 40
199.0
 40
199.0
 40
200.0
 40
200.0
 40
201.0
 40
201.0
 40
202.0
 40
202.0
 40
203.0
 40
203.0
 40
204.0
 40
204.0
 40
205.0
 40
205.0
 40
206.0
 40
206.0
 40
207.0
 40
207.0
 40
208.0
 40
208.0
 40
209.0
 40
209.0
 40
210.0
 40
210.0
 40
211.0
 40
211.0
 40
212.0
 40
212.0
 40
213.0
 40
213.0
 40
214.0
 40
214.0
 40
215.0
 40
215.0
 40
216.0
 40
216.0
 40
217.0
 40
217.0
 40
218.0
 40
218.0
 40
219.0
 40
219.0
 40
220.0
 40
220.0
 40
221.0
 40
221.0
 40
222.0
 40
222.0
 40
223.0
 40
223.0
 40
224.0
 40
224.0
 40
225.0
 40
225.0
 40
226.0
 40
226.0
 40
227.0
 40
227.0
 40
228.0
 40
228.0
 40
229.0
 40
229.0
 40
230.0
 40
230.0
 40
231.0
 40
231.0
 40
232.0
 40
232.0
 40
233.0
 40
233.0
 40
234.0
 40
234.0
 40
235.0
 40
235.0
 40
236.0
 40
236.0
 40
237.0
 40
237.0
 40
238.0
 40
238.0
 40
239.0
 40
239.0
 40
240.0
 40
240.0
 40
241.0
 40
241.0
 40
242.0
 40
242.0
 40
243.0
 40
243.0
 40
244.0
 40
244.0
 40
245.0
 40
245.0
 40
246.0
 40
246.0
 40
247.0
 40
247.0
 40
248.0
 40
248.0
 40
249.0
 40
249.0
 40
250.0
 40
250.0
 40
251.0
 40
251.0
 40
252.0
 40
252.0
 40
253.0
 40
253.0
 40
254.0
 40
254.0
 40
255.0
 40
255.0
 40
256.0
 40
256.0
 40
257.0
 40
257.0
 40
258.0
 40
258.0
 40
259.0
 40
259.0
 40
260.0
 40
260.0
 40
261.0
 40
261.0
 40
262.0
 40
262.0
 40
263.0
 40
263.0
 40
264.0
 40
264.0
 40
265.0
 40
265.0
 40
266.0
 40
266.0
 40
267.0
 40
267.0
 40
268.0
 40
268.0
 40
269.0
 40
269.0
 40
270.0
 40
270.0
 40
271.0
 40
271.0
 40
272.0
 40
272.0
 40
273.0
 40
273.0
 40
274.0
 40
274.0
 40
275.0
 40
275.0
 40
276.0
 40
276.0
 40
277.0
 40
277.0
 40
278.0
 40
278.0
 40
279.0
 40
279.0
 40
280.0
 40
280.0
 40
281.0
 40
281.0
 40
282.0
 40
282.0
 40
283.0
 40
283.0
 40
284.0
 40
284.0
 40
285.0
 40
285.0
 40
286.0
 40
286.0
 40
287.0
 40
287.0
 40
288.0
 40
288.0
 40
289.0
 40
289.0
 40
290.0
 40
290.0
 40
291.0
 40
291.0
 40
292.0
 40
292.0
 40
293.0
 40
293.0
 40
294.0
 40
294.0
 40
295.0
 40
295.0
 40
296.0
 40
296.0
 40
297.0
 40
297.0
 40
298.0
 40
298.0
 40
299.0
 40
299.0
 40
300.0
 40
300.0
 40
301.0
 40
301.0
 40
302.0
 40
302.0
 40
303.0
 40
303.0
 40
304.0
 40
304.0
 40
305.0
 40
305.0
 40
306.0
 40
306.0
 40
307.0
 40
307.0
 40
308.0
 40
308.0
 40
309.0
 40
309.0
 40
310.0
 40
310.0
 40
311.0
 40
311.0
 40
312.0
 40
312.0
 40
313.0
 40
313.0
 40
314.0
 40
314.0
 40
315.0
 40
315.0
 40
316.0
 40
316.0
 40
317.0
 40
317.0
 40
318.0
 40
318.0
 40
319.0
 40
319.0
 40
320.0
 40
320.0
 40
321.0
 40
321.0
 40
322.0
 40
322.0
 40
323.0
 40
323.0
 40
324.0
 40
324.0
 40
325.0
 40
325.0
 40
326.0
 40
326.0
 40
327.0
 40
327.0
 40
328.0
 40
328.0
 40
329.0
 40
329.0
 40
330.0
 40
330.0
 40
331.0
 40
331.0
 40
332.0
 40
332.0
 40
333.0
 40
333.0
 40
334.0
 40
334.0
 40
335.0
 40
335.0
 40
336.0
 40
336.0
 40
337.0
 40
337.0
 40
338.0
 40
338.0
 40
339.0
 40
339.0
 40
340.0
 40
340.0
 40
341.0
 40
341.0
 40
342.0
 40
342.0
 40
343.0
 40
343.0
 40
344.0
 40
344.0
 40
345.0
 40
345.0
 40
346.0
 40
346.0
 40
347.0
 40
347.0
 40
348.0
 40
348.0
 40
349.0
 40
349.0
 40
350.0
 40
350.0
 40
351.0
 40
351.0
 40
352.0
 40
352.0
 40
353.0
 40
353.0
 40
354.0
 40
354.0
 40
355.0
 40
355.0
 40
356.0
 40
356.0
 40
357.0
 40
357.0
 40
358.0
 40
358.0
 40
359.0
 40
359.0
 40
360.0
 40
360.0
 40
361.0
 40
361.0
 40
362.0
 40
362.0
 40
363.0
 40
363.0
 40
364.0
 40
364.0
 40
365.0
 40
365.0
 40
366.0
 40
366.0
 40
367.0
 40
367.0
 40
368.0
 40
368.0
 40
369.0
 40
369.0
 40
370.0
 40
370.0
 40
371.0
 40
371.0
 40
372.0
 40
372.0
 40
373.0
 40
373.0
 40
374.0
 40
374.0
 40
375.0
 40
375.0
 40
376.0
 40
376.0
 40
377.0
 40
377.0
 40
378.0
 40
378.0
 40
379.0
 40
379.0
 40
380.0
 40
380.0
 40
381.0
 40
381.0
 40
382.0
 40
382.0
 40
383.0
 40
383.0
 40
384.0
 40
384.0
 40
385.0
 40
385.0
 40
386.0
 40
386.0
 40
387.0
 40
387.0
 40
388.0
 40
388.0
 40
389.0
 40
389.0
 40
389.0
 10
935.29987164881265
 20
-1344.2834283911473
 30
0.0
 41
1.0
 10
936.11829575753313
 20
-1344.2834283911473
 30
0.0
 41
1.0
 10
936.93671986625361
 20
-1344.2834283911473
 30
0.0
 41
1.0
 10
936.5229661307369
 20
-1345.626054655397
 30
0.0
 41
1.0
 10
936.10921239522008
 20
-1346.9686809196467
 30
0.0
 41
1.0
 10
936.12755189040365
 20
-1346.9399801467109
 30
0.0
 41
0.9999957264331391
 10
936.14605888725146
 20
-1346.9113870965339
 30
0.0
 41
1.0
 10
936.17648821137243
 20
-1346.8643742181835
 30
0.0
 41
1.0
 10
936.2069175354934
 20
-1346.8173613398328
 30
0.0
 41
1.0
 10
936.28628318059691
 20
-1346.6947425329327
 30
0.0
 41
0.9995394069080609
 10
936.37294157214706
 20
-1346.5771644711936
 30
0.0
 41
1.0
 10
936.40869843440998
 20
-1346.5286495785958
 30
0.0
 41
1.0
 10
936.44445529667291
 20
-1346.4801346859981
 30
0.0
 41
1.0
 10
936.57818196449
 20
-1346.2986944108729
 30
0.0
 41
0.9994460617143025
 10
936.72368244577706
 20
-1346.1265520132242
 30
0.0
 41
1.0
 10
936.72807062675145
 20
-1346.1213603328424
 30
0.0
 41
1.0
 10
936.73245880772583
 20
-1346.1161686524606
 30
0.0
 41
1.0
 10
936.86918292706457
 20
-1345.9544096155753
 30
0.0
 41
0.9994359394934343
 10
937.01645715741643
 20
-1345.8021934144101
 30
0.0
 41
1.0
 10
937.0188405113729
 20
-1345.7997300840339
 30
0.0
 41
1.0
 10
937.02122386532926
 20
-1345.7972667536574
 30
0.0
 41
1.0
 10
937.16373138777146
 20
-1345.6499772132422
 30
0.0
 41
0.999529368856801
 10
937.31500306875
 20
-1345.5117040010814
 30
0.0
 41
1.0
 10
937.33429682801307
 20
-1345.4940681154303
 30
0.0
 41
1.0
 10
937.35359058727613
 20
-1345.4764322297794
 30
0.0
 41
1.0
 10
937.46627474973263
 20
-1345.3734307889167
 30
0.0
 41
0.9997087614803162
 10
937.5837976386872
 20
-1345.2759865081193
 30
0.0
 41
1.0
 10
937.60296371186314
 20
-1345.2600949296111
 30
0.0
 41
1.0
 10
937.62212978503896
 20
-1345.2442033511029
 30
0.0
 41
1.0
 10
937.70132052764598
 20
-1345.1785422273185
 30
0.0
 41
0.9999595338702291
 10
937.78167979849741
 20
-1345.1143164966666
 30
0.0
 41
1.0
 10
937.86203906935441
 20
-1345.05009076601
 30
0.0
 41
0.9999749417506082
 10
937.94329960369384
 20
-1344.9870092120668
 30
0.0
 41
1.0
 10
937.96428574986862
 20
-1344.9707179247557
 30
0.0
 41
1.0
 10
937.98527189604351
 20
-1344.9544266374444
 30
0.0
 41
1.0
 10
938.06983978133508
 20
-1344.8887776276115
 30
0.0
 41
0.9999792037116035
 10
938.15524738109843
 20
-1344.8242248459724
 30
0.0
 41
1.0
 10
938.17607220698824
 20
-1344.808485023731
 30
0.0
 41
1.0
 10
938.19689703287816
 20
-1344.7927452014897
 30
0.0
 41
1.0
 10
938.24065498081814
 20
-1344.7596720643664
 30
0.0
 41
0.9999993374096836
 10
938.28433666701108
 20
-1344.7264982689048
 30
0.0
 41
1.0
 10
938.32801835315138
 20
-1344.693324473483
 30
0.0
 41
0.999916095381679
 10
938.37254476406417
 20
-1344.6612934082896
 30
0.0
 41
1.0
 10
938.40536665148852
 20
-1344.6376822527011
 30
0.0
 41
1.0
 10
938.43818853891287
 20
-1344.6140710971126
 30
0.0
 41
1.0
 10
938.54835872467117
 20
-1344.534817720745
 30
0.0
 41
0.9980964527232134
 10
938.66744771817173
 20
-1344.4697302478889
 30
0.0
 41
1.0
 10
938.70448032509944
 20
-1344.4494902682959
 30
0.0
 41
1.0
 10
938.74151293202704
 20
-1344.4292502887031
 30
0.0
 41
1.0
 10
938.92083994530071
 20
-1344.3312400380016
 30
0.0
 41
0.9984572810573027
 10
939.1099285116602
 20
-1344.2537177766549
 30
0.0
 41
1.0
 10
939.11357478105447
 20
-1344.2522228843177
 30
0.0
 41
1.0
 10
939.11722105044862
 20
-1344.2507279919803
 30
0.0
 41
1.0
 10
939.29901707801719
 20
-1344.176195515309
 30
0.0
 41
0.9987838528033752
 10
939.48726973657836
 20
-1344.1199298751428
 30
0.0
 41
1.0
 10
939.49150768577636
 20
-1344.1186632214528
 30
0.0
 41
1.0
 10
939.49574563497436
 20
-1344.1173965677629
 30
0.0
 41
1.0
 10
939.67552239513691
 20
-1344.0636642349773
 30
0.0
 41
0.9990652816207319
 10
939.85926832685345
 20
-1344.025660555435
 30
0.0
 41
1.0
 10
939.86445672788466
 20
-1344.0245874523284
 30
0.0
 41
1.0
 10
939.86964512891586
 20
-1344.0235143492221
 30
0.0
 41
1.0
 10
940.0430142585692
 20
-1343.987656875893
 30
0.0
 41
0.999290993427049
 10
940.21859002502765
 20
-1343.9649464434265
 30
0.0
 41
1.0
 10
940.3941657914861
 20
-1343.94223601096
 30
0.0
 41
0.9994553539448604
 10
940.57085722457975
 20
-1343.9311567067537
 30
0.0
 41
1.0
 10
940.60629163237274
 20
-1343.928934818706
 30
0.0
 41
1.0
 10
940.64172604016574
 20
-1343.9267129306584
 30
0.0
 41
1.0
 10
940.80795180673738
 20
-1343.9162898682464
 30
0.0
 41
0.9990928098292622
 10
940.97446159864239
 20
-1343.920049509481
 30
0.0
 41
1.0
 10
941.0130234339174
 20
-1343.920920201014
 30
0.0
 41
1.0
 10
941.0515852691924
 20
-1343.9217908925471
 30
0.0
 41
1.0
 10
941.1409713905482
 20
-1343.9238091507157
 30
0.0
 41
0.9998382089204353
 10
941.23022707333121
 20
-1343.9290412772434
 30
0.0
 41
1.0
 10
941.23065697955087
 20
-1343.9290664781456
 30
0.0
 41
1.0
 10
941.23108688577054
 20
-1343.9290916790478
 30
0.0
 41
1.0
 10
941.31948275611705
 20
-1343.9342734037716
 30
0.0
 41
0.9997558016759356
 10
941.40756333331819
 20
-1343.943355919138
 30
0.0
 41
1.0
 10
941.4080394717497
 20
-1343.9434050166208
 30
0.0
 41
1.0
 10
941.40851561018121
 20
-1343.9434541141036
 30
0.0
 41
1.0
 10
941.4956439105207
 20
-1343.9524384345048
 30
0.0
 41
0.9996565144181299
 10
941.58218176386117
 20
-1343.9659757411937
 30
0.0
 41
1.0
 10
941.58264768923868
 20
-1343.9660486269249
 30
0.0
 41
1.0
 10
941.58311361461631
 20
-1343.9661215126564
 30
0.0
 41
1.0
 10
941.66871961720324
 20
-1343.9795130478826
 30
0.0
 41
0.9995321806866981
 10
941.75334669753113
 20
-1343.9981135363118
 30
0.0
 41
1.0
 10
941.75373589210221
 20
-1343.9981990787776
 30
0.0
 41
1.0
 10
941.7541250866733
 20
-1343.9982846212433
 30
0.0
 41
1.0
 10
941.83797377785868
 20
-1344.0167140247411
 30
0.0
 41
0.999381919921949
 10
941.92032031205531
 20
-1344.0409894080017
 30
0.0
 41
1.0
 10
941.92055874555354
 20
-1344.041059697111
 30
0.0
 41
1.0
 10
941.92079717905176
 20
-1344.0411299862205
 30
0.0
 41
1.0
 10
942.00266684625217
 20
-1344.0652647912627
 30
0.0
 41
0.9992088568505823
 10
942.08235936523977
 20
-1344.0958300270568
 30
0.0
 41
1.0
 10
942.16204035611872
 20
-1344.1263896277901
 30
0.0
 41
0.9990226101773204
 10
942.23871102602595
 20
-1344.1638670594048
 30
0.0
 41
1.0
 10
942.31537016782443
 20
-1344.2013388559583
 30
0.0
 41
0.9988424273972899
 10
942.38807379503578
 20
-1344.2460036312104
 30
0.0
 41
1.0
 10
942.3883415034154
 20
-1344.2461680952829
 30
0.0
 41
1.0
 10
942.38860921179503
 20
-1344.2463325593553
 30
0.0
 41
1.0
 10
942.46184825576609
 20
-1344.2913262627528
 30
0.0
 41
0.9986928844491771
 10
942.53011112247646
 20
-1344.3435619970328
 30
0.0
 41
1.0
 10
942.53069241469882
 20
-1344.3440068102605
 30
0.0
 41
1.0
 10
942.53127370692118
 20
-1344.3444516234881
 30
0.0
 41
1.0
 10
942.60069915807651
 20
-1344.3975769842236
 30
0.0
 41
0.9986007262278767
 10
942.66412532784329
 20
-1344.4577377539172
 30
0.0
 41
1.0
 10
942.66501974330049
 20
-1344.4585861217522
 30
0.0
 41
1.0
 10
942.66591415875769
 20
-1344.4594344895872
 30
0.0
 41
1.0
 10
942.73112915943864
 20
-1344.5212919949508
 30
0.0
 41
0.9985581491382161
 10
942.78933677114082
 20
-1344.5897844852229
 30
0.0
 41
1.0
 10
942.79859522473646
 20
-1344.6006788429245
 30
0.0
 41
1.0
 10
942.80785367833209
 20
-1344.611573200626
 30
0.0
 41
1.0
 10
942.8845781972251
 20
-1344.7018544063008
 30
0.0
 41
0.9970460233520642
 10
942.94657009838522
 20
-1344.8028214904837
 30
0.0
 41
1.0
 10
942.96103946346489
 20
-1344.8263879495651
 30
0.0
 41
1.0
 10
942.97550882854455
 20
-1344.8499544086465
 30
0.0
 41
1.0
 10
943.01524552855597
 20
-1344.9146741326767
 30
0.0
 41
0.9988468816636281
 10
943.04859189930767
 20
-1344.9829065851047
 30
0.0
 41
1.0
 10
943.05562792179933
 20
-1344.9973035062426
 30
0.0
 41
1.0
 10
943.06266394429099
 20
-1345.0117004273802
 30
0.0
 41
1.0
 10
943.08193827005914
 20
-1345.0511390375323
 30
0.0
 41
0.9998431189997552
 10
943.09980359755423
 20
-1345.0912355919731
 30
0.0
 41
1.0
 10
943.11766892503806
 20
-1345.1313321463888
 30
0.0
 41
0.9999989990032945
 10
943.13564764848331
 20
-1345.1713779840245
 30
0.0
 41
1.0
 10
943.14181996007142
 20
-1345.1851262008236
 30
0.0
 41
1.0
 10
943.14799227165963
 20
-1345.1988744176228
 30
0.0
 41
1.0
 10
943.17831561826972
 20
-1345.2664166888312
 30
0.0
 41
0.9998790356322785
 10
943.20652349841032
 20
-1345.3348694407746
 30
0.0
 41
1.0
 10
943.21335867969401
 20
-1345.3514565422006
 30
0.0
 41
1.0
 10
943.2201938609777
 20
-1345.3680436436266
 30
0.0
 41
1.0
 10
943.24375152335847
 20
-1345.4252115985134
 30
0.0
 41
0.9998227574560998
 10
943.2651402717463
 20
-1345.4832259067871
 30
0.0
 41
1.0
 10
943.28652902013653
 20
-1345.5412402150673
 30
0.0
 41
0.999679797104193
 10
943.3049553050954
 20
-1345.6002623341844
 30
0.0
 41
1.0
 10
943.30885910782058
 20
-1345.6127667923524
 30
0.0
 41
1.0
 10
943.31276291054587
 20
-1345.6252712505204
 30
0.0
 41
1.0
 10
943.33899680095624
 20
-1345.7093022859765
 30
0.0
 41
0.9979274938734318
 10
943.35422132443546
 20
-1345.7960066446369
 30
0.0
 41
1.0
 10
943.35644501169645
 20
-1345.8086706454569
 30
0.0
 41
1.0
 10
943.35866869895744
 20
-1345.8213346462769
 30
0.0
 41
1.0
 10
943.36959863865593
 20
-1345.883581153568
 30
0.0
 41
0.99949859821376
 10
943.37656680383293
 20
-1345.9463946547112
 30
0.0
 41
1.0
 10
943.3835349690097
 20
-1346.0092081558523
 30
0.0
 41
0.9996372611201844
 10
943.38711083477756
 20
-1346.0723057345344
 30
0.0
 41
1.0
 10
943.38727941226693
 20
-1346.075280351617
 30
0.0
 41
1.0
 10
943.38744798975631
 20
-1346.0782549686999
 30
0.0
 41
1.0
 10
943.39136101050258
 20
-1346.1473017815445
 30
0.0
 41
0.9997730630736003
 10
943.39232932399068
 20
-1346.2164526055763
 30
0.0
 41
1.0
 10
943.39238643040881
 20
-1346.22053078472
 30
0.0
 41
1.0
 10
943.39244353682693
 20
-1346.2246089638638
 30
0.0
 41
1.0
 10
943.39352606315117
 20
-1346.3019161461855
 30
0.0
 41
0.9998772614069608
 10
943.39218597641934
 20
-1346.3792192927531
 30
0.0
 41
1.0
 10
943.39209671322067
 20
-1346.3843684565845
 30
0.0
 41
1.0
 10
943.39200745002199
 20
-1346.389517620416
 30
0.0
 41
1.0
 10
943.39048883689281
 20
-1346.4771190946506
 30
0.0
 41
0.9999415567328266
 10
943.38707652664641
 20
-1346.5646672563362
 30
0.0
 41
1.0
 10
943.38683520597124
 20
-1346.570858716068
 30
0.0
 41
1.0
 10
943.38659388529618
 20
-1346.5770501758
 30
0.0
 41
1.0
 10
943.38269893369977
 20
-1346.6769812569473
 30
0.0
 41
0.9999716810432556
 10
943.37730035058144
 20
-1346.776842395172
 30
0.0
 41
1.0
 10
943.3740875517924
 20
-1346.8362716448339
 30
0.0
 41
1.0
 10
943.37087475300336
 20
-1346.8957008944958
 30
0.0
 41
1.0
 10
943.36280084385089
 20
-1347.0450492957743
 30
0.0
 41
0.9999819129900639
 10
943.35293105223423
 20
-1347.1942897734855
 30
0.0
 41
1.0
 10
943.34306126061767
 20
-1347.3435302511969
 30
0.0
 41
1.0
 10
943.34062194005378
 20
-1347.3807232970462
 30
0.0
 41
1.0
 10
943.36332017390589
 20
-1347.3419822996807
 30
0.0
 41
0.9999982128054116
 10
943.38616473269099
 20
-1347.3033274056725
 30
0.0
 41
1.0
 10
943.41307429255039
 20
-1347.2577941916602
 30
0.0
 41
1.0
 10
943.43998385240991
 20
-1347.2122609776482
 30
0.0
 41
1.0
 10
943.51664753093132
 20
-1347.0825396555854
 30
0.0
 41
0.9998609190058792
 10
943.59759484378981
 20
-1346.9554472736615
 30
0.0
 41
1.0
 10
943.62724316527556
 20
-1346.908897540698
 30
0.0
 41
1.0
 10
943.65689148676142
 20
-1346.8623478077343
 30
0.0
 41
1.0
 10
943.73916370699874
 20
-1346.7331752377386
 30
0.0
 41
0.9999067609730619
 10
943.82493271646217
 20
-1346.6062975482982
 30
0.0
 41
1.0
 10
943.82733741966524
 20
-1346.6027402822401
 30
0.0
 41
1.0
 10
943.82974212286831
 20
-1346.5991830161822
 30
0.0
 41
1.0
 10
943.91070172592595
 20
-1346.4794198588575
 30
0.0
 41
0.9998784952148876
 10
943.99535533560754
 20
-1346.3622386421484
 30
0.0
 41
1.0
 10
944.08000894529334
 20
-1346.245057425434
 30
0.0
 41
0.9998532968284248
 10
944.16862656612022
 20
-1346.1308445169579
 30
0.0
 41
1.0
 10
944.18858835510696
 20
-1346.1051171959434
 30
0.0
 41
1.0
 10
944.20855014409369
 20
-1346.0793898749289
 30
0.0
 41
1.0
 10
944.32703419385348
 20
-1345.9266842639595
 30
0.0
 41
0.9991551975795499
 10
944.45765864347618
 20
-1345.7842247018768
 30
0.0
 41
1.0
 10
944.46116825945705
 20
-1345.7803971002513
 30
0.0
 41
1.0
 10
944.46467787543804
 20
-1345.7765694986256
 30
0.0
 41
1.0
 10
944.58828309309934
 20
-1345.6417651397935
 30
0.0
 41
0.9997418144180962
 10
944.7178852328002
 20
-1345.5127157291809
 30
0.0
 41
1.0
 10
944.84748737250095
 20
-1345.3836663185682
 30
0.0
 41
0.9989238204633302
 10
944.98848992075079
 20
-1345.2671813565303
 30
0.0
 41
1.0
 10
945.03373759889178
 20
-1345.2298013649201
 30
0.0
 41
1.0
 10
945.07898527703287
 20
-1345.1924213733103
 30
0.0
 41
1.0
 10
945.21922533425345
 20
-1345.0765663200202
 30
0.0
 41
0.999082508409721
 10
945.36886526685635
 20
-1344.973137322188
 30
0.0
 41
1.0
 10
945.37891063090842
 20
-1344.9661941091117
 30
0.0
 41
1.0
 10
945.3889559949605
 20
-1344.9592508960357
 30
0.0
 41
1.0
 10
945.51850519945413
 20
-1344.869708324359
 30
0.0
 41
0.9998164899825671
 10
945.65138940283657
 20
-1344.7851940828386
 30
0.0
 41
1.0
 10
945.66323496336111
 20
-1344.7776603163138
 30
0.0
 41
1.0
 10
945.67508052388564
 20
-1344.7701265497892
 30
0.0
 41
1.0
 10
945.78427360621265
 20
-1344.7006798413224
 30
0.0
 41
0.9997473449131442
 10
945.89647756346221
 20
-1344.6362108835067
 30
0.0
 41
1.0
 10
946.00868152071985
 20
-1344.5717419256866
 30
0.0
 41
0.9999327861141963
 10
946.12235013148882
 20
-1344.5098919340021
 30
0.0
 41
1.0
 10
946.12290213404276
 20
-1344.5095915753268
 30
0.0
 41
1.0
 10
946.12345413659659
 20
-1344.5092912166513
 30
0.0
 41
1.0
 10
946.23822675247732
 20
-1344.4468405076136
 30
0.0
 41
0.9996956420484027
 10
946.3559400783131
 20
-1344.3901270406409
 30
0.0
 41
1.0
 10
946.3863804832132
 20
-1344.3754610639073
 30
0.0
 41
1.0
 10
946.41682088811331
 20
-1344.3607950871738
 30
0.0
 41
1.0
 10
946.51979799485321
 20
-1344.3111814287324
 30
0.0
 41
0.9998070570176417
 10
946.62464438379186
 20
-1344.2656508418322
 30
0.0
 41
1.0
 10
946.7294907727296
 20
-1344.2201202549325
 30
0.0
 41
0.9997827436148176
 10
946.83614370933572
 20
-1344.1789990836221
 30
0.0
 41
1.0
 10
946.85536655897067
 20
-1344.1715875099885
 30
0.0
 41
1.0
 10
946.87458940860552
 20
-1344.1641759363547
 30
0.0
 41
1.0
 10
947.01968804447779
 20
-1344.1082316177781
 30
0.0
 41
0.9988031841976109
 10
947.16955840708272
 20
-1344.0667315536105
 30
0.0
 41
1.0
 10
947.19447565544624
 20
-1344.0598318078034
 30
0.0
 41
1.0
 10
947.21939290380988
 20
-1344.0529320619964
 30
0.0
 41
1.0
 10
947.38666292945697
 20
-1344.0066139195897
 30
0.0
 41
0.9984748040549847
 10
947.55801983810545
 20
-1343.9790196873248
 30
0.0
 41
1.0
 10
947.56275897435455
 20
-1343.9782565268115
 30
0.0
 41
1.0
 10
947.56749811060365
 20
-1343.9774933662979
 30
0.0
 41
1.0
 10
947.7293767467545
 20
-1343.95142545506
 30
0.0
 41
0.9984436495479817
 10
947.89315149047911
 20
-1343.9435475012413
 30
0.0
 41
1.0
 10
947.91484869861119
 20
-1343.9425038140416
 30
0.0
 41
1.0
 10
947.93654590674328
 20
-1343.9414601268418
 30
0.0
 41
1.0
 10
948.05692623420452
 20
-1343.9356695474225
 30
0.0
 41
0.9987954789335725
 10
948.1772944791137
 20
-1343.9417060751648
 30
0.0
 41
1.0
 10
948.19725927160516
 20
-1343.9427073195034
 30
0.0
 41
1.0
 10
948.21722406409663
 20
-1343.9437085638417
 30
0.0
 41
1.0
 10
948.29766272402037
 20
-1343.9477426029068
 30
0.0
 41
0.9997941595877142
 10
948.37787150211796
 20
-1343.9550366688281
 30
0.0
 41
1.0
 10
948.45808028021213
 20
-1343.9623307347492
 30
0.0
 41
0.9998589466236855
 10
948.53799882706687
 20
-1343.9723145891992
 30
0.0
 41
1.0
 10
948.57040502887537
 20
-1343.9763629461186
 30
0.0
 41
1.0
 10
948.60281123068387
 20
-1343.9804113030377
 30
0.0
 41
1.0
 10
948.74754218115595
 20
-1343.9984918713265
 30
0.0
 41
0.9993495063249307
 10
948.89059342492249
 20
-1344.026957581068
 30
0.0
 41
1.0
 10
948.92352712207537
 20
-1344.0335110442829
 30
0.0
 41
1.0
 10
948.95646081922825
 20
-1344.0400645074981
 30
0.0
 41
1.0
 10
949.06575464243122
 20
-1344.0618128416334
 30
0.0
 41
0.9996788715561374
 10
949.17380621438599
 20
-1344.0890706409959
 30
0.0
 41
1.0
 10
949.17586921692248
 20
-1344.0895910675681
 30
0.0
 41
1.0
 10
949.17793221945897
 20
-1344.0901114941405
 30
0.0
 41
1.0
 10
949.28185778633963
 20
-1344.1163284403581
 30
0.0
 41
0.9995480654492809
 10
949.38402002157181
 20
-1344.1487433969833
 30
0.0
 41
1.0
 10
949.38570966370196
 20
-1344.1492795018976
 30
0.0
 41
1.0
 10
949.3873993058321
 20
-1344.1498156068119
 30
0.0
 41
1.0
 10
949.48618225680161
 20
-1344.181158353608
 30
0.0
 41
0.9993867959456216
 10
949.58252941524381
 20
-1344.2193377228975
 30
0.0
 41
1.0
 10
949.58377236432887
 20
-1344.2198302647939
 30
0.0
 41
1.0
 10
949.58501531341392
 20
-1344.2203228066903
 30
0.0
 41
1.0
 10
949.67887657368681
 20
-1344.2575170921875
 30
0.0
 41
0.999205025652157
 10
949.76947624871968
 20
-1344.302070991426
 30
0.0
 41
1.0
 10
949.77021093143208
 20
-1344.3024322838869
 30
0.0
 41
1.0
 10
949.77094561414435
 20
-1344.3027935763475
 30
0.0
 41
1.0
 10
949.86007592375313
 20
-1344.3466248906648
 30
0.0
 41
0.9990222350742023
 10
949.94498598514679
 20
-1344.398158158363
 30
0.0
 41
1.0
 10
949.94516987042948
 20
-1344.3982697612678
 30
0.0
 41
1.0
 10
949.94535375571206
 20
-1344.3983813641726
 30
0.0
 41
1.0
 10
950.02989604653987
 20
-1344.449691426061
 30
0.0
 41
0.9988642743805279
 10
950.10917058115933
 20
-1344.5088156135866
 30
0.0
 41
1.0
 10
950.18844511577777
 20
-1344.5679398011114
 30
0.0
 41
0.9987681233310565
 10
950.26146890005464
 20
-1344.6346304925128
 30
0.0
 41
1.0
 10
950.26179782802046
 20
-1344.634930893727
 30
0.0
 41
1.0
 10
950.26212675598617
 20
-1344.6352312949411
 30
0.0
 41
1.0
 10
950.33580839619299
 20
-1344.7025227887691
 30
0.0
 41
0.9987496570897575
 10
950.4024022015202
 20
-1344.776835602856
 30
0.0
 41
1.0
 10
950.40317437128101
 20
-1344.7776972762144
 30
0.0
 41
1.0
 10
950.40394654104193
 20
-1344.7785589495727
 30
0.0
 41
1.0
 10
950.47208468589031
 20
-1344.8545951103754
 30
0.0
 41
0.9988147669826718
 10
950.53250694011433
 20
-1344.9368961172167
 30
0.0
 41
1.0
 10
950.53362626619241
 20
-1344.9384207485696
 30
0.0
 41
1.0
 10
950.5347455922705
 20
-1344.9399453799226
 30
0.0
 41
1.0
 10
950.59740649865091
 20
-1345.0252956494703
 30
0.0
 41
0.9989452636216504
 10
950.65197341161343
 20
-1345.1160343386298
 30
0.0
 41
1.0
 10
950.65332213769852
 20
-1345.118277119655
 30
0.0
 41
1.0
 10
950.65467086378362
 20
-1345.1205199006804
 30
0.0
 41
1.0
 10
950.71193522891622
 20
-1345.21574415189
 30
0.0
 41
0.9991046436070094
 10
950.76094444223759
 20
-1345.3154685849152
 30
0.0
 41
1.0
 10
950.76240830382778
 20
-1345.3184472649882
 30
0.0
 41
1.0
 10
950.76387216541798
 20
-1345.321425945061
 30
0.0
 41
1.0
 10
950.81580910191985
 20
-1345.4271077382321
 30
0.0
 41
0.999276383110163
 10
950.85956223047538
 20
-1345.5364318001887
 30
0.0
 41
1.0
 10
950.86104150013841
 20
-1345.5401279877215
 30
0.0
 41
1.0
 10
950.86252076980145
 20
-1345.5438241752545
 30
0.0
 41
1.0
 10
950.9092324376835
 20
-1345.6605406122785
 30
0.0
 41
0.999416347288363
 10
950.94786546887349
 20
-1345.7801742007432
 30
0.0
 41
1.0
 10
950.94910362111978
 20
-1345.7840083445244
 30
0.0
 41
1.0
 10
950.95034177336595
 20
-1345.7878424883058
 30
0.0
 41
1.0
 10
950.99022533438404
 20
-1345.9113485497869
 30
0.0
 41
0.9997268055891132
 10
951.02429339029572
 20
-1346.0365835817363
 30
0.0
 41
1.0
 10
951.02522357056455
 20
-1346.0400029478426
 30
0.0
 41
1.0
 10
951.02615375083349
 20
-1346.0434223139489
 30
0.0
 41
1.0
 10
951.05836144620753
 20
-1346.1618186136861
 30
0.0
 41
0.9996701319000256
 10
951.08444706297814
 20
-1346.2817125669503
 30
0.0
 41
1.0
 10
951.11053267974876
 20
-1346.4016065202136
 30
0.0
 41
0.9995785451108913
 10
951.1296162570884
 20
-1346.5228122812455
 30
0.0
 41
1.0
 10
951.13383603926218
 20
-1346.5496134360108
 30
0.0
 41
1.0
 10
951.13805582143596
 20
-1346.576414590776
 30
0.0
 41
1.0
 10
951.16463079737434
 20
-1346.7452005644784
 30
0.0
 41
0.9979925101216953
 10
951.16965638330078
 20
-1346.9159918925702
 30
0.0
 41
1.0
 10
951.17048119572542
 20
-1346.9440226160468
 30
0.0
 41
1.0
 10
951.17130600814994
 20
-1346.9720533395234
 30
0.0
 41
1.0
 10
951.17468196922744
 20
-1347.0867832206548
 30
0.0
 41
0.9995314902262703
 10
951.17103177708861
 20
-1347.2015047044138
 30
0.0
 41
1.0
 10
951.16738158495048
 20
-1347.3162261881623
 30
0.0
 41
0.9996245486943819
 10
951.15745248981943
 20
-1347.4305754592879
 30
0.0
 41
1.0
 10
951.15728944182513
 20
-1347.4324532154242
 30
0.0
 41
1.0
 10
951.15712639383082
 20
-1347.4343309715603
 30
0.0
 41
1.0
 10
951.14687120271174
 20
-1347.5524357549525
 30
0.0
 41
0.9997286095000547
 10
951.13112587914009
 20
-1347.6699346638484
 30
0.0
 41
1.0
 10
951.13073238648963
 20
-1347.6728710885509
 30
0.0
 41
1.0
 10
951.13033889383928
 20
-1347.6758075132532
 30
0.0
 41
1.0
 10
951.11380658496796
 20
-1347.7991792715477
 30
0.0
 41
0.9998265533969525
 10
951.09269112623588
 20
-1347.9218497463316
 30
0.0
 41
1.0
 10
951.09201458409802
 20
-1347.9257801248434
 30
0.0
 41
1.0
 10
951.09133804196017
 20
-1347.9297105033552
 30
0.0
 41
1.0
 10
951.06886949895409
 20
-1348.0602417351547
 30
0.0
 41
0.9999022530854818
 10
951.04276003434529
 20
-1348.1900937037874
 30
0.0
 41
1.0
 10
951.04178139317901
 20
-1348.1949608461796
 30
0.0
 41
1.0
 10
951.04080275201261
 20
-1348.1998279885715
 30
0.0
 41
1.0
 10
951.01273600507204
 20
-1348.3394142419843
 30
0.0
 41
0.9999524761934757
 10
950.98195303623731
 20
-1348.4784267351481
 30
0.0
 41
1.0
 10
950.9806769290617
 20
-1348.4841894944511
 30
0.0
 41
1.0
 10
950.9794008218862
 20
-1348.4899522537539
 30
0.0
 41
1.0
 10
950.94606563870184
 20
-1348.640490265517
 30
0.0
 41
0.9999813588729976
 10
950.91089463791138
 20
-1348.7906099781508
 30
0.0
 41
1.0
 10
950.90934071245147
 20
-1348.7972425685873
 30
0.0
 41
1.0
 10
950.90778678699166
 20
-1348.8038751590238
 30
0.0
 41
1.0
 10
950.86950793527603
 20
-1348.9672600525523
 30
0.0
 41
0.9999955237723511
 10
950.83025205728882
 20
-1349.1304129561872
 30
0.0
 41
1.0
 10
950.81797042166113
 20
-1349.1814571466821
 30
0.0
 41
1.0
 10
950.80568878603344
 20
-1349.2325013371772
 30
0.0
 41
1.0
 10
950.74186963677971
 20
-1349.4977426218484
 30
0.0
 41
0.9999993604664136
 10
950.67745068960107
 20
-1349.7628388725761
 30
0.0
 41
1.0
 10
950.67273185406157
 20
-1349.7822577805853
 30
0.0
 41
1.0
 10
950.66801301852217
 20
-1349.8016766885944
 30
0.0
 41
1.0
 10
950.59415640026191
 20
-1350.1056107553534
 30
0.0
 41
0.9999659914718025
 10
950.51529680437659
 20
-1350.4082853019122
 30
0.0
 41
1.0
 10
950.51034411544583
 20
-1350.427294439095
 30
0.0
 41
1.0
 10
950.50539142651519
 20
-1350.4463035762776
 30
0.0
 41
1.0
 10
950.41662645276756
 20
-1350.7869963972048
 30
0.0
 41
0.9999441976028327
 10
950.3206834198013
 20
-1351.1257378225137
 30
0.0
 41
1.0
 10
950.30398290137828
 20
-1351.1847015350324
 30
0.0
 41
1.0
 10
950.28728238295525
 20
-1351.2436652475512
 30
0.0
 41
1.0
 10
950.15793831314295
 20
-1351.7003340978977
 30
0.0
 41
0.9999625120732902
 10
950.02070554582554
 20
-1352.1546946318738
 30
0.0
 41
1.0
 10
949.98491560274169
 20
-1352.2731906585041
 30
0.0
 41
1.0
 10
949.94912565965774
 20
-1352.3916866851341
 30
0.0
 41
1.0
 10
949.87460545561385
 20
-1352.638413763246
 30
0.0
 41
0.999979338631184
 10
949.79691943247258
 20
-1352.8841624024938
 30
0.0
 41
1.0
 10
949.71923340933506
 20
-1353.1299110417299
 30
0.0
 41
1.0
 10
949.70845385046437
 20
-1353.1639289461045
 30
0.0
 41
1.0
 10
947.85808079719527
 20
-1359.0510008685719
 30
0.0
 41
1.0
 10
946.00770774392606
 20
-1364.9380727910395
 30
0.0
 41
1.0
 10
945.0464510539025
 20
-1364.9380727910395
 30
0.0
 41
1.0
 10
944.08519436387894
 20
-1364.9380727910395
 30
0.0
 41
1.0
 10
945.70413914255732
 20
-1359.7900442892501
 30
0.0
 41
1.0
 10
947.32308392123582
 20
-1354.6420157874607
 30
0.0
 41
1.0
 10
947.36824974440799
 20
-1354.4979845651976
 30
0.0
 41
1.0
 10
947.41341556758016
 20
-1354.3539533429346
 30
0.0
 41
1.0
 10
947.58371998494567
 20
-1353.8108623137632
 30
0.0
 41
0.9999911657908701
 10
947.74945279662734
 20
-1353.2663587823947
 30
0.0
 41
1.0
 10
947.77914874012026
 20
-1353.1687948423689
 30
0.0
 41
1.0
 10
947.8088446836133
 20
-1353.0712309023431
 30
0.0
 41
1.0
 10
947.91518560830559
 20
-1352.7218552510371
 30
0.0
 41
0.9999952428195194
 10
948.01936919763261
 20
-1352.3718302266816
 30
0.0
 41
1.0
 10
948.02442866796741
 20
-1352.3548319523984
 30
0.0
 41
1.0
 10
948.02948813830233
 20
-1352.3378336781152
 30
0.0
 41
1.0
 10
948.12355278695759
 20
-1352.0218052023315
 30
0.0
 41
0.9999931687504015
 10
948.21527862483117
 20
-1351.7050899890614
 30
0.0
 41
1.0
 10
948.22021388928943
 20
-1351.688049279795
 30
0.0
 41
1.0
 10
948.22514915374757
 20
-1351.6710085705286
 30
0.0
 41
1.0
 10
948.3070044627043
 20
-1351.3883747757927
 30
0.0
 41
0.9999893840801502
 10
948.38625168916167
 20
-1351.1049986465443
 30
0.0
 41
1.0
 10
948.46549891562336
 20
-1350.8216225172805
 30
0.0
 41
0.9999833980072438
 10
948.54147515636703
 20
-1350.5373519342443
 30
0.0
 41
1.0
 10
948.55047909308632
 20
-1350.503663055777
 30
0.0
 41
1.0
 10
948.55948302980551
 20
-1350.46997417731
 30
0.0
 41
1.0
 10
948.62844757867288
 20
-1350.2119383450095
 30
0.0
 41
0.9999233658069667
 10
948.691002549892
 20
-1349.9522741862913
 30
0.0
 41
1.0
 10
948.75355752111227
 20
-1349.6926100275689
 30
0.0
 41
1.0
 10
948.79304093996984
 20
-1349.5288033631427
 30
0.0
 41
1.0
 10
948.79801954394702
 20
-1349.508148401273
 30
0.0
 41
1.0
 10
948.80299814792409
 20
-1349.4874934394034
 30
0.0
 41
1.0
 10
948.83252435882798
 20
-1349.3649966987148
 30
0.0
 41
0.9999868670849972
 10
948.86079344282359
 20
-1349.2422037530712
 30
0.0
 41
1.0
 10
948.86469092998004
 20
-1349.2252741656598
 30
0.0
 41
1.0
 10
948.86858841713649
 20
-1349.2083445782482
 30
0.0
 41
1.0
 10
948.88906252681579
 20
-1349.1194108074424
 30
0.0
 41
0.9999778173358082
 10
948.90835012493517
 20
-1349.0302121901952
 30
0.0
 41
1.0
 10
948.92763772305261
 20
-1348.9410135729549
 30
0.0
 41
0.999960269286629
 10
948.94533208168389
 20
-1348.8514852845262
 30
0.0
 41
1.0
 10
948.94853591376022
 20
-1348.8352748296466
 30
0.0
 41
1.0
 10
948.95173974583668
 20
-1348.8190643747671
 30
0.0
 41
1.0
 10
948.97584176862256
 20
-1348.6971151765692
 30
0.0
 41
0.9995617985320661
 10
948.99268511584194
 20
-1348.5739534288598
 30
0.0
 41
1.0
 10
948.99514960574788
 20
-1348.5559326114958
 30
0.0
 41
1.0
 10
948.99761409565383
 20
-1348.537911794132
 30
0.0
 41
1.0
 10
949.01789735670206
 20
-1348.3895967444328
 30
0.0
 41
0.9991121410639239
 10
949.02562271029046
 20
-1348.2401006456248
 30
0.0
 41
1.0
 10
949.02654150031526
 20
-1348.2223208090447
 30
0.0
 41
1.0
 10
949.02746029033995
 20
-1348.2045409724647
 30
0.0
 41
1.0
 10
949.03334806387875
 20
-1348.0906045468159
 30
0.0
 41
0.9989792494905346
 10
949.02892897176139
 20
-1347.97660171092
 30
0.0
 41
1.0
 10
949.02828099989279
 20
-1347.9598854649958
 30
0.0
 41
1.0
 10
949.0276330280243
 20
-1347.9431692190715
 30
0.0
 41
1.0
 10
949.02450987964392
 20
-1347.8625988750218
 30
0.0
 41
0.9997820295393349
 10
949.01802588226838
 20
-1347.7822291532777
 30
0.0
 41
1.0
 10
949.01154188489272
 20
-1347.7018594315332
 30
0.0
 41
0.9998335105974823
 10
949.00212968938081
 20
-1347.6217798150824
 30
0.0
 41
1.0
 10
949.00053476470453
 20
-1347.6082100845999
 30
0.0
 41
1.0
 10
948.99893984002824
 20
-1347.5946403541175
 30
0.0
 41
1.0
 10
948.9863377951641
 20
-1347.4874212767027
 30
0.0
 41
0.9996876457879532
 10
948.96839388236594
 20
-1347.3809658489879
 30
0.0
 41
1.0
 10
948.96616221921977
 20
-1347.3677261137411
 30
0.0
 41
1.0
 10
948.96393055607371
 20
-1347.3544863784944
 30
0.0
 41
1.0
 10
948.95013473465292
 20
-1347.2726402345377
 30
0.0
 41
0.999554749649463
 10
948.93148141276129
 20
-1347.1917627373523
 30
0.0
 41
1.0
 10
948.93110745588956
 20
-1347.1901413266453
 30
0.0
 41
1.0
 10
948.93073349901795
 20
-1347.1885199159383
 30
0.0
 41
1.0
 10
948.91282809086783
 20
-1347.1108852401578
 30
0.0
 41
0.9994899427175077
 10
948.89000318218928
 20
-1347.0345519573266
 30
0.0
 41
1.0
 10
948.88954465544839
 20
-1347.0330185075372
 30
0.0
 41
1.0
 10
948.88908612870739
 20
-1347.0314850577481
 30
0.0
 41
1.0
 10
948.86717827351026
 20
-1346.9582186744935
 30
0.0
 41
0.9993784877591352
 10
948.8401626384034
 20
-1346.8866779693333
 30
0.0
 41
1.0
 10
948.83963094742683
 20
-1346.8852699866136
 30
0.0
 41
1.0
 10
948.83909925645025
 20
-1346.8838620038939
 30
0.0
 41
1.0
 10
948.81314700329699
 20
-1346.8151372641748
 30
0.0
 41
0.9992430832254626
 10
948.78193046813749
 20
-1346.7486381121059
 30
0.0
 41
1.0
 10
948.78134835208061
 20
-1346.747398056988
 30
0.0
 41
1.0
 10
948.78076623602385
 20
-1346.7461580018703
 30
0.0
 41
1.0
 10
948.75071393297742
 20
-1346.6821389600361
 30
0.0
 41
0.9990789632798219
 10
948.7152833062014
 20
-1346.6209323482881
 30
0.0
 41
1.0
 10
948.71468760001983
 20
-1346.6199032624295
 30
0.0
 41
1.0
 10
948.71409189383826
 20
-1346.6188741765711
 30
0.0
 41
1.0
 10
948.67985267942481
 20
-1346.5597257365389
 30
0.0
 41
0.9988874801121521
 10
948.64019340339269
 20
-1346.5040660241207
 30
0.0
 41
1.0
 10
948.6396378773286
 20
-1346.5032863724459
 30
0.0
 41
1.0
 10
948.63908235126439
 20
-1346.5025067207714
 30
0.0
 41
1.0
 10
948.60053412736124
 20
-1346.4484063117036
 30
0.0
 41
0.9986762060693
 10
948.55663165608439
 20
-1346.3985525972635
 30
0.0
 41
1.0
 10
948.55618769575244
 20
-1346.398048455447
 30
0.0
 41
1.0
 10
948.55574373542038
 20
-1346.3975443136305
 30
0.0
 41
1.0
 10
948.51272918480788
 20
-1346.348698882824
 30
0.0
 41
0.9984621642488062
 10
948.4645716280304
 20
-1346.3049155823533
 30
0.0
 41
1.0
 10
948.4643249935134
 20
-1346.3046913501894
 30
0.0
 41
1.0
 10
948.4640783589964
 20
-1346.3044671180255
 30
0.0
 41
1.0
 10
948.41641407125246
 20
-1346.2611322818818
 30
0.0
 41
0.9982724693850524
 10
948.36399543941116
 20
-1346.2236879313646
 30
0.0
 41
1.0
 10
948.31157680756996
 20
-1346.1862435808468
 30
0.0
 41
0.9981399180157274
 10
948.25499074417644
 20
-1346.1554570614035
 30
0.0
 41
1.0
 10
948.25494508209795
 20
-1346.1554322182462
 30
0.0
 41
1.0
 10
948.25489942001946
 20
-1346.155407375089
 30
0.0
 41
1.0
 10
948.19822203246952
 20
-1346.1245711693314
 30
0.0
 41
0.9980927086836916
 10
948.1381766814028
 20
-1346.1009543604787
 30
0.0
 41
1.0
 10
948.13773651169117
 20
-1346.1007812346038
 30
0.0
 41
1.0
 10
948.13729634197944
 20
-1346.1006081087287
 30
0.0
 41
1.0
 10
948.07637065149038
 20
-1346.0766450481265
 30
0.0
 41
0.9981411356562783
 10
948.01298213009159
 20
-1346.0602724066209
 30
0.0
 41
1.0
 10
948.0121000133895
 20
-1346.0600445644154
 30
0.0
 41
1.0
 10
948.01121789668741
 20
-1346.0598167222097
 30
0.0
 41
1.0
 10
947.94606514188501
 20
-1346.0429883962931
 30
0.0
 41
0.9983031812935185
 10
947.87939771289018
 20
-1346.0338490351169
 30
0.0
 41
1.0
 10
947.87052668748515
 20
-1346.0326329164454
 30
0.0
 41
1.0
 10
947.86165566208001
 20
-1346.031416797774
 30
0.0
 41
1.0
 10
947.80730601957725
 20
-1346.023966067783
 30
0.0
 41
0.9983887708262845
 10
947.75246217028564
 20
-1346.0227213941498
 30
0.0
 41
1.0
 10
947.74439876507438
 20
-1346.0225383962752
 30
0.0
 41
1.0
 10
947.73633535986312
 20
-1346.0223553984004
 30
0.0
 41
1.0
 10
947.69761832099891
 20
-1346.0214767205168
 30
0.0
 41
0.9998869563080178
 10
947.65889236779014
 20
-1346.0217625898763
 30
0.0
 41
1.0
 10
947.6201664145691
 20
-1346.0220484592362
 30
0.0
 41
0.9999972320168414
 10
947.58144223533952
 20
-1346.0225165587653
 30
0.0
 41
1.0
 10
947.56208921877806
 20
-1346.0227504988545
 30
0.0
 41
1.0
 10
947.5427362022167
 20
-1346.0229844389437
 30
0.0
 41
1.0
 10
947.46530598984543
 20
-1346.0239204186516
 30
0.0
 41
0.9997304945088016
 10
947.38800268360706
 20
-1346.0284495124379
 30
0.0
 41
1.0
 10
947.37895304190351
 20
-1346.0289797184278
 30
0.0
 41
1.0
 10
947.36990340019986
 20
-1346.0295099244177
 30
0.0
 41
1.0
 10
947.27450081055645
 20
-1346.0350994301832
 30
0.0
 41
0.9997888306416138
 10
947.17940847471652
 20
-1346.044604394672
 30
0.0
 41
1.0
 10
947.17068741314108
 20
-1346.0454761093042
 30
0.0
 41
1.0
 10
947.16196635156564
 20
-1346.0463478239367
 30
0.0
 41
1.0
 10
947.04943189257847
 20
-1346.0575962176899
 30
0.0
 41
0.9984170238191186
 10
946.93887274522808
 20
-1346.0814122996255
 30
0.0
 41
1.0
 10
946.90249161424117
 20
-1346.0892493354318
 30
0.0
 41
1.0
 10
946.86611048325415
 20
-1346.097086371238
 30
0.0
 41
1.0
 10
946.75091941483254
 20
-1346.1219002377477
 30
0.0
 41
0.9976592854199413
 10
946.64019124842685
 20
-1346.1621989148948
 30
0.0
 41
1.0
 10
946.52946308202411
 20
-1346.2024975920413
 30
0.0
 41
0.9993255074352478
 10
946.42199128323443
 20
-1346.250814490533
 30
0.0
 41
1.0
 10
946.41736610430939
 20
-1346.2528938667333
 30
0.0
 41
1.0
 10
946.41274092538447
 20
-1346.2549732429338
 30
0.0
 41
1.0
 10
946.29601876874744
 20
-1346.3074488938259
 30
0.0
 41
0.9976475078275431
 10
946.18757142443724
 20
-1346.375396883484
 30
0.0
 41
1.0
 10
946.16922903030172
 20
-1346.3868893622989
 30
0.0
 41
1.0
 10
946.15088663616632
 20
-1346.3983818411139
 30
0.0
 41
1.0
 10
946.06668444461525
 20
-1346.4511389618815
 30
0.0
 41
0.9995131336407033
 10
945.98593672965751
 20
-1346.5090451738349
 30
0.0
 41
1.0
 10
945.90518901469841
 20
-1346.5669513857895
 30
0.0
 41
0.9995810107605602
 10
945.82792736696933
 20
-1346.6294330682558
 30
0.0
 41
1.0
 10
945.82495733576025
 20
-1346.6318349397195
 30
0.0
 41
1.0
 10
945.82198730455116
 20
-1346.6342368111832
 30
0.0
 41
1.0
 10
945.73878559440504
 20
-1346.7015222365758
 30
0.0
 41
0.9996617837955211
 10
945.65919490727197
 20
-1346.7730426921335
 30
0.0
 41
1.0
 10
945.64706415639705
 20
-1346.7839434251223
 30
0.0
 41
1.0
 10
945.63493340552213
 20
-1346.7948441581111
 30
0.0
 41
1.0
 10
945.56665787811983
 20
-1346.8561967735886
 30
0.0
 41
0.9997267750053651
 10
945.50132436983176
 20
-1346.9206733101178
 30
0.0
 41
1.0
 10
945.43599086154188
 20
-1346.9851498466492
 30
0.0
 41
0.9999667288962382
 10
945.37171791838864
 20
-1347.0506836535505
 30
0.0
 41
1.0
 10
945.3028904706199
 20
-1347.1208613123024
 30
0.0
 41
1.0
 10
945.23406302285116
 20
-1347.1910389710542
 30
0.0
 41
1.0
 10
945.03213518415328
 20
-1347.3969280954659
 30
0.0
 41
0.9988205335174749
 10
944.85112956717285
 20
-1347.6214323275281
 30
0.0
 41
1.0
 10
944.82048960226916
 20
-1347.6594355779566
 30
0.0
 41
1.0
 10
944.78984963736548
 20
-1347.6974388283854
 30
0.0
 41
1.0
 10
944.54756409057563
 20
-1347.997949561307
 30
0.0
 41
0.9997077826754872
 10
944.32008613947198
 20
-1348.3098193555213
 30
0.0
 41
1.0
 10
944.31836272434111
 20
-1348.3121821389013
 30
0.0
 41
1.0
 10
944.31663930921036
 20
-1348.3145449222814
 30
0.0
 41
1.0
 10
944.08571452784349
 20
-1348.6311402832578
 30
0.0
 41
0.998914756707878
 10
943.88525102495919
 20
-1348.9678497444443
 30
0.0
 41
1.0
 10
943.8605098796545
 20
-1349.0094063249928
 30
0.0
 41
1.0
 10
943.8357687343497
 20
-1349.0509629055414
 30
0.0
 41
1.0
 10
943.68055743571176
 20
-1349.3116642899952
 30
0.0
 41
0.9997476598181413
 10
943.53721244819985
 20
-1349.5790740385817
 30
0.0
 41
1.0
 10
943.3938674606901
 20
-1349.8464837871643
 30
0.0
 41
0.999625896711031
 10
943.26535920875835
 20
-1350.1213317237887
 30
0.0
 41
1.0
 10
943.25215929930755
 20
-1350.1495631238868
 30
0.0
 41
1.0
 10
943.23895938985663
 20
-1350.1777945239846
 30
0.0
 41
1.0
 10
943.09875066885706
 20
-1350.4776669219375
 30
0.0
 41
0.9998735413944682
 10
942.96814932213874
 20
-1350.7818465214004
 30
0.0
 41
1.0
 10
942.96470649407843
 20
-1350.7898651068647
 30
0.0
 41
1.0
 10
942.96126366601811
 20
-1350.7978836923289
 30
0.0
 41
1.0
 10
942.83754797541883
 20
-1351.0860261208672
 30
0.0
 41
0.9999377418857913
 10
942.72029317324359
 20
-1351.3768575885433
 30
0.0
 41
1.0
 10
942.60303837106619
 20
-1351.6676890562246
 30
0.0
 41
0.9999508299509533
 10
942.49157442768819
 20
-1351.9607887330483
 30
0.0
 41
1.0
 10
942.4884936590272
 20
-1351.9688897590081
 30
0.0
 41
1.0
 10
942.48541289036621
 20
-1351.9769907849682
 30
0.0
 41
1.0
 10
942.36778740966065
 20
-1352.2862925137256
 30
0.0
 41
0.9999609228437707
 10
942.25564880678724
 20
-1352.5976255297401
 30
0.0
 41
1.0
 10
942.25269279643885
 20
-1352.6058323701459
 30
0.0
 41
1.0
 10
942.24973678609058
 20
-1352.6140392105517
 30
0.0
 41
1.0
 10
942.13168616251824
 20
-1352.9417859073837
 30
0.0
 41
0.999967460740338
 10
942.01893863644978
 20
-1353.2713945273795
 30
0.0
 41
1.0
 10
941.9675402458854
 20
-1353.4216537230768
 30
0.0
 41
1.0
 10
941.91614185532103
 20
-1353.5719129187744
 30
0.0
 41
1.0
 10
941.80013124856453
 20
-1353.9110609012732
 30
0.0
 41
0.999928753230761
 10
941.69224984459561
 20
-1354.2528816402441
 30
0.0
 41
1.0
 10
941.64577258846407
 20
-1354.4001441845908
 30
0.0
 41
1.0
 10
941.59929533233253
 20
-1354.5474067289376
 30
0.0
 41
1.0
 10
941.58436844063272
 20
-1354.5947023791941
 30
0.0
 41
0.9999998223925127
 10
941.56949793189438
 20
-1354.6420157874607
 30
0.0
 41
1.0
 10
939.94884179509893
 20
-1359.7900442892501
 30
0.0
 41
1.0
 10
938.32818565830348
 20
-1364.9380727910395
 30
0.0
 41
1.0
 10
937.42287721441255
 20
-1364.9380727910395
 30
0.0
 41
1.0
 10
936.51756877052162
 20
-1364.9380727910395
 30
0.0
 41
1.0
 10
938.36965318190767
 20
-1359.0510008685719
 30
0.0
 41
1.0
 10
940.22173759329371
 20
-1353.1639289461045
 30
0.0
 41
1.0
 10
940.23185935159643
 20
-1353.1318857326548
 30
0.0
 41
1.0
 10
940.30446702044617
 20
-1352.901586190829
 30
0.0
 41
1.0
 10
940.37707468929125
 20
-1352.6712866490179
 30
0.0
 41
0.9999825681973569
 10
940.44695772850378
 20
-1352.4401457539502
 30
0.0
 41
1.0
 10
940.4952487906686
 20
-1352.2804211704411
 30
0.0
 41
1.0
 10
940.54353985283342
 20
-1352.1206965869317
 30
0.0
 41
1.0
 10
940.64069220614715
 20
-1351.799361365167
 30
0.0
 41
0.9999672528964687
 10
940.73263101176826
 20
-1351.4764958195883
 30
0.0
 41
1.0
 10
940.73541989543617
 20
-1351.4667019742049
 30
0.0
 41
1.0
 10
940.73820877910407
 20
-1351.4569081288214
 30
0.0
 41
1.0
 10
940.82456981739051
 20
-1351.153630274006
 30
0.0
 41
0.9999899749183984
 10
940.9082114269263
 20
-1350.8495911855493
 30
0.0
 41
1.0
 10
940.91831734594518
 20
-1350.812855947866
 30
0.0
 41
1.0
 10
940.92842326496407
 20
-1350.7761207101826
 30
0.0
 41
1.0
 10
940.99185303646175
 20
-1350.5455520970936
 30
0.0
 41
0.9999214200502183
 10
941.04948246483877
 20
-1350.3134657548876
 30
0.0
 41
1.0
 10
941.06224831701911
 20
-1350.2620548694922
 30
0.0
 41
1.0
 10
941.07501416919956
 20
-1350.2106439840966
 30
0.0
 41
1.0
 10
941.10711189321603
 20
-1350.0813794126807
 30
0.0
 41
0.9999828681669967
 10
941.13769414521187
 20
-1349.9517479382109
 30
0.0
 41
1.0
 10
941.16827639720759
 20
-1349.8221164637425
 30
0.0
 41
0.9999389844477451
 10
941.195987385997
 20
-1349.6918410078413
 30
0.0
 41
1.0
 10
941.20312512971691
 20
-1349.6582849040051
 30
0.0
 41
1.0
 10
941.21026287343693
 20
-1349.6247288001687
 30
0.0
 41
1.0
 10
941.25224934966673
 20
-1349.4273411365928
 30
0.0
 41
0.9998933699441218
 10
941.28845361406911
 20
-1349.2288115288334
 30
0.0
 41
1.0
 10
941.28982643928532
 20
-1349.2212835081377
 30
0.0
 41
1.0
 10
941.29119926450153
 20
-1349.2137554874419
 30
0.0
 41
1.0
 10
941.33014917933724
 20
-1349.0001698382862
 30
0.0
 41
0.9996850305193321
 10
941.35833285559568
 20
-1348.7848988328499
 30
0.0
 41
1.0
 10
941.36032788896478
 20
-1348.7696604787293
 30
0.0
 41
1.0
 10
941.36232292233387
 20
-1348.7544221246087
 30
0.0
 41
1.0
 10
941.3897307847933
 20
-1348.5450768974526
 30
0.0
 41
0.9994697936706488
 10
941.4034553440124
 20
-1348.3343917021243
 30
0.0
 41
1.0
 10
941.40393241326217
 20
-1348.3270682299121
 30
0.0
 41
1.0
 10
941.40440948251194
 20
-1348.3197447577002
 30
0.0
 41
1.0
 10
941.41717990323195
 20
-1348.1237065067928
 30
0.0
 41
0.9991804893137094
 10
941.4140515869592
 20
-1347.92727765682
 30
0.0
 41
1.0
 10
941.41396770813708
 20
-1347.9220108554073
 30
0.0
 41
1.0
 10
941.41388382931495
 20
-1347.9167440539943
 30
0.0
 41
1.0
 10
941.41092327068645
 20
-1347.7308488068466
 30
0.0
 41
0.998844832932172
 10
941.3901317250627
 20
-1347.5460962170132
 30
0.0
 41
1.0
 10
941.38853765135968
 20
-1347.531931361242
 30
0.0
 41
1.0
 10
941.38694357765667
 20
-1347.5177665054707
 30
0.0
 41
1.0
 10
941.36934017943895
 20
-1347.3613436271801
 30
0.0
 41
0.9985503209458737
 10
941.33502390713943
 20
-1347.2077194430906
 30
0.0
 41
1.0
 10
941.32743791506857
 20
-1347.1737591156916
 30
0.0
 41
1.0
 10
941.31985192299771
 20
-1347.1397987882929
 30
0.0
 41
1.0
 10
941.30070763484025
 20
-1347.0540952590027
 30
0.0
 41
0.9991036781370435
 10
941.27438277318856
 20
-1346.9703181716764
 30
0.0
 41
1.0
 10
941.27040054773306
 20
-1346.9576450091677
 30
0.0
 41
1.0
 10
941.26641832227767
 20
-1346.9449718466587
 30
0.0
 41
1.0
 10
941.24805791153881
 20
-1346.8865410843562
 30
0.0
 41
0.9998874504368285
 10
941.22795270385905
 20
-1346.8286874821281
 30
0.0
 41
1.0
 10
941.20784749618065
 20
-1346.7708338799046
 30
0.0
 41
0.9994041637543448
 10
941.183798883245
 20
-1346.7145051760119
 30
0.0
 41
1.0
 10
941.17960209902219
 20
-1346.7046751115329
 30
0.0
 41
1.0
 10
941.17540531479938
 20
-1346.6948450470538
 30
0.0
 41
1.0
 10
941.1475264838042
 20
-1346.6295448810849
 30
0.0
 41
0.9991846840702393
 10
941.11447012711062
 20
-1346.5667068498037
 30
0.0
 41
1.0
 10
941.11333352071529
 20
-1346.5645462333482
 30
0.0
 41
1.0
 10
941.11219691431984
 20
-1346.5623856168929
 30
0.0
 41
1.0
 10
941.08141377041704
 20
-1346.5038688185227
 30
0.0
 41
0.9989253167923481
 10
941.04534434636253
 20
-1346.4484538901334
 30
0.0
 41
1.0
 10
941.0442902216879
 20
-1346.4468343953704
 30
0.0
 41
1.0
 10
941.04323609701328
 20
-1346.4452149006077
 30
0.0
 41
1.0
 10
941.00927492230744
 20
-1346.3930389617426
 30
0.0
 41
0.9986467172835332
 10
940.9700777696703
 20
-1346.3446729281136
 30
0.0
 41
1.0
 10
940.96920364096945
 20
-1346.3435943258351
 30
0.0
 41
1.0
 10
940.96832951226861
 20
-1346.3425157235567
 30
0.0
 41
1.0
 10
940.93088061703247
 20
-1346.2963068944837
 30
0.0
 41
0.9984001104268899
 10
940.88845388651566
 20
-1346.254621787115
 30
0.0
 41
1.0
 10
940.8878667484064
 20
-1346.2540449122339
 30
0.0
 41
1.0
 10
940.88727961029701
 20
-1346.2534680373526
 30
0.0
 41
1.0
 10
940.84602715599817
 20
-1346.2129366797458
 30
0.0
 41
0.9982442159082342
 10
940.80027105466297
 20
-1346.1775681184861
 30
0.0
 41
1.0
 10
940.80005625920171
 20
-1346.1774020858434
 30
0.0
 41
1.0
 10
940.79984146374034
 20
-1346.1772360532004
 30
0.0
 41
1.0
 10
940.75451495332823
 20
-1346.1421995572266
 30
0.0
 41
0.9982450060835679
 10
940.70536397425553
 20
-1346.1127677741924
 30
0.0
 41
1.0
 10
940.6562129951833
 20
-1346.0833359911585
 30
0.0
 41
0.9983922639633999
 10
940.60404668901867
 20
-1346.0596563565045
 30
0.0
 41
1.0
 10
940.60381981169439
 20
-1346.0595533710232
 30
0.0
 41
1.0
 10
940.60359293437
 20
-1346.0594503855418
 30
0.0
 41
1.0
 10
940.55097287355545
 20
-1346.0355647799245
 30
0.0
 41
0.9986517147150176
 10
940.49615990068696
 20
-1346.0172636608027
 30
0.0
 41
1.0
 10
940.49548197925981
 20
-1346.0170373143715
 30
0.0
 41
1.0
 10
940.49480405783265
 20
-1346.0168109679403
 30
0.0
 41
1.0
 10
940.43863524211008
 20
-1345.9980571559561
 30
0.0
 41
0.9989435598956968
 10
940.3809818549596
 20
-1345.9845394537215
 30
0.0
 41
1.0
 10
940.37990173537685
 20
-1345.9842862034684
 30
0.0
 41
1.0
 10
940.3788216157941
 20
-1345.9840329532151
 30
0.0
 41
1.0
 10
940.31900798947845
 20
-1345.9700087504743
 30
0.0
 41
0.9992249241239951
 10
940.25827648058021
 20
-1345.9607334077591
 30
0.0
 41
1.0
 10
940.25686279229012
 20
-1345.9605174993515
 30
0.0
 41
1.0
 10
940.25544910399992
 20
-1345.9603015909438
 30
0.0
 41
1.0
 10
940.19189021852083
 20
-1345.9505944314128
 30
0.0
 41
0.9994396597833678
 10
940.12782428198489
 20
-1345.9451615090672
 30
0.0
 41
1.0
 10
940.10868361450639
 20
-1345.9435383413484
 30
0.0
 41
1.0
 10
940.08954294702789
 20
-1345.9419151736297
 30
0.0
 41
1.0
 10
939.98719567553428
 20
-1345.9332359158468
 30
0.0
 41
0.9987693403121392
 10
939.88449205194627
 20
-1345.9347389792995
 30
0.0
 41
1.0
 10
939.87423771771876
 20
-1345.9348890510737
 30
0.0
 41
1.0
 10
939.86398338349125
 20
-1345.9350391228479
 30
0.0
 41
1.0
 10
939.7544276173137
 20
-1345.9366424671352
 30
0.0
 41
0.9989753644966092
 10
939.64546561729844
 20
-1345.9481454740603
 30
0.0
 41
1.0
 10
939.53650361728114
 20
-1345.9596484809858
 30
0.0
 41
0.9983190067306409
 10
939.42960480631575
 20
-1345.9836834727726
 30
0.0
 41
1.0
 10
939.4207038547097
 20
-1345.9856847513352
 30
0.0
 41
1.0
 10
939.41180290310353
 20
-1345.9876860298978
 30
0.0
 41
1.0
 10
939.28710218892422
 20
-1346.0157235788101
 30
0.0
 41
0.998553938830312
 10
939.1661324352458
 20
-1346.0569872548558
 30
0.0
 41
1.0
 10
939.16378700428618
 20
-1346.0577872986714
 30
0.0
 41
1.0
 10
939.16144157332656
 20
-1346.058587342487
 30
0.0
 41
1.0
 10
939.0357809577273
 20
-1346.1014511061646
 30
0.0
 41
0.9988468746493603
 10
938.91481061542697
 20
-1346.1561691912273
 30
0.0
 41
1.0
 10
938.91162779343858
 20
-1346.1576088657871
 30
0.0
 41
1.0
 10
938.90844497145031
 20
-1346.1590485403467
 30
0.0
 41
1.0
 10
938.78110898517309
 20
-1346.2166459745288
 30
0.0
 41
0.9991322885919626
 10
938.65900840111613
 20
-1346.2846413067105
 30
0.0
 41
1.0
 10
938.64140639007269
 20
-1346.2944435087002
 30
0.0
 41
1.0
 10
938.62380437902937
 20
-1346.3042457106897
 30
0.0
 41
1.0
 10
938.52162769797178
 20
-1346.3611458264706
 30
0.0
 41
0.9993860037849524
 10
938.42368669389737
 20
-1346.4250618420597
 30
0.0
 41
1.0
 10
938.41806838104458
 20
-1346.4287283367548
 30
0.0
 41
1.0
 10
938.41245006819179
 20
-1346.4323948314502
 30
0.0
 41
1.0
 10
938.32574568982182
 20
-1346.4889778576496
 30
0.0
 41
0.9998821494953125
 10
938.24081931401111
 20
-1346.548196087725
 30
0.0
 41
1.0
 10
938.15589293819562
 20
-1346.6074143178034
 30
0.0
 41
0.9997976482743958
 10
938.07341730779206
 20
-1346.6700007258455
 30
0.0
 41
1.0
 10
938.05878104298847
 20
-1346.6811074156244
 30
0.0
 41
1.0
 10
938.04414477818489
 20
-1346.6922141054031
 30
0.0
 41
1.0
 10
937.93239661817495
 20
-1346.7770138930018
 30
0.0
 41
0.9998091630800864
 10
937.82404634015109
 20
-1346.8661142436999
 30
0.0
 41
1.0
 10
937.81104058767005
 20
-1346.876809344149
 30
0.0
 41
1.0
 10
937.79803483518913
 20
-1346.8875044445981
 30
0.0
 41
1.0
 10
937.66367305220422
 20
-1346.9979949961937
 30
0.0
 41
0.9995035112317195
 10
937.53653717444024
 20
-1347.1167288132094
 30
0.0
 41
1.0
 10
937.52688986405519
 20
-1347.1257385593653
 30
0.0
 41
1.0
 10
937.51724255367003
 20
-1347.1347483055213
 30
0.0
 41
1.0
 10
937.39381949090432
 20
-1347.2500146772772
 30
0.0
 41
0.9994630424299131
 10
937.27821108511966
 20
-1347.3731174205132
 30
0.0
 41
1.0
 10
937.27452824634679
 20
-1347.3770390000277
 30
0.0
 41
1.0
 10
937.2708454075738
 20
-1347.3809605795425
 30
0.0
 41
1.0
 10
937.16260267933455
 20
-1347.4962201637497
 30
0.0
 41
0.9995160693750018
 10
937.06173664980372
 20
-1347.617987581621
 30
0.0
 41
1.0
 10
937.05980292972367
 20
-1347.6203220058283
 30
0.0
 41
1.0
 10
937.05786920964363
 20
-1347.6226564300357
 30
0.0
 41
1.0
 10
936.96087062027198
 20
-1347.7397549994935
 30
0.0
 41
0.9996561470515327
 10
936.8701444016059
 20
-1347.8617777619427
 30
0.0
 41
1.0
 10
936.86398673570579
 20
-1347.8700595509824
 30
0.0
 41
1.0
 10
936.8578290698058
 20
-1347.8783413400222
 30
0.0
 41
1.0
 10
936.77941818294153
 20
-1347.9838005243898
 30
0.0
 41
0.9998349055173057
 10
936.70489090100773
 20
-1348.0920391080554
 30
0.0
 41
1.0
 10
936.63036361907336
 20
-1348.200277691722
 30
0.0
 41
0.9999728109562113
 10
936.55744072316247
 20
-1348.3096036172781
 30
0.0
 41
1.0
 10
936.5561255077522
 20
-1348.3115753867785
 30
0.0
 41
1.0
 10
936.55481029234193
 20
-1348.3135471562789
 30
0.0
 41
1.0
 10
936.47925696561106
 20
-1348.4268166208349
 30
0.0
 41
0.9999972147309618
 10
936.40423915524093
 20
-1348.5404414636648
 30
0.0
 41
1.0
 10
936.39926761261518
 20
-1348.5479715521424
 30
0.0
 41
1.0
 10
936.39429606998954
 20
-1348.5555016406197
 30
0.0
 41
1.0
 10
936.30933517436517
 20
-1348.6841866604084
 30
0.0
 41
0.9999371979004518
 10
936.22727982495724
 20
-1348.8147435741923
 30
0.0
 41
1.0
 10
936.22377094059993
 20
-1348.8203265022503
 30
0.0
 41
1.0
 10
936.22026205624252
 20
-1348.8259094303082
 30
0.0
 41
1.0
 10
936.13118893811418
 20
-1348.9676322002165
 30
0.0
 41
0.9998272025611011
 10
936.04744554722959
 20
-1349.1125680769633
 30
0.0
 41
1.0
 10
936.03223037520661
 20
-1349.138901191418
 30
0.0
 41
1.0
 10
936.01701520318375
 20
-1349.1652343058727
 30
0.0
 41
1.0
 10
935.90284146825297
 20
-1349.3628364115298
 30
0.0
 41
0.9995217214838192
 10
935.80110177869835
 20
-1349.5671187393898
 30
0.0
 41
1.0
 10
935.79345821606216
 20
-1349.5824661890949
 30
0.0
 41
1.0
 10
935.78581465342609
 20
-1349.5978136388001
 30
0.0
 41
1.0
 10
935.69890936083743
 20
-1349.7723100968792
 30
0.0
 41
0.9998269762607515
 10
935.61855489456616
 20
-1349.9499183836012
 30
0.0
 41
1.0
 10
935.53820042829454
 20
-1350.127526670324
 30
0.0
 41
0.999894474738693
 10
935.46303963373282
 20
-1350.3073943959459
 30
0.0
 41
1.0
 10
935.45808596414167
 20
-1350.3192490508634
 30
0.0
 41
1.0
 10
935.45313229455041
 20
-1350.3311037057808
 30
0.0
 41
1.0
 10
935.3724852339958
 20
-1350.5241006458036
 30
0.0
 41
0.9999506734414622
 10
935.29568770509036
 20
-1350.7186614506641
 30
0.0
 41
1.0
 10
935.28108773982194
 20
-1350.7556493724639
 30
0.0
 41
1.0
 10
935.26648777455341
 20
-1350.7926372942638
 30
0.0
 41
1.0
 10
935.21889017618173
 20
-1350.9132222555327
 30
0.0
 41
0.9999912393917307
 10
935.17230373216421
 20
-1351.0342014582161
 30
0.0
 41
1.0
 10
935.12571728814851
 20
-1351.1551806608941
 30
0.0
 41
0.9999927113957836
 10
935.08005599376156
 20
-1351.2765120683769
 30
0.0
 41
1.0
 10
935.06608756235687
 20
-1351.3136290503944
 30
0.0
 41
1.0
 10
935.05211913095218
 20
-1351.3507460324117
 30
0.0
 41
1.0
 10
934.9785209737629
 20
-1351.5463114039103
 30
0.0
 41
0.9999487550948034
 10
934.90889734879215
 20
-1351.7433267690901
 30
0.0
 41
1.0
 10
934.88530373885396
 20
-1351.8100900793866
 30
0.0
 41
1.0
 10
934.86171012891577
 20
-1351.8768533896832
 30
0.0
 41
1.0
 10
934.76702449454638
 20
-1352.1447872245044
 30
0.0
 41
0.9999808436940344
 10
934.67566290590503
 20
-1352.413872655769
 30
0.0
 41
1.0
 10
934.58430131726163
 20
-1352.6829580870394
 30
0.0
 41
0.9999873932913427
 10
934.49564660854162
 20
-1352.9529474420588
 30
0.0
 41
1.0
 10
934.47555425167423
 20
-1353.0141367748056
 30
0.0
 41
1.0
 10
934.45546189480683
 20
-1353.0753261075527
 30
0.0
 41
1.0
 10
934.32662247235078
 20
-1353.4676941280695
 30
0.0
 41
0.9999794883037262
 10
934.20281968739653
 20
-1353.8616803343348
 30
0.0
 41
1.0
 10
934.19166742794005
 20
-1353.8971709446319
 30
0.0
 41
1.0
 10
934.18051516848368
 20
-1353.9326615549292
 30
0.0
 41
1.0
 10
934.03795700460705
 20
-1354.3863343069497
 30
0.0
 41
0.999998276171846
 10
933.89708456460426
 20
-1354.840533329033
 30
0.0
 41
1.0
 10
932.30894423203165
 20
-1359.8893030600361
 30
0.0
 41
1.0
 10
930.72080389945904
 20
-1364.9380727910395
 30
0.0
 41
1.0
 10
929.77205328798266
 20
-1364.9380727910395
 30
0.0
 41
1.0
 10
928.82330267650627
 20
-1364.9380727910395
 30
0.0
 41
1.0
 10
932.06158716265941
 20
-1354.6107505910934
 30
0.0
 41
1.0
 10
935.29987164881265
 20
-1344.2834283911473
 30
0.0
 41
1.0
  0
LWPOLYLINE
  5
53
100
AcDbEntity
  8
0
370
              15
390
0
  6
Continuous
 62
               7
100
AcDbPolyline
 90
      232
 70
             128
 10
909.59632587498561
 20
-1345.3677712226624
 42
0.0004370800706723
 10
909.54344870074908
 20
-1345.4364378621326
 10
909.50416446978613
 20
-1345.4875449748151
 42
0.003048199217583
 10
909.37382575266645
 20
-1345.6592666671604
 10
909.33531408091653
 20
-1345.7106534509476
 42
0.0042058245756361
 10
909.13132903023461
 20
-1345.9876591960378
 10
909.078923907746
 20
-1346.0600920428019
 42
0.0120948898743192
 10
908.78287999098416
 20
-1346.4908416473518
 10
908.68668749186293
 20
-1346.6383223825756
 42
0.0141601263948112
 10
908.38304344494065
 20
-1347.1339917193113
 10
908.34350617751272
 20
-1347.2028356867465
 42
0.0071131081303603
 10
908.13823385427622
 20
-1347.5723384855812
 42
0.0068458791004076
 10
907.94335432743037
 20
-1347.9474300490629
 10
907.93654246497545
 20
-1347.9609917627808
 42
0.0064120880290522
 10
907.73840021492856
 20
-1348.3684162377053
 10
907.73086552941413
 20
-1348.3844280944211
 42
0.0058857236448425
 10
907.52811013754649
 20
-1348.8288042054471
 10
907.51993521124848
 20
-1348.84729435909
 42
0.0053189741892504
 10
907.31123089858522
 20
-1349.3332578329978
 10
907.30248309289959
 20
-1349.3542397112042
 42
0.0047503650420055
 10
907.08650936674644
 20
-1349.8864391444199
 10
907.07724111840071
 20
-1349.9099155205217
 42
0.0042071762169048
 10
906.85269373468032
 20
-1350.4930091145718
 10
906.84294433232435
 20
-1350.5189752894612
 42
0.0036680086485337
 10
906.60848968901087
 20
-1351.157610673996
 10
906.59828190916448
 20
-1351.1860592083367
 42
0.0032573142627274
 10
906.35264962320196
 20
-1351.8849118680782
 10
906.28399910235805
 20
-1352.0843749521405
 42
0.0026133366650652
 10
905.93555390359916
 20
-1353.114238235815
 10
905.87229711608859
 20
-1353.3044690712375
 42
0.0020592950742294
 10
905.65843404713132
 20
-1353.9565727238212
 10
905.65538225596265
 20
-1353.9660092122483
 42
0.0025609928538317
 10
905.45356175448239
 20
-1354.6011544345968
 10
905.45097038735389
 20
-1354.6094567755431
 42
0.003136235624335
 10
905.26147960167873
 20
-1355.2302196317169
 10
905.25934855876073
 20
-1355.2373609378963
 42
0.0037229918029079
 10
905.08254817182501
 20
-1355.8463462399022
 10
905.08086958262447
 20
-1355.8522931300558
 42
0.0043077623707234
 10
904.91712878055353
 20
-1356.4521118618454
 42
0.0047654161822612
 10
904.76430005803866
 20
-1357.0547979507433
 10
904.72983544919839
 20
-1357.1963597278977
 42
0.0112969368444256
 10
904.5339710910547
 20
-1358.0880518885228
 10
904.50596470195819
 20
-1358.2308799346197
 42
0.0130056762572001
 10
904.30512745831152
 20
-1359.4178210062646
 10
904.28458770816485
 20
-1359.5618991197391
 42
0.0138721532146347
 10
904.18088470362659
 20
-1360.4687286055673
 10
904.16158921571935
 20
-1360.6922263274846
 42
0.0071254697008573
 10
904.12824256979616
 20
-1361.1554133363397
 10
904.12328159563356
 20
-1361.2414173308889
 42
0.0028881799203774
 10
904.10814330234302
 20
-1361.5331590407422
 42
0.0060297297134099
 10
904.09821110256723
 20
-1361.8251079768659
 10
904.09714882090032
 20
-1361.8735003487893
 42
0.0229523164155506
 10
904.1048798486861
 20
-1362.1962551950737
 10
904.10910562220681
 20
-1362.2566587290946
 42
0.0123673300678285
 10
904.12818426872479
 20
-1362.4577794542647
 42
0.0128577674467514
 10
904.15737965913024
 20
-1362.6576773041863
 10
904.16450553251809
 20
-1362.6990061187885
 42
0.0285717853759545
 10
904.22899953421347
 20
-1362.9771222701011
 10
904.24266805788045
 20
-1363.0237770395802
 42
0.031628309916005
 10
904.35847863779441
 20
-1363.3427915414049
 10
904.3615273295494
 20
-1363.3497779137292
 42
0.0338984824235384
 10
904.51095904051715
 20
-1363.6373438779196
 10
904.51326776988731
 20
-1363.6411349071959
 42
0.0350228718354291
 10
904.69562806056058
 20
-1363.8981868918725
 10
904.69651331233547
 20
-1363.8992659696364
 42
0.0347476747525157
 10
904.91093799957571
 20
-1364.1264510168567
 42
0.0331337701910582
 10
905.15418132532272
 20
-1364.3225796789343
 10
905.15528142383823
 20
-1364.3233523821063
 42
0.0305233319081493
 10
905.42382611941321
 20
-1364.4884805521988
 10
905.42705616391277
 20
-1364.4902045640606
 42
0.0273744481150892
 10
905.71960987548641
 20
-1364.6263427079507
 10
905.72471441062464
 20
-1364.6283862924206
 42
0.0240964406194276
 10
906.04019148626992
 20
-1364.737370018702
 10
906.04677481548038
 20
-1364.7392947583771
 42
0.0209636179809032
 10
906.38417496813133
 20
-1364.8227629063088
 10
906.39180742858161
 20
-1364.8243148193105
 42
0.0181388704693874
 10
906.75012982058229
 20
-1364.8837309125247
 10
906.75841066895828
 20
-1364.8847970963416
 42
0.0156086547587376
 10
907.13659803315056
 20
-1364.9215332829185
 10
907.17979328547551
 20
-1364.9243717853972
 42
0.0137148329023207
 10
907.50746643077298
 20
-1364.9368920406487
 10
907.55340262070888
 20
-1364.9373864737638
 42
0.0051057823884436
 10
907.7895482072912
 20
-1364.9375167281728
 42
0.0052256693316293
 10
908.02564549107649
 20
-1364.9327679037085
 10
908.09587227481927
 20
-1364.9306209376946
 42
0.0161507179049042
 10
908.4716093529197
 20
-1364.906970567368
 10
908.49162231329365
 20
-1364.9050603720805
 42
0.010121673783547
 10
908.90564953479441
 20
-1364.8570674417135
 10
908.93970282421105
 20
-1364.8524197449053
 42
0.0245291776396337
 10
909.41649247975886
 20
-1364.7633446668299
 10
909.50131579528738
 20
-1364.743148746483
 42
0.0143509212555441
 10
909.85794689922579
 20
-1364.6473441127046
 42
0.0156557857031338
 10
910.20816296394651
 20
-1364.5303328968882
 10
910.2156641784477
 20
-1364.5275627351316
 42
0.0170137333628414
 10
910.57226017413109
 20
-1364.3819051202595
 10
910.57936409653655
 20
-1364.3787172846967
 42
0.0183105364409035
 10
910.9387137646969
 20
-1364.2013822428755
 10
910.94566052934158
 20
-1364.1976318080001
 42
0.0194899958156349
 10
911.30414127033021
 20
-1363.9856528261064
 10
911.31115514966223
 20
-1363.9811274838144
 42
0.0204869852956124
 10
911.66516945176033
 20
-1363.7316074687253
 10
911.67243506034322
 20
-1363.7260274033802
 42
0.02125169385589
 10
912.01842499145221
 20
-1363.4361234064847
 10
912.06494168552877
 20
-1363.3936560963903
 42
0.0215248918250005
 10
912.32496785441458
 20
-1363.1348918173976
 10
912.36999758879199
 20
-1363.0860476960513
 42
0.0114578554959011
 10
912.52478974247242
 20
-1362.9102247625892
 10
912.5359842784527
 20
-1362.8969059990513
 42
0.0061531305135926
 10
912.66245892445352
 20
-1362.7426164657381
 42
0.0006325587124688
 10
912.78683740858799
 20
-1362.586613090084
 10
912.80987754365674
 20
-1362.5576395694031
 42
0.0041897761556774
 10
912.97833294762211
 20
-1362.3421201933509
 10
913.03679506752167
 20
-1362.266018846356
 42
0.0092993880036924
 10
913.31340699474026
 20
-1361.8917400824794
 10
913.39580148794016
 20
-1361.7758030789093
 42
0.0159321727085489
 10
913.74240797058667
 20
-1361.2536288581475
 10
913.78676410598541
 20
-1361.1819492938816
 42
0.008554731702475
 10
914.02127587130144
 20
-1360.7880743446729
 42
0.0084601156891224
 10
914.24225204874881
 20
-1360.3864474956308
 10
914.25036752257392
 20
-1360.3710878133677
 42
0.0081429654285163
 10
914.47361679301139
 20
-1359.931366300827
 10
914.48247695719544
 20
-1359.9131874588074
 42
0.0076574581328514
 10
914.7088844677628
 20
-1359.4300045835532
 10
914.71836410848584
 20
-1359.4089401052515
 42
0.0070682724200208
 10
914.94880901629483
 20
-1358.8769028004649
 10
914.95879930027434
 20
-1358.8529136114585
 42
0.0064559514449425
 10
915.19413250845821
 20
-1358.2666013449339
 10
915.20454186662096
 20
-1358.2396664194976
 42
0.0058311413908255
 10
915.44558860338236
 20
-1357.5936343251176
 10
915.45634368077128
 20
-1357.5637499839531
 42
0.0052312425819495
 10
915.70392495881435
 20
-1356.8525475701122
 10
915.71496879519191
 20
-1356.8197208580491
 42
0.0046680544795741
 10
915.96989722292699
 20
-1356.0378945422924
 10
916.01188937297798
 20
-1355.9049113049766
 42
0.0041666856446323
 10
916.215175385365
 20
-1355.2419425299965
 10
916.25283782601605
 20
-1355.1153614223856
 42
0.0015170975156863
 10
916.3740244044418
 20
-1354.7034930708492
 42
-0.0004887993110214
 10
916.49436417761467
 20
-1354.2913746586378
 10
916.57084143505995
 20
-1354.0304172728661
 42
0.0002583378927582
 10
916.84405600516186
 20
-1353.0963605695583
 10
916.92582885470176
 20
-1352.816261310101
 42
0.0006636169674452
 10
917.11969661471221
 20
-1352.148908386517
 10
917.12479326904588
 20
-1352.131276803683
 42
0.0010589131323197
 10
917.30624196997587
 20
-1351.498545460588
 10
917.31122404045755
 20
-1351.4810325535636
 42
0.0015655524461749
 10
917.4794942476392
 20
-1350.8824158743671
 10
917.48432444805985
 20
-1350.8650237154106
 42
0.0021640440477415
 10
917.63861442004008
 20
-1350.299996697413
 10
917.64324863947945
 20
-1350.2827319673841
 42
0.002876387185439
 10
917.78276435752309
 20
-1349.7507640165722
 10
917.7871502216874
 20
-1349.7336400384293
 42
0.0037310511941604
 10
917.91110691352719
 20
-1349.234192444394
 10
917.91518213381744
 20
-1349.2172321731432
 42
0.0047652197773182
 10
918.02280603432462
 20
-1348.7497544048433
 10
918.02649663364673
 20
-1348.732994849699
 42
0.0060276699301056
 10
918.11702673280161
 20
-1348.2969190545491
 10
918.12024542309291
 20
-1348.2804178402289
 42
0.0075824337762684
 10
918.19293473250627
 20
-1347.8751506758138
 10
918.19558010988874
 20
-1347.8589957283496
 42
0.0095130624610683
 10
918.24969534551769
 20
-1347.4839063752916
 10
918.25668156940037
 20
-1347.4279728171741
 42
0.01210546532309
 10
918.28327289997821
 20
-1347.1630769887011
 10
918.28413938973711
 20
-1347.1516735457803
 42
0.0069050827376016
 10
918.29922820777551
 20
-1346.9087323189278
 10
918.3003635074441
 20
-1346.8852060618804
 42
0.0169063976705369
 10
918.30319078642424
 20
-1346.6890133345823
 10
918.30202013489338
 20
-1346.6286775732469
 42
0.0052007732884133
 10
918.29976668630002
 20
-1346.553084183081
 42
0.0054038123293925
 10
918.27980317445906
 20
-1346.4330658870585
 10
918.27471731859077
 20
-1346.4044074004898
 42
0.0112050460473401
 10
918.23933295653171
 20
-1346.2280809621486
 10
918.2215079944915
 20
-1346.1485393754301
 42
0.0240764468012258
 10
918.13061062834458
 20
-1345.8183023399265
 10
918.11205186553093
 20
-1345.7616821749318
 42
0.0256812331837142
 10
917.96868894534236
 20
-1345.3899579686777
 10
917.96327951952003
 20
-1345.3778266336858
 42
0.0268360501216592
 10
917.79385227867112
 20
-1345.0468334996669
 10
917.7883158710365
 20
-1345.0373138293553
 42
0.0274670231729793
 10
917.59611489462281
 20
-1344.7450264544373
 10
917.59073359466061
 20
-1344.7377473068964
 42
0.0275035967098036
 10
917.37916071509835
 20
-1344.482231416592
 10
917.37409121413179
 20
-1344.4767523289615
 42
0.0269557673523923
 10
917.14668767069224
 20
-1344.2561100429994
 10
917.14194461291004
 20
-1344.2519800885391
 42
0.0259124802209366
 10
916.90238978147886
 20
-1344.064289561386
 10
916.89785893629767
 20
-1344.0611040590563
 42
0.024516215300526
 10
916.64994258320212
 20
-1343.9043710499454
 10
916.64541603687633
 20
-1343.9018108527437
 42
0.0229282588843318
 10
916.39299648005056
 20
-1343.7739426602457
 10
916.38821598621405
 20
-1343.7717903604837
 42
0.0212984135697364
 10
916.13517803375203
 20
-1343.6705914432414
 10
916.12987374878401
 20
-1343.6687278804818
 42
0.01975554623453
 10
915.88009541105953
 20
-1343.5919124625166
 42
0.0183511896790062
 10
915.62516668559567
 20
-1343.5343295555508
 10
915.53880148887254
 20
-1343.5181267651658
 42
0.0338057877145952
 10
915.2532941396131
 20
-1343.4843183600256
 10
915.16228873456646
 20
-1343.479738704764
 42
0.009199052450196
 10
915.05644162593717
 20
-1343.4763628488422
 42
0.0028333980790536
 10
914.95052770993811
 20
-1343.4755347413256
 10
914.94961225689485
 20
-1343.4755327715015
 42
-0.0023619827800897
 10
914.84186624179176
 20
-1343.474791930423
 10
914.80546107161308
 20
-1343.4743696239598
 42
0.0008824598470437
 10
914.62490508175085
 20
-1343.4725938457213
 10
914.5810436493573
 20
-1343.4722398841959
 42
0.0038132665763815
 10
914.3127607534949
 20
-1343.4721209481293
 10
914.29622709868499
 20
-1343.472239714273
 42
0.0060665569338188
 10
913.99494660708331
 20
-1343.4780600136942
 10
913.98069627506834
 20
-1343.4785083216614
 42
0.0080356953335521
 10
913.65123755872844
 20
-1343.4941760437282
 10
913.63916754364186
 20
-1343.4949446266687
 42
0.0098996399104389
 10
913.28640445899282
 20
-1343.5244298558666
 10
913.27635874961629
 20
-1343.5254701520651
 42
0.0117740981369042
 10
912.90520189126664
 20
-1343.5727623995951
 10
912.89697919478499
 20
-1343.5740075161657
 42
0.0137435215136874
 10
912.51239037530149
 20
-1343.6431044897272
 10
912.50573333617649
 20
-1343.644490385961
 42
0.0158359869388313
 10
912.11273624237299
 20
-1343.739382474442
 10
912.10732305550687
 20
-1343.7408724153122
 42
0.0180554124028096
 10
911.7110080108979
 20
-1343.8655104315499
 10
911.7064512228111
 20
-1343.8671264678173
 42
0.0203657431283433
 10
911.31197370499785
 20
-1344.0253868093337
 10
911.30783016599241
 20
-1344.0272484307748
 42
0.0226819684655124
 10
910.9203941097885
 20
-1344.2228910094461
 10
910.91619431877064
 20
-1344.2252566013658
 42
0.024863498460649
 10
910.54101237758948
 20
-1344.4618832473127
 10
910.49281744880875
 20
-1344.4957402891362
 42
0.0267044190883168
 10
910.21852475188894
 20
-1344.7111806650069
 42
0.0139303002203851
 10
909.96235758594412
 20
-1344.9484195059247
 10
909.95750420022921
 20
-1344.9531721687788
 42
0.0283460963445011
 10
909.71343160600134
 20
-1345.2209028292245
 10
909.67376310084546
 20
-1345.269704406697
 42
0.0070695364819158
 10
909.59632587498561
 20
-1345.3677712226624
 42
0.0070695364819158
  0
LWPOLYLINE
  5
54
100
AcDbEntity
  8
0
370
              15
390
0
  6
Continuous
 62
               7
100
AcDbPolyline
 90
      226
 70
             128
 10
906.06750543773921
 20
-1361.0893600288464
 42
-0.0026277636607083
 10
906.06742755393918
 20
-1361.0225881030794
 10
906.0676449121712
 20
-1360.9694328856604
 42
-0.0088680296727898
 10
906.07142152846427
 20
-1360.7964171032543
 10
906.07376788757665
 20
-1360.7371370778037
 42
-0.0077381705614455
 10
906.08981399834033
 20
-1360.4458765819993
 10
906.09068190951291
 20
-1360.4335883483204
 42
-0.006887253052869
 10
906.11731398926111
 20
-1360.118366596251
 10
906.11851821344715
 20
-1360.1061256172325
 42
-0.0062130021487577
 10
906.15611193027507
 20
-1359.7672559259927
 10
906.15761583381004
 20
-1359.7550820540775
 42
-0.0056726929673706
 10
906.20653769331079
 20
-1359.3928868319754
 10
906.20831113895679
 20
-1359.3807930317189
 42
-0.0052341884496001
 10
906.26892172521582
 20
-1358.9955997762063
 10
906.27093971399336
 20
-1358.9835948462085
 42
-0.0049768450170641
 10
906.34367839541619
 20
-1358.5757502787949
 10
906.36792741014153
 20
-1358.4472022957698
 42
-0.0089029805624689
 10
906.5050082619357
 20
-1357.7854268483502
 10
906.53775363725481
 20
-1357.640395417824
 42
-0.0080318257099998
 10
906.76730225159508
 20
-1356.6946857859723
 10
906.77928717804377
 20
-1356.6485551507803
 42
-0.007426572131959
 10
907.0632987168924
 20
-1355.6184905724042
 10
907.08317826001235
 20
-1355.5503565118038
 42
-0.0069711922701717
 10
907.41048283851705
 20
-1354.4840887714822
 10
907.4704347856258
 20
-1354.2980674131015
 42
-0.0052070422891798
 10
907.69986001088182
 20
-1353.6107953360804
 10
907.71714120302624
 20
-1353.5607680555438
 42
-0.0009167004448696
 10
907.92023309034357
 20
-1352.9763122073091
 42
-0.0025162726945144
 10
908.12733072060848
 20
-1352.3932709431401
 10
908.16455533240776
 20
-1352.2901213972516
 42
-0.0028212681458394
 10
908.41273125137468
 20
-1351.6143907650703
 10
908.42256201412386
 20
-1351.5880833203976
 42
-0.0031964916824389
 10
908.65885427178762
 20
-1350.9678785582664
 10
908.66848872578828
 20
-1350.9430685681189
 42
-0.0036281836453017
 10
908.89359468688781
 20
-1350.3756278872302
 10
908.90303309705018
 20
-1350.3523304557152
 42
-0.0041269166829285
 10
909.11765079370446
 20
-1349.8348895597489
 10
909.15028375011991
 20
-1349.7580111134002
 42
-0.0047472213058932
 10
909.30732855567885
 20
-1349.3975896455045
 10
909.31422263688637
 20
-1349.3821690481741
 42
-0.0025651659996721
 10
909.46258067073722
 20
-1349.054840992424
 42
-0.0057144634989158
 10
909.61633036451178
 20
-1348.7300313190549
 10
909.64436106991002
 20
-1348.6725229366666
 42
-0.0065388068373935
 10
909.82782809764956
 20
-1348.3082904400023
 10
909.83628655342636
 20
-1348.292030860636
 42
-0.0074510843021425
 10
910.01246879930591
 20
-1347.96534257951
 10
910.02064846984115
 20
-1347.9507018022337
 42
-0.0084648979853401
 10
910.19028232293704
 20
-1347.6587927912801
 10
910.1981384494228
 20
-1347.6457857996331
 42
-0.0095638542804484
 10
910.36197389701931
 20
-1347.3858969276507
 10
910.36944884069044
 20
-1347.3745275661963
 42
-0.010719162680832
 10
910.52825042107861
 20
-1347.1439163316513
 10
910.53526715480893
 20
-1347.1341802392876
 42
-0.0118458573903998
 10
910.68981525332219
 20
-1346.9301080439759
 42
-0.0129184518194408
 10
910.85426787692097
 20
-1346.7339475278086
 10
910.88441264928633
 20
-1346.6998214489065
 42
-0.0217742579634982
 10
911.06102497162215
 20
-1346.516614678656
 10
911.07177051608346
 20
-1346.5063978454521
 42
-0.0097266568649257
 10
911.23782813493835
 20
-1346.3545502710156
 42
-0.0187720905720284
 10
911.41217571083109
 20
-1346.2124814176241
 10
911.44288170150401
 20
-1346.1893223352288
 42
-0.0179428207517448
 10
911.67530242149815
 20
-1346.0267701581186
 10
911.67895474841191
 20
-1346.0244062232321
 42
-0.0170047877698244
 10
911.9147183859443
 20
-1345.8829457090792
 10
911.91850137469146
 20
-1345.8808474040427
 42
-0.0160190788363515
 10
912.15540992232616
 20
-1345.7591961020548
 42
-0.0151102861494617
 10
912.39944170476929
 20
-1345.6525133260018
 10
912.4518282069846
 20
-1345.6314731931056
 42
-0.0271945441884804
 10
912.8104907660454
 20
-1345.5096083823989
 10
912.87955556653048
 20
-1345.4902588411335
 42
-0.0237596594023496
 10
913.29535241355347
 20
-1345.3948081291519
 10
913.36341526728438
 20
-1345.382553441025
 42
-0.0213715440555292
 10
913.6492901987292
 20
-1345.3436064095151
 10
913.70943736494587
 20
-1345.3380166948143
 42
-0.0101465655822583
 10
913.87692989694131
 20
-1345.3258731515502
 10
913.88627028314602
 20
-1345.3253862365527
 42
-0.0100375910882054
 10
914.03542438370209
 20
-1345.3206104186277
 10
914.04568365338127
 20
-1345.3204879796133
 42
-0.0103625633383351
 10
914.17439164803727
 20
-1345.3216194131398
 10
914.19665729930796
 20
-1345.3222767716049
 42
-0.0115689250241369
 10
914.28070803683215
 20
-1345.32670627785
 42
-0.0072438037441034
 10
914.36454631626339
 20
-1345.3342954775983
 10
914.38134682574412
 20
-1345.3360620203234
 42
-0.0217917313127898
 10
914.49791658905963
 20
-1345.3534819130448
 10
914.5635166796277
 20
-1345.3662285214593
 42
-0.0332943556750444
 10
914.76790884465277
 20
-1345.4202688127662
 10
914.79808141320257
 20
-1345.4304368898845
 42
-0.0184824084806513
 10
914.93658646966833
 20
-1345.4828879052711
 42
-0.0198002050691799
 10
915.07066081016467
 20
-1345.5457719654687
 10
915.07254744754459
 20
-1345.5467497523503
 42
-0.0212242342975606
 10
915.20468638994726
 20
-1345.6225124911437
 10
915.20650168548991
 20
-1345.6236582933516
 42
-0.0226090605787464
 10
915.3350055867113
 20
-1345.7131379369157
 10
915.33685002844913
 20
-1345.7145501899035
 42
-0.0238457052236163
 10
915.46003210974118
 20
-1345.8185460857651
 10
915.46198483830108
 20
-1345.820360963532
 42
-0.0248160564144255
 10
915.57818634560181
 20
-1345.9396355647409
 10
915.58028997900374
 20
-1345.9420208984452
 42
-0.0254109591449709
 10
915.68789519686925
 20
-1346.0773092844088
 10
915.69014321878376
 20
-1346.0804508328101
 42
-0.0255528488292628
 10
915.78758989758057
 20
-1346.2324778870438
 10
915.78992099749712
 20
-1346.2365594986522
 42
-0.0252146793222746
 10
915.87570202350594
 20
-1346.4060617446485
 10
915.87800426266381
 20
-1346.411243826562
 42
-0.0244265635952877
 10
915.95065895642506
 20
-1346.5989903986081
 10
915.9599053578936
 20
-1346.6268558169461
 42
-0.023131961289175
 10
916.00582813688573
 20
-1346.7901568637481
 42
-0.0112130424347077
 10
916.04046415942446
 20
-1346.9563604639384
 10
916.04166668453649
 20
-1346.9628570508239
 42
-0.0210527881234797
 10
916.06735315990693
 20
-1347.1439126962619
 10
916.07086375472909
 20
-1347.1793182448125
 42
-0.0190029892429044
 10
916.08630522827377
 20
-1347.4328540910865
 10
916.08711520471775
 20
-1347.4683297054539
 42
-0.0137974553664598
 10
916.08556635188233
 20
-1347.7933611121812
 10
916.08472089692646
 20
-1347.8194798567874
 42
-0.0081336634212504
 10
916.0698615617041
 20
-1348.1248273243793
 42
-0.0073526923574178
 10
916.04555302833091
 20
-1348.4295755686501
 10
916.04429160454674
 20
-1348.4429122433305
 42
-0.0066886138690749
 10
916.00855601850014
 20
-1348.7734982868285
 10
916.00689892903029
 20
-1348.7871199058191
 42
-0.0061359187352497
 10
915.95904832697943
 20
-1349.1438838859192
 10
915.95701082590654
 20
-1349.1577786887483
 42
-0.0056698610068308
 10
915.89636049513831
 20
-1349.541057257594
 10
915.89395506181654
 20
-1349.555216376817
 42
-0.0052721077270705
 10
915.81982286101675
 20
-1349.9653437164957
 10
915.81705971217514
 20
-1349.9797603518809
 42
-0.0049289272178783
 10
915.72876559407553
 20
-1350.4170688630013
 10
915.7256530993925
 20
-1350.4317377158193
 42
-0.0047415956712596
 10
915.62241510786134
 20
-1350.8965344732248
 10
915.58764689750046
 20
-1351.0463415686131
 42
-0.0084404470902277
 10
915.39763045392647
 20
-1351.8065655931521
 10
915.39150376594296
 20
-1351.8294297172977
 42
-0.0039635940259673
 10
915.1700500816612
 20
-1352.630418581537
 10
915.15667328647942
 20
-1352.677350198137
 42
-0.0072475040836706
 10
914.88922639861607
 20
-1353.5665699145279
 10
914.8190140717943
 20
-1353.7883102644821
 42
-0.0051345458827437
 10
914.53225469973006
 20
-1354.6626354523103
 10
914.51072843294708
 20
-1354.7260617194856
 42
-0.0019150016601779
 10
914.25519502609586
 20
-1355.4696108396663
 10
914.24872742171965
 20
-1355.48819830453
 42
-0.0021524362754332
 10
914.00024937063586
 20
-1356.1925241262957
 10
913.9910389499413
 20
-1356.2182777045921
 42
-0.0024331286817505
 10
913.75478369090342
 20
-1356.8688770127155
 10
913.74573573835119
 20
-1356.8934203190745
 42
-0.0027449721786554
 10
913.52112116751744
 20
-1357.4925501979942
 10
913.51223116012295
 20
-1357.5158727878522
 42
-0.0031083229769338
 10
913.29868867351524
 20
-1358.0657968254261
 10
913.28995254185111
 20
-1358.0878865412551
 42
-0.0035311343283839
 10
913.08691135624781
 20
-1358.590869667014
 10
913.07832601710402
 20
-1358.6117123905151
 42
-0.004024564095105
 10
912.88521421330574
 20
-1359.0700217131166
 10
912.87677809970046
 20
-1359.0896010811939
 42
-0.0046015135850316
 10
912.69302180653892
 20
-1359.505506110831
 10
912.68473562870599
 20
-1359.5238032502934
 42
-0.0052768638271209
 10
912.50975810975501
 20
-1359.8995761345534
 10
912.50162589913475
 20
-1359.9165694730827
 42
-0.0060672675645519
 10
912.33484628636211
 20
-1360.2544850962108
 10
912.32687680588651
 20
-1360.2701503551964
 42
-0.0069904648874919
 10
912.16770841187918
 20
-1360.5724861618719
 10
912.15991701227108
 20
-1360.5867967110942
 42
-0.0080637022766363
 10
912.00776515192251
 20
-1360.8558320142522
 10
912.00017611928934
 20
-1360.8687598798563
 42
-0.0093006455660789
 10
911.85443544275972
 20
-1361.1067742783562
 10
911.84708477602396
 20
-1361.1182922475168
 42
-0.0107060778057463
 10
911.70713623257757
 20
-1361.3275625649082
 10
911.70007446429941
 20
-1361.337648107472
 42
-0.0122723111413592
 10
911.56528074609992
 20
-1361.5204414369632
 10
911.56495452254865
 20
-1361.5208618247693
 42
-0.0141836319630184
 10
911.4213729195717
 20
-1361.6954315826024
 10
911.4144251639176
 20
-1361.7034065828695
 42
-0.0175957477201429
 10
911.27451899588505
 20
-1361.8530274712718
 42
-0.0080466359670332
 10
911.1270552308556
 20
-1361.9953499994224
 10
911.08102068633741
 20
-1362.0383704375142
 42
-0.0269600260396645
 10
910.82774044035511
 20
-1362.2506936960228
 10
910.76117330406123
 20
-1362.3006451106444
 42
-0.0178362839758375
 10
910.52122881440164
 20
-1362.4676630368997
 10
910.51398384339996
 20
-1362.4723315491053
 42
-0.0174650732650543
 10
910.27764764595986
 20
-1362.6131925140637
 42
-0.0169240130165787
 10
910.03218140010267
 20
-1362.7374847738411
 10
909.98619524454443
 20
-1362.7588467294083
 42
-0.0318883036841815
 10
909.63584438892667
 20
-1362.8951850389178
 10
909.56747885375739
 20
-1362.9168856593947
 42
-0.0284435909897674
 10
909.19142872746863
 20
-1363.0131030948687
 10
909.15627056697167
 20
-1363.0199966906969
 42
-0.0243909341012737
 10
908.84282710605112
 20
-1363.0657177217272
 10
908.79254637927943
 20
-1363.0705632686288
 42
-0.0196639292932662
 10
908.57695080175267
 20
-1363.0828115541424
 10
908.52512673058254
 20
-1363.0837148148792
 42
-0.0100501510681259
 10
908.41270344892496
 20
-1363.083414416526
 10
908.38104358756982
 20
-1363.0826933446406
 42
-0.0019752031116873
 10
908.33195125089958
 20
-1363.0813811844309
 10
908.32919094766157
 20
-1363.0812964926042
 42
0.0065378752013419
 10
908.28561437292274
 20
-1363.0805296013898
 42
-0.016797469464893
 10
908.24208354999189
 20
-1363.0788697028638
 10
908.23800421072883
 20
-1363.0785766919689
 42
-0.0081283276282726
 10
908.18644441299261
 20
-1363.0740296983311
 10
908.17470483911166
 20
-1363.0728017807526
 42
-0.0126703440192284
 10
908.09998654332196
 20
-1363.0630669896816
 10
908.07719867564151
 20
-1363.0595087337658
 42
-0.0117852088439309
 10
907.95765968981527
 20
-1363.03794573861
 10
907.90227923804605
 20
-1363.0266021983741
 42
-0.0251774592298265
 10
907.67543519904007
 20
-1362.9681041889417
 10
907.63071600918408
 20
-1362.9541373696047
 42
-0.0146525199891804
 10
907.44432302164864
 20
-1362.8898708424076
 42
-0.0166929435859457
 10
907.26234536552283
 20
-1362.8140637093536
 10
907.25768873424886
 20
-1362.8119388087391
 42
-0.0191684358438131
 10
907.07250510300128
 20
-1362.7187027249502
 10
907.06917251724258
 20
-1362.7168614773959
 42
-0.0221181781810354
 10
906.88586221333958
 20
-1362.6047279790243
 10
906.88351240933196
 20
-1362.603143681034
 42
-0.0254984685376433
 10
906.70722225894667
 20
-1362.4707325310646
 10
906.68474011124511
 20
-1362.4519802221287
 42
-0.0292492648804463
 10
906.55997117240167
 20
-1362.3348874224851
 42
-0.0159048957498346
 10
906.44613117495101
 20
-1362.2068674308853
 10
906.4448123843722
 20
-1362.2052858178658
 42
-0.0343813379570681
 10
906.34217512274563
 20
-1362.0634144920957
 10
906.31068359138624
 20
-1362.0129111000042
 42
-0.0369117275704879
 10
906.22479108948789
 20
-1361.849433859054
 42
-0.0191751379911814
 10
906.15759770393163
 20
-1361.67702925305
 10
906.15583438017143
 20
-1361.6719359083731
 42
-0.037817804222814
 10
906.10603966138706
 20
-1361.4829951322913
 10
906.10004436565703
 20
-1361.4504345140958
 42
-0.0184846046468108
 10
906.07932716636242
 20
-1361.3086816935499
 42
-0.0179866351316171
 10
906.06899416128886
 20
-1361.1657908804718
 10
906.06893771884302
 20
-1361.1642331938563
 42
-0.0085497186139136
 10
906.06750543773921
 20
-1361.0893600288464
 42
-0.0085497186139136
  0
ENDBLK
  5
55
100
AcDbEntity
  8
template
390
0
100
AcDbBlockEnd
  0
BLOCK
  5
56
100
AcDbEntity
  8
notes
390
0
100
AcDbBlockBegin
  2
*D3
 70
               1
 10
0.0
 20
0.0
 30
0.0
  3
*D3
  1

  0
LINE
  5
57
100
AcDbEntity
  8
0
370
              -2
390
0
  6
Continuous
 62
               0
100
AcDbLine
 10
-313.36688898931573
 20
635.65989382202076
 30
0.0
 11
-313.36688898931573
 21
875.65989382202065
 31
0.0
  0
LINE
  5
58
100
AcDbEntity
  8
0
370
              -2
390
0
  6
Continuous
 62
               0
100
AcDbLine
 10
-673.36688898931607
 20
635.65989382202076
 30
0.0
 11
-673.36688898931607
 21
875.65989382202065
 31
0.0
  0
LINE
  5
59
100
AcDbEntity
  8
0
370
              -2
390
0
  6
Continuous
 62
               0
100
AcDbLine
 10
-313.36688898931573
 20
875.65989382202065
 30
0.0
 11
-673.36688898931607
 21
875.65989382202065
 31
0.0
  0
CIRCLE
  5
5A
102
{ACAD_REACTORS
330
5B
102
}
100
AcDbEntity
  8
0
370
              -2
390
0
  6
Continuous
 62
               0
100
AcDbCircle
 10
-313.36688898931573
 20
875.65989382202065
 30
0.0
 40
1.9998779296875
  0
HATCH
  5
5B
100
AcDbEntity
  8
0
370
              -2
390
0
  6
Continuous
 62
               0
100
AcDbHatch
 10
0.0
 20
0.0
 30
0.0
210
0.0
220
0.0
230
1.0
  2
SOLID
 70
               1
 71
               1
 91
        1
 92
        1
 93
        1
 72
               2
 10
-313.36688898931573
 20
875.65989382202065
 40
1.9998779296875
 50
0.0
 51
360.0
 73
               0
 97
        1
330
5A
 75
               0
 76
               1
 98
        1
 10
0.0
 20
0.0
  0
CIRCLE
  5
5C
102
{ACAD_REACTORS
330
5D
102
}
100
AcDbEntity
  8
0
370
              -2
390
0
  6
Continuous
 62
               0
100
AcDbCircle
 10
-673.36688898931607
 20
875.65989382202065
 30
0.0
 40
1.9998779296875
  0
HATCH
  5
5D
100
AcDbEntity
  8
0
370
              -2
390
0
  6
Continuous
 62
               0
100
AcDbHatch
 10
0.0
 20
0.0
 30
0.0
210
0.0
220
0.0
230
1.0
  2
SOLID
 70
               1
 71
               1
 91
        1
 92
        1
 93
        1
 72
               2
 10
-673.36688898931607
 20
875.65989382202065
 40
1.9998779296875
 50
0.0
 51
360.0
 73
               0
 97
        1
330
5C
 75
               0
 76
               1
 98
        1
 10
0.0
 20
0.0
  0
MTEXT
  5
5E
100
AcDbEntity
  8
0
390
0
 62
               0
100
AcDbMText
 10
-517.17939067149143
 20
909.5375110095207
 30
0.0
 40
24.432617187500004
 41
0.0
 71
               1
 72
               1
  1
360
  7
ＭＳ ゴシック
 73
               1
 44
0.7828267384257843
  0
POINT
  5
5F
100
AcDbEntity
  8
Defpoints
370
               0
390
0
 62
               0
100
AcDbPoint
 10
-673.36688898931607
 20
610.65989382202076
 30
0.0
  0
POINT
  5
60
100
AcDbEntity
  8
Defpoints
370
               0
390
0
 62
               0
100
AcDbPoint
 10
-313.36688898931573
 20
610.65989382202076
 30
0.0
  0
POINT
  5
61
100
AcDbEntity
  8
Defpoints
370
               0
390
0
 62
               0
100
AcDbPoint
 10
-313.36688898931573
 20
875.65989382202065
 30
0.0
  0
ENDBLK
  5
62
100
AcDbEntity
  8
notes
390
0
100
AcDbBlockEnd
  0
BLOCK
  5
63
100
AcDbEntity
  8
notes
390
0
100
AcDbBlockBegin
  2
*D4
 70
               1
 10
0.0
 20
0.0
 30
0.0
  3
*D4
  1

  0
LINE
  5
64
100
AcDbEntity
  8
0
370
              -2
390
0
  6
Continuous
 62
               0
100
AcDbLine
 10
-655.86688898931607
 20
483.24058098601063
 30
0.0
 11
-655.86688898931607
 21
305.65989382202065
 31
0.0
  0
LINE
  5
65
100
AcDbEntity
  8
0
370
              -2
390
0
  6
Continuous
 62
               0
100
AcDbLine
 10
-330.86688898931584
 20
483.24058098601063
 30
0.0
 11
-330.86688898931584
 21
305.65989382202065
 31
0.0
  0
LINE
  5
66
100
AcDbEntity
  8
0
370
              -2
390
0
  6
Continuous
 62
               0
100
AcDbLine
 10
-655.86688898931607
 20
305.65989382202065
 30
0.0
 11
-330.86688898931584
 21
305.65989382202065
 31
0.0
  0
CIRCLE
  5
67
102
{ACAD_REACTORS
330
68
102
}
100
AcDbEntity
  8
0
370
              -2
390
0
  6
Continuous
 62
               0
100
AcDbCircle
 10
-655.86688898931607
 20
305.65989382202065
 30
0.0
 40
1.9998779296875
  0
HATCH
  5
68
100
AcDbEntity
  8
0
370
              -2
390
0
  6
Continuous
 62
               0
100
AcDbHatch
 10
0.0
 20
0.0
 30
0.0
210
0.0
220
0.0
230
1.0
  2
SOLID
 70
               1
 71
               1
 91
        1
 92
        1
 93
        1
 72
               2
 10
-655.86688898931607
 20
305.65989382202065
 40
1.9998779296875
 50
0.0
 51
360.0
 73
               0
 97
        1
330
67
 75
               0
 76
               1
 98
        1
 10
0.0
 20
0.0
  0
CIRCLE
  5
69
102
{ACAD_REACTORS
330
6A
102
}
100
AcDbEntity
  8
0
370
              -2
390
0
  6
Continuous
 62
               0
100
AcDbCircle
 10
-330.86688898931584
 20
305.65989382202065
 30
0.0
 40
1.9998779296875
  0
HATCH
  5
6A
100
AcDbEntity
  8
0
370
              -2
390
0
  6
Continuous
 62
               0
100
AcDbHatch
 10
0.0
 20
0.0
 30
0.0
210
0.0
220
0.0
230
1.0
  2
SOLID
 70
               1
 71
               1
 91
        1
 92
        1
 93
        1
 72
               2
 10
-330.86688898931584
 20
305.65989382202065
 40
1.9998779296875
 50
0.0
 51
360.0
 73
               0
 97
        1
330
69
 75
               0
 76
               1
 98
        1
 10
0.0
 20
0.0
  0
MTEXT
  5
6B
100
AcDbEntity
  8
0
390
0
 62
               0
100
AcDbMText
 10
-517.17939067149143
 20
339.53751100952064
 30
0.0
 40
24.432617187500004
 41
0.0
 71
               1
 72
               1
  1
325
  7
ＭＳ ゴシック
 73
               1
 44
0.7828267384257843
  0
POINT
  5
6C
100
AcDbEntity
  8
Defpoints
370
               0
390
0
 62
               0
100
AcDbPoint
 10
-330.86688898931584
 20
508.24058098601063
 30
0.0
  0
POINT
  5
6D
100
AcDbEntity
  8
Defpoints
370
               0
390
0
 62
               0
100
AcDbPoint
 10
-655.86688898931607
 20
508.24058098601063
 30
0.0
  0
POINT
  5
6E
100
AcDbEntity
  8
Defpoints
370
               0
390
0
 62
               0
100
AcDbPoint
 10
-655.86688898931607
 20
305.65989382202065
 30
0.0
  0
ENDBLK
  5
6F
100
AcDbEntity
  8
notes
390
0
100
AcDbBlockEnd
  0
BLOCK
  5
70
100
AcDbEntity
  8
notes
390
0
100
AcDbBlockBegin
  2
*D5
 70
               1
 10
0.0
 20
0.0
 30
0.0
  3
*D5
  1

  0
LINE
  5
71
100
AcDbEntity
  8
0
370
              -2
390
0
  6
Continuous
 62
               0
100
AcDbLine
 10
-443.36688898931595
 20
405.65989382202065
 30
0.0
 11
-213.36688898931584
 21
405.65989382202065
 31
0.0
  0
LINE
  5
72
100
AcDbEntity
  8
0
370
              -2
390
0
  6
Continuous
 62
               0
100
AcDbLine
 10
-438.08622789502726
 20
775.65989382202065
 30
0.0
 11
-213.36688898931584
 21
775.65989382202065
 31
0.0
  0
LINE
  5
73
100
AcDbEntity
  8
0
370
              -2
390
0
  6
Continuous
 62
               0
100
AcDbLine
 10
-213.36688898931584
 20
405.65989382202065
 30
0.0
 11
-213.36688898931584
 21
775.65989382202065
 31
0.0
  0
CIRCLE
  5
74
102
{ACAD_REACTORS
330
75
102
}
100
AcDbEntity
  8
0
370
              -2
390
0
  6
Continuous
 62
               0
100
AcDbCircle
 10
-213.36688898931584
 20
405.65989382202065
 30
0.0
 40
1.9998779296875
  0
HATCH
  5
75
100
AcDbEntity
  8
0
370
              -2
390
0
  6
Continuous
 62
               0
100
AcDbHatch
 10
0.0
 20
0.0
 30
0.0
210
0.0
220
0.0
230
1.0
  2
SOLID
 70
               1
 71
               1
 91
        1
 92
        1
 93
        1
 72
               2
 10
-213.36688898931584
 20
405.65989382202065
 40
1.9998779296875
 50
0.0
 51
360.0
 73
               0
 97
        1
330
74
 75
               0
 76
               1
 98
        1
 10
0.0
 20
0.0
  0
CIRCLE
  5
76
102
{ACAD_REACTORS
330
77
102
}
100
AcDbEntity
  8
0
370
              -2
390
0
  6
Continuous
 62
               0
100
AcDbCircle
 10
-213.36688898931584
 20
775.65989382202065
 30
0.0
 40
1.9998779296875
  0
HATCH
  5
77
100
AcDbEntity
  8
0
370
              -2
390
0
  6
Continuous
 62
               0
100
AcDbHatch
 10
0.0
 20
0.0
 30
0.0
210
0.0
220
0.0
230
1.0
  2
SOLID
 70
               1
 71
               1
 91
        1
 92
        1
 93
        1
 72
               2
 10
-213.36688898931584
 20
775.65989382202065
 40
1.9998779296875
 50
0.0
 51
360.0
 73
               0
 97
        1
330
76
 75
               0
 76
               1
 98
        1
 10
0.0
 20
0.0
  0
MTEXT
  5
78
100
AcDbEntity
  8
0
390
0
 62
               0
100
AcDbMText
 10
-247.24450617681583
 20
566.84739213984517
 30
0.0
 40
24.432617187500004
 41
0.0
 71
               1
 72
               1
  1
370
  7
ＭＳ ゴシック
 11
0.0
 21
1.0
 31
0.0
 73
               1
 44
0.7828267384257843
  0
POINT
  5
79
100
AcDbEntity
  8
Defpoints
370
               0
390
0
 62
               0
100
AcDbPoint
 10
-463.08622789502726
 20
775.65989382202065
 30
0.0
  0
POINT
  5
7A
100
AcDbEntity
  8
Defpoints
370
               0
390
0
 62
               0
100
AcDbPoint
 10
-468.36688898931595
 20
405.65989382202065
 30
0.0
  0
POINT
  5
7B
100
AcDbEntity
  8
Defpoints
370
               0
390
0
 62
               0
100
AcDbPoint
 10
-213.36688898931584
 20
405.65989382202065
 30
0.0
  0
ENDBLK
  5
7C
100
AcDbEntity
  8
notes
390
0
100
AcDbBlockEnd
  0
BLOCK
  5
7D
100
AcDbEntity
  8
notes
390
0
100
AcDbBlockBegin
  2
*D6
 70
               1
 10
0.0
 20
0.0
 30
0.0
  3
*D6
  1

  0
LINE
  5
7E
100
AcDbEntity
  8
0
370
              -2
390
0
  6
Continuous
 62
               0
100
AcDbLine
 10
-288.57430105667606
 20
-440.18571198628865
 30
0.0
 11
-213.36688898931573
 21
-440.18571198628865
 31
0.0
  0
LINE
  5
7F
100
AcDbEntity
  8
0
370
              -2
390
0
  6
Continuous
 62
               0
100
AcDbLine
 10
-431.14865759882593
 20
-605.18571198628865
 30
0.0
 11
-213.36688898931573
 21
-605.18571198628865
 31
0.0
  0
LINE
  5
80
100
AcDbEntity
  8
0
370
              -2
390
0
  6
Continuous
 62
               0
100
AcDbLine
 10
-213.36688898931573
 20
-440.18571198628865
 30
0.0
 11
-213.36688898931573
 21
-605.18571198628865
 31
0.0
  0
CIRCLE
  5
81
102
{ACAD_REACTORS
330
82
102
}
100
AcDbEntity
  8
0
370
              -2
390
0
  6
Continuous
 62
               0
100
AcDbCircle
 10
-213.36688898931573
 20
-440.18571198628865
 30
0.0
 40
1.9998779296875
  0
HATCH
  5
82
100
AcDbEntity
  8
0
370
              -2
390
0
  6
Continuous
 62
               0
100
AcDbHatch
 10
0.0
 20
0.0
 30
0.0
210
0.0
220
0.0
230
1.0
  2
SOLID
 70
               1
 71
               1
 91
        1
 92
        1
 93
        1
 72
               2
 10
-213.36688898931573
 20
-440.18571198628865
 40
1.9998779296875
 50
0.0
 51
360.0
 73
               0
 97
        1
330
81
 75
               0
 76
               1
 98
        1
 10
0.0
 20
0.0
  0
CIRCLE
  5
83
102
{ACAD_REACTORS
330
84
102
}
100
AcDbEntity
  8
0
370
              -2
390
0
  6
Continuous
 62
               0
100
AcDbCircle
 10
-213.36688898931573
 20
-605.18571198628865
 30
0.0
 40
1.9998779296875
  0
HATCH
  5
84
100
AcDbEntity
  8
0
370
              -2
390
0
  6
Continuous
 62
               0
100
AcDbHatch
 10
0.0
 20
0.0
 30
0.0
210
0.0
220
0.0
230
1.0
  2
SOLID
 70
               1
 71
               1
 91
        1
 92
        1
 93
        1
 72
               2
 10
-213.36688898931573
 20
-605.18571198628865
 40
1.9998779296875
 50
0.0
 51
360.0
 73
               0
 97
        1
330
83
 75
               0
 76
               1
 98
        1
 10
0.0
 20
0.0
  0
MTEXT
  5
85
100
AcDbEntity
  8
0
390
0
 62
               0
100
AcDbMText
 10
-247.24450617681572
 20
-546.49821366846413
 30
0.0
 40
24.432617187500004
 41
0.0
 71
               1
 72
               1
  1
165
  7
ＭＳ ゴシック
 11
0.0
 21
1.0
 31
0.0
 73
               1
 44
0.7828267384257843
  0
POINT
  5
86
100
AcDbEntity
  8
Defpoints
370
               0
390
0
 62
               0
100
AcDbPoint
 10
-456.14865759882593
 20
-605.18571198628865
 30
0.0
  0
POINT
  5
87
100
AcDbEntity
  8
Defpoints
370
               0
390
0
 62
               0
100
AcDbPoint
 10
-313.57430105667606
 20
-440.18571198628865
 30
0.0
  0
POINT
  5
88
100
AcDbEntity
  8
Defpoints
370
               0
390
0
 62
               0
100
AcDbPoint
 10
-213.36688898931573
 20
-440.18571198628865
 30
0.0
  0
ENDBLK
  5
89
100
AcDbEntity
  8
notes
390
0
100
AcDbBlockEnd
  0
BLOCK
  5
8A
100
AcDbEntity
  8
notes
390
0
100
AcDbBlockBegin
  2
*D7
 70
               1
 10
0.0
 20
0.0
 30
0.0
  3
*D7
  1

  0
LINE
  5
8B
100
AcDbEntity
  8
0
370
              -2
390
0
  6
Continuous
 62
               0
100
AcDbLine
 10
607.04548127697581
 20
-440.18571198628865
 30
0.0
 11
682.04548127697581
 21
-440.18571198628865
 31
0.0
  0
LINE
  5
8C
100
AcDbEntity
  8
0
370
              -2
390
0
  6
Continuous
 62
               0
100
AcDbLine
 10
607.04548127697581
 20
-480.16556334308211
 30
0.0
 11
682.04548127697581
 21
-480.16556334308211
 31
0.0
  0
LINE
  5
8D
100
AcDbEntity
  8
0
370
              -2
390
0
  6
Continuous
 62
               0
100
AcDbLine
 10
682.04548127697581
 20
-440.18571198628865
 30
0.0
 11
682.04548127697581
 21
-396.25
 31
0.0
  0
LINE
  5
8E
100
AcDbEntity
  8
0
370
              -2
390
0
  6
Continuous
 62
               0
100
AcDbLine
 10
682.04548127697581
 20
-440.18571198628865
 30
0.0
 11
682.04548127697581
 21
-480.16556334308211
 31
0.0
  0
CIRCLE
  5
8F
102
{ACAD_REACTORS
330
90
102
}
100
AcDbEntity
  8
0
370
              -2
390
0
  6
Continuous
 62
               0
100
AcDbCircle
 10
682.04548127697581
 20
-440.18571198628865
 30
0.0
 40
1.9998779296875
  0
HATCH
  5
90
100
AcDbEntity
  8
0
370
              -2
390
0
  6
Continuous
 62
               0
100
AcDbHatch
 10
0.0
 20
0.0
 30
0.0
210
0.0
220
0.0
230
1.0
  2
SOLID
 70
               1
 71
               1
 91
        1
 92
        1
 93
        1
 72
               2
 10
682.04548127697581
 20
-440.18571198628865
 40
1.9998779296875
 50
0.0
 51
360.0
 73
               0
 97
        1
330
8F
 75
               0
 76
               1
 98
        1
 10
0.0
 20
0.0
  0
CIRCLE
  5
91
102
{ACAD_REACTORS
330
92
102
}
100
AcDbEntity
  8
0
370
              -2
390
0
  6
Continuous
 62
               0
100
AcDbCircle
 10
682.04548127697581
 20
-480.16556334308211
 30
0.0
 40
1.9998779296875
  0
HATCH
  5
92
100
AcDbEntity
  8
0
370
              -2
390
0
  6
Continuous
 62
               0
100
AcDbHatch
 10
0.0
 20
0.0
 30
0.0
210
0.0
220
0.0
230
1.0
  2
SOLID
 70
               1
 71
               1
 91
        1
 92
        1
 93
        1
 72
               2
 10
682.04548127697581
 20
-480.16556334308211
 40
1.9998779296875
 50
0.0
 51
360.0
 73
               0
 97
        1
330
91
 75
               0
 76
               1
 98
        1
 10
0.0
 20
0.0
  0
MTEXT
  5
93
100
AcDbEntity
  8
0
390
0
 62
               0
100
AcDbMText
 10
648.16786408947576
 20
-428.0
 30
0.0
 40
24.432617187500004
 41
0.0
 71
               1
 72
               1
  1
40
  7
ＭＳ ゴシック
 11
0.0
 21
1.0
 31
0.0
 73
               1
 44
0.7828267384257843
  0
POINT
  5
94
100
AcDbEntity
  8
Defpoints
370
               0
390
0
 62
               0
100
AcDbPoint
 10
582.04548127697581
 20
-480.16556334308211
 30
0.0
  0
POINT
  5
95
100
AcDbEntity
  8
Defpoints
370
               0
390
0
 62
               0
100
AcDbPoint
 10
582.04548127697581
 20
-440.18571198628865
 30
0.0
  0
POINT
  5
96
100
AcDbEntity
  8
Defpoints
370
               0
390
0
 62
               0
100
AcDbPoint
 10
682.04548127697581
 20
-440.18571198628865
 30
0.0
  0
ENDBLK
  5
97
100
AcDbEntity
  8
notes
390
0
100
AcDbBlockEnd
  0
BLOCK
  5
98
100
AcDbEntity
  8
notes
390
0
100
AcDbBlockBegin
  2
*D8
 70
               1
 10
0.0
 20
0.0
 30
0.0
  3
*D8
  1

  0
LINE
  5
99
100
AcDbEntity
  8
0
370
              -2
390
0
  6
Continuous
 62
               0
100
AcDbLine
 10
607.04548127697581
 20
-480.16556334308211
 30
0.0
 11
682.04548127697581
 21
-480.16556334308211
 31
0.0
  0
LINE
  5
9A
100
AcDbEntity
  8
0
370
              -2
390
0
  6
Continuous
 62
               0
100
AcDbLine
 10
463.72915445842705
 20
-605.18571198628865
 30
0.0
 11
682.04548127697581
 21
-605.18571198628865
 31
0.0
  0
LINE
  5
9B
100
AcDbEntity
  8
0
370
              -2
390
0
  6
Continuous
 62
               0
100
AcDbLine
 10
682.04548127697581
 20
-480.16556334308211
 30
0.0
 11
682.04548127697581
 21
-605.18571198628865
 31
0.0
  0
CIRCLE
  5
9C
102
{ACAD_REACTORS
330
9D
102
}
100
AcDbEntity
  8
0
370
              -2
390
0
  6
Continuous
 62
               0
100
AcDbCircle
 10
682.04548127697581
 20
-480.16556334308211
 30
0.0
 40
1.9998779296875
  0
HATCH
  5
9D
100
AcDbEntity
  8
0
370
              -2
390
0
  6
Continuous
 62
               0
100
AcDbHatch
 10
0.0
 20
0.0
 30
0.0
210
0.0
220
0.0
230
1.0
  2
SOLID
 70
               1
 71
               1
 91
        1
 92
        1
 93
        1
 72
               2
 10
682.04548127697581
 20
-480.16556334308211
 40
1.9998779296875
 50
0.0
 51
360.0
 73
               0
 97
        1
330
9C
 75
               0
 76
               1
 98
        1
 10
0.0
 20
0.0
  0
CIRCLE
  5
9E
102
{ACAD_REACTORS
330
9F
102
}
100
AcDbEntity
  8
0
370
              -2
390
0
  6
Continuous
 62
               0
100
AcDbCircle
 10
682.04548127697581
 20
-605.18571198628865
 30
0.0
 40
1.9998779296875
  0
HATCH
  5
9F
100
AcDbEntity
  8
0
370
              -2
390
0
  6
Continuous
 62
               0
100
AcDbHatch
 10
0.0
 20
0.0
 30
0.0
210
0.0
220
0.0
230
1.0
  2
SOLID
 70
               1
 71
               1
 91
        1
 92
        1
 93
        1
 72
               2
 10
682.04548127697581
 20
-605.18571198628865
 40
1.9998779296875
 50
0.0
 51
360.0
 73
               0
 97
        1
330
9E
 75
               0
 76
               1
 98
        1
 10
0.0
 20
0.0
  0
MTEXT
  5
A0
100
AcDbEntity
  8
0
390
0
 62
               0
100
AcDbMText
 10
648.16786408947576
 20
-566.48813934686086
 30
0.0
 40
24.432617187500004
 41
0.0
 71
               1
 72
               1
  1
125
  7
ＭＳ ゴシック
 11
0.0
 21
1.0
 31
0.0
 73
               1
 44
0.7828267384257843
  0
POINT
  5
A1
100
AcDbEntity
  8
Defpoints
370
               0
390
0
 62
               0
100
AcDbPoint
 10
438.72915445842705
 20
-605.18571198628865
 30
0.0
  0
POINT
  5
A2
100
AcDbEntity
  8
Defpoints
370
               0
390
0
 62
               0
100
AcDbPoint
 10
582.04548127697581
 20
-480.16556334308211
 30
0.0
  0
POINT
  5
A3
100
AcDbEntity
  8
Defpoints
370
               0
390
0
 62
               0
100
AcDbPoint
 10
682.04548127697581
 20
-480.16556334308211
 30
0.0
  0
ENDBLK
  5
A4
100
AcDbEntity
  8
notes
390
0
100
AcDbBlockEnd
  0
BLOCK
  5
A5
100
AcDbEntity
  8
notes
390
0
100
AcDbBlockBegin
  2
*D9
 70
               1
 10
0.0
 20
0.0
 30
0.0
  3
*D9
  1

  0
LINE
  5
A6
100
AcDbEntity
  8
0
370
              -2
390
0
  6
Continuous
 62
               0
100
AcDbLine
 10
381.65153716751399
 20
-440.18571198628871
 30
0.0
 11
399.65153716751399
 21
-440.18571198628871
 31
0.0
  0
LINE
  5
A7
100
AcDbEntity
  8
0
370
              -2
390
0
  6
Continuous
 62
               0
100
AcDbLine
 10
381.65153716751399
 20
-565.18571198628865
 30
0.0
 11
399.65153716751399
 21
-565.18571198628865
 31
0.0
  0
LINE
  5
A8
100
AcDbEntity
  8
0
370
              -2
390
0
  6
Continuous
 62
               0
100
AcDbLine
 10
399.65153716751399
 20
-440.18571198628871
 30
0.0
 11
399.65153716751399
 21
-286.91840714087539
 31
0.0
  0
LINE
  5
A9
100
AcDbEntity
  8
0
370
              -2
390
0
  6
Continuous
 62
               0
100
AcDbLine
 10
399.65153716751399
 20
-440.18571198628871
 30
0.0
 11
399.65153716751399
 21
-565.18571198628865
 31
0.0
  0
CIRCLE
  5
AA
102
{ACAD_REACTORS
330
AB
102
}
100
AcDbEntity
  8
0
370
              -2
390
0
  6
Continuous
 62
               0
100
AcDbCircle
 10
399.65153716751399
 20
-440.18571198628871
 30
0.0
 40
1.9998779296875
  0
HATCH
  5
AB
100
AcDbEntity
  8
0
370
              -2
390
0
  6
Continuous
 62
               0
100
AcDbHatch
 10
0.0
 20
0.0
 30
0.0
210
0.0
220
0.0
230
1.0
  2
SOLID
 70
               1
 71
               1
 91
        1
 92
        1
 93
        1
 72
               2
 10
399.65153716751399
 20
-440.18571198628871
 40
1.9998779296875
 50
0.0
 51
360.0
 73
               0
 97
        1
330
AA
 75
               0
 76
               1
 98
        1
 10
0.0
 20
0.0
  0
CIRCLE
  5
AC
102
{ACAD_REACTORS
330
AD
102
}
100
AcDbEntity
  8
0
370
              -2
390
0
  6
Continuous
 62
               0
100
AcDbCircle
 10
399.65153716751399
 20
-565.18571198628865
 30
0.0
 40
1.9998779296875
  0
HATCH
  5
AD
100
AcDbEntity
  8
0
370
              -2
390
0
  6
Continuous
 62
               0
100
AcDbHatch
 10
0.0
 20
0.0
 30
0.0
210
0.0
220
0.0
230
1.0
  2
SOLID
 70
               1
 71
               1
 91
        1
 92
        1
 93
        1
 72
               2
 10
399.65153716751399
 20
-565.18571198628865
 40
1.9998779296875
 50
0.0
 51
360.0
 73
               0
 97
        1
330
AC
 75
               0
 76
               1
 98
        1
 10
0.0
 20
0.0
  0
MTEXT
  5
AE
100
AcDbEntity
  8
0
390
0
 62
               0
100
AcDbMText
 10
365.773919980014
 20
-429.79340714087539
 30
0.0
 40
24.432617187500004
 41
0.0
 71
               1
 72
               1
  1
125(深さ)
  7
ＭＳ ゴシック
 11
0.0
 21
1.0
 31
0.0
 73
               1
 44
0.7828267384257843
  0
POINT
  5
AF
100
AcDbEntity
  8
Defpoints
370
               0
390
0
 62
               0
100
AcDbPoint
 10
406.65153716751399
 20
-565.18571198628865
 30
0.0
  0
POINT
  5
B0
100
AcDbEntity
  8
Defpoints
370
               0
390
0
 62
               0
100
AcDbPoint
 10
406.65153716751399
 20
-440.18571198628871
 30
0.0
  0
POINT
  5
B1
100
AcDbEntity
  8
Defpoints
370
               0
390
0
 62
               0
100
AcDbPoint
 10
399.65153716751399
 20
-440.18571198628871
 30
0.0
  0
ENDBLK
  5
B2
100
AcDbEntity
  8
notes
390
0
100
AcDbBlockEnd
  0
BLOCK
  5
B3
100
AcDbEntity
  8
notes
390
0
100
AcDbBlockBegin
  2
*D10
 70
               1
 10
0.0
 20
0.0
 30
0.0
  3
*D10
  1

  0
LINE
  5
B4
100
AcDbEntity
  8
0
370
              -2
390
0
  6
Continuous
 62
               0
100
AcDbLine
 10
463.60697759921982
 20
451.42595623543377
 30
0.0
 11
521.65153716751399
 21
350.88982996019013
 31
0.0
  0
CIRCLE
  5
B5
102
{ACAD_REACTORS
330
B6
102
}
100
AcDbEntity
  8
0
370
              -2
390
0
  6
Continuous
 62
               0
100
AcDbCircle
 10
463.60697759921982
 20
451.42595623543377
 30
0.0
 40
1.9998779296875
  0
HATCH
  5
B6
100
AcDbEntity
  8
0
370
              -2
390
0
  6
Continuous
 62
               0
100
AcDbHatch
 10
0.0
 20
0.0
 30
0.0
210
0.0
220
0.0
230
1.0
  2
SOLID
 70
               1
 71
               1
 91
        1
 92
        1
 93
        1
 72
               2
 10
463.60697759921982
 20
451.42595623543377
 40
1.9998779296875
 50
0.0
 51
360.0
 73
               0
 97
        1
330
B5
 75
               0
 76
               1
 98
        1
 10
0.0
 20
0.0
  0
LINE
  5
B7
100
AcDbEntity
  8
0
370
              -2
390
0
  6
Continuous
 62
               0
100
AcDbLine
 10
521.65153716751399
 20
350.88982996019013
 30
0.0
 11
661.02653716751399
 21
350.88982996019013
 31
0.0
  0
MTEXT
  5
B8
100
AcDbEntity
  8
0
390
0
 62
               0
100
AcDbMText
 10
581.65153716751399
 20
384.76744714769012
 30
0.0
 40
24.432617187500004
 41
0.0
 71
               1
 72
               1
  1
φ310
  7
ＭＳ ゴシック
 73
               1
 44
0.7828267384257843
  0
POINT
  5
B9
100
AcDbEntity
  8
Defpoints
370
               0
390
0
 62
               0
100
AcDbPoint
 10
308.60697759922078
 20
719.89383140860798
 30
0.0
  0
POINT
  5
BA
100
AcDbEntity
  8
Defpoints
370
               0
390
0
 62
               0
100
AcDbPoint
 10
463.60697759921982
 20
451.42595623543377
 30
0.0
  0
ENDBLK
  5
BB
100
AcDbEntity
  8
notes
390
0
100
AcDbBlockEnd
  0
BLOCK
  5
BC
100
AcDbEntity
  8
notes
390
0
100
AcDbBlockBegin
  2
*D11
 70
               1
 10
0.0
 20
0.0
 30
0.0
  3
*D11
  1

  0
LINE
  5
BD
100
AcDbEntity
  8
0
370
              -2
390
0
  6
Continuous
 62
               0
100
AcDbLine
 10
212.6473442922553
 20
-495.0
 30
0.0
 11
212.6473442922553
 21
-705.18571198628865
 31
0.0
  0
LINE
  5
BE
100
AcDbEntity
  8
0
370
              -2
390
0
  6
Continuous
 62
               0
100
AcDbLine
 10
402.64734429225507
 20
-630.18571198628865
 30
0.0
 11
402.64734429225507
 21
-705.18571198628865
 31
0.0
  0
LINE
  5
BF
100
AcDbEntity
  8
0
370
              -2
390
0
  6
Continuous
 62
               0
100
AcDbLine
 10
212.6473442922553
 20
-705.18571198628865
 30
0.0
 11
402.64734429225507
 21
-705.18571198628865
 31
0.0
  0
CIRCLE
  5
C0
102
{ACAD_REACTORS
330
C1
102
}
100
AcDbEntity
  8
0
370
              -2
390
0
  6
Continuous
 62
               0
100
AcDbCircle
 10
212.6473442922553
 20
-705.18571198628865
 30
0.0
 40
1.9998779296875
  0
HATCH
  5
C1
100
AcDbEntity
  8
0
370
              -2
390
0
  6
Continuous
 62
               0
100
AcDbHatch
 10
0.0
 20
0.0
 30
0.0
210
0.0
220
0.0
230
1.0
  2
SOLID
 70
               1
 71
               1
 91
        1
 92
        1
 93
        1
 72
               2
 10
212.6473442922553
 20
-705.18571198628865
 40
1.9998779296875
 50
0.0
 51
360.0
 73
               0
 97
        1
330
C0
 75
               0
 76
               1
 98
        1
 10
0.0
 20
0.0
  0
CIRCLE
  5
C2
102
{ACAD_REACTORS
330
C3
102
}
100
AcDbEntity
  8
0
370
              -2
390
0
  6
Continuous
 62
               0
100
AcDbCircle
 10
402.64734429225507
 20
-705.18571198628865
 30
0.0
 40
1.9998779296875
  0
HATCH
  5
C3
100
AcDbEntity
  8
0
370
              -2
390
0
  6
Continuous
 62
               0
100
AcDbHatch
 10
0.0
 20
0.0
 30
0.0
210
0.0
220
0.0
230
1.0
  2
SOLID
 70
               1
 71
               1
 91
        1
 92
        1
 93
        1
 72
               2
 10
402.64734429225507
 20
-705.18571198628865
 40
1.9998779296875
 50
0.0
 51
360.0
 73
               0
 97
        1
330
C2
 75
               0
 76
               1
 98
        1
 10
0.0
 20
0.0
  0
MTEXT
  5
C4
100
AcDbEntity
  8
0
390
0
 62
               0
100
AcDbMText
 10
283.83484261007965
 20
-671.3080947987886
 30
0.0
 40
24.432617187500004
 41
0.0
 71
               1
 72
               1
  1
190
  7
ＭＳ ゴシック
 73
               1
 44
0.7828267384257843
  0
POINT
  5
C5
100
AcDbEntity
  8
Defpoints
370
               0
390
0
 62
               0
100
AcDbPoint
 10
402.64734429225507
 20
-605.18571198628865
 30
0.0
  0
POINT
  5
C6
100
AcDbEntity
  8
Defpoints
370
               0
390
0
 62
               0
100
AcDbPoint
 10
212.6473442922553
 20
-470.0
 30
0.0
  0
POINT
  5
C7
100
AcDbEntity
  8
Defpoints
370
               0
390
0
 62
               0
100
AcDbPoint
 10
212.6473442922553
 20
-705.18571198628865
 30
0.0
  0
ENDBLK
  5
C8
100
AcDbEntity
  8
notes
390
0
100
AcDbBlockEnd
  0
ENDSEC
  0
SECTION
  2
ENTITIES
  0
MTEXT
  5
C9
100
AcDbEntity
  8
template
390
0
 62
               7
100
AcDbMText
 10
-967.99999999975921
 20
-1147.4176292337004
 30
0.0
 40
16.288411458333332
 41
0.0
 71
               1
 72
               1
  1
品名
  7
ＭＳ ゴシック
 73
               1
 44
0.7828267384257843
  0
MTEXT
  5
CA
100
AcDbEntity
  8
template
390
0
 62
               7
100
AcDbMText
 10
-967.99999999975921
 20
-1232.4176292337004
 30
0.0
 40
16.288411458333332
 41
0.0
 71
               1
 72
               1
  1
仕様
  7
ＭＳ ゴシック
 73
               1
 44
0.7828267384257843
  0
LINE
  5
CB
100
AcDbEntity
  8
template
370
               5
390
0
  6
Continuous
 62
               7
100
AcDbLine
 10
974.99999999975876
 20
-1224.0027073587005
 30
0.0
 11
-975.00000000024124
 21
-1224.0027073587005
 31
0.0
  0
LWPOLYLINE
  5
CC
100
AcDbEntity
  8
template
370
               5
390
0
  6
Continuous
 62
               7
100
AcDbPolyline
 90
        5
 70
             128
 10
975.00000000024124
 20
1405.9972926412995
 10
-974.99999999975921
 20
1405.9972926412995
 10
-974.99999999975921
 20
-1394.0027073587005
 10
975.00000000024124
 20
-1394.0027073587005
 10
975.00000000024124
 20
1405.9972926412995
  0
LINE
  5
CD
100
AcDbEntity
  8
template
370
               5
390
0
  6
Continuous
 62
               7
100
AcDbLine
 10
974.99999999975876
 20
-1139.0027073587005
 30
0.0
 11
-975.00000000024124
 21
-1139.0027073587005
 31
0.0
  0
LINE
  5
CE
100
AcDbEntity
  8
template
370
               5
390
0
  6
Continuous
 62
               7
100
AcDbLine
 10
975.00000000024124
 20
-1309.0027073587005
 30
0.0
 11
222.00000000024124
 21
-1309.0027073587005
 31
0.0
  0
MTEXT
  5
CF
100
AcDbEntity
  8
template
390
0
 62
               7
100
AcDbMText
 10
251.87140625250089
 20
-1338.9131018320081
 30
0.0
 40
24.432617187500004
 41
0.0
 71
               1
 72
               1
  1
大洋金物株式会社 ティーフォルム事業部
  7
ＭＳ ゴシック
 73
               1
 44
0.7828267384257843
  0
INSERT
  5
D0
100
AcDbEntity
  8
template
390
0
 62
               7
100
AcDbBlockReference
  2
グループ
 10
-5.00000000000135
 20
0.0
 30
0.0
  0
MTEXT
  5
D1
100
AcDbEntity
  8
template
390
0
 62
               7
100
AcDbMText
 10
784.00000000049999
 20
-1261.0000901712006
 30
0.0
 40
24.432617187500004
 41
0.0
 71
               1
 72
               1
  1
1:10
  7
ＭＳ ゴシック
 73
               1
 44
0.7828267384257843
  0
MTEXT
  5
D2
100
AcDbEntity
  8
template
390
0
 62
               7
100
AcDbMText
 10
731.00000000049999
 20
-1232.4176292337004
 30
0.0
 40
16.288411458333332
 41
0.0
 71
               1
 72
               1
  1
縮尺
  7
ＭＳ ゴシック
 73
               1
 44
0.7828267384257843
  0
LINE
  5
D3
100
AcDbEntity
  8
template
370
               5
390
0
  6
Continuous
 62
               7
100
AcDbLine
 10
724.00000000049999
 20
-1309.0027073587005
 30
0.0
 11
724.00000000049999
 21
-1224.0027073587005
 31
0.0
  0
MTEXT
  5
D4
100
AcDbEntity
  8
template
390
0
 62
               7
100
AcDbMText
 10
480.00000000049999
 20
-1232.4176292337004
 30
0.0
 40
16.288411458333332
 41
0.0
 71
               1
 72
               1
  1
容量
  7
ＭＳ ゴシック
 73
               1
 44
0.7828267384257843
  0
MTEXT
  5
D5
100
AcDbEntity
  8
template
390
0
 62
               7
100
AcDbMText
 10
533.00000000049999
 20
-1261.0000901712006
 30
0.0
 40
24.432617187500004
 41
0.0
 71
               1
 72
               1
  1
3.8L
  7
ＭＳ ゴシック
 73
               1
 44
0.7828267384257843
  0
LINE
  5
D6
100
AcDbEntity
  8
template
370
               5
390
0
  6
Continuous
 62
               7
100
AcDbLine
 10
473.00000000049999
 20
-1309.0027073587005
 30
0.0
 11
473.00000000049999
 21
-1224.0027073587005
 31
0.0
  0
MTEXT
  5
D7
100
AcDbEntity
  8
template
390
0
 62
               7
100
AcDbMText
 10
229.00000000049999
 20
-1147.4176292337004
 30
0.0
 40
16.288411458333332
 41
0.0
 71
               1
 72
               1
  1
品番
  7
ＭＳ ゴシック
 73
               1
 44
0.7828267384257843
  0
MTEXT
  5
D8
100
AcDbEntity
  8
template
390
0
 62
               7
100
AcDbMText
 10
229.00000000049999
 20
-1232.4176292337004
 30
0.0
 40
16.288411458333332
 41
0.0
 71
               1
 72
               1
  1
重量
  7
ＭＳ ゴシック
 73
               1
 44
0.7828267384257843
  0
MTEXT
  5
D9
100
AcDbEntity
  8
template
390
0
 62
               7
100
AcDbMText
 10
282.00000000049999
 20
-1176.0000901712006
 30
0.0
 40
24.432617187500004
 41
0.0
 71
               1
 72
               1
  1
FAA70-0112
  7
ＭＳ ゴシック
 73
               1
 44
0.7828267384257843
  0
MTEXT
  5
DA
100
AcDbEntity
  8
template
390
0
 62
               7
100
AcDbMText
 10
282.00000000049999
 20
-1261.0000901712006
 30
0.0
 40
24.432617187500004
 41
0.0
 71
               1
 72
               1
  1
4.9kg
  7
ＭＳ ゴシック
 73
               1
 44
0.7828267384257843
  0
LINE
  5
DB
100
AcDbEntity
  8
template
370
               5
390
0
  6
Continuous
 62
               7
100
AcDbLine
 10
222.00000000049999
 20
-1394.0027073587005
 30
0.0
 11
222.00000000049999
 21
-1139.0027073587005
 31
0.0
  0
MTEXT
  5
DC
100
AcDbEntity
  8
template
390
0
 62
               7
100
AcDbMText
 10
-914.99999999975921
 20
-1261.0000901712006
 30
0.0
 40
24.432617187500004
 41
0.0
 71
               1
 72
               1
  1
アンダーカウンター/オーバーフロー付き/カウンター固定金具,型 紙付属/\P陶器/ホワイト
  7
ＭＳ ゴシック
 73
               1
 44
1.1307497332816883
  0
MTEXT
  5
DD
100
AcDbEntity
  8
template
390
0
 62
               7
100
AcDbMText
 10
-974.99999999955594
 20
-1405.8565294155574
 30
0.0
 40
21.717881944444446
 41
0.0
 71
               1
 72
               1
  1
100707SH
  7
ＭＳ ゴシック
 73
               1
 44
0.7828267384257843
  0
MTEXT
  5
DE
100
AcDbEntity
  8
template
390
0
 62
               7
100
AcDbMText
 10
-914.99999999975921
 20
-1176.0000901712006
 30
0.0
 40
24.432617187500004
 41
0.0
 71
               1
 72
               1
  1
手洗器 -DURAVIT,Architec-　
  7
ＭＳ ゴシック
 73
               1
 44
0.7828267384257843
  0
MTEXT
  5
DF
100
AcDbEntity
  8
notes
390
0
 62
               7
100
AcDbMText
 10
55.669963324344742
 20
123.46736567478852
 30
0.0
 40
24.432617187500004
 41
780.0
 71
               1
 72
               1
  1
※陶器製品には寸法公差があります。\P  洗面器の収め方をご確認の上、必ず現物を合わせて\P  カウンターの切込を行ってください。
  7
ＭＳ ゴシック
 73
               1
 44
1.0437689845677123
  0
MTEXT
  5
E0
100
AcDbEntity
  8
notes
390
0
 62
               7
100
AcDbMText
 10
249.54980317537451
 20
998.50589549927872
 30
0.0
 40
24.432617187500004
 41
0.0
 71
               1
 72
               1
  1
カウンター切込寸法
  7
ＭＳ ゴシック
 73
               1
 44
0.7828267384257843
  0
DIMENSION
  5
E1
100
AcDbEntity
  8
notes
370
               5
390
0
  6
Continuous
 62
               7
100
AcDbDimension
  2
*D3
 10
-313.36688898931573
 20
875.65989382202065
 30
0.0
 11
-493.3668889893159
 21
875.65989382202065
 31
0.0
 71
               5
 72
               1
 41
1.0
 42
0.0
  3
tfrom線あり
100
AcDbAlignedDimension
 13
-673.36688898931607
 23
610.65989382202076
 33
0.0
 14
-313.36688898931573
 24
610.65989382202076
 34
0.0
100
AcDbRotatedDimension
1001
ACAD
1000
DSTYLE
1002
{
1070
             279
1070
               2
1070
             340
1005
2D
1070
             147
1040
5.0
1002
}
  0
DIMENSION
  5
E2
100
AcDbEntity
  8
notes
370
               5
390
0
  6
Continuous
 62
               7
100
AcDbDimension
  2
*D4
 10
-655.86688898931607
 20
305.65989382202065
 30
0.0
 11
-493.36688898931595
 21
305.65989382202065
 31
0.0
 71
               5
 72
               1
 41
1.0
 42
0.0
  3
tfrom線あり
100
AcDbAlignedDimension
 13
-330.86688898931584
 23
508.24058098601063
 33
0.0
 14
-655.86688898931607
 24
508.24058098601063
 34
0.0
100
AcDbRotatedDimension
1001
ACAD
1000
DSTYLE
1002
{
1070
             279
1070
               2
1070
             340
1005
2D
1070
             147
1040
5.0
1002
}
  0
DIMENSION
  5
E3
100
AcDbEntity
  8
notes
370
               5
390
0
  6
Continuous
 62
               7
100
AcDbDimension
  2
*D5
 10
-213.36688898931584
 20
405.65989382202065
 30
0.0
 11
-213.36688898931584
 21
590.65989382202065
 31
0.0
 71
               5
 72
               1
 41
1.0
 42
0.0
  3
tfrom線あり
100
AcDbAlignedDimension
 13
-463.08622789502726
 23
775.65989382202065
 33
0.0
 14
-468.36688898931595
 24
405.65989382202065
 34
0.0
 50
90.0
100
AcDbRotatedDimension
1001
ACAD
1000
DSTYLE
1002
{
1070
             279
1070
               2
1070
             340
1005
2D
1070
             147
1040
5.0
1002
}
  0
DIMENSION
  5
E4
100
AcDbEntity
  8
notes
370
               5
390
0
  6
Continuous
 62
               7
100
AcDbDimension
  2
*D6
 10
-213.36688898931573
 20
-440.18571198628865
 30
0.0
 11
-208.36688898931573
 21
-522.68571198628865
 31
0.0
 70
             128
 71
               5
 72
               1
 41
1.0
 42
0.0
  3
tfrom線あり
100
AcDbAlignedDimension
 13
-456.14865759882593
 23
-605.18571198628865
 33
0.0
 14
-313.57430105667606
 24
-440.18571198628865
 34
0.0
 50
90.0
100
AcDbRotatedDimension
1001
ACAD
1000
DSTYLE
1002
{
1070
             279
1070
               2
1070
             340
1005
2D
1070
             147
1040
5.0
1002
}
  0
DIMENSION
  5
E5
100
AcDbEntity
  8
notes
370
               5
390
0
  6
Continuous
 62
               7
100
AcDbDimension
  2
*D7
 10
682.04548127697581
 20
-440.18571198628865
 30
0.0
 11
687.04548127697581
 21
-428.0
 31
0.0
 70
             128
 71
               5
 72
               1
 41
1.0
 42
0.0
  3
tfrom線あり
100
AcDbAlignedDimension
 13
582.04548127697581
 23
-480.16556334308211
 33
0.0
 14
582.04548127697581
 24
-440.18571198628865
 34
0.0
 50
90.0
100
AcDbRotatedDimension
1001
ACAD
1000
DSTYLE
1002
{
1070
             279
1070
               2
1070
             340
1005
2D
1070
             174
1070
               0
1070
             147
1040
5.0
1002
}
  0
DIMENSION
  5
E6
100
AcDbEntity
  8
notes
370
               5
390
0
  6
Continuous
 62
               7
100
AcDbDimension
  2
*D8
 10
682.04548127697581
 20
-480.16556334308211
 30
0.0
 11
682.04548127697581
 21
-542.67563766468538
 31
0.0
 71
               5
 72
               1
 41
1.0
 42
0.0
  3
tfrom線あり
100
AcDbAlignedDimension
 13
438.72915445842705
 23
-605.18571198628865
 33
0.0
 14
582.04548127697581
 24
-480.16556334308211
 34
0.0
 50
90.0
100
AcDbRotatedDimension
1001
ACAD
1000
DSTYLE
1002
{
1070
             279
1070
               2
1070
             340
1005
2D
1070
             147
1040
5.0
1002
}
  0
DIMENSION
  5
E7
100
AcDbEntity
  8
notes
370
               5
390
0
  6
Continuous
 62
               7
100
AcDbDimension
  2
*D9
 10
399.65153716751399
 20
-440.18571198628871
 30
0.0
 11
394.65153716751399
 21
-429.79340714087539
 31
0.0
 70
             128
 71
               5
 72
               1
 41
1.0
 42
0.0
  3
tfrom線あり
100
AcDbAlignedDimension
 13
406.65153716751399
 23
-565.18571198628865
 33
0.0
 14
406.65153716751399
 24
-440.18571198628871
 34
0.0
 50
90.0
100
AcDbRotatedDimension
1001
ACAD
1000
DSTYLE
1002
{
1070
             279
1070
               2
1070
             340
1005
2D
1070
               3
1000
<>(深さ)
1070
             174
1070
               0
1070
             147
1040
5.0
1002
}
  0
DIMENSION
  5
E8
100
AcDbEntity
  8
notes
370
               5
390
0
  6
Continuous
 62
               7
100
AcDbDimension
  2
*D10
 10
308.60697759922078
 20
719.89383140860798
 30
0.0
 11
581.65153716751399
 21
350.88982996019013
 31
0.0
 70
               3
 71
               5
 72
               1
 41
1.0
 42
0.0
  3
tfrom線あり
100
AcDbDiametricDimension
 15
463.60697759921982
 25
451.42595623543377
 35
0.0
 40
116.08911913658828
1001
ACAD
1000
DSTYLE
1002
{
1070
             289
1070
               0
1070
             342
1005
40
1070
             340
1005
2D
1070
              73
1070
               1
1070
              74
1070
               1
1070
              75
1070
               1
1070
              76
1070
               1
1070
               3
1000

1070
             174
1070
               0
1070
             147
1040
5.0
1002
}
  0
DIMENSION
  5
E9
100
AcDbEntity
  8
notes
370
               5
390
0
  6
Continuous
 62
               7
100
AcDbDimension
  2
*D11
 10
212.6473442922553
 20
-705.18571198628865
 30
0.0
 11
307.64734429225518
 21
-705.18571198628865
 31
0.0
 71
               5
 72
               1
 41
1.0
 42
0.0
  3
tfrom線あり
100
AcDbAlignedDimension
 13
402.64734429225507
 23
-605.18571198628865
 33
0.0
 14
212.6473442922553
 24
-470.0
 34
0.0
100
AcDbRotatedDimension
1001
ACAD
1000
DSTYLE
1002
{
1070
             279
1070
               2
1070
             340
1005
2D
1070
             147
1040
5.0
1002
}
  0
LINE
  5
EA
100
AcDbEntity
  8
FAA70-0112
370
              15
390
0
  6
Continuous
 62
               7
100
AcDbLine
 10
-672.83233078027706
 20
-440.18571198628865
 30
0.0
 11
-313.57430105667606
 21
-440.18571198628865
 31
0.0
  0
LINE
  5
EB
100
AcDbEntity
  8
FAA70-0112
370
              15
390
0
  6
Continuous
 62
               7
100
AcDbLine
 10
-312.83233078027695
 20
-440.18571198628865
 30
0.0
 11
-312.83233078027695
 21
-475.22546117921331
 31
0.0
  0
LINE
  5
EC
100
AcDbEntity
  8
FAA70-0112
370
              15
390
0
  6
Continuous
 62
               7
100
AcDbLine
 10
-672.83233078027706
 20
-440.18571198628865
 30
0.0
 11
-672.83233078027706
 21
-480.05699146489059
 31
0.0
  0
LINE
  5
ED
100
AcDbEntity
  8
FAA70-0112
370
              15
390
0
  6
Continuous
 62
               7
100
AcDbLine
 10
-667.83403937068647
 20
-485.14934041994712
 30
0.0
 11
-317.83403937068647
 21
-485.20923825607821
 31
0.0
  0
LINE
  5
EE
100
AcDbEntity
  8
FAA70-0112
370
              15
390
0
  6
Continuous
 62
               7
100
AcDbLine
 10
-672.8331836873258
 20
-480.16948913637299
 30
0.0
 11
-313.46368958543275
 21
-480.16948913637299
 31
0.0
  0
LINE
  5
EF
100
AcDbEntity
  8
FAA70-0112
370
              15
390
0
  6
Continuous
 62
               7
100
AcDbLine
 10
-522.83233078027706
 20
-440.18571198628865
 30
0.0
 11
-522.83233078027808
 21
-598.40024910551699
 31
0.0
  0
LINE
  5
F0
100
AcDbEntity
  8
FAA70-0112
370
              15
390
0
  6
Continuous
 62
               7
100
AcDbLine
 10
-462.83233078027706
 20
-440.18571198628865
 30
0.0
 11
-462.83233078027706
 21
-475.18571198628865
 31
0.0
  0
ARC
  5
F1
100
AcDbEntity
  8
FAA70-0112
370
              15
390
0
  6
Continuous
 62
               7
100
AcDbCircle
 10
-667.8331836873258
 20
-480.14934049316645
 30
0.0
 40
5.0
100
AcDbArc
 50
180.0
 51
269.99019459091892
  0
ARC
  5
F2
100
AcDbEntity
  8
FAA70-0112
370
              15
390
0
  6
Continuous
 62
               7
100
AcDbCircle
 10
-317.83318368732569
 20
-480.20923832929765
 30
0.0
 40
4.9999999999999627
100
AcDbArc
 50
269.99019459091767
 51
0.0
  0
ARC
  5
F3
100
AcDbEntity
  8
FAA70-0112
370
              15
390
0
  6
Continuous
 62
               7
100
AcDbCircle
 10
-667.63458559720652
 20
-488.55489943322192
 30
0.0
 40
3.4113947295281744
100
AcDbArc
 50
16.653822116638548
 51
93.351819759509709
  0
ARC
  5
F4
100
AcDbEntity
  8
FAA70-0112
370
              15
390
0
  6
STYLE_12
 62
               7
100
AcDbCircle
 10
-491.92717381583907
 20
-411.08027728293166
 30
0.0
 40
163.51634739995205
100
AcDbArc
 50
190.25311789472241
 51
258.02372634180387
  0
LINE
  5
F5
100
AcDbEntity
  8
FAA70-0112
370
              15
390
0
  6
STYLE_12
 62
               7
100
AcDbLine
 10
-524.36547668685603
 20
-571.84984482761661
 30
0.0
 11
-519.71055226949773
 21
-576.50678065737725
 31
0.0
  0
ARC
  5
F6
100
AcDbEntity
  8
FAA70-0112
370
              15
390
0
  6
STYLE_12
 62
               7
100
AcDbCircle
 10
-526.42783956264338
 20
-573.86155458487917
 30
0.0
 40
2.8810270354322101
100
AcDbArc
 50
44.287675835909297
 51
78.590157404995821
  0
ARC
  5
F7
100
AcDbEntity
  8
FAA70-0112
370
              15
390
0
  6
STYLE_12
 62
               7
100
AcDbCircle
 10
-522.02959543230133
 20
-578.70932746960341
 30
0.0
 40
3.1983079356112394
100
AcDbArc
 50
1.4634924496272028
 51
43.524131350934866
  0
LINE
  5
F8
100
AcDbEntity
  8
FAA70-0112
370
              15
390
0
  6
STYLE_12
 62
               7
100
AcDbLine
 10
-518.83233078027706
 20
-578.62764273473863
 30
0.0
 11
-518.83233078027706
 21
-605.18571198628865
 31
0.0
  0
ARC
  5
F9
100
AcDbEntity
  8
FAA70-0112
370
              15
390
0
  6
Continuous
 62
               7
100
AcDbCircle
 10
-517.93093309577807
 20
-598.83405507522207
 30
0.0
 40
4.9205575782601949
100
AcDbArc
 50
174.94212556849013
 51
263.26504974814827
  0
ARC
  5
FA
100
AcDbEntity
  8
FAA70-0112
370
              15
390
0
  6
Continuous
 62
               7
100
AcDbCircle
 10
-484.545331446457
 20
-234.23206725478076
 30
0.0
 40
371.04619779422097
100
AcDbArc
 50
264.74824039980814
 51
268.72024138235651
  0
LINE
  5
FB
100
AcDbEntity
  8
FAA70-0112
370
              15
390
0
  6
Continuous
 62
               7
100
AcDbLine
 10
-312.83233078027695
 20
-440.18571198628706
 30
0.0
 11
-312.83318368732563
 21
-480.20923832929765
 31
0.0
  0
LINE
  5
FC
100
AcDbEntity
  8
FAA70-0112
370
              15
390
0
  6
Continuous
 62
               7
100
AcDbLine
 10
-462.83233078027706
 20
-440.18571198628706
 30
0.0
 11
-462.83233078027604
 21
-598.4002491055154
 31
0.0
  0
LINE
  5
FD
100
AcDbEntity
  8
FAA70-0112
370
              15
390
0
  6
Continuous
 62
               7
100
AcDbLine
 10
-522.83233078027706
 20
-440.18571198628706
 30
0.0
 11
-522.83233078027706
 21
-475.18571198628706
 31
0.0
  0
ARC
  5
FE
100
AcDbEntity
  8
FAA70-0112
370
              15
390
0
  6
Continuous
 62
               7
100
AcDbCircle
 10
-317.83318368732569
 20
-480.14934049316486
 30
0.0
 40
5.0000000000000764
100
AcDbArc
 50
270.00980540908233
 51
0.0
  0
ARC
  5
FF
100
AcDbEntity
  8
FAA70-0112
370
              15
390
0
  6
Continuous
 62
               7
100
AcDbCircle
 10
-318.03178177744496
 20
-488.55489943322033
 30
0.0
 40
3.4113947295281792
100
AcDbArc
 50
86.648180240488415
 51
163.34617788336146
  0
ARC
  5
100
100
AcDbEntity
  8
FAA70-0112
370
              15
390
0
  6
STYLE_12
 62
               7
100
AcDbCircle
 10
-493.73748774471505
 20
-411.08027728293007
 30
0.0
 40
163.51634739995194
100
AcDbArc
 50
281.97627365819619
 51
349.74688210527756
  0
LINE
  5
101
100
AcDbEntity
  8
FAA70-0112
370
              15
390
0
  6
STYLE_12
 62
               7
100
AcDbLine
 10
-461.2991848736981
 20
-571.84984482761502
 30
0.0
 11
-465.9541092910564
 21
-576.50678065737566
 31
0.0
  0
ARC
  5
102
100
AcDbEntity
  8
FAA70-0112
370
              15
390
0
  6
STYLE_12
 62
               7
100
AcDbCircle
 10
-459.23682199791074
 20
-573.86155458487758
 30
0.0
 40
2.8810270354322314
100
AcDbArc
 50
101.40984259500422
 51
135.71232416409075
  0
ARC
  5
103
100
AcDbEntity
  8
FAA70-0112
370
              15
390
0
  6
STYLE_12
 62
               7
100
AcDbCircle
 10
-463.63506612825279
 20
-578.70932746960182
 30
0.0
 40
3.1983079356112327
100
AcDbArc
 50
136.47586864906515
 51
178.53650755037282
  0
LINE
  5
104
100
AcDbEntity
  8
FAA70-0112
370
              15
390
0
  6
STYLE_12
 62
               7
100
AcDbLine
 10
-466.83233078027706
 20
-578.62764273473704
 30
0.0
 11
-466.83233078027706
 21
-605.18571198628706
 31
0.0
  0
ARC
  5
105
100
AcDbEntity
  8
FAA70-0112
370
              15
390
0
  6
Continuous
 62
               7
100
AcDbCircle
 10
-467.73372846477605
 20
-598.83405507522048
 30
0.0
 40
4.9205575782601647
100
AcDbArc
 50
276.73495025185184
 51
5.0578744315099016
  0
ARC
  5
106
100
AcDbEntity
  8
FAA70-0112
370
              15
390
0
  6
Continuous
 62
               7
100
AcDbCircle
 10
-501.11933011409712
 20
-234.23206725477917
 30
0.0
 40
371.04619779422103
100
AcDbArc
 50
271.27975861764349
 51
275.25175960019186
  0
LINE
  5
107
100
AcDbEntity
  8
FAA70-0112
370
              15
390
0
  6
Continuous
 62
               7
100
AcDbLine
 10
582.04548127697581
 20
-440.18571198628865
 30
0.0
 11
212.04548126072643
 21
-440.1857119862878
 31
0.0
  0
LINE
  5
108
100
AcDbEntity
  8
FAA70-0112
370
              15
390
0
  6
Continuous
 62
               7
100
AcDbLine
 10
224.55976342855945
 20
-440.18571198628865
 30
0.0
 11
224.55976342855945
 21
-475.22546117921331
 31
0.0
  0
LINE
  5
109
100
AcDbEntity
  8
FAA70-0112
370
              15
390
0
  6
Continuous
 62
               7
100
AcDbLine
 10
582.04548127697581
 20
-440.18571198628865
 30
0.0
 11
582.04548127697581
 21
-480.16556334308211
 31
0.0
  0
LINE
  5
10A
100
AcDbEntity
  8
FAA70-0112
370
              15
390
0
  6
Continuous
 62
               7
100
AcDbLine
 10
577.04633696033659
 20
-485.16556326986279
 30
0.0
 11
230.18383137172208
 21
-485.22492416563352
 31
0.0
  0
LINE
  5
10B
100
AcDbEntity
  8
FAA70-0112
370
              15
390
0
  6
Continuous
 62
               7
100
AcDbLine
 10
582.04548127697581
 20
-480.18571198628865
 30
0.0
 11
224.55976342855945
 21
-480.16556334308052
 31
0.0
  0
ARC
  5
10C
100
AcDbEntity
  8
FAA70-0112
370
              15
390
0
  6
Continuous
 62
               7
100
AcDbCircle
 10
577.04548127697581
 20
-480.16556334308211
 30
0.0
 40
5.0000000000000764
100
AcDbArc
 50
270.00980540908233
 51
0.0
  0
ARC
  5
10D
100
AcDbEntity
  8
FAA70-0112
370
              15
390
0
  6
Continuous
 62
               7
100
AcDbCircle
 10
229.55976342855945
 20
-480.22546117921331
 30
0.0
 40
5.0
100
AcDbArc
 50
180.0
 51
270.00980540908233
  0
LINE
  5
10E
100
AcDbEntity
  8
FAA70-0112
370
              15
390
0
  6
Continuous
 62
               7
100
AcDbLine
 10
439.38582261162833
 20
-597.65573719658869
 30
0.0
 11
438.72915445842705
 21
-605.18571198628865
 31
0.0
  0
LINE
  5
10F
100
AcDbEntity
  8
FAA70-0112
370
              15
390
0
  6
Continuous
 62
               7
100
AcDbLine
 10
438.72915445842705
 20
-605.18571198628865
 30
0.0
 11
365.36180809552468
 21
-605.18571198628865
 31
0.0
  0
LINE
  5
110
100
AcDbEntity
  8
FAA70-0112
370
              15
390
0
  6
Continuous
 62
               7
100
AcDbLine
 10
439.38582261162799
 20
-597.65573719658869
 30
0.0
 11
379.81259815960198
 21
-597.65573719658789
 31
0.0
  0
LINE
  5
111
100
AcDbEntity
  8
FAA70-0112
370
              15
390
0
  6
Continuous
 62
               7
100
AcDbLine
 10
445.88013406335483
 20
-588.80860859290181
 30
0.0
 11
370.08493081328095
 21
-588.80860859289783
 31
0.0
  0
ARC
  5
112
100
AcDbEntity
  8
FAA70-0112
370
              15
390
0
  6
Continuous
 62
               7
100
AcDbCircle
 10
449.23938844278871
 20
-598.08166550681801
 30
0.0
 40
9.8627670820350843
100
AcDbArc
 50
109.913408256073
 51
177.52488462859253
  0
ARC
  5
113
100
AcDbEntity
  8
FAA70-0112
370
              15
390
0
  6
Continuous
 62
               7
100
AcDbCircle
 10
420.41446495532034
 20
-425.5165857059136
 30
0.0
 40
165.26580118598162
100
AcDbArc
 50
278.86397457100463
 51
337.93746321531302
  0
ARC
  5
114
100
AcDbEntity
  8
FAA70-0112
370
              15
390
0
  6
Continuous
 62
               7
100
AcDbCircle
 10
576.84688318685664
 20
-488.57112228313758
 30
0.0
 40
3.411394729528173
100
AcDbArc
 50
86.648180240490333
 51
163.34617788336146
  0
ARC
  5
115
100
AcDbEntity
  8
FAA70-0112
370
              15
390
0
  6
STYLE_12
 62
               7
100
AcDbCircle
 10
401.14032431253793
 20
-411.08027728293166
 30
0.0
 40
163.51634739995194
100
AcDbArc
 50
281.97627365819619
 51
349.74688210527751
  0
LINE
  5
116
100
AcDbEntity
  8
FAA70-0112
370
              15
390
0
  6
STYLE_12
 62
               7
100
AcDbLine
 10
433.57862718355489
 20
-571.84984482761661
 30
0.0
 11
428.92370276619647
 21
-576.50678065737725
 31
0.0
  0
ARC
  5
117
100
AcDbEntity
  8
FAA70-0112
370
              15
390
0
  6
STYLE_12
 62
               7
100
AcDbCircle
 10
435.64099005934224
 20
-573.86155458487917
 30
0.0
 40
2.8810270354322314
100
AcDbArc
 50
101.40984259500422
 51
135.71232416409075
  0
ARC
  5
118
100
AcDbEntity
  8
FAA70-0112
370
              15
390
0
  6
STYLE_12
 62
               7
100
AcDbCircle
 10
431.24274592900019
 20
-578.70932746960341
 30
0.0
 40
3.1983079356113158
100
AcDbArc
 50
136.47586864906654
 51
178.53650755037282
  0
LINE
  5
119
100
AcDbEntity
  8
FAA70-0112
370
              15
390
0
  6
STYLE_12
 62
               7
100
AcDbLine
 10
428.04548127697592
 20
-578.62764273473863
 30
0.0
 11
428.04548127697592
 21
-605.18571198628865
 31
0.0
  0
LINE
  5
11A
100
AcDbEntity
  8
FAA70-0112
370
              15
390
0
  6
Continuous
 62
               7
100
AcDbLine
 10
224.55976342855945
 20
-440.18571198628706
 30
0.0
 11
224.55976342855945
 21
-480.16556334308052
 31
0.0
  0
ARC
  5
11B
100
AcDbEntity
  8
FAA70-0112
370
              15
390
0
  6
Continuous
 62
               7
100
AcDbCircle
 10
229.55976342855945
 20
-480.16556334308052
 30
0.0
 40
5.0
100
AcDbArc
 50
180.0
 51
269.99019459091767
  0
ARC
  5
11C
100
AcDbEntity
  8
FAA70-0112
370
              15
390
0
  6
Continuous
 62
               7
100
AcDbCircle
 10
229.75836151867873
 20
-488.57112228313599
 30
0.0
 40
3.4113947295281473
100
AcDbArc
 50
16.653822116638686
 51
93.351819759511585
  0
ARC
  5
11D
100
AcDbEntity
  8
FAA70-0112
370
              15
390
0
  6
STYLE_12
 62
               7
100
AcDbCircle
 10
402.95063824141391
 20
-411.08027728293007
 30
0.0
 40
163.51634739995211
100
AcDbArc
 50
190.25311789472241
 51
258.02372634180387
  0
LINE
  5
11E
100
AcDbEntity
  8
FAA70-0112
370
              15
390
0
  6
STYLE_12
 62
               7
100
AcDbLine
 10
370.51233537039695
 20
-571.84984482761502
 30
0.0
 11
375.16725978775526
 21
-576.50678065737566
 31
0.0
  0
ARC
  5
11F
100
AcDbEntity
  8
FAA70-0112
370
              15
390
0
  6
STYLE_12
 62
               7
100
AcDbCircle
 10
368.4499724946096
 20
-573.86155458487758
 30
0.0
 40
2.8810270354322101
100
AcDbArc
 50
44.287675835909297
 51
78.590157404998024
  0
ARC
  5
120
100
AcDbEntity
  8
FAA70-0112
370
              15
390
0
  6
STYLE_12
 62
               7
100
AcDbCircle
 10
372.84821662495165
 20
-578.70932746960182
 30
0.0
 40
3.1983079356112394
100
AcDbArc
 50
1.4634924496272028
 51
43.524131350934866
  0
LINE
  5
121
100
AcDbEntity
  8
FAA70-0112
370
              15
390
0
  6
STYLE_12
 62
               7
100
AcDbLine
 10
376.04548127697592
 20
-578.62764273473704
 30
0.0
 11
376.04548127697592
 21
-605.18571198628706
 31
0.0
  0
LINE
  5
122
100
AcDbEntity
  8
FAA70-0112
370
              15
390
0
  6
Continuous
 62
               7
100
AcDbLine
 10
212.04548126072643
 20
-440.1857119862878
 30
0.0
 11
212.04548126072643
 21
-482.71284895247612
 31
0.0
  0
ARC
  5
123
100
AcDbEntity
  8
FAA70-0112
370
              15
390
0
  6
Continuous
 62
               7
100
AcDbCircle
 10
257.12864539325108
 20
-482.35095295040412
 30
0.0
 40
45.08461663268843
100
AcDbArc
 50
179.53941184279807
 51
188.62523055099803
  0
ARC
  5
124
100
AcDbEntity
  8
FAA70-0112
370
              15
390
0
  6
Continuous
 62
               7
100
AcDbCircle
 10
386.07621924786349
 20
-423.94528732470462
 30
0.0
 40
165.63706108651374
100
AcDbArc
 50
202.59798449845638
 51
264.45979862714893
  0
ARC
  5
125
100
AcDbEntity
  8
FAA70-0112
370
              15
390
0
  6
Continuous
 62
               7
100
AcDbCircle
 10
368.11800598058528
 20
-600.7427844665367
 30
0.0
 40
12.095178670876129
100
AcDbArc
 50
14.78718876471163
 51
80.640963745263974
  0
LINE
  5
126
100
AcDbEntity
  8
FAA70-0112
370
              15
390
0
  6
Continuous
 62
               7
100
AcDbLine
 10
376.36981296212991
 20
-603.72065734196713
 30
0.0
 11
365.361808079208
 21
-605.18571198628865
 31
0.0
  0
ARC
  5
127
100
AcDbEntity
  8
FAA70-0112
370
              15
390
0
  6
Continuous
 62
               7
100
AcDbCircle
 10
375.61765822581663
 20
-599.03037252921672
 30
0.0
 40
4.7502114028825728
100
AcDbArc
 50
279.11063350999319
 51
1.6976130949117303
  0
CIRCLE
  5
128
100
AcDbEntity
  8
FAA70-0112
370
              15
390
0
  6
Continuous
 62
               7
100
AcDbCircle
 10
-493.36688898931595
 20
585.65989382202076
 30
0.0
 40
180.00000000000011
  0
CIRCLE
  5
129
100
AcDbEntity
  8
FAA70-0112
370
              15
390
0
  6
Continuous
 62
               7
100
AcDbCircle
 10
-493.36688898931595
 20
585.65989382202076
 30
0.0
 40
162.50000000000011
  0
LINE
  5
12A
100
AcDbEntity
  8
FAA70-0112
370
              15
390
0
  6
Continuous
 62
               7
100
AcDbLine
 10
-523.36688898931584
 20
763.14228731501055
 30
0.0
 11
-523.34659409229153
 21
769.29307236763987
 31
0.0
  0
ARC
  5
12B
100
AcDbEntity
  8
FAA70-0112
370
              15
390
0
  6
Continuous
 62
               7
100
AcDbCircle
 10
-493.36688897590648
 20
593.65989382187411
 30
0.0
 40
182.07659207538913
100
AcDbArc
 50
81.893369731953868
 51
90.000000004903242
  0
LINE
  5
12C
100
AcDbEntity
  8
FAA70-0112
370
              15
390
0
  6
Continuous
 62
               7
100
AcDbLine
 10
-463.36688898931584
 20
763.11853331685859
 30
0.0
 11
-463.36688898931584
 21
768.7007482655514
 31
0.0
  0
ARC
  5
12D
100
AcDbEntity
  8
FAA70-0112
370
              15
390
0
  6
Continuous
 62
               7
100
AcDbCircle
 10
-468.36688898931584
 20
768.96283008280591
 30
0.0
 40
5.0
100
AcDbArc
 50
0.0
 51
81.883759709045492
  0
ARC
  5
12E
100
AcDbEntity
  8
FAA70-0112
370
              15
390
0
  6
Continuous
 62
               7
100
AcDbCircle
 10
-493.36688897590648
 20
593.65989382187411
 30
0.0
 40
182.07659207538913
100
AcDbArc
 50
81.893369731953868
 51
90.000000004903242
  0
ARC
  5
12F
100
AcDbEntity
  8
FAA70-0112
370
              15
390
0
  6
Continuous
 62
               7
100
AcDbCircle
 10
-468.36688898931584
 20
768.96283008280591
 30
0.0
 40
5.0
100
AcDbArc
 50
0.0
 51
81.883759709045492
  0
ARC
  5
130
100
AcDbEntity
  8
FAA70-0112
370
              15
390
0
  6
Continuous
 62
               7
100
AcDbCircle
 10
-493.36688900272532
 20
593.65989382187411
 30
0.0
 40
182.07659207538927
100
AcDbArc
 50
89.999999995096815
 51
98.106630268046175
  0
ARC
  5
131
100
AcDbEntity
  8
FAA70-0112
370
              15
390
0
  6
Continuous
 62
               7
100
AcDbCircle
 10
-518.36688898931607
 20
768.96283008280591
 30
0.0
 40
4.9999999999999032
100
AcDbArc
 50
98.116240290954551
 51
180.0
  0
CIRCLE
  5
132
100
AcDbEntity
  8
FAA70-0112
370
              15
390
0
  6
Continuous
 62
               7
100
AcDbCircle
 10
-493.36688898931595
 20
585.65989382202076
 30
0.0
 40
37.5
  0
CIRCLE
  5
133
100
AcDbEntity
  8
FAA70-0112
370
              15
390
0
  6
Continuous
 62
               7
100
AcDbCircle
 10
-493.36688898931595
 20
585.65989382202076
 30
0.0
 40
26.0
  0
SPLINE
  5
134
100
AcDbEntity
  8
FAA70-0112
370
              15
390
0
  6
Continuous
 62
               7
100
AcDbSpline
210
0.0
220
0.0
230
1.0
 70
               9
 71
               2
 72
              17
 73
              14
 74
               0
 42
0.000001
 43
0.000001
 40
0.0
 40
0.0
 40
0.0
 40
1.0
 40
2.0
 40
3.0
 40
4.0
 40
5.0
 40
6.0
 40
7.0
 40
8.0
 40
9.0
 40
10.0
 40
11.0
 40
12.0
 40
12.0
 40
12.0
 10
-498.816888989316
 20
742.76800646297988
 30
0.0
 10
-496.05548437924631
 20
743.29050738822059
 30
0.0
 10
-489.6782935993856
 20
743.29050738822059
 30
0.0
 10
-484.15548437924627
 20
742.24550553773918
 30
0.0
 10
-480.96688898931592
 20
740.43550923870202
 30
0.0
 10
-480.96688898931592
 20
738.3455055377392
 30
0.0
 10
-484.15548437924627
 20
736.53550923870205
 30
0.0
 10
-489.6782935993856
 20
735.49050738822064
 30
0.0
 10
-496.05548437924631
 20
735.49050738822064
 30
0.0
 10
-501.57829359938563
 20
736.53550923870205
 30
0.0
 10
-504.76688898931599
 20
738.3455055377392
 30
0.0
 10
-504.76688898931599
 20
740.43550923870202
 30
0.0
 10
-501.57829359938563
 20
742.24550553773918
 30
0.0
 10
-498.816888989316
 20
742.76800646297988
 30
0.0
  0
LINE
  5
135
100
AcDbEntity
  8
FAA70-0112
370
              15
390
0
  6
STYLE_12
 62
               7
100
AcDbLine
 10
371.65153716751399
 20
-570.18571198628865
 30
0.0
 11
434.65153716751399
 21
-570.18571198628865
 31
0.0
  0
CIRCLE
  5
136
100
AcDbEntity
  8
FAA70-0112
370
              15
390
0
  6
STYLE_12
 62
               7
100
AcDbCircle
 10
386.10697759922039
 20
585.65989382202076
 30
0.0
 40
180.00000000000011
  0
LINE
  5
137
100
AcDbEntity
  8
FAA70-0112
370
              15
390
0
  6
STYLE_12
 62
               7
100
AcDbLine
 10
356.1069775992205
 20
763.14228731501055
 30
0.0
 11
356.12727249624481
 21
769.29307236763987
 31
0.0
  0
ARC
  5
138
100
AcDbEntity
  8
FAA70-0112
370
              15
390
0
  6
STYLE_12
 62
               7
100
AcDbCircle
 10
386.10697761262986
 20
593.65989382187411
 30
0.0
 40
182.07659207538913
100
AcDbArc
 50
81.893369731953868
 51
90.000000004903242
  0
LINE
  5
139
100
AcDbEntity
  8
FAA70-0112
370
              15
390
0
  6
STYLE_12
 62
               7
100
AcDbLine
 10
416.1069775992205
 20
763.11853331685859
 30
0.0
 11
416.1069775992205
 21
768.7007482655514
 31
0.0
  0
ARC
  5
13A
100
AcDbEntity
  8
FAA70-0112
370
              15
390
0
  6
STYLE_12
 62
               7
100
AcDbCircle
 10
411.1069775992205
 20
768.96283008280591
 30
0.0
 40
5.0
100
AcDbArc
 50
0.0
 51
81.883759709045492
  0
ARC
  5
13B
100
AcDbEntity
  8
FAA70-0112
370
              15
390
0
  6
STYLE_12
 62
               7
100
AcDbCircle
 10
386.10697761262986
 20
593.65989382187411
 30
0.0
 40
182.07659207538913
100
AcDbArc
 50
81.893369731953868
 51
90.000000004903242
  0
ARC
  5
13C
100
AcDbEntity
  8
FAA70-0112
370
              15
390
0
  6
STYLE_12
 62
               7
100
AcDbCircle
 10
411.1069775992205
 20
768.96283008280591
 30
0.0
 40
5.0
100
AcDbArc
 50
0.0
 51
81.883759709045492
  0
ARC
  5
13D
100
AcDbEntity
  8
FAA70-0112
370
              15
390
0
  6
STYLE_12
 62
               7
100
AcDbCircle
 10
386.10697758581102
 20
593.65989382187411
 30
0.0
 40
182.07659207538927
100
AcDbArc
 50
89.999999995096815
 51
98.106630268046175
  0
ARC
  5
13E
100
AcDbEntity
  8
FAA70-0112
370
              15
390
0
  6
STYLE_12
 62
               7
100
AcDbCircle
 10
361.10697759922027
 20
768.96283008280591
 30
0.0
 40
4.9999999999999032
100
AcDbArc
 50
98.116240290954551
 51
180.0
  0
CIRCLE
  5
13F
100
AcDbEntity
  8
FAA70-0112
370
              15
390
0
  6
STYLE_12
 62
               7
100
AcDbCircle
 10
386.10697759922039
 20
585.65989382202076
 30
0.0
 40
26.0
  0
CIRCLE
  5
140
100
AcDbEntity
  8
FAA70-0112
370
              15
390
0
  6
Continuous
 62
               7
100
AcDbCircle
 10
386.10697759922039
 20
585.65989382202076
 30
0.0
 40
155.0
  0
ARC
  5
141
100
AcDbEntity
  8
FAA70-0112
370
              15
390
0
  6
Continuous
 62
               7
100
AcDbCircle
 10
373.7712352632264
 20
-437.72228141811757
 30
0.0
 40
167.67444361902457
100
AcDbArc
 50
195.30761090578534
 51
267.12522137144219
  0
LINE
  5
142
100
AcDbEntity
  8
FAA70-0112
370
              15
390
0
  6
Continuous
 62
               7
100
AcDbLine
 10
-456.0938524609038
 20
-597.65573719658869
 30
0.0
 11
-456.75052061410508
 21
-605.18571198628865
 31
0.0
  0
LINE
  5
143
100
AcDbEntity
  8
FAA70-0112
370
              15
390
0
  6
Continuous
 62
               7
100
AcDbLine
 10
-456.09385246090415
 20
-597.65573719658869
 30
0.0
 11
-529.57080909964998
 21
-597.65573719658869
 31
0.0
  0
LINE
  5
144
100
AcDbEntity
  8
FAA70-0112
370
              15
390
0
  6
Continuous
 62
               7
100
AcDbLine
 10
-449.5995410091773
 20
-588.80860859290181
 30
0.0
 11
-534.78715776182889
 21
-588.80860859290181
 31
0.0
  0
ARC
  5
145
100
AcDbEntity
  8
FAA70-0112
370
              15
390
0
  6
Continuous
 62
               7
100
AcDbCircle
 10
-446.24028662974342
 20
-598.08166550681801
 30
0.0
 40
9.8627670820350843
100
AcDbArc
 50
109.913408256073
 51
177.52488462859253
  0
ARC
  5
146
100
AcDbEntity
  8
FAA70-0112
370
              15
390
0
  6
Continuous
 62
               7
100
AcDbCircle
 10
-475.06521011721179
 20
-425.5165857059136
 30
0.0
 40
165.26580118598162
100
AcDbArc
 50
278.86397457100463
 51
337.93746321531302
  0
ARC
  5
147
100
AcDbEntity
  8
FAA70-0112
370
              15
390
0
  6
Continuous
 62
               7
100
AcDbCircle
 10
-318.63279188567549
 20
-488.57112228313758
 30
0.0
 40
3.411394729528173
100
AcDbArc
 50
86.648180240490333
 51
163.34617788336146
  0
ARC
  5
148
100
AcDbEntity
  8
FAA70-0112
370
              15
390
0
  6
Continuous
 62
               7
100
AcDbCircle
 10
-667.63287978310916
 20
-488.55489943322033
 30
0.0
 40
3.4113947295281744
100
AcDbArc
 50
16.653822116638548
 51
93.351819759511613
  0
LINE
  5
149
100
AcDbEntity
  8
FAA70-0112
370
              15
390
0
  6
Continuous
 62
               7
100
AcDbLine
 10
-529.57080909965032
 20
-597.65573719658869
 30
0.0
 11
-528.91414094644904
 21
-605.18571198628865
 31
0.0
  0
ARC
  5
14A
100
AcDbEntity
  8
FAA70-0112
370
              15
390
0
  6
Continuous
 62
               7
100
AcDbCircle
 10
-539.4243749308107
 20
-598.08166550681801
 30
0.0
 40
9.8627670820349849
100
AcDbArc
 50
2.4751153714075032
 51
70.086591743927016
  0
ARC
  5
14B
100
AcDbEntity
  8
FAA70-0112
370
              15
390
0
  6
Continuous
 62
               7
100
AcDbCircle
 10
-510.59945144334233
 20
-425.5165857059136
 30
0.0
 40
165.26580118598159
100
AcDbArc
 50
202.06253678468707
 51
261.13602542899537
  0
ARC
  5
14C
100
AcDbEntity
  8
FAA70-0112
370
              15
390
0
  6
Continuous
 62
               7
100
AcDbCircle
 10
-667.03186967487864
 20
-488.57112228313758
 30
0.0
 40
3.4113947295281744
100
AcDbArc
 50
16.653822116638548
 51
93.351819759509709
  0
LINE
  5
14D
100
AcDbEntity
  8
FAA70-0112
370
              15
390
0
  6
Continuous
 62
               7
100
AcDbLine
 10
-528.91414094644904
 20
-605.18571198628865
 30
0.0
 11
-456.78715776182889
 21
-605.18571198628865
 31
0.0
  0
ENDSEC
  0
SECTION
  2
OBJECTS
  0
DICTIONARY
  5
19
100
AcDbDictionary
280
               0
281
               1
  3
ACAD_GROUP
350
1A
  3
ACAD_MLINESTYLE
350
1B
  3
ACAD_LAYOUT
350
1E
  3
ACAD_PLOTSETTINGS
350
22
  3
ACAD_PLOTSTYLENAME
350
1F
  0
DICTIONARY
  5
1A
102
{ACAD_REACTORS
330
19
102
}
100
AcDbDictionary
280
               0
281
               1
  0
DICTIONARY
  5
1B
102
{ACAD_REACTORS
330
19
102
}
100
AcDbDictionary
280
               0
281
               1
  3
Standard
350
1C
  0
MLINESTYLE
  5
1C
102
{ACAD_REACTORS
330
1B
102
}
100
AcDbMlineStyle
  2
Standard
 70
               0
  3

 62
               0
 51
90.0
 52
90.0
 71
               2
 49
0.5
 62
             256
  6
ByLayer
 49
-0.5
 62
             256
  6
ByLayer
  0
ACDBDICTIONARYWDFLT
  5
1F
102
{ACAD_REACTORS
330
19
102
}
100
AcDbDictionary
281
               1
  3
Normal
350
1D
100
AcDbDictionaryWithDefault
340
1D
  0
ACDBPLACEHOLDER
  5
1D
102
{ACAD_REACTORS
330
1F
102
}
  0
LAYOUT
  5
20
102
{ACAD_REACTORS
330
1E
102
}
100
AcDbPlotSettings
  1

  2

  4

  6

 40
0.0
 41
0.0
 42
0.0
 43
0.0
 44
0.0
 45
0.0
 46
0.0
 47
0.0
 48
0.0
 49
0.0
140
0.0
141
0.0
142
1.0
143
1.0
 70
            1024
 72
               0
 73
               0
 74
               0
  7

 75
               0
147
1.0
148
0.0
149
0.0
100
AcDbLayout
  1
Model
 70
               0
 71
               0
 10
0.0
 20
0.0
 11
0.0
 21
0.0
 12
0.0
 22
0.0
 32
0.0
 14
0.0
 24
0.0
 34
0.0
 15
0.0
 25
0.0
 35
0.0
146
0.0
 13
0.0
 23
0.0
 33
0.0
 16
0.0
 26
0.0
 36
0.0
 17
0.0
 27
0.0
 37
0.0
 76
               0
330
A
331
0
345
0
346
0
  0
LAYOUT
  5
21
102
{ACAD_REACTORS
330
1E
102
}
100
AcDbPlotSettings
  1

  2

  4

  6

 40
0.0
 41
0.0
 42
0.0
 43
0.0
 44
0.0
 45
0.0
 46
0.0
 47
0.0
 48
0.0
 49
0.0
140
0.0
141
0.0
142
1.0
143
1.0
 70
               0
 72
               0
 73
               0
 74
               0
  7

 75
               0
147
1.0
148
0.0
149
0.0
100
AcDbLayout
  1
Layout1
 70
               0
 71
               0
 10
0.0
 20
0.0
 11
0.0
 21
0.0
 12
0.0
 22
0.0
 32
0.0
 14
0.0
 24
0.0
 34
0.0
 15
0.0
 25
0.0
 35
0.0
146
0.0
 13
0.0
 23
0.0
 33
0.0
 16
0.0
 26
0.0
 36
0.0
 17
0.0
 27
0.0
 37
0.0
 76
               0
330
B
331
0
345
0
346
0
  0
DICTIONARY
  5
1E
102
{ACAD_REACTORS
330
19
102
}
100
AcDbDictionary
280
               0
281
               1
  3
Layout1
350
21
  3
Model
350
20
  0
DICTIONARY
  5
22
102
{ACAD_REACTORS
330
19
102
}
100
AcDbDictionary
280
               0
281
               1
  0
ENDSEC
  0
EOF
