  0
SECTION
  2
HEADER
  9
$ACADVER
  1
AC1015
  9
$ACADMAINTVER
 70
               6
  9
$DWGCODEPAGE
  3
ANSI_932
  9
$INSBASE
 10
0.0
 20
0.0
 30
0.0
  9
$EXTMIN
 10
-975.00000000024124
 20
-1431.5255224711127
 30
-14.428611111111111
  9
$EXTMAX
 10
975.00000000024124
 20
1405.9972926412995
 30
14.428611111111111
  9
$LIMMIN
 10
0.0
 20
0.0
  9
$LIMMAX
 10
0.0
 20
0.0
  9
$ORTHOMODE
 70
               0
  9
$REGENMODE
 70
               1
  9
$FILLMODE
 70
               1
  9
$QTEXTMODE
 70
               0
  9
$MIRRTEXT
 70
               1
  9
$LTSCALE
 40
50.799999999999997
  9
$ATTMODE
 70
               1
  9
$TEXTSIZE
 40
0.2
  9
$TRACEWID
 40
1.0
  9
$TEXTSTYLE
  7
Standard
  9
$CLAYER
  8
template
  9
$CELTYPE
  6
Continuous
  9
$CECOLOR
 62
             256
  9
$CELTSCALE
 40
1.0
  9
$DISPSILH
 70
               0
  9
$DIMSCALE
 40
1.0
  9
$DIMASZ
 40
31.75
  9
$DIMEXO
 40
0.0
  9
$DIMDLI
 40
6.9999999999999396
  9
$DIMRND
 40
0.0
  9
$DIMDLE
 40
0.0
  9
$DIMEXE
 40
19.999999999996199
  9
$DIMTP
 40
0.0
  9
$DIMTM
 40
0.0
  9
$DIMTXT
 40
24.432617187500004
  9
$DIMCEN
 40
0.0
  9
$DIMTSZ
 40
0.0
  9
$DIMTOL
 70
               0
  9
$DIMLIM
 70
               0
  9
$DIMTIH
 70
               0
  9
$DIMTOH
 70
               0
  9
$DIMSE1
 70
               0
  9
$DIMSE2
 70
               0
  9
$DIMTAD
 70
               1
  9
$DIMZIN
 70
              11
  9
$DIMBLK
  1
VW_FILLEDARROW
  9
$DIMASO
 70
               1
  9
$DIMSHO
 70
               1
  9
$DIMPOST
  1
<>
  9
$DIMAPOST
  1
[]
  9
$DIMALT
 70
               0
  9
$DIMALTD
 70
               1
  9
$DIMALTF
 40
1.0
  9
$DIMLFAC
 40
1.0
  9
$DIMTOFL
 70
               0
  9
$DIMTVP
 40
0.0
  9
$DIMTIX
 70
               1
  9
$DIMSOXD
 70
               0
  9
$DIMSAH
 70
               0
  9
$DIMBLK1
  1

  9
$DIMBLK2
  1

  9
$DIMSTYLE
  2
JIS
  9
$DIMCLRD
 70
               0
  9
$DIMCLRE
 70
               0
  9
$DIMCLRT
 70
               0
  9
$DIMTFAC
 40
1.0
  9
$DIMGAP
 40
1.00000000000108
  9
$DIMJUST
 70
               0
  9
$DIMSD1
 70
               0
  9
$DIMSD2
 70
               0
  9
$DIMTOLJ
 70
               1
  9
$DIMTZIN
 70
              11
  9
$DIMALTZ
 70
              11
  9
$DIMALTTZ
 70
              11
  9
$DIMUPT
 70
               0
  9
$DIMDEC
 70
               1
  9
$DIMTDEC
 70
               1
  9
$DIMALTU
 70
               2
  9
$DIMALTTD
 70
               2
  9
$DIMTXSTY
  7
ＭＳ ゴシック
  9
$DIMAUNIT
 70
               0
  9
$DIMADEC
 70
               2
  9
$DIMALTRND
 40
0.0
  9
$DIMAZIN
 70
               0
  9
$DIMDSEP
 70
              46
  9
$DIMATFIT
 70
               0
  9
$DIMFRAC
 70
               2
  9
$DIMLDRBLK
  1

  9
$DIMLUNIT
 70
               2
  9
$DIMLWD
 70
              -2
  9
$DIMLWE
 70
              -2
  9
$DIMTMOVE
 70
               0
  9
$LUNITS
 70
               2
  9
$LUPREC
 70
               4
  9
$SKETCHINC
 40
0.1
  9
$FILLETRAD
 40
0.0
  9
$AUNITS
 70
               0
  9
$AUPREC
 70
               0
  9
$MENU
  1
acad
  9
$ELEVATION
 40
0.0
  9
$PELEVATION
 40
0.0
  9
$THICKNESS
 40
0.0
  9
$LIMCHECK
 70
               0
  9
$CHAMFERA
 40
0.0
  9
$CHAMFERB
 40
0.0
  9
$CHAMFERC
 40
0.0
  9
$CHAMFERD
 40
0.0
  9
$SKPOLY
 70
               0
  9
$TDCREATE
 40
2456538.549803241
  9
$TDUCREATE
 40
0.000000000
  9
$TDUPDATE
 40
2456538.549803241
  9
$TDUUPDATE
 40
0.000000000
  9
$TDINDWG
 40
0.0000000000
  9
$TDUSRTIMER
 40
0.0000000000
  9
$USRTIMER
 70
               1
  9
$ANGBASE
 50
0.0
  9
$ANGDIR
 70
               0
  9
$PDMODE
 70
               1
  9
$PDSIZE
 40
-2.0
  9
$PLINEWID
 40
0.0
  9
$SPLFRAME
 70
               0
  9
$SPLINETYPE
 70
               6
  9
$SPLINESEGS
 70
               8
  9
$HANDSEED
  5
E6
  9
$SURFTAB1
 70
               6
  9
$SURFTAB2
 70
               6
  9
$SURFTYPE
 70
               6
  9
$SURFU
 70
               6
  9
$SURFV
 70
               6
  9
$UCSBASE
  2

  9
$UCSNAME
  2

  9
$UCSORG
 10
0.0
 20
0.0
 30
0.0
  9
$UCSXDIR
 10
1.0
 20
0.0
 30
0.0
  9
$UCSYDIR
 10
0.0
 20
1.0
 30
0.0
  9
$UCSORTHOREF
  2

  9
$UCSORTHOVIEW
 70
               0
  9
$UCSORGTOP
 10
0.0
 20
0.0
 30
0.0
  9
$UCSORGBOTTOM
 10
0.0
 20
0.0
 30
0.0
  9
$UCSORGLEFT
 10
0.0
 20
0.0
 30
0.0
  9
$UCSORGRIGHT
 10
0.0
 20
0.0
 30
0.0
  9
$UCSORGFRONT
 10
0.0
 20
0.0
 30
0.0
  9
$UCSORGBACK
 10
0.0
 20
0.0
 30
0.0
  9
$PUCSBASE
  2

  9
$PUCSNAME
  2

  9
$PUCSORG
 10
0.0
 20
0.0
 30
0.0
  9
$PUCSXDIR
 10
1.0
 20
0.0
 30
0.0
  9
$PUCSYDIR
 10
0.0
 20
1.0
 30
0.0
  9
$PUCSORTHOREF
  2

  9
$PUCSORTHOVIEW
 70
               0
  9
$PUCSORGTOP
 10
0.0
 20
0.0
 30
0.0
  9
$PUCSORGBOTTOM
 10
0.0
 20
0.0
 30
0.0
  9
$PUCSORGLEFT
 10
0.0
 20
0.0
 30
0.0
  9
$PUCSORGRIGHT
 10
0.0
 20
0.0
 30
0.0
  9
$PUCSORGFRONT
 10
0.0
 20
0.0
 30
0.0
  9
$PUCSORGBACK
 10
0.0
 20
0.0
 30
0.0
  9
$USERI1
 70
               0
  9
$USERI2
 70
               0
  9
$USERI3
 70
               0
  9
$USERI4
 70
               0
  9
$USERI5
 70
               0
  9
$USERR1
 40
0.0
  9
$USERR2
 40
0.0
  9
$USERR3
 40
0.0
  9
$USERR4
 40
0.0
  9
$USERR5
 40
0.0
  9
$WORLDVIEW
 70
               1
  9
$SHADEDGE
 70
               3
  9
$SHADEDIF
 70
              70
  9
$TILEMODE
 70
               1
  9
$MAXACTVP
 70
              64
  9
$PINSBASE
 10
0.0
 20
0.0
 30
0.0
  9
$PLIMCHECK
 70
               0
  9
$PEXTMIN
 10
1.0000000000000000E+20
 20
1.0000000000000000E+20
 30
1.0000000000000000E+20
  9
$PEXTMAX
 10
-1.0000000000000000E+20
 20
-1.0000000000000000E+20
 30
-1.0000000000000000E+20
  9
$PLIMMIN
 10
0.0
 20
0.0
  9
$PLIMMAX
 10
12.0
 20
9.0
  9
$UNITMODE
 70
               0
  9
$VISRETAIN
 70
               0
  9
$PLINEGEN
 70
               1
  9
$PSLTSCALE
 70
               0
  9
$TREEDEPTH
 70
            3020
  9
$CMLSTYLE
  2
Standard
  9
$CMLJUST
 70
               0
  9
$CMLSCALE
 40
1.0
  9
$PROXYGRAPHICS
 70
               0
  9
$MEASUREMENT
 70
               1
  9
$CELWEIGHT
370
               0
  9
$ENDCAPS
280
               0
  9
$JOINSTYLE
280
               0
  9
$LWDISPLAY
290
               1
  9
$INSUNITS
 70
               4
  9
$HYPERLINKBASE
  1

  9
$STYLESHEET
  1

  9
$XEDIT
290
               1
  9
$CEPSNTYPE
380
               0
  9
$PSTYLEMODE
290
               1
  9
$FINGERPRINTGUID
  2

  9
$VERSIONGUID
  2

  9
$EXTNAMES
290
               1
  9
$PSVPSCALE
 40
0.0
  0
ENDSEC
  0
SECTION
  2
CLASSES
  0
CLASS
  1
LWPOLYLINE
  2
AcDbPolyline
  3
AutoCAD 2000
 90
        0
280
               0
281
               1
  0
CLASS
  1
IMAGE
  2
AcDbRasterImage
  3
ISM
 90
      127
280
               0
281
               1
  0
CLASS
  1
OLE2FRAME
  2
AcDbOle2Frame
  3
AutoCAD 2000
 90
        0
280
               0
281
               1
  0
CLASS
  1
HATCH
  2
AcDbHatch
  3
AutoCAD 2000
 90
        0
280
               0
281
               1
  0
CLASS
  1
DICTIONARYVAR
  2
AcDbDictionaryVar
  3
AutoCAD 2000
 90
        0
280
               0
281
               0
  0
CLASS
  1
RASTERVARIABLES
  2
AcDbRasterVariables
  3
ISM
 90
        0
280
               0
281
               0
  0
CLASS
  1
IMAGEDEF
  2
AcDbRasterImageDef
  3
ISM
 90
        0
280
               0
281
               0
  0
CLASS
  1
IMAGEDEF_REACTOR
  2
AcDbRasterImageDefReactor
  3
ISM
 90
        1
280
               0
281
               0
  0
CLASS
  1
IDBUFFER
  2
AcDbIdBuffer
  3
AutoCAD 2000
 90
        0
280
               0
281
               0
  0
CLASS
  1
SPATIAL_FILTER
  2
AcDbSpatialFilter
  3
AutoCAD 2000
 90
        0
280
               0
281
               0
  0
CLASS
  1
XRECORD
  2
AcDbXrecord
  3
AutoCAD 2000
 90
        0
280
               0
281
               0
  0
CLASS
  1
SORTENTSTABLE
  2
AcDbSortentsTable
  3
AutoCAD 2000
 90
        0
280
               0
281
               0
  0
CLASS
  1
LAYER_INDEX
  2
AcDbLayerIndex
  3
AutoCAD 2000
 90
        0
280
               0
281
               0
  0
CLASS
  1
SPATIAL_INDEX
  2
AcDbSpatialIndex
  3
AutoCAD 2000
 90
        0
280
               0
281
               0
  0
CLASS
  1
OBJECT_PTR
  2
CAseDLPNTableRecord
  3
"ASE-LPNTableRecord"
 90
        1
280
               0
281
               0
  0
CLASS
  1
LAYOUT
  2
AcDbLayout
  3
AutoCAD 2000
 90
        0
280
               0
281
               0
  0
CLASS
  1
PLOTSETTINGS
  2
AcDbPlotSettings
  3
AutoCAD 2000
 90
        0
280
               0
281
               0
  0
CLASS
  1
ACDBDICTIONARYWDFLT
  2
AcDbDictionaryWithDefault
  3
AutoCAD 2000
 90
        0
280
               0
281
               0
  0
CLASS
  1
ACDBPLACEHOLDER
  2
AcDbPlaceHolder
  3
AutoCAD 2000
 90
        0
280
               0
281
               0
  0
ENDSEC
  0
SECTION
  2
TABLES
  0
TABLE
  2
VPORT
  5
7
100
AcDbSymbolTable
 70
               1
  0
VPORT
  5
15
100
AcDbSymbolTableRecord
100
AcDbViewportTableRecord
  2
*ACTIVE
 70
               0
 10
0.0
 20
0.0
 11
1.0
 21
1.0
 12
0.0
 22
-12.764114914906713
 13
0.0
 23
0.0
 14
1.0
 24
1.0
 15
0.0
 25
0.0
 16
0.0
 26
0.0
 36
1.0
 17
0.0
 27
0.0
 37
0.0
 40
2837.522815112412
 41
0.688564
 42
50.0
 43
0.0
 44
0.0
 50
0.0
 51
0.0
 71
               0
 72
            2000
 73
               1
 74
               1
 75
               0
 76
               0
 77
               0
 78
               0
281
               0
 65
               0
110
0.0
120
0.0
130
0.0
111
1.0
121
0.0
131
0.0
112
0.0
122
1.0
132
0.0
345
0
346
0
 79
               0
146
0.0
  0
ENDTAB
  0
TABLE
  2
LTYPE
  5
4
100
AcDbSymbolTable
 70
              17
  0
LTYPE
  5
11
100
AcDbSymbolTableRecord
100
AcDbLinetypeTableRecord
  2
ByBlock
 70
              64
  3

 72
              65
 73
               0
 40
0.0
  0
LTYPE
  5
12
100
AcDbSymbolTableRecord
100
AcDbLinetypeTableRecord
  2
ByLayer
 70
              64
  3

 72
              65
 73
               0
 40
0.0
  0
LTYPE
  5
13
100
AcDbSymbolTableRecord
100
AcDbLinetypeTableRecord
  2
Continuous
 70
              64
  3
Solid line
 72
              65
 73
               0
 40
0.0
  0
LTYPE
  5
2D
100
AcDbSymbolTableRecord
100
AcDbLinetypeTableRecord
  2
STYLE_01
 70
               0
  3

 72
              65
 73
               2
 40
0.6151574803149607
 49
0.4675196850393701
 74
               0
 49
-0.1476377952755906
 74
               0
  0
LTYPE
  5
2E
100
AcDbSymbolTableRecord
100
AcDbLinetypeTableRecord
  2
STYLE_02
 70
               0
  3

 72
              65
 73
               4
 40
0.1107283464566929
 49
0.0738188976377953
 74
               0
 49
-0.0123031496062992
 74
               0
 49
0.0123031496062992
 74
               0
 49
-0.0123031496062992
 74
               0
  0
LTYPE
  5
2F
100
AcDbSymbolTableRecord
100
AcDbLinetypeTableRecord
  2
STYLE_03
 70
               0
  3

 72
              65
 73
               2
 40
1.25
 49
1.0416400000000001
 74
               0
 49
-0.2083599999999999
 74
               0
  0
LTYPE
  5
30
100
AcDbSymbolTableRecord
100
AcDbLinetypeTableRecord
  2
STYLE_04
 70
               0
  3

 72
              65
 73
               2
 40
1.5277099999999999
 49
1.3194249999999998
 74
               0
 49
-0.208285
 74
               0
  0
LTYPE
  5
31
100
AcDbSymbolTableRecord
100
AcDbLinetypeTableRecord
  2
STYLE_05
 70
               0
  3

 72
              65
 73
               2
 40
0.20828
 49
0.069425
 74
               0
 49
-0.138855
 74
               0
  0
LTYPE
  5
32
100
AcDbSymbolTableRecord
100
AcDbLinetypeTableRecord
  2
STYLE_06
 70
               0
  3

 72
              65
 73
               4
 40
1.0416400000000001
 49
0.625
 74
               0
 49
-0.20828
 74
               0
 49
0.06943
 74
               0
 49
-0.13893
 74
               0
  0
LTYPE
  5
33
100
AcDbSymbolTableRecord
100
AcDbLinetypeTableRecord
  2
STYLE_07
 70
               0
  3

 72
              65
 73
               6
 40
1.875
 49
0.625
 74
               0
 49
-0.20828
 74
               0
 49
0.6250000000000001
 74
               0
 49
-0.2083599999999999
 74
               0
 49
0.06943
 74
               0
 49
-0.1389299999999999
 74
               0
  0
LTYPE
  5
34
100
AcDbSymbolTableRecord
100
AcDbLinetypeTableRecord
  2
STYLE_08
 70
               0
  3

 72
              65
 73
               6
 40
1.25
 49
0.625
 74
               0
 49
-0.20828
 74
               0
 49
0.06943
 74
               0
 49
-0.13893
 74
               0
 49
0.0694299999999999
 74
               0
 49
-0.13893
 74
               0
  0
LTYPE
  5
35
100
AcDbSymbolTableRecord
100
AcDbLinetypeTableRecord
  2
STYLE_09
 70
               0
  3

 72
              65
 73
               4
 40
5.0
 49
3.75
 74
               0
 49
-0.2777849999999998
 74
               0
 49
0.6944300000000003
 74
               0
 49
-0.2777849999999998
 74
               0
  0
LTYPE
  5
36
100
AcDbSymbolTableRecord
100
AcDbLinetypeTableRecord
  2
STYLE_10
 70
               0
  3

 72
              65
 73
               6
 40
5.9375
 49
3.75
 74
               0
 49
-0.2777849999999998
 74
               0
 49
0.6944300000000003
 74
               0
 49
-0.2777849999999998
 74
               0
 49
0.625
 74
               0
 49
-0.3125
 74
               0
  0
LTYPE
  5
37
100
AcDbSymbolTableRecord
100
AcDbLinetypeTableRecord
  2
STYLE_11
 70
               0
  3

 72
              65
 73
               2
 40
0.0694444881889764
 49
0.0347222440944882
 74
               0
 49
-0.0347222440944882
 74
               0
  0
LTYPE
  5
38
100
AcDbSymbolTableRecord
100
AcDbLinetypeTableRecord
  2
STYLE_12
 70
               0
  3

 72
              65
 73
               2
 40
0.3937007874015748
 49
0.1968503937007874
 74
               0
 49
-0.1968503937007874
 74
               0
  0
LTYPE
  5
39
100
AcDbSymbolTableRecord
100
AcDbLinetypeTableRecord
  2
STYLE_13
 70
               0
  3

 72
              65
 73
               2
 40
0.5905511811023622
 49
0.2952755905511811
 74
               0
 49
-0.2952755905511811
 74
               0
  0
LTYPE
  5
3A
100
AcDbSymbolTableRecord
100
AcDbLinetypeTableRecord
  2
STYLE_14
 70
               0
  3

 72
              65
 73
               2
 40
1.9685039370078738
 49
0.9842519685039369
 74
               0
 49
-0.9842519685039369
 74
               0
  0
ENDTAB
  0
TABLE
  2
LAYER
  5
2
100
AcDbSymbolTable
 70
               6
  0
LAYER
  5
14
100
AcDbSymbolTableRecord
100
AcDbLayerTableRecord
  2
0
 70
               0
 62
               7
  6
Continuous
290
               1
370
              -3
390
1D
  0
LAYER
  5
3B
100
AcDbSymbolTableRecord
100
AcDbLayerTableRecord
  2
Defpoints
 70
               0
 62
               7
  6
Continuous
290
               0
370
              -3
390
1D
  0
LAYER
  5
3C
100
AcDbSymbolTableRecord
100
AcDbLayerTableRecord
  2
template
 70
               0
 62
               7
  6
Continuous
290
               1
370
              -3
390
1D
  0
LAYER
  5
3D
100
AcDbSymbolTableRecord
100
AcDbLayerTableRecord
  2
info
 70
               0
 62
               7
  6
Continuous
290
               1
370
              -3
390
1D
  0
LAYER
  5
3E
100
AcDbSymbolTableRecord
100
AcDbLayerTableRecord
  2
notes
 70
               0
 62
               7
  6
Continuous
290
               1
370
              -3
390
1D
  0
LAYER
  5
3F
100
AcDbSymbolTableRecord
100
AcDbLayerTableRecord
  2
FAA70-0207
 70
               0
 62
               7
  6
Continuous
290
               1
370
              -3
390
1D
  0
ENDTAB
  0
TABLE
  2
STYLE
  5
3
100
AcDbSymbolTable
 70
               3
  0
STYLE
  5
17
100
AcDbSymbolTableRecord
100
AcDbTextStyleTableRecord
  2
Standard
 70
               0
 40
0.0
 41
1.0
 50
0.0
 71
               0
 42
0.0
  3
txt
  4
BIGFONT.SHX
  0
STYLE
  5
2B
100
AcDbSymbolTableRecord
100
AcDbTextStyleTableRecord
  2
MS UI Gothic
 70
               0
 40
0.0
 41
1.0
 50
0.0
 71
               0
 42
0.0
  3

  4
MS UI Gothic
1001
ACAD
1000
MS UI Gothic
1071
        0
  0
STYLE
  5
2C
100
AcDbSymbolTableRecord
100
AcDbTextStyleTableRecord
  2
ＭＳ ゴシック
 70
               0
 40
0.0
 41
1.0
 50
0.0
 71
               0
 42
0.0
  3

  4
ＭＳ ゴシック
1001
ACAD
1000
ＭＳ ゴシック
1071
        0
  0
ENDTAB
  0
TABLE
  2
VIEW
  5
5
100
AcDbSymbolTable
 70
               0
  0
ENDTAB
  0
TABLE
  2
UCS
  5
6
100
AcDbSymbolTable
 70
               0
  0
ENDTAB
  0
TABLE
  2
APPID
  5
8
100
AcDbSymbolTable
 70
               1
  0
APPID
  5
16
100
AcDbSymbolTableRecord
100
AcDbRegAppTableRecord
  2
ACAD
 70
               0
  0
ENDTAB
  0
TABLE
  2
DIMSTYLE
  5
9
100
AcDbSymbolTable
 70
               3
100
AcDbDimStyleTable
 71
               0
  0
DIMSTYLE
105
18
100
AcDbSymbolTableRecord
100
AcDbDimStyleTableRecord
  2
Standard
 70
               0
  3

  4

 40
1.0
 41
0.18
 42
0.0625
 43
0.38
 44
0.18
 45
0.0
 46
0.0
 47
0.0
 48
0.0
 71
               0
 72
               0
 73
               1
 74
               1
 75
               0
 76
               0
 77
               0
 78
               0
 79
               0
140
0.18
141
0.09
142
0.0
143
25.399999999999999
144
1.0
145
0.0
146
1.0
147
0.09
148
0.0
170
               0
171
               2
172
               0
173
               0
174
               0
175
               0
176
               0
177
               0
178
               0
179
               0
271
               4
272
               4
273
               2
274
               2
275
               0
276
               0
277
               2
278
              46
279
               0
280
               0
281
               0
282
               0
283
               1
284
               0
285
               0
286
               0
288
               0
289
               3
340
17
341
0
342
0
343
0
344
0
371
              -2
372
              -2
  0
DIMSTYLE
105
48
100
AcDbSymbolTableRecord
100
AcDbDimStyleTableRecord
  2
tfrom線あり
 70
               0
  3
<>
  4
[]
 40
1.0
 41
3.999755859375
 42
24.999999999999996
 43
0.9999999999999999
 44
0.0
 45
0.0
 46
0.0
 47
0.0
 48
0.0
 71
               0
 72
               0
 73
               0
 74
               0
 75
               0
 76
               0
 77
               1
 78
              11
 79
               0
140
24.432617187500004
141
0.0
142
0.0
143
1.0
144
1.0
145
0.0
146
1.0
147
0.4999999999999999
148
0.0
170
               0
171
               1
172
               0
173
               0
174
               1
175
               0
176
               0
177
               0
178
               0
179
               2
271
               1
272
               1
273
               2
274
               2
275
               0
276
               2
277
               2
278
              46
279
               0
280
               0
281
               0
282
               0
283
               1
284
              11
285
              11
286
              11
288
               0
289
               0
340
2C
341
40
342
40
343
0
344
0
371
              -2
372
              -2
  0
DIMSTYLE
105
4D
100
AcDbSymbolTableRecord
100
AcDbDimStyleTableRecord
  2
JIS
 70
               0
  3
<>
  4
[]
 40
1.0
 41
31.75
 42
0.0
 43
6.9999999999999396
 44
19.999999999996199
 45
0.0
 46
0.0
 47
0.0
 48
0.0
 71
               0
 72
               0
 73
               0
 74
               0
 75
               0
 76
               0
 77
               1
 78
              11
 79
               0
140
24.432617187500004
141
0.0
142
0.0
143
1.0
144
1.0
145
0.0
146
1.0
147
1.00000000000108
148
0.0
170
               0
171
               1
172
               0
173
               0
174
               1
175
               0
176
               0
177
               0
178
               0
179
               2
271
               1
272
               1
273
               2
274
               2
275
               0
276
               2
277
               2
278
              46
279
               0
280
               0
281
               0
282
               0
283
               1
284
              11
285
              11
286
              11
288
               0
289
               0
340
2C
341
49
342
49
343
0
344
0
371
              -2
372
              -2
  0
ENDTAB
  0
TABLE
  2
BLOCK_RECORD
  5
1
100
AcDbSymbolTable
 70
              10
  0
BLOCK_RECORD
  5
A
100
AcDbSymbolTableRecord
100
AcDbBlockTableRecord
  2
*MODEL_SPACE
340
20
  0
BLOCK_RECORD
  5
B
100
AcDbSymbolTableRecord
100
AcDbBlockTableRecord
  2
*PAPER_SPACE
340
21
  0
BLOCK_RECORD
  5
40
100
AcDbSymbolTableRecord
100
AcDbBlockTableRecord
  2
_DOT
340
0
  0
BLOCK_RECORD
  5
49
100
AcDbSymbolTableRecord
100
AcDbBlockTableRecord
  2
VW_FILLEDARROW
340
0
  0
BLOCK_RECORD
  5
23
100
AcDbSymbolTableRecord
100
AcDbBlockTableRecord
  2
グループ
340
0
102
{BLKREFS
331
B6
102
}
  0
BLOCK_RECORD
  5
24
100
AcDbSymbolTableRecord
100
AcDbBlockTableRecord
  2
*D3
340
0
  0
BLOCK_RECORD
  5
25
100
AcDbSymbolTableRecord
100
AcDbBlockTableRecord
  2
*D4
340
0
  0
BLOCK_RECORD
  5
26
100
AcDbSymbolTableRecord
100
AcDbBlockTableRecord
  2
*D5
340
0
  0
BLOCK_RECORD
  5
27
100
AcDbSymbolTableRecord
100
AcDbBlockTableRecord
  2
*D6
340
0
  0
BLOCK_RECORD
  5
28
100
AcDbSymbolTableRecord
100
AcDbBlockTableRecord
  2
*D7
340
0
  0
BLOCK_RECORD
  5
29
100
AcDbSymbolTableRecord
100
AcDbBlockTableRecord
  2
*D8
340
0
  0
BLOCK_RECORD
  5
2A
100
AcDbSymbolTableRecord
100
AcDbBlockTableRecord
  2
*D9
340
0
  0
ENDTAB
  0
ENDSEC
  0
SECTION
  2
BLOCKS
  0
BLOCK
  5
D
100
AcDbEntity
  8
0
390
0
100
AcDbBlockBegin
  2
*MODEL_SPACE
 70
               0
 10
0.0
 20
0.0
 30
0.0
  3
*MODEL_SPACE
  1

  0
ENDBLK
  5
E
100
AcDbEntity
  8
0
390
0
100
AcDbBlockEnd
  0
BLOCK
  5
F
100
AcDbEntity
 67
               1
  8
0
390
0
100
AcDbBlockBegin
  2
*PAPER_SPACE
 70
               0
 10
0.0
 20
0.0
 30
0.0
  3
*PAPER_SPACE
  1

  0
ENDBLK
  5
10
100
AcDbEntity
 67
               1
  8
0
390
0
100
AcDbBlockEnd
  0
BLOCK
  5
41
100
AcDbEntity
  8
0
390
0
100
AcDbBlockBegin
  2
_DOT
 70
               0
 10
0.0
 20
0.0
 30
0.0
  3
_DOT
  1

  0
POLYLINE
  5
42
100
AcDbEntity
  8
0
370
              -2
390
0
  6
ByBlock
 62
               0
100
AcDb2dPolyline
 66
               1
 10
0.0
 20
0.0
 30
0.0
 70
               1
 40
0.5
 41
0.5
  0
VERTEX
  5
43
100
AcDbEntity
  8
0
370
              -2
390
0
  6
ByBlock
 62
               0
100
AcDbVertex
100
AcDb2dVertex
 10
-0.25
 20
0.0
 30
0.0
 42
1.0
  0
VERTEX
  5
44
100
AcDbEntity
  8
0
370
              -2
390
0
  6
ByBlock
 62
               0
100
AcDbVertex
100
AcDb2dVertex
 10
0.25
 20
0.0
 30
0.0
 42
1.0
  0
SEQEND
  5
45
100
AcDbEntity
  8
0
390
0
  0
LINE
  5
46
100
AcDbEntity
  8
0
370
              -2
390
0
  6
ByBlock
 62
               0
100
AcDbLine
 10
-0.5
 20
0.0
 30
0.0
 11
-1.0
 21
0.0
 31
0.0
  0
ENDBLK
  5
47
100
AcDbEntity
  8
0
390
0
100
AcDbBlockEnd
  0
BLOCK
  5
4A
100
AcDbEntity
  8
0
370
              -2
390
0
  6
ByBlock
 62
               0
100
AcDbBlockBegin
  2
VW_FILLEDARROW
 70
               0
 10
0.0
 20
0.0
 30
0.0
  3
VW_FILLEDARROW
  1

  0
SOLID
  5
4B
100
AcDbEntity
  8
0
370
              -2
390
0
 62
               0
100
AcDbTrace
 10
0.0
 20
0.0
 30
0.0
 11
-0.9921874999999999
 21
-0.2658558393652545
 31
0.0
 12
-0.9921874999999999
 22
0.2658558393652548
 32
0.0
 13
-0.9921874999999999
 23
0.2658558393652548
 33
0.0
  0
ENDBLK
  5
4C
100
AcDbEntity
  8
0
390
0
100
AcDbBlockEnd
  0
BLOCK
  5
4E
100
AcDbEntity
  8
template
390
0
100
AcDbBlockBegin
  2
グループ
 70
               0
 10
0.0
 20
0.0
 30
0.0
  3
グループ
  1

  0
LWPOLYLINE
  5
4F
100
AcDbEntity
  8
0
370
              15
390
0
  6
Continuous
 62
               7
100
AcDbPolyline
 90
        8
 70
             129
 10
887.42865408029832
 20
-1334.4896623904767
 10
887.42865408029832
 20
-1340.4870510840526
 10
877.92745716229501
 20
-1340.4870510840526
 10
877.92745716229501
 20
-1364.9380143475614
 10
869.57207990051222
 20
-1364.9380143475614
 10
869.57207990051222
 20
-1340.4870510840526
 10
860.2391229542028
 20
-1340.4870510840526
 10
860.2391229542028
 20
-1334.4896623904767
  0
LWPOLYLINE
  5
50
100
AcDbEntity
  8
0
370
              15
390
0
  6
Continuous
 62
               7
100
AcDbPolyline
 90
      101
 70
             128
 10
900.15694591085526
 20
-1335.2179108834132
 10
900.17229593963862
 20
-1335.2135501267285
 42
-0.0222221607814217
 10
900.46230051631142
 20
-1335.1449256614835
 10
900.47809428029723
 20
-1335.1419222383879
 42
-0.0146883565589284
 10
900.74079698552919
 20
-1335.0999190514372
 42
-0.0127458844184889
 10
901.00543595268698
 20
-1335.0723820833643
 10
901.06789103099493
 20
-1335.0674886607765
 42
-0.0198099018569739
 10
901.4587401404666
 20
-1335.05240350338
 10
901.51055160991564
 20
-1335.052457279045
 42
-0.0147617382764009
 10
902.00517507088819
 20
-1335.0675773042897
 10
902.07786652576647
 20
-1335.0719499111776
 42
-0.0162624549002956
 10
902.46802015522928
 20
-1335.1081827864498
 10
902.58955254648527
 20
-1335.1234693454458
 42
-0.0080020874661418
 10
902.73513157757998
 20
-1335.1441521927147
 10
902.7734510481805
 20
-1335.1502234705267
 42
-0.0053821929673598
 10
902.84193515348989
 20
-1335.1618309943474
 10
902.11552945429128
 20
-1337.3427594500613
 42
0.0108667757410851
 10
902.04821238415411
 20
-1337.3295723348403
 10
902.01074436097088
 20
-1337.3230745922469
 42
0.01706632033133
 10
901.86752757405281
 20
-1337.3032449949549
 10
901.79965224137243
 20
-1337.2961978243677
 42
0.0220162375270446
 10
901.51927283352211
 20
-1337.2795154635976
 10
901.44141726646274
 20
-1337.2783160963311
 42
0.0282606915786309
 10
901.10578094288712
 20
-1337.2921193733
 10
901.06186766911685
 20
-1337.2964193633036
 42
0.0169677213688143
 10
900.81594317415579
 20
-1337.3289564128559
 42
0.0190576269866147
 10
900.5730352115761
 20
-1337.379103284962
 10
900.56677602346497
 20
-1337.3806462590715
 42
0.0213685642842609
 10
900.31639153898834
 20
-1337.4538465441758
 10
900.31090164407101
 20
-1337.4557095402351
 42
0.0237595297595138
 10
900.05740675916729
 20
-1337.555394062133
 10
900.05230468514264
 20
-1337.5576858376089
 42
0.0261857468812937
 10
899.80013390891224
 20
-1337.6872221749836
 10
899.78970771982381
 20
-1337.6932876494529
 42
0.027255306202608
 10
899.55327794458731
 20
-1337.8486598553964
 10
899.51851493107506
 20
-1337.8743210034906
 42
0.0325996893186144
 10
899.36835958742631
 20
-1338.0010688764598
 10
899.34465015830415
 20
-1338.0238869049717
 42
0.0138050960642464
 10
899.25276700209304
 20
-1338.1173365665245
 42
0.0125280103805508
 10
899.16592446926097
 20
-1338.2154998931228
 10
899.14224402435116
 20
-1338.2436583913118
 42
0.0205218024736245
 10
899.0171439488347
 20
-1338.4054517055447
 10
898.99467760835034
 20
-1338.4371114353678
 42
0.0163110129580184
 10
898.83896722910197
 20
-1338.672441870433
 10
898.83624333304806
 20
-1338.6768656324232
 42
0.0131897341901631
 10
898.68944281214101
 20
-1338.9299977247895
 10
898.68774271677569
 20
-1338.9331159639232
 42
0.010789557606287
 10
898.54996601456276
 20
-1339.1993311735628
 10
898.54923312503979
 20
-1339.200825406205
 42
0.0091371507219558
 10
898.42075317638751
 20
-1339.475350603971
 10
898.39100754498122
 20
-1339.5420571111235
 42
0.0135418326354985
 10
898.21929360591071
 20
-1339.9569948963892
 10
898.18568879747727
 20
-1340.0448610386682
 42
0.0092834542408651
 10
898.01445973755426
 20
-1340.5187595369789
 10
897.98884260984039
 20
-1340.594000606761
 42
0.0054261043575366
 10
897.8812044615438
 20
-1340.9217645798371
 10
897.86367847536224
 20
-1340.9771527420801
 42
0.0008225090818702
 10
897.79500842353627
 20
-1341.1954215002165
 10
896.81031929160281
 20
-1344.2203127934731
 10
900.04294313167668
 20
-1344.2203127934731
 10
899.53875070182323
 20
-1346.1247910918255
 10
896.28269441983991
 20
-1346.1247910918255
 10
890.45354538748609
 20
-1364.9380141578304
 10
888.62844777717578
 20
-1364.9380141578304
 10
894.46312581267671
 20
-1346.1247910918255
 10
892.05800944363637
 20
-1346.1247910918255
 10
892.56220187348981
 20
-1344.2203127934731
 10
894.99075068443983
 20
-1344.2203127934731
 10
895.85090560262847
 20
-1341.5838997927742
 42
-0.0005863560650144
 10
895.88764028082187
 20
-1341.4670733725145
 10
895.96372811449237
 20
-1341.226081073097
 42
-0.0087522378930737
 10
896.1631962579454
 20
-1340.6308049859613
 10
896.255460533362
 20
-1340.3706648174395
 42
-0.0077400953830634
 10
896.51339419249382
 20
-1339.6776601398892
 10
896.52915916407255
 20
-1339.6372292565036
 42
-0.0082369946329186
 10
896.77624363468465
 20
-1339.0331501903074
 42
-0.008572523836308
 10
897.04348973068943
 20
-1338.4377241510163
 10
897.14511933169558
 20
-1338.2213030490341
 42
-0.0168109410596082
 10
897.43206376042485
 20
-1337.660095522931
 10
897.55790715085925
 20
-1337.433131489978
 42
-0.0007817726869743
 10
897.61219150094053
 20
-1337.3355872449024
 10
897.61231980696346
 20
-1337.3353575361557
 42
-0.0036626142143236
 10
897.66720767097911
 20
-1337.2387596561975
 42
-0.008022115065387
 10
897.72433192639141
 20
-1337.1434804214357
 10
897.755031877747
 20
-1337.0940894723226
 42
-0.0202139325577904
 10
897.88268761755137
 20
-1336.9061078716443
 10
897.93675508274134
 20
-1336.8330290074002
 42
-0.0249323791800272
 10
898.19591787645948
 20
-1336.516983765247
 10
898.22005769058751
 20
-1336.4903694923332
 42
-0.0242132121540952
 10
898.55973843212416
 20
-1336.1504860061341
 10
898.60765000487902
 20
-1336.1069768699442
 42
-0.0251017527862112
 10
898.89163170552092
 20
-1335.8739841241786
 10
898.89307718232965
 20
-1335.8729148666034
 42
-0.0130868069043797
 10
899.19133783229199
 20
-1335.6641343980571
 10
899.19289965143378
 20
-1335.6631009577827
 42
-0.029032952639443
 10
899.50401079282801
 20
-1335.4822754561528
 10
899.53385635481607
 20
-1335.4671730733121
 42
-0.0160250190045218
 10
899.79976076857861
 20
-1335.3431569630998
 42
-0.0267600374780491
 10
900.0750368460474
 20
-1335.2424086425513
 10
900.10177276556828
 20
-1335.2342160837256
 42
-0.0049981587670081
 10
900.15694591085526
 20
-1335.2179108834132
 42
-0.0049981587670081
  0
LWPOLYLINE
  5
51
100
AcDbEntity
  8
0
370
              15
390
0
  6
Continuous
 62
               7
100
AcDbPolyline
 90
      118
 70
             128
 10
919.97131347530217
 20
-1344.2942961213005
 10
921.84643539980163
 20
-1344.2942961213005
 10
921.00839649420175
 20
-1346.9758626477005
 42
-0.001058722927054
 10
921.0398523097324
 20
-1346.9389581143935
 10
921.09804640040556
 20
-1346.8709758581695
 42
-0.0071874740403129
 10
921.24842161850472
 20
-1346.7003351661392
 10
921.39014439176594
 20
-1346.5440990248271
 42
-0.0148118053510909
 10
921.84027368448153
 20
-1346.0764851788113
 10
921.92749601938647
 20
-1345.9910878579549
 42
-0.0086273358690449
 10
922.26304482038881
 20
-1345.6737122239442
 10
922.30687853661277
 20
-1345.633662579613
 42
-0.0103138323111748
 10
922.56490223884828
 20
-1345.4074994422729
 10
922.61067664518112
 20
-1345.3690173950079
 42
-0.0060206748564884
 10
922.78352470928758
 20
-1345.2272227442581
 10
922.78555584016976
 20
-1345.22559703863
 42
-0.0067069027291948
 10
922.95784865483597
 20
-1345.0914464048319
 10
922.96039742076744
 20
-1345.0895162349525
 42
-0.0076184352041271
 10
923.13130268663338
 20
-1344.9641413597128
 42
-0.0089652861673197
 10
923.30626364936836
 20
-1344.8445080993802
 10
923.34261536951112
 20
-1344.8205968858986
 42
-0.0156916245934924
 10
923.53857486667289
 20
-1344.7003343994229
 42
-0.0023299011063558
 10
923.73883691060871
 20
-1344.5871564599067
 10
923.75422104303266
 20
-1344.5785564648174
 42
-0.0107669341488251
 10
923.98845786814161
 20
-1344.4541563314642
 10
924.01072266920892
 20
-1344.442939581518
 42
-0.007805804590239
 10
924.29431278715197
 20
-1344.305578125884
 10
924.3042198748708
 20
-1344.3009689980111
 42
-0.0181829330470096
 10
924.61452927948869
 20
-1344.1701052569144
 10
924.6685847220524
 20
-1344.1495901369722
 42
-0.020841153602755
 10
925.01766968950335
 20
-1344.0334996744787
 10
925.03202578962987
 20
-1344.0293812295256
 42
-0.0222799817137848
 10
925.36074558354812
 20
-1343.9507396633849
 10
925.36963454678857
 20
-1343.949027652799
 42
-0.021550952388001
 10
925.68610551506481
 20
-1343.9021119642657
 10
925.72858747611372
 20
-1343.8976744374747
 42
-0.0182545924871718
 10
925.96269625541913
 20
-1343.8818306120838
 10
926.00209727176752
 20
-1343.8806060670047
 42
-0.0072962856535513
 10
926.15802015145596
 20
-1343.8780367384825
 10
926.1871198220241
 20
-1343.8779819030788
 42
-0.005922751631127
 10
926.28486932117301
 20
-1343.878955614869
 10
926.31411153865679
 20
-1343.8795933814727
 42
-0.0011833111899684
 10
926.35336282237733
 20
-1343.8805423857825
 10
925.55797622677017
 20
-1346.4192763308815
 42
0.0143932051565001
 10
925.53157484441658
 20
-1346.4090773608352
 10
925.52430287200229
 20
-1346.4065061419788
 42
0.0234388603491669
 10
925.48247200606943
 20
-1346.3938869062633
 10
925.47379034315748
 20
-1346.3917059442585
 42
0.0199162742976306
 10
925.41350150907556
 20
-1346.379089208923
 10
925.39268757127127
 20
-1346.375592009495
 42
0.0293643550669187
 10
925.28961271251126
 20
-1346.3644419638417
 10
925.26492753179173
 20
-1346.3632303468232
 42
0.0214606686870727
 10
925.11178661583926
 20
-1346.3622917864059
 10
925.10241470502137
 20
-1346.3626366979502
 42
0.0167564054187392
 10
924.93089451391029
 20
-1346.3747137403184
 10
924.92243472115388
 20
-1346.3755950807454
 42
0.0137677553248064
 10
924.73508140788658
 20
-1346.4003443892891
 10
924.72772966838147
 20
-1346.4015223092567
 42
0.0118497261481551
 10
924.52723190428583
 20
-1346.4385396594446
 10
924.5210818970329
 20
-1346.439826522166
 42
0.0106421143890214
 10
924.31020100974069
 20
-1346.4886588977424
 10
924.30529220135872
 20
-1346.4899062404259
 42
0.0099746379701457
 10
924.08683373219435
 20
-1346.5500807687411
 10
924.02528569202605
 20
-1346.5683626473713
 42
0.0191613675866206
 10
923.68930122950542
 20
-1346.6823400276603
 10
923.60124145676707
 20
-1346.7160269379815
 42
0.0205274080142211
 10
923.21593468486435
 20
-1346.8818553458088
 10
923.15828540288373
 20
-1346.9095233103806
 42
0.0181256912192426
 10
922.90000846221528
 20
-1347.0452071293589
 10
922.84705307890624
 20
-1347.0755247425709
 42
0.0140709242404521
 10
922.7020981442729
 20
-1347.1640194160082
 10
922.67584927565974
 20
-1347.18107623472
 42
0.0086667884375389
 10
922.58692311411187
 20
-1347.2410789026064
 42
0.0036408192019321
 10
922.49948987607524
 20
-1347.303259760401
 10
922.46426300160988
 20
-1347.3287007063116
 42
0.0052260781278682
 10
922.30803430421463
 20
-1347.444033092949
 10
922.29182744795935
 20
-1347.4562612035638
 42
0.0050024435893253
 10
922.10582410491702
 20
-1347.5995437718132
 10
922.09050594838527
 20
-1347.6115897942718
 42
0.0136138710272358
 10
921.88006468006097
 20
-1347.7865562991842
 10
921.84639680426631
 20
-1347.8161352718994
 42
0.0172815186913869
 10
921.58199326260603
 20
-1348.0651319445208
 10
921.57943091676134
 20
-1348.0677177616699
 42
0.0189403857991778
 10
921.32884911818326
 20
-1348.340523026473
 10
921.29621762464387
 20
-1348.3788669579742
 42
0.0185044199509338
 10
921.10426118566613
 20
-1348.6221155390945
 42
0.0088565243906271
 10
920.92580107902756
 20
-1348.8756319592594
 10
920.9166230993892
 20
-1348.8891733390044
 42
0.0157195347223685
 10
920.7334024930592
 20
-1349.1786955483133
 10
920.68731955112742
 20
-1349.2568477453356
 42
0.0095451879783284
 10
920.5222340009866
 20
-1349.5494423876976
 10
920.51108608205709
 20
-1349.5701130598293
 42
0.0100351706258952
 10
920.3790423328976
 20
-1349.8271686203202
 42
0.0086935915417205
 10
920.25671118110904
 20
-1350.0890017657125
 10
920.25339043968916
 20
-1350.0964440886964
 42
0.0072580174869614
 10
920.13304398774096
 20
-1350.3770360802873
 10
920.12978235443779
 20
-1350.3849561062975
 42
0.0060005122617386
 10
920.01058168609018
 20
-1350.6845657769156
 10
920.00737070775358
 20
-1350.6929273048072
 42
0.0049017786976053
 10
919.88847054889698
 20
-1351.0118562854093
 10
919.8853047425057
 20
-1351.0206092226422
 42
0.0039415167599783
 10
919.76586846445275
 20
-1351.3591512850444
 10
919.76273736179678
 20
-1351.3682544859314
 42
0.0031035838760783
 10
919.64193257610793
 20
-1351.7266943476923
 10
919.6388225315734
 20
-1351.7361149690796
 42
0.0025070747154036
 10
919.5159211802544
 20
-1352.1147621860348
 10
919.47862728383257
 20
-1352.2316538512766
 42
0.0029081910285885
 10
919.28660898601811
 20
-1352.8458175095802
 10
919.24580581750479
 20
-1352.9790407518442
 42
0.0009266453733613
 10
918.97738844319349
 20
-1353.8612652117561
 10
918.95650097054613
 20
-1353.9303770910142
 42
-0.0005809993666785
 10
918.67916428995829
 20
-1354.8441851976427
 10
918.61288249169036
 20
-1355.0616701297861
 42
-0.001201870816988
 10
918.46589818225607
 20
-1355.539832794323
 10
918.41357833081418
 20
-1355.7085919347901
 42
-0.0002691059618512
 10
918.37000884952204
 20
-1355.8488595555307
 10
915.53705295123279
 20
-1364.9380141578304
 10
913.71906405925426
 20
-1364.9380141578304
 10
919.97131347530217
 20
-1344.2942961213005
  0
SPLINE
  5
52
100
AcDbEntity
  8
0
370
              15
390
0
  6
Continuous
 62
               7
100
AcDbSpline
210
0.0
220
0.0
230
1.0
 70
              13
 71
               2
 72
             782
 73
             779
 74
               0
 42
0.000001
 43
0.000001
 40
0.0
 40
0.0
 40
0.0
 40
1.0
 40
1.0
 40
2.0
 40
2.0
 40
3.0
 40
3.0
 40
4.0
 40
4.0
 40
5.0
 40
5.0
 40
6.0
 40
6.0
 40
7.0
 40
7.0
 40
8.0
 40
8.0
 40
9.0
 40
9.0
 40
10.0
 40
10.0
 40
11.0
 40
11.0
 40
12.0
 40
12.0
 40
13.0
 40
13.0
 40
14.0
 40
14.0
 40
15.0
 40
15.0
 40
16.0
 40
16.0
 40
17.0
 40
17.0
 40
18.0
 40
18.0
 40
19.0
 40
19.0
 40
20.0
 40
20.0
 40
21.0
 40
21.0
 40
22.0
 40
22.0
 40
23.0
 40
23.0
 40
24.0
 40
24.0
 40
25.0
 40
25.0
 40
26.0
 40
26.0
 40
27.0
 40
27.0
 40
28.0
 40
28.0
 40
29.0
 40
29.0
 40
30.0
 40
30.0
 40
31.0
 40
31.0
 40
32.0
 40
32.0
 40
33.0
 40
33.0
 40
34.0
 40
34.0
 40
35.0
 40
35.0
 40
36.0
 40
36.0
 40
37.0
 40
37.0
 40
38.0
 40
38.0
 40
39.0
 40
39.0
 40
40.0
 40
40.0
 40
41.0
 40
41.0
 40
42.0
 40
42.0
 40
43.0
 40
43.0
 40
44.0
 40
44.0
 40
45.0
 40
45.0
 40
46.0
 40
46.0
 40
47.0
 40
47.0
 40
48.0
 40
48.0
 40
49.0
 40
49.0
 40
50.0
 40
50.0
 40
51.0
 40
51.0
 40
52.0
 40
52.0
 40
53.0
 40
53.0
 40
54.0
 40
54.0
 40
55.0
 40
55.0
 40
56.0
 40
56.0
 40
57.0
 40
57.0
 40
58.0
 40
58.0
 40
59.0
 40
59.0
 40
60.0
 40
60.0
 40
61.0
 40
61.0
 40
62.0
 40
62.0
 40
63.0
 40
63.0
 40
64.0
 40
64.0
 40
65.0
 40
65.0
 40
66.0
 40
66.0
 40
67.0
 40
67.0
 40
68.0
 40
68.0
 40
69.0
 40
69.0
 40
70.0
 40
70.0
 40
71.0
 40
71.0
 40
72.0
 40
72.0
 40
73.0
 40
73.0
 40
74.0
 40
74.0
 40
75.0
 40
75.0
 40
76.0
 40
76.0
 40
77.0
 40
77.0
 40
78.0
 40
78.0
 40
79.0
 40
79.0
 40
80.0
 40
80.0
 40
81.0
 40
81.0
 40
82.0
 40
82.0
 40
83.0
 40
83.0
 40
84.0
 40
84.0
 40
85.0
 40
85.0
 40
86.0
 40
86.0
 40
87.0
 40
87.0
 40
88.0
 40
88.0
 40
89.0
 40
89.0
 40
90.0
 40
90.0
 40
91.0
 40
91.0
 40
92.0
 40
92.0
 40
93.0
 40
93.0
 40
94.0
 40
94.0
 40
95.0
 40
95.0
 40
96.0
 40
96.0
 40
97.0
 40
97.0
 40
98.0
 40
98.0
 40
99.0
 40
99.0
 40
100.0
 40
100.0
 40
101.0
 40
101.0
 40
102.0
 40
102.0
 40
103.0
 40
103.0
 40
104.0
 40
104.0
 40
105.0
 40
105.0
 40
106.0
 40
106.0
 40
107.0
 40
107.0
 40
108.0
 40
108.0
 40
109.0
 40
109.0
 40
110.0
 40
110.0
 40
111.0
 40
111.0
 40
112.0
 40
112.0
 40
113.0
 40
113.0
 40
114.0
 40
114.0
 40
115.0
 40
115.0
 40
116.0
 40
116.0
 40
117.0
 40
117.0
 40
118.0
 40
118.0
 40
119.0
 40
119.0
 40
120.0
 40
120.0
 40
121.0
 40
121.0
 40
122.0
 40
122.0
 40
123.0
 40
123.0
 40
124.0
 40
124.0
 40
125.0
 40
125.0
 40
126.0
 40
126.0
 40
127.0
 40
127.0
 40
128.0
 40
128.0
 40
129.0
 40
129.0
 40
130.0
 40
130.0
 40
131.0
 40
131.0
 40
132.0
 40
132.0
 40
133.0
 40
133.0
 40
134.0
 40
134.0
 40
135.0
 40
135.0
 40
136.0
 40
136.0
 40
137.0
 40
137.0
 40
138.0
 40
138.0
 40
139.0
 40
139.0
 40
140.0
 40
140.0
 40
141.0
 40
141.0
 40
142.0
 40
142.0
 40
143.0
 40
143.0
 40
144.0
 40
144.0
 40
145.0
 40
145.0
 40
146.0
 40
146.0
 40
147.0
 40
147.0
 40
148.0
 40
148.0
 40
149.0
 40
149.0
 40
150.0
 40
150.0
 40
151.0
 40
151.0
 40
152.0
 40
152.0
 40
153.0
 40
153.0
 40
154.0
 40
154.0
 40
155.0
 40
155.0
 40
156.0
 40
156.0
 40
157.0
 40
157.0
 40
158.0
 40
158.0
 40
159.0
 40
159.0
 40
160.0
 40
160.0
 40
161.0
 40
161.0
 40
162.0
 40
162.0
 40
163.0
 40
163.0
 40
164.0
 40
164.0
 40
165.0
 40
165.0
 40
166.0
 40
166.0
 40
167.0
 40
167.0
 40
168.0
 40
168.0
 40
169.0
 40
169.0
 40
170.0
 40
170.0
 40
171.0
 40
171.0
 40
172.0
 40
172.0
 40
173.0
 40
173.0
 40
174.0
 40
174.0
 40
175.0
 40
175.0
 40
176.0
 40
176.0
 40
177.0
 40
177.0
 40
178.0
 40
178.0
 40
179.0
 40
179.0
 40
180.0
 40
180.0
 40
181.0
 40
181.0
 40
182.0
 40
182.0
 40
183.0
 40
183.0
 40
184.0
 40
184.0
 40
185.0
 40
185.0
 40
186.0
 40
186.0
 40
187.0
 40
187.0
 40
188.0
 40
188.0
 40
189.0
 40
189.0
 40
190.0
 40
190.0
 40
191.0
 40
191.0
 40
192.0
 40
192.0
 40
193.0
 40
193.0
 40
194.0
 40
194.0
 40
195.0
 40
195.0
 40
196.0
 40
196.0
 40
197.0
 40
197.0
 40
198.0
 40
198.0
 40
199.0
 40
199.0
 40
200.0
 40
200.0
 40
201.0
 40
201.0
 40
202.0
 40
202.0
 40
203.0
 40
203.0
 40
204.0
 40
204.0
 40
205.0
 40
205.0
 40
206.0
 40
206.0
 40
207.0
 40
207.0
 40
208.0
 40
208.0
 40
209.0
 40
209.0
 40
210.0
 40
210.0
 40
211.0
 40
211.0
 40
212.0
 40
212.0
 40
213.0
 40
213.0
 40
214.0
 40
214.0
 40
215.0
 40
215.0
 40
216.0
 40
216.0
 40
217.0
 40
217.0
 40
218.0
 40
218.0
 40
219.0
 40
219.0
 40
220.0
 40
220.0
 40
221.0
 40
221.0
 40
222.0
 40
222.0
 40
223.0
 40
223.0
 40
224.0
 40
224.0
 40
225.0
 40
225.0
 40
226.0
 40
226.0
 40
227.0
 40
227.0
 40
228.0
 40
228.0
 40
229.0
 40
229.0
 40
230.0
 40
230.0
 40
231.0
 40
231.0
 40
232.0
 40
232.0
 40
233.0
 40
233.0
 40
234.0
 40
234.0
 40
235.0
 40
235.0
 40
236.0
 40
236.0
 40
237.0
 40
237.0
 40
238.0
 40
238.0
 40
239.0
 40
239.0
 40
240.0
 40
240.0
 40
241.0
 40
241.0
 40
242.0
 40
242.0
 40
243.0
 40
243.0
 40
244.0
 40
244.0
 40
245.0
 40
245.0
 40
246.0
 40
246.0
 40
247.0
 40
247.0
 40
248.0
 40
248.0
 40
249.0
 40
249.0
 40
250.0
 40
250.0
 40
251.0
 40
251.0
 40
252.0
 40
252.0
 40
253.0
 40
253.0
 40
254.0
 40
254.0
 40
255.0
 40
255.0
 40
256.0
 40
256.0
 40
257.0
 40
257.0
 40
258.0
 40
258.0
 40
259.0
 40
259.0
 40
260.0
 40
260.0
 40
261.0
 40
261.0
 40
262.0
 40
262.0
 40
263.0
 40
263.0
 40
264.0
 40
264.0
 40
265.0
 40
265.0
 40
266.0
 40
266.0
 40
267.0
 40
267.0
 40
268.0
 40
268.0
 40
269.0
 40
269.0
 40
270.0
 40
270.0
 40
271.0
 40
271.0
 40
272.0
 40
272.0
 40
273.0
 40
273.0
 40
274.0
 40
274.0
 40
275.0
 40
275.0
 40
276.0
 40
276.0
 40
277.0
 40
277.0
 40
278.0
 40
278.0
 40
279.0
 40
279.0
 40
280.0
 40
280.0
 40
281.0
 40
281.0
 40
282.0
 40
282.0
 40
283.0
 40
283.0
 40
284.0
 40
284.0
 40
285.0
 40
285.0
 40
286.0
 40
286.0
 40
287.0
 40
287.0
 40
288.0
 40
288.0
 40
289.0
 40
289.0
 40
290.0
 40
290.0
 40
291.0
 40
291.0
 40
292.0
 40
292.0
 40
293.0
 40
293.0
 40
294.0
 40
294.0
 40
295.0
 40
295.0
 40
296.0
 40
296.0
 40
297.0
 40
297.0
 40
298.0
 40
298.0
 40
299.0
 40
299.0
 40
300.0
 40
300.0
 40
301.0
 40
301.0
 40
302.0
 40
302.0
 40
303.0
 40
303.0
 40
304.0
 40
304.0
 40
305.0
 40
305.0
 40
306.0
 40
306.0
 40
307.0
 40
307.0
 40
308.0
 40
308.0
 40
309.0
 40
309.0
 40
310.0
 40
310.0
 40
311.0
 40
311.0
 40
312.0
 40
312.0
 40
313.0
 40
313.0
 40
314.0
 40
314.0
 40
315.0
 40
315.0
 40
316.0
 40
316.0
 40
317.0
 40
317.0
 40
318.0
 40
318.0
 40
319.0
 40
319.0
 40
320.0
 40
320.0
 40
321.0
 40
321.0
 40
322.0
 40
322.0
 40
323.0
 40
323.0
 40
324.0
 40
324.0
 40
325.0
 40
325.0
 40
326.0
 40
326.0
 40
327.0
 40
327.0
 40
328.0
 40
328.0
 40
329.0
 40
329.0
 40
330.0
 40
330.0
 40
331.0
 40
331.0
 40
332.0
 40
332.0
 40
333.0
 40
333.0
 40
334.0
 40
334.0
 40
335.0
 40
335.0
 40
336.0
 40
336.0
 40
337.0
 40
337.0
 40
338.0
 40
338.0
 40
339.0
 40
339.0
 40
340.0
 40
340.0
 40
341.0
 40
341.0
 40
342.0
 40
342.0
 40
343.0
 40
343.0
 40
344.0
 40
344.0
 40
345.0
 40
345.0
 40
346.0
 40
346.0
 40
347.0
 40
347.0
 40
348.0
 40
348.0
 40
349.0
 40
349.0
 40
350.0
 40
350.0
 40
351.0
 40
351.0
 40
352.0
 40
352.0
 40
353.0
 40
353.0
 40
354.0
 40
354.0
 40
355.0
 40
355.0
 40
356.0
 40
356.0
 40
357.0
 40
357.0
 40
358.0
 40
358.0
 40
359.0
 40
359.0
 40
360.0
 40
360.0
 40
361.0
 40
361.0
 40
362.0
 40
362.0
 40
363.0
 40
363.0
 40
364.0
 40
364.0
 40
365.0
 40
365.0
 40
366.0
 40
366.0
 40
367.0
 40
367.0
 40
368.0
 40
368.0
 40
369.0
 40
369.0
 40
370.0
 40
370.0
 40
371.0
 40
371.0
 40
372.0
 40
372.0
 40
373.0
 40
373.0
 40
374.0
 40
374.0
 40
375.0
 40
375.0
 40
376.0
 40
376.0
 40
377.0
 40
377.0
 40
378.0
 40
378.0
 40
379.0
 40
379.0
 40
380.0
 40
380.0
 40
381.0
 40
381.0
 40
382.0
 40
382.0
 40
383.0
 40
383.0
 40
384.0
 40
384.0
 40
385.0
 40
385.0
 40
386.0
 40
386.0
 40
387.0
 40
387.0
 40
388.0
 40
388.0
 40
389.0
 40
389.0
 40
389.0
 10
930.3000179260348
 20
-1344.2833697579381
 30
0.0
 41
1.0
 10
931.11844203475528
 20
-1344.2833697579381
 30
0.0
 41
1.0
 10
931.93686614347575
 20
-1344.2833697579381
 30
0.0
 41
1.0
 10
931.52311240795893
 20
-1345.6259960221878
 30
0.0
 41
1.0
 10
931.10935867244223
 20
-1346.9686222864375
 30
0.0
 41
1.0
 10
931.12769816763216
 20
-1346.9399215134918
 30
0.0
 41
0.9999957264440046
 10
931.14620516446848
 20
-1346.9113284633327
 30
0.0
 41
1.0
 10
931.17663448859196
 20
-1346.8643155849782
 30
0.0
 41
1.0
 10
931.20706381271543
 20
-1346.8173027066237
 30
0.0
 41
1.0
 10
931.28642945781826
 20
-1346.6946838997246
 30
0.0
 41
0.99953940690815
 10
931.37308784936749
 20
-1346.5771058379869
 30
0.0
 41
1.0
 10
931.40884471162872
 20
-1346.5285909453914
 30
0.0
 41
1.0
 10
931.44460157388994
 20
-1346.480076052796
 30
0.0
 41
1.0
 10
931.57832824170839
 20
-1346.2986357776683
 30
0.0
 41
0.99944606171427
 10
931.7238287229992
 20
-1346.1264933800153
 30
0.0
 41
1.0
 10
931.72821690397654
 20
-1346.1213016996298
 30
0.0
 41
1.0
 10
931.73260508495378
 20
-1346.1161100192446
 30
0.0
 41
1.0
 10
931.86932920428967
 20
-1345.9543509823632
 30
0.0
 41
0.9994359394934974
 10
932.01660343463845
 20
-1345.8021347812009
 30
0.0
 41
1.0
 10
932.01898678859129
 20
-1345.7996714508283
 30
0.0
 41
1.0
 10
932.02137014254401
 20
-1345.7972081204557
 30
0.0
 41
1.0
 10
932.16387766498895
 20
-1345.6499185800374
 30
0.0
 41
0.9995293688568044
 10
932.31514934597215
 20
-1345.511645367872
 30
0.0
 41
1.0
 10
932.33444310523134
 20
-1345.4940094822246
 30
0.0
 41
1.0
 10
932.35373686449054
 20
-1345.4763735965771
 30
0.0
 41
1.0
 10
932.46642102695205
 20
-1345.3733721557098
 30
0.0
 41
0.9997087614803025
 10
932.58394391590923
 20
-1345.2759278749102
 30
0.0
 41
1.0
 10
932.60310998907482
 20
-1345.2600362964104
 30
0.0
 41
1.0
 10
932.62227606224042
 20
-1345.2441447179108
 30
0.0
 41
1.0
 10
932.70146680485425
 20
-1345.1784835941203
 30
0.0
 41
0.9999595338695958
 10
932.78182607571944
 20
-1345.1142578634572
 30
0.0
 41
1.0
 10
932.86218534657189
 20
-1345.0500321328045
 30
0.0
 41
0.9999749417505918
 10
932.94344588092201
 20
-1344.9869505788529
 30
0.0
 41
1.0
 10
932.96443202710407
 20
-1344.9706592915361
 30
0.0
 41
1.0
 10
932.98541817328612
 20
-1344.9543680042193
 30
0.0
 41
1.0
 10
933.06998605856302
 20
-1344.8887189943978
 30
0.0
 41
0.9999792037119784
 10
933.15539365832046
 20
-1344.8241662127634
 30
0.0
 41
1.0
 10
933.17621848416661
 20
-1344.808426390555
 30
0.0
 41
1.0
 10
933.19704331001287
 20
-1344.7926865683467
 30
0.0
 41
1.0
 10
933.24080125802163
 20
-1344.7596134311714
 30
0.0
 41
0.9999993374181961
 10
933.28448294423322
 20
-1344.7264396356957
 30
0.0
 41
1.0
 10
933.32816463036886
 20
-1344.693265840277
 30
0.0
 41
0.9999160953816025
 10
933.37269104128143
 20
-1344.661234775084
 30
0.0
 41
1.0
 10
933.40551292870828
 20
-1344.6376236194938
 30
0.0
 41
1.0
 10
933.43833481613501
 20
-1344.6140124639037
 30
0.0
 41
1.0
 10
933.54850500189332
 20
-1344.5347590875358
 30
0.0
 41
0.9980964527231313
 10
933.66759399539387
 20
-1344.46967161468
 30
0.0
 41
1.0
 10
933.70462660232147
 20
-1344.4494316350872
 30
0.0
 41
1.0
 10
933.74165920924895
 20
-1344.4291916554944
 30
0.0
 41
1.0
 10
933.92098622252206
 20
-1344.3311814047927
 30
0.0
 41
0.9984572810572223
 10
934.11007478888223
 20
-1344.2536591434459
 30
0.0
 41
1.0
 10
934.11372105827854
 20
-1344.2521642511078
 30
0.0
 41
1.0
 10
934.11736732767497
 20
-1344.2506693587695
 30
0.0
 41
1.0
 10
934.29916335524126
 20
-1344.1761368820994
 30
0.0
 41
0.9987838528033985
 10
934.48741601380038
 20
-1344.1198712419337
 30
0.0
 41
1.0
 10
934.49165396299884
 20
-1344.1186045882437
 30
0.0
 41
1.0
 10
934.49589191219729
 20
-1344.1173379345535
 30
0.0
 41
1.0
 10
934.67566867235939
 20
-1344.0636056017679
 30
0.0
 41
0.9990652816207258
 10
934.85941460407548
 20
-1344.0256019222259
 30
0.0
 41
1.0
 10
934.86460300510691
 20
-1344.0245288191195
 30
0.0
 41
1.0
 10
934.86979140613835
 20
-1344.0234557160129
 30
0.0
 41
1.0
 10
935.04316053579146
 20
-1343.9875982426838
 30
0.0
 41
0.9992909934270314
 10
935.21873630224968
 20
-1343.9648878102173
 30
0.0
 41
1.0
 10
935.39431206870745
 20
-1343.9421773777508
 30
0.0
 41
0.9994553539448343
 10
935.57100350180042
 20
-1343.9310980735445
 30
0.0
 41
1.0
 10
935.6064379095958
 20
-1343.9288761854968
 30
0.0
 41
1.0
 10
935.64187231739118
 20
-1343.926654297449
 30
0.0
 41
1.0
 10
935.80809808396134
 20
-1343.9162312350372
 30
0.0
 41
0.9990928098293124
 10
935.97460787586442
 20
-1343.9199908762716
 30
0.0
 41
1.0
 10
936.01316971113465
 20
-1343.9208615678046
 30
0.0
 41
1.0
 10
936.05173154640477
 20
-1343.9217322593377
 30
0.0
 41
1.0
 10
936.14111766776546
 20
-1343.9237505175063
 30
0.0
 41
0.9998382089205616
 10
936.23037335055335
 20
-1343.9289826440345
 30
0.0
 41
1.0
 10
936.23080325677074
 20
-1343.9290078449367
 30
0.0
 41
1.0
 10
936.23123316298813
 20
-1343.9290330458387
 30
0.0
 41
1.0
 10
936.31962903333715
 20
-1343.9342147705622
 30
0.0
 41
0.9997558016757883
 10
936.40770961054034
 20
-1343.943297285929
 30
0.0
 41
1.0
 10
936.40818574896821
 20
-1343.9433463834114
 30
0.0
 41
1.0
 10
936.40866188739619
 20
-1343.9433954808937
 30
0.0
 41
1.0
 10
936.49579018773943
 20
-1343.9523798012951
 30
0.0
 41
0.9996565144180882
 10
936.5823280410832
 20
-1343.9659171079843
 30
0.0
 41
1.0
 10
936.5827939664614
 20
-1343.9659899937158
 30
0.0
 41
1.0
 10
936.58325989183959
 20
-1343.9660628794472
 30
0.0
 41
1.0
 10
936.66886589442595
 20
-1343.9794544146737
 30
0.0
 41
0.99953218068674
 10
936.75349297475327
 20
-1343.9980549031027
 30
0.0
 41
1.0
 10
936.75388216932527
 20
-1343.9981404455684
 30
0.0
 41
1.0
 10
936.75427136389726
 20
-1343.9982259880344
 30
0.0
 41
1.0
 10
936.83812005508162
 20
-1344.0166553915321
 30
0.0
 41
0.9993819199219282
 10
936.92046658927745
 20
-1344.0409307747927
 30
0.0
 41
1.0
 10
936.92070502277522
 20
-1344.0410010639021
 30
0.0
 41
1.0
 10
936.92094345627299
 20
-1344.0410713530114
 30
0.0
 41
1.0
 10
937.00281312347283
 20
-1344.0652061580529
 30
0.0
 41
0.9992088568504411
 10
937.08250564246191
 20
-1344.0957713938478
 30
0.0
 41
1.0
 10
937.16218663334098
 20
-1344.1263309945809
 30
0.0
 41
0.9990226101773478
 10
937.2388573032481
 20
-1344.1638084261954
 30
0.0
 41
1.0
 10
937.31551644504646
 20
-1344.2012802227491
 30
0.0
 41
0.9988424273972383
 10
937.3882200722577
 20
-1344.2459449980015
 30
0.0
 41
1.0
 10
937.38848778063743
 20
-1344.2461094620739
 30
0.0
 41
1.0
 10
937.38875548901717
 20
-1344.2462739261464
 30
0.0
 41
1.0
 10
937.46199453298834
 20
-1344.2912676295439
 30
0.0
 41
0.9986928844490296
 10
937.53025739969837
 20
-1344.3435033638239
 30
0.0
 41
1.0
 10
937.53083869192096
 20
-1344.3439481770515
 30
0.0
 41
1.0
 10
937.53141998414344
 20
-1344.3443929902792
 30
0.0
 41
1.0
 10
937.60084543529899
 20
-1344.3975183510147
 30
0.0
 41
0.9986007262278002
 10
937.66427160506555
 20
-1344.4576791207082
 30
0.0
 41
1.0
 10
937.66516602052275
 20
-1344.4585274885433
 30
0.0
 41
1.0
 10
937.66606043597983
 20
-1344.4593758563783
 30
0.0
 41
1.0
 10
937.7312754366618
 20
-1344.5212333617428
 30
0.0
 41
0.998558149138145
 10
937.78948304836331
 20
-1344.5897258520142
 30
0.0
 41
1.0
 10
937.79874150195883
 20
-1344.6006202097155
 30
0.0
 41
1.0
 10
937.80799995555435
 20
-1344.6115145674171
 30
0.0
 41
1.0
 10
937.88472447444781
 20
-1344.7017957730923
 30
0.0
 41
0.9970460233520632
 10
937.9467163756068
 20
-1344.8027628572734
 30
0.0
 41
1.0
 10
937.96118574068669
 20
-1344.826329316355
 30
0.0
 41
1.0
 10
937.97565510576646
 20
-1344.8498957754368
 30
0.0
 41
1.0
 10
938.0153918057789
 20
-1344.9146154994692
 30
0.0
 41
0.9988468816637108
 10
938.04873817652981
 20
-1344.9828479518956
 30
0.0
 41
1.0
 10
938.05577419902124
 20
-1344.997244873033
 30
0.0
 41
1.0
 10
938.06281022151268
 20
-1345.0116417941704
 30
0.0
 41
1.0
 10
938.08208454727992
 20
-1345.0510804043199
 30
0.0
 41
0.999843118999819
 10
938.09994987477626
 20
-1345.091176958764
 30
0.0
 41
1.0
 10
938.11781520225884
 20
-1345.1312735131767
 30
0.0
 41
0.9999989989870018
 10
938.13579392570125
 20
-1345.1713193508062
 30
0.0
 41
1.0
 10
938.14196623729151
 20
-1345.1850675676101
 30
0.0
 41
1.0
 10
938.14813854888178
 20
-1345.1988157844139
 30
0.0
 41
1.0
 10
938.17846189549289
 20
-1345.2663580556241
 30
0.0
 41
0.9998790356322571
 10
938.20666977563144
 20
-1345.3348108075629
 30
0.0
 41
1.0
 10
938.21350495691604
 20
-1345.3513979089912
 30
0.0
 41
1.0
 10
938.22034013820064
 20
-1345.3679850104195
 30
0.0
 41
1.0
 10
938.24389780058004
 20
-1345.4251529653025
 30
0.0
 41
0.9998227574561243
 10
938.26528654896845
 20
-1345.4831672735777
 30
0.0
 41
1.0
 10
938.28667529735731
 20
-1345.5411815818536
 30
0.0
 41
0.999679797104157
 10
938.30510158231732
 20
-1345.6002037009741
 30
0.0
 41
1.0
 10
938.30900538504272
 20
-1345.6127081591426
 30
0.0
 41
1.0
 10
938.31290918776813
 20
-1345.6252126173113
 30
0.0
 41
1.0
 10
938.33914307817849
 20
-1345.7092436527682
 30
0.0
 41
0.997927493873518
 10
938.3543676016576
 20
-1345.7959480114278
 30
0.0
 41
1.0
 10
938.35659128891848
 20
-1345.8086120122471
 30
0.0
 41
1.0
 10
938.35881497617925
 20
-1345.8212760130662
 30
0.0
 41
1.0
 10
938.36974491587785
 20
-1345.8835225203582
 30
0.0
 41
0.9994985982137445
 10
938.37671308105519
 20
-1345.9463360215022
 30
0.0
 41
1.0
 10
938.38368124623207
 20
-1346.0091495226434
 30
0.0
 41
0.9996372611201918
 10
938.38725711199982
 20
-1346.0722471013255
 30
0.0
 41
1.0
 10
938.38742568948919
 20
-1346.0752217184081
 30
0.0
 41
1.0
 10
938.38759426697845
 20
-1346.0781963354907
 30
0.0
 41
1.0
 10
938.39150728772472
 20
-1346.1472431483401
 30
0.0
 41
0.9997730630736647
 10
938.39247560121305
 20
-1346.2163939723766
 30
0.0
 41
1.0
 10
938.39253270763106
 20
-1346.2204721515157
 30
0.0
 41
1.0
 10
938.39258981404919
 20
-1346.2245503306547
 30
0.0
 41
1.0
 10
938.39367234037331
 20
-1346.3018575129754
 30
0.0
 41
0.9998772614070203
 10
938.3923322536416
 20
-1346.3791606595425
 30
0.0
 41
1.0
 10
938.39224299044292
 20
-1346.3843098233747
 30
0.0
 41
1.0
 10
938.39215372724425
 20
-1346.3894589872068
 30
0.0
 41
1.0
 10
938.39063511411496
 20
-1346.4770604614423
 30
0.0
 41
0.9999415567328333
 10
938.38722280386901
 20
-1346.5646086231184
 30
0.0
 41
1.0
 10
938.38698148319372
 20
-1346.5708000828545
 30
0.0
 41
1.0
 10
938.38674016251844
 20
-1346.5769915425908
 30
0.0
 41
1.0
 10
938.3828452109218
 20
-1346.6769226237375
 30
0.0
 41
0.9999716810422883
 10
938.37744662780369
 20
-1346.7767837619615
 30
0.0
 41
1.0
 10
938.37423382901466
 20
-1346.8362130116234
 30
0.0
 41
1.0
 10
938.37102103022562
 20
-1346.8956422612853
 30
0.0
 41
1.0
 10
938.36294712107292
 20
-1347.0449906625652
 30
0.0
 41
0.9999819129914653
 10
938.35307732945648
 20
-1347.1942311402763
 30
0.0
 41
1.0
 10
938.34320753783982
 20
-1347.3434716179877
 30
0.0
 41
1.0
 10
938.34076821727592
 20
-1347.380664663837
 30
0.0
 41
1.0
 10
938.3634664511269
 20
-1347.3419236664736
 30
0.0
 41
0.9999982128169912
 10
938.38631100988528
 20
-1347.3032687725106
 30
0.0
 41
1.0
 10
938.41322056975866
 20
-1347.2577355584749
 30
0.0
 41
1.0
 10
938.44013012963205
 20
-1347.212202344439
 30
0.0
 41
1.0
 10
938.51679380815619
 20
-1347.0824810223719
 30
0.0
 41
0.9998609190057365
 10
938.59774112102025
 20
-1346.955388640439
 30
0.0
 41
1.0
 10
938.62738944249645
 20
-1346.9088389074905
 30
0.0
 41
1.0
 10
938.65703776397277
 20
-1346.8622891745417
 30
0.0
 41
1.0
 10
938.7393099842152
 20
-1346.7331166045376
 30
0.0
 41
0.9999067609730862
 10
938.8250789936842
 20
-1346.6062389150893
 30
0.0
 41
1.0
 10
938.82748369688841
 20
-1346.6026816490296
 30
0.0
 41
1.0
 10
938.82988840009261
 20
-1346.5991243829699
 30
0.0
 41
1.0
 10
938.91084800315105
 20
-1346.4793612256442
 30
0.0
 41
0.999878495214942
 10
938.99550161282968
 20
-1346.362180008939
 30
0.0
 41
1.0
 10
939.08015522250867
 20
-1346.2449987922337
 30
0.0
 41
0.9998532968282472
 10
939.1687728433252
 20
-1346.1307858837711
 30
0.0
 41
1.0
 10
939.18873463232035
 20
-1346.1050585627459
 30
0.0
 41
1.0
 10
939.20869642131538
 20
-1346.0793312417204
 30
0.0
 41
1.0
 10
939.32718047107437
 20
-1345.9266256307515
 30
0.0
 41
0.999155197579513
 10
939.45780492069821
 20
-1345.7841660686677
 30
0.0
 41
1.0
 10
939.46131453667977
 20
-1345.7803384670415
 30
0.0
 41
1.0
 10
939.46482415266132
 20
-1345.776510865415
 30
0.0
 41
1.0
 10
939.58842937032341
 20
-1345.6417065065825
 30
0.0
 41
0.9997418144181434
 10
939.71803151002246
 20
-1345.5126570959717
 30
0.0
 41
1.0
 10
939.84763364972605
 20
-1345.3836076853568
 30
0.0
 41
0.9989238204633584
 10
939.98863619797896
 20
-1345.2671227233163
 30
0.0
 41
1.0
 10
940.03388387611608
 20
-1345.2297427317096
 30
0.0
 41
1.0
 10
940.07913155425319
 20
-1345.1923627401029
 30
0.0
 41
1.0
 10
940.21937161147446
 20
-1345.076507686812
 30
0.0
 41
0.9990825084096546
 10
940.36901154407849
 20
-1344.9730786889791
 30
0.0
 41
1.0
 10
940.37905690813136
 20
-1344.9661354759023
 30
0.0
 41
1.0
 10
940.38910227218435
 20
-1344.9591922628256
 30
0.0
 41
1.0
 10
940.51865147667831
 20
-1344.8696496911487
 30
0.0
 41
0.9998164899826305
 10
940.65153568005871
 20
-1344.7851354496297
 30
0.0
 41
1.0
 10
940.66338124058302
 20
-1344.7776016831051
 30
0.0
 41
1.0
 10
940.67522680110721
 20
-1344.7700679165805
 30
0.0
 41
1.0
 10
940.78441988343229
 20
-1344.7006212081146
 30
0.0
 41
0.9997473449129924
 10
940.89662384068447
 20
-1344.6361522502975
 30
0.0
 41
1.0
 10
941.00882779793085
 20
-1344.5716832924834
 30
0.0
 41
0.9999327861145423
 10
941.12249640868833
 20
-1344.5098333008052
 30
0.0
 41
1.0
 10
941.12304841125354
 20
-1344.5095329421238
 30
0.0
 41
1.0
 10
941.12360041381874
 20
-1344.5092325834421
 30
0.0
 41
1.0
 10
941.23837302970367
 20
-1344.4467818744024
 30
0.0
 41
0.9996956420484582
 10
941.35608635554559
 20
-1344.3900684074267
 30
0.0
 41
1.0
 10
941.38652676043921
 20
-1344.3754024306963
 30
0.0
 41
1.0
 10
941.41696716533272
 20
-1344.360736453966
 30
0.0
 41
1.0
 10
941.51994427207376
 20
-1344.3111227955239
 30
0.0
 41
0.9998070570177166
 10
941.624790661014
 20
-1344.2655922086233
 30
0.0
 41
1.0
 10
941.72963704995061
 20
-1344.220061621724
 30
0.0
 41
0.9997827436147778
 10
941.83628998655797
 20
-1344.1789404504129
 30
0.0
 41
1.0
 10
941.8555128361927
 20
-1344.1715288767791
 30
0.0
 41
1.0
 10
941.87473568582755
 20
-1344.1641173031455
 30
0.0
 41
1.0
 10
942.01983432169902
 20
-1344.1081729845691
 30
0.0
 41
0.9988031841976729
 10
942.16970468430236
 20
-1344.0666729204017
 30
0.0
 41
1.0
 10
942.19462193266577
 20
-1344.0597731745947
 30
0.0
 41
1.0
 10
942.21953918102929
 20
-1344.052873428788
 30
0.0
 41
1.0
 10
942.3868092066773
 20
-1344.0065552863807
 30
0.0
 41
0.9984748040549838
 10
942.55816611532759
 20
-1343.9789610541156
 30
0.0
 41
1.0
 10
942.5629052515776
 20
-1343.9781978936021
 30
0.0
 41
1.0
 10
942.5676443878275
 20
-1343.9774347330883
 30
0.0
 41
1.0
 10
942.72952302397789
 20
-1343.9513668218508
 30
0.0
 41
0.9984436495480271
 10
942.89329776770137
 20
-1343.9434888680321
 30
0.0
 41
1.0
 10
942.91499497583277
 20
-1343.9424451808325
 30
0.0
 41
1.0
 10
942.93669218396428
 20
-1343.9414014936328
 30
0.0
 41
1.0
 10
943.0570725114261
 20
-1343.9356109142134
 30
0.0
 41
0.998795478933516
 10
943.17744075633584
 20
-1343.9416474419556
 30
0.0
 41
1.0
 10
943.1974055488331
 20
-1343.9426486862944
 30
0.0
 41
1.0
 10
943.21737034133048
 20
-1343.9436499306332
 30
0.0
 41
1.0
 10
943.29780900124854
 20
-1343.9476839696981
 30
0.0
 41
0.9997941595877192
 10
943.3780177793401
 20
-1343.954978035619
 30
0.0
 41
1.0
 10
943.45822655743268
 20
-1343.9622721015398
 30
0.0
 41
0.9998589466238014
 10
943.5381451042856
 20
-1343.9722559559896
 30
0.0
 41
1.0
 10
943.57055130609581
 20
-1343.9763043129092
 30
0.0
 41
1.0
 10
943.60295750790601
 20
-1343.9803526698286
 30
0.0
 41
1.0
 10
943.7476884583773
 20
-1343.9984332381171
 30
0.0
 41
0.99934950632492
 10
943.89073970214235
 20
-1344.0268989478586
 30
0.0
 41
1.0
 10
943.92367339929456
 20
-1344.0334524110735
 30
0.0
 41
1.0
 10
943.95660709644687
 20
-1344.0400058742885
 30
0.0
 41
1.0
 10
944.06590091965109
 20
-1344.0617542084235
 30
0.0
 41
0.9996788715561046
 10
944.17395249160813
 20
-1344.0890120077868
 30
0.0
 41
1.0
 10
944.17601549414951
 20
-1344.0895324343603
 30
0.0
 41
1.0
 10
944.17807849669089
 20
-1344.0900528609338
 30
0.0
 41
1.0
 10
944.28200406356757
 20
-1344.1162698071507
 30
0.0
 41
0.9995480654492942
 10
944.38416629879396
 20
-1344.1486847637743
 30
0.0
 41
1.0
 10
944.38585594092331
 20
-1344.1492208686882
 30
0.0
 41
1.0
 10
944.38754558305266
 20
-1344.1497569736023
 30
0.0
 41
1.0
 10
944.4863285340241
 20
-1344.1810997203988
 30
0.0
 41
0.9993867959456525
 10
944.58267569246595
 20
-1344.2192790896884
 30
0.0
 41
1.0
 10
944.58391864154953
 20
-1344.2197716315841
 30
0.0
 41
1.0
 10
944.58516159063311
 20
-1344.2202641734798
 30
0.0
 41
1.0
 10
944.67902285090645
 20
-1344.2574584589772
 30
0.0
 41
0.9992050256521722
 10
944.76962252594183
 20
-1344.3020123582169
 30
0.0
 41
1.0
 10
944.77035720865547
 20
-1344.3023736506784
 30
0.0
 41
1.0
 10
944.771091891369
 20
-1344.3027349431397
 30
0.0
 41
1.0
 10
944.86022220097607
 20
-1344.3465662574561
 30
0.0
 41
0.9990222350741366
 10
944.94513226236882
 20
-1344.3980995251541
 30
0.0
 41
1.0
 10
944.94531614765106
 20
-1344.3982111280586
 30
0.0
 41
1.0
 10
944.9455000329333
 20
-1344.3983227309632
 30
0.0
 41
1.0
 10
945.03004232376225
 20
-1344.4496327928521
 30
0.0
 41
0.9988642743805141
 10
945.10931685838159
 20
-1344.5087569803775
 30
0.0
 41
1.0
 10
945.18859139300037
 20
-1344.5678811679027
 30
0.0
 41
0.9987681233310836
 10
945.26161517727678
 20
-1344.6345718593036
 30
0.0
 41
1.0
 10
945.26194410524249
 20
-1344.6348722605176
 30
0.0
 41
1.0
 10
945.2622730332082
 20
-1344.6351726617318
 30
0.0
 41
1.0
 10
945.33595467341547
 20
-1344.7024641555604
 30
0.0
 41
0.9987496570898362
 10
945.40254847874235
 20
-1344.7767769696466
 30
0.0
 41
1.0
 10
945.40332064850327
 20
-1344.777638643005
 30
0.0
 41
1.0
 10
945.40409281826419
 20
-1344.7785003163635
 30
0.0
 41
1.0
 10
945.47223096311234
 20
-1344.854536477166
 30
0.0
 41
0.998814766982686
 10
945.53265321733613
 20
-1344.9368374840069
 30
0.0
 41
1.0
 10
945.53377254341444
 20
-1344.9383621153602
 30
0.0
 41
1.0
 10
945.53489186949264
 20
-1344.9398867467135
 30
0.0
 41
1.0
 10
945.59755277587351
 20
-1345.0252370162618
 30
0.0
 41
0.9989452636216396
 10
945.65211968883568
 20
-1345.1159757054206
 30
0.0
 41
1.0
 10
945.65346841492078
 20
-1345.1182184864458
 30
0.0
 41
1.0
 10
945.65481714100576
 20
-1345.120461267471
 30
0.0
 41
1.0
 10
945.71208150613745
 20
-1345.2156855186793
 30
0.0
 41
0.9991046436070152
 10
945.76109071945916
 20
-1345.3154099517049
 30
0.0
 41
1.0
 10
945.7625545810497
 20
-1345.3183886317784
 30
0.0
 41
1.0
 10
945.76401844264012
 20
-1345.3213673118516
 30
0.0
 41
1.0
 10
945.81595537914143
 20
-1345.4270491050213
 30
0.0
 41
0.9992763831100752
 10
945.85970850769615
 20
-1345.5363731669763
 30
0.0
 41
1.0
 10
945.86118777735987
 20
-1345.5400693545107
 30
0.0
 41
1.0
 10
945.86266704702348
 20
-1345.5437655420453
 30
0.0
 41
1.0
 10
945.90937871490485
 20
-1345.6604819790668
 30
0.0
 41
0.9994163472883136
 10
945.94801174609495
 20
-1345.7801155675322
 30
0.0
 41
1.0
 10
945.94924989834135
 20
-1345.7839497113141
 30
0.0
 41
1.0
 10
945.95048805058786
 20
-1345.7877838550958
 30
0.0
 41
1.0
 10
945.99037161160607
 20
-1345.9112899165775
 30
0.0
 41
0.9997268055891377
 10
946.02443966751787
 20
-1346.0365249485271
 30
0.0
 41
1.0
 10
946.02536984778794
 20
-1346.039944314638
 30
0.0
 41
1.0
 10
946.02630002805813
 20
-1346.0433636807491
 30
0.0
 41
1.0
 10
946.05850772343024
 20
-1346.1617599804797
 30
0.0
 41
0.9996701319000825
 10
946.0845933402004
 20
-1346.2816539337414
 30
0.0
 41
1.0
 10
946.11067895697079
 20
-1346.4015478870047
 30
0.0
 41
0.9995785451109599
 10
946.12976253431066
 20
-1346.5227536480365
 30
0.0
 41
1.0
 10
946.13398231648421
 20
-1346.5495548028002
 30
0.0
 41
1.0
 10
946.13820209865764
 20
-1346.5763559575637
 30
0.0
 41
1.0
 10
946.1647770745966
 20
-1346.7451419312674
 30
0.0
 41
0.9979925101215905
 10
946.16980266052292
 20
-1346.9159332593611
 30
0.0
 41
1.0
 10
946.17062747294767
 20
-1346.9439639828443
 30
0.0
 41
1.0
 10
946.17145228537231
 20
-1346.9719947063272
 30
0.0
 41
1.0
 10
946.17482824644924
 20
-1347.086724587456
 30
0.0
 41
0.9995314902263254
 10
946.17117805431076
 20
-1347.2014460712048
 30
0.0
 41
1.0
 10
946.16752786217216
 20
-1347.3161675549584
 30
0.0
 41
0.9996245486944079
 10
946.15759876704135
 20
-1347.4305168260807
 30
0.0
 41
1.0
 10
946.15743571904704
 20
-1347.4323945822159
 30
0.0
 41
1.0
 10
946.15727267105285
 20
-1347.4342723383511
 30
0.0
 41
1.0
 10
946.14701747993297
 20
-1347.5523771217511
 30
0.0
 41
0.9997286095000831
 10
946.13127215636143
 20
-1347.6698760306451
 30
0.0
 41
1.0
 10
946.13087866371143
 20
-1347.6728124553447
 30
0.0
 41
1.0
 10
946.13048517106142
 20
-1347.675748880044
 30
0.0
 41
1.0
 10
946.11395286218942
 20
-1347.7991206383419
 30
0.0
 41
0.999826553396992
 10
946.09283740345586
 20
-1347.9217911131357
 30
0.0
 41
1.0
 10
946.09216086131914
 20
-1347.9257214916406
 30
0.0
 41
1.0
 10
946.09148431918243
 20
-1347.9296518701458
 30
0.0
 41
1.0
 10
946.06901577617714
 20
-1348.060183101941
 30
0.0
 41
0.9999022530853774
 10
946.04290631156766
 20
-1348.1900350705771
 30
0.0
 41
1.0
 10
946.04192767040126
 20
-1348.1949022129697
 30
0.0
 41
1.0
 10
946.04094902923475
 20
-1348.1997693553624
 30
0.0
 41
1.0
 10
946.01288228229316
 20
-1348.3393556087794
 30
0.0
 41
0.9999524761939732
 10
945.98209931346025
 20
-1348.4783681019358
 30
0.0
 41
1.0
 10
945.9808232062843
 20
-1348.4841308612404
 30
0.0
 41
1.0
 10
945.97954709910834
 20
-1348.489893620545
 30
0.0
 41
1.0
 10
945.94621191592398
 20
-1348.6404316323092
 30
0.0
 41
0.9999813588719622
 10
945.91104091512466
 20
-1348.7905513449791
 30
0.0
 41
1.0
 10
945.90948698966918
 20
-1348.7971839353968
 30
0.0
 41
1.0
 10
945.90793306421381
 20
-1348.8038165258147
 30
0.0
 41
1.0
 10
945.86965421249909
 20
-1348.9672014193395
 30
0.0
 41
0.999995523768539
 10
945.83039833451164
 20
-1349.1303543229749
 30
0.0
 41
1.0
 10
945.81811669888361
 20
-1349.1813985134713
 30
0.0
 41
1.0
 10
945.80583506325559
 20
-1349.232442703968
 30
0.0
 41
1.0
 10
945.74201591403323
 20
-1349.4976839885103
 30
0.0
 41
0.9999993604287081
 10
945.67759696685516
 20
-1349.7627802392356
 30
0.0
 41
1.0
 10
945.67287813129974
 20
-1349.7821991473106
 30
0.0
 41
1.0
 10
945.66815929574432
 20
-1349.8016180553855
 30
0.0
 41
1.0
 10
945.59430267747985
 20
-1350.1055521221597
 30
0.0
 41
0.9999659914725073
 10
945.5154430815943
 20
-1350.4082266687196
 30
0.0
 41
1.0
 10
945.51049039266582
 20
-1350.427235805894
 30
0.0
 41
1.0
 10
945.50553770373722
 20
-1350.4462449430685
 30
0.0
 41
1.0
 10
945.41677272999527
 20
-1350.7869377639768
 30
0.0
 41
0.9999441976028751
 10
945.32082969703117
 20
-1351.1256791892768
 30
0.0
 41
1.0
 10
945.30412917860417
 20
-1351.1846429018092
 30
0.0
 41
1.0
 10
945.28742866017728
 20
-1351.2436066143418
 30
0.0
 41
1.0
 10
945.1580845903618
 20
-1351.7002754646994
 30
0.0
 41
0.9999625120735415
 10
945.02085182303369
 20
-1352.1546359987105
 30
0.0
 41
1.0
 10
944.98506187994951
 20
-1352.2731320253417
 30
0.0
 41
1.0
 10
944.94927193686533
 20
-1352.3916280519729
 30
0.0
 41
1.0
 10
944.87475173283121
 20
-1352.6383551300523
 30
0.0
 41
0.9999793386320081
 10
944.79706570969483
 20
-1352.8841037692846
 30
0.0
 41
1.0
 10
944.7193796865572
 20
-1353.1298524085207
 30
0.0
 41
1.0
 10
944.70860012768651
 20
-1353.1638703128954
 30
0.0
 41
1.0
 10
942.8582270744173
 20
-1359.050942235363
 30
0.0
 41
1.0
 10
941.0078540211482
 20
-1364.9380141578304
 30
0.0
 41
1.0
 10
940.04659733112464
 20
-1364.9380141578304
 30
0.0
 41
1.0
 10
939.08534064110108
 20
-1364.9380141578304
 30
0.0
 41
1.0
 10
940.70428541977958
 20
-1359.7899856560409
 30
0.0
 41
1.0
 10
942.32323019845796
 20
-1354.6419571542515
 30
0.0
 41
1.0
 10
942.36839602163695
 20
-1354.4979259319666
 30
0.0
 41
1.0
 10
942.41356184481606
 20
-1354.3538947096815
 30
0.0
 41
1.0
 10
942.58386626217373
 20
-1353.8108036805352
 30
0.0
 41
0.9999911657877886
 10
942.74959907384959
 20
-1353.2663001491856
 30
0.0
 41
1.0
 10
942.77929501734184
 20
-1353.168736209162
 30
0.0
 41
1.0
 10
942.80899096083419
 20
-1353.0711722691383
 30
0.0
 41
1.0
 10
942.91533188551739
 20
-1352.7217966178623
 30
0.0
 41
0.9999952428135964
 10
943.01951547485464
 20
-1352.3717715934722
 30
0.0
 41
1.0
 10
943.02457494517921
 20
-1352.354773319224
 30
0.0
 41
1.0
 10
943.02963441550366
 20
-1352.3377750449756
 30
0.0
 41
1.0
 10
943.12369906417302
 20
-1352.0217465691444
 30
0.0
 41
0.9999931687511672
 10
943.21542490205331
 20
-1351.7050313558523
 30
0.0
 41
1.0
 10
943.22036016650986
 20
-1351.6879906465915
 30
0.0
 41
1.0
 10
943.22529543096641
 20
-1351.6709499373308
 30
0.0
 41
1.0
 10
943.30715073992769
 20
-1351.3883161425792
 30
0.0
 41
0.99998938408035
 10
943.38639796638381
 20
-1351.1049400133352
 30
0.0
 41
1.0
 10
943.46564519283811
 20
-1350.8215638840975
 30
0.0
 41
0.9999833980079212
 10
943.54162143358042
 20
-1350.5372933010674
 30
0.0
 41
1.0
 10
943.55062537030449
 20
-1350.5036044225822
 30
0.0
 41
1.0
 10
943.55962930702867
 20
-1350.4699155440967
 30
0.0
 41
1.0
 10
943.62859385589445
 20
-1350.2118797118021
 30
0.0
 41
0.9999233658065634
 10
943.69114882711415
 20
-1349.9522155530822
 30
0.0
 41
1.0
 10
943.75370379833441
 20
-1349.6925513943597
 30
0.0
 41
1.0
 10
943.79318721719198
 20
-1349.5287447299336
 30
0.0
 41
1.0
 10
943.79816582117178
 20
-1349.5080897680523
 30
0.0
 41
1.0
 10
943.80314442515169
 20
-1349.487434806171
 30
0.0
 41
1.0
 10
943.83267063605263
 20
-1349.364938065494
 30
0.0
 41
0.9999868670876769
 10
943.86093972004574
 20
-1349.242145119862
 30
0.0
 41
1.0
 10
943.8648372072015
 20
-1349.2252155324536
 30
0.0
 41
1.0
 10
943.86873469435727
 20
-1349.2082859450452
 30
0.0
 41
1.0
 10
943.88920880403919
 20
-1349.119352174228
 30
0.0
 41
0.9999778173340832
 10
943.90849640215743
 20
-1349.0301535569861
 30
0.0
 41
1.0
 10
943.92778400027419
 20
-1348.940954939749
 30
0.0
 41
0.9999602692856258
 10
943.94547835890478
 20
-1348.851426651323
 30
0.0
 41
1.0
 10
943.9486821909818
 20
-1348.8352161964403
 30
0.0
 41
1.0
 10
943.95188602305882
 20
-1348.8190057415579
 30
0.0
 41
1.0
 10
943.97598804584482
 20
-1348.6970565433612
 30
0.0
 41
0.9995617985320606
 10
943.99283139306328
 20
-1348.5738947956565
 30
0.0
 41
1.0
 10
943.99529588296991
 20
-1348.5558739782882
 30
0.0
 41
1.0
 10
943.99776037287654
 20
-1348.5378531609199
 30
0.0
 41
1.0
 10
944.01804363392455
 20
-1348.3895381112204
 30
0.0
 41
0.9991121410639676
 10
944.02576898751261
 20
-1348.2400420124154
 30
0.0
 41
1.0
 10
944.02668777753729
 20
-1348.2222621758383
 30
0.0
 41
1.0
 10
944.02760656756186
 20
-1348.2044823392612
 30
0.0
 41
1.0
 10
944.03349434110112
 20
-1348.0905459136072
 30
0.0
 41
0.998979249490463
 10
944.02907524898353
 20
-1347.9765430777111
 30
0.0
 41
1.0
 10
944.02842727711504
 20
-1347.9598268317859
 30
0.0
 41
1.0
 10
944.02777930524644
 20
-1347.9431105858609
 30
0.0
 41
1.0
 10
944.02465615686629
 20
-1347.8625402418122
 30
0.0
 41
0.9997820295392884
 10
944.01817215949052
 20
-1347.7821705200686
 30
0.0
 41
1.0
 10
944.01168816211475
 20
-1347.7018007983236
 30
0.0
 41
0.9998335105974187
 10
944.00227596660375
 20
-1347.6217211818791
 30
0.0
 41
1.0
 10
944.00068104192712
 20
-1347.608151451394
 30
0.0
 41
1.0
 10
943.9990861172505
 20
-1347.5945817209085
 30
0.0
 41
1.0
 10
943.98648407238636
 20
-1347.4873626434949
 30
0.0
 41
0.9996876457879457
 10
943.96854015958786
 20
-1347.3809072157771
 30
0.0
 41
1.0
 10
943.96630849644225
 20
-1347.3676674805338
 30
0.0
 41
1.0
 10
943.96407683329664
 20
-1347.3544277452902
 30
0.0
 41
1.0
 10
943.95028101187597
 20
-1347.2725816013328
 30
0.0
 41
0.9995547496494147
 10
943.93162768998343
 20
-1347.1917041041431
 30
0.0
 41
1.0
 10
943.93125373311182
 20
-1347.1900826934366
 30
0.0
 41
1.0
 10
943.93087977624032
 20
-1347.1884612827298
 30
0.0
 41
1.0
 10
943.91297436809054
 20
-1347.1108266069509
 30
0.0
 41
0.9994899427174958
 10
943.89014945941153
 20
-1347.0344933241176
 30
0.0
 41
1.0
 10
943.8896909326711
 20
-1347.0329598743301
 30
0.0
 41
1.0
 10
943.88923240593067
 20
-1347.0314264245426
 30
0.0
 41
1.0
 10
943.86732455073286
 20
-1346.958160041286
 30
0.0
 41
0.9993784877592034
 10
943.84030891562554
 20
-1346.8866193361241
 30
0.0
 41
1.0
 10
943.8397772246492
 20
-1346.8852113534051
 30
0.0
 41
1.0
 10
943.83924553367285
 20
-1346.8838033706861
 30
0.0
 41
1.0
 10
943.81329328051982
 20
-1346.8150786309673
 30
0.0
 41
0.9992430832255006
 10
943.78207674535952
 20
-1346.7485794788968
 30
0.0
 41
1.0
 10
943.78149462930241
 20
-1346.7473394237786
 30
0.0
 41
1.0
 10
943.78091251324543
 20
-1346.7460993686602
 30
0.0
 41
1.0
 10
943.75086021019968
 20
-1346.6820803268276
 30
0.0
 41
0.9990789632799081
 10
943.71542958342354
 20
-1346.6208737150789
 30
0.0
 41
1.0
 10
943.71483387724231
 20
-1346.619844629221
 30
0.0
 41
1.0
 10
943.71423817106108
 20
-1346.6188155433631
 30
0.0
 41
1.0
 10
943.67999895664695
 20
-1346.5596671033293
 30
0.0
 41
0.9988874801120428
 10
943.64033968061472
 20
-1346.5040073909113
 30
0.0
 41
1.0
 10
943.6397841545504
 20
-1346.5032277392365
 30
0.0
 41
1.0
 10
943.63922862848608
 20
-1346.5024480875616
 30
0.0
 41
1.0
 10
943.60068040458259
 20
-1346.4483476784933
 30
0.0
 41
0.9986762060692263
 10
943.55677793330665
 20
-1346.3984939640545
 30
0.0
 41
1.0
 10
943.5563339729747
 20
-1346.3979898222381
 30
0.0
 41
1.0
 10
943.55589001264264
 20
-1346.3974856804216
 30
0.0
 41
1.0
 10
943.51287546203127
 20
-1346.348640249616
 30
0.0
 41
0.998462164248811
 10
943.46471790525266
 20
-1346.3048569491441
 30
0.0
 41
1.0
 10
943.46447127073588
 20
-1346.3046327169804
 30
0.0
 41
1.0
 10
943.46422463621923
 20
-1346.3044084848168
 30
0.0
 41
1.0
 10
943.41656034847415
 20
-1346.2610736486724
 30
0.0
 41
0.9982724693851846
 10
943.36414171663341
 20
-1346.2236292981552
 30
0.0
 41
1.0
 10
943.31172308479233
 20
-1346.1861849476379
 30
0.0
 41
0.9981399180160144
 10
943.25513702139938
 20
-1346.1553984281945
 30
0.0
 41
1.0
 10
943.25509135932055
 20
-1346.1553735850371
 30
0.0
 41
1.0
 10
943.25504569724171
 20
-1346.1553487418798
 30
0.0
 41
1.0
 10
943.19836830969075
 20
-1346.1245125361218
 30
0.0
 41
0.9980927086837442
 10
943.1383229586246
 20
-1346.1008957272693
 30
0.0
 41
1.0
 10
943.1378827889132
 20
-1346.1007226013944
 30
0.0
 41
1.0
 10
943.13744261920169
 20
-1346.1005494755195
 30
0.0
 41
1.0
 10
943.07651692871207
 20
-1346.0765864149171
 30
0.0
 41
0.9981411356562532
 10
943.01312840731293
 20
-1346.0602137734115
 30
0.0
 41
1.0
 10
943.0122462906113
 20
-1346.059985931206
 30
0.0
 41
1.0
 10
943.01136417390967
 20
-1346.0597580890005
 30
0.0
 41
1.0
 10
942.94621141910704
 20
-1346.042929763084
 30
0.0
 41
0.9983031812934951
 10
942.87954399011244
 20
-1346.0337904019077
 30
0.0
 41
1.0
 10
942.87067296470786
 20
-1346.0325742832365
 30
0.0
 41
1.0
 10
942.86180193930329
 20
-1346.0313581645651
 30
0.0
 41
1.0
 10
942.80745229680019
 20
-1346.0239074345739
 30
0.0
 41
0.9983887708261713
 10
942.75260844750778
 20
-1346.0226627609409
 30
0.0
 41
1.0
 10
942.74454504229459
 20
-1346.0224797630663
 30
0.0
 41
1.0
 10
942.7364816370814
 20
-1346.0222967651914
 30
0.0
 41
1.0
 10
942.69776459821912
 20
-1346.0214180873074
 30
0.0
 41
0.9998869563078493
 10
942.65903864501229
 20
-1346.0217039566671
 30
0.0
 41
1.0
 10
942.62031269182023
 20
-1346.0219898260268
 30
0.0
 41
0.9999972320108449
 10
942.58158851262033
 20
-1346.0224579255557
 30
0.0
 41
1.0
 10
942.56223549602964
 20
-1346.0226918656454
 30
0.0
 41
1.0
 10
942.54288247943884
 20
-1346.0229258057348
 30
0.0
 41
1.0
 10
942.46545226706746
 20
-1346.0238617854425
 30
0.0
 41
0.9997304945086941
 10
942.38814896082943
 20
-1346.0283908792285
 30
0.0
 41
1.0
 10
942.37909931912577
 20
-1346.0289210852184
 30
0.0
 41
1.0
 10
942.370049677422
 20
-1346.0294512912083
 30
0.0
 41
1.0
 10
942.27464708777404
 20
-1346.0350407969745
 30
0.0
 41
0.9997888306415449
 10
942.17955475192957
 20
-1346.044545761464
 30
0.0
 41
1.0
 10
942.17083369035868
 20
-1346.0454174760957
 30
0.0
 41
1.0
 10
942.16211262878778
 20
-1346.0462891907277
 30
0.0
 41
1.0
 10
942.04957816979959
 20
-1346.057537584481
 30
0.0
 41
0.998417023819043
 10
941.93901902244886
 20
-1346.0813536664166
 30
0.0
 41
1.0
 10
941.90263789146172
 20
-1346.0891907022228
 30
0.0
 41
1.0
 10
941.86625676047458
 20
-1346.0970277380293
 30
0.0
 41
1.0
 10
941.75106569205354
 20
-1346.1218416045388
 30
0.0
 41
0.9976592854198235
 10
941.64033752564899
 20
-1346.1621402816859
 30
0.0
 41
1.0
 10
941.52960935924295
 20
-1346.2024389588332
 30
0.0
 41
0.9993255074351543
 10
941.42213756045146
 20
-1346.2507558573263
 30
0.0
 41
1.0
 10
941.41751238152904
 20
-1346.2528352335257
 30
0.0
 41
1.0
 10
941.41288720260661
 20
-1346.2549146097249
 30
0.0
 41
1.0
 10
941.29616504596959
 20
-1346.3073902606166
 30
0.0
 41
0.9976475078275453
 10
941.18771770165938
 20
-1346.3753382502746
 30
0.0
 41
1.0
 10
941.16937530752284
 20
-1346.3868307290902
 30
0.0
 41
1.0
 10
941.1510329133863
 20
-1346.3983232079058
 30
0.0
 41
1.0
 10
941.06683072183557
 20
-1346.4510803286735
 30
0.0
 41
0.9995131336406867
 10
940.98608300687965
 20
-1346.5089865406258
 30
0.0
 41
1.0
 10
940.90533529192055
 20
-1346.5668927525801
 30
0.0
 41
0.9995810107606017
 10
940.82807364418807
 20
-1346.6293744350492
 30
0.0
 41
1.0
 10
940.82510361298068
 20
-1346.6317763065115
 30
0.0
 41
1.0
 10
940.8221335817733
 20
-1346.6341781779738
 30
0.0
 41
1.0
 10
940.73893187162525
 20
-1346.7014636033682
 30
0.0
 41
0.9996617837954787
 10
940.65934118449002
 20
-1346.7729840589279
 30
0.0
 41
1.0
 10
940.64721043361362
 20
-1346.7838847919181
 30
0.0
 41
1.0
 10
940.63507968273723
 20
-1346.7947855249083
 30
0.0
 41
1.0
 10
940.56680415533947
 20
-1346.8561381403817
 30
0.0
 41
0.9997267750052475
 10
940.50147064705379
 20
-1346.9206146769088
 30
0.0
 41
1.0
 10
940.43613713877153
 20
-1346.9850912134325
 30
0.0
 41
0.9999667288954394
 10
940.37186419561897
 20
-1347.0506250203332
 30
0.0
 41
1.0
 10
940.30303674784614
 20
-1347.1208026790891
 30
0.0
 41
1.0
 10
940.23420930007319
 20
-1347.1909803378448
 30
0.0
 41
1.0
 10
940.03228146137599
 20
-1347.3968694622563
 30
0.0
 41
0.9988205335175328
 10
939.85127584439579
 20
-1347.6213736943178
 30
0.0
 41
1.0
 10
939.82063587949165
 20
-1347.659376944747
 30
0.0
 41
1.0
 10
939.78999591458751
 20
-1347.6973801951763
 30
0.0
 41
1.0
 10
939.54771036779812
 20
-1347.9978909280974
 30
0.0
 41
0.999707782675541
 10
939.32023241669253
 20
-1348.3097607223142
 30
0.0
 41
1.0
 10
939.31850900156246
 20
-1348.3121235056933
 30
0.0
 41
1.0
 10
939.3167855864325
 20
-1348.3144862890722
 30
0.0
 41
1.0
 10
939.08586080506655
 20
-1348.6310816500475
 30
0.0
 41
0.9989147567078954
 10
938.88539730218167
 20
-1348.9677911112344
 30
0.0
 41
1.0
 10
938.86065615687608
 20
-1349.0093476917846
 30
0.0
 41
1.0
 10
938.83591501157036
 20
-1349.0509042723349
 30
0.0
 41
1.0
 10
938.68070371293197
 20
-1349.3116056567897
 30
0.0
 41
0.9997476598181199
 10
938.537358725422
 20
-1349.5790154053725
 30
0.0
 41
1.0
 10
938.39401373791202
 20
-1349.8464251539556
 30
0.0
 41
0.9996258967110555
 10
938.26550548597857
 20
-1350.1212730905836
 30
0.0
 41
1.0
 10
938.25230557653026
 20
-1350.149504490676
 30
0.0
 41
1.0
 10
938.23910566708207
 20
-1350.1777358907684
 30
0.0
 41
1.0
 10
938.09889694608205
 20
-1350.477608288722
 30
0.0
 41
0.9998735413946082
 10
937.96829559936089
 20
-1350.7817878881915
 30
0.0
 41
1.0
 10
937.96485277129977
 20
-1350.7898064736573
 30
0.0
 41
1.0
 10
937.96140994323878
 20
-1350.7978250591234
 30
0.0
 41
1.0
 10
937.83769425264063
 20
-1351.0859674876592
 30
0.0
 41
0.9999377418856316
 10
937.72043945046585
 20
-1351.3767989553339
 30
0.0
 41
1.0
 10
937.60318464828833
 20
-1351.6676304230159
 30
0.0
 41
0.9999508299503657
 10
937.49172070490999
 20
-1351.9607300998398
 30
0.0
 41
1.0
 10
937.48863993624911
 20
-1351.9688311257996
 30
0.0
 41
1.0
 10
937.48555916758824
 20
-1351.9769321517592
 30
0.0
 41
1.0
 10
937.36793368688495
 20
-1352.2862338805112
 30
0.0
 41
0.9999609228426142
 10
937.25579508401336
 20
-1352.5975668965202
 30
0.0
 41
1.0
 10
937.25283907366304
 20
-1352.6057737369315
 30
0.0
 41
1.0
 10
937.24988306331272
 20
-1352.6139805773428
 30
0.0
 41
1.0
 10
937.13183243973594
 20
-1352.9417272741871
 30
0.0
 41
0.9999674607397854
 10
937.01908491366748
 20
-1353.2713358941835
 30
0.0
 41
1.0
 10
936.96768652310834
 20
-1353.4215950898656
 30
0.0
 41
1.0
 10
936.91628813254908
 20
-1353.5718542855477
 30
0.0
 41
1.0
 10
936.8002775257911
 20
-1353.9110022680511
 30
0.0
 41
0.9999287532308276
 10
936.69239612181764
 20
-1354.2528230070347
 30
0.0
 41
1.0
 10
936.64591886565859
 20
-1354.4000855514691
 30
0.0
 41
1.0
 10
936.59944160949942
 20
-1354.5473480959035
 30
0.0
 41
1.0
 10
936.58451471782291
 20
-1354.5946437460866
 30
0.0
 41
0.9999998224215916
 10
936.56964420911652
 20
-1354.6419571542515
 30
0.0
 41
1.0
 10
934.94898807232107
 20
-1359.7899856560409
 30
0.0
 41
1.0
 10
933.32833193552563
 20
-1364.9380141578304
 30
0.0
 41
1.0
 10
932.42302349163469
 20
-1364.9380141578304
 30
0.0
 41
1.0
 10
931.51771504774376
 20
-1364.9380141578304
 30
0.0
 41
1.0
 10
933.36979945912981
 20
-1359.050942235363
 30
0.0
 41
1.0
 10
935.22188387051585
 20
-1353.1638703128954
 30
0.0
 41
1.0
 10
935.23200562881857
 20
-1353.1318270994457
 30
0.0
 41
1.0
 10
935.30461329766831
 20
-1352.9015275576198
 30
0.0
 41
1.0
 10
935.37722096651169
 20
-1352.6712280158144
 30
0.0
 41
0.9999825681974656
 10
935.44710400571716
 20
-1352.4400871207697
 30
0.0
 41
1.0
 10
935.49539506788176
 20
-1352.2803625372612
 30
0.0
 41
1.0
 10
935.54368613004635
 20
-1352.120637953753
 30
0.0
 41
1.0
 10
935.64083848336668
 20
-1351.7993027319667
 30
0.0
 41
0.9999672528965667
 10
935.73277728899041
 20
-1351.4764371863789
 30
0.0
 41
1.0
 10
935.73556617266217
 20
-1351.466643340982
 30
0.0
 41
1.0
 10
935.73835505633383
 20
-1351.4568494955852
 30
0.0
 41
1.0
 10
935.82471609461311
 20
-1351.1535716407948
 30
0.0
 41
0.9999899749167602
 10
935.90835770414844
 20
-1350.8495325523404
 30
0.0
 41
1.0
 10
935.91846362316562
 20
-1350.8127973146634
 30
0.0
 41
1.0
 10
935.9285695421828
 20
-1350.7760620769864
 30
0.0
 41
1.0
 10
935.99199931368344
 20
-1350.5454934638872
 30
0.0
 41
0.9999214200504643
 10
936.0496287420608
 20
-1350.3134071216787
 30
0.0
 41
1.0
 10
936.06239459423898
 20
-1350.2619962362924
 30
0.0
 41
1.0
 10
936.07516044641716
 20
-1350.2105853509061
 30
0.0
 41
1.0
 10
936.10725817043567
 20
-1350.0813207794806
 30
0.0
 41
0.9999828681663205
 10
936.13784042243401
 20
-1349.9516893050018
 30
0.0
 41
1.0
 10
936.16842267442962
 20
-1349.8220578305327
 30
0.0
 41
0.9999389844473464
 10
936.19613366321721
 20
-1349.6917823746408
 30
0.0
 41
1.0
 10
936.20327140693814
 20
-1349.6582262708
 30
0.0
 41
1.0
 10
936.21040915065907
 20
-1349.6246701669593
 30
0.0
 41
1.0
 10
936.25239562688898
 20
-1349.4272825033831
 30
0.0
 41
0.9998933699442618
 10
936.28859989129148
 20
-1349.2287528956231
 30
0.0
 41
1.0
 10
936.28997271650758
 20
-1349.2212248749279
 30
0.0
 41
1.0
 10
936.29134554172367
 20
-1349.2136968542327
 30
0.0
 41
1.0
 10
936.3302954565587
 20
-1349.0001112050809
 30
0.0
 41
0.9996850305193523
 10
936.35847913281805
 20
-1348.7848401996393
 30
0.0
 41
1.0
 10
936.36047416618658
 20
-1348.7696018455235
 30
0.0
 41
1.0
 10
936.36246919955499
 20
-1348.7543634914075
 30
0.0
 41
1.0
 10
936.38987706201431
 20
-1348.5450182642505
 30
0.0
 41
0.9994697936706851
 10
936.40360162123466
 20
-1348.3343330689149
 30
0.0
 41
1.0
 10
936.40407869048454
 20
-1348.3270095967005
 30
0.0
 41
1.0
 10
936.40455575973442
 20
-1348.319686124486
 30
0.0
 41
1.0
 10
936.41732618045444
 20
-1348.1236478735811
 30
0.0
 41
0.9991804893136576
 10
936.41419786418146
 20
-1347.9272190236109
 30
0.0
 41
1.0
 10
936.41411398535934
 20
-1347.9219522221983
 30
0.0
 41
1.0
 10
936.41403010653721
 20
-1347.9166854207856
 30
0.0
 41
1.0
 10
936.41106954790848
 20
-1347.7307901736385
 30
0.0
 41
0.9988448329322185
 10
936.39027800228484
 20
-1347.546037583804
 30
0.0
 41
1.0
 10
936.38868392858194
 20
-1347.5318727280339
 30
0.0
 41
1.0
 10
936.38708985487904
 20
-1347.5177078722638
 30
0.0
 41
1.0
 10
936.36948645666109
 20
-1347.3612849939709
 30
0.0
 41
0.9985503209458637
 10
936.33517018436146
 20
-1347.2076608098814
 30
0.0
 41
1.0
 10
936.32758419229015
 20
-1347.1737004824809
 30
0.0
 41
1.0
 10
936.31999820021883
 20
-1347.1397401550801
 30
0.0
 41
1.0
 10
936.30085391206183
 20
-1347.0540366257917
 30
0.0
 41
0.9991036781370294
 10
936.27452905041082
 20
-1346.9702595384672
 30
0.0
 41
1.0
 10
936.270546824956
 20
-1346.9575863759601
 30
0.0
 41
1.0
 10
936.26656459950107
 20
-1346.9449132134532
 30
0.0
 41
1.0
 10
936.24820418875959
 20
-1346.886482451142
 30
0.0
 41
0.9998874504368325
 10
936.22809898108108
 20
-1346.8286288489189
 30
0.0
 41
1.0
 10
936.2079937734029
 20
-1346.7707752466961
 30
0.0
 41
0.9994041637544125
 10
936.18394516046874
 20
-1346.7144465428064
 30
0.0
 41
1.0
 10
936.17974837624467
 20
-1346.7046164783244
 30
0.0
 41
1.0
 10
936.17555159202061
 20
-1346.6947864138424
 30
0.0
 41
1.0
 10
936.14767276102589
 20
-1346.6294862478749
 30
0.0
 41
0.9991846840702205
 10
936.11461640433276
 20
-1346.5666482165946
 30
0.0
 41
1.0
 10
936.11347979793823
 20
-1346.5644876001406
 30
0.0
 41
1.0
 10
936.11234319154357
 20
-1346.5623269836867
 30
0.0
 41
1.0
 10
936.08156004763964
 20
-1346.503810185314
 30
0.0
 41
0.9989253167922899
 10
936.04549062358478
 20
-1346.448395256924
 30
0.0
 41
1.0
 10
936.04443649891027
 20
-1346.4467757621615
 30
0.0
 41
1.0
 10
936.04338237423588
 20
-1346.4451562673987
 30
0.0
 41
1.0
 10
936.00942119952902
 20
-1346.3929803285328
 30
0.0
 41
0.998646717283625
 10
935.97022404689233
 20
-1346.3446142949042
 30
0.0
 41
1.0
 10
935.96934991819194
 20
-1346.3435356926263
 30
0.0
 41
1.0
 10
935.96847578949144
 20
-1346.3424570903485
 30
0.0
 41
1.0
 10
935.93102689425507
 20
-1346.296248261275
 30
0.0
 41
0.9984001104268361
 10
935.88860016373781
 20
-1346.254563153906
 30
0.0
 41
1.0
 10
935.88801302562842
 20
-1346.2539862790247
 30
0.0
 41
1.0
 10
935.88742588751904
 20
-1346.2534094041434
 30
0.0
 41
1.0
 10
935.846173433221
 20
-1346.2128780465375
 30
0.0
 41
0.9982442159082945
 10
935.800417331885
 20
-1346.1775094852769
 30
0.0
 41
1.0
 10
935.80020253642374
 20
-1346.177343452634
 30
0.0
 41
1.0
 10
935.79998774096237
 20
-1346.1771774199913
 30
0.0
 41
1.0
 10
935.75466123054991
 20
-1346.1421409240172
 30
0.0
 41
0.9982450060836552
 10
935.70551025147768
 20
-1346.112709140983
 30
0.0
 41
1.0
 10
935.65635927240555
 20
-1346.0832773579493
 30
0.0
 41
0.9983922639635509
 10
935.60419296624002
 20
-1346.0595977232949
 30
0.0
 41
1.0
 10
935.60396608891608
 20
-1346.0594947378138
 30
0.0
 41
1.0
 10
935.60373921159214
 20
-1346.0593917523327
 30
0.0
 41
1.0
 10
935.55111915077839
 20
-1346.0355061467158
 30
0.0
 41
0.9986517147150359
 10
935.49630617791047
 20
-1346.0172050275939
 30
0.0
 41
1.0
 10
935.49562825648263
 20
-1346.0169786811625
 30
0.0
 41
1.0
 10
935.49495033505468
 20
-1346.0167523347311
 30
0.0
 41
1.0
 10
935.43878151933109
 20
-1345.9979985227465
 30
0.0
 41
0.9989435598956684
 10
935.38112813217981
 20
-1345.9844808205119
 30
0.0
 41
1.0
 10
935.38004801259808
 20
-1345.984227570259
 30
0.0
 41
1.0
 10
935.37896789301635
 20
-1345.9839743200059
 30
0.0
 41
1.0
 10
935.31915426670253
 20
-1345.9699501172656
 30
0.0
 41
0.9992249241240653
 10
935.25842275780599
 20
-1345.9606747745504
 30
0.0
 41
1.0
 10
935.25700906951397
 20
-1345.9604588661423
 30
0.0
 41
1.0
 10
935.25559538122207
 20
-1345.9602429577344
 30
0.0
 41
1.0
 10
935.19203649574013
 20
-1345.9505357982032
 30
0.0
 41
0.9994396597833501
 10
935.12797055920043
 20
-1345.9451028758576
 30
0.0
 41
1.0
 10
935.10882989172524
 20
-1345.9434797081392
 30
0.0
 41
1.0
 10
935.08968922425004
 20
-1345.9418565404208
 30
0.0
 41
1.0
 10
934.98734195275654
 20
-1345.9331772826376
 30
0.0
 41
0.9987693403120972
 10
934.88463832916864
 20
-1345.9346803460903
 30
0.0
 41
1.0
 10
934.87438399494147
 20
-1345.9348304178643
 30
0.0
 41
1.0
 10
934.8641296607143
 20
-1345.9349804896385
 30
0.0
 41
1.0
 10
934.75457389453618
 20
-1345.9365838339261
 30
0.0
 41
0.9989753644966171
 10
934.64561189452058
 20
-1345.9480868408514
 30
0.0
 41
1.0
 10
934.53664989450283
 20
-1345.9595898477767
 30
0.0
 41
0.9983190067305134
 10
934.42975108353642
 20
-1345.9836248395638
 30
0.0
 41
1.0
 10
934.42085013193105
 20
-1345.9856261181262
 30
0.0
 41
1.0
 10
934.41194918032568
 20
-1345.9876273966886
 30
0.0
 41
1.0
 10
934.28724846614705
 20
-1346.0156649456007
 30
0.0
 41
0.9985539388303094
 10
934.16627871246965
 20
-1346.0569286216462
 30
0.0
 41
1.0
 10
934.16393328150912
 20
-1346.057728665462
 30
0.0
 41
1.0
 10
934.16158785054859
 20
-1346.0585287092781
 30
0.0
 41
1.0
 10
934.03592723495115
 20
-1346.1013924729548
 30
0.0
 41
0.9988468746493477
 10
933.91495689265184
 20
-1346.1561105580167
 30
0.0
 41
1.0
 10
933.9117740706622
 20
-1346.1575502325773
 30
0.0
 41
1.0
 10
933.90859124867245
 20
-1346.1589899071375
 30
0.0
 41
1.0
 10
933.78125526239626
 20
-1346.2165873413192
 30
0.0
 41
0.9991322885919302
 10
933.65915467833929
 20
-1346.2845826735011
 30
0.0
 41
1.0
 10
933.64155266729222
 20
-1346.2943848754926
 30
0.0
 41
1.0
 10
933.62395065624514
 20
-1346.3041870774841
 30
0.0
 41
1.0
 10
933.52177397519051
 20
-1346.3610871932633
 30
0.0
 41
0.9993860037848735
 10
933.42383297111951
 20
-1346.4250032088505
 30
0.0
 41
1.0
 10
933.41821465827184
 20
-1346.4286697035425
 30
0.0
 41
1.0
 10
933.41259634542405
 20
-1346.4323361982345
 30
0.0
 41
1.0
 10
933.32589196704907
 20
-1346.488919224437
 30
0.0
 41
0.9998821494952578
 10
933.24096559123336
 20
-1346.5481374545157
 30
0.0
 41
1.0
 10
933.15603921542277
 20
-1346.6073556845909
 30
0.0
 41
0.9997976482744531
 10
933.07356358502102
 20
-1346.6699420926311
 30
0.0
 41
1.0
 10
933.05892732021402
 20
-1346.6810487824125
 30
0.0
 41
1.0
 10
933.04429105540703
 20
-1346.6921554721939
 30
0.0
 41
1.0
 10
932.93254289539254
 20
-1346.7769552597961
 30
0.0
 41
0.9998091630799132
 10
932.82419261736175
 20
-1346.8660556105001
 30
0.0
 41
1.0
 10
932.81118686488651
 20
-1346.8767507109444
 30
0.0
 41
1.0
 10
932.79818111241127
 20
-1346.8874458113887
 30
0.0
 41
1.0
 10
932.66381932943125
 20
-1346.9979363629807
 30
0.0
 41
0.9995035112317047
 10
932.53668345166977
 20
-1347.1166701799932
 30
0.0
 41
1.0
 10
932.52703614128018
 20
-1347.1256799261532
 30
0.0
 41
1.0
 10
932.51738883089058
 20
-1347.1346896723132
 30
0.0
 41
1.0
 10
932.39396576812476
 20
-1347.2499560440699
 30
0.0
 41
0.9994630424299178
 10
932.27835736234169
 20
-1347.373058787304
 30
0.0
 41
1.0
 10
932.27467452357018
 20
-1347.3769803668172
 30
0.0
 41
1.0
 10
932.27099168479856
 20
-1347.3809019463304
 30
0.0
 41
1.0
 10
932.16274895655886
 20
-1347.4961615305381
 30
0.0
 41
0.9995160693750157
 10
932.06188292702586
 20
-1347.6179289484116
 30
0.0
 41
1.0
 10
932.05994920694206
 20
-1347.6202633726234
 30
0.0
 41
1.0
 10
932.05801548685815
 20
-1347.6225977968354
 30
0.0
 41
1.0
 10
931.96101689748923
 20
-1347.73969636629
 30
0.0
 41
0.9996561470514468
 10
931.87029067882804
 20
-1347.8617191287335
 30
0.0
 41
1.0
 10
931.86413301292646
 20
-1347.8700009177751
 30
0.0
 41
1.0
 10
931.85797534702499
 20
-1347.8782827068169
 30
0.0
 41
1.0
 10
931.77956446016378
 20
-1347.9837418911807
 30
0.0
 41
0.9998349055172557
 10
931.70503717822999
 20
-1348.091980474846
 30
0.0
 41
1.0
 10
931.63050989629755
 20
-1348.2002190585099
 30
0.0
 41
0.9999728109560023
 10
931.55758700038882
 20
-1348.3095449840628
 30
0.0
 41
1.0
 10
931.55627178497639
 20
-1348.3115167535661
 30
0.0
 41
1.0
 10
931.55495656956407
 20
-1348.3134885230697
 30
0.0
 41
1.0
 10
931.47940324284309
 20
-1348.4267579876112
 30
0.0
 41
0.9999972147388067
 10
931.40438543245773
 20
-1348.5403828304638
 30
0.0
 41
1.0
 10
931.3994138898347
 20
-1348.5479129189371
 30
0.0
 41
1.0
 10
931.39444234721168
 20
-1348.5554430074103
 30
0.0
 41
1.0
 10
931.309481451593
 20
-1348.6841280271906
 30
0.0
 41
0.9999371979002805
 10
931.22742610219473
 20
-1348.8146849409584
 30
0.0
 41
1.0
 10
931.22391721782969
 20
-1348.8202678690286
 30
0.0
 41
1.0
 10
931.22040833346455
 20
-1348.8258507970991
 30
0.0
 41
1.0
 10
931.13133521533575
 20
-1348.9675735670082
 30
0.0
 41
0.9998272025611434
 10
931.04759182445309
 20
-1349.1125094437516
 30
0.0
 41
1.0
 10
931.03237665242955
 20
-1349.1388425582074
 30
0.0
 41
1.0
 10
931.017161480406
 20
-1349.1651756726633
 30
0.0
 41
1.0
 10
930.90298774547512
 20
-1349.3627777783202
 30
0.0
 41
0.9995217214838189
 10
930.8012480559189
 20
-1349.5670601061836
 30
0.0
 41
1.0
 10
930.79360449328374
 20
-1349.5824075558867
 30
0.0
 41
1.0
 10
930.78596093064868
 20
-1349.59775500559
 30
0.0
 41
1.0
 10
930.69905563806003
 20
-1349.7722514636698
 30
0.0
 41
0.9998269762608294
 10
930.6187011717883
 20
-1349.9498597503921
 30
0.0
 41
1.0
 10
930.53834670551953
 20
-1350.127468037108
 30
0.0
 41
0.9998944747388764
 10
930.46318591095519
 20
-1350.3073357627363
 30
0.0
 41
1.0
 10
930.45823224135984
 20
-1350.3191904176635
 30
0.0
 41
1.0
 10
930.4532785717646
 20
-1350.3310450725908
 30
0.0
 41
1.0
 10
930.37263151121397
 20
-1350.5240420126038
 30
0.0
 41
0.999950673440916
 10
930.2958339823125
 20
-1350.7186028174551
 30
0.0
 41
1.0
 10
930.28123401704158
 20
-1350.7555907392612
 30
0.0
 41
1.0
 10
930.26663405177067
 20
-1350.792578661067
 30
0.0
 41
1.0
 10
930.2190364534016
 20
-1350.9131636223296
 30
0.0
 41
0.9999912393928635
 10
930.17245000938647
 20
-1351.0341428250069
 30
0.0
 41
1.0
 10
930.12586356536781
 20
-1351.1551220276924
 30
0.0
 41
0.9999927113961774
 10
930.08020227097745
 20
-1351.2764534351838
 30
0.0
 41
1.0
 10
930.06623383957583
 20
-1351.3135704171932
 30
0.0
 41
1.0
 10
930.05226540817421
 20
-1351.3506873992026
 30
0.0
 41
1.0
 10
929.97866725098356
 20
-1351.5462527707055
 30
0.0
 41
0.9999487550950231
 10
929.90904362601475
 20
-1351.7432681358796
 30
0.0
 41
1.0
 10
929.88545001607235
 20
-1351.8100314461878
 30
0.0
 41
1.0
 10
929.86185640613007
 20
-1351.8767947564961
 30
0.0
 41
1.0
 10
929.76717077176204
 20
-1352.1447285913137
 30
0.0
 41
0.9999808436930701
 10
929.67580918312717
 20
-1352.4138140225598
 30
0.0
 41
1.0
 10
929.58444759448594
 20
-1352.6828994538237
 30
0.0
 41
0.9999873932910335
 10
929.49579288576808
 20
-1352.9528888088364
 30
0.0
 41
1.0
 10
929.47570052889841
 20
-1353.0140781415898
 30
0.0
 41
1.0
 10
929.45560817202886
 20
-1353.0752674743435
 30
0.0
 41
1.0
 10
929.32676874956223
 20
-1353.4676354948926
 30
0.0
 41
0.99997948830308
 10
929.20296596459877
 20
-1353.8616217011891
 30
0.0
 41
1.0
 10
929.19181370517936
 20
-1353.8971123113688
 30
0.0
 41
1.0
 10
929.18066144575982
 20
-1353.9326029215488
 30
0.0
 41
1.0
 10
929.03810328184636
 20
-1354.3862756736858
 30
0.0
 41
0.9999982761805472
 10
928.8972308418264
 20
-1354.8404746958238
 30
0.0
 41
1.0
 10
927.30909050925379
 20
-1359.8892444268272
 30
0.0
 41
1.0
 10
925.72095017668119
 20
-1364.9380141578304
 30
0.0
 41
1.0
 10
924.7721995652048
 20
-1364.9380141578304
 30
0.0
 41
1.0
 10
923.82344895372842
 20
-1364.9380141578304
 30
0.0
 41
1.0
 10
927.06173343988166
 20
-1354.6106919578842
 30
0.0
 41
1.0
 10
930.3000179260348
 20
-1344.2833697579381
 30
0.0
 41
1.0
  0
LWPOLYLINE
  5
53
100
AcDbEntity
  8
0
370
              15
390
0
  6
Continuous
 62
               7
100
AcDbPolyline
 90
      232
 70
             128
 10
904.59647215220775
 20
-1345.3677125894533
 42
0.000437080070323
 10
904.54359497799146
 20
-1345.4363792288971
 10
904.50431074700828
 20
-1345.4874863416062
 42
0.0030481992180338
 10
904.37397202988734
 20
-1345.6592080339528
 10
904.33546035813868
 20
-1345.7105948177384
 42
0.0042058245764875
 10
904.1314753074596
 20
-1345.987600562825
 10
904.07907018496815
 20
-1346.060033409593
 42
0.0120948898745466
 10
903.78302626820266
 20
-1346.4907830141481
 10
903.68683376908302
 20
-1346.6382637493693
 42
0.0141601263948107
 10
903.3831897221628
 20
-1347.1339330861022
 10
903.34365245473873
 20
-1347.2027770535306
 42
0.0071131081301788
 10
903.13838013149848
 20
-1347.572279852372
 42
0.006845879100142
 10
902.94350060465899
 20
-1347.947371415841
 10
902.93668874219759
 20
-1347.9609331295719
 42
0.0064120880290987
 10
902.7385464921523
 20
-1348.3683576044928
 10
902.73101180663627
 20
-1348.3843694612119
 42
0.0058857236449651
 10
902.52825641476181
 20
-1348.8287455722532
 10
902.52008148847062
 20
-1348.8472357258809
 42
0.0053189741894122
 10
902.31137717581043
 20
-1349.3331991997811
 10
902.30262937012174
 20
-1349.3541810779948
 42
0.0047503650419529
 10
902.08665564397018
 20
-1349.8863805112069
 10
902.07738739562296
 20
-1349.9098568873123
 42
0.004207176217238
 10
901.85284001189189
 20
-1350.4929504813906
 10
901.84309060954649
 20
-1350.5189166562518
 42
0.0036680086485129
 10
901.60863596622926
 20
-1351.1575520407976
 10
901.59842818638663
 20
-1351.1860005751278
 42
0.0032573142629064
 10
901.35279590041898
 20
-1351.8848532348838
 10
901.28414537957497
 20
-1352.0843163189463
 42
0.0026133366649669
 10
900.93570018082119
 20
-1353.1141796026059
 10
900.87244339332483
 20
-1353.304410437986
 42
0.0020592950741216
 10
900.65858032435347
 20
-1353.956514090612
 10
900.65552853318286
 20
-1353.9659505790451
 42
0.0025609928535878
 10
900.45370803170454
 20
-1354.6010958013876
 10
900.45111666456989
 20
-1354.6093981423535
 42
0.0031362356245761
 10
900.26162587890099
 20
-1355.2301609985077
 10
900.25949483596764
 20
-1355.2373023047387
 42
0.0037229918027886
 10
900.08269444904715
 20
-1355.8462876066928
 10
900.0810158598498
 20
-1355.8522344968351
 42
0.0043077623706171
 10
899.91727505777567
 20
-1356.4520532286365
 42
0.0047654161823399
 10
899.76444633526194
 20
-1357.0547393175298
 10
899.72998172642065
 20
-1357.1963010946884
 42
0.0112969368445817
 10
899.5341173682765
 20
-1358.0879932553153
 10
899.50611097918033
 20
-1358.2308213014105
 42
0.0130056762570164
 10
899.30527373553377
 20
-1359.4177623730554
 10
899.28473398538642
 20
-1359.561840486534
 42
0.0138721532145156
 10
899.18103098084873
 20
-1360.4686699723582
 10
899.16173549293978
 20
-1360.6921676942961
 42
0.0071254697011281
 10
899.12838884701819
 20
-1361.1553547031303
 10
899.1234278728532
 20
-1361.2413586977218
 42
0.0028881799202981
 10
899.10828957956505
 20
-1361.5331004075333
 42
0.0060297297141166
 10
899.09835737978949
 20
-1361.8250493436551
 10
899.09729509812246
 20
-1361.8734417155822
 42
0.0229523164157466
 10
899.10502612590824
 20
-1362.1961965618648
 10
899.10925189942839
 20
-1362.2566000958784
 42
0.0123673300668926
 10
899.12833054594694
 20
-1362.4577208210558
 42
0.0128577674468486
 10
899.1575259363525
 20
-1362.6576186709783
 10
899.16465180974023
 20
-1362.6989474855795
 42
0.028571785376475
 10
899.22914581143641
 20
-1362.9770636368944
 10
899.24281433510271
 20
-1363.0237184063708
 42
0.0316283099163281
 10
899.35862491501666
 20
-1363.3427329081958
 10
899.36167360677223
 20
-1363.3497192805214
 42
0.0338984824238213
 10
899.51110531773929
 20
-1363.6372852447105
 10
899.51341404710911
 20
-1363.6410762739863
 42
0.0350228718354302
 10
899.69577433778272
 20
-1363.8981282586633
 10
899.69665958955738
 20
-1363.8992073364268
 42
0.0347476747528935
 10
899.91108427679785
 20
-1364.1263923836473
 42
0.033133770191114
 10
900.15432760254453
 20
-1364.3225210457251
 10
900.15542770106038
 20
-1364.3232937488974
 42
0.0305233319081984
 10
900.42397239663308
 20
-1364.488421918988
 10
900.42720244113502
 20
-1364.4901459308512
 42
0.0273744481152697
 10
900.71975615270753
 20
-1364.6262840747411
 10
900.72486068784679
 20
-1364.6283276592114
 42
0.0240964406197746
 10
901.04033776349445
 20
-1364.7373113854933
 10
901.04692109270241
 20
-1364.7392361251677
 42
0.0209636179810126
 10
901.38432124535291
 20
-1364.8227042730996
 10
901.39195370580376
 20
-1364.8242561861014
 42
0.0181388704695616
 10
901.75027609780727
 20
-1364.883672279316
 10
901.75855694618031
 20
-1364.8847384631324
 42
0.0156086547587452
 10
902.13674431037555
 20
-1364.9214746497096
 10
902.17993956269515
 20
-1364.924313152188
 42
0.0137148329023243
 10
902.50761270799512
 20
-1364.9368334074393
 10
902.55354889794103
 20
-1364.9373278405546
 42
0.0051057823884096
 10
902.78969448451335
 20
-1364.9374580949639
 42
0.0052256693307316
 10
903.02579176829704
 20
-1364.9327092704996
 10
903.09601855204141
 20
-1364.9305623044854
 42
0.0161507179048986
 10
903.47175563014162
 20
-1364.9069119341589
 10
903.49176859051568
 20
-1364.9050017388713
 42
0.0101216737833666
 10
903.90579581201052
 20
-1364.8570088085053
 10
903.9398491014332
 20
-1364.8523611116962
 42
0.0245291776400123
 10
904.41663875698714
 20
-1364.7632860336191
 10
904.50146207250884
 20
-1364.7430901132739
 42
0.014350921256029
 10
904.85809317644794
 20
-1364.6472854794952
 42
0.0156557857041063
 10
905.20830924117479
 20
-1364.5302742636766
 10
905.21581045566984
 20
-1364.5275041019222
 42
0.0170137333630382
 10
905.57240645135118
 20
-1364.3818464870512
 10
905.57951037375869
 20
-1364.3786586514875
 42
0.0183105364409521
 10
905.93886004192416
 20
-1364.2013236096636
 10
905.94580680656372
 20
-1364.1975731747912
 42
0.0194899958151208
 10
906.30428754754905
 20
-1363.9855941928995
 10
906.31130142688448
 20
-1363.9810688506054
 42
0.0204869852948148
 10
906.66531572897873
 20
-1363.7315488355193
 10
906.67258133756536
 20
-1363.7259687701712
 42
0.0212516938554052
 10
907.01857126867094
 20
-1363.4360647732788
 10
907.06508796275045
 20
-1363.3935974631815
 42
0.0215248918255676
 10
907.32511413163661
 20
-1363.1348331841882
 10
907.37014386601231
 20
-1363.0859890628437
 42
0.0114578554956763
 10
907.52493601969468
 20
-1362.9101661293803
 10
907.53613055568837
 20
-1362.8968473658265
 42
0.0061531305138814
 10
907.66260520167566
 20
-1362.7425578325292
 42
0.0006325587109769
 10
907.78698368571634
 20
-1362.5865544569931
 10
907.810023820879
 20
-1362.557580936194
 42
0.0041897761549784
 10
907.97847922484209
 20
-1362.3420615601447
 10
908.03694134474381
 20
-1362.2659602131471
 42
0.0092993880038813
 10
908.31355327197321
 20
-1361.8916814492552
 10
908.3959477651631
 20
-1361.7757444456993
 42
0.0159321727084116
 10
908.74255424780881
 20
-1361.2535702249384
 10
908.78691038320028
 20
-1361.1818906606843
 42
0.0085547317023939
 10
909.0214221485237
 20
-1360.7880157114637
 42
0.0084601156886104
 10
909.24239832596425
 20
-1360.3863888624346
 10
909.25051379979607
 20
-1360.3710291801585
 42
0.0081429654282819
 10
909.4737630702316
 20
-1359.9313076676219
 10
909.48262323441759
 20
-1359.9131288255985
 42
0.0076574581326729
 10
909.7090307449879
 20
-1359.4299459503375
 10
909.71851038570799
 20
-1359.4088814720421
 42
0.0070682724197537
 10
909.94895529351209
 20
-1358.8768441672678
 10
909.95894557749648
 20
-1358.8528549782495
 42
0.0064559514448307
 10
910.19427878567751
 20
-1358.2665427117322
 10
910.20468814384321
 20
-1358.2396077862882
 42
0.0058311413905542
 10
910.44573488060632
 20
-1357.5935756919037
 10
910.45648995799343
 20
-1357.5636913507442
 42
0.005231242581842
 10
910.70407123603798
 20
-1356.8524889368987
 10
910.71511507241416
 20
-1356.8196622248397
 42
0.004668054479595
 10
910.97004350014129
 20
-1356.0378359091078
 10
911.01203565019512
 20
-1355.9048526717834
 42
0.004166685644514
 10
911.21532166258703
 20
-1355.2418838967874
 10
911.25298410325183
 20
-1355.1153027891305
 42
0.0015170975153753
 10
911.37417068166394
 20
-1354.70343443764
 42
-0.0004887993119867
 10
911.49451045475951
 20
-1354.2913160256928
 10
911.5709877122822
 20
-1354.0303586396569
 42
0.0002583378930537
 10
911.84420228249439
 20
-1353.0963019359713
 10
911.92597513192959
 20
-1352.8162026768723
 42
0.0006636169673616
 10
912.11984289193435
 20
-1352.1488497533078
 10
912.12493954629417
 20
-1352.1312181703836
 42
0.00105891313211
 10
912.30638824719802
 20
-1351.4984868273789
 10
912.3113703176798
 20
-1351.480973920354
 42
0.0015655524464586
 10
912.47964052486122
 20
-1350.8823572411579
 10
912.48447072527756
 20
-1350.8649650822172
 42
0.0021640440477863
 10
912.63876069726234
 20
-1350.2999380642041
 10
912.64339491669045
 20
-1350.2826733342172
 42
0.0028763871852219
 10
912.78291063474512
 20
-1349.7507053833631
 10
912.78729649890954
 20
-1349.7335814052199
 42
0.003731051194484
 10
912.91125319074922
 20
-1349.2341338111846
 10
912.91532841103265
 20
-1349.2171735399625
 42
0.0047652197767896
 10
913.02295231154676
 20
-1348.7496957716342
 10
913.02664291087194
 20
-1348.732936216476
 42
0.0060276699304049
 10
913.11717301002386
 20
-1348.2968604213399
 10
913.12039170031289
 20
-1348.2803592070311
 42
0.0075824337755699
 10
913.19308100972842
 20
-1347.8750920426046
 10
913.19572638710963
 20
-1347.8589370951483
 42
0.0095130624609792
 10
913.24984162273995
 20
-1347.4838477420822
 10
913.25682784662229
 20
-1347.4279141839672
 42
0.0121054653224637
 10
913.28341917720036
 20
-1347.1630183554919
 10
913.28428566695936
 20
-1347.15161491257
 42
0.0069050827387625
 10
913.29937448499754
 20
-1346.9086736857184
 10
913.30050978466625
 20
-1346.8851474286701
 42
0.0169063976701864
 10
913.3033370636465
 20
-1346.6889547013729
 10
913.3021664121153
 20
-1346.6286189400291
 42
0.0052007732894181
 10
913.29991296352216
 20
-1346.5530255498718
 42
0.0054038123300295
 10
913.27994945168246
 20
-1346.4330072538571
 10
913.2748635958128
 20
-1346.4043487672807
 42
0.0112050460465687
 10
913.23947923375385
 20
-1346.2280223289392
 10
913.22165427171376
 20
-1346.1484807422207
 42
0.0240764468006226
 10
913.13075690556764
 20
-1345.8182437067201
 10
913.11219814275455
 20
-1345.7616235417272
 42
0.0256812331835925
 10
912.96883522256462
 20
-1345.3898993354685
 10
912.96342579674285
 20
-1345.377768000478
 42
0.0268360501211901
 10
912.79399855589327
 20
-1345.0467748664578
 10
912.78846214825933
 20
-1345.0372551961475
 42
0.0274670231731901
 10
912.59626117184484
 20
-1344.7449678212283
 10
912.59087987188195
 20
-1344.7376886736865
 42
0.0275035967100928
 10
912.37930699232038
 20
-1344.4821727833828
 10
912.37423749135417
 20
-1344.4766936957526
 42
0.0269557673525816
 10
912.14683394791427
 20
-1344.25605140979
 10
912.14209089013218
 20
-1344.2519214553297
 42
0.0259124802209468
 10
911.90253605870089
 20
-1344.064230928177
 10
911.89800521351799
 20
-1344.061045425846
 42
0.0245162153005924
 10
911.65008886042426
 20
-1343.904312416736
 10
911.64556231410131
 20
-1343.9017522195359
 42
0.0229282588834696
 10
911.3931427572727
 20
-1343.7738840270363
 10
911.38836226343528
 20
-1343.7717317272741
 42
0.0212984135693842
 10
911.13532431097428
 20
-1343.670532810032
 10
911.13002002600285
 20
-1343.6686692472713
 42
0.0197555462339809
 10
910.88024168828179
 20
-1343.5918538293072
 42
0.0183511896788286
 10
910.62531296281691
 20
-1343.5342709223416
 10
910.53894776609513
 20
-1343.5180681319566
 42
0.0338057877149678
 10
910.25344041683525
 20
-1343.4842597268166
 10
910.16243501178405
 20
-1343.4796800715546
 42
0.0091990524505952
 10
910.05658790315931
 20
-1343.476304215633
 42
0.0028333980773686
 10
909.95067398717708
 20
-1343.4754761081163
 10
909.94975853411711
 20
-1343.4754741382922
 42
-0.0023619827803159
 10
909.84201251898901
 20
-1343.4747332972136
 10
909.80560734883534
 20
-1343.4743109907508
 42
0.0008824598484354
 10
909.62505135894492
 20
-1343.4725352125122
 10
909.58118992657944
 20
-1343.472181250987
 42
0.0038132665772496
 10
909.31290703070681
 20
-1343.4720623149203
 10
909.29637337590714
 20
-1343.4721810810638
 42
0.0060665569335454
 10
908.99509288432068
 20
-1343.4780013804846
 10
908.98084255229048
 20
-1343.4784496884522
 42
0.0080356953338113
 10
908.65138383593967
 20
-1343.4941174105197
 10
908.639313820864
 20
-1343.4948859934595
 42
0.0098996399106198
 10
908.28655073621644
 20
-1343.5243712226575
 10
908.27650502683844
 20
-1343.5254115188559
 42
0.0117740981365953
 10
907.90534816849595
 20
-1343.5727037663848
 10
907.89712547200713
 20
-1343.5739488829565
 42
0.0137435215135565
 10
907.51253665251545
 20
-1343.6430458565194
 10
907.50587961339875
 20
-1343.6444317527516
 42
0.0158359869385067
 10
907.11288251959343
 20
-1343.7393238412333
 10
907.10746933272912
 20
-1343.740813782103
 42
0.0180554124028242
 10
906.71115428811481
 20
-1343.8654517983423
 10
906.70659750003324
 20
-1343.867067834608
 42
0.0203657431281948
 10
906.31211998222238
 20
-1344.0253281761236
 10
906.30797644321456
 20
-1344.0271897975658
 42
0.022681968465517
 10
905.92054038701201
 20
-1344.2228323762361
 10
905.91634059599278
 20
-1344.2251979681564
 42
0.0248634984603863
 10
905.54115865481242
 20
-1344.4618246141031
 10
905.49296372602839
 20
-1344.495681655929
 42
0.0267044190884927
 10
905.21867102911108
 20
-1344.7111220317975
 42
0.0139303002200521
 10
904.9625038631674
 20
-1344.9483608727144
 10
904.95765047745135
 20
-1344.9531135355696
 42
0.0283460963440935
 10
904.71357788322371
 20
-1345.2208441960152
 10
904.67390937806761
 20
-1345.2696457734878
 42
0.0070695364826226
 10
904.59647215220775
 20
-1345.3677125894533
 42
0.0070695364826226
  0
LWPOLYLINE
  5
54
100
AcDbEntity
  8
0
370
              15
390
0
  6
Continuous
 62
               7
100
AcDbPolyline
 90
      226
 70
             128
 10
901.06765171496136
 20
-1361.0893013956372
 42
-0.0026277636619521
 10
901.06757383116121
 20
-1361.0225294699126
 10
901.06779118939335
 20
-1360.969374252451
 42
-0.0088680296737839
 10
901.07156780568641
 20
-1360.7963584700512
 10
901.07391416479891
 20
-1360.7370784445943
 42
-0.0077381705619478
 10
901.08996027556202
 20
-1360.4458179487963
 10
901.09082818673505
 20
-1360.433529715111
 42
-0.0068872530532076
 10
901.11746026648268
 20
-1360.118307963048
 10
901.11866449066929
 20
-1360.1060669840235
 42
-0.0062130021492849
 10
901.15625820749642
 20
-1359.767197292791
 10
901.1577621110323
 20
-1359.7550234208684
 42
-0.0056726929665301
 10
901.20668397053385
 20
-1359.3928281987594
 10
901.20845741617893
 20
-1359.3807343985095
 42
-0.0052341884497102
 10
901.26906800243796
 20
-1358.9955411429978
 10
901.27108599121561
 20
-1358.9835362129993
 42
-0.0049768450167573
 10
901.34382467264027
 20
-1358.5756916455753
 10
901.36807368736368
 20
-1358.4471436625608
 42
-0.0089029805627184
 10
901.50515453915864
 20
-1357.7853682151376
 10
901.53789991447695
 20
-1357.6403367846149
 42
-0.0080318257097129
 10
901.76744852881939
 20
-1356.6946271527545
 10
901.77943345526592
 20
-1356.6484965175709
 42
-0.0074265721318898
 10
902.06344499411694
 20
-1355.6184319391866
 10
902.08332453723301
 20
-1355.5502978785992
 42
-0.006971192270117
 10
902.4106291157392
 20
-1354.4840301382733
 10
902.47058106284487
 20
-1354.2980087799021
 42
-0.005207042289537
 10
902.70000628810408
 20
-1353.6107367028712
 10
902.71728748026101
 20
-1353.5607094222985
 42
-0.0009167004450664
 10
902.9203793675656
 20
-1352.9762535741002
 42
-0.0025162726943545
 10
903.12747699782881
 20
-1352.3932123099357
 10
903.16470160963058
 20
-1352.2900627640404
 42
-0.002821268145741
 10
903.41287752859671
 20
-1351.6143321318609
 10
903.42270829134566
 20
-1351.5880246871889
 42
-0.0031964916820872
 10
903.65900054900976
 20
-1350.9678199250573
 10
903.6686350030094
 20
-1350.9430099349122
 42
-0.00362818364512
 10
903.89374096410995
 20
-1350.3755692540208
 10
903.90317937426323
 20
-1350.3522718225283
 42
-0.0041269166834262
 10
904.1177970709266
 20
-1349.8348309265398
 10
904.15043002735388
 20
-1349.7579524801633
 42
-0.0047472213055892
 10
904.30747483290099
 20
-1349.3975310122953
 10
904.31436891411226
 20
-1349.3821104149565
 42
-0.0025651659994557
 10
904.46272694795937
 20
-1349.0547823592149
 42
-0.0057144634997975
 10
904.61647664172619
 20
-1348.7299726858616
 10
904.6445073471325
 20
-1348.6724643034572
 42
-0.0065388068375208
 10
904.8279743748717
 20
-1348.3082318067932
 10
904.83643283064453
 20
-1348.2919722274346
 42
-0.0074510843023791
 10
905.01261507652805
 20
-1347.965283946301
 10
905.02079474705488
 20
-1347.9506431690397
 42
-0.0084648979861978
 10
905.19042860015907
 20
-1347.658734158071
 10
905.19828472664517
 20
-1347.6457271664233
 42
-0.0095638542807765
 10
905.36212017424145
 20
-1347.3858382944416
 10
905.36959511791633
 20
-1347.3744689329812
 42
-0.0107191626799473
 10
905.52839669830075
 20
-1347.1438576984419
 10
905.53541343202869
 20
-1347.1341216060816
 42
-0.0118458573906014
 10
905.68996153054434
 20
-1346.9300494107667
 42
-0.0129184518194773
 10
905.85441415414925
 20
-1346.7338888945926
 10
905.88455892650984
 20
-1346.6997628156957
 42
-0.0217742579632341
 10
906.0611712488444
 20
-1346.5165560454466
 10
906.07191679330833
 20
-1346.5063392122404
 42
-0.0097266568652525
 10
906.23797441216038
 20
-1346.3544916378064
 42
-0.0187720905708491
 10
906.41232198805289
 20
-1346.2124227844149
 10
906.44302797872717
 20
-1346.1892637020187
 42
-0.0179428207515849
 10
906.67544869872029
 20
-1346.0267115249094
 10
906.67910102563292
 20
-1346.0243475900236
 42
-0.0170047877699649
 10
906.91486466316644
 20
-1345.8828870758703
 10
906.91864765190951
 20
-1345.880788770836
 42
-0.0160190788374069
 10
907.1555561995483
 20
-1345.7591374688459
 42
-0.0151102861495564
 10
907.39958798199768
 20
-1345.6524546927901
 10
907.45197448420674
 20
-1345.6314145598965
 42
-0.0271945441889813
 10
907.8106370432622
 20
-1345.5095497491914
 10
907.87970184375365
 20
-1345.4902002079241
 42
-0.0237596594021064
 10
908.2954986907755
 20
-1345.3947494959425
 10
908.36356154450868
 20
-1345.3824948078154
 42
-0.0213715440552348
 10
908.64943647595123
 20
-1345.343547776306
 10
908.7095836421704
 20
-1345.3379580616049
 42
-0.010146565581399
 10
908.87707617416345
 20
-1345.3258145183408
 10
908.8864165603602
 20
-1345.3253276033436
 42
-0.0100375910873873
 10
909.03557066092424
 20
-1345.3205517854185
 10
909.04582993060421
 20
-1345.3204293464041
 42
-0.010362563338258
 10
909.17453792525953
 20
-1345.3215607799307
 10
909.19680357652851
 20
-1345.3222181383956
 42
-0.0115689250219375
 10
909.2808543140543
 20
-1345.3266476446406
 42
-0.0072438037436981
 10
909.36469259348462
 20
-1345.3342368443891
 10
909.38149310296626
 20
-1345.3360033871143
 42
-0.0217917313136742
 10
909.4980628662812
 20
-1345.3534232798356
 10
909.56366295684938
 20
-1345.3661698882504
 42
-0.0332943556750122
 10
909.76805512187502
 20
-1345.4202101795568
 10
909.79822769042494
 20
-1345.4303782566751
 42
-0.0184824084792765
 10
909.93673274689036
 20
-1345.4828292720617
 42
-0.0198002050696706
 10
910.07080708738783
 20
-1345.5457133322602
 10
910.07269372476662
 20
-1345.5466911191411
 42
-0.0212242342979196
 10
910.20483266716815
 20
-1345.6224538579338
 10
910.20664796271217
 20
-1345.6235996601426
 42
-0.022609060580428
 10
910.33515186393345
 20
-1345.713079303707
 10
910.33699630567116
 20
-1345.7144915566946
 42
-0.0238457052250815
 10
910.46017838696378
 20
-1345.8184874525566
 10
910.46213111552322
 20
-1345.8203023303231
 42
-0.0248160564154175
 10
910.57833262282429
 20
-1345.9395769315322
 10
910.58043625622599
 20
-1345.9419622652363
 42
-0.0254109591449183
 10
910.68804147409253
 20
-1346.0772506512014
 10
910.69028949600602
 20
-1346.0803921996012
 42
-0.0255528488285772
 10
910.78773617480397
 20
-1346.232419253837
 10
910.79006727471915
 20
-1346.2365008654428
 42
-0.0252146793217849
 10
910.87584830072876
 20
-1346.4060031114409
 10
910.87815053988595
 20
-1346.4111851933528
 42
-0.0244265635947834
 10
910.95080523364788
 20
-1346.5989317654007
 10
910.96005163511529
 20
-1346.6267971837356
 42
-0.0231319612906804
 10
911.00597441410787
 20
-1346.7900982305389
 42
-0.011213042436162
 10
911.04061043664751
 20
-1346.9563018307351
 10
911.04181296175852
 20
-1346.962798417615
 42
-0.021052788123909
 10
911.0674994371293
 20
-1347.1438540630547
 10
911.07101003195135
 20
-1347.1792596116034
 42
-0.0190029892415872
 10
911.08645150549592
 20
-1347.432795457876
 10
911.08726148193989
 20
-1347.4682710722445
 42
-0.013797455365575
 10
911.08571262910414
 20
-1347.7933024789854
 10
911.08486717414871
 20
-1347.8194212235733
 42
-0.0081336634216412
 10
911.07000783892624
 20
-1348.1247686911702
 42
-0.0073526923576576
 10
911.04569930555181
 20
-1348.4295169354541
 10
911.04443788176889
 20
-1348.4428536101213
 42
-0.0066886138687471
 10
911.00870229572035
 20
-1348.7734396536362
 10
911.00704520625254
 20
-1348.7870612726101
 42
-0.0061359187354148
 10
910.95919460420237
 20
-1349.1438252527048
 10
910.95715710312879
 20
-1349.1577200555394
 42
-0.0056698610066264
 10
910.89650677236284
 20
-1349.5409986243706
 10
910.89410133903857
 20
-1349.5551577436081
 42
-0.0052721077274996
 10
910.81996913824162
 20
-1349.9652850832722
 10
910.81720598939728
 20
-1349.979701718672
 42
-0.0049289272174912
 10
910.72891187129312
 20
-1350.417010229814
 10
910.72579937661476
 20
-1350.4316790826101
 42
-0.0047415956712523
 10
910.62256138508553
 20
-1350.8964758400073
 10
910.58779317472261
 20
-1351.046282935404
 42
-0.0084404470902664
 10
910.39777673114997
 20
-1351.8065069599379
 10
910.3916500431651
 20
-1351.8293710840885
 42
-0.0039635940257099
 10
910.17019635887675
 20
-1352.630359948351
 10
910.15681956370156
 20
-1352.6772915649276
 42
-0.0072475040837433
 10
909.88937267584095
 20
-1353.5665112813103
 10
909.81916034901201
 20
-1353.7882516312873
 42
-0.0051345458829032
 10
909.5324009769522
 20
-1354.6625768191011
 10
909.51087471018059
 20
-1354.7260030862433
 42
-0.0019150016602069
 10
909.255341303318
 20
-1355.4695522064571
 10
909.24887369892656
 20
-1355.4881396713647
 42
-0.0021524362752301
 10
909.00039564785789
 20
-1356.1924654930867
 10
908.99118522715662
 20
-1356.2182190714016
 42
-0.0024331286821497
 10
908.75492996812545
 20
-1356.8688183795061
 10
908.74588201557469
 20
-1356.8933616858612
 42
-0.0027449721791155
 10
908.52126744473958
 20
-1357.492491564785
 10
908.51237743734464
 20
-1357.5158141546444
 42
-0.003108322976878
 10
908.29883495073739
 20
-1358.0657381922169
 10
908.29009881906541
 20
-1358.0878279080657
 42
-0.0035311343283564
 10
908.08705763347007
 20
-1358.5908110338048
 10
908.07847229432423
 20
-1358.6116537573107
 42
-0.0040245640950446
 10
907.88536049052789
 20
-1359.0699630799077
 10
907.87692437692181
 20
-1359.0895424479866
 42
-0.0046015135851372
 10
907.69316808376107
 20
-1359.5054474776218
 10
907.68488190593632
 20
-1359.5237446170661
 42
-0.0052768638269408
 10
907.50990438697727
 20
-1359.8995175013442
 10
907.50177217634837
 20
-1359.9165108398915
 42
-0.006067267563749
 10
907.33499256358436
 20
-1360.2544264630017
 10
907.32702308310058
 20
-1360.2700917220034
 42
-0.0069904648869509
 10
907.1678546891012
 20
-1360.5724275286625
 10
907.16006328949345
 20
-1360.5867380778843
 42
-0.0080637022771829
 10
907.00791142914454
 20
-1360.855773381043
 10
907.00032239651182
 20
-1360.8687012466464
 42
-0.0093006455666036
 10
906.85458171998187
 20
-1361.1067156451468
 10
906.84723105323496
 20
-1361.1182336143252
 42
-0.0107060778048145
 10
906.70728250979982
 20
-1361.3275039316991
 10
906.70022074152064
 20
-1361.3375894742644
 42
-0.0122723111416053
 10
906.56542702332194
 20
-1361.5203828037538
 10
906.5651007997667
 20
-1361.5208031915649
 42
-0.0141836319628892
 10
906.42151919679395
 20
-1361.695372949393
 10
906.4145714411419
 20
-1361.7033479496579
 42
-0.0175957477203158
 10
906.2746652731073
 20
-1361.8529688380627
 42
-0.0080466359672644
 10
906.12720150807206
 20
-1361.9952913662185
 10
906.08116696355955
 20
-1362.0383118043051
 42
-0.0269600260390595
 10
905.8278867175776
 20
-1362.2506350628137
 10
905.76131958128144
 20
-1362.3005864774368
 42
-0.0178362839753763
 10
905.52137509162378
 20
-1362.4676044036905
 10
905.51413012061926
 20
-1362.472272915898
 42
-0.0174650732645813
 10
905.27779392318212
 20
-1362.6131338808545
 42
-0.0169240130166103
 10
905.03232767732209
 20
-1362.737426140633
 10
904.98634152176646
 20
-1362.7587880961992
 42
-0.0318883036841044
 10
904.6359906661462
 20
-1362.8951264057093
 10
904.56762513098079
 20
-1362.916827026185
 42
-0.0284435909902415
 10
904.19157500469078
 20
-1363.0130444616593
 10
904.15641684419472
 20
-1363.0199380574873
 42
-0.0243909341017896
 10
903.84297338327326
 20
-1363.065659088518
 10
903.79269265650146
 20
-1363.0705046354196
 42
-0.0196639292933185
 10
903.57709707897493
 20
-1363.0827529209332
 10
903.52527300780866
 20
-1363.08365618167
 42
-0.0100501510681805
 10
903.41284972614721
 20
-1363.0833557833168
 10
903.3811898647881
 20
-1363.0826347114312
 42
-0.0019752031106263
 10
903.33209752812172
 20
-1363.081322551222
 10
903.32933722490156
 20
-1363.0812378593957
 42
0.0065378752001722
 10
903.28576065014477
 20
-1363.0804709681806
 42
-0.0167974694656175
 10
903.24222982721005
 20
-1363.0788110696542
 10
903.23815048795086
 20
-1363.0785180587595
 42
-0.0081283276311442
 10
903.18659069022124
 20
-1363.0739710651226
 10
903.17485111633391
 20
-1363.0727431475434
 42
-0.0126703440158456
 10
903.10013282053535
 20
-1363.0630083564713
 10
903.07734495286354
 20
-1363.0594501005567
 42
-0.0117852088434214
 10
902.95780596702821
 20
-1363.0378871053988
 10
902.90242551526819
 20
-1363.026543565165
 42
-0.0251774592290973
 10
902.67558147625891
 20
-1362.9680455557316
 10
902.63086228641112
 20
-1362.9540787363974
 42
-0.0146525199884116
 10
902.44446929887079
 20
-1362.8898122091987
 42
-0.0166929435849416
 10
902.26249164274122
 20
-1362.8140050761426
 10
902.25783501147089
 20
-1362.81188017553
 42
-0.0191684358440259
 10
902.07265138022456
 20
-1362.7186440917415
 10
902.06931879446483
 20
-1362.7168028441865
 42
-0.0221181781819746
 10
901.88600849056206
 20
-1362.6046693458154
 10
901.8836586865541
 20
-1362.6030850478248
 42
-0.0254984685389897
 10
901.70736853616927
 20
-1362.4706738978555
 10
901.68488638846748
 20
-1362.4519215889195
 42
-0.0292492648809573
 10
901.56011744962382
 20
-1362.3348287892759
 42
-0.0159048957498726
 10
901.44627745217406
 20
-1362.2068087976772
 10
901.44495866159446
 20
-1362.2052271846569
 42
-0.034381337955879
 10
901.34232139996743
 20
-1362.0633558588863
 10
901.31082986860781
 20
-1362.0128524667941
 42
-0.0369117275705427
 10
901.22493736671004
 20
-1361.8493752258448
 42
-0.0191751379903562
 10
901.15774398115434
 20
-1361.6769706198427
 10
901.15598065739346
 20
-1361.671877275164
 42
-0.0378178042222154
 10
901.10618593860897
 20
-1361.4829364990803
 10
901.10019064287792
 20
-1361.4503758808789
 42
-0.018484604647551
 10
901.07947344358467
 20
-1361.3086230603408
 42
-0.0179866351323981
 10
901.06914043851089
 20
-1361.1657322472577
 10
901.06908399606516
 20
-1361.1641745606471
 42
-0.0085497186109115
 10
901.06765171496136
 20
-1361.0893013956372
 42
-0.0085497186109115
  0
ENDBLK
  5
55
100
AcDbEntity
  8
template
390
0
100
AcDbBlockEnd
  0
BLOCK
  5
56
100
AcDbEntity
  8
notes
390
0
100
AcDbBlockBegin
  2
*D3
 70
               1
 10
0.0
 20
0.0
 30
0.0
  3
*D3
  1

  0
LINE
  5
57
100
AcDbEntity
  8
0
370
              -2
390
0
  6
Continuous
 62
               0
100
AcDbLine
 10
453.94665645831662
 20
563.00671953396272
 30
0.0
 11
588.95337599227923
 21
428.0
 31
0.0
  0
CIRCLE
  5
58
102
{ACAD_REACTORS
330
59
102
}
100
AcDbEntity
  8
0
370
              -2
390
0
  6
Continuous
 62
               0
100
AcDbCircle
 10
453.94665645831662
 20
563.00671953396272
 30
0.0
 40
1.9998779296875
  0
HATCH
  5
59
100
AcDbEntity
  8
0
370
              -2
390
0
  6
Continuous
 62
               0
100
AcDbHatch
 10
0.0
 20
0.0
 30
0.0
210
0.0
220
0.0
230
1.0
  2
SOLID
 70
               1
 71
               1
 91
        1
 92
        1
 93
        1
 72
               2
 10
453.94665645831662
 20
563.00671953396272
 40
1.9998779296875
 50
0.0
 51
360.0
 73
               0
 97
        1
330
58
 75
               0
 76
               1
 98
        1
 10
0.0
 20
0.0
  0
LINE
  5
5A
100
AcDbEntity
  8
0
370
              -2
390
0
  6
Continuous
 62
               0
100
AcDbLine
 10
588.95337599227923
 20
428.0
 30
0.0
 11
728.32837599227923
 21
428.0
 31
0.0
  0
MTEXT
  5
5B
100
AcDbEntity
  8
0
390
0
 62
               0
100
AcDbMText
 10
648.95337599227923
 20
461.87761718749994
 30
0.0
 40
24.432617187500004
 41
0.0
 71
               1
 72
               1
  1
φ135
  7
ＭＳ ゴシック
 73
               1
 44
0.7828267384257843
  0
POINT
  5
5C
100
AcDbEntity
  8
Defpoints
370
               0
390
0
 62
               0
100
AcDbPoint
 10
358.4872409981333
 20
658.46613499414605
 30
0.0
  0
POINT
  5
5D
100
AcDbEntity
  8
Defpoints
370
               0
390
0
 62
               0
100
AcDbPoint
 10
453.94665645831662
 20
563.00671953396272
 30
0.0
  0
ENDBLK
  5
5E
100
AcDbEntity
  8
notes
390
0
100
AcDbBlockEnd
  0
BLOCK
  5
5F
100
AcDbEntity
  8
notes
390
0
100
AcDbBlockBegin
  2
*D4
 70
               1
 10
0.0
 20
0.0
 30
0.0
  3
*D4
  1

  0
LINE
  5
60
100
AcDbEntity
  8
0
370
              -2
390
0
  6
Continuous
 62
               0
100
AcDbLine
 10
-278.0924184638032
 20
-416.07847895283112
 30
0.0
 11
-278.0924184638032
 21
-656.07847895283123
 31
0.0
  0
LINE
  5
61
100
AcDbEntity
  8
0
370
              -2
390
0
  6
Continuous
 62
               0
100
AcDbLine
 10
-443.0924184638032
 20
-581.07847895283044
 30
0.0
 11
-443.0924184638032
 21
-656.07847895283123
 31
0.0
  0
LINE
  5
62
100
AcDbEntity
  8
0
370
              -2
390
0
  6
Continuous
 62
               0
100
AcDbLine
 10
-278.0924184638032
 20
-656.07847895283123
 30
0.0
 11
-443.0924184638032
 21
-656.07847895283123
 31
0.0
  0
CIRCLE
  5
63
102
{ACAD_REACTORS
330
64
102
}
100
AcDbEntity
  8
0
370
              -2
390
0
  6
Continuous
 62
               0
100
AcDbCircle
 10
-278.0924184638032
 20
-656.07847895283123
 30
0.0
 40
1.9998779296875
  0
HATCH
  5
64
100
AcDbEntity
  8
0
370
              -2
390
0
  6
Continuous
 62
               0
100
AcDbHatch
 10
0.0
 20
0.0
 30
0.0
210
0.0
220
0.0
230
1.0
  2
SOLID
 70
               1
 71
               1
 91
        1
 92
        1
 93
        1
 72
               2
 10
-278.0924184638032
 20
-656.07847895283123
 40
1.9998779296875
 50
0.0
 51
360.0
 73
               0
 97
        1
330
63
 75
               0
 76
               1
 98
        1
 10
0.0
 20
0.0
  0
CIRCLE
  5
65
102
{ACAD_REACTORS
330
66
102
}
100
AcDbEntity
  8
0
370
              -2
390
0
  6
Continuous
 62
               0
100
AcDbCircle
 10
-443.0924184638032
 20
-656.07847895283123
 30
0.0
 40
1.9998779296875
  0
HATCH
  5
66
100
AcDbEntity
  8
0
370
              -2
390
0
  6
Continuous
 62
               0
100
AcDbHatch
 10
0.0
 20
0.0
 30
0.0
210
0.0
220
0.0
230
1.0
  2
SOLID
 70
               1
 71
               1
 91
        1
 92
        1
 93
        1
 72
               2
 10
-443.0924184638032
 20
-656.07847895283123
 40
1.9998779296875
 50
0.0
 51
360.0
 73
               0
 97
        1
330
65
 75
               0
 76
               1
 98
        1
 10
0.0
 20
0.0
  0
MTEXT
  5
67
100
AcDbEntity
  8
0
390
0
 62
               0
100
AcDbMText
 10
-384.40492014597874
 20
-622.20086176533118
 30
0.0
 40
24.432617187500004
 41
0.0
 71
               1
 72
               1
  1
165
  7
ＭＳ ゴシック
 73
               1
 44
0.7828267384257843
  0
POINT
  5
68
100
AcDbEntity
  8
Defpoints
370
               0
390
0
 62
               0
100
AcDbPoint
 10
-443.0924184638032
 20
-556.07847895283044
 30
0.0
  0
POINT
  5
69
100
AcDbEntity
  8
Defpoints
370
               0
390
0
 62
               0
100
AcDbPoint
 10
-278.0924184638032
 20
-391.07847895283112
 30
0.0
  0
POINT
  5
6A
100
AcDbEntity
  8
Defpoints
370
               0
390
0
 62
               0
100
AcDbPoint
 10
-278.0924184638032
 20
-656.07847895283123
 30
0.0
  0
ENDBLK
  5
6B
100
AcDbEntity
  8
notes
390
0
100
AcDbBlockEnd
  0
BLOCK
  5
6C
100
AcDbEntity
  8
notes
390
0
100
AcDbBlockBegin
  2
*D5
 70
               1
 10
0.0
 20
0.0
 30
0.0
  3
*D5
  1

  0
LINE
  5
6D
100
AcDbEntity
  8
0
370
              -2
390
0
  6
Continuous
 62
               0
100
AcDbLine
 10
-278.0924184638032
 20
660.73642726405433
 30
0.0
 11
-278.0924184638032
 21
875.73642726405433
 31
0.0
  0
LINE
  5
6E
100
AcDbEntity
  8
0
370
              -2
390
0
  6
Continuous
 62
               0
100
AcDbLine
 10
-608.09241846380348
 20
660.73642726405433
 30
0.0
 11
-608.09241846380348
 21
875.73642726405433
 31
0.0
  0
LINE
  5
6F
100
AcDbEntity
  8
0
370
              -2
390
0
  6
Continuous
 62
               0
100
AcDbLine
 10
-278.0924184638032
 20
875.73642726405433
 30
0.0
 11
-608.09241846380348
 21
875.73642726405433
 31
0.0
  0
CIRCLE
  5
70
102
{ACAD_REACTORS
330
71
102
}
100
AcDbEntity
  8
0
370
              -2
390
0
  6
Continuous
 62
               0
100
AcDbCircle
 10
-278.0924184638032
 20
875.73642726405433
 30
0.0
 40
1.9998779296875
  0
HATCH
  5
71
100
AcDbEntity
  8
0
370
              -2
390
0
  6
Continuous
 62
               0
100
AcDbHatch
 10
0.0
 20
0.0
 30
0.0
210
0.0
220
0.0
230
1.0
  2
SOLID
 70
               1
 71
               1
 91
        1
 92
        1
 93
        1
 72
               2
 10
-278.0924184638032
 20
875.73642726405433
 40
1.9998779296875
 50
0.0
 51
360.0
 73
               0
 97
        1
330
70
 75
               0
 76
               1
 98
        1
 10
0.0
 20
0.0
  0
CIRCLE
  5
72
102
{ACAD_REACTORS
330
73
102
}
100
AcDbEntity
  8
0
370
              -2
390
0
  6
Continuous
 62
               0
100
AcDbCircle
 10
-608.09241846380348
 20
875.73642726405433
 30
0.0
 40
1.9998779296875
  0
HATCH
  5
73
100
AcDbEntity
  8
0
370
              -2
390
0
  6
Continuous
 62
               0
100
AcDbHatch
 10
0.0
 20
0.0
 30
0.0
210
0.0
220
0.0
230
1.0
  2
SOLID
 70
               1
 71
               1
 91
        1
 92
        1
 93
        1
 72
               2
 10
-608.09241846380348
 20
875.73642726405433
 40
1.9998779296875
 50
0.0
 51
360.0
 73
               0
 97
        1
330
72
 75
               0
 76
               1
 98
        1
 10
0.0
 20
0.0
  0
MTEXT
  5
74
100
AcDbEntity
  8
0
390
0
 62
               0
100
AcDbMText
 10
-466.90492014597891
 20
909.61404445155438
 30
0.0
 40
24.432617187500004
 41
0.0
 71
               1
 72
               1
  1
330
  7
ＭＳ ゴシック
 73
               1
 44
0.7828267384257843
  0
POINT
  5
75
100
AcDbEntity
  8
Defpoints
370
               0
390
0
 62
               0
100
AcDbPoint
 10
-608.09241846380348
 20
635.73642726405433
 30
0.0
  0
POINT
  5
76
100
AcDbEntity
  8
Defpoints
370
               0
390
0
 62
               0
100
AcDbPoint
 10
-278.0924184638032
 20
635.73642726405433
 30
0.0
  0
POINT
  5
77
100
AcDbEntity
  8
Defpoints
370
               0
390
0
 62
               0
100
AcDbPoint
 10
-278.0924184638032
 20
875.73642726405433
 30
0.0
  0
ENDBLK
  5
78
100
AcDbEntity
  8
notes
390
0
100
AcDbBlockEnd
  0
BLOCK
  5
79
100
AcDbEntity
  8
notes
390
0
100
AcDbBlockBegin
  2
*D6
 70
               1
 10
0.0
 20
0.0
 30
0.0
  3
*D6
  1

  0
LINE
  5
7A
100
AcDbEntity
  8
0
370
              -2
390
0
  6
Continuous
 62
               0
100
AcDbLine
 10
-257.0924184638032
 20
-386.07847895283135
 30
0.0
 11
-178.0924184638032
 21
-386.07847895283135
 31
0.0
  0
LINE
  5
7B
100
AcDbEntity
  8
0
370
              -2
390
0
  6
Continuous
 62
               0
100
AcDbLine
 10
-383.5924184638032
 20
-556.07847895283055
 30
0.0
 11
-178.0924184638032
 21
-556.07847895283055
 31
0.0
  0
LINE
  5
7C
100
AcDbEntity
  8
0
370
              -2
390
0
  6
Continuous
 62
               0
100
AcDbLine
 10
-178.0924184638032
 20
-386.07847895283135
 30
0.0
 11
-178.0924184638032
 21
-556.07847895283055
 31
0.0
  0
CIRCLE
  5
7D
102
{ACAD_REACTORS
330
7E
102
}
100
AcDbEntity
  8
0
370
              -2
390
0
  6
Continuous
 62
               0
100
AcDbCircle
 10
-178.0924184638032
 20
-386.07847895283135
 30
0.0
 40
1.9998779296875
  0
HATCH
  5
7E
100
AcDbEntity
  8
0
370
              -2
390
0
  6
Continuous
 62
               0
100
AcDbHatch
 10
0.0
 20
0.0
 30
0.0
210
0.0
220
0.0
230
1.0
  2
SOLID
 70
               1
 71
               1
 91
        1
 92
        1
 93
        1
 72
               2
 10
-178.0924184638032
 20
-386.07847895283135
 40
1.9998779296875
 50
0.0
 51
360.0
 73
               0
 97
        1
330
7D
 75
               0
 76
               1
 98
        1
 10
0.0
 20
0.0
  0
CIRCLE
  5
7F
102
{ACAD_REACTORS
330
80
102
}
100
AcDbEntity
  8
0
370
              -2
390
0
  6
Continuous
 62
               0
100
AcDbCircle
 10
-178.0924184638032
 20
-556.07847895283055
 30
0.0
 40
1.9998779296875
  0
HATCH
  5
80
100
AcDbEntity
  8
0
370
              -2
390
0
  6
Continuous
 62
               0
100
AcDbHatch
 10
0.0
 20
0.0
 30
0.0
210
0.0
220
0.0
230
1.0
  2
SOLID
 70
               1
 71
               1
 91
        1
 92
        1
 93
        1
 72
               2
 10
-178.0924184638032
 20
-556.07847895283055
 40
1.9998779296875
 50
0.0
 51
360.0
 73
               0
 97
        1
330
7F
 75
               0
 76
               1
 98
        1
 10
0.0
 20
0.0
  0
MTEXT
  5
81
100
AcDbEntity
  8
0
390
0
 62
               0
100
AcDbMText
 10
-211.97003565130319
 20
-494.89098063500649
 30
0.0
 40
24.432617187500004
 41
0.0
 71
               1
 72
               1
  1
170
  7
ＭＳ ゴシック
 11
0.0
 21
1.0
 31
0.0
 73
               1
 44
0.7828267384257843
  0
POINT
  5
82
100
AcDbEntity
  8
Defpoints
370
               0
390
0
 62
               0
100
AcDbPoint
 10
-408.5924184638032
 20
-556.07847895283055
 30
0.0
  0
POINT
  5
83
100
AcDbEntity
  8
Defpoints
370
               0
390
0
 62
               0
100
AcDbPoint
 10
-282.0924184638032
 20
-386.07847895283135
 30
0.0
  0
POINT
  5
84
100
AcDbEntity
  8
Defpoints
370
               0
390
0
 62
               0
100
AcDbPoint
 10
-178.0924184638032
 20
-386.07847895283135
 30
0.0
  0
ENDBLK
  5
85
100
AcDbEntity
  8
notes
390
0
100
AcDbBlockEnd
  0
BLOCK
  5
86
100
AcDbEntity
  8
notes
390
0
100
AcDbBlockBegin
  2
*D7
 70
               1
 10
0.0
 20
0.0
 30
0.0
  3
*D7
  1

  0
LINE
  5
87
100
AcDbEntity
  8
0
370
              -2
390
0
  6
Continuous
 62
               0
100
AcDbLine
 10
-629.0924184638036
 20
-386.07847895283135
 30
0.0
 11
-708.0924184638036
 21
-386.07847895283135
 31
0.0
  0
LINE
  5
88
100
AcDbEntity
  8
0
370
              -2
390
0
  6
Continuous
 62
               0
100
AcDbLine
 10
-556.24212630401132
 20
-531.07847895283055
 30
0.0
 11
-708.0924184638036
 21
-531.07847895283055
 31
0.0
  0
LINE
  5
89
100
AcDbEntity
  8
0
370
              -2
390
0
  6
Continuous
 62
               0
100
AcDbLine
 10
-708.0924184638036
 20
-386.07847895283135
 30
0.0
 11
-708.0924184638036
 21
-531.07847895283055
 31
0.0
  0
CIRCLE
  5
8A
102
{ACAD_REACTORS
330
8B
102
}
100
AcDbEntity
  8
0
370
              -2
390
0
  6
Continuous
 62
               0
100
AcDbCircle
 10
-708.0924184638036
 20
-386.07847895283135
 30
0.0
 40
1.9998779296875
  0
HATCH
  5
8B
100
AcDbEntity
  8
0
370
              -2
390
0
  6
Continuous
 62
               0
100
AcDbHatch
 10
0.0
 20
0.0
 30
0.0
210
0.0
220
0.0
230
1.0
  2
SOLID
 70
               1
 71
               1
 91
        1
 92
        1
 93
        1
 72
               2
 10
-708.0924184638036
 20
-386.07847895283135
 40
1.9998779296875
 50
0.0
 51
360.0
 73
               0
 97
        1
330
8A
 75
               0
 76
               1
 98
        1
 10
0.0
 20
0.0
  0
CIRCLE
  5
8C
102
{ACAD_REACTORS
330
8D
102
}
100
AcDbEntity
  8
0
370
              -2
390
0
  6
Continuous
 62
               0
100
AcDbCircle
 10
-708.0924184638036
 20
-531.07847895283055
 30
0.0
 40
1.9998779296875
  0
HATCH
  5
8D
100
AcDbEntity
  8
0
370
              -2
390
0
  6
Continuous
 62
               0
100
AcDbHatch
 10
0.0
 20
0.0
 30
0.0
210
0.0
220
0.0
230
1.0
  2
SOLID
 70
               1
 71
               1
 91
        1
 92
        1
 93
        1
 72
               2
 10
-708.0924184638036
 20
-531.07847895283055
 40
1.9998779296875
 50
0.0
 51
360.0
 73
               0
 97
        1
330
8C
 75
               0
 76
               1
 98
        1
 10
0.0
 20
0.0
  0
MTEXT
  5
8E
100
AcDbEntity
  8
0
390
0
 62
               0
100
AcDbMText
 10
-741.97003565130365
 20
-482.39098063500649
 30
0.0
 40
24.432617187500004
 41
0.0
 71
               1
 72
               1
  1
145
  7
ＭＳ ゴシック
 11
0.0
 21
1.0
 31
0.0
 73
               1
 44
0.7828267384257843
  0
POINT
  5
8F
100
AcDbEntity
  8
Defpoints
370
               0
390
0
 62
               0
100
AcDbPoint
 10
-531.24212630401132
 20
-531.07847895283055
 30
0.0
  0
POINT
  5
90
100
AcDbEntity
  8
Defpoints
370
               0
390
0
 62
               0
100
AcDbPoint
 10
-604.0924184638036
 20
-386.07847895283135
 30
0.0
  0
POINT
  5
91
100
AcDbEntity
  8
Defpoints
370
               0
390
0
 62
               0
100
AcDbPoint
 10
-708.0924184638036
 20
-386.07847895283135
 30
0.0
  0
ENDBLK
  5
92
100
AcDbEntity
  8
notes
390
0
100
AcDbBlockEnd
  0
BLOCK
  5
93
100
AcDbEntity
  8
notes
390
0
100
AcDbBlockBegin
  2
*D8
 70
               1
 10
0.0
 20
0.0
 30
0.0
  3
*D8
  1

  0
LINE
  5
94
100
AcDbEntity
  8
0
370
              -2
390
0
  6
Continuous
 62
               0
100
AcDbLine
 10
-556.24212630401132
 20
-531.07847895283055
 30
0.0
 11
-708.0924184638036
 21
-531.07847895283055
 31
0.0
  0
LINE
  5
95
100
AcDbEntity
  8
0
370
              -2
390
0
  6
Continuous
 62
               0
100
AcDbLine
 10
-502.59241846380326
 20
-556.07847895283032
 30
0.0
 11
-708.0924184638036
 21
-556.07847895283032
 31
0.0
  0
LINE
  5
96
100
AcDbEntity
  8
0
370
              -2
390
0
  6
Continuous
 62
               0
100
AcDbLine
 10
-708.0924184638036
 20
-556.07847895283032
 30
0.0
 11
-708.0924184638036
 21
-593.64270833333285
 31
0.0
  0
LINE
  5
97
100
AcDbEntity
  8
0
370
              -2
390
0
  6
Continuous
 62
               0
100
AcDbLine
 10
-708.0924184638036
 20
-531.07847895283055
 30
0.0
 11
-708.0924184638036
 21
-556.07847895283032
 31
0.0
  0
CIRCLE
  5
98
102
{ACAD_REACTORS
330
99
102
}
100
AcDbEntity
  8
0
370
              -2
390
0
  6
Continuous
 62
               0
100
AcDbCircle
 10
-708.0924184638036
 20
-531.07847895283055
 30
0.0
 40
1.9998779296875
  0
HATCH
  5
99
100
AcDbEntity
  8
0
370
              -2
390
0
  6
Continuous
 62
               0
100
AcDbHatch
 10
0.0
 20
0.0
 30
0.0
210
0.0
220
0.0
230
1.0
  2
SOLID
 70
               1
 71
               1
 91
        1
 92
        1
 93
        1
 72
               2
 10
-708.0924184638036
 20
-531.07847895283055
 40
1.9998779296875
 50
0.0
 51
360.0
 73
               0
 97
        1
330
98
 75
               0
 76
               1
 98
        1
 10
0.0
 20
0.0
  0
CIRCLE
  5
9A
102
{ACAD_REACTORS
330
9B
102
}
100
AcDbEntity
  8
0
370
              -2
390
0
  6
Continuous
 62
               0
100
AcDbCircle
 10
-708.0924184638036
 20
-556.07847895283032
 30
0.0
 40
1.9998779296875
  0
HATCH
  5
9B
100
AcDbEntity
  8
0
370
              -2
390
0
  6
Continuous
 62
               0
100
AcDbHatch
 10
0.0
 20
0.0
 30
0.0
210
0.0
220
0.0
230
1.0
  2
SOLID
 70
               1
 71
               1
 91
        1
 92
        1
 93
        1
 72
               2
 10
-708.0924184638036
 20
-556.07847895283032
 40
1.9998779296875
 50
0.0
 51
360.0
 73
               0
 97
        1
330
9A
 75
               0
 76
               1
 98
        1
 10
0.0
 20
0.0
  0
MTEXT
  5
9C
100
AcDbEntity
  8
0
390
0
 62
               0
100
AcDbMText
 10
-741.97003565130365
 20
-593.64270833333285
 30
0.0
 40
24.432617187500004
 41
0.0
 71
               1
 72
               1
  1
25
  7
ＭＳ ゴシック
 11
0.0
 21
1.0
 31
0.0
 73
               1
 44
0.7828267384257843
  0
POINT
  5
9D
100
AcDbEntity
  8
Defpoints
370
               0
390
0
 62
               0
100
AcDbPoint
 10
-477.59241846380326
 20
-556.07847895283032
 30
0.0
  0
POINT
  5
9E
100
AcDbEntity
  8
Defpoints
370
               0
390
0
 62
               0
100
AcDbPoint
 10
-531.24212630401132
 20
-531.07847895283055
 30
0.0
  0
POINT
  5
9F
100
AcDbEntity
  8
Defpoints
370
               0
390
0
 62
               0
100
AcDbPoint
 10
-708.0924184638036
 20
-531.07847895283055
 30
0.0
  0
ENDBLK
  5
A0
100
AcDbEntity
  8
notes
390
0
100
AcDbBlockEnd
  0
BLOCK
  5
A1
100
AcDbEntity
  8
notes
390
0
100
AcDbBlockBegin
  2
*D9
 70
               1
 10
0.0
 20
0.0
 30
0.0
  3
*D9
  1

  0
LINE
  5
A2
100
AcDbEntity
  8
0
370
              -2
390
0
  6
Continuous
 62
               0
100
AcDbLine
 10
-468.09241846380326
 20
-386.07847895283135
 30
0.0
 11
-452.91248610207981
 21
-386.07847895283135
 31
0.0
  0
LINE
  5
A3
100
AcDbEntity
  8
0
370
              -2
390
0
  6
Continuous
 62
               0
100
AcDbLine
 10
-468.09241846380326
 20
-506.07847895283066
 30
0.0
 11
-452.91248610207981
 21
-506.07847895283066
 31
0.0
  0
LINE
  5
A4
100
AcDbEntity
  8
0
370
              -2
390
0
  6
Continuous
 62
               0
100
AcDbLine
 10
-452.91248610207981
 20
-386.07847895283135
 30
0.0
 11
-452.91248610207981
 21
-237.01770833333356
 31
0.0
  0
LINE
  5
A5
100
AcDbEntity
  8
0
370
              -2
390
0
  6
Continuous
 62
               0
100
AcDbLine
 10
-452.91248610207981
 20
-386.07847895283135
 30
0.0
 11
-452.91248610207981
 21
-506.07847895283066
 31
0.0
  0
CIRCLE
  5
A6
102
{ACAD_REACTORS
330
A7
102
}
100
AcDbEntity
  8
0
370
              -2
390
0
  6
Continuous
 62
               0
100
AcDbCircle
 10
-452.91248610207981
 20
-386.07847895283135
 30
0.0
 40
1.9998779296875
  0
HATCH
  5
A7
100
AcDbEntity
  8
0
370
              -2
390
0
  6
Continuous
 62
               0
100
AcDbHatch
 10
0.0
 20
0.0
 30
0.0
210
0.0
220
0.0
230
1.0
  2
SOLID
 70
               1
 71
               1
 91
        1
 92
        1
 93
        1
 72
               2
 10
-452.91248610207981
 20
-386.07847895283135
 40
1.9998779296875
 50
0.0
 51
360.0
 73
               0
 97
        1
330
A6
 75
               0
 76
               1
 98
        1
 10
0.0
 20
0.0
  0
CIRCLE
  5
A8
102
{ACAD_REACTORS
330
A9
102
}
100
AcDbEntity
  8
0
370
              -2
390
0
  6
Continuous
 62
               0
100
AcDbCircle
 10
-452.91248610207981
 20
-506.07847895283066
 30
0.0
 40
1.9998779296875
  0
HATCH
  5
A9
100
AcDbEntity
  8
0
370
              -2
390
0
  6
Continuous
 62
               0
100
AcDbHatch
 10
0.0
 20
0.0
 30
0.0
210
0.0
220
0.0
230
1.0
  2
SOLID
 70
               1
 71
               1
 91
        1
 92
        1
 93
        1
 72
               2
 10
-452.91248610207981
 20
-506.07847895283066
 40
1.9998779296875
 50
0.0
 51
360.0
 73
               0
 97
        1
330
A8
 75
               0
 76
               1
 98
        1
 10
0.0
 20
0.0
  0
MTEXT
  5
AA
100
AcDbEntity
  8
0
390
0
 62
               0
100
AcDbMText
 10
-486.7901032895798
 20
-379.89270833333353
 30
0.0
 40
24.432617187500004
 41
0.0
 71
               1
 72
               1
  1
120(深さ)
  7
ＭＳ ゴシック
 11
0.0
 21
1.0
 31
0.0
 73
               1
 44
0.7828267384257843
  0
POINT
  5
AB
100
AcDbEntity
  8
Defpoints
370
               0
390
0
 62
               0
100
AcDbPoint
 10
-443.09241846380326
 20
-506.07847895283066
 30
0.0
  0
POINT
  5
AC
100
AcDbEntity
  8
Defpoints
370
               0
390
0
 62
               0
100
AcDbPoint
 10
-443.09241846380326
 20
-386.07847895283135
 30
0.0
  0
POINT
  5
AD
100
AcDbEntity
  8
Defpoints
370
               0
390
0
 62
               0
100
AcDbPoint
 10
-452.91248610207981
 20
-386.07847895283135
 30
0.0
  0
ENDBLK
  5
AE
100
AcDbEntity
  8
notes
390
0
100
AcDbBlockEnd
  0
ENDSEC
  0
SECTION
  2
ENTITIES
  0
MTEXT
  5
AF
100
AcDbEntity
  8
template
390
0
 62
               7
100
AcDbMText
 10
-967.99999999975921
 20
-1147.4176292337004
 30
0.0
 40
16.288411458333332
 41
0.0
 71
               1
 72
               1
  1
品名
  7
ＭＳ ゴシック
 73
               1
 44
0.7828267384257843
  0
MTEXT
  5
B0
100
AcDbEntity
  8
template
390
0
 62
               7
100
AcDbMText
 10
-967.99999999975921
 20
-1232.4176292337004
 30
0.0
 40
16.288411458333332
 41
0.0
 71
               1
 72
               1
  1
仕様
  7
ＭＳ ゴシック
 73
               1
 44
0.7828267384257843
  0
LINE
  5
B1
100
AcDbEntity
  8
template
370
               5
390
0
  6
Continuous
 62
               7
100
AcDbLine
 10
974.99999999975876
 20
-1224.0027073587005
 30
0.0
 11
-975.00000000024124
 21
-1224.0027073587005
 31
0.0
  0
LWPOLYLINE
  5
B2
100
AcDbEntity
  8
template
370
               5
390
0
  6
Continuous
 62
               7
100
AcDbPolyline
 90
        5
 70
             128
 10
975.00000000024124
 20
1405.9972926412995
 10
-974.99999999975921
 20
1405.9972926412995
 10
-974.99999999975921
 20
-1394.0027073587005
 10
975.00000000024124
 20
-1394.0027073587005
 10
975.00000000024124
 20
1405.9972926412995
  0
LINE
  5
B3
100
AcDbEntity
  8
template
370
               5
390
0
  6
Continuous
 62
               7
100
AcDbLine
 10
974.99999999975876
 20
-1139.0027073587005
 30
0.0
 11
-975.00000000024124
 21
-1139.0027073587005
 31
0.0
  0
LINE
  5
B4
100
AcDbEntity
  8
template
370
               5
390
0
  6
Continuous
 62
               7
100
AcDbLine
 10
975.00000000024124
 20
-1309.0027073587005
 30
0.0
 11
222.00000000024124
 21
-1309.0027073587005
 31
0.0
  0
MTEXT
  5
B5
100
AcDbEntity
  8
template
390
0
 62
               7
100
AcDbMText
 10
251.87140625250089
 20
-1338.9131018320081
 30
0.0
 40
24.432617187500004
 41
0.0
 71
               1
 72
               1
  1
大洋金物株式会社 ティーフォルム事業部
  7
ＭＳ ゴシック
 73
               1
 44
0.7828267384257843
  0
INSERT
  5
B6
100
AcDbEntity
  8
template
390
0
 62
               7
100
AcDbBlockReference
  2
グループ
 10
-0.000146277223493
 20
-0.0000586332090791
 30
0.0
  0
MTEXT
  5
B7
100
AcDbEntity
  8
template
390
0
 62
               7
100
AcDbMText
 10
784.00000000049999
 20
-1261.0000901712006
 30
0.0
 40
24.432617187500004
 41
0.0
 71
               1
 72
               1
  1
1:10
  7
ＭＳ ゴシック
 73
               1
 44
0.7828267384257843
  0
MTEXT
  5
B8
100
AcDbEntity
  8
template
390
0
 62
               7
100
AcDbMText
 10
731.00000000049999
 20
-1232.4176292337004
 30
0.0
 40
16.288411458333332
 41
0.0
 71
               1
 72
               1
  1
縮尺
  7
ＭＳ ゴシック
 73
               1
 44
0.7828267384257843
  0
LINE
  5
B9
100
AcDbEntity
  8
template
370
               5
390
0
  6
Continuous
 62
               7
100
AcDbLine
 10
724.00000000049999
 20
-1309.0027073587005
 30
0.0
 11
724.00000000049999
 21
-1224.0027073587005
 31
0.0
  0
MTEXT
  5
BA
100
AcDbEntity
  8
template
390
0
 62
               7
100
AcDbMText
 10
480.00000000049999
 20
-1232.4176292337004
 30
0.0
 40
16.288411458333332
 41
0.0
 71
               1
 72
               1
  1
容量
  7
ＭＳ ゴシック
 73
               1
 44
0.7828267384257843
  0
MTEXT
  5
BB
100
AcDbEntity
  8
template
390
0
 62
               7
100
AcDbMText
 10
533.00000000049999
 20
-1261.0000901712006
 30
0.0
 40
24.432617187500004
 41
0.0
 71
               1
 72
               1
  1
1.6L
  7
ＭＳ ゴシック
 73
               1
 44
0.7828267384257843
  0
LINE
  5
BC
100
AcDbEntity
  8
template
370
               5
390
0
  6
Continuous
 62
               7
100
AcDbLine
 10
473.00000000049999
 20
-1309.0027073587005
 30
0.0
 11
473.00000000049999
 21
-1224.0027073587005
 31
0.0
  0
MTEXT
  5
BD
100
AcDbEntity
  8
template
390
0
 62
               7
100
AcDbMText
 10
229.00000000049999
 20
-1147.4176292337004
 30
0.0
 40
16.288411458333332
 41
0.0
 71
               1
 72
               1
  1
品番
  7
ＭＳ ゴシック
 73
               1
 44
0.7828267384257843
  0
MTEXT
  5
BE
100
AcDbEntity
  8
template
390
0
 62
               7
100
AcDbMText
 10
229.00000000049999
 20
-1232.4176292337004
 30
0.0
 40
16.288411458333332
 41
0.0
 71
               1
 72
               1
  1
重量
  7
ＭＳ ゴシック
 73
               1
 44
0.7828267384257843
  0
MTEXT
  5
BF
100
AcDbEntity
  8
template
390
0
 62
               7
100
AcDbMText
 10
282.00000000049999
 20
-1176.0000901712006
 30
0.0
 40
24.432617187500004
 41
0.0
 71
               1
 72
               1
  1
FAA70-0207
  7
ＭＳ ゴシック
 73
               1
 44
0.7828267384257843
  0
MTEXT
  5
C0
100
AcDbEntity
  8
template
390
0
 62
               7
100
AcDbMText
 10
282.00000000049999
 20
-1261.0000901712006
 30
0.0
 40
24.432617187500004
 41
0.0
 71
               1
 72
               1
  1
4.8kg
  7
ＭＳ ゴシック
 73
               1
 44
0.7828267384257843
  0
LINE
  5
C1
100
AcDbEntity
  8
template
370
               5
390
0
  6
Continuous
 62
               7
100
AcDbLine
 10
222.00000000049999
 20
-1394.0027073587005
 30
0.0
 11
222.00000000049999
 21
-1139.0027073587005
 31
0.0
  0
MTEXT
  5
C2
100
AcDbEntity
  8
template
390
0
 62
               7
100
AcDbMText
 10
-914.99999999975887
 20
-1176.0000901712006
 30
0.0
 40
24.432617187500004
 41
0.0
 71
               1
 72
               1
  1
手洗器 -DURAVIT,Philippe Starck E1-
  7
ＭＳ ゴシック
 73
               1
 44
0.7828267384257843
  0
MTEXT
  5
C3
100
AcDbEntity
  8
template
390
0
 62
               7
100
AcDbMText
 10
-914.99999999975887
 20
-1261.0000901712006
 30
0.0
 40
24.432617187500004
 41
0.0
 71
               1
 72
               1
  1
カウンタートップ/オーバーフロー付き/カウンター固定金具付属/\P陶器/ホワイト
  7
ＭＳ ゴシック
 73
               1
 44
1.1307497332816883
  0
MTEXT
  5
C4
100
AcDbEntity
  8
template
390
0
 62
               7
100
AcDbMText
 10
-974.99999999955605
 20
-1405.8565294155571
 30
0.0
 40
21.717881944444446
 41
0.0
 71
               1
 72
               1
  1
100707SH
  7
ＭＳ ゴシック
 73
               1
 44
0.7828267384257843
  0
MTEXT
  5
C5
100
AcDbEntity
  8
notes
390
0
 62
               7
100
AcDbMText
 10
83.816951499169974
 20
265.86281485407937
 30
0.0
 40
21.828125
 41
702.07575683416337
 71
               1
 72
               1
  1
※陶器製品には寸法公差があります。\P   洗面器の収め方をご確認の上、必ず現物を合わせて\P   カウンターの切込を行ってください。
  7
MS UI Gothic
 73
               1
 44
1.1683096020445418
  0
MTEXT
  5
C6
100
AcDbEntity
  8
notes
390
0
 62
               7
100
AcDbMText
 10
303.79082806397184
 20
995.90134467856967
 30
0.0
 40
21.828125
 41
0.0
 71
               1
 72
               1
  1
カウンター切込寸法
  7
MS UI Gothic
 73
               1
 44
0.8762322015334064
  0
DIMENSION
  5
C7
100
AcDbEntity
  8
notes
370
               5
390
0
  6
Continuous
 62
               7
100
AcDbDimension
  2
*D3
 10
358.4872409981333
 20
658.46613499414605
 30
0.0
 11
648.95337599227923
 21
427.99999999999989
 31
0.0
 70
               3
 71
               5
 72
               1
 41
1.0
 42
0.0
  3
tfrom線あり
100
AcDbDiametricDimension
 15
453.94665645831662
 25
563.00671953396272
 35
0.0
 40
190.92833377643066
1001
ACAD
1000
DSTYLE
1002
{
1070
             289
1070
               0
1070
             342
1005
40
1070
             340
1005
2C
1070
              73
1070
               1
1070
              74
1070
               1
1070
              75
1070
               1
1070
              76
1070
               1
1070
               3
1000

1070
             174
1070
               0
1070
             147
1040
5.0
1002
}
  0
DIMENSION
  5
C8
100
AcDbEntity
  8
notes
370
               5
390
0
  6
Continuous
 62
               7
100
AcDbDimension
  2
*D4
 10
-278.0924184638032
 20
-656.07847895283123
 30
0.0
 11
-360.5924184638032
 21
-656.07847895283123
 31
0.0
 71
               5
 72
               1
 41
1.0
 42
0.0
  3
tfrom線あり
100
AcDbAlignedDimension
 13
-443.0924184638032
 23
-556.07847895283044
 33
0.0
 14
-278.0924184638032
 24
-391.07847895283112
 34
0.0
100
AcDbRotatedDimension
1001
ACAD
1000
DSTYLE
1002
{
1070
             279
1070
               2
1070
             340
1005
2C
1070
             147
1040
5.0
1002
}
  0
DIMENSION
  5
C9
100
AcDbEntity
  8
notes
370
               5
390
0
  6
Continuous
 62
               7
100
AcDbDimension
  2
*D5
 10
-278.0924184638032
 20
875.73642726405433
 30
0.0
 11
-443.09241846380337
 21
875.73642726405433
 31
0.0
 71
               5
 72
               1
 41
1.0
 42
0.0
  3
tfrom線あり
100
AcDbAlignedDimension
 13
-608.09241846380348
 23
635.73642726405433
 33
0.0
 14
-278.0924184638032
 24
635.73642726405433
 34
0.0
100
AcDbRotatedDimension
1001
ACAD
1000
DSTYLE
1002
{
1070
             279
1070
               2
1070
             340
1005
2C
1070
             147
1040
5.0
1002
}
  0
DIMENSION
  5
CA
100
AcDbEntity
  8
notes
370
               5
390
0
  6
Continuous
 62
               7
100
AcDbDimension
  2
*D6
 10
-178.0924184638032
 20
-386.07847895283135
 30
0.0
 11
-178.0924184638032
 21
-471.07847895283089
 31
0.0
 71
               5
 72
               1
 41
1.0
 42
0.0
  3
tfrom線あり
100
AcDbAlignedDimension
 13
-408.5924184638032
 23
-556.07847895283055
 33
0.0
 14
-282.0924184638032
 24
-386.07847895283135
 34
0.0
 50
90.0
100
AcDbRotatedDimension
1001
ACAD
1000
DSTYLE
1002
{
1070
             279
1070
               2
1070
             340
1005
2C
1070
             147
1040
5.0
1002
}
  0
DIMENSION
  5
CB
100
AcDbEntity
  8
notes
370
               5
390
0
  6
Continuous
 62
               7
100
AcDbDimension
  2
*D7
 10
-708.0924184638036
 20
-386.07847895283135
 30
0.0
 11
-708.0924184638036
 21
-458.57847895283089
 31
0.0
 71
               5
 72
               1
 41
1.0
 42
0.0
  3
tfrom線あり
100
AcDbAlignedDimension
 13
-531.24212630401132
 23
-531.07847895283055
 33
0.0
 14
-604.0924184638036
 24
-386.07847895283135
 34
0.0
 50
90.0
100
AcDbRotatedDimension
1001
ACAD
1000
DSTYLE
1002
{
1070
             279
1070
               2
1070
             340
1005
2C
1070
             147
1040
5.0
1002
}
  0
DIMENSION
  5
CC
100
AcDbEntity
  8
notes
370
               5
390
0
  6
Continuous
 62
               7
100
AcDbDimension
  2
*D8
 10
-708.0924184638036
 20
-531.07847895283055
 30
0.0
 11
-713.0924184638036
 21
-561.89270833333285
 31
0.0
 70
             128
 71
               5
 72
               1
 41
1.0
 42
0.0
  3
tfrom線あり
100
AcDbAlignedDimension
 13
-477.59241846380326
 23
-556.07847895283032
 33
0.0
 14
-531.24212630401132
 24
-531.07847895283055
 34
0.0
 50
90.0
100
AcDbRotatedDimension
1001
ACAD
1000
DSTYLE
1002
{
1070
             279
1070
               2
1070
             340
1005
2C
1070
             174
1070
               0
1070
             147
1040
5.0
1002
}
  0
DIMENSION
  5
CD
100
AcDbEntity
  8
notes
370
               5
390
0
  6
Continuous
 62
               7
100
AcDbDimension
  2
*D9
 10
-452.91248610207981
 20
-386.07847895283135
 30
0.0
 11
-457.91248610207981
 21
-379.89270833333353
 31
0.0
 70
             128
 71
               5
 72
               1
 41
1.0
 42
0.0
  3
tfrom線あり
100
AcDbAlignedDimension
 13
-443.09241846380326
 23
-506.07847895283066
 33
0.0
 14
-443.09241846380326
 24
-386.07847895283135
 34
0.0
 50
90.0
100
AcDbRotatedDimension
1001
ACAD
1000
DSTYLE
1002
{
1070
             279
1070
               2
1070
             340
1005
2C
1070
               3
1000
<>(深さ)
1070
             174
1070
               0
1070
             147
1040
5.0
1002
}
  0
CIRCLE
  5
CE
100
AcDbEntity
  8
FAA70-0207
370
              15
390
0
  6
Continuous
 62
               7
100
AcDbCircle
 10
-443.0924184638032
 20
610.73642726405433
 30
0.0
 40
37.5
  0
CIRCLE
  5
CF
100
AcDbEntity
  8
FAA70-0207
370
              15
390
0
  6
Continuous
 62
               7
100
AcDbCircle
 10
-443.0924184638032
 20
610.73642726405433
 30
0.0
 40
26.0
  0
CIRCLE
  5
D0
100
AcDbEntity
  8
FAA70-0207
370
              15
390
0
  6
Continuous
 62
               7
100
AcDbCircle
 10
-443.0924184638032
 20
610.73642726405433
 30
0.0
 40
165.0
  0
SPLINE
  5
D1
100
AcDbEntity
  8
FAA70-0207
370
              15
390
0
  6
Continuous
 62
               7
100
AcDbSpline
210
0.0
220
0.0
230
1.0
 70
               9
 71
               2
 72
              34
 73
              31
 74
               0
 42
0.000001
 43
0.000001
 40
0.0
 40
0.0
 40
0.0
 40
1.0
 40
2.0
 40
3.0
 40
4.0
 40
5.0
 40
6.0
 40
6.0
 40
7.0
 40
8.0
 40
9.0
 40
10.0
 40
11.0
 40
12.0
 40
13.0
 40
13.0
 40
14.0
 40
15.0
 40
16.0
 40
17.0
 40
18.0
 40
19.0
 40
19.0
 40
20.0
 40
21.0
 40
22.0
 40
23.0
 40
24.0
 40
25.0
 40
26.0
 40
26.0
 40
26.0
 10
-460.76764460939563
 20
736.45485174322096
 30
0.0
 10
-460.74365851791299
 20
735.44107982749563
 30
0.0
 10
-459.82569212326729
 20
733.88832849008975
 30
0.0
 10
-458.55049965666581
 20
732.66532430141456
 30
0.0
 10
-456.77722870366898
 20
731.54630278395132
 30
0.0
 10
-453.28913400078534
 20
730.05650827404429
 30
0.0
 10
-447.23113880108485
 20
728.88666687780903
 30
0.0
 10
-443.71723305714505
 20
728.8955723390651
 30
0.0
 10
-440.20051491404138
 20
728.88395913126806
 30
0.0
 10
-435.40554476829607
 20
729.81996089302356
 30
0.0
 10
-432.86571518583617
 20
730.58364312312654
 30
0.0
 10
-430.65723741062112
 20
731.54630278395132
 30
0.0
 10
-428.8839664576243
 20
732.66532430141456
 30
0.0
 10
-427.60877399102282
 20
733.88832849008975
 30
0.0
 10
-426.69080759637711
 20
735.44107982749563
 30
0.0
 10
-426.66682150489447
 20
736.45485174322096
 30
0.0
 10
-426.69080759637711
 20
737.46862365894629
 30
0.0
 10
-427.60877399102282
 20
739.02137499635228
 30
0.0
 10
-428.8839664576243
 20
740.24437918502747
 30
0.0
 10
-430.65723741062112
 20
741.36340070249071
 30
0.0
 10
-434.14533211350476
 20
742.85319521239774
 30
0.0
 10
-440.20332731320525
 20
744.02303660863299
 30
0.0
 10
-443.71723305714505
 20
744.01413114737682
 30
0.0
 10
-447.23395120024873
 20
744.02574435517397
 30
0.0
 10
-452.02892134599404
 20
743.08974259341846
 30
0.0
 10
-454.56875092845394
 20
742.32606036331538
 30
0.0
 10
-456.77722870366898
 20
741.36340070249059
 30
0.0
 10
-458.55049965666575
 20
740.24437918502747
 30
0.0
 10
-459.82569212326729
 20
739.02137499635228
 30
0.0
 10
-460.74365851791305
 20
737.46862365894629
 30
0.0
 10
-460.76764460939563
 20
736.45485174322096
 30
0.0
  0
LWPOLYLINE
  5
D2
100
AcDbEntity
  8
FAA70-0207
370
              15
390
0
  6
Continuous
 62
               7
100
AcDbPolyline
 90
       18
 70
             129
 10
-278.0924184638032
 20
-391.07847895283112
 10
-278.0924184638032
 20
-390.07847895283135
 42
0.414213562373095
 10
-282.0924184638032
 20
-386.07847895283135
 10
-604.0924184638036
 20
-386.07847895283135
 42
0.4142135623730909
 10
-608.0924184638036
 20
-390.07847895283135
 10
-608.0924184638036
 20
-391.07847895283135
 42
0.0428720272341764
 10
-534.59993857494896
 20
-529.25220771998181
 42
0.2543504553538928
 10
-531.24212630401132
 20
-531.07847895283055
 10
-485.59241846380326
 20
-531.07847895283055
 42
-0.414213562373095
 10
-480.5924184638032
 20
-536.07847895283055
 10
-480.5924184638032
 20
-553.07847895283032
 42
0.414213562373095
 10
-477.59241846380326
 20
-556.07847895283032
 10
-408.5924184638032
 20
-556.07847895283055
 42
0.414213562373095
 10
-405.5924184638032
 20
-553.07847895283055
 10
-405.5924184638032
 20
-536.07847895283055
 42
-0.414213562373095
 10
-400.5924184638032
 20
-531.07847895283055
 10
-354.94271062359513
 20
-531.07847895283055
 42
0.2543504553539256
 10
-351.58489835265772
 20
-529.25220771998158
 42
0.0428720272341756
  0
LINE
  5
D3
100
AcDbEntity
  8
FAA70-0207
370
              15
390
0
  6
Continuous
 62
               7
100
AcDbLine
 10
-485.59241846380326
 20
-531.07847895283055
 30
0.0
 11
-400.5924184638032
 21
-531.07847895283055
 31
0.0
  0
ARC
  5
D4
100
AcDbEntity
  8
FAA70-0207
370
              15
390
0
  6
STYLE_12
 62
               7
100
AcDbCircle
 10
-481.50089745456359
 20
-509.55154218464213
 30
0.0
 40
4.3063602371994056
100
AcDbArc
 50
64.612489826990569
 51
85.387510172774967
  0
ARC
  5
D5
100
AcDbEntity
  8
FAA70-0207
370
              15
390
0
  6
STYLE_12
 62
               7
100
AcDbCircle
 10
-472.0924184638032
 20
-513.49117945247031
 30
0.0
 40
2.9999999999999432
100
AcDbArc
 50
0.0
 51
59.9999999999689
  0
LINE
  5
D6
100
AcDbEntity
  8
FAA70-0207
370
              15
390
0
  6
STYLE_12
 62
               7
100
AcDbLine
 10
-470.59241846380178
 20
-510.89310324111784
 30
0.0
 11
-479.65459629029272
 21
-505.66105243354787
 31
0.0
  0
ARC
  5
D7
100
AcDbEntity
  8
FAA70-0207
370
              15
390
0
  6
STYLE_12
 62
               7
100
AcDbCircle
 10
-613.82766678957125
 20
-417.90838111349285
 30
0.0
 40
36.105356732049053
100
AcDbArc
 50
22.827907206761214
 51
58.62263700268187
  0
ARC
  5
D8
100
AcDbEntity
  8
FAA70-0207
370
              15
390
0
  6
STYLE_12
 62
               7
100
AcDbCircle
 10
-598.75555664614649
 20
-393.71053311633432
 30
0.0
 40
7.6034387252301094
100
AcDbArc
 50
60.647881238218716
 51
93.038606066626784
  0
LINE
  5
D9
100
AcDbEntity
  8
FAA70-0207
370
              15
390
0
  6
STYLE_12
 62
               7
100
AcDbLine
 10
-469.09241846380326
 20
-513.49117945247031
 30
0.0
 11
-469.09241846380326
 21
-556.07847895283021
 31
0.0
  0
ARC
  5
DA
100
AcDbEntity
  8
FAA70-0207
370
              15
390
0
  6
STYLE_12
 62
               7
100
AcDbCircle
 10
-404.68393947304281
 20
-509.5515421846427
 30
0.0
 40
4.3063602371993506
100
AcDbArc
 50
94.61248982722654
 51
115.38751017301014
  0
ARC
  5
DB
100
AcDbEntity
  8
FAA70-0207
370
              15
390
0
  6
STYLE_12
 62
               7
100
AcDbCircle
 10
-414.0924184638032
 20
-513.49117945247087
 30
0.0
 40
3.0000000000000497
100
AcDbArc
 50
120.00000000003206
 51
180.0
  0
LINE
  5
DC
100
AcDbEntity
  8
FAA70-0207
370
              15
390
0
  6
STYLE_12
 62
               7
100
AcDbLine
 10
-415.59241846380468
 20
-510.89310324111841
 30
0.0
 11
-406.53024063731363
 21
-505.66105243354843
 31
0.0
  0
ARC
  5
DD
100
AcDbEntity
  8
FAA70-0207
370
              15
390
0
  6
STYLE_12
 62
               7
100
AcDbCircle
 10
-272.35717013803549
 20
-417.90838111349342
 30
0.0
 40
36.105356732049017
100
AcDbArc
 50
121.37736299731806
 51
157.17209279323876
  0
ARC
  5
DE
100
AcDbEntity
  8
FAA70-0207
370
              15
390
0
  6
STYLE_12
 62
               7
100
AcDbCircle
 10
-287.42928028146019
 20
-393.71053311633489
 30
0.0
 40
7.6034387252301379
100
AcDbArc
 50
86.961393933373216
 51
119.35211876178128
  0
LINE
  5
DF
100
AcDbEntity
  8
FAA70-0207
370
              15
390
0
  6
STYLE_12
 62
               7
100
AcDbLine
 10
-417.0924184638032
 20
-513.49117945247087
 30
0.0
 11
-417.0924184638032
 21
-556.07847895283078
 31
0.0
  0
LINE
  5
E0
100
AcDbEntity
  8
FAA70-0207
370
              15
390
0
  6
STYLE_12
 62
               7
100
AcDbLine
 10
-481.15459629029425
 20
-505.25912864490044
 30
0.0
 11
-404.33763830872942
 21
-505.25912864490044
 31
0.0
  0
CIRCLE
  5
E1
100
AcDbEntity
  8
FAA70-0207
370
               5
390
0
  6
STYLE_12
 62
               7
100
AcDbCircle
 10
406.21694872822502
 20
610.73642726405433
 30
0.0
 40
26.0
  0
CIRCLE
  5
E2
100
AcDbEntity
  8
FAA70-0207
370
               5
390
0
  6
STYLE_12
 62
               7
100
AcDbCircle
 10
406.21694872822502
 20
610.73642726405433
 30
0.0
 40
164.99999999999932
  0
ARC
  5
E3
100
AcDbEntity
  8
FAA70-0207
370
              15
390
0
  6
STYLE_12
 62
               7
100
AcDbCircle
 10
-288.38543864655475
 20
-216.80796809944007
 30
0.0
 40
346.93518149461323
100
AcDbArc
 50
212.63417000793632
 51
236.24557100298122
  0
ARC
  5
E4
100
AcDbEntity
  8
FAA70-0207
370
              15
390
0
  6
STYLE_12
 62
               7
100
AcDbCircle
 10
-597.79939828105194
 20
-216.80796809944007
 30
0.0
 40
346.93518149461283
100
AcDbArc
 50
303.75442899701881
 51
327.36582999206371
  0
CIRCLE
  5
E5
100
AcDbEntity
  8
FAA70-0207
370
              15
390
0
  6
Continuous
 62
               7
100
AcDbCircle
 10
406.21694872822502
 20
610.73642726405433
 30
0.0
 40
67.499999999999829
  0
ENDSEC
  0
SECTION
  2
OBJECTS
  0
DICTIONARY
  5
19
100
AcDbDictionary
280
               0
281
               1
  3
ACAD_GROUP
350
1A
  3
ACAD_MLINESTYLE
350
1B
  3
ACAD_LAYOUT
350
1E
  3
ACAD_PLOTSETTINGS
350
22
  3
ACAD_PLOTSTYLENAME
350
1F
  0
DICTIONARY
  5
1A
102
{ACAD_REACTORS
330
19
102
}
100
AcDbDictionary
280
               0
281
               1
  0
DICTIONARY
  5
1B
102
{ACAD_REACTORS
330
19
102
}
100
AcDbDictionary
280
               0
281
               1
  3
Standard
350
1C
  0
MLINESTYLE
  5
1C
102
{ACAD_REACTORS
330
1B
102
}
100
AcDbMlineStyle
  2
Standard
 70
               0
  3

 62
               0
 51
90.0
 52
90.0
 71
               2
 49
0.5
 62
             256
  6
ByLayer
 49
-0.5
 62
             256
  6
ByLayer
  0
ACDBDICTIONARYWDFLT
  5
1F
102
{ACAD_REACTORS
330
19
102
}
100
AcDbDictionary
281
               1
  3
Normal
350
1D
100
AcDbDictionaryWithDefault
340
1D
  0
ACDBPLACEHOLDER
  5
1D
102
{ACAD_REACTORS
330
1F
102
}
  0
LAYOUT
  5
20
102
{ACAD_REACTORS
330
1E
102
}
100
AcDbPlotSettings
  1

  2

  4

  6

 40
0.0
 41
0.0
 42
0.0
 43
0.0
 44
0.0
 45
0.0
 46
0.0
 47
0.0
 48
0.0
 49
0.0
140
0.0
141
0.0
142
1.0
143
1.0
 70
            1024
 72
               0
 73
               0
 74
               0
  7

 75
               0
147
1.0
148
0.0
149
0.0
100
AcDbLayout
  1
Model
 70
               0
 71
               0
 10
0.0
 20
0.0
 11
0.0
 21
0.0
 12
0.0
 22
0.0
 32
0.0
 14
0.0
 24
0.0
 34
0.0
 15
0.0
 25
0.0
 35
0.0
146
0.0
 13
0.0
 23
0.0
 33
0.0
 16
0.0
 26
0.0
 36
0.0
 17
0.0
 27
0.0
 37
0.0
 76
               0
330
A
331
0
345
0
346
0
  0
LAYOUT
  5
21
102
{ACAD_REACTORS
330
1E
102
}
100
AcDbPlotSettings
  1

  2

  4

  6

 40
0.0
 41
0.0
 42
0.0
 43
0.0
 44
0.0
 45
0.0
 46
0.0
 47
0.0
 48
0.0
 49
0.0
140
0.0
141
0.0
142
1.0
143
1.0
 70
               0
 72
               0
 73
               0
 74
               0
  7

 75
               0
147
1.0
148
0.0
149
0.0
100
AcDbLayout
  1
Layout1
 70
               0
 71
               0
 10
0.0
 20
0.0
 11
0.0
 21
0.0
 12
0.0
 22
0.0
 32
0.0
 14
0.0
 24
0.0
 34
0.0
 15
0.0
 25
0.0
 35
0.0
146
0.0
 13
0.0
 23
0.0
 33
0.0
 16
0.0
 26
0.0
 36
0.0
 17
0.0
 27
0.0
 37
0.0
 76
               0
330
B
331
0
345
0
346
0
  0
DICTIONARY
  5
1E
102
{ACAD_REACTORS
330
19
102
}
100
AcDbDictionary
280
               0
281
               1
  3
Layout1
350
21
  3
Model
350
20
  0
DICTIONARY
  5
22
102
{ACAD_REACTORS
330
19
102
}
100
AcDbDictionary
280
               0
281
               1
  0
ENDSEC
  0
EOF
