  0
SECTION
  2
HEADER
  9
$ACADVER
  1
AC1015
  9
$ACADMAINTVER
 70
               6
  9
$DWGCODEPAGE
  3
ANSI_932
  9
$INSBASE
 10
0.0
 20
0.0
 30
0.0
  9
$EXTMIN
 10
-975.00000000024124
 20
-1431.5255224711132
 30
-14.834305555555554
  9
$EXTMAX
 10
975.00000000024124
 20
1405.9972926412993
 30
14.834305555555554
  9
$LIMMIN
 10
0.0
 20
0.0
  9
$LIMMAX
 10
0.0
 20
0.0
  9
$ORTHOMODE
 70
               0
  9
$REGENMODE
 70
               1
  9
$FILLMODE
 70
               1
  9
$QTEXTMODE
 70
               0
  9
$MIRRTEXT
 70
               1
  9
$LTSCALE
 40
12.699999999999999
  9
$ATTMODE
 70
               1
  9
$TEXTSIZE
 40
0.2
  9
$TRACEWID
 40
1.0
  9
$TEXTSTYLE
  7
Standard
  9
$CLAYER
  8
notes
  9
$CELTYPE
  6
Continuous
  9
$CECOLOR
 62
             256
  9
$CELTSCALE
 40
1.0
  9
$DISPSILH
 70
               0
  9
$DIMSCALE
 40
1.0
  9
$DIMASZ
 40
31.75
  9
$DIMEXO
 40
0.0
  9
$DIMDLI
 40
6.9999999999999396
  9
$DIMRND
 40
0.0
  9
$DIMDLE
 40
0.0
  9
$DIMEXE
 40
19.999999999996199
  9
$DIMTP
 40
0.0
  9
$DIMTM
 40
0.0
  9
$DIMTXT
 40
24.432617187500004
  9
$DIMCEN
 40
0.0
  9
$DIMTSZ
 40
0.0
  9
$DIMTOL
 70
               0
  9
$DIMLIM
 70
               0
  9
$DIMTIH
 70
               0
  9
$DIMTOH
 70
               0
  9
$DIMSE1
 70
               0
  9
$DIMSE2
 70
               0
  9
$DIMTAD
 70
               1
  9
$DIMZIN
 70
              11
  9
$DIMBLK
  1
VW_FILLEDARROW
  9
$DIMASO
 70
               1
  9
$DIMSHO
 70
               1
  9
$DIMPOST
  1
<>
  9
$DIMAPOST
  1
[]
  9
$DIMALT
 70
               0
  9
$DIMALTD
 70
               1
  9
$DIMALTF
 40
1.0
  9
$DIMLFAC
 40
1.0
  9
$DIMTOFL
 70
               0
  9
$DIMTVP
 40
0.0
  9
$DIMTIX
 70
               1
  9
$DIMSOXD
 70
               0
  9
$DIMSAH
 70
               0
  9
$DIMBLK1
  1

  9
$DIMBLK2
  1

  9
$DIMSTYLE
  2
JIS
  9
$DIMCLRD
 70
               0
  9
$DIMCLRE
 70
               0
  9
$DIMCLRT
 70
               0
  9
$DIMTFAC
 40
1.0
  9
$DIMGAP
 40
1.00000000000108
  9
$DIMJUST
 70
               0
  9
$DIMSD1
 70
               0
  9
$DIMSD2
 70
               0
  9
$DIMTOLJ
 70
               1
  9
$DIMTZIN
 70
              11
  9
$DIMALTZ
 70
              11
  9
$DIMALTTZ
 70
              11
  9
$DIMUPT
 70
               0
  9
$DIMDEC
 70
               1
  9
$DIMTDEC
 70
               1
  9
$DIMALTU
 70
               2
  9
$DIMALTTD
 70
               2
  9
$DIMTXSTY
  7
ＭＳ ゴシック
  9
$DIMAUNIT
 70
               0
  9
$DIMADEC
 70
               2
  9
$DIMALTRND
 40
0.0
  9
$DIMAZIN
 70
               0
  9
$DIMDSEP
 70
              46
  9
$DIMATFIT
 70
               0
  9
$DIMFRAC
 70
               2
  9
$DIMLDRBLK
  1

  9
$DIMLUNIT
 70
               2
  9
$DIMLWD
 70
              -2
  9
$DIMLWE
 70
              -2
  9
$DIMTMOVE
 70
               0
  9
$LUNITS
 70
               2
  9
$LUPREC
 70
               4
  9
$SKETCHINC
 40
0.1
  9
$FILLETRAD
 40
0.0
  9
$AUNITS
 70
               0
  9
$AUPREC
 70
               0
  9
$MENU
  1
acad
  9
$ELEVATION
 40
0.0
  9
$PELEVATION
 40
0.0
  9
$THICKNESS
 40
0.0
  9
$LIMCHECK
 70
               0
  9
$CHAMFERA
 40
0.0
  9
$CHAMFERB
 40
0.0
  9
$CHAMFERC
 40
0.0
  9
$CHAMFERD
 40
0.0
  9
$SKPOLY
 70
               0
  9
$TDCREATE
 40
2456246.500740741
  9
$TDUCREATE
 40
0.000000000
  9
$TDUPDATE
 40
2456246.500740741
  9
$TDUUPDATE
 40
0.000000000
  9
$TDINDWG
 40
0.0000000000
  9
$TDUSRTIMER
 40
0.0000000000
  9
$USRTIMER
 70
               1
  9
$ANGBASE
 50
0.0
  9
$ANGDIR
 70
               0
  9
$PDMODE
 70
               1
  9
$PDSIZE
 40
-2.0
  9
$PLINEWID
 40
0.0
  9
$SPLFRAME
 70
               0
  9
$SPLINETYPE
 70
               6
  9
$SPLINESEGS
 70
               8
  9
$HANDSEED
  5
18D
  9
$SURFTAB1
 70
               6
  9
$SURFTAB2
 70
               6
  9
$SURFTYPE
 70
               6
  9
$SURFU
 70
               6
  9
$SURFV
 70
               6
  9
$UCSBASE
  2

  9
$UCSNAME
  2

  9
$UCSORG
 10
0.0
 20
0.0
 30
0.0
  9
$UCSXDIR
 10
1.0
 20
0.0
 30
0.0
  9
$UCSYDIR
 10
0.0
 20
1.0
 30
0.0
  9
$UCSORTHOREF
  2

  9
$UCSORTHOVIEW
 70
               0
  9
$UCSORGTOP
 10
0.0
 20
0.0
 30
0.0
  9
$UCSORGBOTTOM
 10
0.0
 20
0.0
 30
0.0
  9
$UCSORGLEFT
 10
0.0
 20
0.0
 30
0.0
  9
$UCSORGRIGHT
 10
0.0
 20
0.0
 30
0.0
  9
$UCSORGFRONT
 10
0.0
 20
0.0
 30
0.0
  9
$UCSORGBACK
 10
0.0
 20
0.0
 30
0.0
  9
$PUCSBASE
  2

  9
$PUCSNAME
  2

  9
$PUCSORG
 10
0.0
 20
0.0
 30
0.0
  9
$PUCSXDIR
 10
1.0
 20
0.0
 30
0.0
  9
$PUCSYDIR
 10
0.0
 20
1.0
 30
0.0
  9
$PUCSORTHOREF
  2

  9
$PUCSORTHOVIEW
 70
               0
  9
$PUCSORGTOP
 10
0.0
 20
0.0
 30
0.0
  9
$PUCSORGBOTTOM
 10
0.0
 20
0.0
 30
0.0
  9
$PUCSORGLEFT
 10
0.0
 20
0.0
 30
0.0
  9
$PUCSORGRIGHT
 10
0.0
 20
0.0
 30
0.0
  9
$PUCSORGFRONT
 10
0.0
 20
0.0
 30
0.0
  9
$PUCSORGBACK
 10
0.0
 20
0.0
 30
0.0
  9
$USERI1
 70
               0
  9
$USERI2
 70
               0
  9
$USERI3
 70
               0
  9
$USERI4
 70
               0
  9
$USERI5
 70
               0
  9
$USERR1
 40
0.0
  9
$USERR2
 40
0.0
  9
$USERR3
 40
0.0
  9
$USERR4
 40
0.0
  9
$USERR5
 40
0.0
  9
$WORLDVIEW
 70
               1
  9
$SHADEDGE
 70
               3
  9
$SHADEDIF
 70
              70
  9
$TILEMODE
 70
               1
  9
$MAXACTVP
 70
              64
  9
$PINSBASE
 10
0.0
 20
0.0
 30
0.0
  9
$PLIMCHECK
 70
               0
  9
$PEXTMIN
 10
1.0000000000000000E+20
 20
1.0000000000000000E+20
 30
1.0000000000000000E+20
  9
$PEXTMAX
 10
-1.0000000000000000E+20
 20
-1.0000000000000000E+20
 30
-1.0000000000000000E+20
  9
$PLIMMIN
 10
0.0
 20
0.0
  9
$PLIMMAX
 10
12.0
 20
9.0
  9
$UNITMODE
 70
               0
  9
$VISRETAIN
 70
               0
  9
$PLINEGEN
 70
               1
  9
$PSLTSCALE
 70
               0
  9
$TREEDEPTH
 70
            3020
  9
$CMLSTYLE
  2
Standard
  9
$CMLJUST
 70
               0
  9
$CMLSCALE
 40
1.0
  9
$PROXYGRAPHICS
 70
               0
  9
$MEASUREMENT
 70
               1
  9
$CELWEIGHT
370
               0
  9
$ENDCAPS
280
               0
  9
$JOINSTYLE
280
               0
  9
$LWDISPLAY
290
               1
  9
$INSUNITS
 70
               4
  9
$HYPERLINKBASE
  1

  9
$STYLESHEET
  1

  9
$XEDIT
290
               1
  9
$CEPSNTYPE
380
               0
  9
$PSTYLEMODE
290
               1
  9
$FINGERPRINTGUID
  2

  9
$VERSIONGUID
  2

  9
$EXTNAMES
290
               1
  9
$PSVPSCALE
 40
0.0
  0
ENDSEC
  0
SECTION
  2
CLASSES
  0
CLASS
  1
LWPOLYLINE
  2
AcDbPolyline
  3
AutoCAD 2000
 90
        0
280
               0
281
               1
  0
CLASS
  1
IMAGE
  2
AcDbRasterImage
  3
ISM
 90
      127
280
               0
281
               1
  0
CLASS
  1
OLE2FRAME
  2
AcDbOle2Frame
  3
AutoCAD 2000
 90
        0
280
               0
281
               1
  0
CLASS
  1
HATCH
  2
AcDbHatch
  3
AutoCAD 2000
 90
        0
280
               0
281
               1
  0
CLASS
  1
DICTIONARYVAR
  2
AcDbDictionaryVar
  3
AutoCAD 2000
 90
        0
280
               0
281
               0
  0
CLASS
  1
RASTERVARIABLES
  2
AcDbRasterVariables
  3
ISM
 90
        0
280
               0
281
               0
  0
CLASS
  1
IMAGEDEF
  2
AcDbRasterImageDef
  3
ISM
 90
        0
280
               0
281
               0
  0
CLASS
  1
IMAGEDEF_REACTOR
  2
AcDbRasterImageDefReactor
  3
ISM
 90
        1
280
               0
281
               0
  0
CLASS
  1
IDBUFFER
  2
AcDbIdBuffer
  3
AutoCAD 2000
 90
        0
280
               0
281
               0
  0
CLASS
  1
SPATIAL_FILTER
  2
AcDbSpatialFilter
  3
AutoCAD 2000
 90
        0
280
               0
281
               0
  0
CLASS
  1
XRECORD
  2
AcDbXrecord
  3
AutoCAD 2000
 90
        0
280
               0
281
               0
  0
CLASS
  1
SORTENTSTABLE
  2
AcDbSortentsTable
  3
AutoCAD 2000
 90
        0
280
               0
281
               0
  0
CLASS
  1
LAYER_INDEX
  2
AcDbLayerIndex
  3
AutoCAD 2000
 90
        0
280
               0
281
               0
  0
CLASS
  1
SPATIAL_INDEX
  2
AcDbSpatialIndex
  3
AutoCAD 2000
 90
        0
280
               0
281
               0
  0
CLASS
  1
OBJECT_PTR
  2
CAseDLPNTableRecord
  3
"ASE-LPNTableRecord"
 90
        1
280
               0
281
               0
  0
CLASS
  1
LAYOUT
  2
AcDbLayout
  3
AutoCAD 2000
 90
        0
280
               0
281
               0
  0
CLASS
  1
PLOTSETTINGS
  2
AcDbPlotSettings
  3
AutoCAD 2000
 90
        0
280
               0
281
               0
  0
CLASS
  1
ACDBDICTIONARYWDFLT
  2
AcDbDictionaryWithDefault
  3
AutoCAD 2000
 90
        0
280
               0
281
               0
  0
CLASS
  1
ACDBPLACEHOLDER
  2
AcDbPlaceHolder
  3
AutoCAD 2000
 90
        0
280
               0
281
               0
  0
ENDSEC
  0
SECTION
  2
TABLES
  0
TABLE
  2
VPORT
  5
7
100
AcDbSymbolTable
 70
               1
  0
VPORT
  5
15
100
AcDbSymbolTableRecord
100
AcDbViewportTableRecord
  2
*ACTIVE
 70
               0
 10
0.0
 20
0.0
 11
1.0
 21
1.0
 12
0.0
 22
-12.764114914906941
 13
0.0
 23
0.0
 14
1.0
 24
1.0
 15
0.0
 25
0.0
 16
0.0
 26
0.0
 36
1.0
 17
0.0
 27
0.0
 37
0.0
 40
2837.5228151124124
 41
0.688564
 42
50.0
 43
0.0
 44
0.0
 50
0.0
 51
0.0
 71
               0
 72
            2000
 73
               1
 74
               1
 75
               0
 76
               0
 77
               0
 78
               0
281
               0
 65
               0
110
0.0
120
0.0
130
0.0
111
1.0
121
0.0
131
0.0
112
0.0
122
1.0
132
0.0
345
0
346
0
 79
               0
146
0.0
  0
ENDTAB
  0
TABLE
  2
LTYPE
  5
4
100
AcDbSymbolTable
 70
              28
  0
LTYPE
  5
11
100
AcDbSymbolTableRecord
100
AcDbLinetypeTableRecord
  2
ByBlock
 70
              64
  3

 72
              65
 73
               0
 40
0.0
  0
LTYPE
  5
12
100
AcDbSymbolTableRecord
100
AcDbLinetypeTableRecord
  2
ByLayer
 70
              64
  3

 72
              65
 73
               0
 40
0.0
  0
LTYPE
  5
13
100
AcDbSymbolTableRecord
100
AcDbLinetypeTableRecord
  2
Continuous
 70
              64
  3
Solid line
 72
              65
 73
               0
 40
0.0
  0
LTYPE
  5
34
100
AcDbSymbolTableRecord
100
AcDbLinetypeTableRecord
  2
STYLE_01
 70
               0
  3

 72
              65
 73
               2
 40
0.157472
 49
0.078736
 74
               0
 49
-0.078736
 74
               0
  0
LTYPE
  5
35
100
AcDbSymbolTableRecord
100
AcDbLinetypeTableRecord
  2
STYLE_02
 70
               0
  3

 72
              65
 73
               2
 40
0.236206
 49
0.15747
 74
               0
 49
-0.078736
 74
               0
  0
LTYPE
  5
36
100
AcDbSymbolTableRecord
100
AcDbLinetypeTableRecord
  2
STYLE_03
 70
               0
  3

 72
              65
 73
               2
 40
0.314942
 49
0.236206
 74
               0
 49
-0.078736
 74
               0
  0
LTYPE
  5
37
100
AcDbSymbolTableRecord
100
AcDbLinetypeTableRecord
  2
STYLE_04
 70
               0
  3

 72
              65
 73
               2
 40
0.4724119999999999
 49
0.393676
 74
               0
 49
-0.0787359999999999
 74
               0
  0
LTYPE
  5
38
100
AcDbSymbolTableRecord
100
AcDbLinetypeTableRecord
  2
STYLE_05
 70
               0
  3

 72
              65
 73
               4
 40
0.4214800000000001
 49
0.236206
 74
               0
 49
-0.078736
 74
               0
 49
0.027802
 74
               0
 49
-0.0787360000000001
 74
               0
  0
LTYPE
  5
39
100
AcDbSymbolTableRecord
100
AcDbLinetypeTableRecord
  2
STYLE_06
 70
               0
  3

 72
              65
 73
               6
 40
0.736422
 49
0.236206
 74
               0
 49
-0.078736
 74
               0
 49
0.2362059999999999
 74
               0
 49
-0.0787360000000001
 74
               0
 49
0.027802
 74
               0
 49
-0.0787360000000001
 74
               0
  0
LTYPE
  5
3A
100
AcDbSymbolTableRecord
100
AcDbLinetypeTableRecord
  2
STYLE_07
 70
               0
  3

 72
              65
 73
               6
 40
0.528018
 49
0.236206
 74
               0
 49
-0.078736
 74
               0
 49
0.027802
 74
               0
 49
-0.0787360000000001
 74
               0
 49
0.027802
 74
               0
 49
-0.0787359999999999
 74
               0
  0
LTYPE
  5
3B
100
AcDbSymbolTableRecord
100
AcDbLinetypeTableRecord
  2
STYLE_08
 70
               0
  3

 72
              65
 73
               4
 40
1.0235619999999999
 49
0.7873539999999996
 74
               0
 49
-0.0787360000000001
 74
               0
 49
0.0787360000000001
 74
               0
 49
-0.0787360000000001
 74
               0
  0
LTYPE
  5
3C
100
AcDbSymbolTableRecord
100
AcDbLinetypeTableRecord
  2
STYLE_09
 70
               0
  3

 72
              65
 73
               6
 40
1.1810339999999997
 49
0.7873539999999996
 74
               0
 49
-0.0787360000000001
 74
               0
 49
0.0787360000000001
 74
               0
 49
-0.0787360000000001
 74
               0
 49
0.0787359999999999
 74
               0
 49
-0.0787359999999999
 74
               0
  0
LTYPE
  5
3D
100
AcDbSymbolTableRecord
100
AcDbLinetypeTableRecord
  2
STYLE_10
 70
               0
  3

 72
              65
 73
               4
 40
1.0826771653543308
 49
0.7677165354330708
 74
               0
 49
-0.1181102362204725
 74
               0
 49
0.078740157480315
 74
               0
 49
-0.1181102362204724
 74
               0
  0
LTYPE
  5
3E
100
AcDbSymbolTableRecord
100
AcDbLinetypeTableRecord
  2
STYLE_11
 70
               0
  3

 72
              65
 73
               2
 40
0.4921259842519685
 49
0.374015748031496
 74
               0
 49
-0.1181102362204724
 74
               0
  0
LTYPE
  5
3F
100
AcDbSymbolTableRecord
100
AcDbLinetypeTableRecord
  2
STYLE_12
 70
               0
  3

 72
              65
 73
               2
 40
3.8099999999999987
 49
2.5399999999999996
 74
               0
 49
-1.2699999999999996
 74
               0
  0
LTYPE
  5
40
100
AcDbSymbolTableRecord
100
AcDbLinetypeTableRecord
  2
STYLE_13
 70
               0
  3

 72
              65
 73
               6
 40
12.699999999999999
 49
6.3499999999999996
 74
               0
 49
-1.27
 74
               0
 49
1.27
 74
               0
 49
-1.27
 74
               0
 49
1.27
 74
               0
 49
-1.27
 74
               0
  0
LTYPE
  5
41
100
AcDbSymbolTableRecord
100
AcDbLinetypeTableRecord
  2
STYLE_14
 70
               0
  3

 72
              65
 73
               4
 40
20.32
 49
12.699999999999999
 74
               0
 49
-2.54
 74
               0
 49
2.54
 74
               0
 49
-2.54
 74
               0
  0
LTYPE
  5
42
100
AcDbSymbolTableRecord
100
AcDbLinetypeTableRecord
  2
STYLE_15
 70
               0
  3

 72
              65
 73
               2
 40
1.2020000000000004
 49
1.2000000000000002
 74
               0
 49
-0.0020000000000001
 74
               0
  0
LTYPE
  5
43
100
AcDbSymbolTableRecord
100
AcDbLinetypeTableRecord
  2
STYLE_16
 70
               0
  3

 72
              65
 73
               2
 40
0.3
 49
0.2
 74
               0
 49
-0.1
 74
               0
  0
LTYPE
  5
44
100
AcDbSymbolTableRecord
100
AcDbLinetypeTableRecord
  2
STYLE_17
 70
               0
  3

 72
              65
 73
               2
 40
3.0
 49
2.3999999999999999
 74
               0
 49
-0.6
 74
               0
  0
LTYPE
  5
45
100
AcDbSymbolTableRecord
100
AcDbLinetypeTableRecord
  2
STYLE_18
 70
               0
  3

 72
              65
 73
               4
 40
7.1999999999999993
 49
4.7999999999999998
 74
               0
 49
-0.6000000000000005
 74
               0
 49
1.2
 74
               0
 49
-0.5999999999999994
 74
               0
  0
LTYPE
  5
46
100
AcDbSymbolTableRecord
100
AcDbLinetypeTableRecord
  2
STYLE_19
 70
               0
  3

 72
              65
 73
               6
 40
9.0
 49
4.7999999999999998
 74
               0
 49
-0.6000000000000005
 74
               0
 49
1.2
 74
               0
 49
-0.5999999999999994
 74
               0
 49
1.2
 74
               0
 49
-0.5999999999999994
 74
               0
  0
LTYPE
  5
47
100
AcDbSymbolTableRecord
100
AcDbLinetypeTableRecord
  2
STYLE_20
 70
               0
  3

 72
              65
 73
               4
 40
3.5999999999999996
 49
2.3999999999999999
 74
               0
 49
-0.3000000000000003
 74
               0
 49
0.6
 74
               0
 49
-0.2999999999999997
 74
               0
  0
LTYPE
  5
48
100
AcDbSymbolTableRecord
100
AcDbLinetypeTableRecord
  2
STYLE_21
 70
               0
  3

 72
              65
 73
               2
 40
1.5
 49
1.2
 74
               0
 49
-0.3
 74
               0
  0
LTYPE
  5
49
100
AcDbSymbolTableRecord
100
AcDbLinetypeTableRecord
  2
STYLE_22
 70
               0
  3

 72
              65
 73
               2
 40
4.4000399999999997
 49
0.002
 74
               0
 49
-4.3980399999999999
 74
               0
  0
LTYPE
  5
4A
100
AcDbSymbolTableRecord
100
AcDbLinetypeTableRecord
  2
STYLE_23
 70
               0
  3

 72
              65
 73
               2
 40
2.5
 49
1.8999999999999999
 74
               0
 49
-0.6
 74
               0
  0
LTYPE
  5
4B
100
AcDbSymbolTableRecord
100
AcDbLinetypeTableRecord
  2
STYLE_24
 70
               0
  3

 72
              65
 73
               4
 40
5.5
 49
3.9000000000000008
 74
               0
 49
-0.6
 74
               0
 49
0.3999999999999998
 74
               0
 49
-0.6
 74
               0
  0
LTYPE
  5
4C
100
AcDbSymbolTableRecord
100
AcDbLinetypeTableRecord
  2
STYLE_25
 70
               0
  3

 72
              65
 73
               2
 40
1.5748031496062991
 49
0.7874015748031495
 74
               0
 49
-0.7874015748031495
 74
               0
  0
ENDTAB
  0
TABLE
  2
LAYER
  5
2
100
AcDbSymbolTable
 70
               5
  0
LAYER
  5
14
100
AcDbSymbolTableRecord
100
AcDbLayerTableRecord
  2
0
 70
               0
 62
               7
  6
Continuous
290
               1
370
              -3
390
1D
  0
LAYER
  5
4D
100
AcDbSymbolTableRecord
100
AcDbLayerTableRecord
  2
Defpoints
 70
               0
 62
               7
  6
Continuous
290
               0
370
              -3
390
1D
  0
LAYER
  5
4E
100
AcDbSymbolTableRecord
100
AcDbLayerTableRecord
  2
template
 70
               0
 62
               7
  6
Continuous
290
               1
370
              -3
390
1D
  0
LAYER
  5
4F
100
AcDbSymbolTableRecord
100
AcDbLayerTableRecord
  2
notes
 70
               0
 62
               7
  6
Continuous
290
               1
370
              -3
390
1D
  0
LAYER
  5
50
100
AcDbSymbolTableRecord
100
AcDbLayerTableRecord
  2
FAA70-0502
 70
               0
 62
               7
  6
Continuous
290
               1
370
              -3
390
1D
  0
ENDTAB
  0
TABLE
  2
STYLE
  5
3
100
AcDbSymbolTable
 70
               2
  0
STYLE
  5
17
100
AcDbSymbolTableRecord
100
AcDbTextStyleTableRecord
  2
Standard
 70
               0
 40
0.0
 41
1.0
 50
0.0
 71
               0
 42
0.0
  3
txt
  4
BIGFONT.SHX
  0
STYLE
  5
33
100
AcDbSymbolTableRecord
100
AcDbTextStyleTableRecord
  2
ＭＳ ゴシック
 70
               0
 40
0.0
 41
1.0
 50
0.0
 71
               0
 42
0.0
  3

  4
ＭＳ ゴシック
1001
ACAD
1000
ＭＳ ゴシック
1071
        0
  0
ENDTAB
  0
TABLE
  2
VIEW
  5
5
100
AcDbSymbolTable
 70
               0
  0
ENDTAB
  0
TABLE
  2
UCS
  5
6
100
AcDbSymbolTable
 70
               0
  0
ENDTAB
  0
TABLE
  2
APPID
  5
8
100
AcDbSymbolTable
 70
               1
  0
APPID
  5
16
100
AcDbSymbolTableRecord
100
AcDbRegAppTableRecord
  2
ACAD
 70
               0
  0
ENDTAB
  0
TABLE
  2
DIMSTYLE
  5
9
100
AcDbSymbolTable
 70
               3
100
AcDbDimStyleTable
 71
               0
  0
DIMSTYLE
105
18
100
AcDbSymbolTableRecord
100
AcDbDimStyleTableRecord
  2
Standard
 70
               0
  3

  4

 40
1.0
 41
0.18
 42
0.0625
 43
0.38
 44
0.18
 45
0.0
 46
0.0
 47
0.0
 48
0.0
 71
               0
 72
               0
 73
               1
 74
               1
 75
               0
 76
               0
 77
               0
 78
               0
 79
               0
140
0.18
141
0.09
142
0.0
143
25.399999999999999
144
1.0
145
0.0
146
1.0
147
0.09
148
0.0
170
               0
171
               2
172
               0
173
               0
174
               0
175
               0
176
               0
177
               0
178
               0
179
               0
271
               4
272
               4
273
               2
274
               2
275
               0
276
               0
277
               2
278
              46
279
               0
280
               0
281
               0
282
               0
283
               1
284
               0
285
               0
286
               0
288
               0
289
               3
340
17
341
0
342
0
343
0
344
0
371
              -2
372
              -2
  0
DIMSTYLE
105
59
100
AcDbSymbolTableRecord
100
AcDbDimStyleTableRecord
  2
tform線あり
 70
               0
  3
<>
  4
[]
 40
1.0
 41
3.999755859375
 42
24.999999999999996
 43
0.9999999999999999
 44
0.0
 45
0.0
 46
0.0
 47
0.0
 48
0.0
 71
               0
 72
               0
 73
               0
 74
               0
 75
               0
 76
               0
 77
               1
 78
              11
 79
               0
140
24.432617187500004
141
0.0
142
0.0
143
1.0
144
1.0
145
0.0
146
1.0
147
0.4999999999999999
148
0.0
170
               0
171
               1
172
               0
173
               0
174
               1
175
               0
176
               0
177
               0
178
               0
179
               2
271
               1
272
               1
273
               2
274
               2
275
               0
276
               2
277
               2
278
              46
279
               0
280
               0
281
               0
282
               0
283
               1
284
              11
285
              11
286
              11
288
               0
289
               0
340
33
341
51
342
51
343
0
344
0
371
              -2
372
              -2
  0
DIMSTYLE
105
5E
100
AcDbSymbolTableRecord
100
AcDbDimStyleTableRecord
  2
JIS
 70
               0
  3
<>
  4
[]
 40
1.0
 41
31.75
 42
0.0
 43
6.9999999999999396
 44
19.999999999996199
 45
0.0
 46
0.0
 47
0.0
 48
0.0
 71
               0
 72
               0
 73
               0
 74
               0
 75
               0
 76
               0
 77
               1
 78
              11
 79
               0
140
24.432617187500004
141
0.0
142
0.0
143
1.0
144
1.0
145
0.0
146
1.0
147
1.00000000000108
148
0.0
170
               0
171
               1
172
               0
173
               0
174
               1
175
               0
176
               0
177
               0
178
               0
179
               2
271
               1
272
               1
273
               2
274
               2
275
               0
276
               2
277
               2
278
              46
279
               0
280
               0
281
               0
282
               0
283
               1
284
              11
285
              11
286
              11
288
               0
289
               0
340
33
341
5A
342
5A
343
0
344
0
371
              -2
372
              -2
  0
ENDTAB
  0
TABLE
  2
BLOCK_RECORD
  5
1
100
AcDbSymbolTable
 70
              18
  0
BLOCK_RECORD
  5
A
100
AcDbSymbolTableRecord
100
AcDbBlockTableRecord
  2
*MODEL_SPACE
340
20
  0
BLOCK_RECORD
  5
B
100
AcDbSymbolTableRecord
100
AcDbBlockTableRecord
  2
*PAPER_SPACE
340
21
  0
BLOCK_RECORD
  5
51
100
AcDbSymbolTableRecord
100
AcDbBlockTableRecord
  2
_DOT
340
0
  0
BLOCK_RECORD
  5
5A
100
AcDbSymbolTableRecord
100
AcDbBlockTableRecord
  2
VW_FILLEDARROW
340
0
  0
BLOCK_RECORD
  5
23
100
AcDbSymbolTableRecord
100
AcDbBlockTableRecord
  2
グループ
340
0
102
{BLKREFS
331
133
102
}
  0
BLOCK_RECORD
  5
24
100
AcDbSymbolTableRecord
100
AcDbBlockTableRecord
  2
*D3
340
0
  0
BLOCK_RECORD
  5
25
100
AcDbSymbolTableRecord
100
AcDbBlockTableRecord
  2
*D4
340
0
  0
BLOCK_RECORD
  5
26
100
AcDbSymbolTableRecord
100
AcDbBlockTableRecord
  2
*D5
340
0
  0
BLOCK_RECORD
  5
27
100
AcDbSymbolTableRecord
100
AcDbBlockTableRecord
  2
*D6
340
0
  0
BLOCK_RECORD
  5
28
100
AcDbSymbolTableRecord
100
AcDbBlockTableRecord
  2
*D7
340
0
  0
BLOCK_RECORD
  5
29
100
AcDbSymbolTableRecord
100
AcDbBlockTableRecord
  2
*D8
340
0
  0
BLOCK_RECORD
  5
2A
100
AcDbSymbolTableRecord
100
AcDbBlockTableRecord
  2
*D9
340
0
  0
BLOCK_RECORD
  5
2B
100
AcDbSymbolTableRecord
100
AcDbBlockTableRecord
  2
*D10
340
0
  0
BLOCK_RECORD
  5
2C
100
AcDbSymbolTableRecord
100
AcDbBlockTableRecord
  2
*D11
340
0
  0
BLOCK_RECORD
  5
2D
100
AcDbSymbolTableRecord
100
AcDbBlockTableRecord
  2
*D12
340
0
  0
BLOCK_RECORD
  5
2E
100
AcDbSymbolTableRecord
100
AcDbBlockTableRecord
  2
*D13
340
0
  0
BLOCK_RECORD
  5
2F
100
AcDbSymbolTableRecord
100
AcDbBlockTableRecord
  2
*D14
340
0
  0
BLOCK_RECORD
  5
30
100
AcDbSymbolTableRecord
100
AcDbBlockTableRecord
  2
*D15
340
0
  0
BLOCK_RECORD
  5
31
100
AcDbSymbolTableRecord
100
AcDbBlockTableRecord
  2
*D16
340
0
  0
BLOCK_RECORD
  5
32
100
AcDbSymbolTableRecord
100
AcDbBlockTableRecord
  2
*D17
340
0
  0
ENDTAB
  0
ENDSEC
  0
SECTION
  2
BLOCKS
  0
BLOCK
  5
D
100
AcDbEntity
  8
0
390
0
100
AcDbBlockBegin
  2
*MODEL_SPACE
 70
               0
 10
0.0
 20
0.0
 30
0.0
  3
*MODEL_SPACE
  1

  0
ENDBLK
  5
E
100
AcDbEntity
  8
0
390
0
100
AcDbBlockEnd
  0
BLOCK
  5
F
100
AcDbEntity
 67
               1
  8
0
390
0
100
AcDbBlockBegin
  2
*PAPER_SPACE
 70
               0
 10
0.0
 20
0.0
 30
0.0
  3
*PAPER_SPACE
  1

  0
ENDBLK
  5
10
100
AcDbEntity
 67
               1
  8
0
390
0
100
AcDbBlockEnd
  0
BLOCK
  5
52
100
AcDbEntity
  8
0
390
0
100
AcDbBlockBegin
  2
_DOT
 70
               0
 10
0.0
 20
0.0
 30
0.0
  3
_DOT
  1

  0
POLYLINE
  5
53
100
AcDbEntity
  8
0
370
              -2
390
0
  6
ByBlock
 62
               0
100
AcDb2dPolyline
 66
               1
 10
0.0
 20
0.0
 30
0.0
 70
               1
 40
0.5
 41
0.5
  0
VERTEX
  5
54
100
AcDbEntity
  8
0
370
              -2
390
0
  6
ByBlock
 62
               0
100
AcDbVertex
100
AcDb2dVertex
 10
-0.25
 20
0.0
 30
0.0
 42
1.0
  0
VERTEX
  5
55
100
AcDbEntity
  8
0
370
              -2
390
0
  6
ByBlock
 62
               0
100
AcDbVertex
100
AcDb2dVertex
 10
0.25
 20
0.0
 30
0.0
 42
1.0
  0
SEQEND
  5
56
100
AcDbEntity
  8
0
390
0
  0
LINE
  5
57
100
AcDbEntity
  8
0
370
              -2
390
0
  6
ByBlock
 62
               0
100
AcDbLine
 10
-0.5
 20
0.0
 30
0.0
 11
-1.0
 21
0.0
 31
0.0
  0
ENDBLK
  5
58
100
AcDbEntity
  8
0
390
0
100
AcDbBlockEnd
  0
BLOCK
  5
5B
100
AcDbEntity
  8
0
370
              -2
390
0
  6
ByBlock
 62
               0
100
AcDbBlockBegin
  2
VW_FILLEDARROW
 70
               0
 10
0.0
 20
0.0
 30
0.0
  3
VW_FILLEDARROW
  1

  0
SOLID
  5
5C
100
AcDbEntity
  8
0
370
              -2
390
0
 62
               0
100
AcDbTrace
 10
0.0
 20
0.0
 30
0.0
 11
-0.9921874999999999
 21
-0.2658558393652545
 31
0.0
 12
-0.9921874999999999
 22
0.2658558393652548
 32
0.0
 13
-0.9921874999999999
 23
0.2658558393652548
 33
0.0
  0
ENDBLK
  5
5D
100
AcDbEntity
  8
0
390
0
100
AcDbBlockEnd
  0
BLOCK
  5
5F
100
AcDbEntity
  8
template
390
0
100
AcDbBlockBegin
  2
グループ
 70
               0
 10
0.0
 20
0.0
 30
0.0
  3
グループ
  1

  0
LWPOLYLINE
  5
60
100
AcDbEntity
  8
0
370
              15
390
0
  6
Continuous
 62
               7
100
AcDbPolyline
 90
        8
 70
             129
 10
887.42850780307481
 20
-1388.5606845653524
 10
887.42850780307481
 20
-1394.5580732589283
 10
877.92731088507151
 20
-1394.5580732589283
 10
877.92731088507151
 20
-1419.0090365224373
 10
869.57193362328871
 20
-1419.0090365224373
 10
869.57193362328871
 20
-1394.5580732589283
 10
860.23897667697929
 20
-1394.5580732589283
 10
860.23897667697929
 20
-1388.5606845653524
  0
LWPOLYLINE
  5
61
100
AcDbEntity
  8
0
370
              15
390
0
  6
Continuous
 62
               7
100
AcDbPolyline
 90
      101
 70
             128
 10
900.15679963363175
 20
-1389.2889330582889
 10
900.17214966241681
 20
-1389.2845723016037
 42
-0.0222221607812452
 10
900.46215423908779
 20
-1389.2159478363592
 10
900.47794800307383
 20
-1389.2129444132636
 42
-0.0146883565588939
 10
900.74065070830557
 20
-1389.1709412263128
 42
-0.0127458844187221
 10
901.00528967545358
 20
-1389.1434042582407
 10
901.06774475377142
 20
-1389.1385108356521
 42
-0.0198099018566897
 10
901.45859386324832
 20
-1389.1234256782557
 10
901.51040533269202
 20
-1389.1234794539207
 42
-0.014761738276311
 10
902.00502879366297
 20
-1389.1385994791656
 10
902.07772024853898
 20
-1389.1429720860533
 42
-0.0162624549004703
 10
902.46787387800578
 20
-1389.1792049613257
 10
902.58940626927017
 20
-1389.1944915203228
 42
-0.0080020874660664
 10
902.73498530035658
 20
-1389.2151743675906
 10
902.77330477094858
 20
-1389.2212456454013
 42
-0.005382192967833
 10
902.84178887626638
 20
-1389.2328531692233
 10
902.11538317706777
 20
-1391.4137816249372
 42
0.0108667757394062
 10
902.04806610693299
 20
-1391.4005945097165
 10
902.01059808374748
 20
-1391.3940967671228
 42
0.017066320330763
 10
901.8673812968334
 20
-1391.3742671698312
 10
901.79950596414892
 20
-1391.3672199992436
 42
0.0220162375276641
 10
901.51912655629246
 20
-1391.3505376384735
 10
901.44127098924173
 20
-1391.349338271207
 42
0.0282606915783738
 10
901.10563466566362
 20
-1391.3631415481759
 10
901.0617213918905
 20
-1391.3674415381797
 42
0.0169677213693056
 10
900.8157968969324
 20
-1391.3999785877315
 42
0.0190576269859832
 10
900.57288893435577
 20
-1391.4501254598372
 10
900.56662974624146
 20
-1391.4516684339474
 42
0.0213685642844021
 10
900.3162452617612
 20
-1391.5248687190528
 10
900.3107553668475
 20
-1391.5267317151111
 42
0.0237595297595475
 10
900.05726048195015
 20
-1391.626416237006
 10
900.05215840791914
 20
-1391.6287080124848
 42
0.0261857468810989
 10
899.79998763168908
 20
-1391.7582443498593
 10
899.78956144260462
 20
-1391.7643098243263
 42
0.0272553062022944
 10
899.55313166736369
 20
-1391.919682030272
 10
899.51836865385019
 20
-1391.9453431783675
 42
0.0325996893186674
 10
899.36821331020269
 20
-1392.0720910513357
 10
899.34450388107041
 20
-1392.0949090798574
 42
0.013805096064931
 10
899.25262072486953
 20
-1392.1883587414002
 42
0.0125280103796053
 10
899.16577819204326
 20
-1392.2865220679914
 10
899.14209774712765
 20
-1392.3146805661875
 42
0.0205218024743723
 10
899.01699767161176
 20
-1392.4764738804197
 10
898.99453133112684
 20
-1392.5081336102435
 42
0.0163110129583144
 10
898.8388209518755
 20
-1392.7434640453134
 10
898.83609705582455
 20
-1392.7478878072989
 42
0.0131897341894377
 10
898.68929653492035
 20
-1393.0010198996604
 10
898.68759643955218
 20
-1393.0041381387991
 42
0.0107895576059858
 10
898.54981973734516
 20
-1393.2703533484269
 10
898.5490868478164
 20
-1393.2718475810809
 42
0.0091371507215266
 10
898.42060689916457
 20
-1393.5463727788454
 10
898.3908612677576
 20
-1393.6130792859992
 42
0.0135418326350078
 10
898.21914732868606
 20
-1394.0280170712676
 10
898.18554252025535
 20
-1394.1158832135397
 42
0.0092834542408598
 10
898.01431346033087
 20
-1394.5897817118546
 10
897.98869633261381
 20
-1394.665022781646
 42
0.0054261043584037
 10
897.88105818432018
 20
-1394.9927867547131
 10
897.86353219811349
 20
-1395.0481749170358
 42
0.0008225090822161
 10
897.79486214631277
 20
-1395.2664436750924
 10
896.8101730143793
 20
-1398.291334968349
 10
900.04279685445317
 20
-1398.291334968349
 10
899.53860442459973
 20
-1400.1958132667014
 10
896.28254814261641
 20
-1400.1958132667014
 10
890.45339911026258
 20
-1419.0090363327063
 10
888.62830149995227
 20
-1419.0090363327063
 10
894.4629795354532
 20
-1400.1958132667014
 10
892.05786316641286
 20
-1400.1958132667014
 10
892.5620555962663
 20
-1398.291334968349
 10
894.99060440721632
 20
-1398.291334968349
 10
895.85075932540497
 20
-1395.6549219676499
 42
-0.0005863560664581
 10
895.88749400353083
 20
-1395.5380955476044
 10
895.96358183726886
 20
-1395.2971032479727
 42
-0.0087522378925313
 10
896.16304998072826
 20
-1394.7018271608192
 10
896.25531425613769
 20
-1394.4416869923173
 42
-0.0077400953831692
 10
896.51324791527031
 20
-1393.7486823147651
 10
896.52901288684689
 20
-1393.708251431385
 42
-0.0082369946330518
 10
896.77609735746114
 20
-1393.1041723651833
 42
-0.0085725238367371
 10
897.04334345346331
 20
-1392.5087463258976
 10
897.1449730544731
 20
-1392.2923252239075
 42
-0.0168109410594301
 10
897.43191748320146
 20
-1391.7311176978067
 10
897.55776087362358
 20
-1391.5041536648755
 42
-0.0007817726869565
 10
897.61204522371713
 20
-1391.4066094197783
 10
897.61217352973449
 20
-1391.4063797110418
 42
-0.0036626142157143
 10
897.6670613937556
 20
-1391.3097818310735
 42
-0.0080221150667194
 10
897.72418564916495
 20
-1391.2145025963164
 10
897.75488560052349
 20
-1391.1651116471983
 42
-0.0202139325582518
 10
897.8825413403265
 20
-1390.977130046522
 10
897.93660880551784
 20
-1390.9040511822759
 42
-0.0249323791800498
 10
898.19577159923779
 20
-1390.5880059401209
 10
898.219911413364
 20
-1390.5613916672091
 42
-0.0242132121536684
 10
898.55959215490498
 20
-1390.2215081810061
 10
898.60750372765801
 20
-1390.1779990448179
 42
-0.0251017527860397
 10
898.8914854282973
 20
-1389.9450062990543
 10
898.89293090510489
 20
-1389.9439370414798
 42
-0.0130868069038205
 10
899.19119155506837
 20
-1389.735156572933
 10
899.19275337420913
 20
-1389.7341231326593
 42
-0.0290329526390317
 10
899.50386451560439
 20
-1389.5532976310285
 10
899.53371007758983
 20
-1389.5381952481891
 42
-0.0160250190050411
 10
899.79961449135521
 20
-1389.4141791379757
 42
-0.0267600374781006
 10
900.07489056882639
 20
-1389.3134308174265
 10
900.10162648834478
 20
-1389.3052382586015
 42
-0.0049981587650879
 10
900.15679963363175
 20
-1389.2889330582889
 42
-0.0049981587650879
  0
LWPOLYLINE
  5
62
100
AcDbEntity
  8
0
370
              15
390
0
  6
Continuous
 62
               7
100
AcDbPolyline
 90
      118
 70
             128
 10
919.97116719807866
 20
-1398.3653182961762
 10
921.84628912257813
 20
-1398.3653182961762
 10
921.00825021697824
 20
-1401.0468848225764
 42
-0.0010587229257694
 10
921.03970603256346
 20
-1401.0099802892053
 10
921.09790012318217
 20
-1400.9419980330451
 42
-0.0071874740413046
 10
921.24827534127417
 20
-1400.7713573410228
 10
921.38999811454244
 20
-1400.615121199703
 42
-0.0148118053512363
 10
921.84012740725746
 20
-1400.1475073536878
 10
921.92734974215728
 20
-1400.062110032836
 42
-0.0086273358692718
 10
922.26289854316542
 20
-1399.7447343988199
 10
922.30673225939165
 20
-1399.7046847544866
 42
-0.0103138323115429
 10
922.56475596162477
 20
-1399.4785216171485
 10
922.61053036796045
 20
-1399.440039569881
 42
-0.0060206748564274
 10
922.78337843206407
 20
-1399.298244919134
 10
922.78540956294921
 20
-1399.2966192135034
 42
-0.0067069027288388
 10
922.95770237761258
 20
-1399.1624685797078
 10
922.96025114355518
 20
-1399.16053840982
 42
-0.0076184352045425
 10
923.13115640940987
 20
-1399.0351635345887
 42
-0.0089652861668954
 10
923.30611737213997
 20
-1398.915530274259
 10
923.34246909228875
 20
-1398.8916190607736
 42
-0.0156916245941741
 10
923.5384285894495
 20
-1398.7713565742988
 42
-0.002329901106332
 10
923.7386906333893
 20
-1398.6581786347804
 10
923.75407476580915
 20
-1398.6495786396933
 42
-0.0107669341484053
 10
923.98831159090878
 20
-1398.5251785063447
 10
924.0105763919853
 20
-1398.5139617563939
 42
-0.0078058045895926
 10
924.29416650993699
 20
-1398.3766003007559
 10
924.30407359764718
 20
-1398.371991172887
 42
-0.0181829330473932
 10
924.61438300225871
 20
-1398.2411274317928
 10
924.66843844483174
 20
-1398.2206123118469
 42
-0.0208411536025736
 10
925.01752341227984
 20
-1398.1045218493546
 10
925.03187951240784
 20
-1398.1004034044008
 42
-0.0222799817138781
 10
925.3605993063245
 20
-1398.0217618382608
 10
925.36948826956541
 20
-1398.0200498276749
 42
-0.0215509523877013
 10
925.68595923784142
 20
-1397.9731341391414
 10
925.72844119889146
 20
-1397.9686966123504
 42
-0.0182545924873438
 10
925.96254997819551
 20
-1397.9528527869595
 10
926.00195099454572
 20
-1397.9516282418801
 42
-0.0072962856529054
 10
926.15787387423256
 20
-1397.9490589133582
 10
926.18697354480855
 20
-1397.9490040779544
 42
-0.0059227516318863
 10
926.2847230439495
 20
-1397.9499777897449
 10
926.31396526140736
 20
-1397.9506155563479
 42
-0.0011833111893234
 10
926.35321654515383
 20
-1397.9515645606584
 10
925.55782994954666
 20
-1400.4902985057574
 42
0.0143932051615016
 10
925.53142856719171
 20
-1400.4800995357105
 10
925.52415659477879
 20
-1400.4775283168547
 42
0.0234388603491699
 10
925.48232572884899
 20
-1400.4649090811401
 10
925.47364406593397
 20
-1400.4627281191345
 42
0.0199162742988474
 10
925.41335523185239
 20
-1400.4501113837991
 10
925.39254129404776
 20
-1400.4466141843709
 42
0.0293643550669223
 10
925.28946643528752
 20
-1400.4354641387176
 10
925.26478125456833
 20
-1400.4342525216991
 42
0.0214606686863578
 10
925.11164033861519
 20
-1400.4333139612816
 10
925.10226842779787
 20
-1400.4336588728258
 42
0.0167564054188574
 10
924.93074823669042
 20
-1400.4457359151938
 10
924.92228844393048
 20
-1400.446617255621
 42
0.0137677553242339
 10
924.73493513066455
 20
-1400.4713665641648
 10
924.72758339115785
 20
-1400.4725444841326
 42
0.0118497261481205
 10
924.52708562705527
 20
-1400.5095618343219
 10
924.52093561980928
 20
-1400.5108486970419
 42
0.0106421143891936
 10
924.31005473252526
 20
-1400.5596810726165
 10
924.30514592413522
 20
-1400.5609284153018
 42
0.0099746379706426
 10
924.08668745497073
 20
-1400.6211029436172
 10
924.02513941480242
 20
-1400.6393848222472
 42
0.0191613675860842
 10
923.68915495228691
 20
-1400.7533622025342
 10
923.60109517953936
 20
-1400.787049112859
 42
0.0205274080147246
 10
923.21578840764073
 20
-1400.9528775206845
 10
923.15813912565829
 20
-1400.9805454852572
 42
0.0181256912196064
 10
922.89986218499178
 20
-1401.1162293042348
 10
922.84690680167512
 20
-1401.1465469174511
 42
0.0140709242412418
 10
922.7019518670495
 20
-1401.2350415908841
 10
922.6757029984326
 20
-1401.2520984095986
 42
0.0086667884399223
 10
922.58677683688848
 20
-1401.3121010774823
 42
0.003640819201488
 10
922.4993435988797
 20
-1401.3742819352569
 10
922.46411672438649
 20
-1401.3997228811875
 42
0.0052260781283436
 10
922.30788802698567
 20
-1401.515055267829
 10
922.29168117073573
 20
-1401.5272833784397
 42
0.0050024435900022
 10
922.10567782766543
 20
-1401.6705659467109
 10
922.09035967116176
 20
-1401.6826119691477
 42
0.0136138710277092
 10
921.87991840283541
 20
-1401.8575784740622
 10
921.84625052704291
 20
-1401.8871574467753
 42
0.017281518691684
 10
921.58184698537809
 20
-1402.136154119401
 10
921.57928463953772
 20
-1402.1387399365458
 42
0.0189403857991616
 10
921.32870284095702
 20
-1402.4115452013521
 10
921.29607134742298
 20
-1402.4498891328469
 42
0.0185044199507581
 10
921.10411490844263
 20
-1402.6931377139701
 42
0.0088565243899798
 10
920.9256548018144
 20
-1402.9466541341199
 10
920.91647682216569
 20
-1402.9601955138801
 42
0.0157195347236039
 10
920.73325621582967
 20
-1403.2497177231992
 10
920.68717327390209
 20
-1403.3278699202142
 42
0.0095451879779801
 10
920.52208772376309
 20
-1403.6204645625733
 10
920.51093980483074
 20
-1403.6411352347102
 42
0.0100351706258972
 10
920.3788960556742
 20
-1403.8981907951959
 42
0.0086935915418291
 10
920.25656490388019
 20
-1404.1600239406
 10
920.25324416246565
 20
-1404.1674662635721
 42
0.0072580174868075
 10
920.13289771051961
 20
-1404.448058255158
 10
920.1296360772144
 20
-1404.4559782811732
 42
0.0060005122611164
 10
920.01043540887179
 20
-1404.7555879517781
 10
920.00722443053007
 20
-1404.7639494796831
 42
0.0049017786979946
 10
919.88832427167313
 20
-1405.0828784602861
 10
919.88515846528219
 20
-1405.0916313975179
 42
0.0039415167607301
 10
919.76572218723118
 20
-1405.4301734599151
 10
919.76259108457339
 20
-1405.4392766608073
 42
0.0031035838764651
 10
919.64178629887056
 20
-1405.7977165226102
 10
919.63867625434989
 20
-1405.8071371439555
 42
0.0025070747150937
 10
919.5157749030551
 20
-1406.1857843608352
 10
919.47848100660917
 20
-1406.3026760261523
 42
0.0029081910286123
 10
919.28646270879392
 20
-1406.9168396844582
 10
919.24565954028128
 20
-1407.0500629267199
 42
0.0009266453734063
 10
918.97724216592735
 20
-1407.9322873867732
 10
918.95635469333752
 20
-1408.0013992658412
 42
-0.0005809993664039
 10
918.67901801273479
 20
-1408.9152073725184
 10
918.61273621446662
 20
-1409.1326923046622
 42
-0.0012018708170803
 10
918.46575190503268
 20
-1409.6108549691987
 10
918.41343205357907
 20
-1409.7796141097035
 42
-0.000269105961155
 10
918.36986257229853
 20
-1409.9198817304064
 10
915.53690667400929
 20
-1419.0090363327063
 10
913.71891778203076
 20
-1419.0090363327063
 10
919.97116719807866
 20
-1398.3653182961762
  0
SPLINE
  5
63
100
AcDbEntity
  8
0
370
              15
390
0
  6
Continuous
 62
               7
100
AcDbSpline
210
0.0
220
0.0
230
1.0
 70
              13
 71
               2
 72
             782
 73
             779
 74
               0
 42
0.000001
 43
0.000001
 40
0.0
 40
0.0
 40
0.0
 40
1.0
 40
1.0
 40
2.0
 40
2.0
 40
3.0
 40
3.0
 40
4.0
 40
4.0
 40
5.0
 40
5.0
 40
6.0
 40
6.0
 40
7.0
 40
7.0
 40
8.0
 40
8.0
 40
9.0
 40
9.0
 40
10.0
 40
10.0
 40
11.0
 40
11.0
 40
12.0
 40
12.0
 40
13.0
 40
13.0
 40
14.0
 40
14.0
 40
15.0
 40
15.0
 40
16.0
 40
16.0
 40
17.0
 40
17.0
 40
18.0
 40
18.0
 40
19.0
 40
19.0
 40
20.0
 40
20.0
 40
21.0
 40
21.0
 40
22.0
 40
22.0
 40
23.0
 40
23.0
 40
24.0
 40
24.0
 40
25.0
 40
25.0
 40
26.0
 40
26.0
 40
27.0
 40
27.0
 40
28.0
 40
28.0
 40
29.0
 40
29.0
 40
30.0
 40
30.0
 40
31.0
 40
31.0
 40
32.0
 40
32.0
 40
33.0
 40
33.0
 40
34.0
 40
34.0
 40
35.0
 40
35.0
 40
36.0
 40
36.0
 40
37.0
 40
37.0
 40
38.0
 40
38.0
 40
39.0
 40
39.0
 40
40.0
 40
40.0
 40
41.0
 40
41.0
 40
42.0
 40
42.0
 40
43.0
 40
43.0
 40
44.0
 40
44.0
 40
45.0
 40
45.0
 40
46.0
 40
46.0
 40
47.0
 40
47.0
 40
48.0
 40
48.0
 40
49.0
 40
49.0
 40
50.0
 40
50.0
 40
51.0
 40
51.0
 40
52.0
 40
52.0
 40
53.0
 40
53.0
 40
54.0
 40
54.0
 40
55.0
 40
55.0
 40
56.0
 40
56.0
 40
57.0
 40
57.0
 40
58.0
 40
58.0
 40
59.0
 40
59.0
 40
60.0
 40
60.0
 40
61.0
 40
61.0
 40
62.0
 40
62.0
 40
63.0
 40
63.0
 40
64.0
 40
64.0
 40
65.0
 40
65.0
 40
66.0
 40
66.0
 40
67.0
 40
67.0
 40
68.0
 40
68.0
 40
69.0
 40
69.0
 40
70.0
 40
70.0
 40
71.0
 40
71.0
 40
72.0
 40
72.0
 40
73.0
 40
73.0
 40
74.0
 40
74.0
 40
75.0
 40
75.0
 40
76.0
 40
76.0
 40
77.0
 40
77.0
 40
78.0
 40
78.0
 40
79.0
 40
79.0
 40
80.0
 40
80.0
 40
81.0
 40
81.0
 40
82.0
 40
82.0
 40
83.0
 40
83.0
 40
84.0
 40
84.0
 40
85.0
 40
85.0
 40
86.0
 40
86.0
 40
87.0
 40
87.0
 40
88.0
 40
88.0
 40
89.0
 40
89.0
 40
90.0
 40
90.0
 40
91.0
 40
91.0
 40
92.0
 40
92.0
 40
93.0
 40
93.0
 40
94.0
 40
94.0
 40
95.0
 40
95.0
 40
96.0
 40
96.0
 40
97.0
 40
97.0
 40
98.0
 40
98.0
 40
99.0
 40
99.0
 40
100.0
 40
100.0
 40
101.0
 40
101.0
 40
102.0
 40
102.0
 40
103.0
 40
103.0
 40
104.0
 40
104.0
 40
105.0
 40
105.0
 40
106.0
 40
106.0
 40
107.0
 40
107.0
 40
108.0
 40
108.0
 40
109.0
 40
109.0
 40
110.0
 40
110.0
 40
111.0
 40
111.0
 40
112.0
 40
112.0
 40
113.0
 40
113.0
 40
114.0
 40
114.0
 40
115.0
 40
115.0
 40
116.0
 40
116.0
 40
117.0
 40
117.0
 40
118.0
 40
118.0
 40
119.0
 40
119.0
 40
120.0
 40
120.0
 40
121.0
 40
121.0
 40
122.0
 40
122.0
 40
123.0
 40
123.0
 40
124.0
 40
124.0
 40
125.0
 40
125.0
 40
126.0
 40
126.0
 40
127.0
 40
127.0
 40
128.0
 40
128.0
 40
129.0
 40
129.0
 40
130.0
 40
130.0
 40
131.0
 40
131.0
 40
132.0
 40
132.0
 40
133.0
 40
133.0
 40
134.0
 40
134.0
 40
135.0
 40
135.0
 40
136.0
 40
136.0
 40
137.0
 40
137.0
 40
138.0
 40
138.0
 40
139.0
 40
139.0
 40
140.0
 40
140.0
 40
141.0
 40
141.0
 40
142.0
 40
142.0
 40
143.0
 40
143.0
 40
144.0
 40
144.0
 40
145.0
 40
145.0
 40
146.0
 40
146.0
 40
147.0
 40
147.0
 40
148.0
 40
148.0
 40
149.0
 40
149.0
 40
150.0
 40
150.0
 40
151.0
 40
151.0
 40
152.0
 40
152.0
 40
153.0
 40
153.0
 40
154.0
 40
154.0
 40
155.0
 40
155.0
 40
156.0
 40
156.0
 40
157.0
 40
157.0
 40
158.0
 40
158.0
 40
159.0
 40
159.0
 40
160.0
 40
160.0
 40
161.0
 40
161.0
 40
162.0
 40
162.0
 40
163.0
 40
163.0
 40
164.0
 40
164.0
 40
165.0
 40
165.0
 40
166.0
 40
166.0
 40
167.0
 40
167.0
 40
168.0
 40
168.0
 40
169.0
 40
169.0
 40
170.0
 40
170.0
 40
171.0
 40
171.0
 40
172.0
 40
172.0
 40
173.0
 40
173.0
 40
174.0
 40
174.0
 40
175.0
 40
175.0
 40
176.0
 40
176.0
 40
177.0
 40
177.0
 40
178.0
 40
178.0
 40
179.0
 40
179.0
 40
180.0
 40
180.0
 40
181.0
 40
181.0
 40
182.0
 40
182.0
 40
183.0
 40
183.0
 40
184.0
 40
184.0
 40
185.0
 40
185.0
 40
186.0
 40
186.0
 40
187.0
 40
187.0
 40
188.0
 40
188.0
 40
189.0
 40
189.0
 40
190.0
 40
190.0
 40
191.0
 40
191.0
 40
192.0
 40
192.0
 40
193.0
 40
193.0
 40
194.0
 40
194.0
 40
195.0
 40
195.0
 40
196.0
 40
196.0
 40
197.0
 40
197.0
 40
198.0
 40
198.0
 40
199.0
 40
199.0
 40
200.0
 40
200.0
 40
201.0
 40
201.0
 40
202.0
 40
202.0
 40
203.0
 40
203.0
 40
204.0
 40
204.0
 40
205.0
 40
205.0
 40
206.0
 40
206.0
 40
207.0
 40
207.0
 40
208.0
 40
208.0
 40
209.0
 40
209.0
 40
210.0
 40
210.0
 40
211.0
 40
211.0
 40
212.0
 40
212.0
 40
213.0
 40
213.0
 40
214.0
 40
214.0
 40
215.0
 40
215.0
 40
216.0
 40
216.0
 40
217.0
 40
217.0
 40
218.0
 40
218.0
 40
219.0
 40
219.0
 40
220.0
 40
220.0
 40
221.0
 40
221.0
 40
222.0
 40
222.0
 40
223.0
 40
223.0
 40
224.0
 40
224.0
 40
225.0
 40
225.0
 40
226.0
 40
226.0
 40
227.0
 40
227.0
 40
228.0
 40
228.0
 40
229.0
 40
229.0
 40
230.0
 40
230.0
 40
231.0
 40
231.0
 40
232.0
 40
232.0
 40
233.0
 40
233.0
 40
234.0
 40
234.0
 40
235.0
 40
235.0
 40
236.0
 40
236.0
 40
237.0
 40
237.0
 40
238.0
 40
238.0
 40
239.0
 40
239.0
 40
240.0
 40
240.0
 40
241.0
 40
241.0
 40
242.0
 40
242.0
 40
243.0
 40
243.0
 40
244.0
 40
244.0
 40
245.0
 40
245.0
 40
246.0
 40
246.0
 40
247.0
 40
247.0
 40
248.0
 40
248.0
 40
249.0
 40
249.0
 40
250.0
 40
250.0
 40
251.0
 40
251.0
 40
252.0
 40
252.0
 40
253.0
 40
253.0
 40
254.0
 40
254.0
 40
255.0
 40
255.0
 40
256.0
 40
256.0
 40
257.0
 40
257.0
 40
258.0
 40
258.0
 40
259.0
 40
259.0
 40
260.0
 40
260.0
 40
261.0
 40
261.0
 40
262.0
 40
262.0
 40
263.0
 40
263.0
 40
264.0
 40
264.0
 40
265.0
 40
265.0
 40
266.0
 40
266.0
 40
267.0
 40
267.0
 40
268.0
 40
268.0
 40
269.0
 40
269.0
 40
270.0
 40
270.0
 40
271.0
 40
271.0
 40
272.0
 40
272.0
 40
273.0
 40
273.0
 40
274.0
 40
274.0
 40
275.0
 40
275.0
 40
276.0
 40
276.0
 40
277.0
 40
277.0
 40
278.0
 40
278.0
 40
279.0
 40
279.0
 40
280.0
 40
280.0
 40
281.0
 40
281.0
 40
282.0
 40
282.0
 40
283.0
 40
283.0
 40
284.0
 40
284.0
 40
285.0
 40
285.0
 40
286.0
 40
286.0
 40
287.0
 40
287.0
 40
288.0
 40
288.0
 40
289.0
 40
289.0
 40
290.0
 40
290.0
 40
291.0
 40
291.0
 40
292.0
 40
292.0
 40
293.0
 40
293.0
 40
294.0
 40
294.0
 40
295.0
 40
295.0
 40
296.0
 40
296.0
 40
297.0
 40
297.0
 40
298.0
 40
298.0
 40
299.0
 40
299.0
 40
300.0
 40
300.0
 40
301.0
 40
301.0
 40
302.0
 40
302.0
 40
303.0
 40
303.0
 40
304.0
 40
304.0
 40
305.0
 40
305.0
 40
306.0
 40
306.0
 40
307.0
 40
307.0
 40
308.0
 40
308.0
 40
309.0
 40
309.0
 40
310.0
 40
310.0
 40
311.0
 40
311.0
 40
312.0
 40
312.0
 40
313.0
 40
313.0
 40
314.0
 40
314.0
 40
315.0
 40
315.0
 40
316.0
 40
316.0
 40
317.0
 40
317.0
 40
318.0
 40
318.0
 40
319.0
 40
319.0
 40
320.0
 40
320.0
 40
321.0
 40
321.0
 40
322.0
 40
322.0
 40
323.0
 40
323.0
 40
324.0
 40
324.0
 40
325.0
 40
325.0
 40
326.0
 40
326.0
 40
327.0
 40
327.0
 40
328.0
 40
328.0
 40
329.0
 40
329.0
 40
330.0
 40
330.0
 40
331.0
 40
331.0
 40
332.0
 40
332.0
 40
333.0
 40
333.0
 40
334.0
 40
334.0
 40
335.0
 40
335.0
 40
336.0
 40
336.0
 40
337.0
 40
337.0
 40
338.0
 40
338.0
 40
339.0
 40
339.0
 40
340.0
 40
340.0
 40
341.0
 40
341.0
 40
342.0
 40
342.0
 40
343.0
 40
343.0
 40
344.0
 40
344.0
 40
345.0
 40
345.0
 40
346.0
 40
346.0
 40
347.0
 40
347.0
 40
348.0
 40
348.0
 40
349.0
 40
349.0
 40
350.0
 40
350.0
 40
351.0
 40
351.0
 40
352.0
 40
352.0
 40
353.0
 40
353.0
 40
354.0
 40
354.0
 40
355.0
 40
355.0
 40
356.0
 40
356.0
 40
357.0
 40
357.0
 40
358.0
 40
358.0
 40
359.0
 40
359.0
 40
360.0
 40
360.0
 40
361.0
 40
361.0
 40
362.0
 40
362.0
 40
363.0
 40
363.0
 40
364.0
 40
364.0
 40
365.0
 40
365.0
 40
366.0
 40
366.0
 40
367.0
 40
367.0
 40
368.0
 40
368.0
 40
369.0
 40
369.0
 40
370.0
 40
370.0
 40
371.0
 40
371.0
 40
372.0
 40
372.0
 40
373.0
 40
373.0
 40
374.0
 40
374.0
 40
375.0
 40
375.0
 40
376.0
 40
376.0
 40
377.0
 40
377.0
 40
378.0
 40
378.0
 40
379.0
 40
379.0
 40
380.0
 40
380.0
 40
381.0
 40
381.0
 40
382.0
 40
382.0
 40
383.0
 40
383.0
 40
384.0
 40
384.0
 40
385.0
 40
385.0
 40
386.0
 40
386.0
 40
387.0
 40
387.0
 40
388.0
 40
388.0
 40
389.0
 40
389.0
 40
389.0
 10
930.29987164881129
 20
-1398.354391932814
 30
0.0
 41
1.0
 10
931.11829575753177
 20
-1398.354391932814
 30
0.0
 41
1.0
 10
931.93671986625225
 20
-1398.354391932814
 30
0.0
 41
1.0
 10
931.52296613073554
 20
-1399.6970181970637
 30
0.0
 41
1.0
 10
931.10921239521872
 20
-1401.0396444613134
 30
0.0
 41
1.0
 10
931.12755189039649
 20
-1401.0109436883865
 30
0.0
 41
0.9999957264375232
 10
931.14605888723759
 20
-1400.9823506382197
 30
0.0
 41
1.0
 10
931.17648821136481
 20
-1400.9353377598595
 30
0.0
 41
1.0
 10
931.20691753549204
 20
-1400.8883248814993
 30
0.0
 41
1.0
 10
931.28628318059884
 20
-1400.7657060745948
 30
0.0
 41
0.9995394069081464
 10
931.37294157215183
 20
-1400.6481280128517
 30
0.0
 41
1.0
 10
931.40869843440998
 20
-1400.5996131202605
 30
0.0
 41
1.0
 10
931.44445529666814
 20
-1400.5510982276692
 30
0.0
 41
1.0
 10
931.5781819644867
 20
-1400.3696579525417
 30
0.0
 41
0.9994460617143031
 10
931.72368244577569
 20
-1400.197515554891
 30
0.0
 41
1.0
 10
931.72807062675292
 20
-1400.1923238745057
 30
0.0
 41
1.0
 10
931.73245880773027
 20
-1400.1871321941205
 30
0.0
 41
1.0
 10
931.86918292706537
 20
-1400.0253731572398
 30
0.0
 41
0.9994359394934366
 10
932.01645715741506
 20
-1399.8731569560769
 30
0.0
 41
1.0
 10
932.0188405113704
 20
-1399.8706936257017
 30
0.0
 41
1.0
 10
932.02122386532574
 20
-1399.8682302953264
 30
0.0
 41
1.0
 10
932.16373138776817
 20
-1399.7209407549105
 30
0.0
 41
0.9995293688567949
 10
932.31500306874864
 20
-1399.5826675427479
 30
0.0
 41
1.0
 10
932.33429682801261
 20
-1399.5650316570961
 30
0.0
 41
1.0
 10
932.35359058727659
 20
-1399.5473957714444
 30
0.0
 41
1.0
 10
932.46627474973218
 20
-1399.4443943305826
 30
0.0
 41
0.999708761480295
 10
932.58379763868584
 20
-1399.3469500497858
 30
0.0
 41
1.0
 10
932.60296371185314
 20
-1399.3310584712847
 30
0.0
 41
1.0
 10
932.62212978502043
 20
-1399.3151668927835
 30
0.0
 41
1.0
 10
932.70132052763279
 20
-1399.2495057689944
 30
0.0
 41
0.999959533870061
 10
932.78167979849604
 20
-1399.1852800383331
 30
0.0
 41
1.0
 10
932.86203906936078
 20
-1399.1210543076709
 30
0.0
 41
0.9999749417497325
 10
932.94329960370794
 20
-1399.0579727537215
 30
0.0
 41
1.0
 10
932.96428574987453
 20
-1399.0416814664168
 30
0.0
 41
1.0
 10
932.98527189604101
 20
-1399.0253901791118
 30
0.0
 41
1.0
 10
933.06983978133303
 20
-1398.9597411692787
 30
0.0
 41
0.9999792037124936
 10
933.15524738109707
 20
-1398.8951883876391
 30
0.0
 41
1.0
 10
933.17607220694708
 20
-1398.879448565428
 30
0.0
 41
1.0
 10
933.19689703279698
 20
-1398.8637087432166
 30
0.0
 41
1.0
 10
933.24065498078096
 20
-1398.8306356060598
 30
0.0
 41
0.9999993374092212
 10
933.28433666700971
 20
-1398.7974618105713
 30
0.0
 41
1.0
 10
933.32801835315377
 20
-1398.7642880151468
 30
0.0
 41
0.9999160953816474
 10
933.37254476407429
 20
-1398.7322569499477
 30
0.0
 41
1.0
 10
933.40536665149284
 20
-1398.7086457943635
 30
0.0
 41
1.0
 10
933.4381885389115
 20
-1398.6850346387794
 30
0.0
 41
1.0
 10
933.54835872466901
 20
-1398.6057812624122
 30
0.0
 41
0.9980964527231609
 10
933.66744771816752
 20
-1398.5406937895573
 30
0.0
 41
1.0
 10
933.70448032509694
 20
-1398.5204538099633
 30
0.0
 41
1.0
 10
933.74151293202624
 20
-1398.5002138303696
 30
0.0
 41
1.0
 10
933.92083994529992
 20
-1398.4022035796679
 30
0.0
 41
0.998457281057227
 10
934.10992851165884
 20
-1398.3246813183216
 30
0.0
 41
1.0
 10
934.1135747810539
 20
-1398.323186425984
 30
0.0
 41
1.0
 10
934.11722105044896
 20
-1398.3216915336463
 30
0.0
 41
1.0
 10
934.29901707801707
 20
-1398.2471590569755
 30
0.0
 41
0.998783852803421
 10
934.48726973657699
 20
-1398.1908934168096
 30
0.0
 41
1.0
 10
934.4915076857742
 20
-1398.1896267631198
 30
0.0
 41
1.0
 10
934.49574563497151
 20
-1398.1883601094301
 30
0.0
 41
1.0
 10
934.67552239513429
 20
-1398.1346277766443
 30
0.0
 41
0.9990652816207043
 10
934.85926832685209
 20
-1398.0966240971018
 30
0.0
 41
1.0
 10
934.86445672788182
 20
-1398.0955509939956
 30
0.0
 41
1.0
 10
934.86964512891166
 20
-1398.0944778908895
 30
0.0
 41
1.0
 10
935.04301425856613
 20
-1398.05862041756
 30
0.0
 41
0.9992909934270049
 10
935.21859002502629
 20
-1398.0359099850932
 30
0.0
 41
1.0
 10
935.39416579148281
 20
-1398.0131995526267
 30
0.0
 41
0.9994553539448754
 10
935.57085722457441
 20
-1398.0021202484206
 30
0.0
 41
1.0
 10
935.60629163237218
 20
-1397.9998983603728
 30
0.0
 41
1.0
 10
935.64172604016983
 20
-1397.9976764723249
 30
0.0
 41
1.0
 10
935.80795180673897
 20
-1397.9872534099131
 30
0.0
 41
0.9990928098293119
 10
935.97446159864103
 20
-1397.9910130511475
 30
0.0
 41
1.0
 10
936.01302343391171
 20
-1397.9918837426803
 30
0.0
 41
1.0
 10
936.0515852691824
 20
-1397.9927544342133
 30
0.0
 41
1.0
 10
936.14097139054252
 20
-1397.994772692382
 30
0.0
 41
0.9998382089205219
 10
936.23022707332984
 20
-1398.0000048189102
 30
0.0
 41
1.0
 10
936.23065697954735
 20
-1398.0000300198121
 30
0.0
 41
1.0
 10
936.23108688576485
 20
-1398.0000552207143
 30
0.0
 41
1.0
 10
936.31948275611376
 20
-1398.0052369454381
 30
0.0
 41
0.9997558016758548
 10
936.40756333331683
 20
-1398.0143194608047
 30
0.0
 41
1.0
 10
936.40803947174595
 20
-1398.0143685582871
 30
0.0
 41
1.0
 10
936.40851561017496
 20
-1398.0144176557696
 30
0.0
 41
1.0
 10
936.49564391051672
 20
-1398.0234019761708
 30
0.0
 41
0.999656514418101
 10
936.58218176385981
 20
-1398.0369392828602
 30
0.0
 41
1.0
 10
936.58264768923573
 20
-1398.0370121685914
 30
0.0
 41
1.0
 10
936.58311361461176
 20
-1398.0370850543225
 30
0.0
 41
1.0
 10
936.66871961720017
 20
-1398.0504765895489
 30
0.0
 41
0.9995321806867199
 10
936.75334669752976
 20
-1398.0690770779786
 30
0.0
 41
1.0
 10
936.75373589210335
 20
-1398.0691626204448
 30
0.0
 41
1.0
 10
936.75412508667705
 20
-1398.0692481629112
 30
0.0
 41
1.0
 10
936.83797377785947
 20
-1398.0876775664085
 30
0.0
 41
0.9993819199219834
 10
936.92032031205395
 20
-1398.1119529496684
 30
0.0
 41
1.0
 10
936.92055874555172
 20
-1398.1120232387777
 30
0.0
 41
1.0
 10
936.92079717904949
 20
-1398.1120935278871
 30
0.0
 41
1.0
 10
937.00266684625035
 20
-1398.136228332929
 30
0.0
 41
0.9992088568505037
 10
937.0823593652384
 20
-1398.1667935687235
 30
0.0
 41
1.0
 10
937.16204035611747
 20
-1398.1973531694568
 30
0.0
 41
0.9990226101773911
 10
937.23871102602459
 20
-1398.2348306010713
 30
0.0
 41
1.0
 10
937.31537016782272
 20
-1398.2723023976246
 30
0.0
 41
0.998842427397206
 10
937.38807379503453
 20
-1398.3169671728774
 30
0.0
 41
1.0
 10
937.38834150341404
 20
-1398.3171316369499
 30
0.0
 41
1.0
 10
937.38860921179366
 20
-1398.3172961010221
 30
0.0
 41
1.0
 10
937.46184825576461
 20
-1398.3622898044196
 30
0.0
 41
0.998692884449177
 10
937.53011112247441
 20
-1398.4145255386991
 30
0.0
 41
1.0
 10
937.53069241469711
 20
-1398.414970351927
 30
0.0
 41
1.0
 10
937.53127370691982
 20
-1398.4154151651549
 30
0.0
 41
1.0
 10
937.60069915807503
 20
-1398.4685405258899
 30
0.0
 41
0.9986007262277046
 10
937.66412532784125
 20
-1398.5287012955832
 30
0.0
 41
1.0
 10
937.66501974329879
 20
-1398.5295496634185
 30
0.0
 41
1.0
 10
937.66591415875632
 20
-1398.530398031254
 30
0.0
 41
1.0
 10
937.73112915943727
 20
-1398.5922555366174
 30
0.0
 41
0.9985581491380805
 10
937.78933677113901
 20
-1398.6607480268892
 30
0.0
 41
1.0
 10
937.79859522473487
 20
-1398.671642384591
 30
0.0
 41
1.0
 10
937.80785367833073
 20
-1398.6825367422928
 30
0.0
 41
1.0
 10
937.88457819722407
 20
-1398.7728179479675
 30
0.0
 41
0.9970460233518771
 10
937.9465700983834
 20
-1398.8737850321495
 30
0.0
 41
1.0
 10
937.96103946346329
 20
-1398.8973514912313
 30
0.0
 41
1.0
 10
937.9755088285433
 20
-1398.9209179503132
 30
0.0
 41
1.0
 10
938.01524552855506
 20
-1398.9856376743444
 30
0.0
 41
0.9988468816637008
 10
938.0485918993063
 20
-1399.0538701267715
 30
0.0
 41
1.0
 10
938.05562792179842
 20
-1399.06826704791
 30
0.0
 41
1.0
 10
938.06266394429053
 20
-1399.0826639690488
 30
0.0
 41
1.0
 10
938.08193827005812
 20
-1399.1221025791999
 30
0.0
 41
0.9998431189996929
 10
938.09980359755286
 20
-1399.1621991336399
 30
0.0
 41
1.0
 10
938.11766892508092
 20
-1399.2022956881551
 30
0.0
 41
0.9999989989935415
 10
938.13564764851083
 20
-1399.2423415257558
 30
0.0
 41
1.0
 10
938.1418199600846
 20
-1399.2560897425228
 30
0.0
 41
1.0
 10
938.14799227165827
 20
-1399.2698379592896
 30
0.0
 41
1.0
 10
938.17831561826881
 20
-1399.3373802304986
 30
0.0
 41
0.9998790356322486
 10
938.20652349840441
 20
-1399.4058329824304
 30
0.0
 41
1.0
 10
938.21335867968946
 20
-1399.4224200838594
 30
0.0
 41
1.0
 10
938.22019386097452
 20
-1399.4390071852886
 30
0.0
 41
1.0
 10
938.24375152335631
 20
-1399.4961751401777
 30
0.0
 41
0.9998227574561287
 10
938.26514027174494
 20
-1399.5541894484536
 30
0.0
 41
1.0
 10
938.28652902013471
 20
-1399.6122037567327
 30
0.0
 41
0.9996797971041512
 10
938.30495530509313
 20
-1399.6712258758482
 30
0.0
 41
1.0
 10
938.30885910781876
 20
-1399.6837303340176
 30
0.0
 41
1.0
 10
938.31276291054451
 20
-1399.6962347921872
 30
0.0
 41
1.0
 10
938.33899680095499
 20
-1399.7802658276437
 30
0.0
 41
0.9979274938733918
 10
938.35422132443398
 20
-1399.8669701863028
 30
0.0
 41
1.0
 10
938.35644501169509
 20
-1399.8796341871234
 30
0.0
 41
1.0
 10
938.35866869895619
 20
-1399.8922981879441
 30
0.0
 41
1.0
 10
938.36959863865479
 20
-1399.9545446952368
 30
0.0
 41
0.9994985982137639
 10
938.37656680383157
 20
-1400.0173581963779
 30
0.0
 41
1.0
 10
938.38353496900868
 20
-1400.0801716975213
 30
0.0
 41
0.9996372611201504
 10
938.38711083477631
 20
-1400.1432692762016
 30
0.0
 41
1.0
 10
938.38727941226557
 20
-1400.146243893284
 30
0.0
 41
1.0
 10
938.38744798975495
 20
-1400.1492185103666
 30
0.0
 41
1.0
 10
938.39136101050144
 20
-1400.2182653232121
 30
0.0
 41
0.9997730630736228
 10
938.39232932398932
 20
-1400.2874161472453
 30
0.0
 41
1.0
 10
938.39238643040744
 20
-1400.2914943263879
 30
0.0
 41
1.0
 10
938.39244353682557
 20
-1400.2955725055306
 30
0.0
 41
1.0
 10
938.39352606314992
 20
-1400.3728796878531
 30
0.0
 41
0.9998772614071323
 10
938.39218597641786
 20
-1400.4501828344294
 30
0.0
 41
1.0
 10
938.39209671321919
 20
-1400.455331998256
 30
0.0
 41
1.0
 10
938.39200745002063
 20
-1400.4604811620827
 30
0.0
 41
1.0
 10
938.39048883689111
 20
-1400.5480826363253
 30
0.0
 41
0.9999415567331412
 10
938.38707652664527
 20
-1400.6356307979979
 30
0.0
 41
1.0
 10
938.3868352059701
 20
-1400.6418222577322
 30
0.0
 41
1.0
 10
938.38659388529481
 20
-1400.6480137174667
 30
0.0
 41
1.0
 10
938.38269893369886
 20
-1400.7479447986077
 30
0.0
 41
0.9999716810429059
 10
938.37730035057996
 20
-1400.847805936841
 30
0.0
 41
1.0
 10
938.37408755179115
 20
-1400.9072351864993
 30
0.0
 41
1.0
 10
938.37087475300234
 20
-1400.9666644361575
 30
0.0
 41
1.0
 10
938.36280084384907
 20
-1401.1160128374486
 30
0.0
 41
0.9999819129914191
 10
938.35293105223286
 20
-1401.2652533151522
 30
0.0
 41
1.0
 10
938.34306126061631
 20
-1401.4144937928636
 30
0.0
 41
1.0
 10
938.34062194005242
 20
-1401.4516868387127
 30
0.0
 41
1.0
 10
938.36332017386894
 20
-1401.4129458414077
 30
0.0
 41
0.9999982128191196
 10
938.38616473259174
 20
-1401.3742909475052
 30
0.0
 41
1.0
 10
938.41307429250014
 20
-1401.3287577334099
 30
0.0
 41
1.0
 10
938.43998385240855
 20
-1401.2832245193149
 30
0.0
 41
1.0
 10
938.51664753093371
 20
-1401.153503197246
 30
0.0
 41
0.9998609190058981
 10
938.59759484379924
 20
-1401.026410815311
 30
0.0
 41
1.0
 10
938.6272431652734
 20
-1400.9798610823655
 30
0.0
 41
1.0
 10
938.65689148674755
 20
-1400.9333113494201
 30
0.0
 41
1.0
 10
938.73916370699089
 20
-1400.8041387794149
 30
0.0
 41
0.9999067609733958
 10
938.82493271646081
 20
-1400.677261089965
 30
0.0
 41
1.0
 10
938.82733741966717
 20
-1400.6737038239021
 30
0.0
 41
1.0
 10
938.82974212287365
 20
-1400.670146557839
 30
0.0
 41
1.0
 10
938.91070172593015
 20
-1400.5503834005165
 30
0.0
 41
0.9998784952149641
 10
938.99535533560618
 20
-1400.433202183815
 30
0.0
 41
1.0
 10
939.08000894528709
 20
-1400.3160209671069
 30
0.0
 41
0.9998532968284647
 10
939.16862656610908
 20
-1400.2018080586372
 30
0.0
 41
1.0
 10
939.18858835509923
 20
-1400.1760807376181
 30
0.0
 41
1.0
 10
939.20855014408937
 20
-1400.1503534165993
 30
0.0
 41
1.0
 10
939.32703419384882
 20
-1399.9976478056296
 30
0.0
 41
0.9991551975795042
 10
939.45765864347482
 20
-1399.8551882435434
 30
0.0
 41
1.0
 10
939.46116825945319
 20
-1399.8513606419206
 30
0.0
 41
1.0
 10
939.46467787543156
 20
-1399.8475330402978
 30
0.0
 41
1.0
 10
939.58828309309649
 20
-1399.7127286814616
 30
0.0
 41
0.9997418144181018
 10
939.71788523279884
 20
-1399.5836792708474
 30
0.0
 41
1.0
 10
939.84748737250084
 20
-1399.4546298602338
 30
0.0
 41
0.9989238204633371
 10
939.9884899207542
 20
-1399.3381448981929
 30
0.0
 41
1.0
 10
940.03373759888996
 20
-1399.3007649065873
 30
0.0
 41
1.0
 10
940.07898527702571
 20
-1399.2633849149818
 30
0.0
 41
1.0
 10
940.21922533424834
 20
-1399.1475298616897
 30
0.0
 41
0.9990825084096634
 10
940.36886526685498
 20
-1399.0441008638547
 30
0.0
 41
1.0
 10
940.3789106309132
 20
-1399.0371576507744
 30
0.0
 41
1.0
 10
940.38895599497141
 20
-1399.030214437694
 30
0.0
 41
1.0
 10
940.51850519945901
 20
-1398.9406718660216
 30
0.0
 41
0.9998164899826479
 10
940.65138940283521
 20
-1398.8561576245054
 30
0.0
 41
1.0
 10
940.66323496335826
 20
-1398.8486238579817
 30
0.0
 41
1.0
 10
940.67508052388132
 20
-1398.8410900914578
 30
0.0
 41
1.0
 10
940.78427360620992
 20
-1398.7716433829901
 30
0.0
 41
0.9997473449130307
 10
940.89647756346085
 20
-1398.7071744251734
 30
0.0
 41
1.0
 10
941.00868152070495
 20
-1398.6427054673607
 30
0.0
 41
0.999932786114679
 10
941.12235013146881
 20
-1398.5808554756791
 30
0.0
 41
1.0
 10
941.12290213403207
 20
-1398.5805551169985
 30
0.0
 41
1.0
 10
941.12345413659523
 20
-1398.580254758318
 30
0.0
 41
1.0
 10
941.23822675248027
 20
-1398.5178040492781
 30
0.0
 41
0.999695642048395
 10
941.3559400783206
 20
-1398.4610905823033
 30
0.0
 41
1.0
 10
941.38638048321468
 20
-1398.4464246055727
 30
0.0
 41
1.0
 10
941.41682088810865
 20
-1398.4317586288421
 30
0.0
 41
1.0
 10
941.51979799485093
 20
-1398.3821449703992
 30
0.0
 41
0.9998070570176681
 10
941.6246443837905
 20
-1398.336614383499
 30
0.0
 41
1.0
 10
941.7294907727287
 20
-1398.2910837965992
 30
0.0
 41
0.9997827436148292
 10
941.83614370933356
 20
-1398.2499626252893
 30
0.0
 41
1.0
 10
941.85536655896885
 20
-1398.2425510516555
 30
0.0
 41
1.0
 10
941.87458940860415
 20
-1398.2351394780214
 30
0.0
 41
1.0
 10
942.01968804447711
 20
-1398.1791951594446
 30
0.0
 41
0.9988031841976705
 10
942.16955840708192
 20
-1398.1376950952767
 30
0.0
 41
1.0
 10
942.19447565544601
 20
-1398.1307953494697
 30
0.0
 41
1.0
 10
942.2193929038101
 20
-1398.1238956036625
 30
0.0
 41
1.0
 10
942.38666292945641
 20
-1398.0775774612559
 30
0.0
 41
0.9984748040549967
 10
942.55801983810409
 20
-1398.0499832289913
 30
0.0
 41
1.0
 10
942.56275897435319
 20
-1398.049220068478
 30
0.0
 41
1.0
 10
942.56749811060229
 20
-1398.0484569079645
 30
0.0
 41
1.0
 10
942.72937674675313
 20
-1398.0223889967265
 30
0.0
 41
0.9984436495479806
 10
942.89315149047775
 20
-1398.0145110429078
 30
0.0
 41
1.0
 10
942.91484869860903
 20
-1398.0134673557081
 30
0.0
 41
1.0
 10
942.93654590674032
 20
-1398.0124236685085
 30
0.0
 41
1.0
 10
943.05692623420248
 20
-1398.0066330890891
 30
0.0
 41
0.9987954789335164
 10
943.17729447911233
 20
-1398.0126696168313
 30
0.0
 41
1.0
 10
943.19725927160812
 20
-1398.0136708611699
 30
0.0
 41
1.0
 10
943.21722406410402
 20
-1398.0146721055087
 30
0.0
 41
1.0
 10
943.29766272402367
 20
-1398.0187061445738
 30
0.0
 41
0.999794159587621
 10
943.37787150211659
 20
-1398.0260002104947
 30
0.0
 41
1.0
 10
943.45808028021474
 20
-1398.0332942764162
 30
0.0
 41
0.9998589466236937
 10
943.53799882707324
 20
-1398.0432781308668
 30
0.0
 41
1.0
 10
943.57040502887787
 20
-1398.0473264877855
 30
0.0
 41
1.0
 10
943.60281123068251
 20
-1398.0513748447042
 30
0.0
 41
1.0
 10
943.74754218115118
 20
-1398.0694554129923
 30
0.0
 41
0.9993495063249239
 10
943.8905934249143
 20
-1398.0979211227334
 30
0.0
 41
1.0
 10
943.9235271220698
 20
-1398.104474585949
 30
0.0
 41
1.0
 10
943.95646081922541
 20
-1398.1110280491646
 30
0.0
 41
1.0
 10
944.06575464242974
 20
-1398.1327763833001
 30
0.0
 41
0.9996788715561684
 10
944.17380621438463
 20
-1398.1600341826627
 30
0.0
 41
1.0
 10
944.17586921692418
 20
-1398.1605546092358
 30
0.0
 41
1.0
 10
944.17793221946386
 20
-1398.1610750358088
 30
0.0
 41
1.0
 10
944.28185778634167
 20
-1398.187291982026
 30
0.0
 41
0.9995480654492442
 10
944.38402002157045
 20
-1398.21970693865
 30
0.0
 41
1.0
 10
944.38570966369957
 20
-1398.2202430435641
 30
0.0
 41
1.0
 10
944.38739930582869
 20
-1398.220779148478
 30
0.0
 41
1.0
 10
944.48618225680059
 20
-1398.2521218952745
 30
0.0
 41
0.9993867959455933
 10
944.58252941524245
 20
-1398.2903012645641
 30
0.0
 41
1.0
 10
944.58377236432659
 20
-1398.29079380646
 30
0.0
 41
1.0
 10
944.58501531341074
 20
-1398.2912863483559
 30
0.0
 41
1.0
 10
944.67887657368453
 20
-1398.3284806338536
 30
0.0
 41
0.9992050256521771
 10
944.76947624871832
 20
-1398.3730345330926
 30
0.0
 41
1.0
 10
944.77021093143162
 20
-1398.3733958255539
 30
0.0
 41
1.0
 10
944.77094561414503
 20
-1398.3737571180152
 30
0.0
 41
1.0
 10
944.8600759237529
 20
-1398.4175884323322
 30
0.0
 41
0.9990222350742198
 10
944.94498598514542
 20
-1398.4691217000297
 30
0.0
 41
1.0
 10
944.94516987042812
 20
-1398.4692333029345
 30
0.0
 41
1.0
 10
944.9453537557107
 20
-1398.4693449058393
 30
0.0
 41
1.0
 10
945.02989604653953
 20
-1398.5206549677287
 30
0.0
 41
0.9988642743805528
 10
945.10917058115797
 20
-1398.5797791552534
 30
0.0
 41
1.0
 10
945.18844511577709
 20
-1398.6389033427788
 30
0.0
 41
0.9987681233311242
 10
945.26146890005339
 20
-1398.7055940341795
 30
0.0
 41
1.0
 10
945.2617978280191
 20
-1398.7058944353935
 30
0.0
 41
1.0
 10
945.26212675598481
 20
-1398.7061948366077
 30
0.0
 41
1.0
 10
945.33580839619253
 20
-1398.7734863304368
 30
0.0
 41
0.9987496570898327
 10
945.40240220151964
 20
-1398.8477991445234
 30
0.0
 41
1.0
 10
945.4031743712801
 20
-1398.8486608178814
 30
0.0
 41
1.0
 10
945.40394654104057
 20
-1398.8495224912392
 30
0.0
 41
1.0
 10
945.47208468588769
 20
-1398.9255586520403
 30
0.0
 41
0.9988147669826568
 10
945.53250694011274
 20
-1399.0078596588828
 30
0.0
 41
1.0
 10
945.53362626619094
 20
-1399.0093842902361
 30
0.0
 41
1.0
 10
945.53474559226913
 20
-1399.0109089215891
 30
0.0
 41
1.0
 10
945.59740649865012
 20
-1399.0962591911377
 30
0.0
 41
0.9989452636216534
 10
945.65197341161115
 20
-1399.1869978802949
 30
0.0
 41
1.0
 10
945.6533221376967
 20
-1399.189240661321
 30
0.0
 41
1.0
 10
945.65467086378226
 20
-1399.1914834423469
 30
0.0
 41
1.0
 10
945.71193522891485
 20
-1399.286707693557
 30
0.0
 41
0.9991046436070412
 10
945.76094444223747
 20
-1399.3864321265844
 30
0.0
 41
1.0
 10
945.76240830382699
 20
-1399.3894108066561
 30
0.0
 41
1.0
 10
945.76387216541661
 20
-1399.3923894867276
 30
0.0
 41
1.0
 10
945.81580910191849
 20
-1399.4980712798981
 30
0.0
 41
0.9992763831100686
 10
945.85956223047356
 20
-1399.607395341854
 30
0.0
 41
1.0
 10
945.86104150013682
 20
-1399.6110915293875
 30
0.0
 41
1.0
 10
945.86252076980008
 20
-1399.614787716921
 30
0.0
 41
1.0
 10
945.90923243768202
 20
-1399.7315041539446
 30
0.0
 41
0.9994163472883417
 10
945.94786546887065
 20
-1399.8511377424054
 30
0.0
 41
1.0
 10
945.94910362111762
 20
-1399.8549718861889
 30
0.0
 41
1.0
 10
945.95034177336458
 20
-1399.8588060299724
 30
0.0
 41
1.0
 10
945.99022533438279
 20
-1399.9823120914537
 30
0.0
 41
0.9997268055890305
 10
946.02429339029436
 20
-1400.1075471234028
 30
0.0
 41
1.0
 10
946.02522357056387
 20
-1400.1109664895112
 30
0.0
 41
1.0
 10
946.02615375083326
 20
-1400.1143858556197
 30
0.0
 41
1.0
 10
946.05836144620571
 20
-1400.2327821553506
 30
0.0
 41
0.9996701318999793
 10
946.08444706297678
 20
-1400.3526761086171
 30
0.0
 41
1.0
 10
946.11053267974739
 20
-1400.472570061881
 30
0.0
 41
0.9995785451109294
 10
946.1296162570867
 20
-1400.5937758229099
 30
0.0
 41
1.0
 10
946.13383603926059
 20
-1400.6205769776757
 30
0.0
 41
1.0
 10
946.13805582143436
 20
-1400.6473781324414
 30
0.0
 41
1.0
 10
946.16463079737321
 20
-1400.8161641061461
 30
0.0
 41
0.9979925101216325
 10
946.16965638329941
 20
-1400.986955434237
 30
0.0
 41
1.0
 10
946.17048119572405
 20
-1401.0149861577147
 30
0.0
 41
1.0
 10
946.17130600814858
 20
-1401.0430168811924
 30
0.0
 41
1.0
 10
946.17468196922584
 20
-1401.1577467623226
 30
0.0
 41
0.9995314902263225
 10
946.17103177708725
 20
-1401.2724682460805
 30
0.0
 41
1.0
 10
946.16738158494854
 20
-1401.3871897298343
 30
0.0
 41
0.9996245486944544
 10
946.15745248981784
 20
-1401.5015390009569
 30
0.0
 41
1.0
 10
946.15728944182365
 20
-1401.5034167570918
 30
0.0
 41
1.0
 10
946.15712639382946
 20
-1401.5052945132268
 30
0.0
 41
1.0
 10
946.1468712027098
 20
-1401.6233992966236
 30
0.0
 41
0.9997286095000826
 10
946.13112587913815
 20
-1401.7408982055194
 30
0.0
 41
1.0
 10
946.13073238648803
 20
-1401.7438346302197
 30
0.0
 41
1.0
 10
946.13033889383792
 20
-1401.7467710549197
 30
0.0
 41
1.0
 10
946.11380658496648
 20
-1401.8701428132135
 30
0.0
 41
0.9998265533969921
 10
946.09269112623474
 20
-1401.9928132879973
 30
0.0
 41
1.0
 10
946.09201458409677
 20
-1401.9967436665095
 30
0.0
 41
1.0
 10
946.09133804195881
 20
-1402.0006740450217
 30
0.0
 41
1.0
 10
946.06886949895136
 20
-1402.131205276828
 30
0.0
 41
0.9999022530851953
 10
946.0427600343412
 20
-1402.2610572454676
 30
0.0
 41
1.0
 10
946.04178139317628
 20
-1402.2659243878529
 30
0.0
 41
1.0
 10
946.04080275201125
 20
-1402.2707915302383
 30
0.0
 41
1.0
 10
946.01273600506761
 20
-1402.4103777836644
 30
0.0
 41
0.9999524761937957
 10
945.98195303623265
 20
-1402.5493902768299
 30
0.0
 41
1.0
 10
945.98067692905875
 20
-1402.5551530361254
 30
0.0
 41
1.0
 10
945.97940082188484
 20
-1402.5609157954207
 30
0.0
 41
1.0
 10
945.94606563870275
 20
-1402.7114538071742
 30
0.0
 41
0.9999813588726887
 10
945.91089463790615
 20
-1402.8615735198334
 30
0.0
 41
1.0
 10
945.90934071244828
 20
-1402.8682061102618
 30
0.0
 41
1.0
 10
945.9077867869903
 20
-1402.8748387006904
 30
0.0
 41
1.0
 10
945.86950793526876
 20
-1403.0382235942443
 30
0.0
 41
0.9999955237652087
 10
945.83025205728325
 20
-1403.2013764978708
 30
0.0
 41
1.0
 10
945.81797042165772
 20
-1403.2524206883572
 30
0.0
 41
1.0
 10
945.80568878603208
 20
-1403.3034648788437
 30
0.0
 41
1.0
 10
945.74186963676948
 20
-1403.5687061635508
 30
0.0
 41
0.9999993604723582
 10
945.67745068959243
 20
-1403.8338024142727
 30
0.0
 41
1.0
 10
945.67273185405656
 20
-1403.853221322267
 30
0.0
 41
1.0
 10
945.66801301852081
 20
-1403.8726402302611
 30
0.0
 41
1.0
 10
945.59415640025941
 20
-1404.176574297024
 30
0.0
 41
0.9999659914719437
 10
945.51529680436965
 20
-1404.4792488436003
 30
0.0
 41
1.0
 10
945.51034411544174
 20
-1404.4982579807725
 30
0.0
 41
1.0
 10
945.50539142651382
 20
-1404.5172671179444
 30
0.0
 41
1.0
 10
945.41662645276983
 20
-1404.8579599388586
 30
0.0
 41
0.9999441976030029
 10
945.32068341980698
 20
-1405.1967013641554
 30
0.0
 41
1.0
 10
945.30398290138044
 20
-1405.2556650766865
 30
0.0
 41
1.0
 10
945.28728238295389
 20
-1405.3146287892177
 30
0.0
 41
1.0
 10
945.1579383131392
 20
-1405.7712976395719
 30
0.0
 41
0.9999625120734386
 10
945.02070554581564
 20
-1406.2256581735685
 30
0.0
 41
1.0
 10
944.98491560272635
 20
-1406.3441542002165
 30
0.0
 41
1.0
 10
944.94912565963705
 20
-1406.4626502268645
 30
0.0
 41
1.0
 10
944.87460545560236
 20
-1406.7093773049446
 30
0.0
 41
0.9999793386325198
 10
944.79691943247121
 20
-1406.9551259441603
 30
0.0
 41
1.0
 10
944.7192334093337
 20
-1407.2008745833964
 30
0.0
 41
1.0
 10
944.708453850463
 20
-1407.234892487771
 30
0.0
 41
1.0
 10
942.85808079719391
 20
-1413.1219644102387
 30
0.0
 41
1.0
 10
941.0077077439247
 20
-1419.0090363327063
 30
0.0
 41
1.0
 10
940.04645105390114
 20
-1419.0090363327063
 30
0.0
 41
1.0
 10
939.08519436387758
 20
-1419.0090363327063
 30
0.0
 41
1.0
 10
940.70413914255596
 20
-1413.8610078309168
 30
0.0
 41
1.0
 10
942.32308392123446
 20
-1408.7129793291274
 30
0.0
 41
1.0
 10
942.36824974441799
 20
-1408.568948106828
 30
0.0
 41
1.0
 10
942.41341556760153
 20
-1408.4249168845286
 30
0.0
 41
1.0
 10
942.58371998495647
 20
-1407.8818258553904
 30
0.0
 41
0.9999911657928898
 10
942.74945279662597
 20
-1407.3373223240612
 30
0.0
 41
1.0
 10
942.77914874011481
 20
-1407.2397583840491
 30
0.0
 41
1.0
 10
942.80884468360364
 20
-1407.1421944440369
 30
0.0
 41
1.0
 10
942.91518560829388
 20
-1406.7928187927382
 30
0.0
 41
0.9999952428183114
 10
943.01936919763125
 20
-1406.4427937683481
 30
0.0
 41
1.0
 10
943.02442866795548
 20
-1406.4257954941008
 30
0.0
 41
1.0
 10
943.0294881382797
 20
-1406.4087972198533
 30
0.0
 41
1.0
 10
943.12355278694929
 20
-1406.0927687440212
 30
0.0
 41
0.9999931687465478
 10
943.21527862482981
 20
-1405.7760535307282
 30
0.0
 41
1.0
 10
943.22021388928897
 20
-1405.7590128214583
 30
0.0
 41
1.0
 10
943.22514915374813
 20
-1405.7419721121885
 30
0.0
 41
1.0
 10
943.30700446270021
 20
-1405.4593383174692
 30
0.0
 41
0.9999893840818839
 10
943.3862516891603
 20
-1405.1759621882111
 30
0.0
 41
1.0
 10
943.46549891561517
 20
-1404.8925860589718
 30
0.0
 41
0.9999833980091085
 10
943.54147515635339
 20
-1404.6083154759569
 30
0.0
 41
1.0
 10
943.55047909307996
 20
-1404.5746265974626
 30
0.0
 41
1.0
 10
943.55948302980642
 20
-1404.5409377189683
 30
0.0
 41
1.0
 10
943.62844757867265
 20
-1404.2829018866719
 30
0.0
 41
0.9999233658068563
 10
943.69100254989064
 20
-1404.0232377279581
 30
0.0
 41
1.0
 10
943.75355752111091
 20
-1403.7635735692356
 30
0.0
 41
1.0
 10
943.79304093996848
 20
-1403.5997669048095
 30
0.0
 41
1.0
 10
943.7980195439427
 20
-1403.5791119429514
 30
0.0
 41
1.0
 10
943.80299814791704
 20
-1403.5584569810933
 30
0.0
 41
1.0
 10
943.83252435882378
 20
-1403.4359602403931
 30
0.0
 41
0.9999868670850101
 10
943.86079344282223
 20
-1403.3131672947379
 30
0.0
 41
1.0
 10
943.86469092998459
 20
-1403.2962377073004
 30
0.0
 41
1.0
 10
943.86858841714707
 20
-1403.2793081198629
 30
0.0
 41
1.0
 10
943.8890625268225
 20
-1403.190374349075
 30
0.0
 41
0.9999778173347331
 10
943.9083501249338
 20
-1403.101175731862
 30
0.0
 41
1.0
 10
943.92763772305011
 20
-1403.0119771146285
 30
0.0
 41
0.9999602692868953
 10
943.94533208168241
 20
-1402.9224488261934
 30
0.0
 41
1.0
 10
943.94853591375886
 20
-1402.9062383713135
 30
0.0
 41
1.0
 10
943.95173974583531
 20
-1402.8900279164338
 30
0.0
 41
1.0
 10
943.97584176862176
 20
-1402.7680787182344
 30
0.0
 41
0.9995617985319965
 10
943.99268511584046
 20
-1402.644916970527
 30
0.0
 41
1.0
 10
943.99514960574652
 20
-1402.6268961531623
 30
0.0
 41
1.0
 10
943.99761409565258
 20
-1402.6088753357976
 30
0.0
 41
1.0
 10
944.01789735670081
 20
-1402.4605602860977
 30
0.0
 41
0.999112141063945
 10
944.0256227102891
 20
-1402.3110641872913
 30
0.0
 41
1.0
 10
944.02654150031367
 20
-1402.293284350716
 30
0.0
 41
1.0
 10
944.02746029033813
 20
-1402.2755045141409
 30
0.0
 41
1.0
 10
944.03334806387738
 20
-1402.1615680884875
 30
0.0
 41
0.9989792494905382
 10
944.02892897176002
 20
-1402.0475652525868
 30
0.0
 41
1.0
 10
944.02828099989142
 20
-1402.0308490066618
 30
0.0
 41
1.0
 10
944.02763302802293
 20
-1402.0141327607371
 30
0.0
 41
1.0
 10
944.02450987964255
 20
-1401.9335624166877
 30
0.0
 41
0.9997820295394303
 10
944.01802588226701
 20
-1401.8531926949443
 30
0.0
 41
1.0
 10
944.01154188489159
 20
-1401.7728229732027
 30
0.0
 41
0.9998335105973663
 10
944.00212968938013
 20
-1401.6927433567553
 30
0.0
 41
1.0
 10
944.0005347647035
 20
-1401.6791736262699
 30
0.0
 41
1.0
 10
943.99893984002688
 20
-1401.6656038957842
 30
0.0
 41
1.0
 10
943.9863377951624
 20
-1401.5583848183687
 30
0.0
 41
0.9996876457879153
 10
943.96839388236435
 20
-1401.4519293906533
 30
0.0
 41
1.0
 10
943.96616221921909
 20
-1401.4386896554115
 30
0.0
 41
1.0
 10
943.96393055607382
 20
-1401.4254499201697
 30
0.0
 41
1.0
 10
943.95013473465247
 20
-1401.3436037762106
 30
0.0
 41
0.9995547496495519
 10
943.93148141275992
 20
-1401.262726279019
 30
0.0
 41
1.0
 10
943.93110745588876
 20
-1401.2611048683143
 30
0.0
 41
1.0
 10
943.93073349901761
 20
-1401.2594834576096
 30
0.0
 41
1.0
 10
943.91282809086761
 20
-1401.1818487818286
 30
0.0
 41
0.9994899427174626
 10
943.89000318218791
 20
-1401.1055154989933
 30
0.0
 41
1.0
 10
943.8895446554468
 20
-1401.1039820492038
 30
0.0
 41
1.0
 10
943.88908612870569
 20
-1401.1024485994139
 30
0.0
 41
1.0
 10
943.86717827350844
 20
-1401.029182216158
 30
0.0
 41
0.9993784877590453
 10
943.84016263840203
 20
-1400.9576415109998
 30
0.0
 41
1.0
 10
943.83963094742512
 20
-1400.9562335282792
 30
0.0
 41
1.0
 10
943.83909925644821
 20
-1400.9548255455586
 30
0.0
 41
1.0
 10
943.81314700329528
 20
-1400.8861008058402
 30
0.0
 41
0.9992430832254525
 10
943.78193046813612
 20
-1400.8196016537725
 30
0.0
 41
1.0
 10
943.7813483520797
 20
-1400.8183615986554
 30
0.0
 41
1.0
 10
943.78076623602328
 20
-1400.8171215435386
 30
0.0
 41
1.0
 10
943.75071393297708
 20
-1400.7531025017047
 30
0.0
 41
0.9990789632797902
 10
943.71528330620004
 20
-1400.6918958899546
 30
0.0
 41
1.0
 10
943.7146876000179
 20
-1400.6908668040951
 30
0.0
 41
1.0
 10
943.71409189383576
 20
-1400.6898377182358
 30
0.0
 41
1.0
 10
943.67985267942322
 20
-1400.6306892782045
 30
0.0
 41
0.9988874801119577
 10
943.64019340339132
 20
-1400.5750295657872
 30
0.0
 41
1.0
 10
943.63963787732746
 20
-1400.5742499141129
 30
0.0
 41
1.0
 10
943.63908235126348
 20
-1400.5734702624386
 30
0.0
 41
1.0
 10
943.60053412735988
 20
-1400.5193698533706
 30
0.0
 41
0.998676206069495
 10
943.55663165608303
 20
-1400.4695161389302
 30
0.0
 41
1.0
 10
943.55618769575131
 20
-1400.4690119971142
 30
0.0
 41
1.0
 10
943.55574373541958
 20
-1400.468507855298
 30
0.0
 41
1.0
 10
943.51272918480754
 20
-1400.4196624244914
 30
0.0
 41
0.9984621642487351
 10
943.46457162802903
 20
-1400.3758791240198
 30
0.0
 41
1.0
 10
943.46432499351238
 20
-1400.3756548918564
 30
0.0
 41
1.0
 10
943.46407835899572
 20
-1400.3754306596927
 30
0.0
 41
1.0
 10
943.41641407125121
 20
-1400.3320958235486
 30
0.0
 41
0.9982724693850411
 10
943.36399543940979
 20
-1400.2946514730311
 30
0.0
 41
1.0
 10
943.31157680756894
 20
-1400.2572071225138
 30
0.0
 41
0.9981399180158652
 10
943.25499074417519
 20
-1400.2264206030702
 30
0.0
 41
1.0
 10
943.25494508209658
 20
-1400.226395759913
 30
0.0
 41
1.0
 10
943.25489942001809
 20
-1400.2263709167557
 30
0.0
 41
1.0
 10
943.19822203246781
 20
-1400.1955347109979
 30
0.0
 41
0.9980927086837029
 10
943.13817668140155
 20
-1400.1719179021454
 30
0.0
 41
1.0
 10
943.13773651168981
 20
-1400.1717447762703
 30
0.0
 41
1.0
 10
943.13729634197807
 20
-1400.1715716503954
 30
0.0
 41
1.0
 10
943.07637065148765
 20
-1400.1476085897928
 30
0.0
 41
0.9981411356560805
 10
943.01298213008727
 20
-1400.131235948287
 30
0.0
 41
1.0
 10
943.01210001338666
 20
-1400.1310081060817
 30
0.0
 41
1.0
 10
943.01121789668605
 20
-1400.1307802638764
 30
0.0
 41
1.0
 10
942.9460651418832
 20
-1400.1139519379597
 30
0.0
 41
0.9983031812935216
 10
942.87939771288757
 20
-1400.1048125767834
 30
0.0
 41
1.0
 10
942.87052668748549
 20
-1400.1035964581124
 30
0.0
 41
1.0
 10
942.86165566208342
 20
-1400.1023803394414
 30
0.0
 41
1.0
 10
942.80730601957839
 20
-1400.0949296094502
 30
0.0
 41
0.9983887708264201
 10
942.75246217028428
 20
-1400.0936849358166
 30
0.0
 41
1.0
 10
942.74439876507051
 20
-1400.0935019379417
 30
0.0
 41
1.0
 10
942.73633535985675
 20
-1400.0933189400669
 30
0.0
 41
1.0
 10
942.69761832099516
 20
-1400.0924402621831
 30
0.0
 41
0.9998869563076535
 10
942.65889236778878
 20
-1400.0927261315428
 30
0.0
 41
1.0
 10
942.62016641454125
 20
-1400.0930120009027
 30
0.0
 41
0.9999972320108466
 10
942.58144223528654
 20
-1400.0934801004325
 30
0.0
 41
1.0
 10
942.562089218751
 20
-1400.0937140405215
 30
0.0
 41
1.0
 10
942.54273620221534
 20
-1400.0939479806104
 30
0.0
 41
1.0
 10
942.46530598984737
 20
-1400.0948839603184
 30
0.0
 41
0.999730494508784
 10
942.38800268361274
 20
-1400.0994130541039
 30
0.0
 41
1.0
 10
942.37895304190556
 20
-1400.0999432600941
 30
0.0
 41
1.0
 10
942.3699034001985
 20
-1400.1004734660842
 30
0.0
 41
1.0
 10
942.27450081055247
 20
-1400.10606297185
 30
0.0
 41
0.9997888306414403
 10
942.17940847470982
 20
-1400.1155679363392
 30
0.0
 41
1.0
 10
942.1706874131371
 20
-1400.1164396509712
 30
0.0
 41
1.0
 10
942.16196635156427
 20
-1400.1173113656034
 30
0.0
 41
1.0
 10
942.04943189257585
 20
-1400.1285597593569
 30
0.0
 41
0.9984170238191147
 10
941.93887274522422
 20
-1400.1523758412927
 30
0.0
 41
1.0
 10
941.90249161423799
 20
-1400.1602128770987
 30
0.0
 41
1.0
 10
941.86611048325176
 20
-1400.168049912905
 30
0.0
 41
1.0
 10
941.75091941483049
 20
-1400.1928637794144
 30
0.0
 41
0.9976592854199277
 10
941.64019124842548
 20
-1400.2331624565616
 30
0.0
 41
1.0
 10
941.52946308201854
 20
-1400.2734611337094
 30
0.0
 41
0.9993255074351982
 10
941.42199128322716
 20
-1400.3217780322022
 30
0.0
 41
1.0
 10
941.41736610430507
 20
-1400.3238574084014
 30
0.0
 41
1.0
 10
941.4127409253831
 20
-1400.3259367846006
 30
0.0
 41
1.0
 10
941.29601876874597
 20
-1400.3784124354925
 30
0.0
 41
0.9976475078275265
 10
941.18757142443565
 20
-1400.4463604251507
 30
0.0
 41
1.0
 10
941.16922903029877
 20
-1400.4578529039663
 30
0.0
 41
1.0
 10
941.150886636162
 20
-1400.4693453827822
 30
0.0
 41
1.0
 10
941.06668444461241
 20
-1400.5221025035489
 30
0.0
 41
0.9995131336406262
 10
940.98593672965615
 20
-1400.5800087155014
 30
0.0
 41
1.0
 10
940.90518901470364
 20
-1400.6379149274512
 30
0.0
 41
0.9995810107606614
 10
940.82792736697706
 20
-1400.7003966099148
 30
0.0
 41
1.0
 10
940.82495733576343
 20
-1400.7027984813822
 30
0.0
 41
1.0
 10
940.82198730454979
 20
-1400.7052003528497
 30
0.0
 41
1.0
 10
940.73878559440129
 20
-1400.7724857782446
 30
0.0
 41
0.9996617837954557
 10
940.65919490726583
 20
-1400.8440062338045
 30
0.0
 41
1.0
 10
940.64706415638818
 20
-1400.8549069667956
 30
0.0
 41
1.0
 10
940.63493340551054
 20
-1400.865807699787
 30
0.0
 41
1.0
 10
940.56665787811335
 20
-1400.9271603152599
 30
0.0
 41
0.9997267750053004
 10
940.5013243698304
 20
-1400.9916368517845
 30
0.0
 41
1.0
 10
940.43599086153449
 20
-1401.0561133883216
 30
0.0
 41
0.9999667288963386
 10
940.37171791838261
 20
-1401.1216471952218
 30
0.0
 41
1.0
 10
940.30289047061615
 20
-1401.1918248539714
 30
0.0
 41
1.0
 10
940.2340630228498
 20
-1401.2620025127208
 30
0.0
 41
1.0
 10
940.03213518415453
 20
-1401.4678916371299
 30
0.0
 41
0.998820533517514
 10
939.85112956717626
 20
-1401.6923958691889
 30
0.0
 41
1.0
 10
939.82048960227019
 20
-1401.7303991196204
 30
0.0
 41
1.0
 10
939.78984963736411
 20
-1401.7684023700522
 30
0.0
 41
1.0
 10
939.54756409057325
 20
-1402.0689131029751
 30
0.0
 41
0.9997077826754861
 10
939.32008613946687
 20
-1402.3807828971933
 30
0.0
 41
1.0
 10
939.31836272433793
 20
-1402.3831456805706
 30
0.0
 41
1.0
 10
939.31663930920899
 20
-1402.3855084639481
 30
0.0
 41
1.0
 10
939.08571452784452
 20
-1402.7021038249213
 30
0.0
 41
0.9989147567078999
 10
938.88525102496089
 20
-1403.0388132861058
 30
0.0
 41
1.0
 10
938.86050987965189
 20
-1403.0803698666618
 30
0.0
 41
1.0
 10
938.83576873434288
 20
-1403.1219264472177
 30
0.0
 41
1.0
 10
938.68055743570767
 20
-1403.3826278316669
 30
0.0
 41
0.9997476598181253
 10
938.53721244819849
 20
-1403.6500375802484
 30
0.0
 41
1.0
 10
938.39386746068806
 20
-1403.9174473288324
 30
0.0
 41
0.9996258967109512
 10
938.26535920875733
 20
-1404.1922952654545
 30
0.0
 41
1.0
 10
938.25215929930789
 20
-1404.2205266655496
 30
0.0
 41
1.0
 10
938.23895938985845
 20
-1404.2487580656448
 30
0.0
 41
1.0
 10
938.09875066885729
 20
-1404.5486304636008
 30
0.0
 41
0.999873541394389
 10
937.96814932213738
 20
-1404.8528100630672
 30
0.0
 41
1.0
 10
937.96470649407752
 20
-1404.8608286485305
 30
0.0
 41
1.0
 10
937.96126366601754
 20
-1404.8688472339936
 30
0.0
 41
1.0
 10
937.8375479754161
 20
-1405.1569896625365
 30
0.0
 41
0.9999377418860583
 10
937.72029317324223
 20
-1405.4478211302098
 30
0.0
 41
1.0
 10
937.60303837106244
 20
-1405.7386525978973
 30
0.0
 41
0.999950829950347
 10
937.49157442768626
 20
-1406.0317522747166
 30
0.0
 41
1.0
 10
937.48849365902561
 20
-1406.0398533006758
 30
0.0
 41
1.0
 10
937.48541289036484
 20
-1406.0479543266349
 30
0.0
 41
1.0
 10
937.36778740966133
 20
-1406.3572560553869
 30
0.0
 41
0.9999609228429651
 10
937.25564880678928
 20
-1406.6685890713975
 30
0.0
 41
1.0
 10
937.25269279643931
 20
-1406.6767959118079
 30
0.0
 41
1.0
 10
937.24973678608922
 20
-1406.6850027522185
 30
0.0
 41
1.0
 10
937.13168616251937
 20
-1407.0127494490439
 30
0.0
 41
0.9999674607405152
 10
937.01893863645739
 20
-1407.3423580690203
 30
0.0
 41
1.0
 10
936.96754024588881
 20
-1407.4926172647297
 30
0.0
 41
1.0
 10
936.91614185532035
 20
-1407.6428764604391
 30
0.0
 41
1.0
 10
936.80013124856373
 20
-1407.9820244429388
 30
0.0
 41
0.9999287532305349
 10
936.69224984459424
 20
-1408.3238451819107
 30
0.0
 41
1.0
 10
936.64577258851818
 20
-1408.4711077260818
 30
0.0
 41
1.0
 10
936.59929533244201
 20
-1408.6183702702529
 30
0.0
 41
1.0
 10
936.58436844070889
 20
-1408.6656659206153
 30
0.0
 41
0.9999998224078909
 10
936.56949793189301
 20
-1408.7129793291274
 30
0.0
 41
1.0
 10
934.94884179509756
 20
-1413.8610078309168
 30
0.0
 41
1.0
 10
933.32818565830212
 20
-1419.0090363327063
 30
0.0
 41
1.0
 10
932.42287721441119
 20
-1419.0090363327063
 30
0.0
 41
1.0
 10
931.51756877052026
 20
-1419.0090363327063
 30
0.0
 41
1.0
 10
933.3696531819063
 20
-1413.1219644102387
 30
0.0
 41
1.0
 10
935.22173759329235
 20
-1407.234892487771
 30
0.0
 41
1.0
 10
935.23185935159506
 20
-1407.2028492743216
 30
0.0
 41
1.0
 10
935.3044670204448
 20
-1406.9725497324957
 30
0.0
 41
1.0
 10
935.37707468929659
 20
-1406.7422501906635
 30
0.0
 41
0.9999825681973988
 10
935.44695772851026
 20
-1406.511109295591
 30
0.0
 41
1.0
 10
935.49524879066894
 20
-1406.3513847121017
 30
0.0
 41
1.0
 10
935.54353985282773
 20
-1406.1916601286125
 30
0.0
 41
1.0
 10
935.64069220614351
 20
-1405.8703249068403
 30
0.0
 41
0.9999672528965173
 10
935.7326310117669
 20
-1405.5474593612548
 30
0.0
 41
1.0
 10
935.73541989543673
 20
-1405.5376655158643
 30
0.0
 41
1.0
 10
935.73820877910669
 20
-1405.5278716704738
 30
0.0
 41
1.0
 10
935.8245698173871
 20
-1405.2245938156796
 30
0.0
 41
0.9999899749124376
 10
935.90821142692494
 20
-1404.9205547272161
 30
0.0
 41
1.0
 10
935.91831734594257
 20
-1404.883819489537
 30
0.0
 41
1.0
 10
935.92842326496032
 20
-1404.847084251858
 30
0.0
 41
1.0
 10
935.99185303646038
 20
-1404.616515638761
 30
0.0
 41
0.9999214200503978
 10
936.04948246483741
 20
-1404.3844292965543
 30
0.0
 41
1.0
 10
936.06224831702161
 20
-1404.3330184111433
 30
0.0
 41
1.0
 10
936.07501416920593
 20
-1404.2816075257319
 30
0.0
 41
1.0
 10
936.10711189321819
 20
-1404.1523429543317
 30
0.0
 41
0.9999828681672881
 10
936.1376941452105
 20
-1404.0227114798777
 30
0.0
 41
1.0
 10
936.16827639720327
 20
-1403.8930800054209
 30
0.0
 41
0.9999389844483548
 10
936.19598738599063
 20
-1403.7628045495312
 30
0.0
 41
1.0
 10
936.20312512971304
 20
-1403.7292484456832
 30
0.0
 41
1.0
 10
936.21026287343557
 20
-1403.6956923418352
 30
0.0
 41
1.0
 10
936.25224934966673
 20
-1403.4983046782529
 30
0.0
 41
0.9998933699439496
 10
936.28845361407025
 20
-1403.2997750704862
 30
0.0
 41
1.0
 10
936.28982643928521
 20
-1403.2922470497974
 30
0.0
 41
1.0
 10
936.29119926450016
 20
-1403.2847190291084
 30
0.0
 41
1.0
 10
936.33014917933497
 20
-1403.0711333799575
 30
0.0
 41
0.9996850305193252
 10
936.35833285559374
 20
-1402.8558623745212
 30
0.0
 41
1.0
 10
936.36032788896284
 20
-1402.8406240204004
 30
0.0
 41
1.0
 10
936.36232292233194
 20
-1402.8253856662798
 30
0.0
 41
1.0
 10
936.38973078479125
 20
-1402.6160404391233
 30
0.0
 41
0.999469793670707
 10
936.40345534401104
 20
-1402.4053552437908
 30
0.0
 41
1.0
 10
936.40393241326069
 20
-1402.39803177158
 30
0.0
 41
1.0
 10
936.40440948251035
 20
-1402.3907082993694
 30
0.0
 41
1.0
 10
936.41717990323082
 20
-1402.1946700484607
 30
0.0
 41
0.9991804893136702
 10
936.41405158695784
 20
-1401.9982411984865
 30
0.0
 41
1.0
 10
936.41396770813571
 20
-1401.9929743970733
 30
0.0
 41
1.0
 10
936.41388382931359
 20
-1401.9877075956599
 30
0.0
 41
1.0
 10
936.41092327068509
 20
-1401.8018123485126
 30
0.0
 41
0.9988448329321458
 10
936.39013172506134
 20
-1401.6170597586797
 30
0.0
 41
1.0
 10
936.38853765135821
 20
-1401.6028949029076
 30
0.0
 41
1.0
 10
936.38694357765507
 20
-1401.5887300471354
 30
0.0
 41
1.0
 10
936.36934017943747
 20
-1401.4323071688457
 30
0.0
 41
0.998550320945869
 10
936.33502390713807
 20
-1401.2786829847571
 30
0.0
 41
1.0
 10
936.32743791506709
 20
-1401.2447226573577
 30
0.0
 41
1.0
 10
936.31985192299601
 20
-1401.2107623299585
 30
0.0
 41
1.0
 10
936.30070763483889
 20
-1401.1250588006701
 30
0.0
 41
0.9991036781370961
 10
936.2743827731872
 20
-1401.0412817133429
 30
0.0
 41
1.0
 10
936.27040054773101
 20
-1401.0286085508317
 30
0.0
 41
1.0
 10
936.26641832227483
 20
-1401.0159353883205
 30
0.0
 41
1.0
 10
936.24805791153585
 20
-1400.9575046260172
 30
0.0
 41
0.9998874504367591
 10
936.22795270385768
 20
-1400.8996510237946
 30
0.0
 41
1.0
 10
936.2078474961794
 20
-1400.8417974215715
 30
0.0
 41
0.9994041637543277
 10
936.18379888324512
 20
-1400.7854687176821
 30
0.0
 41
1.0
 10
936.17960209902094
 20
-1400.7756386531996
 30
0.0
 41
1.0
 10
936.17540531479665
 20
-1400.7658085887174
 30
0.0
 41
1.0
 10
936.14752648380215
 20
-1400.7005084227503
 30
0.0
 41
0.9991846840701656
 10
936.11447012710926
 20
-1400.6376703914705
 30
0.0
 41
1.0
 10
936.11333352071449
 20
-1400.6355097750163
 30
0.0
 41
1.0
 10
936.11219691431972
 20
-1400.6333491585622
 30
0.0
 41
1.0
 10
936.08141377041682
 20
-1400.5748323601915
 30
0.0
 41
0.9989253167923567
 10
936.04534434636116
 20
-1400.5194174317999
 30
0.0
 41
1.0
 10
936.04429022168654
 20
-1400.5177979370369
 30
0.0
 41
1.0
 10
936.04323609701191
 20
-1400.5161784422742
 30
0.0
 41
1.0
 10
936.00927492230585
 20
-1400.4640025034089
 30
0.0
 41
0.99864671728351
 10
935.97007776966893
 20
-1400.4156364697801
 30
0.0
 41
1.0
 10
935.96920364096798
 20
-1400.4145578675016
 30
0.0
 41
1.0
 10
935.96832951226702
 20
-1400.413479265223
 30
0.0
 41
1.0
 10
935.93088061703088
 20
-1400.3672704361502
 30
0.0
 41
0.9984001104269277
 10
935.8884538865143
 20
-1400.3255853287817
 30
0.0
 41
1.0
 10
935.88786674840503
 20
-1400.3250084539004
 30
0.0
 41
1.0
 10
935.88727961029565
 20
-1400.3244315790193
 30
0.0
 41
1.0
 10
935.84602715599772
 20
-1400.2839002214134
 30
0.0
 41
0.9982442159082318
 10
935.80027105466161
 20
-1400.2485316601526
 30
0.0
 41
1.0
 10
935.80005625919955
 20
-1400.2483656275092
 30
0.0
 41
1.0
 10
935.79984146373749
 20
-1400.2481995948658
 30
0.0
 41
1.0
 10
935.75451495332561
 20
-1400.2131630988922
 30
0.0
 41
0.9982450060835437
 10
935.70536397425417
 20
-1400.1837313158589
 30
0.0
 41
1.0
 10
935.65621299518284
 20
-1400.1542995328257
 30
0.0
 41
0.9983922639635626
 10
935.60404668901776
 20
-1400.1306198981715
 30
0.0
 41
1.0
 10
935.60381981169326
 20
-1400.1305169126899
 30
0.0
 41
1.0
 10
935.60359293436863
 20
-1400.1304139272086
 30
0.0
 41
1.0
 10
935.55097287355466
 20
-1400.1065283215917
 30
0.0
 41
0.9986517147149977
 10
935.49615990068673
 20
-1400.0882272024699
 30
0.0
 41
1.0
 10
935.49548197925901
 20
-1400.0880008560384
 30
0.0
 41
1.0
 10
935.49480405783129
 20
-1400.087774509607
 30
0.0
 41
1.0
 10
935.4386352421086
 20
-1400.0690206976228
 30
0.0
 41
0.9989435598957306
 10
935.38098185495801
 20
-1400.0555029953882
 30
0.0
 41
1.0
 10
935.37990173537537
 20
-1400.0552497451349
 30
0.0
 41
1.0
 10
935.37882161579273
 20
-1400.0549964948818
 30
0.0
 41
1.0
 10
935.31900798947754
 20
-1400.0409722921413
 30
0.0
 41
0.9992249241240742
 10
935.25827648058032
 20
-1400.0316969494259
 30
0.0
 41
1.0
 10
935.25686279228944
 20
-1400.0314810410182
 30
0.0
 41
1.0
 10
935.25544910399856
 20
-1400.0312651326103
 30
0.0
 41
1.0
 10
935.19189021851889
 20
-1400.0215579730793
 30
0.0
 41
0.9994396597833012
 10
935.12782428198147
 20
-1400.0161250507335
 30
0.0
 41
1.0
 10
935.108683614504
 20
-1400.0145018830149
 30
0.0
 41
1.0
 10
935.08954294702653
 20
-1400.0128787152964
 30
0.0
 41
1.0
 10
934.98719567553519
 20
-1400.0041994575136
 30
0.0
 41
0.9987693403122235
 10
934.88449205194945
 20
-1400.005702520966
 30
0.0
 41
1.0
 10
934.87423771772035
 20
-1400.0058525927402
 30
0.0
 41
1.0
 10
934.86398338349125
 20
-1400.0060026645144
 30
0.0
 41
1.0
 10
934.75442761731313
 20
-1400.0076060088018
 30
0.0
 41
0.9989753644965699
 10
934.64546561729708
 20
-1400.0191090157271
 30
0.0
 41
1.0
 10
934.5365036172808
 20
-1400.0306120226523
 30
0.0
 41
0.9983190067305956
 10
934.42960480631621
 20
-1400.0546470144391
 30
0.0
 41
1.0
 10
934.42070385470925
 20
-1400.0566482930017
 30
0.0
 41
1.0
 10
934.41180290310217
 20
-1400.0586495715645
 30
0.0
 41
1.0
 10
934.28710218892479
 20
-1400.0866871204764
 30
0.0
 41
0.9985539388303771
 10
934.16613243524841
 20
-1400.1279507965212
 30
0.0
 41
1.0
 10
934.16378700428686
 20
-1400.1287508403375
 30
0.0
 41
1.0
 10
934.16144157332519
 20
-1400.1295508841538
 30
0.0
 41
1.0
 10
934.03578095772548
 20
-1400.1724146478314
 30
0.0
 41
0.9988468746493665
 10
933.91481061542413
 20
-1400.2271327328942
 30
0.0
 41
1.0
 10
933.91162779343654
 20
-1400.2285724074536
 30
0.0
 41
1.0
 10
933.90844497144894
 20
-1400.2300120820132
 30
0.0
 41
1.0
 10
933.78110898517195
 20
-1400.2876095161951
 30
0.0
 41
0.9991322885919013
 10
933.65900840111522
 20
-1400.355604848377
 30
0.0
 41
1.0
 10
933.64140639007019
 20
-1400.3654070503674
 30
0.0
 41
1.0
 10
933.62380437902527
 20
-1400.3752092523578
 30
0.0
 41
1.0
 10
933.52162769796905
 20
-1400.4321093681381
 30
0.0
 41
0.9993860037849541
 10
933.423686693896
 20
-1400.4960253837264
 30
0.0
 41
1.0
 10
933.41806838104776
 20
-1400.4996918784186
 30
0.0
 41
1.0
 10
933.4124500681994
 20
-1400.503358373111
 30
0.0
 41
1.0
 10
933.32574568982659
 20
-1400.5599413993123
 30
0.0
 41
0.9998821494952409
 10
933.24081931400974
 20
-1400.6191596293916
 30
0.0
 41
1.0
 10
933.15589293819937
 20
-1400.6783778594665
 30
0.0
 41
0.9997976482743735
 10
933.07341730780047
 20
-1400.7409642675045
 30
0.0
 41
1.0
 10
933.058781042992
 20
-1400.7520709572871
 30
0.0
 41
1.0
 10
933.04414477818352
 20
-1400.7631776470696
 30
0.0
 41
1.0
 10
932.93239661816938
 20
-1400.8479774346715
 30
0.0
 41
0.999809163080035
 10
932.82404634014154
 20
-1400.9370777853733
 30
0.0
 41
1.0
 10
932.81104058766459
 20
-1400.9477728858189
 30
0.0
 41
1.0
 10
932.79803483518776
 20
-1400.9584679862646
 30
0.0
 41
1.0
 10
932.66367305220615
 20
-1401.068958537858
 30
0.0
 41
0.9995035112317322
 10
932.53653717444479
 20
-1401.1876923548705
 30
0.0
 41
1.0
 10
932.52688986405587
 20
-1401.19670210103
 30
0.0
 41
1.0
 10
932.51724255366685
 20
-1401.2057118471894
 30
0.0
 41
1.0
 10
932.39381949090216
 20
-1401.3209782189447
 30
0.0
 41
0.9994630424299584
 10
932.2782110851183
 20
-1401.4440809621797
 30
0.0
 41
1.0
 10
932.27452824634543
 20
-1401.4480025416942
 30
0.0
 41
1.0
 10
932.27084540757244
 20
-1401.451924121209
 30
0.0
 41
1.0
 10
932.16260267933308
 20
-1401.5671837054163
 30
0.0
 41
0.9995160693750003
 10
932.06173664980236
 20
-1401.6889511232876
 30
0.0
 41
1.0
 10
932.05980292972504
 20
-1401.6912855474916
 30
0.0
 41
1.0
 10
932.05786920964772
 20
-1401.6936199716956
 30
0.0
 41
1.0
 10
931.96087062027323
 20
-1401.8107185411568
 30
0.0
 41
0.9996561470514556
 10
931.87014440160453
 20
-1401.9327413036094
 30
0.0
 41
1.0
 10
931.86398673570034
 20
-1401.9410230926546
 30
0.0
 41
1.0
 10
931.85782906979614
 20
-1401.9493048817001
 30
0.0
 41
1.0
 10
931.77941818293448
 20
-1402.0547640660643
 30
0.0
 41
0.99983490551725
 10
931.70489090100637
 20
-1402.1630026497219
 30
0.0
 41
1.0
 10
931.63036361906825
 20
-1402.271241233394
 30
0.0
 41
0.9999728109574059
 10
931.55744072316054
 20
-1402.3805671589455
 30
0.0
 41
1.0
 10
931.55612550775049
 20
-1402.3825389284455
 30
0.0
 41
1.0
 10
931.55481029234056
 20
-1402.3845106979454
 30
0.0
 41
1.0
 10
931.47925696559014
 20
-1402.4977801625307
 30
0.0
 41
0.9999972147430823
 10
931.4042391552199
 20
-1402.6114050053611
 30
0.0
 41
1.0
 10
931.39926761260404
 20
-1402.6189350938237
 30
0.0
 41
1.0
 10
931.39429606998817
 20
-1402.6264651822862
 30
0.0
 41
1.0
 10
931.30933517437552
 20
-1402.7551502020574
 30
0.0
 41
0.9999371979007919
 10
931.22727982497349
 20
-1402.8857071158309
 30
0.0
 41
1.0
 10
931.22377094060732
 20
-1402.8912900439029
 30
0.0
 41
1.0
 10
931.22026205624115
 20
-1402.896872971975
 30
0.0
 41
1.0
 10
931.13118893811179
 20
-1403.0385957418848
 30
0.0
 41
0.9998272025611418
 10
931.0474455472314
 20
-1403.1835316186243
 30
0.0
 41
1.0
 10
931.03223037520684
 20
-1403.2098647330818
 30
0.0
 41
1.0
 10
931.01701520318238
 20
-1403.2361978475392
 30
0.0
 41
1.0
 10
930.90284146825081
 20
-1403.4337999531976
 30
0.0
 41
0.9995217214838619
 10
930.80110177869392
 20
-1403.6380822810622
 30
0.0
 41
1.0
 10
930.79345821606216
 20
-1403.6534297307585
 30
0.0
 41
1.0
 10
930.78581465343052
 20
-1403.6687771804548
 30
0.0
 41
1.0
 10
930.69890936083789
 20
-1403.8432736385423
 30
0.0
 41
0.9998269762606263
 10
930.6185548945648
 20
-1404.0208819252678
 30
0.0
 41
1.0
 10
930.53820042829204
 20
-1404.198490211993
 30
0.0
 41
0.9998944747389746
 10
930.46303963372657
 20
-1404.3783579376241
 30
0.0
 41
1.0
 10
930.45808596413463
 20
-1404.3902125925433
 30
0.0
 41
1.0
 10
930.45313229454268
 20
-1404.4020672474624
 30
0.0
 41
1.0
 10
930.37248523399137
 20
-1404.5950641874774
 30
0.0
 41
0.9999506734410262
 10
930.29568770508899
 20
-1404.7896249923308
 30
0.0
 41
1.0
 10
930.28108773982012
 20
-1404.8266129141318
 30
0.0
 41
1.0
 10
930.26648777455114
 20
-1404.8636008359329
 30
0.0
 41
1.0
 10
930.21889017618048
 20
-1404.9841857971996
 30
0.0
 41
0.9999912393910552
 10
930.17230373216285
 20
-1405.1051649998828
 30
0.0
 41
1.0
 10
930.12571728813487
 20
-1405.2261442025933
 30
0.0
 41
0.9999927113965598
 10
930.0800559937453
 20
-1405.3474756100832
 30
0.0
 41
1.0
 10
930.066087562348
 20
-1405.3845925920809
 30
0.0
 41
1.0
 10
930.05211913095081
 20
-1405.4217095740785
 30
0.0
 41
1.0
 10
929.97852097376051
 20
-1405.61727494558
 30
0.0
 41
0.999948755095228
 10
929.90889734878874
 20
-1405.8142903107628
 30
0.0
 41
1.0
 10
929.88530373885487
 20
-1405.8810536210472
 30
0.0
 41
1.0
 10
929.861710128921
 20
-1405.9478169313313
 30
0.0
 41
1.0
 10
929.7670244945482
 20
-1406.2157507661627
 30
0.0
 41
0.9999808436942207
 10
929.67566290590366
 20
-1406.4848361974357
 30
0.0
 41
1.0
 10
929.58430131726232
 20
-1406.7539216287
 30
0.0
 41
0.9999873932890966
 10
929.49564660854458
 20
-1407.0239109837123
 30
0.0
 41
1.0
 10
929.47555425167502
 20
-1407.0851003164657
 30
0.0
 41
1.0
 10
929.45546189480547
 20
-1407.1462896492194
 30
0.0
 41
1.0
 10
929.32662247235226
 20
-1407.5386576697269
 30
0.0
 41
0.9999794883027676
 10
929.2028196873913
 20
-1407.9326438760138
 30
0.0
 41
1.0
 10
929.19166742795323
 20
-1407.9681344862524
 30
0.0
 41
1.0
 10
929.18051516851517
 20
-1408.0036250964911
 30
0.0
 41
1.0
 10
929.03795700461251
 20
-1408.4572978485946
 30
0.0
 41
0.9999982761715541
 10
928.89708456460289
 20
-1408.9114968706995
 30
0.0
 41
1.0
 10
927.30894423203029
 20
-1413.9602666017029
 30
0.0
 41
1.0
 10
925.72080389945768
 20
-1419.0090363327063
 30
0.0
 41
1.0
 10
924.77205328798129
 20
-1419.0090363327063
 30
0.0
 41
1.0
 10
923.82330267650491
 20
-1419.0090363327063
 30
0.0
 41
1.0
 10
927.06158716265804
 20
-1408.6817141327601
 30
0.0
 41
1.0
 10
930.29987164881129
 20
-1398.354391932814
 30
0.0
 41
1.0
  0
LWPOLYLINE
  5
64
100
AcDbEntity
  8
0
370
              15
390
0
  6
Continuous
 62
               7
100
AcDbPolyline
 90
      232
 70
             128
 10
904.59632587498425
 20
-1399.4387347643292
 42
0.0004370800694975
 10
904.5434487009079
 20
-1399.5074014035908
 10
904.50416446978477
 20
-1399.5585085164819
 42
0.003048199217879
 10
904.37382575265644
 20
-1399.7302302088383
 10
904.33531408091517
 20
-1399.7816169926141
 42
0.0042058245756196
 10
904.13132903025098
 20
-1400.0586227376803
 10
904.07892390774464
 20
-1400.1310555844686
 42
0.0120948898740931
 10
903.78287999098029
 20
-1400.5618051890224
 10
903.68668749186099
 20
-1400.709285924243
 42
0.0141601263949362
 10
903.38304344493929
 20
-1401.2049552609778
 10
903.34350617750795
 20
-1401.273799228419
 42
0.0071131081304628
 10
903.13823385427486
 20
-1401.6433020272477
 42
0.0068458791002941
 10
902.94335432743753
 20
-1402.0183935907125
 10
902.93654246497408
 20
-1402.0319553044476
 42
0.0064120880289927
 10
902.73840021492924
 20
-1402.4393797793678
 10
902.73086552941277
 20
-1402.4553916360878
 42
0.0058857236448259
 10
902.52811013754138
 20
-1402.8997677471223
 10
902.51993521124712
 20
-1402.9182579007568
 42
0.0053189741896757
 10
902.31123089858136
 20
-1403.4042213746704
 10
902.30248309289823
 20
-1403.4252032528707
 42
0.0047503650418273
 10
902.08650936674837
 20
-1403.957402686078
 10
902.07724111839934
 20
-1403.9808790621883
 42
0.0042071762169229
 10
901.85269373467156
 20
-1404.5639726562583
 10
901.84294433232299
 20
-1404.5899388311277
 42
0.0036680086487134
 10
901.60848968900598
 20
-1405.2285742156726
 10
901.59828190916312
 20
-1405.2570227500034
 42
0.0032573142627999
 10
901.35264962318968
 20
-1405.9558754097764
 10
901.28399910233486
 20
-1406.1553384938707
 42
0.0026133366652563
 10
900.93555390359779
 20
-1407.1852017774816
 10
900.872297116097
 20
-1407.3754326128749
 42
0.0020592950740474
 10
900.65843404712996
 20
-1408.0275362654877
 10
900.65538225597152
 20
-1408.036972753883
 42
0.0025609928531652
 10
900.45356175448103
 20
-1408.6721179762633
 10
900.45097038735116
 20
-1408.6804203172142
 42
0.0031362356243991
 10
900.26147960167737
 20
-1409.3011831733834
 10
900.25934855875448
 20
-1409.3083244795794
 42
0.0037229918028035
 10
900.08254817182365
 20
-1409.9173097815687
 10
900.08086958261572
 20
-1409.9232566717485
 42
0.0043077623709409
 10
899.91712878055216
 20
-1410.5230754035122
 42
0.004765416182618
 10
899.76430005803763
 20
-1411.1257614924086
 10
899.72983544919703
 20
-1411.2673232695643
 42
0.0112969368443199
 10
899.53397109105424
 20
-1412.1590154301848
 10
899.50596470195683
 20
-1412.3018434762864
 42
0.0130056762570148
 10
899.30512745831015
 20
-1413.4887845479313
 10
899.28458770816292
 20
-1413.6328626614099
 42
0.0138721532145176
 10
899.18088470362522
 20
-1414.5396921472341
 10
899.16158921571719
 20
-1414.7631898691611
 42
0.0071254697009206
 10
899.12824256979479
 20
-1415.2263768780062
 10
899.12328159563162
 20
-1415.3123808725652
 42
0.0028881799206825
 10
899.10814330234166
 20
-1415.604122582409
 42
0.0060297297135054
 10
899.09821110256598
 20
-1415.8960715185276
 10
899.09714882089895
 20
-1415.9444638904583
 42
0.0229523164151035
 10
899.10487984868473
 20
-1416.2672187367405
 10
899.10910562220477
 20
-1416.3276222707527
 42
0.0123673300671105
 10
899.12818426872343
 20
-1416.5287429959315
 42
0.012857767448285
 10
899.15737965912945
 20
-1416.7286408458563
 10
899.16450553251673
 20
-1416.7699696604552
 42
0.0285717853771048
 10
899.22899953421222
 20
-1417.0480858117678
 10
899.24266805787863
 20
-1417.0947405812447
 42
0.031628309915651
 10
899.35847863779304
 20
-1417.4137550830715
 10
899.36152732954861
 20
-1417.4207414553971
 42
0.0338984824238197
 10
899.51095904051579
 20
-1417.7083074195862
 10
899.51326776988617
 20
-1417.7120984488629
 42
0.0350228718357741
 10
899.69562806055922
 20
-1417.969150433539
 10
899.6965133123341
 20
-1417.9702295113029
 42
0.0347476747524966
 10
899.91093799957434
 20
-1418.1974145585232
 42
0.0331337701912482
 10
900.15418132532068
 20
-1418.3935432206006
 10
900.15528142383687
 20
-1418.3943159237731
 42
0.0305233319082105
 10
900.42382611941014
 20
-1418.5594440938644
 10
900.4270561639114
 20
-1418.5611681057271
 42
0.0273744481157507
 10
900.71960987548698
 20
-1418.6973062496181
 10
900.72471441062328
 20
-1418.6993498340873
 42
0.0240964406197849
 10
901.04019148627094
 20
-1418.8083335603692
 10
901.04677481547901
 20
-1418.8102583000436
 42
0.0209636179811827
 10
901.38417496813429
 20
-1418.8937264479762
 10
901.39180742858025
 20
-1418.895278360977
 42
0.0181388704692062
 10
901.75012982057876
 20
-1418.954694454191
 10
901.75841066895691
 20
-1418.9557606380081
 42
0.0156086547585939
 10
902.13659803314579
 20
-1418.9924968245848
 10
902.17979328547779
 20
-1418.9953353270639
 42
0.0137148329024478
 10
902.50746643077161
 20
-1419.0078555823152
 10
902.55340262071343
 20
-1419.0083500154303
 42
0.0051057823892061
 10
902.78954820728984
 20
-1419.0084802698395
 42
0.0052256693311685
 10
903.02564549107444
 20
-1419.003731445375
 10
903.09587227481791
 20
-1419.0015844793611
 42
0.0161507179048319
 10
903.47160935291924
 20
-1418.9779341090345
 10
903.49162231329228
 20
-1418.976023913747
 42
0.0101216737832239
 10
903.90564953478167
 20
-1418.9280309833816
 10
903.93970282420969
 20
-1418.9233832865718
 42
0.0245291776398455
 10
904.41649247976136
 20
-1418.8343082084955
 10
904.50131579528295
 20
-1418.8141122881505
 42
0.014350921255892
 10
904.85794689922443
 20
-1418.7183076543711
 42
0.0156557857036023
 10
905.20816296395299
 20
-1418.6012964385518
 10
905.21566417844633
 20
-1418.5985262767981
 42
0.0170137333631318
 10
905.57226017412859
 20
-1418.4528686619267
 10
905.57936409653519
 20
-1418.4496808263634
 42
0.0183105364408246
 10
905.93871376469929
 20
-1418.2723457845402
 10
905.94566052934022
 20
-1418.2685953496668
 42
0.0194899958149411
 10
906.3041412703285
 20
-1418.0566163677734
 10
906.31115514966086
 20
-1418.0520910254811
 42
0.0204869852951133
 10
906.66516945175294
 20
-1417.8025710103966
 10
906.67243506034185
 20
-1417.7969909450469
 42
0.0212516938556015
 10
907.01842499145027
 20
-1417.5070869481517
 10
907.0649416855257
 20
-1417.4646196380584
 42
0.0215248918249256
 10
907.32496785441322
 20
-1417.2058553590641
 10
907.3699975887896
 20
-1417.157011237719
 42
0.0114578554956085
 10
907.52478974247106
 20
-1416.981188304256
 10
907.53598427845611
 20
-1416.9678695407124
 42
0.0061531305130964
 10
907.66245892445215
 20
-1416.8135800074049
 42
0.0006325587125017
 10
907.78683740863664
 20
-1416.657576631688
 10
907.80987754365538
 20
-1416.6286031110699
 42
0.0041897761556608
 10
907.97833294762881
 20
-1416.4130837350071
 10
908.0367950675203
 20
-1416.3369823880228
 42
0.0092993880035752
 10
908.31340699474742
 20
-1415.9627036241338
 10
908.39580148794482
 20
-1415.8467666205675
 42
0.0159321727087168
 10
908.7424079705853
 20
-1415.324592399814
 10
908.78676410597097
 20
-1415.2529128355695
 42
0.0085547317021902
 10
909.02127587130008
 20
-1414.8590378863394
 42
0.0084601156891101
 10
909.2422520487487
 20
-1414.4574110372953
 10
909.25036752257256
 20
-1414.4420513550342
 42
0.008142965428241
 10
909.47361679300582
 20
-1414.0023298425021
 10
909.48247695719408
 20
-1413.9841510004742
 42
0.0076574581331841
 10
909.70888446776212
 20
-1413.5009681252182
 10
909.71836410848448
 20
-1413.479903646918
 42
0.0070682724200924
 10
909.94880901629585
 20
-1412.947866342126
 10
909.95879930027297
 20
-1412.9238771531252
 42
0.0064559514447081
 10
910.19413250845628
 20
-1412.337564886602
 10
910.20454186661959
 20
-1412.3106299611641
 42
0.0058311413908184
 10
910.44558860338361
 20
-1411.6645978667768
 10
910.45634368076992
 20
-1411.6347135256199
 42
0.0052312425818831
 10
910.70392495881219
 20
-1410.9235111117812
 10
910.71496879519054
 20
-1410.8906843997156
 42
0.0046680544795756
 10
910.96989722292562
 20
-1410.1088580839589
 10
911.01188937296331
 20
-1409.9758748466857
 42
0.004166685644559
 10
911.21517538536364
 20
-1409.3129060716633
 10
911.25283782602673
 20
-1409.1863249640119
 42
0.0015170975158235
 10
911.37402440444043
 20
-1408.7744566125159
 42
-0.0004887993109788
 10
911.49436417760501
 20
-1408.3623382003323
 10
911.57084143505858
 20
-1408.1013808145328
 42
0.0002583378928388
 10
911.84405600512605
 20
-1407.1673241113429
 10
911.92582885472802
 20
-1406.887224851673
 42
0.0006636169673198
 10
912.11969661471085
 20
-1406.2198719281835
 10
912.12479326907135
 20
-1406.2022403452568
 42
0.0010589131324704
 10
912.30624196997451
 20
-1405.5695090022546
 10
912.311224040448
 20
-1405.5519960952593
 42
0.0015655524460286
 10
912.47949424763783
 20
-1404.9533794160336
 10
912.48432444804121
 20
-1404.9359872571397
 42
0.0021640440477479
 10
912.63861442003872
 20
-1404.3709602390797
 10
912.64324863946649
 20
-1404.3536955090938
 42
0.0028763871852581
 10
912.78276435752173
 20
-1403.821727558239
 10
912.78715022168842
 20
-1403.8046035800867
 42
0.0037310511946031
 10
912.91110691352583
 20
-1403.3051559860605
 10
912.91518213381391
 20
-1403.2881957148188
 42
0.0047652197768566
 10
913.02280603432325
 20
-1402.8207179465098
 10
913.02649663364787
 20
-1402.8039583913539
 42
0.0060276699303197
 10
913.11702673280024
 20
-1402.3678825962156
 10
913.12024542308882
 20
-1402.3513813819091
 42
0.0075824337760908
 10
913.19293473250491
 20
-1401.9461142174803
 10
913.19558010988521
 20
-1401.9299592700295
 42
0.0095130624605319
 10
913.24969534551633
 20
-1401.5548699169581
 10
913.25668156939889
 20
-1401.4989363588413
 42
0.0121054653234112
 10
913.28327289997685
 20
-1401.2340405303678
 10
913.28413938973688
 20
-1401.2226370874314
 42
0.0069050827395746
 10
913.29922820777415
 20
-1400.9796958605943
 10
913.30036350744263
 20
-1400.9561696035496
 42
0.0169063976693778
 10
913.30319078642287
 20
-1400.7599768762489
 10
913.30202013489179
 20
-1400.6996411149089
 42
0.0052007732895902
 10
913.29976668629865
 20
-1400.6240477247475
 42
0.0054038123296879
 10
913.27980317445986
 20
-1400.5040294287378
 10
913.27471731858941
 20
-1400.4753709421564
 42
0.0112050460473351
 10
913.23933295653035
 20
-1400.2990445038151
 10
913.22150799449014
 20
-1400.2195029170966
 42
0.024076446800975
 10
913.13061062834413
 20
-1399.889265881596
 10
913.11205186553093
 20
-1399.8326457166027
 42
0.0256812331834053
 10
912.968688945341
 20
-1399.4609215103444
 10
912.96327951951946
 20
-1399.4487901753544
 42
0.0268360501217043
 10
912.79385227866976
 20
-1399.1177970413337
 10
912.78831587103434
 20
-1399.1082773710207
 42
0.0274670231726867
 10
912.59611489462145
 20
-1398.815989996104
 10
912.59073359465879
 20
-1398.8087108485627
 42
0.0275035967101766
 10
912.37916071509699
 20
-1398.5531949582585
 10
912.37409121413134
 20
-1398.547715870629
 42
0.0269557673522201
 10
912.14668767069088
 20
-1398.3270735846659
 10
912.14194461290822
 20
-1398.3229436302051
 42
0.0259124802206714
 10
911.9023897814775
 20
-1398.1352531030527
 10
911.89785893629505
 20
-1398.1320676007222
 42
0.0245162153010631
 10
911.64994258320075
 20
-1397.975334591612
 10
911.64541603687599
 20
-1397.9727743944109
 42
0.0229282588838199
 10
911.39299648004919
 20
-1397.8449062019122
 10
911.38821598621303
 20
-1397.8427539021504
 42
0.021298413570131
 10
911.13517803375066
 20
-1397.7415549849079
 10
911.12987374878207
 20
-1397.7396914221483
 42
0.0197555462341033
 10
910.88009541105816
 20
-1397.6628760041831
 42
0.0183511896789362
 10
910.62516668559556
 20
-1397.6052930972176
 10
910.53880148887231
 20
-1397.5890903068325
 42
0.0338057877149451
 10
910.25329413961174
 20
-1397.5552819016923
 10
910.16228873457169
 20
-1397.550702246431
 42
0.0091990524489985
 10
910.0564416259358
 20
-1397.5473263905089
 42
0.0028333980777286
 10
909.9505277099438
 20
-1397.5464982829922
 10
909.94961225689349
 20
-1397.5464963131681
 42
-0.0023619827794493
 10
909.84186624179586
 20
-1397.5457554720897
 10
909.80546107161172
 20
-1397.5453331656265
 42
0.000882459847429
 10
909.62490508166582
 20
-1397.5435573873874
 10
909.58104364935593
 20
-1397.5432034258627
 42
0.0038132665768147
 10
909.31276075349149
 20
-1397.5430844897958
 10
909.29622709868363
 20
-1397.5432032559395
 42
0.0060665569335465
 10
908.9949466070974
 20
-1397.5490235553602
 10
908.98069627506698
 20
-1397.5494718633279
 42
0.0080356953336696
 10
908.65123755872389
 20
-1397.5651395853949
 10
908.6391675436405
 20
-1397.5659081683352
 42
0.0098996399105952
 10
908.28640445898736
 20
-1397.5953933975336
 10
908.27635874961493
 20
-1397.5964336937316
 42
0.0117740981366413
 10
907.90520189126732
 20
-1397.6437259412612
 10
907.89697919478363
 20
-1397.6449710578322
 42
0.01374352151384
 10
907.51239037529592
 20
-1397.7140680313946
 10
907.50573333617513
 20
-1397.7154539276276
 42
0.015835986938262
 10
907.11273624237356
 20
-1397.810346016108
 10
907.1073230555055
 20
-1397.8118359569789
 42
0.018055412402713
 10
906.71100801089335
 20
-1397.9364739732175
 10
906.70645122280973
 20
-1397.9380900094839
 42
0.0203657431283539
 10
906.31197370499876
 20
-1398.0963503509993
 10
906.30783016599105
 20
-1398.0982119724415
 42
0.0226819684651565
 10
905.92039410978634
 20
-1398.2938545511131
 10
905.91619431876927
 20
-1398.2962201430323
 42
0.0248634984608454
 10
905.54101237758823
 20
-1398.5328467889794
 10
905.49281744880329
 20
-1398.5667038308059
 42
0.0267044190885795
 10
905.21852475188757
 20
-1398.7821442066734
 42
0.0139303002202805
 10
904.96235758594696
 20
-1399.0193830475871
 10
904.95750420022785
 20
-1399.0241357104453
 42
0.0283460963445571
 10
904.71343160600065
 20
-1399.2918663708904
 10
904.6737631008441
 20
-1399.3406679483637
 42
0.0070695364826285
 10
904.59632587498425
 20
-1399.4387347643292
 42
0.0070695364826285
  0
LWPOLYLINE
  5
65
100
AcDbEntity
  8
0
370
              15
390
0
  6
Continuous
 62
               7
100
AcDbPolyline
 90
      226
 70
             128
 10
901.06750543773785
 20
-1415.1603235705129
 42
-0.0026277636692113
 10
901.0674275539377
 20
-1415.0935516448433
 10
901.06764491216984
 20
-1415.0403964273269
 42
-0.0088680296732203
 10
901.07142152846291
 20
-1414.8673806449235
 10
901.07376788757529
 20
-1414.8081006194702
 42
-0.0077381705617092
 10
901.08981399833817
 20
-1414.5168401236758
 10
901.09068190951155
 20
-1414.5045518899869
 42
-0.0068872530533497
 10
901.1173139892594
 20
-1414.1893301379203
 10
901.11851821344578
 20
-1414.1770891588992
 42
-0.0062130021480942
 10
901.15611193027428
 20
-1413.8382194676544
 10
901.15761583380868
 20
-1413.8260455957443
 42
-0.005672692966261
 10
901.20653769331216
 20
-1413.4638503736226
 10
901.20831113895542
 20
-1413.4517565733854
 42
-0.0052341884493933
 10
901.26892172521252
 20
-1413.0665633178846
 10
901.27093971399199
 20
-1413.054558387875
 42
-0.004976845016919
 10
901.34367839541778
 20
-1412.6467138204459
 10
901.36792741014017
 20
-1412.5181658374365
 42
-0.0089029805622475
 10
901.50500826193559
 20
-1411.856390390011
 10
901.53775363725345
 20
-1411.7113589594908
 42
-0.0080318257100698
 10
901.76730225159565
 20
-1410.7656493276313
 10
901.77928717804241
 20
-1410.7195186924469
 42
-0.0074265721320057
 10
902.06329871689059
 20
-1409.6894541140725
 10
902.08317826001155
 20
-1409.6213200534683
 42
-0.0069711922704206
 10
902.41048283851569
 20
-1408.555052313149
 10
902.47043478561841
 20
-1408.3690309547871
 42
-0.0052070422895863
 10
902.69986001088046
 20
-1407.6817588777471
 10
902.71714120304352
 20
-1407.6317315971564
 42
-0.0009167004447409
 10
902.92023309034221
 20
-1407.0472757489758
 42
-0.0025162726942635
 10
903.12733072061235
 20
-1406.4642344847919
 10
903.16455533241003
 20
-1406.3610849389081
 42
-0.0028212681457016
 10
903.41273125137332
 20
-1405.6853543067368
 10
903.42256201412954
 20
-1405.659046862045
 42
-0.0031964916822847
 10
903.65885427178625
 20
-1405.0388420999329
 10
903.66848872578259
 20
-1405.0140321097963
 42
-0.0036281836451334
 10
903.89359468688644
 20
-1404.4465914288967
 10
903.90303309704564
 20
-1404.4232939973897
 42
-0.0041269166833236
 10
904.11765079370309
 20
-1403.9058531014157
 10
904.15028375012298
 20
-1403.8289746550565
 42
-0.004747221305617
 10
904.30732855567749
 20
-1403.4685531871712
 10
904.31422263688773
 20
-1403.4531325898347
 42
-0.0025651659996072
 10
904.46258067073586
 20
-1403.1258045340908
 42
-0.0057144634997853
 10
904.61633036450633
 20
-1402.8009948607298
 10
904.6443610699049
 20
-1402.7434864783413
 42
-0.0065388068375537
 10
904.82782809764819
 20
-1402.3792539816691
 10
904.83628655342693
 20
-1402.3629944022991
 42
-0.0074510843027675
 10
905.01246879930454
 20
-1402.0363061211767
 10
905.02064846983126
 20
-1402.0216653439156
 42
-0.008464897986074
 10
905.19028232293567
 20
-1401.7297563329466
 10
905.19813844942382
 20
-1401.7167493412958
 42
-0.0095638542805224
 10
905.36197389701795
 20
-1401.4568604693172
 10
905.36944884068544
 20
-1401.4454911078683
 42
-0.0107191626810133
 10
905.52825042107725
 20
-1401.2148798733178
 10
905.53526715480757
 20
-1401.2051437809541
 42
-0.0118458573901384
 10
905.68981525332083
 20
-1401.0010715856426
 42
-0.0129184518188506
 10
905.85426787692586
 20
-1400.8049110694683
 10
905.88441264928827
 20
-1400.7707849905694
 42
-0.0217742579633695
 10
906.06102497162078
 20
-1400.5875782203225
 10
906.0717705160755
 20
-1400.5773613871249
 42
-0.0097266568651055
 10
906.23782813493699
 20
-1400.4255138126823
 42
-0.0187720905728109
 10
906.41217571082154
 20
-1400.283444959297
 10
906.44288170149389
 20
-1400.2602858769021
 42
-0.017942820752556
 10
906.67530242149678
 20
-1400.0977336997853
 10
906.67895474841669
 20
-1400.0953697648949
 42
-0.0170047877695171
 10
906.91471838594293
 20
-1399.9539092507459
 10
906.91850137468668
 20
-1399.9518109457113
 42
-0.01601907883707
 10
907.15540992232479
 20
-1399.8301596437216
 42
-0.0151102861488201
 10
907.39944170477168
 20
-1399.7234768676669
 10
907.45182820698324
 20
-1399.7024367347724
 42
-0.0271945441887192
 10
907.81049076604165
 20
-1399.5805719240664
 10
907.87955556653117
 20
-1399.5612223827998
 42
-0.0237596594021696
 10
908.29535241355211
 20
-1399.4657716708184
 10
908.3634152672787
 20
-1399.4535169826922
 42
-0.0213715440556538
 10
908.64929019872784
 20
-1399.4145699511816
 10
908.70943736494382
 20
-1399.4089802364808
 42
-0.0101465655820688
 10
908.87692989693994
 20
-1399.3968366932168
 10
908.88627028313556
 20
-1399.3963497782197
 42
-0.0100375910879903
 10
909.03542438370073
 20
-1399.3915739602944
 10
909.04568365337718
 20
-1399.39145152128
 42
-0.0103625633384181
 10
909.17439164803591
 20
-1399.3925829548066
 10
909.19665729930318
 20
-1399.3932403132715
 42
-0.0115689250225718
 10
909.28070803683079
 20
-1399.3976698195165
 42
-0.0072438037434787
 10
909.36454631627225
 20
-1399.4052590192659
 10
909.38134682574275
 20
-1399.4070255619899
 42
-0.0217917313139297
 10
909.49791658905451
 20
-1399.4244454547106
 10
909.56351667962463
 20
-1399.4371920631258
 42
-0.0332943556750545
 10
909.7679088446514
 20
-1399.4912323544327
 10
909.79808141319847
 20
-1399.5014004315501
 42
-0.0184824084810419
 10
909.93658646966696
 20
-1399.5538514469376
 42
-0.0198002050689465
 10
910.07066081016615
 20
-1399.616735507137
 10
910.07254744754323
 20
-1399.617713294017
 42
-0.0212242342969868
 10
910.20468638994623
 20
-1399.6934760328106
 10
910.20650168548855
 20
-1399.6946218350183
 42
-0.0226090605797413
 10
910.33500558671074
 20
-1399.7841014785831
 10
910.33685002844777
 20
-1399.7855137315703
 42
-0.0238457052230971
 10
910.46003210974141
 20
-1399.8895096274332
 10
910.46198483829971
 20
-1399.8913245051988
 42
-0.0248160564156571
 10
910.5781863456001
 20
-1400.0105991064072
 10
910.58028997900237
 20
-1400.0129844401119
 42
-0.0254109591446522
 10
910.68789519686857
 20
-1400.1482728260764
 10
910.6901432187824
 20
-1400.1514143744769
 42
-0.0255528488284748
 10
910.78758989758001
 20
-1400.3034414287117
 10
910.78992099749576
 20
-1400.3075230403188
 42
-0.0252146793219262
 10
910.87570202350503
 20
-1400.4770252863163
 10
910.87800426266244
 20
-1400.4822073682287
 42
-0.0244265635947783
 10
910.95065895642415
 20
-1400.6699539402757
 10
910.95990535789247
 20
-1400.6978193586135
 42
-0.0231319612898874
 10
911.00582813688436
 20
-1400.8611204054146
 42
-0.0112130424360246
 10
911.04046415942298
 20
-1401.0273240056049
 10
911.04166668453513
 20
-1401.0338205924907
 42
-0.0210527881229112
 10
911.06735315990591
 20
-1401.2148762379327
 10
911.07086375472772
 20
-1401.2502817864793
 42
-0.0190029892420315
 10
911.08630522827241
 20
-1401.5038176327519
 10
911.08711520471638
 20
-1401.5392932471204
 42
-0.0137974553658992
 10
911.08556635188074
 20
-1401.8643246538577
 10
911.08472089692555
 20
-1401.8904433984383
 42
-0.0081336634217735
 10
911.06986156170274
 20
-1402.1957908660461
 42
-0.0073526923576519
 10
911.0455530283283
 20
-1402.50053911033
 10
911.04429160454538
 20
-1402.5138757849973
 42
-0.0066886138695222
 10
911.00855601850026
 20
-1402.844461828483
 10
911.00689892902892
 20
-1402.8580834474858
 42
-0.0061359187352904
 10
910.95904832697772
 20
-1403.2148474275882
 10
910.95701082590517
 20
-1403.228742230415
 42
-0.0056698610066937
 10
910.89636049513956
 20
-1403.6120207992451
 10
910.89395506181518
 20
-1403.6261799184838
 42
-0.0052721077272719
 10
910.81982286101731
 20
-1404.0363072581522
 10
910.81705971217377
 20
-1404.0507238935477
 42
-0.0049289272184655
 10
910.72876559407791
 20
-1404.4880324046503
 10
910.72565309939114
 20
-1404.502701257486
 42
-0.0047415956711864
 10
910.62241510785884
 20
-1404.9674980148966
 10
910.5876468974991
 20
-1405.1173051102799
 42
-0.0084404470905287
 10
910.39763045392795
 20
-1405.8775291348084
 10
910.39150376594159
 20
-1405.9003932589644
 42
-0.0039635940257029
 10
910.17005008165768
 20
-1406.7013821232115
 10
910.15667328647805
 20
-1406.7483137398035
 42
-0.0072475040837452
 10
909.88922639861619
 20
-1407.6375334561899
 10
909.8190140717885
 20
-1407.8592738061632
 42
-0.0051345458829045
 10
909.5322546997287
 20
-1408.733598993977
 10
909.51072843295651
 20
-1408.797025261121
 42
-0.0019150016601091
 10
909.2551950260945
 20
-1409.540574381333
 10
909.24872742169816
 20
-1409.5591618462545
 42
-0.0021524362753558
 10
909.00024937063449
 20
-1410.2634876679624
 10
908.99103894994096
 20
-1410.2892412462559
 42
-0.0024331286818075
 10
908.75478369090206
 20
-1410.939840554382
 10
908.74573573834994
 20
-1410.9643838607408
 42
-0.0027449721789537
 10
908.52112116751607
 20
-1411.5635137396609
 10
908.51223116013296
 20
-1411.5868363294894
 42
-0.0031083229770231
 10
908.29868867351388
 20
-1412.1367603670928
 10
908.28995254183644
 20
-1412.1588500829553
 42
-0.0035311343283131
 10
908.08691135624645
 20
-1412.6618332086807
 10
908.0783260171039
 20
-1412.6826759321787
 42
-0.0040245640948739
 10
907.88521421330438
 20
-1413.1409852547833
 10
907.87677809969819
 20
-1413.1605646228627
 42
-0.0046015135851613
 10
907.69302180653756
 20
-1413.5764696524975
 10
907.68473562871282
 20
-1413.5947667919418
 42
-0.0052768638274366
 10
907.50975810975365
 20
-1413.9705396762199
 10
907.5016258991227
 20
-1413.9875330147715
 42
-0.0060672675641825
 10
907.33484628636074
 20
-1414.3254486378773
 10
907.32687680588538
 20
-1414.3411138968625
 42
-0.0069904648875148
 10
907.16770841187781
 20
-1414.6434497035384
 10
907.15991701226267
 20
-1414.6577602527736
 42
-0.0080637022764263
 10
907.00776515192115
 20
-1414.9267955559189
 10
907.00017611929013
 20
-1414.9397234215194
 42
-0.0093006455662364
 10
906.85443544275836
 20
-1415.1777378200227
 10
906.84708477601885
 20
-1415.1892557891892
 42
-0.0107060778052431
 10
906.7071362325762
 20
-1415.3985261065748
 10
906.70007446429975
 20
-1415.4086116491362
 42
-0.0122723111411047
 10
906.56528074609855
 20
-1415.5914049786297
 10
906.56495452253762
 20
-1415.5918253664481
 42
-0.0141836319627482
 10
906.42137291957033
 20
-1415.7663951242689
 10
906.41442516392328
 20
-1415.7743701245281
 42
-0.0175957477212524
 10
906.27451899588368
 20
-1415.9239910129384
 42
-0.0080466359677189
 10
906.12705523085594
 20
-1416.0663135410871
 10
906.08102068633605
 20
-1416.1093339791807
 42
-0.0269600260392908
 10
905.82774044035148
 20
-1416.3216572376912
 10
905.76117330406089
 20
-1416.3716086523102
 42
-0.0178362839758901
 10
905.52122881440027
 20
-1416.5386265785662
 10
905.51398384339655
 20
-1416.5432950907732
 42
-0.0174650732648243
 10
905.2776476459585
 20
-1416.6841560557302
 42
-0.0169240130160951
 10
905.03218140009892
 20
-1416.8084483155087
 10
904.98619524454307
 20
-1416.8298102710748
 42
-0.0318883036841081
 10
904.63584438892201
 20
-1416.9661485805852
 10
904.56747885375717
 20
-1416.9878492010607
 42
-0.0284435909899725
 10
904.19142872746727
 20
-1417.0840666365352
 10
904.15627056696667
 20
-1417.0909602323641
 42
-0.0243909341014052
 10
903.84282710604975
 20
-1417.1366812633939
 10
903.79254637928307
 20
-1417.1415268102953
 42
-0.0196639292931181
 10
903.57695080175131
 20
-1417.1537750958091
 10
903.52512673058823
 20
-1417.1546783565459
 42
-0.010050151068119
 10
903.41270344892359
 20
-1417.1543779581928
 10
903.38104358759097
 20
-1417.1536568863075
 42
-0.0019752031156957
 10
903.33195125089821
 20
-1417.1523447260977
 10
903.32919094767999
 20
-1417.1522600342714
 42
0.0065378751992072
 10
903.28561437292137
 20
-1417.1514931430563
 42
-0.0167974694633798
 10
903.24208354998916
 20
-1417.1498332445303
 10
903.23800421072747
 20
-1417.1495402336354
 42
-0.0081283276280967
 10
903.18644441298738
 20
-1417.1449932399976
 10
903.17470483911029
 20
-1417.1437653224193
 42
-0.0126703440183889
 10
903.09998654331741
 20
-1417.1340305313479
 10
903.07719867564015
 20
-1417.1304722754326
 42
-0.0117852088426585
 10
902.95765968980265
 20
-1417.1089092802745
 10
902.90227923804468
 20
-1417.0975657400409
 42
-0.0251774592297955
 10
902.67543519903836
 20
-1417.0390677306082
 10
902.63071600918022
 20
-1417.0251009112708
 42
-0.0146525199878433
 10
902.44432302164728
 20
-1416.9608343840744
 42
-0.0166929435864551
 10
902.26234536552613
 20
-1416.8850272510224
 10
902.25768873424749
 20
-1416.8829023504059
 42
-0.0191684358438663
 10
902.07250510299923
 20
-1416.7896662666165
 10
902.06917251724121
 20
-1416.7878250190624
 42
-0.0221181781806163
 10
901.8858622133373
 20
-1416.6756915206904
 10
901.88351240933059
 20
-1416.6741072227005
 42
-0.0254984685375912
 10
901.70722225894531
 20
-1416.5416960727312
 10
901.6847401112434
 20
-1416.522943763795
 42
-0.0292492648806343
 10
901.55997117240031
 20
-1416.4058509641518
 42
-0.0159048957499787
 10
901.44613117494987
 20
-1416.2778309725522
 10
901.44481238437083
 20
-1416.2762493595326
 42
-0.0343813379557752
 10
901.34217512274461
 20
-1416.1343780337629
 10
901.31068359138328
 20
-1416.0838746416682
 42
-0.0369117275701053
 10
901.22479108948653
 20
-1415.9203974007207
 42
-0.0191751379920098
 10
901.1575977039297
 20
-1415.7479927947149
 10
901.15583438017006
 20
-1415.7428994500399
 42
-0.0378178042228349
 10
901.10603966138569
 20
-1415.553958673958
 10
901.10004436565589
 20
-1415.5213980557639
 42
-0.0184846046476622
 10
901.07932716636105
 20
-1415.3796452352167
 42
-0.0179866351323981
 10
901.06899416128738
 20
-1415.2367544221336
 10
901.06893771884165
 20
-1415.235196735523
 42
-0.0085497186139518
 10
901.06750543773785
 20
-1415.1603235705129
 42
-0.0085497186139518
  0
ENDBLK
  5
66
100
AcDbEntity
  8
template
390
0
100
AcDbBlockEnd
  0
BLOCK
  5
67
100
AcDbEntity
  8
notes
390
0
100
AcDbBlockBegin
  2
*D3
 70
               1
 10
0.0
 20
0.0
 30
0.0
  3
*D3
  1

  0
LINE
  5
68
100
AcDbEntity
  8
0
370
              -2
390
0
  6
Continuous
 62
               0
100
AcDbLine
 10
-750.4602909521343
 20
810.87755502616903
 30
0.0
 11
-750.4602909521343
 21
940.87755502616892
 31
0.0
  0
LINE
  5
69
100
AcDbEntity
  8
0
370
              -2
390
0
  6
Continuous
 62
               0
100
AcDbLine
 10
-150.46029095213441
 20
810.87755502616892
 30
0.0
 11
-150.46029095213441
 21
940.87755502616892
 31
0.0
  0
LINE
  5
6A
100
AcDbEntity
  8
0
370
              -2
390
0
  6
Continuous
 62
               0
100
AcDbLine
 10
-750.4602909521343
 20
940.87755502616892
 30
0.0
 11
-150.46029095213441
 21
940.87755502616892
 31
0.0
  0
CIRCLE
  5
6B
102
{ACAD_REACTORS
330
6C
102
}
100
AcDbEntity
  8
0
370
              -2
390
0
  6
Continuous
 62
               0
100
AcDbCircle
 10
-750.4602909521343
 20
940.87755502616892
 30
0.0
 40
1.9998779296875
  0
HATCH
  5
6C
100
AcDbEntity
  8
0
370
              -2
390
0
  6
Continuous
 62
               0
100
AcDbHatch
 10
0.0
 20
0.0
 30
0.0
210
0.0
220
0.0
230
1.0
  2
SOLID
 70
               1
 71
               1
 91
        1
 92
        1
 93
        1
 72
               2
 10
-750.4602909521343
 20
940.87755502616892
 40
1.9998779296875
 50
0.0
 51
360.0
 73
               0
 97
        1
330
6B
 75
               0
 76
               1
 98
        1
 10
0.0
 20
0.0
  0
CIRCLE
  5
6D
102
{ACAD_REACTORS
330
6E
102
}
100
AcDbEntity
  8
0
370
              -2
390
0
  6
Continuous
 62
               0
100
AcDbCircle
 10
-150.46029095213441
 20
940.87755502616892
 30
0.0
 40
1.9998779296875
  0
HATCH
  5
6E
100
AcDbEntity
  8
0
370
              -2
390
0
  6
Continuous
 62
               0
100
AcDbHatch
 10
0.0
 20
0.0
 30
0.0
210
0.0
220
0.0
230
1.0
  2
SOLID
 70
               1
 71
               1
 91
        1
 92
        1
 93
        1
 72
               2
 10
-150.46029095213441
 20
940.87755502616892
 40
1.9998779296875
 50
0.0
 51
360.0
 73
               0
 97
        1
330
6D
 75
               0
 76
               1
 98
        1
 10
0.0
 20
0.0
  0
MTEXT
  5
6F
100
AcDbEntity
  8
0
390
0
 62
               0
100
AcDbMText
 10
-474.27279263430989
 20
974.75517221366897
 30
0.0
 40
24.432617187500004
 41
0.0
 71
               1
 72
               1
  1
600
  7
ＭＳ ゴシック
 73
               1
 44
0.7828267384257843
  0
POINT
  5
70
100
AcDbEntity
  8
Defpoints
370
               0
390
0
 62
               0
100
AcDbPoint
 10
-150.46029095213441
 20
785.87755502616892
 30
0.0
  0
POINT
  5
71
100
AcDbEntity
  8
Defpoints
370
               0
390
0
 62
               0
100
AcDbPoint
 10
-750.4602909521343
 20
785.87755502616903
 30
0.0
  0
POINT
  5
72
100
AcDbEntity
  8
Defpoints
370
               0
390
0
 62
               0
100
AcDbPoint
 10
-750.4602909521343
 20
940.87755502616892
 30
0.0
  0
ENDBLK
  5
73
100
AcDbEntity
  8
notes
390
0
100
AcDbBlockEnd
  0
BLOCK
  5
74
100
AcDbEntity
  8
notes
390
0
100
AcDbBlockBegin
  2
*D4
 70
               1
 10
0.0
 20
0.0
 30
0.0
  3
*D4
  1

  0
LINE
  5
75
100
AcDbEntity
  8
0
370
              -2
390
0
  6
Continuous
 62
               0
100
AcDbLine
 10
-130.46029095213441
 20
790.87755502616892
 30
0.0
 11
-50.460290952134415
 21
790.87755502616892
 31
0.0
  0
LINE
  5
76
100
AcDbEntity
  8
0
370
              -2
390
0
  6
Continuous
 62
               0
100
AcDbLine
 10
-130.46029095213441
 20
325.87755502616841
 30
0.0
 11
-50.460290952134415
 21
325.87755502616841
 31
0.0
  0
LINE
  5
77
100
AcDbEntity
  8
0
370
              -2
390
0
  6
Continuous
 62
               0
100
AcDbLine
 10
-50.460290952134415
 20
790.87755502616892
 30
0.0
 11
-50.460290952134415
 21
325.87755502616841
 31
0.0
  0
CIRCLE
  5
78
102
{ACAD_REACTORS
330
79
102
}
100
AcDbEntity
  8
0
370
              -2
390
0
  6
Continuous
 62
               0
100
AcDbCircle
 10
-50.460290952134415
 20
790.87755502616892
 30
0.0
 40
1.9998779296875
  0
HATCH
  5
79
100
AcDbEntity
  8
0
370
              -2
390
0
  6
Continuous
 62
               0
100
AcDbHatch
 10
0.0
 20
0.0
 30
0.0
210
0.0
220
0.0
230
1.0
  2
SOLID
 70
               1
 71
               1
 91
        1
 92
        1
 93
        1
 72
               2
 10
-50.460290952134415
 20
790.87755502616892
 40
1.9998779296875
 50
0.0
 51
360.0
 73
               0
 97
        1
330
78
 75
               0
 76
               1
 98
        1
 10
0.0
 20
0.0
  0
CIRCLE
  5
7A
102
{ACAD_REACTORS
330
7B
102
}
100
AcDbEntity
  8
0
370
              -2
390
0
  6
Continuous
 62
               0
100
AcDbCircle
 10
-50.460290952134415
 20
325.87755502616841
 30
0.0
 40
1.9998779296875
  0
HATCH
  5
7B
100
AcDbEntity
  8
0
370
              -2
390
0
  6
Continuous
 62
               0
100
AcDbHatch
 10
0.0
 20
0.0
 30
0.0
210
0.0
220
0.0
230
1.0
  2
SOLID
 70
               1
 71
               1
 91
        1
 92
        1
 93
        1
 72
               2
 10
-50.460290952134415
 20
325.87755502616841
 40
1.9998779296875
 50
0.0
 51
360.0
 73
               0
 97
        1
330
7A
 75
               0
 76
               1
 98
        1
 10
0.0
 20
0.0
  0
MTEXT
  5
7C
100
AcDbEntity
  8
0
390
0
 62
               0
100
AcDbMText
 10
-84.337908139634422
 20
534.56505334399321
 30
0.0
 40
24.432617187500004
 41
0.0
 71
               1
 72
               1
  1
465
  7
ＭＳ ゴシック
 11
0.0
 21
1.0
 31
0.0
 73
               1
 44
0.7828267384257843
  0
POINT
  5
7D
100
AcDbEntity
  8
Defpoints
370
               0
390
0
 62
               0
100
AcDbPoint
 10
-155.46029095213441
 20
325.87755502616841
 30
0.0
  0
POINT
  5
7E
100
AcDbEntity
  8
Defpoints
370
               0
390
0
 62
               0
100
AcDbPoint
 10
-155.46029095213441
 20
790.87755502616892
 30
0.0
  0
POINT
  5
7F
100
AcDbEntity
  8
Defpoints
370
               0
390
0
 62
               0
100
AcDbPoint
 10
-50.460290952134415
 20
790.87755502616892
 30
0.0
  0
ENDBLK
  5
80
100
AcDbEntity
  8
notes
390
0
100
AcDbBlockEnd
  0
BLOCK
  5
81
100
AcDbEntity
  8
notes
390
0
100
AcDbBlockBegin
  2
*D5
 70
               1
 10
0.0
 20
0.0
 30
0.0
  3
*D5
  1

  0
LINE
  5
82
100
AcDbEntity
  8
0
370
              -2
390
0
  6
Continuous
 62
               0
100
AcDbLine
 10
-770.4602909521343
 20
790.87755502616892
 30
0.0
 11
-850.4602909521343
 21
790.87755502616892
 31
0.0
  0
LINE
  5
83
100
AcDbEntity
  8
0
370
              -2
390
0
  6
Continuous
 62
               0
100
AcDbLine
 10
-775.4602909521343
 20
660.87755502616892
 30
0.0
 11
-850.4602909521343
 21
660.87755502616892
 31
0.0
  0
LINE
  5
84
100
AcDbEntity
  8
0
370
              -2
390
0
  6
Continuous
 62
               0
100
AcDbLine
 10
-850.4602909521343
 20
790.87755502616892
 30
0.0
 11
-850.4602909521343
 21
660.87755502616892
 31
0.0
  0
CIRCLE
  5
85
102
{ACAD_REACTORS
330
86
102
}
100
AcDbEntity
  8
0
370
              -2
390
0
  6
Continuous
 62
               0
100
AcDbCircle
 10
-850.4602909521343
 20
790.87755502616892
 30
0.0
 40
1.9998779296875
  0
HATCH
  5
86
100
AcDbEntity
  8
0
370
              -2
390
0
  6
Continuous
 62
               0
100
AcDbHatch
 10
0.0
 20
0.0
 30
0.0
210
0.0
220
0.0
230
1.0
  2
SOLID
 70
               1
 71
               1
 91
        1
 92
        1
 93
        1
 72
               2
 10
-850.4602909521343
 20
790.87755502616892
 40
1.9998779296875
 50
0.0
 51
360.0
 73
               0
 97
        1
330
85
 75
               0
 76
               1
 98
        1
 10
0.0
 20
0.0
  0
CIRCLE
  5
87
102
{ACAD_REACTORS
330
88
102
}
100
AcDbEntity
  8
0
370
              -2
390
0
  6
Continuous
 62
               0
100
AcDbCircle
 10
-850.4602909521343
 20
660.87755502616892
 30
0.0
 40
1.9998779296875
  0
HATCH
  5
88
100
AcDbEntity
  8
0
370
              -2
390
0
  6
Continuous
 62
               0
100
AcDbHatch
 10
0.0
 20
0.0
 30
0.0
210
0.0
220
0.0
230
1.0
  2
SOLID
 70
               1
 71
               1
 91
        1
 92
        1
 93
        1
 72
               2
 10
-850.4602909521343
 20
660.87755502616892
 40
1.9998779296875
 50
0.0
 51
360.0
 73
               0
 97
        1
330
87
 75
               0
 76
               1
 98
        1
 10
0.0
 20
0.0
  0
MTEXT
  5
89
100
AcDbEntity
  8
0
390
0
 62
               0
100
AcDbMText
 10
-884.33790813963435
 20
695.88145112018469
 30
0.0
 40
24.432617187500004
 41
0.0
 71
               1
 72
               1
  1
130
  7
ＭＳ ゴシック
 11
0.0
 21
1.0
 31
0.0
 73
               1
 44
0.7828267384257843
  0
POINT
  5
8A
100
AcDbEntity
  8
Defpoints
370
               0
390
0
 62
               0
100
AcDbPoint
 10
-750.4602909521343
 20
660.87755502616892
 30
0.0
  0
POINT
  5
8B
100
AcDbEntity
  8
Defpoints
370
               0
390
0
 62
               0
100
AcDbPoint
 10
-745.4602909521343
 20
790.87755502616892
 30
0.0
  0
POINT
  5
8C
100
AcDbEntity
  8
Defpoints
370
               0
390
0
 62
               0
100
AcDbPoint
 10
-850.4602909521343
 20
790.87755502616892
 30
0.0
  0
ENDBLK
  5
8D
100
AcDbEntity
  8
notes
390
0
100
AcDbBlockEnd
  0
BLOCK
  5
8E
100
AcDbEntity
  8
notes
390
0
100
AcDbBlockBegin
  2
*D6
 70
               1
 10
0.0
 20
0.0
 30
0.0
  3
*D6
  1

  0
LINE
  5
8F
100
AcDbEntity
  8
0
370
              -2
390
0
  6
Continuous
 62
               0
100
AcDbLine
 10
-775.4602909521343
 20
660.87755502616892
 30
0.0
 11
-850.4602909521343
 21
660.87755502616892
 31
0.0
  0
LINE
  5
90
100
AcDbEntity
  8
0
370
              -2
390
0
  6
Continuous
 62
               0
100
AcDbLine
 10
-775.4602909521343
 20
360.87755502616841
 30
0.0
 11
-850.4602909521343
 21
360.87755502616841
 31
0.0
  0
LINE
  5
91
100
AcDbEntity
  8
0
370
              -2
390
0
  6
Continuous
 62
               0
100
AcDbLine
 10
-850.4602909521343
 20
660.87755502616892
 30
0.0
 11
-850.4602909521343
 21
360.87755502616841
 31
0.0
  0
CIRCLE
  5
92
102
{ACAD_REACTORS
330
93
102
}
100
AcDbEntity
  8
0
370
              -2
390
0
  6
Continuous
 62
               0
100
AcDbCircle
 10
-850.4602909521343
 20
660.87755502616892
 30
0.0
 40
1.9998779296875
  0
HATCH
  5
93
100
AcDbEntity
  8
0
370
              -2
390
0
  6
Continuous
 62
               0
100
AcDbHatch
 10
0.0
 20
0.0
 30
0.0
210
0.0
220
0.0
230
1.0
  2
SOLID
 70
               1
 71
               1
 91
        1
 92
        1
 93
        1
 72
               2
 10
-850.4602909521343
 20
660.87755502616892
 40
1.9998779296875
 50
0.0
 51
360.0
 73
               0
 97
        1
330
92
 75
               0
 76
               1
 98
        1
 10
0.0
 20
0.0
  0
CIRCLE
  5
94
102
{ACAD_REACTORS
330
95
102
}
100
AcDbEntity
  8
0
370
              -2
390
0
  6
Continuous
 62
               0
100
AcDbCircle
 10
-850.4602909521343
 20
360.87755502616841
 30
0.0
 40
1.9998779296875
  0
HATCH
  5
95
100
AcDbEntity
  8
0
370
              -2
390
0
  6
Continuous
 62
               0
100
AcDbHatch
 10
0.0
 20
0.0
 30
0.0
210
0.0
220
0.0
230
1.0
  2
SOLID
 70
               1
 71
               1
 91
        1
 92
        1
 93
        1
 72
               2
 10
-850.4602909521343
 20
360.87755502616841
 40
1.9998779296875
 50
0.0
 51
360.0
 73
               0
 97
        1
330
94
 75
               0
 76
               1
 98
        1
 10
0.0
 20
0.0
  0
MTEXT
  5
96
100
AcDbEntity
  8
0
390
0
 62
               0
100
AcDbMText
 10
-884.33790813963435
 20
487.06505334399316
 30
0.0
 40
24.432617187500004
 41
0.0
 71
               1
 72
               1
  1
300
  7
ＭＳ ゴシック
 11
0.0
 21
1.0
 31
0.0
 73
               1
 44
0.7828267384257843
  0
POINT
  5
97
100
AcDbEntity
  8
Defpoints
370
               0
390
0
 62
               0
100
AcDbPoint
 10
-750.4602909521343
 20
360.87755502616841
 30
0.0
  0
POINT
  5
98
100
AcDbEntity
  8
Defpoints
370
               0
390
0
 62
               0
100
AcDbPoint
 10
-750.4602909521343
 20
660.87755502616892
 30
0.0
  0
POINT
  5
99
100
AcDbEntity
  8
Defpoints
370
               0
390
0
 62
               0
100
AcDbPoint
 10
-850.4602909521343
 20
660.87755502616892
 30
0.0
  0
ENDBLK
  5
9A
100
AcDbEntity
  8
notes
390
0
100
AcDbBlockEnd
  0
BLOCK
  5
9B
100
AcDbEntity
  8
notes
390
0
100
AcDbBlockBegin
  2
*D7
 70
               1
 10
0.0
 20
0.0
 30
0.0
  3
*D7
  1

  0
LINE
  5
9C
100
AcDbEntity
  8
0
370
              -2
390
0
  6
Continuous
 62
               0
100
AcDbLine
 10
-715.4602909521343
 20
300.87755502616841
 30
0.0
 11
-715.4602909521343
 21
225.87755502616841
 31
0.0
  0
LINE
  5
9D
100
AcDbEntity
  8
0
370
              -2
390
0
  6
Continuous
 62
               0
100
AcDbLine
 10
-185.46029095213441
 20
300.87755502616841
 30
0.0
 11
-185.46029095213441
 21
225.87755502616841
 31
0.0
  0
LINE
  5
9E
100
AcDbEntity
  8
0
370
              -2
390
0
  6
Continuous
 62
               0
100
AcDbLine
 10
-715.4602909521343
 20
225.87755502616841
 30
0.0
 11
-185.46029095213441
 21
225.87755502616841
 31
0.0
  0
CIRCLE
  5
9F
102
{ACAD_REACTORS
330
A0
102
}
100
AcDbEntity
  8
0
370
              -2
390
0
  6
Continuous
 62
               0
100
AcDbCircle
 10
-715.4602909521343
 20
225.87755502616841
 30
0.0
 40
1.9998779296875
  0
HATCH
  5
A0
100
AcDbEntity
  8
0
370
              -2
390
0
  6
Continuous
 62
               0
100
AcDbHatch
 10
0.0
 20
0.0
 30
0.0
210
0.0
220
0.0
230
1.0
  2
SOLID
 70
               1
 71
               1
 91
        1
 92
        1
 93
        1
 72
               2
 10
-715.4602909521343
 20
225.87755502616841
 40
1.9998779296875
 50
0.0
 51
360.0
 73
               0
 97
        1
330
9F
 75
               0
 76
               1
 98
        1
 10
0.0
 20
0.0
  0
CIRCLE
  5
A1
102
{ACAD_REACTORS
330
A2
102
}
100
AcDbEntity
  8
0
370
              -2
390
0
  6
Continuous
 62
               0
100
AcDbCircle
 10
-185.46029095213441
 20
225.87755502616841
 30
0.0
 40
1.9998779296875
  0
HATCH
  5
A2
100
AcDbEntity
  8
0
370
              -2
390
0
  6
Continuous
 62
               0
100
AcDbHatch
 10
0.0
 20
0.0
 30
0.0
210
0.0
220
0.0
230
1.0
  2
SOLID
 70
               1
 71
               1
 91
        1
 92
        1
 93
        1
 72
               2
 10
-185.46029095213441
 20
225.87755502616841
 40
1.9998779296875
 50
0.0
 51
360.0
 73
               0
 97
        1
330
A1
 75
               0
 76
               1
 98
        1
 10
0.0
 20
0.0
  0
MTEXT
  5
A3
100
AcDbEntity
  8
0
390
0
 62
               0
100
AcDbMText
 10
-474.27279263430989
 20
259.7551722136684
 30
0.0
 40
24.432617187500004
 41
0.0
 71
               1
 72
               1
  1
530
  7
ＭＳ ゴシック
 73
               1
 44
0.7828267384257843
  0
POINT
  5
A4
100
AcDbEntity
  8
Defpoints
370
               0
390
0
 62
               0
100
AcDbPoint
 10
-185.46029095213441
 20
325.87755502616841
 30
0.0
  0
POINT
  5
A5
100
AcDbEntity
  8
Defpoints
370
               0
390
0
 62
               0
100
AcDbPoint
 10
-715.4602909521343
 20
325.87755502616841
 30
0.0
  0
POINT
  5
A6
100
AcDbEntity
  8
Defpoints
370
               0
390
0
 62
               0
100
AcDbPoint
 10
-715.4602909521343
 20
225.87755502616841
 30
0.0
  0
ENDBLK
  5
A7
100
AcDbEntity
  8
notes
390
0
100
AcDbBlockEnd
  0
BLOCK
  5
A8
100
AcDbEntity
  8
notes
390
0
100
AcDbBlockBegin
  2
*D8
 70
               1
 10
0.0
 20
0.0
 30
0.0
  3
*D8
  1

  0
LINE
  5
A9
100
AcDbEntity
  8
0
370
              -2
390
0
  6
Continuous
 62
               0
100
AcDbLine
 10
-550.4602909521343
 20
772.8033415433049
 30
0.0
 11
-550.4602909521343
 21
890.87755502616892
 31
0.0
  0
LINE
  5
AA
100
AcDbEntity
  8
0
370
              -2
390
0
  6
Continuous
 62
               0
100
AcDbLine
 10
-450.46029095213453
 20
772.8033415433049
 30
0.0
 11
-450.46029095213453
 21
890.87755502616892
 31
0.0
  0
LINE
  5
AB
100
AcDbEntity
  8
0
370
              -2
390
0
  6
Continuous
 62
               0
100
AcDbLine
 10
-550.4602909521343
 20
890.87755502616892
 30
0.0
 11
-450.46029095213453
 21
890.87755502616892
 31
0.0
  0
CIRCLE
  5
AC
102
{ACAD_REACTORS
330
AD
102
}
100
AcDbEntity
  8
0
370
              -2
390
0
  6
Continuous
 62
               0
100
AcDbCircle
 10
-550.4602909521343
 20
890.87755502616892
 30
0.0
 40
1.9998779296875
  0
HATCH
  5
AD
100
AcDbEntity
  8
0
370
              -2
390
0
  6
Continuous
 62
               0
100
AcDbHatch
 10
0.0
 20
0.0
 30
0.0
210
0.0
220
0.0
230
1.0
  2
SOLID
 70
               1
 71
               1
 91
        1
 92
        1
 93
        1
 72
               2
 10
-550.4602909521343
 20
890.87755502616892
 40
1.9998779296875
 50
0.0
 51
360.0
 73
               0
 97
        1
330
AC
 75
               0
 76
               1
 98
        1
 10
0.0
 20
0.0
  0
CIRCLE
  5
AE
102
{ACAD_REACTORS
330
AF
102
}
100
AcDbEntity
  8
0
370
              -2
390
0
  6
Continuous
 62
               0
100
AcDbCircle
 10
-450.46029095213453
 20
890.87755502616892
 30
0.0
 40
1.9998779296875
  0
HATCH
  5
AF
100
AcDbEntity
  8
0
370
              -2
390
0
  6
Continuous
 62
               0
100
AcDbHatch
 10
0.0
 20
0.0
 30
0.0
210
0.0
220
0.0
230
1.0
  2
SOLID
 70
               1
 71
               1
 91
        1
 92
        1
 93
        1
 72
               2
 10
-450.46029095213453
 20
890.87755502616892
 40
1.9998779296875
 50
0.0
 51
360.0
 73
               0
 97
        1
330
AE
 75
               0
 76
               1
 98
        1
 10
0.0
 20
0.0
  0
MTEXT
  5
B0
100
AcDbEntity
  8
0
390
0
 62
               0
100
AcDbMText
 10
-524.27279263430989
 20
924.75517221366897
 30
0.0
 40
24.432617187500004
 41
0.0
 71
               1
 72
               1
  1
100
  7
ＭＳ ゴシック
 73
               1
 44
0.7828267384257843
  0
POINT
  5
B1
100
AcDbEntity
  8
Defpoints
370
               0
390
0
 62
               0
100
AcDbPoint
 10
-450.46029095213453
 20
747.8033415433049
 30
0.0
  0
POINT
  5
B2
100
AcDbEntity
  8
Defpoints
370
               0
390
0
 62
               0
100
AcDbPoint
 10
-550.4602909521343
 20
747.8033415433049
 30
0.0
  0
POINT
  5
B3
100
AcDbEntity
  8
Defpoints
370
               0
390
0
 62
               0
100
AcDbPoint
 10
-550.4602909521343
 20
890.87755502616892
 30
0.0
  0
ENDBLK
  5
B4
100
AcDbEntity
  8
notes
390
0
100
AcDbBlockEnd
  0
BLOCK
  5
B5
100
AcDbEntity
  8
notes
390
0
100
AcDbBlockBegin
  2
*D9
 70
               1
 10
0.0
 20
0.0
 30
0.0
  3
*D9
  1

  0
LINE
  5
B6
100
AcDbEntity
  8
0
370
              -2
390
0
  6
Continuous
 62
               0
100
AcDbLine
 10
-450.46029095213453
 20
772.8033415433049
 30
0.0
 11
-450.46029095213453
 21
890.87755502616892
 31
0.0
  0
LINE
  5
B7
100
AcDbEntity
  8
0
370
              -2
390
0
  6
Continuous
 62
               0
100
AcDbLine
 10
-350.46029095213453
 20
772.8033415433049
 30
0.0
 11
-350.46029095213453
 21
890.87755502616892
 31
0.0
  0
LINE
  5
B8
100
AcDbEntity
  8
0
370
              -2
390
0
  6
Continuous
 62
               0
100
AcDbLine
 10
-450.46029095213453
 20
890.87755502616892
 30
0.0
 11
-350.46029095213453
 21
890.87755502616892
 31
0.0
  0
CIRCLE
  5
B9
102
{ACAD_REACTORS
330
BA
102
}
100
AcDbEntity
  8
0
370
              -2
390
0
  6
Continuous
 62
               0
100
AcDbCircle
 10
-450.46029095213453
 20
890.87755502616892
 30
0.0
 40
1.9998779296875
  0
HATCH
  5
BA
100
AcDbEntity
  8
0
370
              -2
390
0
  6
Continuous
 62
               0
100
AcDbHatch
 10
0.0
 20
0.0
 30
0.0
210
0.0
220
0.0
230
1.0
  2
SOLID
 70
               1
 71
               1
 91
        1
 92
        1
 93
        1
 72
               2
 10
-450.46029095213453
 20
890.87755502616892
 40
1.9998779296875
 50
0.0
 51
360.0
 73
               0
 97
        1
330
B9
 75
               0
 76
               1
 98
        1
 10
0.0
 20
0.0
  0
CIRCLE
  5
BB
102
{ACAD_REACTORS
330
BC
102
}
100
AcDbEntity
  8
0
370
              -2
390
0
  6
Continuous
 62
               0
100
AcDbCircle
 10
-350.46029095213453
 20
890.87755502616892
 30
0.0
 40
1.9998779296875
  0
HATCH
  5
BC
100
AcDbEntity
  8
0
370
              -2
390
0
  6
Continuous
 62
               0
100
AcDbHatch
 10
0.0
 20
0.0
 30
0.0
210
0.0
220
0.0
230
1.0
  2
SOLID
 70
               1
 71
               1
 91
        1
 92
        1
 93
        1
 72
               2
 10
-350.46029095213453
 20
890.87755502616892
 40
1.9998779296875
 50
0.0
 51
360.0
 73
               0
 97
        1
330
BB
 75
               0
 76
               1
 98
        1
 10
0.0
 20
0.0
  0
MTEXT
  5
BD
100
AcDbEntity
  8
0
390
0
 62
               0
100
AcDbMText
 10
-424.27279263431012
 20
924.75517221366897
 30
0.0
 40
24.432617187500004
 41
0.0
 71
               1
 72
               1
  1
100
  7
ＭＳ ゴシック
 73
               1
 44
0.7828267384257843
  0
POINT
  5
BE
100
AcDbEntity
  8
Defpoints
370
               0
390
0
 62
               0
100
AcDbPoint
 10
-350.46029095213453
 20
747.8033415433049
 30
0.0
  0
POINT
  5
BF
100
AcDbEntity
  8
Defpoints
370
               0
390
0
 62
               0
100
AcDbPoint
 10
-450.46029095213453
 20
747.8033415433049
 30
0.0
  0
POINT
  5
C0
100
AcDbEntity
  8
Defpoints
370
               0
390
0
 62
               0
100
AcDbPoint
 10
-450.46029095213453
 20
890.87755502616892
 30
0.0
  0
ENDBLK
  5
C1
100
AcDbEntity
  8
notes
390
0
100
AcDbBlockEnd
  0
BLOCK
  5
C2
100
AcDbEntity
  8
notes
390
0
100
AcDbBlockBegin
  2
*D10
 70
               1
 10
0.0
 20
0.0
 30
0.0
  3
*D10
  1

  0
LINE
  5
C3
100
AcDbEntity
  8
0
370
              -2
390
0
  6
Continuous
 62
               0
100
AcDbLine
 10
-135.46029095213441
 20
-425.04464285738356
 30
0.0
 11
-50.460290952134415
 21
-425.04464285738356
 31
0.0
  0
LINE
  5
C4
100
AcDbEntity
  8
0
370
              -2
390
0
  6
Continuous
 62
               0
100
AcDbLine
 10
-385.73202885696537
 20
-590.04464285738311
 30
0.0
 11
-50.460290952134443
 21
-590.04464285738311
 31
0.0
  0
LINE
  5
C5
100
AcDbEntity
  8
0
370
              -2
390
0
  6
Continuous
 62
               0
100
AcDbLine
 10
-50.460290952134415
 20
-425.04464285738356
 30
0.0
 11
-50.460290952134443
 21
-590.04464285738311
 31
0.0
  0
CIRCLE
  5
C6
102
{ACAD_REACTORS
330
C7
102
}
100
AcDbEntity
  8
0
370
              -2
390
0
  6
Continuous
 62
               0
100
AcDbCircle
 10
-50.460290952134415
 20
-425.04464285738356
 30
0.0
 40
1.9998779296875
  0
HATCH
  5
C7
100
AcDbEntity
  8
0
370
              -2
390
0
  6
Continuous
 62
               0
100
AcDbHatch
 10
0.0
 20
0.0
 30
0.0
210
0.0
220
0.0
230
1.0
  2
SOLID
 70
               1
 71
               1
 91
        1
 92
        1
 93
        1
 72
               2
 10
-50.460290952134415
 20
-425.04464285738356
 40
1.9998779296875
 50
0.0
 51
360.0
 73
               0
 97
        1
330
C6
 75
               0
 76
               1
 98
        1
 10
0.0
 20
0.0
  0
CIRCLE
  5
C8
102
{ACAD_REACTORS
330
C9
102
}
100
AcDbEntity
  8
0
370
              -2
390
0
  6
Continuous
 62
               0
100
AcDbCircle
 10
-50.460290952134443
 20
-590.04464285738311
 30
0.0
 40
1.9998779296875
  0
HATCH
  5
C9
100
AcDbEntity
  8
0
370
              -2
390
0
  6
Continuous
 62
               0
100
AcDbHatch
 10
0.0
 20
0.0
 30
0.0
210
0.0
220
0.0
230
1.0
  2
SOLID
 70
               1
 71
               1
 91
        1
 92
        1
 93
        1
 72
               2
 10
-50.460290952134443
 20
-590.04464285738311
 40
1.9998779296875
 50
0.0
 51
360.0
 73
               0
 97
        1
330
C8
 75
               0
 76
               1
 98
        1
 10
0.0
 20
0.0
  0
MTEXT
  5
CA
100
AcDbEntity
  8
0
390
0
 62
               0
100
AcDbMText
 10
-84.337908139634422
 20
-531.35714453955882
 30
0.0
 40
24.432617187500004
 41
0.0
 71
               1
 72
               1
  1
165
  7
ＭＳ ゴシック
 11
0.0
 21
1.0
 31
0.0
 73
               1
 44
0.7828267384257843
  0
POINT
  5
CB
100
AcDbEntity
  8
Defpoints
370
               0
390
0
 62
               0
100
AcDbPoint
 10
-410.73202885696537
 20
-590.04464285738311
 30
0.0
  0
POINT
  5
CC
100
AcDbEntity
  8
Defpoints
370
               0
390
0
 62
               0
100
AcDbPoint
 10
-160.46029095213441
 20
-425.04464285738356
 30
0.0
  0
POINT
  5
CD
100
AcDbEntity
  8
Defpoints
370
               0
390
0
 62
               0
100
AcDbPoint
 10
-50.460290952134415
 20
-425.04464285738356
 30
0.0
  0
ENDBLK
  5
CE
100
AcDbEntity
  8
notes
390
0
100
AcDbBlockEnd
  0
BLOCK
  5
CF
100
AcDbEntity
  8
notes
390
0
100
AcDbBlockBegin
  2
*D11
 70
               1
 10
0.0
 20
0.0
 30
0.0
  3
*D11
  1

  0
LINE
  5
D0
100
AcDbEntity
  8
0
370
              -2
390
0
  6
Continuous
 62
               0
100
AcDbLine
 10
354.08708317980745
 20
-425.04464285738356
 30
0.0
 11
269.08708317980745
 21
-425.04464285738356
 31
0.0
  0
LINE
  5
D1
100
AcDbEntity
  8
0
370
              -2
390
0
  6
Continuous
 62
               0
100
AcDbLine
 10
354.78721091444095
 20
-555.04464285738311
 30
0.0
 11
269.08708317980745
 21
-555.04464285738311
 31
0.0
  0
LINE
  5
D2
100
AcDbEntity
  8
0
370
              -2
390
0
  6
Continuous
 62
               0
100
AcDbLine
 10
269.08708317980745
 20
-425.04464285738356
 30
0.0
 11
269.08708317980745
 21
-555.04464285738311
 31
0.0
  0
CIRCLE
  5
D3
102
{ACAD_REACTORS
330
D4
102
}
100
AcDbEntity
  8
0
370
              -2
390
0
  6
Continuous
 62
               0
100
AcDbCircle
 10
269.08708317980745
 20
-425.04464285738356
 30
0.0
 40
1.9998779296875
  0
HATCH
  5
D4
100
AcDbEntity
  8
0
370
              -2
390
0
  6
Continuous
 62
               0
100
AcDbHatch
 10
0.0
 20
0.0
 30
0.0
210
0.0
220
0.0
230
1.0
  2
SOLID
 70
               1
 71
               1
 91
        1
 92
        1
 93
        1
 72
               2
 10
269.08708317980745
 20
-425.04464285738356
 40
1.9998779296875
 50
0.0
 51
360.0
 73
               0
 97
        1
330
D3
 75
               0
 76
               1
 98
        1
 10
0.0
 20
0.0
  0
CIRCLE
  5
D5
102
{ACAD_REACTORS
330
D6
102
}
100
AcDbEntity
  8
0
370
              -2
390
0
  6
Continuous
 62
               0
100
AcDbCircle
 10
269.08708317980745
 20
-555.04464285738311
 30
0.0
 40
1.9998779296875
  0
HATCH
  5
D6
100
AcDbEntity
  8
0
370
              -2
390
0
  6
Continuous
 62
               0
100
AcDbHatch
 10
0.0
 20
0.0
 30
0.0
210
0.0
220
0.0
230
1.0
  2
SOLID
 70
               1
 71
               1
 91
        1
 92
        1
 93
        1
 72
               2
 10
269.08708317980745
 20
-555.04464285738311
 40
1.9998779296875
 50
0.0
 51
360.0
 73
               0
 97
        1
330
D5
 75
               0
 76
               1
 98
        1
 10
0.0
 20
0.0
  0
MTEXT
  5
D7
100
AcDbEntity
  8
0
390
0
 62
               0
100
AcDbMText
 10
235.20946599230743
 20
-513.85714453955882
 30
0.0
 40
24.432617187500004
 41
0.0
 71
               1
 72
               1
  1
130
  7
ＭＳ ゴシック
 11
0.0
 21
1.0
 31
0.0
 73
               1
 44
0.7828267384257843
  0
POINT
  5
D8
100
AcDbEntity
  8
Defpoints
370
               0
390
0
 62
               0
100
AcDbPoint
 10
379.78721091444095
 20
-555.04464285738311
 30
0.0
  0
POINT
  5
D9
100
AcDbEntity
  8
Defpoints
370
               0
390
0
 62
               0
100
AcDbPoint
 10
379.08708317980745
 20
-425.04464285738356
 30
0.0
  0
POINT
  5
DA
100
AcDbEntity
  8
Defpoints
370
               0
390
0
 62
               0
100
AcDbPoint
 10
269.08708317980745
 20
-425.04464285738356
 30
0.0
  0
ENDBLK
  5
DB
100
AcDbEntity
  8
notes
390
0
100
AcDbBlockEnd
  0
BLOCK
  5
DC
100
AcDbEntity
  8
notes
390
0
100
AcDbBlockBegin
  2
*D12
 70
               1
 10
0.0
 20
0.0
 30
0.0
  3
*D12
  1

  0
LINE
  5
DD
100
AcDbEntity
  8
0
370
              -2
390
0
  6
Continuous
 62
               0
100
AcDbLine
 10
354.78721091444095
 20
-555.04464285738311
 30
0.0
 11
268.96208317980745
 21
-555.04464285738311
 31
0.0
  0
LINE
  5
DE
100
AcDbEntity
  8
0
370
              -2
390
0
  6
Continuous
 62
               0
100
AcDbLine
 10
573.90361963814098
 20
-590.04464285738311
 30
0.0
 11
268.96208317980745
 21
-590.04464285738311
 31
0.0
  0
LINE
  5
DF
100
AcDbEntity
  8
0
370
              -2
390
0
  6
Continuous
 62
               0
100
AcDbLine
 10
268.96208317980745
 20
-590.04464285738311
 30
0.0
 11
268.96208317980745
 21
-638.6552045349664
 31
0.0
  0
LINE
  5
E0
100
AcDbEntity
  8
0
370
              -2
390
0
  6
Continuous
 62
               0
100
AcDbLine
 10
268.96208317980745
 20
-555.04464285738311
 30
0.0
 11
268.96208317980745
 21
-590.04464285738311
 31
0.0
  0
CIRCLE
  5
E1
102
{ACAD_REACTORS
330
E2
102
}
100
AcDbEntity
  8
0
370
              -2
390
0
  6
Continuous
 62
               0
100
AcDbCircle
 10
268.96208317980745
 20
-555.04464285738311
 30
0.0
 40
1.9998779296875
  0
HATCH
  5
E2
100
AcDbEntity
  8
0
370
              -2
390
0
  6
Continuous
 62
               0
100
AcDbHatch
 10
0.0
 20
0.0
 30
0.0
210
0.0
220
0.0
230
1.0
  2
SOLID
 70
               1
 71
               1
 91
        1
 92
        1
 93
        1
 72
               2
 10
268.96208317980745
 20
-555.04464285738311
 40
1.9998779296875
 50
0.0
 51
360.0
 73
               0
 97
        1
330
E1
 75
               0
 76
               1
 98
        1
 10
0.0
 20
0.0
  0
CIRCLE
  5
E3
102
{ACAD_REACTORS
330
E4
102
}
100
AcDbEntity
  8
0
370
              -2
390
0
  6
Continuous
 62
               0
100
AcDbCircle
 10
268.96208317980745
 20
-590.04464285738311
 30
0.0
 40
1.9998779296875
  0
HATCH
  5
E4
100
AcDbEntity
  8
0
370
              -2
390
0
  6
Continuous
 62
               0
100
AcDbHatch
 10
0.0
 20
0.0
 30
0.0
210
0.0
220
0.0
230
1.0
  2
SOLID
 70
               1
 71
               1
 91
        1
 92
        1
 93
        1
 72
               2
 10
268.96208317980745
 20
-590.04464285738311
 40
1.9998779296875
 50
0.0
 51
360.0
 73
               0
 97
        1
330
E3
 75
               0
 76
               1
 98
        1
 10
0.0
 20
0.0
  0
MTEXT
  5
E5
100
AcDbEntity
  8
0
390
0
 62
               0
100
AcDbMText
 10
235.08446599230743
 20
-638.6552045349664
 30
0.0
 40
24.432617187500004
 41
0.0
 71
               1
 72
               1
  1
35
  7
ＭＳ ゴシック
 11
0.0
 21
1.0
 31
0.0
 73
               1
 44
0.7828267384257843
  0
POINT
  5
E6
100
AcDbEntity
  8
Defpoints
370
               0
390
0
 62
               0
100
AcDbPoint
 10
598.90361963814098
 20
-590.04464285738311
 30
0.0
  0
POINT
  5
E7
100
AcDbEntity
  8
Defpoints
370
               0
390
0
 62
               0
100
AcDbPoint
 10
379.78721091444095
 20
-555.04464285738311
 30
0.0
  0
POINT
  5
E8
100
AcDbEntity
  8
Defpoints
370
               0
390
0
 62
               0
100
AcDbPoint
 10
268.96208317980745
 20
-555.04464285738311
 30
0.0
  0
ENDBLK
  5
E9
100
AcDbEntity
  8
notes
390
0
100
AcDbBlockEnd
  0
BLOCK
  5
EA
100
AcDbEntity
  8
notes
390
0
100
AcDbBlockBegin
  2
*D13
 70
               1
 10
0.0
 20
0.0
 30
0.0
  3
*D13
  1

  0
LINE
  5
EB
100
AcDbEntity
  8
0
370
              -2
390
0
  6
Continuous
 62
               0
100
AcDbLine
 10
635.22560083507449
 20
-425.04464285738356
 30
0.0
 11
630.3468401499706
 21
-425.04464285738356
 31
0.0
  0
LINE
  5
EC
100
AcDbEntity
  8
0
370
              -2
390
0
  6
Continuous
 62
               0
100
AcDbLine
 10
635.22560083507449
 20
-540.04464285738311
 30
0.0
 11
630.3468401499706
 21
-540.04464285738311
 31
0.0
  0
LINE
  5
ED
100
AcDbEntity
  8
0
370
              -2
390
0
  6
Continuous
 62
               0
100
AcDbLine
 10
630.3468401499706
 20
-425.04464285738356
 30
0.0
 11
630.3468401499706
 21
-271.34432531007809
 31
0.0
  0
LINE
  5
EE
100
AcDbEntity
  8
0
370
              -2
390
0
  6
Continuous
 62
               0
100
AcDbLine
 10
630.3468401499706
 20
-425.04464285738356
 30
0.0
 11
630.3468401499706
 21
-540.04464285738311
 31
0.0
  0
CIRCLE
  5
EF
102
{ACAD_REACTORS
330
F0
102
}
100
AcDbEntity
  8
0
370
              -2
390
0
  6
Continuous
 62
               0
100
AcDbCircle
 10
630.3468401499706
 20
-425.04464285738356
 30
0.0
 40
1.9998779296875
  0
HATCH
  5
F0
100
AcDbEntity
  8
0
370
              -2
390
0
  6
Continuous
 62
               0
100
AcDbHatch
 10
0.0
 20
0.0
 30
0.0
210
0.0
220
0.0
230
1.0
  2
SOLID
 70
               1
 71
               1
 91
        1
 92
        1
 93
        1
 72
               2
 10
630.3468401499706
 20
-425.04464285738356
 40
1.9998779296875
 50
0.0
 51
360.0
 73
               0
 97
        1
330
EF
 75
               0
 76
               1
 98
        1
 10
0.0
 20
0.0
  0
CIRCLE
  5
F1
102
{ACAD_REACTORS
330
F2
102
}
100
AcDbEntity
  8
0
370
              -2
390
0
  6
Continuous
 62
               0
100
AcDbCircle
 10
630.3468401499706
 20
-540.04464285738311
 30
0.0
 40
1.9998779296875
  0
HATCH
  5
F2
100
AcDbEntity
  8
0
370
              -2
390
0
  6
Continuous
 62
               0
100
AcDbHatch
 10
0.0
 20
0.0
 30
0.0
210
0.0
220
0.0
230
1.0
  2
SOLID
 70
               1
 71
               1
 91
        1
 92
        1
 93
        1
 72
               2
 10
630.3468401499706
 20
-540.04464285738311
 40
1.9998779296875
 50
0.0
 51
360.0
 73
               0
 97
        1
330
F1
 75
               0
 76
               1
 98
        1
 10
0.0
 20
0.0
  0
MTEXT
  5
F3
100
AcDbEntity
  8
0
390
0
 62
               0
100
AcDbMText
 10
596.46922296247055
 20
-414.21932531007809
 30
0.0
 40
24.432617187500004
 41
0.0
 71
               1
 72
               1
  1
115(深さ)
  7
ＭＳ ゴシック
 11
0.0
 21
1.0
 31
0.0
 73
               1
 44
0.7828267384257843
  0
POINT
  5
F4
100
AcDbEntity
  8
Defpoints
370
               0
390
0
 62
               0
100
AcDbPoint
 10
610.22560083507449
 20
-540.04464285738311
 30
0.0
  0
POINT
  5
F5
100
AcDbEntity
  8
Defpoints
370
               0
390
0
 62
               0
100
AcDbPoint
 10
610.22560083507449
 20
-425.04464285738356
 30
0.0
  0
POINT
  5
F6
100
AcDbEntity
  8
Defpoints
370
               0
390
0
 62
               0
100
AcDbPoint
 10
630.3468401499706
 20
-425.04464285738356
 30
0.0
  0
ENDBLK
  5
F7
100
AcDbEntity
  8
notes
390
0
100
AcDbBlockEnd
  0
BLOCK
  5
F8
100
AcDbEntity
  8
notes
390
0
100
AcDbBlockBegin
  2
*D14
 70
               1
 10
0.0
 20
0.0
 30
0.0
  3
*D14
  1

  0
LINE
  5
F9
100
AcDbEntity
  8
0
370
              -2
390
0
  6
Continuous
 62
               0
100
AcDbLine
 10
-590.4602909521343
 20
-435.04464285738368
 30
0.0
 11
-590.4602909521343
 21
-325.83288070460583
 31
0.0
  0
LINE
  5
FA
100
AcDbEntity
  8
0
370
              -2
390
0
  6
Continuous
 62
               0
100
AcDbLine
 10
-310.46029095213453
 20
-435.04464285738368
 30
0.0
 11
-310.46029095213453
 21
-325.83288070460583
 31
0.0
  0
LINE
  5
FB
100
AcDbEntity
  8
0
370
              -2
390
0
  6
Continuous
 62
               0
100
AcDbLine
 10
-590.4602909521343
 20
-325.83288070460583
 30
0.0
 11
-310.46029095213453
 21
-325.83288070460583
 31
0.0
  0
CIRCLE
  5
FC
102
{ACAD_REACTORS
330
FD
102
}
100
AcDbEntity
  8
0
370
              -2
390
0
  6
Continuous
 62
               0
100
AcDbCircle
 10
-590.4602909521343
 20
-325.83288070460583
 30
0.0
 40
1.9998779296875
  0
HATCH
  5
FD
100
AcDbEntity
  8
0
370
              -2
390
0
  6
Continuous
 62
               0
100
AcDbHatch
 10
0.0
 20
0.0
 30
0.0
210
0.0
220
0.0
230
1.0
  2
SOLID
 70
               1
 71
               1
 91
        1
 92
        1
 93
        1
 72
               2
 10
-590.4602909521343
 20
-325.83288070460583
 40
1.9998779296875
 50
0.0
 51
360.0
 73
               0
 97
        1
330
FC
 75
               0
 76
               1
 98
        1
 10
0.0
 20
0.0
  0
CIRCLE
  5
FE
102
{ACAD_REACTORS
330
FF
102
}
100
AcDbEntity
  8
0
370
              -2
390
0
  6
Continuous
 62
               0
100
AcDbCircle
 10
-310.46029095213453
 20
-325.83288070460583
 30
0.0
 40
1.9998779296875
  0
HATCH
  5
FF
100
AcDbEntity
  8
0
370
              -2
390
0
  6
Continuous
 62
               0
100
AcDbHatch
 10
0.0
 20
0.0
 30
0.0
210
0.0
220
0.0
230
1.0
  2
SOLID
 70
               1
 71
               1
 91
        1
 92
        1
 93
        1
 72
               2
 10
-310.46029095213453
 20
-325.83288070460583
 40
1.9998779296875
 50
0.0
 51
360.0
 73
               0
 97
        1
330
FE
 75
               0
 76
               1
 98
        1
 10
0.0
 20
0.0
  0
MTEXT
  5
100
100
AcDbEntity
  8
0
390
0
 62
               0
100
AcDbMText
 10
-474.27279263430989
 20
-291.95526351710583
 30
0.0
 40
24.432617187500004
 41
0.0
 71
               1
 72
               1
  1
280
  7
ＭＳ ゴシック
 73
               1
 44
0.7828267384257843
  0
POINT
  5
101
100
AcDbEntity
  8
Defpoints
370
               0
390
0
 62
               0
100
AcDbPoint
 10
-310.46029095213453
 20
-460.04464285738368
 30
0.0
  0
POINT
  5
102
100
AcDbEntity
  8
Defpoints
370
               0
390
0
 62
               0
100
AcDbPoint
 10
-590.4602909521343
 20
-460.04464285738368
 30
0.0
  0
POINT
  5
103
100
AcDbEntity
  8
Defpoints
370
               0
390
0
 62
               0
100
AcDbPoint
 10
-590.4602909521343
 20
-325.83288070460583
 30
0.0
  0
ENDBLK
  5
104
100
AcDbEntity
  8
notes
390
0
100
AcDbBlockEnd
  0
BLOCK
  5
105
100
AcDbEntity
  8
notes
390
0
100
AcDbBlockBegin
  2
*D15
 70
               1
 10
0.0
 20
0.0
 30
0.0
  3
*D15
  1

  0
LINE
  5
106
100
AcDbEntity
  8
0
370
              -2
390
0
  6
Continuous
 62
               0
100
AcDbLine
 10
-666.49731352157869
 20
-480.04464285738334
 30
0.0
 11
-850.4602909521343
 21
-480.04464285738334
 31
0.0
  0
LINE
  5
107
100
AcDbEntity
  8
0
370
              -2
390
0
  6
Continuous
 62
               0
100
AcDbLine
 10
-765.4602909521343
 20
-425.04464285738356
 30
0.0
 11
-850.4602909521343
 21
-425.04464285738356
 31
0.0
  0
LINE
  5
108
100
AcDbEntity
  8
0
370
              -2
390
0
  6
Continuous
 62
               0
100
AcDbLine
 10
-850.4602909521343
 20
-480.04464285738334
 30
0.0
 11
-850.4602909521343
 21
-425.04464285738356
 31
0.0
  0
CIRCLE
  5
109
102
{ACAD_REACTORS
330
10A
102
}
100
AcDbEntity
  8
0
370
              -2
390
0
  6
Continuous
 62
               0
100
AcDbCircle
 10
-850.4602909521343
 20
-480.04464285738334
 30
0.0
 40
1.9998779296875
  0
HATCH
  5
10A
100
AcDbEntity
  8
0
370
              -2
390
0
  6
Continuous
 62
               0
100
AcDbHatch
 10
0.0
 20
0.0
 30
0.0
210
0.0
220
0.0
230
1.0
  2
SOLID
 70
               1
 71
               1
 91
        1
 92
        1
 93
        1
 72
               2
 10
-850.4602909521343
 20
-480.04464285738334
 40
1.9998779296875
 50
0.0
 51
360.0
 73
               0
 97
        1
330
109
 75
               0
 76
               1
 98
        1
 10
0.0
 20
0.0
  0
CIRCLE
  5
10B
102
{ACAD_REACTORS
330
10C
102
}
100
AcDbEntity
  8
0
370
              -2
390
0
  6
Continuous
 62
               0
100
AcDbCircle
 10
-850.4602909521343
 20
-425.04464285738356
 30
0.0
 40
1.9998779296875
  0
HATCH
  5
10C
100
AcDbEntity
  8
0
370
              -2
390
0
  6
Continuous
 62
               0
100
AcDbHatch
 10
0.0
 20
0.0
 30
0.0
210
0.0
220
0.0
230
1.0
  2
SOLID
 70
               1
 71
               1
 91
        1
 92
        1
 93
        1
 72
               2
 10
-850.4602909521343
 20
-425.04464285738356
 40
1.9998779296875
 50
0.0
 51
360.0
 73
               0
 97
        1
330
10B
 75
               0
 76
               1
 98
        1
 10
0.0
 20
0.0
  0
MTEXT
  5
10D
100
AcDbEntity
  8
0
390
0
 62
               0
100
AcDbMText
 10
-884.33790813963435
 20
-468.41964285738345
 30
0.0
 40
24.432617187500004
 41
0.0
 71
               1
 72
               1
  1
55
  7
ＭＳ ゴシック
 11
0.0
 21
1.0
 31
0.0
 73
               1
 44
0.7828267384257843
  0
POINT
  5
10E
100
AcDbEntity
  8
Defpoints
370
               0
390
0
 62
               0
100
AcDbPoint
 10
-740.4602909521343
 20
-425.04464285738356
 30
0.0
  0
POINT
  5
10F
100
AcDbEntity
  8
Defpoints
370
               0
390
0
 62
               0
100
AcDbPoint
 10
-641.49731352157869
 20
-480.04464285738334
 30
0.0
  0
POINT
  5
110
100
AcDbEntity
  8
Defpoints
370
               0
390
0
 62
               0
100
AcDbPoint
 10
-850.4602909521343
 20
-480.04464285738334
 30
0.0
  0
ENDBLK
  5
111
100
AcDbEntity
  8
notes
390
0
100
AcDbBlockEnd
  0
BLOCK
  5
112
100
AcDbEntity
  8
notes
390
0
100
AcDbBlockBegin
  2
*D16
 70
               1
 10
0.0
 20
0.0
 30
0.0
  3
*D16
  1

  0
LINE
  5
113
100
AcDbEntity
  8
0
370
              -2
390
0
  6
Continuous
 62
               0
100
AcDbLine
 10
769.1036196381408
 20
-400.04464285738356
 30
0.0
 11
769.1036196381408
 21
-325.04464285738356
 31
0.0
  0
LINE
  5
114
100
AcDbEntity
  8
0
370
              -2
390
0
  6
Continuous
 62
               0
100
AcDbLine
 10
834.1036196381408
 20
-410.04464285738356
 30
0.0
 11
834.1036196381408
 21
-325.04464285738356
 31
0.0
  0
LINE
  5
115
100
AcDbEntity
  8
0
370
              -2
390
0
  6
Continuous
 62
               0
100
AcDbLine
 10
769.1036196381408
 20
-325.04464285738356
 30
0.0
 11
834.1036196381408
 21
-325.04464285738356
 31
0.0
  0
CIRCLE
  5
116
102
{ACAD_REACTORS
330
117
102
}
100
AcDbEntity
  8
0
370
              -2
390
0
  6
Continuous
 62
               0
100
AcDbCircle
 10
769.1036196381408
 20
-325.04464285738356
 30
0.0
 40
1.9998779296875
  0
HATCH
  5
117
100
AcDbEntity
  8
0
370
              -2
390
0
  6
Continuous
 62
               0
100
AcDbHatch
 10
0.0
 20
0.0
 30
0.0
210
0.0
220
0.0
230
1.0
  2
SOLID
 70
               1
 71
               1
 91
        1
 92
        1
 93
        1
 72
               2
 10
769.1036196381408
 20
-325.04464285738356
 40
1.9998779296875
 50
0.0
 51
360.0
 73
               0
 97
        1
330
116
 75
               0
 76
               1
 98
        1
 10
0.0
 20
0.0
  0
CIRCLE
  5
118
102
{ACAD_REACTORS
330
119
102
}
100
AcDbEntity
  8
0
370
              -2
390
0
  6
Continuous
 62
               0
100
AcDbCircle
 10
834.1036196381408
 20
-325.04464285738356
 30
0.0
 40
1.9998779296875
  0
HATCH
  5
119
100
AcDbEntity
  8
0
370
              -2
390
0
  6
Continuous
 62
               0
100
AcDbHatch
 10
0.0
 20
0.0
 30
0.0
210
0.0
220
0.0
230
1.0
  2
SOLID
 70
               1
 71
               1
 91
        1
 92
        1
 93
        1
 72
               2
 10
834.1036196381408
 20
-325.04464285738356
 40
1.9998779296875
 50
0.0
 51
360.0
 73
               0
 97
        1
330
118
 75
               0
 76
               1
 98
        1
 10
0.0
 20
0.0
  0
MTEXT
  5
11A
100
AcDbEntity
  8
0
390
0
 62
               0
100
AcDbMText
 10
785.7286196381408
 20
-291.16702566988357
 30
0.0
 40
24.432617187500004
 41
0.0
 71
               1
 72
               1
  1
65
  7
ＭＳ ゴシック
 73
               1
 44
0.7828267384257843
  0
POINT
  5
11B
100
AcDbEntity
  8
Defpoints
370
               0
390
0
 62
               0
100
AcDbPoint
 10
834.1036196381408
 20
-435.04464285738356
 30
0.0
  0
POINT
  5
11C
100
AcDbEntity
  8
Defpoints
370
               0
390
0
 62
               0
100
AcDbPoint
 10
769.1036196381408
 20
-425.04464285738356
 30
0.0
  0
POINT
  5
11D
100
AcDbEntity
  8
Defpoints
370
               0
390
0
 62
               0
100
AcDbPoint
 10
769.1036196381408
 20
-325.04464285738356
 30
0.0
  0
ENDBLK
  5
11E
100
AcDbEntity
  8
notes
390
0
100
AcDbBlockEnd
  0
BLOCK
  5
11F
100
AcDbEntity
  8
notes
390
0
100
AcDbBlockBegin
  2
*D17
 70
               1
 10
0.0
 20
0.0
 30
0.0
  3
*D17
  1

  0
LINE
  5
120
100
AcDbEntity
  8
0
370
              -2
390
0
  6
Continuous
 62
               0
100
AcDbLine
 10
834.1036196381408
 20
-570.04464285738311
 30
0.0
 11
834.1036196381408
 21
-690.04464285738311
 31
0.0
  0
LINE
  5
121
100
AcDbEntity
  8
0
370
              -2
390
0
  6
Continuous
 62
               0
100
AcDbLine
 10
639.10361963814103
 20
-615.04464285738311
 30
0.0
 11
639.10361963814103
 21
-690.04464285738311
 31
0.0
  0
LINE
  5
122
100
AcDbEntity
  8
0
370
              -2
390
0
  6
Continuous
 62
               0
100
AcDbLine
 10
834.1036196381408
 20
-690.04464285738311
 30
0.0
 11
639.10361963814103
 21
-690.04464285738311
 31
0.0
  0
CIRCLE
  5
123
102
{ACAD_REACTORS
330
124
102
}
100
AcDbEntity
  8
0
370
              -2
390
0
  6
Continuous
 62
               0
100
AcDbCircle
 10
834.1036196381408
 20
-690.04464285738311
 30
0.0
 40
1.9998779296875
  0
HATCH
  5
124
100
AcDbEntity
  8
0
370
              -2
390
0
  6
Continuous
 62
               0
100
AcDbHatch
 10
0.0
 20
0.0
 30
0.0
210
0.0
220
0.0
230
1.0
  2
SOLID
 70
               1
 71
               1
 91
        1
 92
        1
 93
        1
 72
               2
 10
834.1036196381408
 20
-690.04464285738311
 40
1.9998779296875
 50
0.0
 51
360.0
 73
               0
 97
        1
330
123
 75
               0
 76
               1
 98
        1
 10
0.0
 20
0.0
  0
CIRCLE
  5
125
102
{ACAD_REACTORS
330
126
102
}
100
AcDbEntity
  8
0
370
              -2
390
0
  6
Continuous
 62
               0
100
AcDbCircle
 10
639.10361963814103
 20
-690.04464285738311
 30
0.0
 40
1.9998779296875
  0
HATCH
  5
126
100
AcDbEntity
  8
0
370
              -2
390
0
  6
Continuous
 62
               0
100
AcDbHatch
 10
0.0
 20
0.0
 30
0.0
210
0.0
220
0.0
230
1.0
  2
SOLID
 70
               1
 71
               1
 91
        1
 92
        1
 93
        1
 72
               2
 10
639.10361963814103
 20
-690.04464285738311
 40
1.9998779296875
 50
0.0
 51
360.0
 73
               0
 97
        1
330
125
 75
               0
 76
               1
 98
        1
 10
0.0
 20
0.0
  0
MTEXT
  5
127
100
AcDbEntity
  8
0
390
0
 62
               0
100
AcDbMText
 10
712.79111795596543
 20
-656.16702566988306
 30
0.0
 40
24.432617187500004
 41
0.0
 71
               1
 72
               1
  1
195
  7
ＭＳ ゴシック
 73
               1
 44
0.7828267384257843
  0
POINT
  5
128
100
AcDbEntity
  8
Defpoints
370
               0
390
0
 62
               0
100
AcDbPoint
 10
639.10361963814103
 20
-590.04464285738311
 30
0.0
  0
POINT
  5
129
100
AcDbEntity
  8
Defpoints
370
               0
390
0
 62
               0
100
AcDbPoint
 10
834.1036196381408
 20
-545.04464285738311
 30
0.0
  0
POINT
  5
12A
100
AcDbEntity
  8
Defpoints
370
               0
390
0
 62
               0
100
AcDbPoint
 10
834.1036196381408
 20
-690.04464285738311
 30
0.0
  0
ENDBLK
  5
12B
100
AcDbEntity
  8
notes
390
0
100
AcDbBlockEnd
  0
ENDSEC
  0
SECTION
  2
ENTITIES
  0
MTEXT
  5
12C
100
AcDbEntity
  8
template
390
0
 62
               7
100
AcDbMText
 10
-967.99999999975921
 20
-1147.4176292337006
 30
0.0
 40
16.288411458333332
 41
0.0
 71
               1
 72
               1
  1
品名
  7
ＭＳ ゴシック
 73
               1
 44
0.7828267384257843
  0
MTEXT
  5
12D
100
AcDbEntity
  8
template
390
0
 62
               7
100
AcDbMText
 10
-967.99999999975921
 20
-1232.4176292337006
 30
0.0
 40
16.288411458333332
 41
0.0
 71
               1
 72
               1
  1
仕様
  7
ＭＳ ゴシック
 73
               1
 44
0.7828267384257843
  0
LINE
  5
12E
100
AcDbEntity
  8
template
370
               5
390
0
  6
Continuous
 62
               7
100
AcDbLine
 10
974.99999999975876
 20
-1224.0027073587007
 30
0.0
 11
-975.00000000024124
 21
-1224.0027073587007
 31
0.0
  0
LWPOLYLINE
  5
12F
100
AcDbEntity
  8
template
370
               5
390
0
  6
Continuous
 62
               7
100
AcDbPolyline
 90
        5
 70
             128
 10
975.00000000024124
 20
1405.9972926412993
 10
-974.99999999975921
 20
1405.9972926412993
 10
-974.99999999975921
 20
-1394.0027073587007
 10
975.00000000024124
 20
-1394.0027073587007
 10
975.00000000024124
 20
1405.9972926412993
  0
LINE
  5
130
100
AcDbEntity
  8
template
370
               5
390
0
  6
Continuous
 62
               7
100
AcDbLine
 10
974.99999999975876
 20
-1139.0027073587007
 30
0.0
 11
-975.00000000024124
 21
-1139.0027073587007
 31
0.0
  0
LINE
  5
131
100
AcDbEntity
  8
template
370
               5
390
0
  6
Continuous
 62
               7
100
AcDbLine
 10
975.00000000024124
 20
-1309.0027073587007
 30
0.0
 11
222.00000000024124
 21
-1309.0027073587007
 31
0.0
  0
MTEXT
  5
132
100
AcDbEntity
  8
template
390
0
 62
               7
100
AcDbMText
 10
251.87140625250089
 20
-1338.9131018320081
 30
0.0
 40
24.432617187500004
 41
0.0
 71
               1
 72
               1
  1
大洋金物株式会社 ティーフォルム事業部
  7
ＭＳ ゴシック
 73
               1
 44
0.7828267384257843
  0
INSERT
  5
133
100
AcDbEntity
  8
template
390
0
 62
               7
100
AcDbBlockReference
  2
グループ
 10
0.0000000000000284
 20
54.070963541666629
 30
0.0
  0
MTEXT
  5
134
100
AcDbEntity
  8
template
390
0
 62
               7
100
AcDbMText
 10
784.00000000049999
 20
-1261.0000901712006
 30
0.0
 40
24.432617187500004
 41
0.0
 71
               1
 72
               1
  1
1:10
  7
ＭＳ ゴシック
 73
               1
 44
0.7828267384257843
  0
MTEXT
  5
135
100
AcDbEntity
  8
template
390
0
 62
               7
100
AcDbMText
 10
731.00000000049999
 20
-1232.4176292337006
 30
0.0
 40
16.288411458333332
 41
0.0
 71
               1
 72
               1
  1
縮尺
  7
ＭＳ ゴシック
 73
               1
 44
0.7828267384257843
  0
LINE
  5
136
100
AcDbEntity
  8
template
370
               5
390
0
  6
Continuous
 62
               7
100
AcDbLine
 10
724.00000000049999
 20
-1309.0027073587007
 30
0.0
 11
724.00000000049999
 21
-1224.0027073587007
 31
0.0
  0
MTEXT
  5
137
100
AcDbEntity
  8
template
390
0
 62
               7
100
AcDbMText
 10
480.00000000049999
 20
-1232.4176292337006
 30
0.0
 40
16.288411458333332
 41
0.0
 71
               1
 72
               1
  1
容量
  7
ＭＳ ゴシック
 73
               1
 44
0.7828267384257843
  0
MTEXT
  5
138
100
AcDbEntity
  8
template
390
0
 62
               7
100
AcDbMText
 10
533.00000000049999
 20
-1261.0000901712006
 30
0.0
 40
24.432617187500004
 41
0.0
 71
               1
 72
               1
  1
6.8L
  7
ＭＳ ゴシック
 73
               1
 44
0.7828267384257843
  0
LINE
  5
139
100
AcDbEntity
  8
template
370
               5
390
0
  6
Continuous
 62
               7
100
AcDbLine
 10
473.00000000049999
 20
-1309.0027073587007
 30
0.0
 11
473.00000000049999
 21
-1224.0027073587007
 31
0.0
  0
MTEXT
  5
13A
100
AcDbEntity
  8
template
390
0
 62
               7
100
AcDbMText
 10
229.00000000049999
 20
-1147.4176292337006
 30
0.0
 40
16.288411458333332
 41
0.0
 71
               1
 72
               1
  1
品番
  7
ＭＳ ゴシック
 73
               1
 44
0.7828267384257843
  0
MTEXT
  5
13B
100
AcDbEntity
  8
template
390
0
 62
               7
100
AcDbMText
 10
229.00000000049999
 20
-1232.4176292337006
 30
0.0
 40
16.288411458333332
 41
0.0
 71
               1
 72
               1
  1
重量
  7
ＭＳ ゴシック
 73
               1
 44
0.7828267384257843
  0
MTEXT
  5
13C
100
AcDbEntity
  8
template
390
0
 62
               7
100
AcDbMText
 10
282.00000000049999
 20
-1176.0000901712006
 30
0.0
 40
24.432617187500004
 41
0.0
 71
               1
 72
               1
  1
FAA70-0502
  7
ＭＳ ゴシック
 73
               1
 44
0.7828267384257843
  0
MTEXT
  5
13D
100
AcDbEntity
  8
template
390
0
 62
               7
100
AcDbMText
 10
282.00000000049999
 20
-1261.0000901712006
 30
0.0
 40
24.432617187500004
 41
0.0
 71
               1
 72
               1
  1
17.5kg
  7
ＭＳ ゴシック
 73
               1
 44
0.7828267384257843
  0
LINE
  5
13E
100
AcDbEntity
  8
template
370
               5
390
0
  6
Continuous
 62
               7
100
AcDbLine
 10
222.00000000049999
 20
-1394.0027073587007
 30
0.0
 11
222.00000000049999
 21
-1139.0027073587007
 31
0.0
  0
MTEXT
  5
13F
100
AcDbEntity
  8
template
390
0
 62
               7
100
AcDbMText
 10
-974.99999999955605
 20
-1405.8565294155574
 30
0.0
 40
21.717881944444446
 41
0.0
 71
               1
 72
               1
  1
100709SH
  7
ＭＳ ゴシック
 73
               1
 44
0.7828267384257843
  0
MTEXT
  5
140
100
AcDbEntity
  8
template
390
0
 62
               7
100
AcDbMText
 10
-915.00000000020316
 20
-1175.8723828124998
 30
0.0
 40
24.432617187500004
 41
0.0
 71
               1
 72
               1
  1
洗面器 -DURAVIT,Vero-
  7
ＭＳ ゴシック
 73
               1
 44
0.7828267384257843
  0
MTEXT
  5
141
100
AcDbEntity
  8
template
390
0
 62
               7
100
AcDbMText
 10
-915.00000000020316
 20
-1260.8723828124998
 30
0.0
 40
24.432617187500004
 41
0.0
 71
               1
 72
               1
  1
壁掛け/オーバーフロー付き/壁取付ボルト付属/陶器/ホワイト
  7
ＭＳ ゴシック
 73
               1
 44
1.1307497332816883
  0
DIMENSION
  5
142
100
AcDbEntity
  8
notes
370
               5
390
0
  6
Continuous
 62
               7
100
AcDbDimension
  2
*D3
 10
-750.4602909521343
 20
940.87755502616892
 30
0.0
 11
-450.4602909521343
 21
940.87755502616892
 31
0.0
 71
               5
 72
               1
 41
1.0
 42
0.0
  3
tform線あり
100
AcDbAlignedDimension
 13
-150.46029095213441
 23
785.87755502616892
 33
0.0
 14
-750.4602909521343
 24
785.87755502616903
 34
0.0
100
AcDbRotatedDimension
1001
ACAD
1000
DSTYLE
1002
{
1070
             279
1070
               2
1070
             340
1005
33
1070
             147
1040
5.0
1002
}
  0
DIMENSION
  5
143
100
AcDbEntity
  8
notes
370
               5
390
0
  6
Continuous
 62
               7
100
AcDbDimension
  2
*D4
 10
-50.460290952134415
 20
790.87755502616892
 30
0.0
 11
-50.460290952134415
 21
558.37755502616869
 31
0.0
 71
               5
 72
               1
 41
1.0
 42
0.0
  3
tform線あり
100
AcDbAlignedDimension
 13
-155.46029095213441
 23
325.87755502616841
 33
0.0
 14
-155.46029095213441
 24
790.87755502616892
 34
0.0
 50
90.0
100
AcDbRotatedDimension
1001
ACAD
1000
DSTYLE
1002
{
1070
             279
1070
               2
1070
             340
1005
33
1070
             147
1040
5.0
1002
}
  0
DIMENSION
  5
144
100
AcDbEntity
  8
notes
370
               5
390
0
  6
Continuous
 62
               7
100
AcDbDimension
  2
*D5
 10
-850.4602909521343
 20
790.87755502616892
 30
0.0
 11
-855.4602909521343
 21
719.69395280236017
 31
0.0
 70
             128
 71
               5
 72
               1
 41
1.0
 42
0.0
  3
tform線あり
100
AcDbAlignedDimension
 13
-750.4602909521343
 23
660.87755502616892
 33
0.0
 14
-745.4602909521343
 24
790.87755502616892
 34
0.0
 50
90.0
100
AcDbRotatedDimension
1001
ACAD
1000
DSTYLE
1002
{
1070
             279
1070
               2
1070
             340
1005
33
1070
             147
1040
5.0
1002
}
  0
DIMENSION
  5
145
100
AcDbEntity
  8
notes
370
               5
390
0
  6
Continuous
 62
               7
100
AcDbDimension
  2
*D6
 10
-850.4602909521343
 20
660.87755502616892
 30
0.0
 11
-850.4602909521343
 21
510.87755502616869
 31
0.0
 71
               5
 72
               1
 41
1.0
 42
0.0
  3
tform線あり
100
AcDbAlignedDimension
 13
-750.4602909521343
 23
360.87755502616841
 33
0.0
 14
-750.4602909521343
 24
660.87755502616892
 34
0.0
 50
90.0
100
AcDbRotatedDimension
1001
ACAD
1000
DSTYLE
1002
{
1070
             279
1070
               2
1070
             340
1005
33
1070
             147
1040
5.0
1002
}
  0
DIMENSION
  5
146
100
AcDbEntity
  8
notes
370
               5
390
0
  6
Continuous
 62
               7
100
AcDbDimension
  2
*D7
 10
-715.4602909521343
 20
225.87755502616841
 30
0.0
 11
-450.4602909521343
 21
225.87755502616841
 31
0.0
 71
               5
 72
               1
 41
1.0
 42
0.0
  3
tform線あり
100
AcDbAlignedDimension
 13
-185.46029095213441
 23
325.87755502616841
 33
0.0
 14
-715.4602909521343
 24
325.87755502616841
 34
0.0
100
AcDbRotatedDimension
1001
ACAD
1000
DSTYLE
1002
{
1070
             279
1070
               2
1070
             340
1005
33
1070
             147
1040
5.0
1002
}
  0
DIMENSION
  5
147
100
AcDbEntity
  8
notes
370
               5
390
0
  6
Continuous
 62
               7
100
AcDbDimension
  2
*D8
 10
-550.4602909521343
 20
890.87755502616892
 30
0.0
 11
-500.46029095213441
 21
890.87755502616892
 31
0.0
 71
               5
 72
               1
 41
1.0
 42
0.0
  3
tform線あり
100
AcDbAlignedDimension
 13
-450.46029095213453
 23
747.8033415433049
 33
0.0
 14
-550.4602909521343
 24
747.8033415433049
 34
0.0
100
AcDbRotatedDimension
1001
ACAD
1000
DSTYLE
1002
{
1070
             279
1070
               2
1070
             340
1005
33
1070
             147
1040
5.0
1002
}
  0
DIMENSION
  5
148
100
AcDbEntity
  8
notes
370
               5
390
0
  6
Continuous
 62
               7
100
AcDbDimension
  2
*D9
 10
-450.46029095213453
 20
890.87755502616892
 30
0.0
 11
-400.46029095213453
 21
890.87755502616892
 31
0.0
 71
               5
 72
               1
 41
1.0
 42
0.0
  3
tform線あり
100
AcDbAlignedDimension
 13
-350.46029095213453
 23
747.8033415433049
 33
0.0
 14
-450.46029095213453
 24
747.8033415433049
 34
0.0
100
AcDbRotatedDimension
1001
ACAD
1000
DSTYLE
1002
{
1070
             279
1070
               2
1070
             340
1005
33
1070
             147
1040
5.0
1002
}
  0
DIMENSION
  5
149
100
AcDbEntity
  8
notes
370
               5
390
0
  6
Continuous
 62
               7
100
AcDbDimension
  2
*D10
 10
-50.460290952134415
 20
-425.04464285738356
 30
0.0
 11
-50.460290952134415
 21
-507.54464285738334
 31
0.0
 71
               5
 72
               1
 41
1.0
 42
0.0
  3
tform線あり
100
AcDbAlignedDimension
 13
-410.73202885696537
 23
-590.04464285738311
 33
0.0
 14
-160.46029095213441
 24
-425.04464285738356
 34
0.0
 50
90.0
100
AcDbRotatedDimension
1001
ACAD
1000
DSTYLE
1002
{
1070
             279
1070
               2
1070
             340
1005
33
1070
             147
1040
5.0
1002
}
  0
DIMENSION
  5
14A
100
AcDbEntity
  8
notes
370
               5
390
0
  6
Continuous
 62
               7
100
AcDbDimension
  2
*D11
 10
269.08708317980745
 20
-425.04464285738356
 30
0.0
 11
269.08708317980745
 21
-490.04464285738334
 31
0.0
 71
               5
 72
               1
 41
1.0
 42
0.0
  3
tform線あり
100
AcDbAlignedDimension
 13
379.78721091444095
 23
-555.04464285738311
 33
0.0
 14
379.08708317980745
 24
-425.04464285738356
 34
0.0
 50
90.0
100
AcDbRotatedDimension
1001
ACAD
1000
DSTYLE
1002
{
1070
             279
1070
               2
1070
             340
1005
33
1070
             147
1040
5.0
1002
}
  0
DIMENSION
  5
14B
100
AcDbEntity
  8
notes
370
               5
390
0
  6
Continuous
 62
               7
100
AcDbDimension
  2
*D12
 10
268.96208317980745
 20
-555.04464285738311
 30
0.0
 11
263.96208317980745
 21
-606.9052045349664
 31
0.0
 70
             128
 71
               5
 72
               1
 41
1.0
 42
0.0
  3
tform線あり
100
AcDbAlignedDimension
 13
598.90361963814098
 23
-590.04464285738311
 33
0.0
 14
379.78721091444095
 24
-555.04464285738311
 34
0.0
 50
90.0
100
AcDbRotatedDimension
1001
ACAD
1000
DSTYLE
1002
{
1070
             279
1070
               2
1070
             340
1005
33
1070
             174
1070
               0
1070
             147
1040
5.0
1002
}
  0
DIMENSION
  5
14C
100
AcDbEntity
  8
notes
370
               5
390
0
  6
Continuous
 62
               7
100
AcDbDimension
  2
*D13
 10
630.3468401499706
 20
-425.04464285738356
 30
0.0
 11
635.3468401499706
 21
-414.21932531007809
 31
0.0
 70
             128
 71
               5
 72
               1
 41
1.0
 42
0.0
  3
tform線あり
100
AcDbAlignedDimension
 13
610.22560083507449
 23
-540.04464285738311
 33
0.0
 14
610.22560083507449
 24
-425.04464285738356
 34
0.0
 50
90.0
100
AcDbRotatedDimension
1001
ACAD
1000
DSTYLE
1002
{
1070
             279
1070
               2
1070
             340
1005
33
1070
               3
1000
<>(深さ)
1070
             174
1070
               0
1070
             147
1040
5.0
1002
}
  0
DIMENSION
  5
14D
100
AcDbEntity
  8
notes
370
               5
390
0
  6
Continuous
 62
               7
100
AcDbDimension
  2
*D14
 10
-590.4602909521343
 20
-325.83288070460583
 30
0.0
 11
-450.46029095213441
 21
-325.83288070460583
 31
0.0
 71
               5
 72
               1
 41
1.0
 42
0.0
  3
tform線あり
100
AcDbAlignedDimension
 13
-310.46029095213453
 23
-460.04464285738368
 33
0.0
 14
-590.4602909521343
 24
-460.04464285738368
 34
0.0
100
AcDbRotatedDimension
1001
ACAD
1000
DSTYLE
1002
{
1070
             279
1070
               2
1070
             340
1005
33
1070
             147
1040
5.0
1002
}
  0
DIMENSION
  5
14E
100
AcDbEntity
  8
notes
370
               5
390
0
  6
Continuous
 62
               7
100
AcDbDimension
  2
*D15
 10
-850.4602909521343
 20
-480.04464285738334
 30
0.0
 11
-850.4602909521343
 21
-452.54464285738345
 31
0.0
 71
               5
 72
               1
 41
1.0
 42
0.0
  3
tform線あり
100
AcDbAlignedDimension
 13
-740.4602909521343
 23
-425.04464285738356
 33
0.0
 14
-641.49731352157869
 24
-480.04464285738334
 34
0.0
 50
90.0
100
AcDbRotatedDimension
1001
ACAD
1000
DSTYLE
1002
{
1070
             279
1070
               2
1070
             340
1005
33
1070
             147
1040
5.0
1002
}
  0
DIMENSION
  5
14F
100
AcDbEntity
  8
notes
370
               5
390
0
  6
Continuous
 62
               7
100
AcDbDimension
  2
*D16
 10
769.1036196381408
 20
-325.04464285738356
 30
0.0
 11
801.6036196381408
 21
-325.04464285738356
 31
0.0
 71
               5
 72
               1
 41
1.0
 42
0.0
  3
tform線あり
100
AcDbAlignedDimension
 13
834.1036196381408
 23
-435.04464285738356
 33
0.0
 14
769.1036196381408
 24
-425.04464285738356
 34
0.0
100
AcDbRotatedDimension
1001
ACAD
1000
DSTYLE
1002
{
1070
             279
1070
               2
1070
             340
1005
33
1070
             147
1040
5.0
1002
}
  0
DIMENSION
  5
150
100
AcDbEntity
  8
notes
370
               5
390
0
  6
Continuous
 62
               7
100
AcDbDimension
  2
*D17
 10
834.1036196381408
 20
-690.04464285738311
 30
0.0
 11
736.60361963814091
 21
-690.04464285738311
 31
0.0
 71
               5
 72
               1
 41
1.0
 42
0.0
  3
tform線あり
100
AcDbAlignedDimension
 13
639.10361963814103
 23
-590.04464285738311
 33
0.0
 14
834.1036196381408
 24
-545.04464285738311
 34
0.0
100
AcDbRotatedDimension
1001
ACAD
1000
DSTYLE
1002
{
1070
             279
1070
               2
1070
             340
1005
33
1070
             147
1040
5.0
1002
}
  0
MTEXT
  5
151
100
AcDbEntity
  8
notes
390
0
 62
               7
100
AcDbMText
 10
-869.49971627476259
 20
130.11540439980834
 30
0.0
 40
24.432617187500004
 41
919.67029335246252
 71
               1
 72
               1
  1
＝φ30もしくはφ35の水栓取付用穴あけ加工を承ります。\P   必要な場合、ご注文の際にご指示ください。
  7
ＭＳ ゴシック
 73
               1
 44
1.0437689845677123
  0
CIRCLE
  5
152
100
AcDbEntity
  8
notes
370
              15
390
0
  6
STYLE_25
 62
               7
100
AcDbCircle
 10
-894.82565434783317
 20
117.68436805829484
 30
0.0
 40
17.5
  0
MTEXT
  5
153
100
AcDbEntity
  8
notes
390
0
 62
               7
100
AcDbMText
 10
-250.33131855019028
 20
-338.17843001014035
 30
0.0
 40
24.432617187500004
 41
0.0
 71
               1
 72
               1
  1
壁取付ボルト穴(2ヶ所)
  7
ＭＳ ゴシック
 73
               1
 44
0.7828267384257843
  0
LINE
  5
154
100
AcDbEntity
  8
notes
370
               5
390
0
  6
Continuous
 62
               7
100
AcDbLine
 10
-310.46029095213453
 20
-479.25640501016107
 30
0.0
 11
-218.6082826738199
 21
-381.49066511595373
 31
0.0
  0
LWPOLYLINE
  5
155
100
AcDbEntity
  8
FAA70-0502
370
              15
390
0
  6
Continuous
 62
               7
100
AcDbPolyline
 90
       14
 70
             129
 10
-150.46029095213441
 20
-435.04464285738356
 42
0.4142135623730959
 10
-160.46029095213441
 20
-425.04464285738356
 10
-740.4602909521343
 20
-425.04464285738356
 42
0.4142135623730984
 10
-750.4602909521343
 20
-435.04464285738368
 10
-750.4602909521343
 20
-545.04464285738311
 42
0.414213562373095
 10
-740.4602909521343
 20
-555.04464285738311
 10
-500.43222893313259
 20
-555.04464285738311
 42
-0.3729018752331691
 10
-495.48331891812586
 20
-559.3316984953409
 10
-490.22162596397015
 20
-590.04464285738311
 10
-410.73202885696537
 20
-590.04464285738311
 10
-405.47033590280967
 20
-559.3316984953409
 42
-0.3729018752331741
 10
-400.52142588780316
 20
-555.04464285738311
 10
-161.16041868676791
 20
-555.04464285738311
 42
0.3945442706201898
 10
-150.46029095213441
 20
-545.04464285738334
  0
LINE
  5
156
100
AcDbEntity
  8
FAA70-0502
370
              15
390
0
  6
STYLE_25
 62
               7
100
AcDbLine
 10
-310.46029095213453
 20
-500.04464285738311
 30
0.0
 11
-310.46029095213453
 21
-460.04464285738368
 31
0.0
  0
LINE
  5
157
100
AcDbEntity
  8
FAA70-0502
370
              15
390
0
  6
Continuous
 62
               7
100
AcDbLine
 10
-500.43222893313236
 20
-555.04464285738311
 30
0.0
 11
-400.52142588780316
 21
-555.04464285738311
 31
0.0
  0
LINE
  5
158
100
AcDbEntity
  8
FAA70-0502
370
              15
390
0
  6
STYLE_25
 62
               7
100
AcDbLine
 10
-590.4602909521343
 20
-500.04464285738311
 30
0.0
 11
-590.4602909521343
 21
-460.04464285738368
 31
0.0
  0
LINE
  5
159
100
AcDbEntity
  8
FAA70-0502
370
              15
390
0
  6
Continuous
 62
               7
100
AcDbLine
 10
-705.4602909521343
 20
360.87755502616841
 30
0.0
 11
-195.46029095213441
 21
360.87755502616841
 31
0.0
  0
LINE
  5
15A
100
AcDbEntity
  8
FAA70-0502
370
              15
390
0
  6
Continuous
 62
               7
100
AcDbLine
 10
-705.4602909521343
 20
660.87755502616892
 30
0.0
 11
-195.46029095213441
 21
660.87755502616892
 31
0.0
  0
CIRCLE
  5
15B
100
AcDbEntity
  8
FAA70-0502
370
              15
390
0
  6
Continuous
 62
               7
100
AcDbCircle
 10
-450.46029095213453
 20
605.87755502616892
 30
0.0
 40
26.0
  0
CIRCLE
  5
15C
100
AcDbEntity
  8
FAA70-0502
370
              15
390
0
  6
Continuous
 62
               7
100
AcDbCircle
 10
-450.46029095213453
 20
605.87755502616892
 30
0.0
 40
37.5
  0
CIRCLE
  5
15D
100
AcDbEntity
  8
FAA70-0502
370
              15
390
0
  6
STYLE_25
 62
               7
100
AcDbCircle
 10
-450.46029095213453
 20
725.9157897746428
 30
0.0
 40
17.5
  0
LWPOLYLINE
  5
15E
100
AcDbEntity
  8
FAA70-0502
370
              15
390
0
  6
Continuous
 62
               7
100
AcDbPolyline
 90
        8
 70
             129
 10
-150.46029095213441
 20
785.87755502616892
 42
0.4142135623730967
 10
-155.46029095213441
 20
790.87755502616892
 10
-745.4602909521343
 20
790.87755502616892
 42
0.414213562373095
 10
-750.4602909521343
 20
785.87755502616892
 10
-750.4602909521343
 20
335.87755502616818
 42
0.4142135623731018
 10
-740.4602909521343
 20
325.87755502616841
 10
-160.46029095213441
 20
325.87755502616841
 42
0.4142135623730917
 10
-150.46029095213441
 20
335.8775550261683
  0
ARC
  5
15F
100
AcDbEntity
  8
FAA70-0502
370
              15
390
0
  6
STYLE_25
 62
               7
100
AcDbCircle
 10
-720.56068226428033
 20
-431.4278852234321
 30
0.0
 40
6.4672253379806142
100
AcDbArc
 50
9.2436895812631885
 51
99.243689581265258
  0
ARC
  5
160
100
AcDbEntity
  8
FAA70-0502
370
              15
390
0
  6
STYLE_25
 62
               7
100
AcDbCircle
 10
-695.32150353745874
 20
-523.40383698191101
 30
0.0
 40
10.000000000000213
100
AcDbArc
 50
184.99999999999969
 51
266.99999999999966
  0
LINE
  5
161
100
AcDbEntity
  8
FAA70-0502
370
              15
390
0
  6
STYLE_25
 62
               7
100
AcDbLine
 10
-484.27878568802407
 20
-541.98847110229201
 30
0.0
 11
-450.49501317435647
 21
-541.98847110229201
 31
0.0
  0
LINE
  5
162
100
AcDbEntity
  8
FAA70-0502
370
              15
390
0
  6
STYLE_25
 62
               7
100
AcDbLine
 10
-484.27878568802407
 20
-541.98847110229201
 30
0.0
 11
-695.84486309988824
 21
-533.39013232945683
 31
0.0
  0
LINE
  5
163
100
AcDbEntity
  8
FAA70-0502
370
              15
390
0
  6
STYLE_25
 62
               7
100
AcDbLine
 10
-484.27878568802407
 20
-541.98847110229201
 30
0.0
 11
-476.49501317435647
 21
-549.77224361595984
 31
0.0
  0
LINE
  5
164
100
AcDbEntity
  8
FAA70-0502
370
              15
390
0
  6
STYLE_25
 62
               7
100
AcDbLine
 10
-476.49501317435647
 20
-549.77224361595984
 30
0.0
 11
-450.49501317435647
 21
-549.77224361595984
 31
0.0
  0
ARC
  5
165
100
AcDbEntity
  8
FAA70-0502
370
              15
390
0
  6
STYLE_25
 62
               7
100
AcDbCircle
 10
-180.42934408443182
 20
-431.4278852234321
 30
0.0
 40
6.4672253379808389
100
AcDbArc
 50
80.756310418737129
 51
170.75631041873714
  0
ARC
  5
166
100
AcDbEntity
  8
FAA70-0502
370
              15
390
0
  6
STYLE_25
 62
               7
100
AcDbCircle
 10
-205.66852281125341
 20
-523.40383698191101
 30
0.0
 40
10.000000000000073
100
AcDbArc
 50
272.99999999999903
 51
355.00000000000028
  0
LINE
  5
167
100
AcDbEntity
  8
FAA70-0502
370
              15
390
0
  6
STYLE_25
 62
               7
100
AcDbLine
 10
-416.71124066068865
 20
-541.98847110229201
 30
0.0
 11
-450.49501317435647
 21
-541.98847110229201
 31
0.0
  0
LINE
  5
168
100
AcDbEntity
  8
FAA70-0502
370
              15
390
0
  6
STYLE_25
 62
               7
100
AcDbLine
 10
-416.71124066068865
 20
-541.98847110229201
 30
0.0
 11
-205.14516324882413
 21
-533.39013232945683
 31
0.0
  0
LINE
  5
169
100
AcDbEntity
  8
FAA70-0502
370
              15
390
0
  6
STYLE_25
 62
               7
100
AcDbLine
 10
-416.71124066068865
 20
-541.98847110229201
 30
0.0
 11
-424.49501317435647
 21
-549.77224361595984
 31
0.0
  0
LINE
  5
16A
100
AcDbEntity
  8
FAA70-0502
370
              15
390
0
  6
STYLE_25
 62
               7
100
AcDbLine
 10
-424.49501317435647
 20
-549.77224361595984
 30
0.0
 11
-450.49501317435647
 21
-549.77224361595984
 31
0.0
  0
LINE
  5
16B
100
AcDbEntity
  8
FAA70-0502
370
              15
390
0
  6
STYLE_25
 62
               7
100
AcDbLine
 10
-476.49501317435647
 20
-549.77224361595984
 30
0.0
 11
-476.49501317435647
 21
-590.04464285738311
 31
0.0
  0
LINE
  5
16C
100
AcDbEntity
  8
FAA70-0502
370
              15
390
0
  6
STYLE_25
 62
               7
100
AcDbLine
 10
-424.49501317435647
 20
-549.77224361595984
 30
0.0
 11
-424.49501317435647
 21
-590.04464285738311
 31
0.0
  0
LINE
  5
16D
100
AcDbEntity
  8
FAA70-0502
370
              15
390
0
  6
STYLE_25
 62
               7
100
AcDbLine
 10
-714.17743989823202
 20
-430.38902985885795
 30
0.0
 11
-705.28345051837641
 21
-524.27539440938756
 31
0.0
  0
LINE
  5
16E
100
AcDbEntity
  8
FAA70-0502
370
              15
390
0
  6
STYLE_25
 62
               7
100
AcDbLine
 10
-186.81258645048035
 20
-430.38902985885795
 30
0.0
 11
-195.70657583033596
 21
-524.27539440938756
 31
0.0
  0
ARC
  5
16F
100
AcDbEntity
  8
FAA70-0502
370
              15
390
0
  6
STYLE_25
 62
               7
100
AcDbCircle
 10
712.97343129236765
 20
-431.4278852234321
 30
0.0
 40
6.4672253379810831
100
AcDbArc
 50
80.756310418739531
 51
170.75631041873746
  0
ARC
  5
170
100
AcDbEntity
  8
FAA70-0502
370
              15
390
0
  6
STYLE_25
 62
               7
100
AcDbCircle
 10
687.73425256554606
 20
-523.40383698191079
 30
0.0
 40
9.9999999999997193
100
AcDbArc
 50
272.9999999999979
 51
355.00000000000011
  0
LINE
  5
171
100
AcDbEntity
  8
FAA70-0502
370
              15
390
0
  6
STYLE_25
 62
               7
100
AcDbLine
 10
672.87085569347505
 20
-541.98847110229201
 30
0.0
 11
688.25761212797511
 21
-533.39013232945661
 31
0.0
  0
LWPOLYLINE
  5
172
100
AcDbEntity
  8
FAA70-0502
370
              15
390
0
  6
Continuous
 62
               7
100
AcDbPolyline
 90
       17
 70
             129
 10
369.08708317980734
 20
-435.04464285738345
 42
-0.414213562373095
 10
379.08708317980745
 20
-425.04464285738356
 10
824.10361963814091
 20
-425.04464285738356
 42
-0.414213562373095
 10
834.1036196381408
 20
-435.04464285738356
 10
834.1036196381408
 20
-545.04464285738311
 42
-0.414213562373095
 10
824.1036196381408
 20
-555.04464285738311
 10
716.55902116080574
 20
-555.04464285738311
 10
689.1036196381408
 20
-555.04464285738311
 10
689.04527830735969
 20
-555.04464285738311
 42
0.3741658354231712
 10
684.1036196381408
 20
-559.34464285738306
 10
679.30361963814107
 20
-590.04464285738311
 10
598.90361963814098
 20
-590.04464285738311
 10
594.1036196381408
 20
-559.34464285738306
 42
0.3741658354231932
 10
589.16196096892247
 20
-555.04464285738311
 10
589.1036196381408
 20
-555.04464285738311
 10
379.78721091444095
 20
-555.04464285738311
 42
-0.3945442706201958
 10
369.08708317980745
 20
-545.04464285738311
  0
ARC
  5
173
100
AcDbEntity
  8
FAA70-0502
370
              15
390
0
  6
STYLE_25
 62
               7
100
AcDbCircle
 10
396.52141408988291
 20
-431.4278852234321
 30
0.0
 40
6.46722533798083
100
AcDbArc
 50
9.2436895812623678
 51
99.243689581260895
  0
ARC
  5
174
100
AcDbEntity
  8
FAA70-0502
370
              15
390
0
  6
STYLE_25
 62
               7
100
AcDbCircle
 10
421.7605928167045
 20
-523.40383698191079
 30
0.0
 40
10.000000000000101
100
AcDbArc
 50
184.99999999999974
 51
267.00000000000222
  0
LINE
  5
175
100
AcDbEntity
  8
FAA70-0502
370
              15
390
0
  6
STYLE_25
 62
               7
100
AcDbLine
 10
605.3033106661394
 20
-541.98847110229201
 30
0.0
 11
421.23723325427545
 21
-533.39013232945661
 31
0.0
  0
LINE
  5
176
100
AcDbEntity
  8
FAA70-0502
370
              15
390
0
  6
STYLE_25
 62
               7
100
AcDbLine
 10
672.87085569347505
 20
-541.98847110229201
 30
0.0
 11
605.3033106661394
 21
-541.98847110229201
 31
0.0
  0
LINE
  5
177
100
AcDbEntity
  8
FAA70-0502
370
              15
390
0
  6
STYLE_25
 62
               7
100
AcDbLine
 10
665.08708317980722
 20
-549.77224361595984
 30
0.0
 11
665.08708317980722
 21
-590.04464285738311
 31
0.0
  0
LINE
  5
178
100
AcDbEntity
  8
FAA70-0502
370
              15
390
0
  6
STYLE_25
 62
               7
100
AcDbLine
 10
672.87085569347505
 20
-541.98847110229201
 30
0.0
 11
665.08708317980722
 21
-549.77224361595984
 31
0.0
  0
LINE
  5
179
100
AcDbEntity
  8
FAA70-0502
370
              15
390
0
  6
Continuous
 62
               7
100
AcDbLine
 10
689.05902116080529
 20
-555.04464285738311
 30
0.0
 11
589.14821811547586
 21
-555.04464285738288
 31
0.0
  0
LINE
  5
17A
100
AcDbEntity
  8
FAA70-0502
370
              15
390
0
  6
STYLE_25
 62
               7
100
AcDbLine
 10
665.08708317980722
 20
-549.77224361595984
 30
0.0
 11
613.08708317980722
 21
-549.77224361595984
 31
0.0
  0
LINE
  5
17B
100
AcDbEntity
  8
FAA70-0502
370
              15
390
0
  6
STYLE_25
 62
               7
100
AcDbLine
 10
613.08708317980722
 20
-549.77224361595984
 30
0.0
 11
613.08708317980722
 21
-590.04464285738311
 31
0.0
  0
LINE
  5
17C
100
AcDbEntity
  8
FAA70-0502
370
              15
390
0
  6
STYLE_25
 62
               7
100
AcDbLine
 10
605.3033106661394
 20
-541.98847110229201
 30
0.0
 11
613.08708317980722
 21
-549.77224361595984
 31
0.0
  0
LINE
  5
17D
100
AcDbEntity
  8
FAA70-0502
370
              15
390
0
  6
STYLE_25
 62
               7
100
AcDbLine
 10
402.90465645593167
 20
-430.38902985885795
 30
0.0
 11
411.79864583578728
 21
-524.27539440938733
 31
0.0
  0
LINE
  5
17E
100
AcDbEntity
  8
FAA70-0502
370
              15
390
0
  6
STYLE_25
 62
               7
100
AcDbLine
 10
706.59018892631889
 20
-430.38902985885795
 30
0.0
 11
697.69619954646328
 21
-524.27539440938733
 31
0.0
  0
CIRCLE
  5
17F
100
AcDbEntity
  8
FAA70-0502
370
              15
390
0
  6
STYLE_25
 62
               7
100
AcDbCircle
 10
-350.46029095213453
 20
725.9157897746428
 30
0.0
 40
17.5
  0
CIRCLE
  5
180
100
AcDbEntity
  8
FAA70-0502
370
              15
390
0
  6
STYLE_25
 62
               7
100
AcDbCircle
 10
-550.4602909521343
 20
725.9157897746428
 30
0.0
 40
17.5
  0
LINE
  5
181
100
AcDbEntity
  8
FAA70-0502
370
              15
390
0
  6
Continuous
 62
               7
100
AcDbLine
 10
-185.46029095213441
 20
650.87755502616892
 30
0.0
 11
-185.46029095213441
 21
370.87755502616841
 31
0.0
  0
LINE
  5
182
100
AcDbEntity
  8
FAA70-0502
370
              15
390
0
  6
Continuous
 62
               7
100
AcDbLine
 10
-715.4602909521343
 20
650.87755502616892
 30
0.0
 11
-715.4602909521343
 21
370.87755502616841
 31
0.0
  0
ARC
  5
183
100
AcDbEntity
  8
FAA70-0502
370
              15
390
0
  6
Continuous
 62
               7
100
AcDbCircle
 10
-705.4602909521343
 20
650.87755502616892
 30
0.0
 40
10.0
100
AcDbArc
 50
90.0
 51
180.0
  0
ARC
  5
184
100
AcDbEntity
  8
FAA70-0502
370
              15
390
0
  6
Continuous
 62
               7
100
AcDbCircle
 10
-705.4602909521343
 20
370.87755502616841
 30
0.0
 40
10.0
100
AcDbArc
 50
180.0
 51
270.0
  0
ARC
  5
185
100
AcDbEntity
  8
FAA70-0502
370
              15
390
0
  6
Continuous
 62
               7
100
AcDbCircle
 10
-195.46029095213441
 20
370.87755502616841
 30
0.0
 40
10.0
100
AcDbArc
 50
270.0
 51
0.0
  0
ARC
  5
186
100
AcDbEntity
  8
FAA70-0502
370
              15
390
0
  6
Continuous
 62
               7
100
AcDbCircle
 10
-195.46029095213441
 20
650.87755502616892
 30
0.0
 40
10.0
100
AcDbArc
 50
0.0
 51
90.0
  0
LINE
  5
187
100
AcDbEntity
  8
FAA70-0502
370
              15
390
0
  6
STYLE_25
 62
               7
100
AcDbLine
 10
-570.4602909521343
 20
-480.04464285738334
 30
0.0
 11
-610.4602909521343
 21
-480.04464285738334
 31
0.0
  0
LINE
  5
188
100
AcDbEntity
  8
FAA70-0502
370
              15
390
0
  6
STYLE_25
 62
               7
100
AcDbLine
 10
-290.46029095213464
 20
-480.04464285738334
 30
0.0
 11
-330.46029095213453
 21
-480.04464285738334
 31
0.0
  0
CIRCLE
  5
189
100
AcDbEntity
  8
FAA70-0502
370
              15
390
0
  6
STYLE_25
 62
               7
100
AcDbCircle
 10
-310.46029095213453
 20
-480.04464285738334
 30
0.0
 40
10.0
  0
CIRCLE
  5
18A
100
AcDbEntity
  8
FAA70-0502
370
              15
390
0
  6
STYLE_25
 62
               7
100
AcDbCircle
 10
-590.4602909521343
 20
-480.04464285738334
 30
0.0
 40
10.0
  0
LINE
  5
18B
100
AcDbEntity
  8
FAA70-0502
370
              15
390
0
  6
Continuous
 62
               7
100
AcDbLine
 10
786.6036196381408
 20
-425.04464285738356
 30
0.0
 11
786.6036196381408
 21
-440.04464285738356
 31
0.0
  0
LINE
  5
18C
100
AcDbEntity
  8
FAA70-0502
370
              15
390
0
  6
Continuous
 62
               7
100
AcDbLine
 10
751.6036196381408
 20
-425.04464285738356
 30
0.0
 11
751.6036196381408
 21
-440.04464285738356
 31
0.0
  0
ENDSEC
  0
SECTION
  2
OBJECTS
  0
DICTIONARY
  5
19
100
AcDbDictionary
280
               0
281
               1
  3
ACAD_GROUP
350
1A
  3
ACAD_MLINESTYLE
350
1B
  3
ACAD_LAYOUT
350
1E
  3
ACAD_PLOTSETTINGS
350
22
  3
ACAD_PLOTSTYLENAME
350
1F
  0
DICTIONARY
  5
1A
102
{ACAD_REACTORS
330
19
102
}
100
AcDbDictionary
280
               0
281
               1
  0
DICTIONARY
  5
1B
102
{ACAD_REACTORS
330
19
102
}
100
AcDbDictionary
280
               0
281
               1
  3
Standard
350
1C
  0
MLINESTYLE
  5
1C
102
{ACAD_REACTORS
330
1B
102
}
100
AcDbMlineStyle
  2
Standard
 70
               0
  3

 62
               0
 51
90.0
 52
90.0
 71
               2
 49
0.5
 62
             256
  6
ByLayer
 49
-0.5
 62
             256
  6
ByLayer
  0
ACDBDICTIONARYWDFLT
  5
1F
102
{ACAD_REACTORS
330
19
102
}
100
AcDbDictionary
281
               1
  3
Normal
350
1D
100
AcDbDictionaryWithDefault
340
1D
  0
ACDBPLACEHOLDER
  5
1D
102
{ACAD_REACTORS
330
1F
102
}
  0
LAYOUT
  5
20
102
{ACAD_REACTORS
330
1E
102
}
100
AcDbPlotSettings
  1

  2

  4

  6

 40
0.0
 41
0.0
 42
0.0
 43
0.0
 44
0.0
 45
0.0
 46
0.0
 47
0.0
 48
0.0
 49
0.0
140
0.0
141
0.0
142
1.0
143
1.0
 70
            1024
 72
               0
 73
               0
 74
               0
  7

 75
               0
147
1.0
148
0.0
149
0.0
100
AcDbLayout
  1
Model
 70
               0
 71
               0
 10
0.0
 20
0.0
 11
0.0
 21
0.0
 12
0.0
 22
0.0
 32
0.0
 14
0.0
 24
0.0
 34
0.0
 15
0.0
 25
0.0
 35
0.0
146
0.0
 13
0.0
 23
0.0
 33
0.0
 16
0.0
 26
0.0
 36
0.0
 17
0.0
 27
0.0
 37
0.0
 76
               0
330
A
331
0
345
0
346
0
  0
LAYOUT
  5
21
102
{ACAD_REACTORS
330
1E
102
}
100
AcDbPlotSettings
  1

  2

  4

  6

 40
0.0
 41
0.0
 42
0.0
 43
0.0
 44
0.0
 45
0.0
 46
0.0
 47
0.0
 48
0.0
 49
0.0
140
0.0
141
0.0
142
1.0
143
1.0
 70
               0
 72
               0
 73
               0
 74
               0
  7

 75
               0
147
1.0
148
0.0
149
0.0
100
AcDbLayout
  1
Layout1
 70
               0
 71
               0
 10
0.0
 20
0.0
 11
0.0
 21
0.0
 12
0.0
 22
0.0
 32
0.0
 14
0.0
 24
0.0
 34
0.0
 15
0.0
 25
0.0
 35
0.0
146
0.0
 13
0.0
 23
0.0
 33
0.0
 16
0.0
 26
0.0
 36
0.0
 17
0.0
 27
0.0
 37
0.0
 76
               0
330
B
331
0
345
0
346
0
  0
DICTIONARY
  5
1E
102
{ACAD_REACTORS
330
19
102
}
100
AcDbDictionary
280
               0
281
               1
  3
Layout1
350
21
  3
Model
350
20
  0
DICTIONARY
  5
22
102
{ACAD_REACTORS
330
19
102
}
100
AcDbDictionary
280
               0
281
               1
  0
ENDSEC
  0
EOF
