  0
SECTION
  2
HEADER
  9
$ACADVER
  1
AC1015
  9
$ACADMAINTVER
 70
               6
  9
$DWGCODEPAGE
  3
ANSI_932
  9
$INSBASE
 10
0.0
 20
0.0
 30
0.0
  9
$EXTMIN
 10
-975.00000000024124
 20
-1431.5255224711132
 30
-14.834305555555554
  9
$EXTMAX
 10
975.00000000024124
 20
1405.9972926412995
 30
14.834305555555554
  9
$LIMMIN
 10
0.0
 20
0.0
  9
$LIMMAX
 10
0.0
 20
0.0
  9
$ORTHOMODE
 70
               0
  9
$REGENMODE
 70
               1
  9
$FILLMODE
 70
               1
  9
$QTEXTMODE
 70
               0
  9
$MIRRTEXT
 70
               1
  9
$LTSCALE
 40
12.699999999999999
  9
$ATTMODE
 70
               1
  9
$TEXTSIZE
 40
0.2
  9
$TRACEWID
 40
1.0
  9
$TEXTSTYLE
  7
Standard
  9
$CLAYER
  8
template
  9
$CELTYPE
  6
Continuous
  9
$CECOLOR
 62
             256
  9
$CELTSCALE
 40
1.0
  9
$DISPSILH
 70
               0
  9
$DIMSCALE
 40
1.0
  9
$DIMASZ
 40
31.75
  9
$DIMEXO
 40
0.0
  9
$DIMDLI
 40
6.9999999999999396
  9
$DIMRND
 40
0.0
  9
$DIMDLE
 40
0.0
  9
$DIMEXE
 40
19.999999999996199
  9
$DIMTP
 40
0.0
  9
$DIMTM
 40
0.0
  9
$DIMTXT
 40
0.18
  9
$DIMCEN
 40
0.0
  9
$DIMTSZ
 40
0.0
  9
$DIMTOL
 70
               0
  9
$DIMLIM
 70
               0
  9
$DIMTIH
 70
               0
  9
$DIMTOH
 70
               0
  9
$DIMSE1
 70
               0
  9
$DIMSE2
 70
               0
  9
$DIMTAD
 70
               1
  9
$DIMZIN
 70
              11
  9
$DIMBLK
  1
VW_FILLEDARROW
  9
$DIMASO
 70
               1
  9
$DIMSHO
 70
               1
  9
$DIMPOST
  1
<>
  9
$DIMAPOST
  1
[]
  9
$DIMALT
 70
               0
  9
$DIMALTD
 70
               1
  9
$DIMALTF
 40
1.0
  9
$DIMLFAC
 40
1.0
  9
$DIMTOFL
 70
               0
  9
$DIMTVP
 40
0.0
  9
$DIMTIX
 70
               1
  9
$DIMSOXD
 70
               0
  9
$DIMSAH
 70
               0
  9
$DIMBLK1
  1

  9
$DIMBLK2
  1

  9
$DIMSTYLE
  2
JIS
  9
$DIMCLRD
 70
               0
  9
$DIMCLRE
 70
               0
  9
$DIMCLRT
 70
               0
  9
$DIMTFAC
 40
1.0
  9
$DIMGAP
 40
1.00000000000108
  9
$DIMJUST
 70
               0
  9
$DIMSD1
 70
               0
  9
$DIMSD2
 70
               0
  9
$DIMTOLJ
 70
               1
  9
$DIMTZIN
 70
              11
  9
$DIMALTZ
 70
              11
  9
$DIMALTTZ
 70
              11
  9
$DIMUPT
 70
               0
  9
$DIMDEC
 70
               1
  9
$DIMTDEC
 70
               1
  9
$DIMALTU
 70
               2
  9
$DIMALTTD
 70
               2
  9
$DIMTXSTY
  7
Standard
  9
$DIMAUNIT
 70
               0
  9
$DIMADEC
 70
               2
  9
$DIMALTRND
 40
0.0
  9
$DIMAZIN
 70
               0
  9
$DIMDSEP
 70
              46
  9
$DIMATFIT
 70
               0
  9
$DIMFRAC
 70
               2
  9
$DIMLDRBLK
  1

  9
$DIMLUNIT
 70
               2
  9
$DIMLWD
 70
              -2
  9
$DIMLWE
 70
              -2
  9
$DIMTMOVE
 70
               0
  9
$LUNITS
 70
               2
  9
$LUPREC
 70
               4
  9
$SKETCHINC
 40
0.1
  9
$FILLETRAD
 40
0.0
  9
$AUNITS
 70
               0
  9
$AUPREC
 70
               0
  9
$MENU
  1
acad
  9
$ELEVATION
 40
0.0
  9
$PELEVATION
 40
0.0
  9
$THICKNESS
 40
0.0
  9
$LIMCHECK
 70
               0
  9
$CHAMFERA
 40
0.0
  9
$CHAMFERB
 40
0.0
  9
$CHAMFERC
 40
0.0
  9
$CHAMFERD
 40
0.0
  9
$SKPOLY
 70
               0
  9
$TDCREATE
 40
2455791.438622685
  9
$TDUCREATE
 40
0.000000000
  9
$TDUPDATE
 40
2455791.438622685
  9
$TDUUPDATE
 40
0.000000000
  9
$TDINDWG
 40
0.0000000000
  9
$TDUSRTIMER
 40
0.0000000000
  9
$USRTIMER
 70
               1
  9
$ANGBASE
 50
0.0
  9
$ANGDIR
 70
               0
  9
$PDMODE
 70
               1
  9
$PDSIZE
 40
-2.0
  9
$PLINEWID
 40
0.0
  9
$SPLFRAME
 70
               0
  9
$SPLINETYPE
 70
               6
  9
$SPLINESEGS
 70
               8
  9
$HANDSEED
  5
212
  9
$SURFTAB1
 70
               6
  9
$SURFTAB2
 70
               6
  9
$SURFTYPE
 70
               6
  9
$SURFU
 70
               6
  9
$SURFV
 70
               6
  9
$UCSBASE
  2

  9
$UCSNAME
  2

  9
$UCSORG
 10
0.0
 20
0.0
 30
0.0
  9
$UCSXDIR
 10
1.0
 20
0.0
 30
0.0
  9
$UCSYDIR
 10
0.0
 20
1.0
 30
0.0
  9
$UCSORTHOREF
  2

  9
$UCSORTHOVIEW
 70
               0
  9
$UCSORGTOP
 10
0.0
 20
0.0
 30
0.0
  9
$UCSORGBOTTOM
 10
0.0
 20
0.0
 30
0.0
  9
$UCSORGLEFT
 10
0.0
 20
0.0
 30
0.0
  9
$UCSORGRIGHT
 10
0.0
 20
0.0
 30
0.0
  9
$UCSORGFRONT
 10
0.0
 20
0.0
 30
0.0
  9
$UCSORGBACK
 10
0.0
 20
0.0
 30
0.0
  9
$PUCSBASE
  2

  9
$PUCSNAME
  2

  9
$PUCSORG
 10
0.0
 20
0.0
 30
0.0
  9
$PUCSXDIR
 10
1.0
 20
0.0
 30
0.0
  9
$PUCSYDIR
 10
0.0
 20
1.0
 30
0.0
  9
$PUCSORTHOREF
  2

  9
$PUCSORTHOVIEW
 70
               0
  9
$PUCSORGTOP
 10
0.0
 20
0.0
 30
0.0
  9
$PUCSORGBOTTOM
 10
0.0
 20
0.0
 30
0.0
  9
$PUCSORGLEFT
 10
0.0
 20
0.0
 30
0.0
  9
$PUCSORGRIGHT
 10
0.0
 20
0.0
 30
0.0
  9
$PUCSORGFRONT
 10
0.0
 20
0.0
 30
0.0
  9
$PUCSORGBACK
 10
0.0
 20
0.0
 30
0.0
  9
$USERI1
 70
               0
  9
$USERI2
 70
               0
  9
$USERI3
 70
               0
  9
$USERI4
 70
               0
  9
$USERI5
 70
               0
  9
$USERR1
 40
0.0
  9
$USERR2
 40
0.0
  9
$USERR3
 40
0.0
  9
$USERR4
 40
0.0
  9
$USERR5
 40
0.0
  9
$WORLDVIEW
 70
               1
  9
$SHADEDGE
 70
               3
  9
$SHADEDIF
 70
              70
  9
$TILEMODE
 70
               1
  9
$MAXACTVP
 70
              64
  9
$PINSBASE
 10
0.0
 20
0.0
 30
0.0
  9
$PLIMCHECK
 70
               0
  9
$PEXTMIN
 10
1.0000000000000000E+20
 20
1.0000000000000000E+20
 30
1.0000000000000000E+20
  9
$PEXTMAX
 10
-1.0000000000000000E+20
 20
-1.0000000000000000E+20
 30
-1.0000000000000000E+20
  9
$PLIMMIN
 10
0.0
 20
0.0
  9
$PLIMMAX
 10
12.0
 20
9.0
  9
$UNITMODE
 70
               0
  9
$VISRETAIN
 70
               0
  9
$PLINEGEN
 70
               1
  9
$PSLTSCALE
 70
               0
  9
$TREEDEPTH
 70
            3020
  9
$CMLSTYLE
  2
Standard
  9
$CMLJUST
 70
               0
  9
$CMLSCALE
 40
1.0
  9
$PROXYGRAPHICS
 70
               0
  9
$MEASUREMENT
 70
               1
  9
$CELWEIGHT
370
               0
  9
$ENDCAPS
280
               0
  9
$JOINSTYLE
280
               0
  9
$LWDISPLAY
290
               1
  9
$INSUNITS
 70
               4
  9
$HYPERLINKBASE
  1

  9
$STYLESHEET
  1

  9
$XEDIT
290
               1
  9
$CEPSNTYPE
380
               0
  9
$PSTYLEMODE
290
               1
  9
$FINGERPRINTGUID
  2

  9
$VERSIONGUID
  2

  9
$EXTNAMES
290
               1
  9
$PSVPSCALE
 40
0.0
  0
ENDSEC
  0
SECTION
  2
CLASSES
  0
CLASS
  1
LWPOLYLINE
  2
AcDbPolyline
  3
AutoCAD 2000
 90
        0
280
               0
281
               1
  0
CLASS
  1
IMAGE
  2
AcDbRasterImage
  3
ISM
 90
      127
280
               0
281
               1
  0
CLASS
  1
OLE2FRAME
  2
AcDbOle2Frame
  3
AutoCAD 2000
 90
        0
280
               0
281
               1
  0
CLASS
  1
HATCH
  2
AcDbHatch
  3
AutoCAD 2000
 90
        0
280
               0
281
               1
  0
CLASS
  1
DICTIONARYVAR
  2
AcDbDictionaryVar
  3
AutoCAD 2000
 90
        0
280
               0
281
               0
  0
CLASS
  1
RASTERVARIABLES
  2
AcDbRasterVariables
  3
ISM
 90
        0
280
               0
281
               0
  0
CLASS
  1
IMAGEDEF
  2
AcDbRasterImageDef
  3
ISM
 90
        0
280
               0
281
               0
  0
CLASS
  1
IMAGEDEF_REACTOR
  2
AcDbRasterImageDefReactor
  3
ISM
 90
        1
280
               0
281
               0
  0
CLASS
  1
IDBUFFER
  2
AcDbIdBuffer
  3
AutoCAD 2000
 90
        0
280
               0
281
               0
  0
CLASS
  1
SPATIAL_FILTER
  2
AcDbSpatialFilter
  3
AutoCAD 2000
 90
        0
280
               0
281
               0
  0
CLASS
  1
XRECORD
  2
AcDbXrecord
  3
AutoCAD 2000
 90
        0
280
               0
281
               0
  0
CLASS
  1
SORTENTSTABLE
  2
AcDbSortentsTable
  3
AutoCAD 2000
 90
        0
280
               0
281
               0
  0
CLASS
  1
LAYER_INDEX
  2
AcDbLayerIndex
  3
AutoCAD 2000
 90
        0
280
               0
281
               0
  0
CLASS
  1
SPATIAL_INDEX
  2
AcDbSpatialIndex
  3
AutoCAD 2000
 90
        0
280
               0
281
               0
  0
CLASS
  1
OBJECT_PTR
  2
CAseDLPNTableRecord
  3
"ASE-LPNTableRecord"
 90
        1
280
               0
281
               0
  0
CLASS
  1
LAYOUT
  2
AcDbLayout
  3
AutoCAD 2000
 90
        0
280
               0
281
               0
  0
CLASS
  1
PLOTSETTINGS
  2
AcDbPlotSettings
  3
AutoCAD 2000
 90
        0
280
               0
281
               0
  0
CLASS
  1
ACDBDICTIONARYWDFLT
  2
AcDbDictionaryWithDefault
  3
AutoCAD 2000
 90
        0
280
               0
281
               0
  0
CLASS
  1
ACDBPLACEHOLDER
  2
AcDbPlaceHolder
  3
AutoCAD 2000
 90
        0
280
               0
281
               0
  0
ENDSEC
  0
SECTION
  2
TABLES
  0
TABLE
  2
VPORT
  5
7
100
AcDbSymbolTable
 70
               1
  0
VPORT
  5
15
100
AcDbSymbolTableRecord
100
AcDbViewportTableRecord
  2
*ACTIVE
 70
               0
 10
0.0
 20
0.0
 11
1.0
 21
1.0
 12
0.0
 22
-12.764114914906713
 13
0.0
 23
0.0
 14
1.0
 24
1.0
 15
0.0
 25
0.0
 16
0.0
 26
0.0
 36
1.0
 17
0.0
 27
0.0
 37
0.0
 40
2837.5228151124129
 41
0.688564
 42
50.0
 43
0.0
 44
0.0
 50
0.0
 51
0.0
 71
               0
 72
            2000
 73
               1
 74
               1
 75
               0
 76
               0
 77
               0
 78
               0
281
               0
 65
               0
110
0.0
120
0.0
130
0.0
111
1.0
121
0.0
131
0.0
112
0.0
122
1.0
132
0.0
345
0
346
0
 79
               0
146
0.0
  0
ENDTAB
  0
TABLE
  2
LTYPE
  5
4
100
AcDbSymbolTable
 70
              28
  0
LTYPE
  5
11
100
AcDbSymbolTableRecord
100
AcDbLinetypeTableRecord
  2
ByBlock
 70
              64
  3

 72
              65
 73
               0
 40
0.0
  0
LTYPE
  5
12
100
AcDbSymbolTableRecord
100
AcDbLinetypeTableRecord
  2
ByLayer
 70
              64
  3

 72
              65
 73
               0
 40
0.0
  0
LTYPE
  5
13
100
AcDbSymbolTableRecord
100
AcDbLinetypeTableRecord
  2
Continuous
 70
              64
  3
Solid line
 72
              65
 73
               0
 40
0.0
  0
LTYPE
  5
3B
100
AcDbSymbolTableRecord
100
AcDbLinetypeTableRecord
  2
STYLE_01
 70
               0
  3

 72
              65
 73
               2
 40
0.157472
 49
0.078736
 74
               0
 49
-0.078736
 74
               0
  0
LTYPE
  5
3C
100
AcDbSymbolTableRecord
100
AcDbLinetypeTableRecord
  2
STYLE_02
 70
               0
  3

 72
              65
 73
               2
 40
0.236206
 49
0.15747
 74
               0
 49
-0.078736
 74
               0
  0
LTYPE
  5
3D
100
AcDbSymbolTableRecord
100
AcDbLinetypeTableRecord
  2
STYLE_03
 70
               0
  3

 72
              65
 73
               2
 40
0.314942
 49
0.236206
 74
               0
 49
-0.078736
 74
               0
  0
LTYPE
  5
3E
100
AcDbSymbolTableRecord
100
AcDbLinetypeTableRecord
  2
STYLE_04
 70
               0
  3

 72
              65
 73
               2
 40
0.4724119999999999
 49
0.393676
 74
               0
 49
-0.0787359999999999
 74
               0
  0
LTYPE
  5
3F
100
AcDbSymbolTableRecord
100
AcDbLinetypeTableRecord
  2
STYLE_05
 70
               0
  3

 72
              65
 73
               4
 40
0.4214800000000001
 49
0.236206
 74
               0
 49
-0.078736
 74
               0
 49
0.027802
 74
               0
 49
-0.0787360000000001
 74
               0
  0
LTYPE
  5
40
100
AcDbSymbolTableRecord
100
AcDbLinetypeTableRecord
  2
STYLE_06
 70
               0
  3

 72
              65
 73
               6
 40
0.736422
 49
0.236206
 74
               0
 49
-0.078736
 74
               0
 49
0.2362059999999999
 74
               0
 49
-0.0787360000000001
 74
               0
 49
0.027802
 74
               0
 49
-0.0787360000000001
 74
               0
  0
LTYPE
  5
41
100
AcDbSymbolTableRecord
100
AcDbLinetypeTableRecord
  2
STYLE_07
 70
               0
  3

 72
              65
 73
               6
 40
0.528018
 49
0.236206
 74
               0
 49
-0.078736
 74
               0
 49
0.027802
 74
               0
 49
-0.0787360000000001
 74
               0
 49
0.027802
 74
               0
 49
-0.0787359999999999
 74
               0
  0
LTYPE
  5
42
100
AcDbSymbolTableRecord
100
AcDbLinetypeTableRecord
  2
STYLE_08
 70
               0
  3

 72
              65
 73
               4
 40
1.0235619999999999
 49
0.7873539999999996
 74
               0
 49
-0.0787360000000001
 74
               0
 49
0.0787360000000001
 74
               0
 49
-0.0787360000000001
 74
               0
  0
LTYPE
  5
43
100
AcDbSymbolTableRecord
100
AcDbLinetypeTableRecord
  2
STYLE_09
 70
               0
  3

 72
              65
 73
               6
 40
1.1810339999999997
 49
0.7873539999999996
 74
               0
 49
-0.0787360000000001
 74
               0
 49
0.0787360000000001
 74
               0
 49
-0.0787360000000001
 74
               0
 49
0.0787359999999999
 74
               0
 49
-0.0787359999999999
 74
               0
  0
LTYPE
  5
44
100
AcDbSymbolTableRecord
100
AcDbLinetypeTableRecord
  2
STYLE_10
 70
               0
  3

 72
              65
 73
               4
 40
1.0826771653543308
 49
0.7677165354330708
 74
               0
 49
-0.1181102362204725
 74
               0
 49
0.078740157480315
 74
               0
 49
-0.1181102362204724
 74
               0
  0
LTYPE
  5
45
100
AcDbSymbolTableRecord
100
AcDbLinetypeTableRecord
  2
STYLE_11
 70
               0
  3

 72
              65
 73
               2
 40
0.4921259842519685
 49
0.374015748031496
 74
               0
 49
-0.1181102362204724
 74
               0
  0
LTYPE
  5
46
100
AcDbSymbolTableRecord
100
AcDbLinetypeTableRecord
  2
STYLE_12
 70
               0
  3

 72
              65
 73
               2
 40
3.8099999999999987
 49
2.5399999999999996
 74
               0
 49
-1.2699999999999996
 74
               0
  0
LTYPE
  5
47
100
AcDbSymbolTableRecord
100
AcDbLinetypeTableRecord
  2
STYLE_13
 70
               0
  3

 72
              65
 73
               6
 40
12.699999999999999
 49
6.3499999999999996
 74
               0
 49
-1.27
 74
               0
 49
1.27
 74
               0
 49
-1.27
 74
               0
 49
1.27
 74
               0
 49
-1.27
 74
               0
  0
LTYPE
  5
48
100
AcDbSymbolTableRecord
100
AcDbLinetypeTableRecord
  2
STYLE_14
 70
               0
  3

 72
              65
 73
               4
 40
20.32
 49
12.699999999999999
 74
               0
 49
-2.54
 74
               0
 49
2.54
 74
               0
 49
-2.54
 74
               0
  0
LTYPE
  5
49
100
AcDbSymbolTableRecord
100
AcDbLinetypeTableRecord
  2
STYLE_15
 70
               0
  3

 72
              65
 73
               2
 40
1.2020000000000004
 49
1.2000000000000002
 74
               0
 49
-0.0020000000000001
 74
               0
  0
LTYPE
  5
4A
100
AcDbSymbolTableRecord
100
AcDbLinetypeTableRecord
  2
STYLE_16
 70
               0
  3

 72
              65
 73
               2
 40
0.3
 49
0.2
 74
               0
 49
-0.1
 74
               0
  0
LTYPE
  5
4B
100
AcDbSymbolTableRecord
100
AcDbLinetypeTableRecord
  2
STYLE_17
 70
               0
  3

 72
              65
 73
               2
 40
3.0
 49
2.3999999999999999
 74
               0
 49
-0.6
 74
               0
  0
LTYPE
  5
4C
100
AcDbSymbolTableRecord
100
AcDbLinetypeTableRecord
  2
STYLE_18
 70
               0
  3

 72
              65
 73
               4
 40
7.1999999999999993
 49
4.7999999999999998
 74
               0
 49
-0.6000000000000005
 74
               0
 49
1.2
 74
               0
 49
-0.5999999999999994
 74
               0
  0
LTYPE
  5
4D
100
AcDbSymbolTableRecord
100
AcDbLinetypeTableRecord
  2
STYLE_19
 70
               0
  3

 72
              65
 73
               6
 40
9.0
 49
4.7999999999999998
 74
               0
 49
-0.6000000000000005
 74
               0
 49
1.2
 74
               0
 49
-0.5999999999999994
 74
               0
 49
1.2
 74
               0
 49
-0.5999999999999994
 74
               0
  0
LTYPE
  5
4E
100
AcDbSymbolTableRecord
100
AcDbLinetypeTableRecord
  2
STYLE_20
 70
               0
  3

 72
              65
 73
               4
 40
3.5999999999999996
 49
2.3999999999999999
 74
               0
 49
-0.3000000000000003
 74
               0
 49
0.6
 74
               0
 49
-0.2999999999999997
 74
               0
  0
LTYPE
  5
4F
100
AcDbSymbolTableRecord
100
AcDbLinetypeTableRecord
  2
STYLE_21
 70
               0
  3

 72
              65
 73
               2
 40
1.5
 49
1.2
 74
               0
 49
-0.3
 74
               0
  0
LTYPE
  5
50
100
AcDbSymbolTableRecord
100
AcDbLinetypeTableRecord
  2
STYLE_22
 70
               0
  3

 72
              65
 73
               2
 40
4.4000399999999997
 49
0.002
 74
               0
 49
-4.3980399999999999
 74
               0
  0
LTYPE
  5
51
100
AcDbSymbolTableRecord
100
AcDbLinetypeTableRecord
  2
STYLE_23
 70
               0
  3

 72
              65
 73
               2
 40
2.5
 49
1.8999999999999999
 74
               0
 49
-0.6
 74
               0
  0
LTYPE
  5
52
100
AcDbSymbolTableRecord
100
AcDbLinetypeTableRecord
  2
STYLE_24
 70
               0
  3

 72
              65
 73
               4
 40
5.5
 49
3.9000000000000008
 74
               0
 49
-0.6
 74
               0
 49
0.3999999999999998
 74
               0
 49
-0.6
 74
               0
  0
LTYPE
  5
53
100
AcDbSymbolTableRecord
100
AcDbLinetypeTableRecord
  2
STYLE_25
 70
               0
  3

 72
              65
 73
               2
 40
1.5748031496062991
 49
0.7874015748031495
 74
               0
 49
-0.7874015748031495
 74
               0
  0
ENDTAB
  0
TABLE
  2
LAYER
  5
2
100
AcDbSymbolTable
 70
               5
  0
LAYER
  5
14
100
AcDbSymbolTableRecord
100
AcDbLayerTableRecord
  2
0
 70
               0
 62
               7
  6
Continuous
290
               1
370
              -3
390
1D
  0
LAYER
  5
54
100
AcDbSymbolTableRecord
100
AcDbLayerTableRecord
  2
Defpoints
 70
               0
 62
               7
  6
Continuous
290
               0
370
              -3
390
1D
  0
LAYER
  5
55
100
AcDbSymbolTableRecord
100
AcDbLayerTableRecord
  2
template
 70
               0
 62
               7
  6
Continuous
290
               1
370
              -3
390
1D
  0
LAYER
  5
56
100
AcDbSymbolTableRecord
100
AcDbLayerTableRecord
  2
notes
 70
               0
 62
               7
  6
Continuous
290
               1
370
              -3
390
1D
  0
LAYER
  5
57
100
AcDbSymbolTableRecord
100
AcDbLayerTableRecord
  2
FAA70-0511
 70
               0
 62
               7
  6
Continuous
290
               1
370
              -3
390
1D
  0
ENDTAB
  0
TABLE
  2
STYLE
  5
3
100
AcDbSymbolTable
 70
               2
  0
STYLE
  5
17
100
AcDbSymbolTableRecord
100
AcDbTextStyleTableRecord
  2
Standard
 70
               0
 40
0.0
 41
1.0
 50
0.0
 71
               0
 42
0.0
  3
txt
  4
BIGFONT.SHX
  0
STYLE
  5
3A
100
AcDbSymbolTableRecord
100
AcDbTextStyleTableRecord
  2
ＭＳ ゴシック
 70
               0
 40
0.0
 41
1.0
 50
0.0
 71
               0
 42
0.0
  3

  4
ＭＳ ゴシック
1001
ACAD
1000
ＭＳ ゴシック
1071
        0
  0
ENDTAB
  0
TABLE
  2
VIEW
  5
5
100
AcDbSymbolTable
 70
               0
  0
ENDTAB
  0
TABLE
  2
UCS
  5
6
100
AcDbSymbolTable
 70
               0
  0
ENDTAB
  0
TABLE
  2
APPID
  5
8
100
AcDbSymbolTable
 70
               1
  0
APPID
  5
16
100
AcDbSymbolTableRecord
100
AcDbRegAppTableRecord
  2
ACAD
 70
               0
  0
ENDTAB
  0
TABLE
  2
DIMSTYLE
  5
9
100
AcDbSymbolTable
 70
               3
100
AcDbDimStyleTable
 71
               0
  0
DIMSTYLE
105
18
100
AcDbSymbolTableRecord
100
AcDbDimStyleTableRecord
  2
Standard
 70
               0
  3

  4

 40
1.0
 41
0.18
 42
0.0625
 43
0.38
 44
0.18
 45
0.0
 46
0.0
 47
0.0
 48
0.0
 71
               0
 72
               0
 73
               1
 74
               1
 75
               0
 76
               0
 77
               0
 78
               0
 79
               0
140
0.18
141
0.09
142
0.0
143
25.399999999999999
144
1.0
145
0.0
146
1.0
147
0.09
148
0.0
170
               0
171
               2
172
               0
173
               0
174
               0
175
               0
176
               0
177
               0
178
               0
179
               0
271
               4
272
               4
273
               2
274
               2
275
               0
276
               0
277
               2
278
              46
279
               0
280
               0
281
               0
282
               0
283
               1
284
               0
285
               0
286
               0
288
               0
289
               3
340
17
341
0
342
0
343
0
344
0
371
              -2
372
              -2
  0
DIMSTYLE
105
60
100
AcDbSymbolTableRecord
100
AcDbDimStyleTableRecord
  2
tform線あり
 70
               0
  3
<>
  4
[]
 40
1.0
 41
3.999755859375
 42
24.999999999999996
 43
0.9999999999999999
 44
0.0
 45
0.0
 46
0.0
 47
0.0
 48
0.0
 71
               0
 72
               0
 73
               0
 74
               0
 75
               0
 76
               0
 77
               1
 78
              11
 79
               0
140
0.18
141
0.0
142
0.0
143
1.0
144
1.0
145
0.0
146
1.0
147
0.4999999999999999
148
0.0
170
               0
171
               1
172
               0
173
               0
174
               1
175
               0
176
               0
177
               0
178
               0
179
               2
271
               1
272
               1
273
               2
274
               2
275
               0
276
               2
277
               2
278
              46
279
               0
280
               0
281
               0
282
               0
283
               1
284
              11
285
              11
286
              11
288
               0
289
               0
340
17
341
58
342
58
343
0
344
0
371
              -2
372
              -2
  0
DIMSTYLE
105
65
100
AcDbSymbolTableRecord
100
AcDbDimStyleTableRecord
  2
JIS
 70
               0
  3
<>
  4
[]
 40
1.0
 41
31.75
 42
0.0
 43
6.9999999999999396
 44
19.999999999996199
 45
0.0
 46
0.0
 47
0.0
 48
0.0
 71
               0
 72
               0
 73
               0
 74
               0
 75
               0
 76
               0
 77
               1
 78
              11
 79
               0
140
0.18
141
0.0
142
0.0
143
1.0
144
1.0
145
0.0
146
1.0
147
1.00000000000108
148
0.0
170
               0
171
               1
172
               0
173
               0
174
               1
175
               0
176
               0
177
               0
178
               0
179
               2
271
               1
272
               1
273
               2
274
               2
275
               0
276
               2
277
               2
278
              46
279
               0
280
               0
281
               0
282
               0
283
               1
284
              11
285
              11
286
              11
288
               0
289
               0
340
17
341
61
342
61
343
0
344
0
371
              -2
372
              -2
  0
ENDTAB
  0
TABLE
  2
BLOCK_RECORD
  5
1
100
AcDbSymbolTable
 70
              25
  0
BLOCK_RECORD
  5
A
100
AcDbSymbolTableRecord
100
AcDbBlockTableRecord
  2
*MODEL_SPACE
340
20
  0
BLOCK_RECORD
  5
B
100
AcDbSymbolTableRecord
100
AcDbBlockTableRecord
  2
*PAPER_SPACE
340
21
  0
BLOCK_RECORD
  5
58
100
AcDbSymbolTableRecord
100
AcDbBlockTableRecord
  2
_DOT
340
0
  0
BLOCK_RECORD
  5
61
100
AcDbSymbolTableRecord
100
AcDbBlockTableRecord
  2
VW_FILLEDARROW
340
0
  0
BLOCK_RECORD
  5
23
100
AcDbSymbolTableRecord
100
AcDbBlockTableRecord
  2
グループ
340
0
102
{BLKREFS
331
18F
102
}
  0
BLOCK_RECORD
  5
24
100
AcDbSymbolTableRecord
100
AcDbBlockTableRecord
  2
*D3
340
0
  0
BLOCK_RECORD
  5
25
100
AcDbSymbolTableRecord
100
AcDbBlockTableRecord
  2
*D4
340
0
  0
BLOCK_RECORD
  5
26
100
AcDbSymbolTableRecord
100
AcDbBlockTableRecord
  2
*D5
340
0
  0
BLOCK_RECORD
  5
27
100
AcDbSymbolTableRecord
100
AcDbBlockTableRecord
  2
*D6
340
0
  0
BLOCK_RECORD
  5
28
100
AcDbSymbolTableRecord
100
AcDbBlockTableRecord
  2
*D7
340
0
  0
BLOCK_RECORD
  5
29
100
AcDbSymbolTableRecord
100
AcDbBlockTableRecord
  2
*D8
340
0
  0
BLOCK_RECORD
  5
2A
100
AcDbSymbolTableRecord
100
AcDbBlockTableRecord
  2
*D9
340
0
  0
BLOCK_RECORD
  5
2B
100
AcDbSymbolTableRecord
100
AcDbBlockTableRecord
  2
*D10
340
0
  0
BLOCK_RECORD
  5
2C
100
AcDbSymbolTableRecord
100
AcDbBlockTableRecord
  2
*D11
340
0
  0
BLOCK_RECORD
  5
2D
100
AcDbSymbolTableRecord
100
AcDbBlockTableRecord
  2
*D12
340
0
  0
BLOCK_RECORD
  5
2E
100
AcDbSymbolTableRecord
100
AcDbBlockTableRecord
  2
*D13
340
0
  0
BLOCK_RECORD
  5
2F
100
AcDbSymbolTableRecord
100
AcDbBlockTableRecord
  2
*D14
340
0
  0
BLOCK_RECORD
  5
30
100
AcDbSymbolTableRecord
100
AcDbBlockTableRecord
  2
*D15
340
0
  0
BLOCK_RECORD
  5
31
100
AcDbSymbolTableRecord
100
AcDbBlockTableRecord
  2
*D16
340
0
  0
BLOCK_RECORD
  5
32
100
AcDbSymbolTableRecord
100
AcDbBlockTableRecord
  2
*D17
340
0
  0
BLOCK_RECORD
  5
33
100
AcDbSymbolTableRecord
100
AcDbBlockTableRecord
  2
*D18
340
0
  0
BLOCK_RECORD
  5
34
100
AcDbSymbolTableRecord
100
AcDbBlockTableRecord
  2
*D19
340
0
  0
BLOCK_RECORD
  5
35
100
AcDbSymbolTableRecord
100
AcDbBlockTableRecord
  2
*D20
340
0
  0
BLOCK_RECORD
  5
36
100
AcDbSymbolTableRecord
100
AcDbBlockTableRecord
  2
*D21
340
0
  0
BLOCK_RECORD
  5
37
100
AcDbSymbolTableRecord
100
AcDbBlockTableRecord
  2
*D22
340
0
  0
BLOCK_RECORD
  5
38
100
AcDbSymbolTableRecord
100
AcDbBlockTableRecord
  2
*D23
340
0
  0
BLOCK_RECORD
  5
39
100
AcDbSymbolTableRecord
100
AcDbBlockTableRecord
  2
*D24
340
0
  0
ENDTAB
  0
ENDSEC
  0
SECTION
  2
BLOCKS
  0
BLOCK
  5
D
100
AcDbEntity
  8
0
390
0
100
AcDbBlockBegin
  2
*MODEL_SPACE
 70
               0
 10
0.0
 20
0.0
 30
0.0
  3
*MODEL_SPACE
  1

  0
ENDBLK
  5
E
100
AcDbEntity
  8
0
390
0
100
AcDbBlockEnd
  0
BLOCK
  5
F
100
AcDbEntity
 67
               1
  8
0
390
0
100
AcDbBlockBegin
  2
*PAPER_SPACE
 70
               0
 10
0.0
 20
0.0
 30
0.0
  3
*PAPER_SPACE
  1

  0
ENDBLK
  5
10
100
AcDbEntity
 67
               1
  8
0
390
0
100
AcDbBlockEnd
  0
BLOCK
  5
59
100
AcDbEntity
  8
0
390
0
100
AcDbBlockBegin
  2
_DOT
 70
               0
 10
0.0
 20
0.0
 30
0.0
  3
_DOT
  1

  0
POLYLINE
  5
5A
100
AcDbEntity
  8
0
370
              -2
390
0
  6
ByBlock
 62
               0
100
AcDb2dPolyline
 66
               1
 10
0.0
 20
0.0
 30
0.0
 70
               1
 40
0.5
 41
0.5
  0
VERTEX
  5
5B
100
AcDbEntity
  8
0
370
              -2
390
0
  6
ByBlock
 62
               0
100
AcDbVertex
100
AcDb2dVertex
 10
-0.25
 20
0.0
 30
0.0
 42
1.0
  0
VERTEX
  5
5C
100
AcDbEntity
  8
0
370
              -2
390
0
  6
ByBlock
 62
               0
100
AcDbVertex
100
AcDb2dVertex
 10
0.25
 20
0.0
 30
0.0
 42
1.0
  0
SEQEND
  5
5D
100
AcDbEntity
  8
0
390
0
  0
LINE
  5
5E
100
AcDbEntity
  8
0
370
              -2
390
0
  6
ByBlock
 62
               0
100
AcDbLine
 10
-0.5
 20
0.0
 30
0.0
 11
-1.0
 21
0.0
 31
0.0
  0
ENDBLK
  5
5F
100
AcDbEntity
  8
0
390
0
100
AcDbBlockEnd
  0
BLOCK
  5
62
100
AcDbEntity
  8
0
370
              -2
390
0
  6
ByBlock
 62
               0
100
AcDbBlockBegin
  2
VW_FILLEDARROW
 70
               0
 10
0.0
 20
0.0
 30
0.0
  3
VW_FILLEDARROW
  1

  0
SOLID
  5
63
100
AcDbEntity
  8
0
370
              -2
390
0
 62
               0
100
AcDbTrace
 10
0.0
 20
0.0
 30
0.0
 11
-0.9921874999999999
 21
-0.2658558393652545
 31
0.0
 12
-0.9921874999999999
 22
0.2658558393652548
 32
0.0
 13
-0.9921874999999999
 23
0.2658558393652548
 33
0.0
  0
ENDBLK
  5
64
100
AcDbEntity
  8
0
390
0
100
AcDbBlockEnd
  0
BLOCK
  5
66
100
AcDbEntity
  8
template
390
0
100
AcDbBlockBegin
  2
グループ
 70
               0
 10
0.0
 20
0.0
 30
0.0
  3
グループ
  1

  0
LWPOLYLINE
  5
67
100
AcDbEntity
  8
0
370
              15
390
0
  6
Continuous
 62
               7
100
AcDbPolyline
 90
        8
 70
             129
 10
887.42850780307481
 20
-1087.9864335604861
 10
887.42850780307481
 20
-1093.983822254062
 10
877.92731088507151
 20
-1093.983822254062
 10
877.92731088507151
 20
-1118.4347855175708
 10
869.57193362328871
 20
-1118.4347855175708
 10
869.57193362328871
 20
-1093.983822254062
 10
860.23897667697929
 20
-1093.983822254062
 10
860.23897667697929
 20
-1087.9864335604861
  0
LWPOLYLINE
  5
68
100
AcDbEntity
  8
0
370
              15
390
0
  6
Continuous
 62
               7
100
AcDbPolyline
 90
      101
 70
             128
 10
900.15679963363175
 20
-1088.7146820534226
 10
900.17214966241681
 20
-1088.7103212967374
 42
-0.0222221607812452
 10
900.46215423908779
 20
-1088.6416968314929
 10
900.47794800307383
 20
-1088.6386934083973
 42
-0.0146883565588934
 10
900.74065070830557
 20
-1088.5966902214466
 42
-0.0127458844187264
 10
901.00528967545358
 20
-1088.5691532533745
 10
901.06774475377142
 20
-1088.5642598307859
 42
-0.0198099018564308
 10
901.45859386324787
 20
-1088.5491746733892
 10
901.51040533269202
 20
-1088.5492284490542
 42
-0.0147617382763232
 10
902.00502879366297
 20
-1088.5643484742991
 10
902.07772024854614
 20
-1088.5687210811873
 42
-0.0162624549002221
 10
902.46787387800578
 20
-1088.6049539564592
 10
902.58940626926312
 20
-1088.6202405154554
 42
-0.0080020874663777
 10
902.73498530035658
 20
-1088.6409233627242
 10
902.77330477094858
 20
-1088.6469946405348
 42
-0.0053821929678317
 10
902.84178887626638
 20
-1088.6586021643568
 10
902.11538317706777
 20
-1090.8395306200707
 42
0.0108667757398113
 10
902.04806610693811
 20
-1090.8263435048511
 10
902.01059808374748
 20
-1090.8198457622564
 42
0.0170663203307849
 10
901.8673812968301
 20
-1090.8000161649643
 10
901.79950596414892
 20
-1090.7929689943771
 42
0.0220162375273629
 10
901.51912655629496
 20
-1090.776286633607
 10
901.44127098924127
 20
-1090.7750872663405
 42
0.0282606915787455
 10
901.10563466566362
 20
-1090.7888905433097
 10
901.06172139189073
 20
-1090.7931905333135
 42
0.0169677213689564
 10
900.8157968969324
 20
-1090.8257275828651
 42
0.0190576269861611
 10
900.57288893435577
 20
-1090.8758744549707
 10
900.56662974624146
 20
-1090.8774174290809
 42
0.0213685642848188
 10
900.31624526176222
 20
-1090.9506177141861
 10
900.3107553668475
 20
-1090.9524807102448
 42
0.0237595297595475
 10
900.05726048195015
 20
-1091.0521652321397
 10
900.05215840791914
 20
-1091.0544570076186
 42
0.0261857468820483
 10
899.79998763169021
 20
-1091.1839933449926
 10
899.78956144260201
 20
-1091.1900588194617
 42
0.0272553062022719
 10
899.55313166736369
 20
-1091.3454310254056
 10
899.51836865385451
 20
-1091.3710921734976
 42
0.03259968931689
 10
899.36821331020269
 20
-1091.4978400464693
 10
899.34450388107882
 20
-1091.5206580749827
 42
0.0138050960634597
 10
899.25262072486953
 20
-1091.6141077365337
 42
0.0125280103795566
 10
899.16577819203962
 20
-1091.7122710631295
 10
899.14209774712765
 20
-1091.7404295613212
 42
0.0205218024740018
 10
899.01699767161551
 20
-1091.9022228755482
 10
898.99453133112684
 20
-1091.9338826053772
 42
0.0163110129586428
 10
898.83882095187516
 20
-1092.1692130404479
 10
898.83609705582455
 20
-1092.1736368024326
 42
0.0131897341900631
 10
898.68929653491591
 20
-1092.4267688948023
 10
898.68759643955218
 20
-1092.4298871339329
 42
0.0107895576063121
 10
898.54981973734573
 20
-1092.6961023435592
 10
898.5490868478164
 20
-1092.6975965762144
 42
0.0091371507222248
 10
898.4206068991648
 20
-1092.9721217739784
 10
898.3908612677576
 20
-1093.0388282811327
 42
0.0135418326351088
 10
898.21914732868436
 20
-1093.4537660664057
 10
898.18554252025513
 20
-1093.5416322086737
 42
0.0092834542406019
 10
898.01431346033087
 20
-1094.0155307069881
 10
897.98869633261779
 20
-1094.090771776768
 42
0.005426104357676
 10
897.88105818432018
 20
-1094.4185357498468
 10
897.8635321980961
 20
-1094.4739239122243
 42
0.0008225090817352
 10
897.79486214631277
 20
-1094.6921926702259
 10
896.8101730143793
 20
-1097.7170839634825
 10
900.04279685445317
 20
-1097.7170839634825
 10
899.53860442459973
 20
-1099.6215622618349
 10
896.28254814261641
 20
-1099.6215622618349
 10
890.45339911026258
 20
-1118.4347853278398
 10
888.62830149995227
 20
-1118.4347853278398
 10
894.4629795354532
 20
-1099.6215622618349
 10
892.05786316641286
 20
-1099.6215622618349
 10
892.5620555962663
 20
-1097.7170839634825
 10
894.99060440721632
 20
-1097.7170839634825
 10
895.85075932540497
 20
-1095.0806709627836
 42
-0.0005863560658428
 10
895.88749400356585
 20
-1094.9638445426272
 10
895.96358183726886
 20
-1094.7228522431064
 42
-0.0087522378926788
 10
896.16304998072587
 20
-1094.1275761559596
 10
896.25531425614099
 20
-1093.8674359874419
 42
-0.0077400953830428
 10
896.51324791527031
 20
-1093.1744313098989
 10
896.52901288684905
 20
-1093.1340004265132
 42
-0.0082369946330594
 10
896.77609735746114
 20
-1092.5299213603171
 42
-0.0085725238362489
 10
897.04334345346786
 20
-1091.9344953210216
 10
897.14497305447071
 20
-1091.7180742190465
 42
-0.0168109410597172
 10
897.43191748320146
 20
-1091.1568666929404
 10
897.55776087369225
 20
-1090.9299026598858
 42
-0.0007817726868056
 10
897.61204522371713
 20
-1090.8323584149121
 10
897.61217352972994
 20
-1090.8321287061835
 42
-0.0036626142161349
 10
897.6670613937556
 20
-1090.735530826207
 42
-0.0080221150672844
 10
897.72418564916472
 20
-1090.6402515914501
 10
897.75488560052349
 20
-1090.5908606423318
 42
-0.0202139325568902
 10
897.88254134033173
 20
-1090.4028790416485
 10
897.93660880551784
 20
-1090.3298001774097
 42
-0.0249323791798366
 10
898.19577159923824
 20
-1090.0137549352539
 10
898.219911413364
 20
-1089.9871406623429
 42
-0.0242132121540895
 10
898.55959215490702
 20
-1089.6472571761381
 10
898.60750372765608
 20
-1089.6037480399532
 42
-0.0251017527857077
 10
898.8914854282973
 20
-1089.3707552941878
 10
898.89293090511035
 20
-1089.3696860366094
 42
-0.0130868069035934
 10
899.19119155506837
 20
-1089.1609055680665
 10
899.19275337421232
 20
-1089.1598721277908
 42
-0.0290329526388077
 10
899.50386451560439
 20
-1088.979046626162
 10
899.53371007759426
 20
-1088.9639442433206
 42
-0.0160250190047949
 10
899.79961449135521
 20
-1088.8399281331094
 42
-0.0267600374780309
 10
900.07489056882525
 20
-1088.7391798125602
 10
900.10162648834478
 20
-1088.7309872537351
 42
-0.0049981587669928
 10
900.15679963363175
 20
-1088.7146820534226
 42
-0.0049981587669928
  0
LWPOLYLINE
  5
69
100
AcDbEntity
  8
0
370
              15
390
0
  6
Continuous
 62
               7
100
AcDbPolyline
 90
      118
 70
             128
 10
919.97116719807866
 20
-1097.7910672913099
 10
921.84628912257813
 20
-1097.7910672913099
 10
921.00825021697824
 20
-1100.4726338177099
 42
-0.0010587229244717
 10
921.03970603257608
 20
-1100.4357292843242
 10
921.09790012318217
 20
-1100.3677470281789
 42
-0.0071874740413046
 10
921.24827534127417
 20
-1100.1971063361566
 10
921.38999811454244
 20
-1100.0408701948368
 42
-0.0148118053513779
 10
921.84012740725132
 20
-1099.5732563488275
 10
921.92734974215728
 20
-1099.4878590279698
 42
-0.0086273358692718
 10
922.26289854316542
 20
-1099.1704833939536
 10
922.30673225939165
 20
-1099.1304337496204
 42
-0.0103138323115429
 10
922.56475596162477
 20
-1098.9042706122823
 10
922.61053036796045
 20
-1098.8657885650148
 42
-0.0060206748564274
 10
922.78337843206407
 20
-1098.7239939142678
 10
922.78540956295512
 20
-1098.7223682086324
 42
-0.0067069027290416
 10
922.95770237761258
 20
-1098.5882175748416
 10
922.96025114354586
 20
-1098.5862874049608
 42
-0.0076184352049488
 10
923.13115640940987
 20
-1098.4609125297225
 42
-0.0089652861668072
 10
923.30611737214338
 20
-1098.3412792693903
 10
923.34246909228841
 20
-1098.3173680559073
 42
-0.0156916245939222
 10
923.5384285894495
 20
-1098.1971055694326
 42
-0.0023299011069693
 10
923.73869063340589
 20
-1098.0839276299046
 10
923.75407476580915
 20
-1098.0753276348269
 42
-0.0107669341481016
 10
923.98831159091708
 20
-1097.9509275014739
 10
924.0105763919853
 20
-1097.9397107515274
 42
-0.0078058045897393
 10
924.29416650993721
 20
-1097.8023492958894
 10
924.30407359764718
 20
-1097.7977401680205
 42
-0.0181829330470019
 10
924.61438300226393
 20
-1097.6668764269243
 10
924.66843844482628
 20
-1097.6463613069825
 42
-0.0208411536031712
 10
925.01752341227984
 20
-1097.5302708444883
 10
925.03187951240784
 20
-1097.5261523995346
 42
-0.022279981713889
 10
925.3605993063245
 20
-1097.4475108333945
 10
925.369488269567
 20
-1097.4457988228085
 42
-0.0215509523880639
 10
925.68595923784142
 20
-1097.3988831342749
 10
925.72844119889055
 20
-1097.3944456074842
 42
-0.0182545924872456
 10
925.96254997819551
 20
-1097.3786017820933
 10
926.00195099454572
 20
-1097.3773772370139
 42
-0.0072962856529035
 10
926.15787387423256
 20
-1097.3748079084919
 10
926.18697354480855
 20
-1097.3747530730882
 42
-0.0059227516318781
 10
926.2847230439495
 20
-1097.3757267848787
 10
926.31396526146034
 20
-1097.3763645514828
 42
-0.0011833111901737
 10
926.35321654515383
 20
-1097.3773135557919
 10
925.55782994954666
 20
-1099.916047500891
 42
0.0143932051598805
 10
925.53142856719546
 20
-1099.9058485308456
 10
925.52415659477879
 20
-1099.9032773119884
 42
0.0234388603530011
 10
925.48232572884706
 20
-1099.8906580762732
 10
925.47364406593397
 20
-1099.888477114268
 42
0.019916274298183
 10
925.41335523185228
 20
-1099.8758603789324
 10
925.39254129404776
 20
-1099.8723631795044
 42
0.0293643550666261
 10
925.28946643528752
 20
-1099.8612131338512
 10
925.26478125456833
 20
-1099.8600015168327
 42
0.0214606686863494
 10
925.11164033861519
 20
-1099.8590629564151
 10
925.10226842779787
 20
-1099.8594078679594
 42
0.0167564054173981
 10
924.93074823668678
 20
-1099.8714849103276
 10
924.92228844393048
 20
-1099.8723662507546
 42
0.0137677553240766
 10
924.73493513066455
 20
-1099.8971155592983
 10
924.72758339115785
 20
-1099.8982934792662
 42
0.0118497261482254
 10
924.52708562705527
 20
-1099.9353108294554
 10
924.52093561980928
 20
-1099.9365976921754
 42
0.0106421143889724
 10
924.31005473252526
 20
-1099.98543006775
 10
924.30514592413522
 20
-1099.9866774104353
 42
0.0099746379706321
 10
924.08668745497073
 20
-1100.0468519387507
 10
924.02513941480242
 20
-1100.0651338173807
 42
0.0191613675859732
 10
923.68915495228691
 20
-1100.1791111976677
 10
923.60109517953742
 20
-1100.2127981079932
 42
0.0205274080144368
 10
923.21578840764073
 20
-1100.3786265158183
 10
923.15813912565829
 20
-1100.4062944803909
 42
0.0181256912196064
 10
922.89986218499178
 20
-1100.5419782993686
 10
922.84690680168444
 20
-1100.5722959125794
 42
0.0140709242402873
 10
922.7019518670495
 20
-1100.6607905860176
 10
922.67570299843271
 20
-1100.6778474047319
 42
0.0086667884395987
 10
922.58677683688848
 20
-1100.7378500726159
 42
0.0036408192034625
 10
922.49934359883844
 20
-1100.8000309304202
 10
922.46411672438649
 20
-1100.825471876321
 42
0.0052260781272892
 10
922.30788802701056
 20
-1100.9408042629439
 10
922.29168117073573
 20
-1100.9530323735735
 42
0.0050024435898219
 10
922.10567782767976
 20
-1101.0963149418335
 10
922.09035967116176
 20
-1101.1083609642815
 42
0.013613871027649
 10
921.87991840284246
 20
-1101.2833274691895
 10
921.84625052704291
 20
-1101.312906441909
 42
0.017281518691684
 10
921.58184698537809
 20
-1101.5619031145347
 10
921.57928463953772
 20
-1101.5644889316795
 42
0.0189403857992159
 10
921.3287028409577
 20
-1101.8372941964847
 10
921.29607134742764
 20
-1101.875638127975
 42
0.0185044199499275
 10
921.10411490844263
 20
-1102.1188867091037
 42
0.0088565243898951
 10
920.9256548018152
 20
-1102.3724031292525
 10
920.91647682216569
 20
-1102.3859445090138
 42
0.0157195347234652
 10
920.73325621582853
 20
-1102.6754667183345
 10
920.687173273908
 20
-1102.7536189153379
 42
0.0095451879775554
 10
920.52208772376309
 20
-1103.0462135577068
 10
920.51093980483915
 20
-1103.0668842298282
 42
0.0100351706251944
 10
920.3788960556742
 20
-1103.3239397903296
 42
0.0086935915418291
 10
920.25656490388019
 20
-1103.5857729357338
 10
920.25324416246565
 20
-1103.5932152587059
 42
0.0072580174866602
 10
920.13289771052291
 20
-1103.8738072502836
 10
920.1296360772144
 20
-1103.8817272763067
 42
0.0060005122616345
 10
920.01043540887065
 20
-1104.1813369469148
 10
920.00722443053007
 20
-1104.1896984748169
 42
0.0049017786975175
 10
919.88832427167199
 20
-1104.5086274554226
 10
919.88515846528219
 20
-1104.5173803926514
 42
0.0039415167599449
 10
919.76572218723106
 20
-1104.8559224550488
 10
919.76259108457339
 20
-1104.8650256559408
 42
0.0031035838769682
 10
919.64178629887556
 20
-1105.2234655177288
 10
919.63867625434989
 20
-1105.2328861390893
 42
0.0025070747154479
 10
919.51577490303816
 20
-1105.6115333560217
 10
919.47848100660917
 20
-1105.7284250212861
 42
0.0029081910283904
 10
919.28646270880756
 20
-1106.3425886795474
 10
919.24565954028128
 20
-1106.4758119218536
 42
0.0009266453734212
 10
918.97724216592712
 20
-1107.3580363819078
 10
918.95635469334729
 20
-1107.4271482609424
 42
-0.0005809993666308
 10
918.67901801273479
 20
-1108.3409563676519
 10
918.61273621447856
 20
-1108.5584412997571
 42
-0.0012018708166185
 10
918.46575190503268
 20
-1109.0366039643322
 10
918.41343205345208
 20
-1109.2053631052465
 42
-0.0002691059599173
 10
918.36986257229853
 20
-1109.3456307255401
 10
915.53690667400929
 20
-1118.4347853278398
 10
913.71891778203076
 20
-1118.4347853278398
 10
919.97116719807866
 20
-1097.7910672913099
  0
SPLINE
  5
6A
100
AcDbEntity
  8
0
370
              15
390
0
  6
Continuous
 62
               7
100
AcDbSpline
210
0.0
220
0.0
230
1.0
 70
              13
 71
               2
 72
             782
 73
             779
 74
               0
 42
0.000001
 43
0.000001
 40
0.0
 40
0.0
 40
0.0
 40
1.0
 40
1.0
 40
2.0
 40
2.0
 40
3.0
 40
3.0
 40
4.0
 40
4.0
 40
5.0
 40
5.0
 40
6.0
 40
6.0
 40
7.0
 40
7.0
 40
8.0
 40
8.0
 40
9.0
 40
9.0
 40
10.0
 40
10.0
 40
11.0
 40
11.0
 40
12.0
 40
12.0
 40
13.0
 40
13.0
 40
14.0
 40
14.0
 40
15.0
 40
15.0
 40
16.0
 40
16.0
 40
17.0
 40
17.0
 40
18.0
 40
18.0
 40
19.0
 40
19.0
 40
20.0
 40
20.0
 40
21.0
 40
21.0
 40
22.0
 40
22.0
 40
23.0
 40
23.0
 40
24.0
 40
24.0
 40
25.0
 40
25.0
 40
26.0
 40
26.0
 40
27.0
 40
27.0
 40
28.0
 40
28.0
 40
29.0
 40
29.0
 40
30.0
 40
30.0
 40
31.0
 40
31.0
 40
32.0
 40
32.0
 40
33.0
 40
33.0
 40
34.0
 40
34.0
 40
35.0
 40
35.0
 40
36.0
 40
36.0
 40
37.0
 40
37.0
 40
38.0
 40
38.0
 40
39.0
 40
39.0
 40
40.0
 40
40.0
 40
41.0
 40
41.0
 40
42.0
 40
42.0
 40
43.0
 40
43.0
 40
44.0
 40
44.0
 40
45.0
 40
45.0
 40
46.0
 40
46.0
 40
47.0
 40
47.0
 40
48.0
 40
48.0
 40
49.0
 40
49.0
 40
50.0
 40
50.0
 40
51.0
 40
51.0
 40
52.0
 40
52.0
 40
53.0
 40
53.0
 40
54.0
 40
54.0
 40
55.0
 40
55.0
 40
56.0
 40
56.0
 40
57.0
 40
57.0
 40
58.0
 40
58.0
 40
59.0
 40
59.0
 40
60.0
 40
60.0
 40
61.0
 40
61.0
 40
62.0
 40
62.0
 40
63.0
 40
63.0
 40
64.0
 40
64.0
 40
65.0
 40
65.0
 40
66.0
 40
66.0
 40
67.0
 40
67.0
 40
68.0
 40
68.0
 40
69.0
 40
69.0
 40
70.0
 40
70.0
 40
71.0
 40
71.0
 40
72.0
 40
72.0
 40
73.0
 40
73.0
 40
74.0
 40
74.0
 40
75.0
 40
75.0
 40
76.0
 40
76.0
 40
77.0
 40
77.0
 40
78.0
 40
78.0
 40
79.0
 40
79.0
 40
80.0
 40
80.0
 40
81.0
 40
81.0
 40
82.0
 40
82.0
 40
83.0
 40
83.0
 40
84.0
 40
84.0
 40
85.0
 40
85.0
 40
86.0
 40
86.0
 40
87.0
 40
87.0
 40
88.0
 40
88.0
 40
89.0
 40
89.0
 40
90.0
 40
90.0
 40
91.0
 40
91.0
 40
92.0
 40
92.0
 40
93.0
 40
93.0
 40
94.0
 40
94.0
 40
95.0
 40
95.0
 40
96.0
 40
96.0
 40
97.0
 40
97.0
 40
98.0
 40
98.0
 40
99.0
 40
99.0
 40
100.0
 40
100.0
 40
101.0
 40
101.0
 40
102.0
 40
102.0
 40
103.0
 40
103.0
 40
104.0
 40
104.0
 40
105.0
 40
105.0
 40
106.0
 40
106.0
 40
107.0
 40
107.0
 40
108.0
 40
108.0
 40
109.0
 40
109.0
 40
110.0
 40
110.0
 40
111.0
 40
111.0
 40
112.0
 40
112.0
 40
113.0
 40
113.0
 40
114.0
 40
114.0
 40
115.0
 40
115.0
 40
116.0
 40
116.0
 40
117.0
 40
117.0
 40
118.0
 40
118.0
 40
119.0
 40
119.0
 40
120.0
 40
120.0
 40
121.0
 40
121.0
 40
122.0
 40
122.0
 40
123.0
 40
123.0
 40
124.0
 40
124.0
 40
125.0
 40
125.0
 40
126.0
 40
126.0
 40
127.0
 40
127.0
 40
128.0
 40
128.0
 40
129.0
 40
129.0
 40
130.0
 40
130.0
 40
131.0
 40
131.0
 40
132.0
 40
132.0
 40
133.0
 40
133.0
 40
134.0
 40
134.0
 40
135.0
 40
135.0
 40
136.0
 40
136.0
 40
137.0
 40
137.0
 40
138.0
 40
138.0
 40
139.0
 40
139.0
 40
140.0
 40
140.0
 40
141.0
 40
141.0
 40
142.0
 40
142.0
 40
143.0
 40
143.0
 40
144.0
 40
144.0
 40
145.0
 40
145.0
 40
146.0
 40
146.0
 40
147.0
 40
147.0
 40
148.0
 40
148.0
 40
149.0
 40
149.0
 40
150.0
 40
150.0
 40
151.0
 40
151.0
 40
152.0
 40
152.0
 40
153.0
 40
153.0
 40
154.0
 40
154.0
 40
155.0
 40
155.0
 40
156.0
 40
156.0
 40
157.0
 40
157.0
 40
158.0
 40
158.0
 40
159.0
 40
159.0
 40
160.0
 40
160.0
 40
161.0
 40
161.0
 40
162.0
 40
162.0
 40
163.0
 40
163.0
 40
164.0
 40
164.0
 40
165.0
 40
165.0
 40
166.0
 40
166.0
 40
167.0
 40
167.0
 40
168.0
 40
168.0
 40
169.0
 40
169.0
 40
170.0
 40
170.0
 40
171.0
 40
171.0
 40
172.0
 40
172.0
 40
173.0
 40
173.0
 40
174.0
 40
174.0
 40
175.0
 40
175.0
 40
176.0
 40
176.0
 40
177.0
 40
177.0
 40
178.0
 40
178.0
 40
179.0
 40
179.0
 40
180.0
 40
180.0
 40
181.0
 40
181.0
 40
182.0
 40
182.0
 40
183.0
 40
183.0
 40
184.0
 40
184.0
 40
185.0
 40
185.0
 40
186.0
 40
186.0
 40
187.0
 40
187.0
 40
188.0
 40
188.0
 40
189.0
 40
189.0
 40
190.0
 40
190.0
 40
191.0
 40
191.0
 40
192.0
 40
192.0
 40
193.0
 40
193.0
 40
194.0
 40
194.0
 40
195.0
 40
195.0
 40
196.0
 40
196.0
 40
197.0
 40
197.0
 40
198.0
 40
198.0
 40
199.0
 40
199.0
 40
200.0
 40
200.0
 40
201.0
 40
201.0
 40
202.0
 40
202.0
 40
203.0
 40
203.0
 40
204.0
 40
204.0
 40
205.0
 40
205.0
 40
206.0
 40
206.0
 40
207.0
 40
207.0
 40
208.0
 40
208.0
 40
209.0
 40
209.0
 40
210.0
 40
210.0
 40
211.0
 40
211.0
 40
212.0
 40
212.0
 40
213.0
 40
213.0
 40
214.0
 40
214.0
 40
215.0
 40
215.0
 40
216.0
 40
216.0
 40
217.0
 40
217.0
 40
218.0
 40
218.0
 40
219.0
 40
219.0
 40
220.0
 40
220.0
 40
221.0
 40
221.0
 40
222.0
 40
222.0
 40
223.0
 40
223.0
 40
224.0
 40
224.0
 40
225.0
 40
225.0
 40
226.0
 40
226.0
 40
227.0
 40
227.0
 40
228.0
 40
228.0
 40
229.0
 40
229.0
 40
230.0
 40
230.0
 40
231.0
 40
231.0
 40
232.0
 40
232.0
 40
233.0
 40
233.0
 40
234.0
 40
234.0
 40
235.0
 40
235.0
 40
236.0
 40
236.0
 40
237.0
 40
237.0
 40
238.0
 40
238.0
 40
239.0
 40
239.0
 40
240.0
 40
240.0
 40
241.0
 40
241.0
 40
242.0
 40
242.0
 40
243.0
 40
243.0
 40
244.0
 40
244.0
 40
245.0
 40
245.0
 40
246.0
 40
246.0
 40
247.0
 40
247.0
 40
248.0
 40
248.0
 40
249.0
 40
249.0
 40
250.0
 40
250.0
 40
251.0
 40
251.0
 40
252.0
 40
252.0
 40
253.0
 40
253.0
 40
254.0
 40
254.0
 40
255.0
 40
255.0
 40
256.0
 40
256.0
 40
257.0
 40
257.0
 40
258.0
 40
258.0
 40
259.0
 40
259.0
 40
260.0
 40
260.0
 40
261.0
 40
261.0
 40
262.0
 40
262.0
 40
263.0
 40
263.0
 40
264.0
 40
264.0
 40
265.0
 40
265.0
 40
266.0
 40
266.0
 40
267.0
 40
267.0
 40
268.0
 40
268.0
 40
269.0
 40
269.0
 40
270.0
 40
270.0
 40
271.0
 40
271.0
 40
272.0
 40
272.0
 40
273.0
 40
273.0
 40
274.0
 40
274.0
 40
275.0
 40
275.0
 40
276.0
 40
276.0
 40
277.0
 40
277.0
 40
278.0
 40
278.0
 40
279.0
 40
279.0
 40
280.0
 40
280.0
 40
281.0
 40
281.0
 40
282.0
 40
282.0
 40
283.0
 40
283.0
 40
284.0
 40
284.0
 40
285.0
 40
285.0
 40
286.0
 40
286.0
 40
287.0
 40
287.0
 40
288.0
 40
288.0
 40
289.0
 40
289.0
 40
290.0
 40
290.0
 40
291.0
 40
291.0
 40
292.0
 40
292.0
 40
293.0
 40
293.0
 40
294.0
 40
294.0
 40
295.0
 40
295.0
 40
296.0
 40
296.0
 40
297.0
 40
297.0
 40
298.0
 40
298.0
 40
299.0
 40
299.0
 40
300.0
 40
300.0
 40
301.0
 40
301.0
 40
302.0
 40
302.0
 40
303.0
 40
303.0
 40
304.0
 40
304.0
 40
305.0
 40
305.0
 40
306.0
 40
306.0
 40
307.0
 40
307.0
 40
308.0
 40
308.0
 40
309.0
 40
309.0
 40
310.0
 40
310.0
 40
311.0
 40
311.0
 40
312.0
 40
312.0
 40
313.0
 40
313.0
 40
314.0
 40
314.0
 40
315.0
 40
315.0
 40
316.0
 40
316.0
 40
317.0
 40
317.0
 40
318.0
 40
318.0
 40
319.0
 40
319.0
 40
320.0
 40
320.0
 40
321.0
 40
321.0
 40
322.0
 40
322.0
 40
323.0
 40
323.0
 40
324.0
 40
324.0
 40
325.0
 40
325.0
 40
326.0
 40
326.0
 40
327.0
 40
327.0
 40
328.0
 40
328.0
 40
329.0
 40
329.0
 40
330.0
 40
330.0
 40
331.0
 40
331.0
 40
332.0
 40
332.0
 40
333.0
 40
333.0
 40
334.0
 40
334.0
 40
335.0
 40
335.0
 40
336.0
 40
336.0
 40
337.0
 40
337.0
 40
338.0
 40
338.0
 40
339.0
 40
339.0
 40
340.0
 40
340.0
 40
341.0
 40
341.0
 40
342.0
 40
342.0
 40
343.0
 40
343.0
 40
344.0
 40
344.0
 40
345.0
 40
345.0
 40
346.0
 40
346.0
 40
347.0
 40
347.0
 40
348.0
 40
348.0
 40
349.0
 40
349.0
 40
350.0
 40
350.0
 40
351.0
 40
351.0
 40
352.0
 40
352.0
 40
353.0
 40
353.0
 40
354.0
 40
354.0
 40
355.0
 40
355.0
 40
356.0
 40
356.0
 40
357.0
 40
357.0
 40
358.0
 40
358.0
 40
359.0
 40
359.0
 40
360.0
 40
360.0
 40
361.0
 40
361.0
 40
362.0
 40
362.0
 40
363.0
 40
363.0
 40
364.0
 40
364.0
 40
365.0
 40
365.0
 40
366.0
 40
366.0
 40
367.0
 40
367.0
 40
368.0
 40
368.0
 40
369.0
 40
369.0
 40
370.0
 40
370.0
 40
371.0
 40
371.0
 40
372.0
 40
372.0
 40
373.0
 40
373.0
 40
374.0
 40
374.0
 40
375.0
 40
375.0
 40
376.0
 40
376.0
 40
377.0
 40
377.0
 40
378.0
 40
378.0
 40
379.0
 40
379.0
 40
380.0
 40
380.0
 40
381.0
 40
381.0
 40
382.0
 40
382.0
 40
383.0
 40
383.0
 40
384.0
 40
384.0
 40
385.0
 40
385.0
 40
386.0
 40
386.0
 40
387.0
 40
387.0
 40
388.0
 40
388.0
 40
389.0
 40
389.0
 40
389.0
 10
930.29987164881129
 20
-1097.7801409279475
 30
0.0
 41
1.0
 10
931.11829575753177
 20
-1097.7801409279475
 30
0.0
 41
1.0
 10
931.93671986625225
 20
-1097.7801409279475
 30
0.0
 41
1.0
 10
931.52296613073554
 20
-1099.1227671921972
 30
0.0
 41
1.0
 10
931.10921239521872
 20
-1100.4653934564469
 30
0.0
 41
1.0
 10
931.12755189037239
 20
-1100.4366926835573
 30
0.0
 41
0.9999957264353334
 10
931.14605888718984
 20
-1100.4080996334276
 30
0.0
 41
1.0
 10
931.17648821134094
 20
-1100.3610867550303
 30
0.0
 41
1.0
 10
931.20691753549204
 20
-1100.3140738766331
 30
0.0
 41
1.0
 10
931.28628318059964
 20
-1100.1914550697277
 30
0.0
 41
0.9995394069080855
 10
931.37294157215149
 20
-1100.0738770079861
 30
0.0
 41
1.0
 10
931.40869843441078
 20
-1100.0253621153931
 30
0.0
 41
1.0
 10
931.44445529667007
 20
-1099.9768472228002
 30
0.0
 41
1.0
 10
931.57818196448875
 20
-1099.795406947673
 30
0.0
 41
0.9994460617143494
 10
931.72368244577569
 20
-1099.6232645500245
 30
0.0
 41
1.0
 10
931.72807062674997
 20
-1099.6180728696427
 30
0.0
 41
1.0
 10
931.73245880772436
 20
-1099.6128811892611
 30
0.0
 41
1.0
 10
931.86918292706207
 20
-1099.4511221523767
 30
0.0
 41
0.9994359394933763
 10
932.01645715741506
 20
-1099.2989059512104
 30
0.0
 41
1.0
 10
932.01884051136881
 20
-1099.2964426208368
 30
0.0
 41
1.0
 10
932.02122386532244
 20
-1099.2939792904633
 30
0.0
 41
1.0
 10
932.16373138776714
 20
-1099.1466897500452
 30
0.0
 41
0.9995293688568033
 10
932.31500306874864
 20
-1099.0084165378817
 30
0.0
 41
1.0
 10
932.33429682801261
 20
-1098.9907806522299
 30
0.0
 41
1.0
 10
932.35359058727659
 20
-1098.9731447665781
 30
0.0
 41
1.0
 10
932.46627474973218
 20
-1098.8701433257163
 30
0.0
 41
0.999708761480295
 10
932.58379763868584
 20
-1098.7726990449196
 30
0.0
 41
1.0
 10
932.60296371186064
 20
-1098.7568074664123
 30
0.0
 41
1.0
 10
932.62212978503555
 20
-1098.7409158879047
 30
0.0
 41
1.0
 10
932.70132052763734
 20
-1098.6752547641245
 30
0.0
 41
0.9999595338694274
 10
932.78167979849604
 20
-1098.6110290334668
 30
0.0
 41
1.0
 10
932.86203906935839
 20
-1098.546803302806
 30
0.0
 41
0.9999749417504894
 10
932.94329960371101
 20
-1098.4837217488525
 30
0.0
 41
1.0
 10
932.96428574986476
 20
-1098.4674304615578
 30
0.0
 41
1.0
 10
932.9852718960185
 20
-1098.4511391742628
 30
0.0
 41
1.0
 10
933.06983978132166
 20
-1098.3854901644208
 30
0.0
 41
0.9999792037115057
 10
933.15524738109707
 20
-1098.3209373827726
 30
0.0
 41
1.0
 10
933.17607220695675
 20
-1098.305197560554
 30
0.0
 41
1.0
 10
933.19689703281642
 20
-1098.2894577383356
 30
0.0
 41
1.0
 10
933.24065498081166
 20
-1098.2563846011706
 30
0.0
 41
0.9999993373798038
 10
933.28433666700971
 20
-1098.2232108057051
 30
0.0
 41
1.0
 10
933.3280183531507
 20
-1098.1900370102826
 30
0.0
 41
0.9999160953816699
 10
933.37254476406838
 20
-1098.1580059450857
 30
0.0
 41
1.0
 10
933.40536665148989
 20
-1098.1343947894993
 30
0.0
 41
1.0
 10
933.4381885389115
 20
-1098.1107836339129
 30
0.0
 41
1.0
 10
933.54835872466924
 20
-1098.0315302575455
 30
0.0
 41
0.9980964527231613
 10
933.66744771817002
 20
-1097.9664427846894
 30
0.0
 41
1.0
 10
933.70448032509717
 20
-1097.9462028050966
 30
0.0
 41
1.0
 10
933.74151293202442
 20
-1097.925962825504
 30
0.0
 41
1.0
 10
933.92083994529833
 20
-1097.8279525748023
 30
0.0
 41
0.9984572810572789
 10
934.10992851165884
 20
-1097.7504303134551
 30
0.0
 41
1.0
 10
934.1135747810539
 20
-1097.7489354211175
 30
0.0
 41
1.0
 10
934.11722105044896
 20
-1097.7474405287799
 30
0.0
 41
1.0
 10
934.29901707801707
 20
-1097.6729080521091
 30
0.0
 41
0.9987838528033893
 10
934.48726973657699
 20
-1097.6166424119431
 30
0.0
 41
1.0
 10
934.49150768577658
 20
-1097.6153757582526
 30
0.0
 41
1.0
 10
934.49574563497617
 20
-1097.6141091045622
 30
0.0
 41
1.0
 10
934.67552239513714
 20
-1097.5603767717771
 30
0.0
 41
0.999065281620722
 10
934.85926832685209
 20
-1097.5223730922353
 30
0.0
 41
1.0
 10
934.86445672788182
 20
-1097.5212999891291
 30
0.0
 41
1.0
 10
934.86964512891166
 20
-1097.520226886023
 30
0.0
 41
1.0
 10
935.04301425856659
 20
-1097.4843694126935
 30
0.0
 41
0.9992909934270359
 10
935.21859002502629
 20
-1097.4616589802267
 30
0.0
 41
1.0
 10
935.39416579148292
 20
-1097.4389485477602
 30
0.0
 41
0.9994553539448424
 10
935.57085722457441
 20
-1097.4278692435541
 30
0.0
 41
1.0
 10
935.60629163237172
 20
-1097.4256473555063
 30
0.0
 41
1.0
 10
935.64172604016903
 20
-1097.4234254674584
 30
0.0
 41
1.0
 10
935.80795180673806
 20
-1097.4130024050467
 30
0.0
 41
0.9990928098292801
 10
935.97446159864103
 20
-1097.4167620462813
 30
0.0
 41
1.0
 10
936.01302343391387
 20
-1097.4176327378143
 30
0.0
 41
1.0
 10
936.05158526918672
 20
-1097.4185034293473
 30
0.0
 41
1.0
 10
936.14097139054468
 20
-1097.4205216875157
 30
0.0
 41
0.9998382089205343
 10
936.23022707332984
 20
-1097.4257538140437
 30
0.0
 41
1.0
 10
936.23065697954996
 20
-1097.4257790149459
 30
0.0
 41
1.0
 10
936.23108688577008
 20
-1097.4258042158483
 30
0.0
 41
1.0
 10
936.31948275611626
 20
-1097.4309859405719
 30
0.0
 41
0.9997558016758178
 10
936.40756333331683
 20
-1097.4400684559382
 30
0.0
 41
1.0
 10
936.40803947174686
 20
-1097.4401175534208
 30
0.0
 41
1.0
 10
936.40851561017701
 20
-1097.4401666509034
 30
0.0
 41
1.0
 10
936.49564391051831
 20
-1097.4491509713048
 30
0.0
 41
0.9996565144182231
 10
936.58218176385981
 20
-1097.4626882779939
 30
0.0
 41
1.0
 10
936.58264768923823
 20
-1097.4627611637254
 30
0.0
 41
1.0
 10
936.58311361461654
 20
-1097.4628340494569
 30
0.0
 41
1.0
 10
936.66871961720256
 20
-1097.4762255846829
 30
0.0
 41
0.9995321806867266
 10
936.75334669752976
 20
-1097.4948260731121
 30
0.0
 41
1.0
 10
936.75373589210187
 20
-1097.4949116155781
 30
0.0
 41
1.0
 10
936.75412508667398
 20
-1097.494997158044
 30
0.0
 41
1.0
 10
936.83797377785834
 20
-1097.5134265615416
 30
0.0
 41
0.9993819199219786
 10
936.92032031205395
 20
-1097.5377019448019
 30
0.0
 41
1.0
 10
936.92055874555149
 20
-1097.5377722339113
 30
0.0
 41
1.0
 10
936.92079717904892
 20
-1097.5378425230203
 30
0.0
 41
1.0
 10
937.00266684624955
 20
-1097.5619773280623
 30
0.0
 41
0.9992088568505697
 10
937.0823593652384
 20
-1097.592542563857
 30
0.0
 41
1.0
 10
937.16204035611736
 20
-1097.6231021645904
 30
0.0
 41
0.9990226101773474
 10
937.23871102602459
 20
-1097.660579596205
 30
0.0
 41
1.0
 10
937.31537016782215
 20
-1097.6980513927579
 30
0.0
 41
0.9988424273972117
 10
937.38807379503419
 20
-1097.7427161680107
 30
0.0
 41
1.0
 10
937.38834150341393
 20
-1097.7428806320831
 30
0.0
 41
1.0
 10
937.38860921179366
 20
-1097.7430450961556
 30
0.0
 41
1.0
 10
937.46184825576449
 20
-1097.7880387995531
 30
0.0
 41
0.9986928844491282
 10
937.53011112247418
 20
-1097.8402745338326
 30
0.0
 41
1.0
 10
937.530692414697
 20
-1097.8407193470605
 30
0.0
 41
1.0
 10
937.53127370691982
 20
-1097.8411641602884
 30
0.0
 41
1.0
 10
937.60069915807503
 20
-1097.8942895210239
 30
0.0
 41
0.998600726227902
 10
937.66412532784193
 20
-1097.9544502907174
 30
0.0
 41
1.0
 10
937.66501974329913
 20
-1097.9552986585525
 30
0.0
 41
1.0
 10
937.66591415875632
 20
-1097.9561470263875
 30
0.0
 41
1.0
 10
937.73112915943716
 20
-1098.0180045317511
 30
0.0
 41
0.998558149138214
 10
937.78933677113901
 20
-1098.0864970220227
 30
0.0
 41
1.0
 10
937.79859522473487
 20
-1098.0973913797245
 30
0.0
 41
1.0
 10
937.80785367833073
 20
-1098.1082857374263
 30
0.0
 41
1.0
 10
937.8845781972235
 20
-1098.1985669431008
 30
0.0
 41
0.9970460233520153
 10
937.94657009838295
 20
-1098.2995340272826
 30
0.0
 41
1.0
 10
937.96103946346238
 20
-1098.3231004863637
 30
0.0
 41
1.0
 10
937.97550882854193
 20
-1098.3466669454447
 30
0.0
 41
1.0
 10
938.0152455285546
 20
-1098.411386669477
 30
0.0
 41
0.9988468816636342
 10
938.0485918993063
 20
-1098.479619121905
 30
0.0
 41
1.0
 10
938.05562792179842
 20
-1098.4940160430438
 30
0.0
 41
1.0
 10
938.06266394429053
 20
-1098.5084129641823
 30
0.0
 41
1.0
 10
938.08193827005812
 20
-1098.5478515743334
 30
0.0
 41
0.9998431189996929
 10
938.09980359755286
 20
-1098.5879481287734
 30
0.0
 41
1.0
 10
938.11766892508149
 20
-1098.6280446832895
 30
0.0
 41
0.9999989990028213
 10
938.13564764851083
 20
-1098.6680905208893
 30
0.0
 41
1.0
 10
938.1418199600846
 20
-1098.6818387376561
 30
0.0
 41
1.0
 10
938.14799227165827
 20
-1098.6955869544231
 30
0.0
 41
1.0
 10
938.17831561826858
 20
-1098.7631292256317
 30
0.0
 41
0.9998790356321278
 10
938.20652349840657
 20
-1098.8315819775694
 30
0.0
 41
1.0
 10
938.2133586796906
 20
-1098.8481690789959
 30
0.0
 41
1.0
 10
938.22019386097452
 20
-1098.8647561804223
 30
0.0
 41
1.0
 10
938.24375152335631
 20
-1098.9219241353114
 30
0.0
 41
0.9998227574561287
 10
938.26514027174494
 20
-1098.9799384435873
 30
0.0
 41
1.0
 10
938.28652902013437
 20
-1099.0379527518649
 30
0.0
 41
0.9996797971040683
 10
938.30495530509347
 20
-1099.0969748709829
 30
0.0
 41
1.0
 10
938.30885910781899
 20
-1099.1094793291518
 30
0.0
 41
1.0
 10
938.31276291054451
 20
-1099.1219837873207
 30
0.0
 41
1.0
 10
938.33899680095487
 20
-1099.2060148227768
 30
0.0
 41
0.9979274938734355
 10
938.35422132443409
 20
-1099.2927191814372
 30
0.0
 41
1.0
 10
938.35644501169486
 20
-1099.3053831822563
 30
0.0
 41
1.0
 10
938.35866869895574
 20
-1099.3180471830754
 30
0.0
 41
1.0
 10
938.36959863865468
 20
-1099.3802936903692
 30
0.0
 41
0.9994985982137418
 10
938.37656680383157
 20
-1099.4431071915114
 30
0.0
 41
1.0
 10
938.38353496900834
 20
-1099.5059206926487
 30
0.0
 41
0.9996372611200992
 10
938.38711083477608
 20
-1099.5690182713311
 30
0.0
 41
1.0
 10
938.38727941226557
 20
-1099.5719928884155
 30
0.0
 41
1.0
 10
938.38744798975495
 20
-1099.5749675055001
 30
0.0
 41
1.0
 10
938.39136101050121
 20
-1099.6440143183447
 30
0.0
 41
0.9997730630736238
 10
938.39232932398932
 20
-1099.7131651423765
 30
0.0
 41
1.0
 10
938.39238643040744
 20
-1099.7172433215203
 30
0.0
 41
1.0
 10
938.39244353682557
 20
-1099.7213215006641
 30
0.0
 41
1.0
 10
938.39352606314992
 20
-1099.7986286829876
 30
0.0
 41
0.9998772614072651
 10
938.39218597641809
 20
-1099.8759318295497
 30
0.0
 41
1.0
 10
938.39209671321942
 20
-1099.881080993383
 30
0.0
 41
1.0
 10
938.39200745002063
 20
-1099.8862301572162
 30
0.0
 41
1.0
 10
938.39048883689145
 20
-1099.9738316314542
 30
0.0
 41
0.999941556732227
 10
938.38707652664516
 20
-1100.0613797931328
 30
0.0
 41
1.0
 10
938.38683520596999
 20
-1100.0675712528664
 30
0.0
 41
1.0
 10
938.38659388529481
 20
-1100.0737627126002
 30
0.0
 41
1.0
 10
938.38269893369829
 20
-1100.1736937937494
 30
0.0
 41
0.9999716810426116
 10
938.37730035057984
 20
-1100.2735549319759
 30
0.0
 41
1.0
 10
938.3740875517916
 20
-1100.3329841816233
 30
0.0
 41
1.0
 10
938.37087475300336
 20
-1100.3924134312706
 30
0.0
 41
1.0
 10
938.36280084385021
 20
-1100.541761832563
 30
0.0
 41
0.9999819129914174
 10
938.35293105223286
 20
-1100.6910023102857
 30
0.0
 41
1.0
 10
938.34306126061631
 20
-1100.8402427879971
 30
0.0
 41
1.0
 10
938.34062194005242
 20
-1100.8774358338464
 30
0.0
 41
1.0
 10
938.36332017388281
 20
-1100.8386948365178
 30
0.0
 41
0.9999982127994569
 10
938.38616473264733
 20
-1100.8000399425446
 30
0.0
 41
1.0
 10
938.41307429252788
 20
-1100.7545067284964
 30
0.0
 41
1.0
 10
938.43998385240855
 20
-1100.7089735144484
 30
0.0
 41
1.0
 10
938.51664753093405
 20
-1100.5792521923793
 30
0.0
 41
0.9998609190057378
 10
938.59759484379663
 20
-1100.4521598104488
 30
0.0
 41
1.0
 10
938.6272431652792
 20
-1100.4056100774901
 30
0.0
 41
1.0
 10
938.65689148676188
 20
-1100.3590603445316
 30
0.0
 41
1.0
 10
938.7391637069984
 20
-1100.2298877745375
 30
0.0
 41
0.99990676097348
 10
938.82493271646081
 20
-1100.1030100850985
 30
0.0
 41
1.0
 10
938.82733741966047
 20
-1100.0994528190454
 30
0.0
 41
1.0
 10
938.82974212286013
 20
-1100.0958955529925
 30
0.0
 41
1.0
 10
938.91070172592117
 20
-1099.9761323956623
 30
0.0
 41
0.9998784952150989
 10
938.99535533560618
 20
-1099.8589511789487
 30
0.0
 41
1.0
 10
939.08000894528686
 20
-1099.7417699622406
 30
0.0
 41
0.9998532968284253
 10
939.16862656610863
 20
-1099.6275570537714
 30
0.0
 41
1.0
 10
939.18858835510105
 20
-1099.6018297327496
 30
0.0
 41
1.0
 10
939.20855014409358
 20
-1099.5761024117276
 30
0.0
 41
1.0
 10
939.32703419385189
 20
-1099.42339680076
 30
0.0
 41
0.9991551975795396
 10
939.45765864347482
 20
-1099.2809372386771
 30
0.0
 41
1.0
 10
939.46116825945319
 20
-1099.2771096370543
 30
0.0
 41
1.0
 10
939.46467787543156
 20
-1099.2732820354315
 30
0.0
 41
1.0
 10
939.58828309309649
 20
-1099.1384776765954
 30
0.0
 41
0.9997418144181018
 10
939.71788523279884
 20
-1099.0094282659811
 30
0.0
 41
1.0
 10
939.84748737249879
 20
-1098.8803788553691
 30
0.0
 41
0.9989238204633436
 10
939.98848992074886
 20
-1098.763893893331
 30
0.0
 41
1.0
 10
940.03373759888882
 20
-1098.7265139017218
 30
0.0
 41
1.0
 10
940.07898527702889
 20
-1098.6891339101128
 30
0.0
 41
1.0
 10
940.21922533425129
 20
-1098.5732788568212
 30
0.0
 41
0.9990825084096853
 10
940.36886526685498
 20
-1098.4698498589883
 30
0.0
 41
1.0
 10
940.37891063090854
 20
-1098.4629066459111
 30
0.0
 41
1.0
 10
940.38895599496209
 20
-1098.4559634328339
 30
0.0
 41
1.0
 10
940.51850519945401
 20
-1098.3664208611585
 30
0.0
 41
0.9998164899825488
 10
940.65138940283521
 20
-1098.2819066196389
 30
0.0
 41
1.0
 10
940.6632349633619
 20
-1098.2743728531127
 30
0.0
 41
1.0
 10
940.67508052388871
 20
-1098.2668390865865
 30
0.0
 41
1.0
 10
940.78427360621254
 20
-1098.197392378122
 30
0.0
 41
0.9997473449130691
 10
940.89647756346085
 20
-1098.132923420307
 30
0.0
 41
1.0
 10
941.00868152070916
 20
-1098.0684544624919
 30
0.0
 41
0.9999327861147479
 10
941.12235013146881
 20
-1098.0066044708126
 30
0.0
 41
1.0
 10
941.12290213403207
 20
-1098.0063041121321
 30
0.0
 41
1.0
 10
941.12345413659523
 20
-1098.0060037534515
 30
0.0
 41
1.0
 10
941.23822675247948
 20
-1097.9435530444121
 30
0.0
 41
0.9996956420483157
 10
941.35594007832071
 20
-1097.8868395774366
 30
0.0
 41
1.0
 10
941.38638048321218
 20
-1097.8721736007074
 30
0.0
 41
1.0
 10
941.41682088810353
 20
-1097.8575076239781
 30
0.0
 41
1.0
 10
941.51979799484729
 20
-1097.8078939655345
 30
0.0
 41
0.9998070570175864
 10
941.6246443837905
 20
-1097.7623633786325
 30
0.0
 41
1.0
 10
941.72949077273347
 20
-1097.7168327917309
 30
0.0
 41
0.9997827436147611
 10
941.83614370934311
 20
-1097.675711620419
 30
0.0
 41
1.0
 10
941.85536655897363
 20
-1097.668300046787
 30
0.0
 41
1.0
 10
941.87458940860415
 20
-1097.660888473155
 30
0.0
 41
1.0
 10
942.01968804447756
 20
-1097.6049441545781
 30
0.0
 41
0.9988031841976367
 10
942.16955840708204
 20
-1097.5634440904105
 30
0.0
 41
1.0
 10
942.19447565544601
 20
-1097.5565443446035
 30
0.0
 41
1.0
 10
942.2193929038101
 20
-1097.5496445987962
 30
0.0
 41
1.0
 10
942.38666292945641
 20
-1097.5033264563897
 30
0.0
 41
0.9984748040550027
 10
942.55801983810409
 20
-1097.4757322241251
 30
0.0
 41
1.0
 10
942.56275897435319
 20
-1097.4749690636118
 30
0.0
 41
1.0
 10
942.56749811060229
 20
-1097.4742059030982
 30
0.0
 41
1.0
 10
942.72937674675313
 20
-1097.4481379918602
 30
0.0
 41
0.9984436495479817
 10
942.89315149047775
 20
-1097.4402600380415
 30
0.0
 41
1.0
 10
942.91484869860903
 20
-1097.4392163508419
 30
0.0
 41
1.0
 10
942.93654590674032
 20
-1097.4381726636423
 30
0.0
 41
1.0
 10
943.05692623420248
 20
-1097.4323820842228
 30
0.0
 41
0.9987954789335177
 10
943.17729447911233
 20
-1097.4384186119651
 30
0.0
 41
1.0
 10
943.19725927160812
 20
-1097.4394198563036
 30
0.0
 41
1.0
 10
943.21722406410402
 20
-1097.4404211006424
 30
0.0
 41
1.0
 10
943.29766272402367
 20
-1097.4444551397075
 30
0.0
 41
0.9997941595876954
 10
943.37787150211659
 20
-1097.4517492056284
 30
0.0
 41
1.0
 10
943.45808028021156
 20
-1097.4590432715495
 30
0.0
 41
0.9998589466236565
 10
943.53799882706642
 20
-1097.4690271259997
 30
0.0
 41
1.0
 10
943.57040502887446
 20
-1097.4730754829188
 30
0.0
 41
1.0
 10
943.60281123068251
 20
-1097.477123839838
 30
0.0
 41
1.0
 10
943.74754218115459
 20
-1097.4952044081267
 30
0.0
 41
0.9993495063249344
 10
943.89059342492089
 20
-1097.5236701178683
 30
0.0
 41
1.0
 10
943.92352712207116
 20
-1097.5302235810827
 30
0.0
 41
1.0
 10
943.95646081922132
 20
-1097.5367770442972
 30
0.0
 41
1.0
 10
944.06575464242667
 20
-1097.5585253784327
 30
0.0
 41
0.9996788715560563
 10
944.17380621438463
 20
-1097.5857831777962
 30
0.0
 41
1.0
 10
944.17586921692418
 20
-1097.5863036043693
 30
0.0
 41
1.0
 10
944.17793221946386
 20
-1097.5868240309424
 30
0.0
 41
1.0
 10
944.28185778634179
 20
-1097.6130409771595
 30
0.0
 41
0.9995480654492639
 10
944.38402002157045
 20
-1097.6454559337835
 30
0.0
 41
1.0
 10
944.38570966369957
 20
-1097.6459920386974
 30
0.0
 41
1.0
 10
944.38739930582858
 20
-1097.6465281436115
 30
0.0
 41
1.0
 10
944.48618225679979
 20
-1097.677870890408
 30
0.0
 41
0.9993867959456058
 10
944.58252941524245
 20
-1097.7160502596978
 30
0.0
 41
1.0
 10
944.58377236432659
 20
-1097.7165428015937
 30
0.0
 41
1.0
 10
944.58501531341074
 20
-1097.7170353434897
 30
0.0
 41
1.0
 10
944.67887657368453
 20
-1097.7542296289873
 30
0.0
 41
0.9992050256521701
 10
944.76947624871832
 20
-1097.7987835282263
 30
0.0
 41
1.0
 10
944.77021093143173
 20
-1097.7991448206876
 30
0.0
 41
1.0
 10
944.77094561414515
 20
-1097.7995061131489
 30
0.0
 41
1.0
 10
944.86007592375256
 20
-1097.8433374274655
 30
0.0
 41
0.9990222350741896
 10
944.94498598514542
 20
-1097.8948706951633
 30
0.0
 41
1.0
 10
944.94516987042812
 20
-1097.894982298068
 30
0.0
 41
1.0
 10
944.9453537557107
 20
-1097.8950939009728
 30
0.0
 41
1.0
 10
945.02989604653862
 20
-1097.9464039628613
 30
0.0
 41
0.9988642743805378
 10
945.10917058115797
 20
-1098.0055281503869
 30
0.0
 41
1.0
 10
945.18844511577777
 20
-1098.0646523379128
 30
0.0
 41
0.9987681233310948
 10
945.26146890005373
 20
-1098.1313430293135
 30
0.0
 41
1.0
 10
945.26179782801933
 20
-1098.1316434305274
 30
0.0
 41
1.0
 10
945.26212675598481
 20
-1098.1319438317414
 30
0.0
 41
1.0
 10
945.33580839619253
 20
-1098.1992353255705
 30
0.0
 41
0.9987496570898327
 10
945.40240220151964
 20
-1098.2735481396571
 30
0.0
 41
1.0
 10
945.4031743712801
 20
-1098.2744098130152
 30
0.0
 41
1.0
 10
945.40394654104057
 20
-1098.275271486373
 30
0.0
 41
1.0
 10
945.47208468588769
 20
-1098.3513076471741
 30
0.0
 41
0.9988147669826568
 10
945.53250694011274
 20
-1098.4336086540166
 30
0.0
 41
1.0
 10
945.53362626619094
 20
-1098.4351332853698
 30
0.0
 41
1.0
 10
945.53474559226913
 20
-1098.4366579167229
 30
0.0
 41
1.0
 10
945.59740649865012
 20
-1098.5220081862715
 30
0.0
 41
0.9989452636216534
 10
945.65197341161115
 20
-1098.6127468754287
 30
0.0
 41
1.0
 10
945.6533221376967
 20
-1098.6149896564548
 30
0.0
 41
1.0
 10
945.65467086378226
 20
-1098.6172324374807
 30
0.0
 41
1.0
 10
945.71193522891508
 20
-1098.7124566886907
 30
0.0
 41
0.9991046436070149
 10
945.76094444223668
 20
-1098.8121811217163
 30
0.0
 41
1.0
 10
945.76240830382665
 20
-1098.8151598017889
 30
0.0
 41
1.0
 10
945.76387216541661
 20
-1098.8181384818613
 30
0.0
 41
1.0
 10
945.81580910191849
 20
-1098.9238202750319
 30
0.0
 41
0.9992763831100686
 10
945.85956223047356
 20
-1099.0331443369878
 30
0.0
 41
1.0
 10
945.86104150013682
 20
-1099.0368405245213
 30
0.0
 41
1.0
 10
945.86252076980008
 20
-1099.0405367120547
 30
0.0
 41
1.0
 10
945.90923243768202
 20
-1099.1572531490783
 30
0.0
 41
0.9994163472883417
 10
945.94786546887065
 20
-1099.2768867375391
 30
0.0
 41
1.0
 10
945.94910362111762
 20
-1099.2807208813226
 30
0.0
 41
1.0
 10
945.95034177336458
 20
-1099.2845550251061
 30
0.0
 41
1.0
 10
945.99022533438279
 20
-1099.4080610865874
 30
0.0
 41
0.9997268055890305
 10
946.02429339029436
 20
-1099.5332961185366
 30
0.0
 41
1.0
 10
946.02522357056341
 20
-1099.5367154846433
 30
0.0
 41
1.0
 10
946.02615375083235
 20
-1099.5401348507501
 30
0.0
 41
1.0
 10
946.05836144620537
 20
-1099.6585311504825
 30
0.0
 41
0.9996701318999964
 10
946.08444706297678
 20
-1099.7784251037506
 30
0.0
 41
1.0
 10
946.11053267974671
 20
-1099.8983190570102
 30
0.0
 41
0.9995785451109173
 10
946.12961625708647
 20
-1100.0195248180421
 30
0.0
 41
1.0
 10
946.13383603926059
 20
-1100.0463259728092
 30
0.0
 41
1.0
 10
946.13805582143459
 20
-1100.0731271275763
 30
0.0
 41
1.0
 10
946.16463079737298
 20
-1100.2419131012784
 30
0.0
 41
0.9979925101216898
 10
946.16965638329941
 20
-1100.4127044293705
 30
0.0
 41
1.0
 10
946.17048119572405
 20
-1100.4407351528489
 30
0.0
 41
1.0
 10
946.17130600814858
 20
-1100.4687658763273
 30
0.0
 41
1.0
 10
946.17468196922596
 20
-1100.5834957574568
 30
0.0
 41
0.9995314902262761
 10
946.17103177708725
 20
-1100.698217241214
 30
0.0
 41
1.0
 10
946.16738158494854
 20
-1100.8129387249687
 30
0.0
 41
0.9996245486944617
 10
946.15745248981784
 20
-1100.9272879960918
 30
0.0
 41
1.0
 10
946.15728944182365
 20
-1100.9291657522263
 30
0.0
 41
1.0
 10
946.15712639382946
 20
-1100.9310435083605
 30
0.0
 41
1.0
 10
946.14687120271037
 20
-1101.0491482917528
 30
0.0
 41
0.9997286095000623
 10
946.13112587913872
 20
-1101.1666472006486
 30
0.0
 41
1.0
 10
946.13073238648826
 20
-1101.1695836253512
 30
0.0
 41
1.0
 10
946.13033889383792
 20
-1101.1725200500534
 30
0.0
 41
1.0
 10
946.1138065849658
 20
-1101.2958918083514
 30
0.0
 41
0.9998265533969457
 10
946.09269112623338
 20
-1101.4185622831392
 30
0.0
 41
1.0
 10
946.09201458409609
 20
-1101.4224926616473
 30
0.0
 41
1.0
 10
946.09133804195881
 20
-1101.4264230401554
 30
0.0
 41
1.0
 10
946.06886949895124
 20
-1101.5569542719622
 30
0.0
 41
0.9999022530855523
 10
946.04276003434097
 20
-1101.6868062406022
 30
0.0
 41
1.0
 10
946.04178139317605
 20
-1101.6916733829871
 30
0.0
 41
1.0
 10
946.04080275201125
 20
-1101.6965405253718
 30
0.0
 41
1.0
 10
946.01273600506897
 20
-1101.8361267787923
 30
0.0
 41
0.9999524761939338
 10
945.98195303623277
 20
-1101.9751392719629
 30
0.0
 41
1.0
 10
945.98067692905875
 20
-1101.9809020312587
 30
0.0
 41
1.0
 10
945.97940082188484
 20
-1101.9866647905542
 30
0.0
 41
1.0
 10
945.9460656386982
 20
-1102.1372028023279
 30
0.0
 41
0.9999813588725679
 10
945.91089463790081
 20
-1102.2873225149901
 30
0.0
 41
1.0
 10
945.90934071244556
 20
-1102.2939551054071
 30
0.0
 41
1.0
 10
945.9077867869903
 20
-1102.3005876958241
 30
0.0
 41
1.0
 10
945.86950793528536
 20
-1102.4639725893076
 30
0.0
 41
0.9999955237628675
 10
945.83025205729962
 20
-1102.6271254929366
 30
0.0
 41
1.0
 10
945.8179704216659
 20
-1102.6781696834569
 30
0.0
 41
1.0
 10
945.80568878603208
 20
-1102.7292138739774
 30
0.0
 41
1.0
 10
945.74186963677914
 20
-1102.9944551586455
 30
0.0
 41
0.9999993604332911
 10
945.67745068963188
 20
-1103.2595514092436
 30
0.0
 41
1.0
 10
945.67273185407635
 20
-1103.2789703173191
 30
0.0
 41
1.0
 10
945.66801301852081
 20
-1103.2983892253947
 30
0.0
 41
1.0
 10
945.594156400261
 20
-1103.6023232921518
 30
0.0
 41
0.9999659914731711
 10
945.51529680437613
 20
-1103.9049978387088
 30
0.0
 41
1.0
 10
945.51034411544492
 20
-1103.9240069758935
 30
0.0
 41
1.0
 10
945.50539142651382
 20
-1103.9430161130779
 30
0.0
 41
1.0
 10
945.4166264527704
 20
-1104.2837089339898
 30
0.0
 41
0.9999441976024506
 10
945.32068341980812
 20
-1104.6224503592848
 30
0.0
 41
1.0
 10
945.303982901381
 20
-1104.6814140718182
 30
0.0
 41
1.0
 10
945.28728238295389
 20
-1104.7403777843515
 30
0.0
 41
1.0
 10
945.15793831313897
 20
-1105.1970466347066
 30
0.0
 41
0.9999625120735777
 10
945.02070554581542
 20
-1105.6514071687031
 30
0.0
 41
1.0
 10
944.98491560273226
 20
-1105.7699031953307
 30
0.0
 41
1.0
 10
944.9491256596491
 20
-1105.8883992219583
 30
0.0
 41
1.0
 10
944.87460545560907
 20
-1106.1351263000574
 30
0.0
 41
0.9999793386305091
 10
944.79691943247121
 20
-1106.380874939294
 30
0.0
 41
1.0
 10
944.7192334093337
 20
-1106.6266235785301
 30
0.0
 41
1.0
 10
944.708453850463
 20
-1106.6606414829048
 30
0.0
 41
1.0
 10
942.85808079719391
 20
-1112.5477134053722
 30
0.0
 41
1.0
 10
941.0077077439247
 20
-1118.4347853278398
 30
0.0
 41
1.0
 10
940.04645105390114
 20
-1118.4347853278398
 30
0.0
 41
1.0
 10
939.08519436387758
 20
-1118.4347853278398
 30
0.0
 41
1.0
 10
940.70413914255596
 20
-1113.2867568260504
 30
0.0
 41
1.0
 10
942.32308392123446
 20
-1108.1387283242609
 30
0.0
 41
1.0
 10
942.36824974440469
 20
-1107.9946971020042
 30
0.0
 41
1.0
 10
942.41341556757482
 20
-1107.8506658797476
 30
0.0
 41
1.0
 10
942.58371998493703
 20
-1107.3075748505862
 30
0.0
 41
0.9999911657933933
 10
942.74945279662597
 20
-1106.763071319195
 30
0.0
 41
1.0
 10
942.77914874012708
 20
-1106.6655073791424
 30
0.0
 41
1.0
 10
942.80884468362819
 20
-1106.5679434390897
 30
0.0
 41
1.0
 10
942.91518560830661
 20
-1106.2185677878301
 30
0.0
 41
0.9999952428160223
 10
943.01936919763125
 20
-1105.8685427634819
 30
0.0
 41
1.0
 10
943.02442866796468
 20
-1105.8515444892032
 30
0.0
 41
1.0
 10
943.02948813829823
 20
-1105.8345462149246
 30
0.0
 41
1.0
 10
943.12355278695372
 20
-1105.5185177391402
 30
0.0
 41
0.9999931687505125
 10
943.21527862482981
 20
-1105.2018025258617
 30
0.0
 41
1.0
 10
943.22021388928897
 20
-1105.1847618165916
 30
0.0
 41
1.0
 10
943.22514915374825
 20
-1105.1677211073215
 30
0.0
 41
1.0
 10
943.3070044627035
 20
-1104.8850873125912
 30
0.0
 41
0.999989384079751
 10
943.3862516891603
 20
-1104.6017111833446
 30
0.0
 41
1.0
 10
943.46549891561517
 20
-1104.3183350541053
 30
0.0
 41
0.9999833980073779
 10
943.54147515635339
 20
-1104.03406447109
 30
0.0
 41
1.0
 10
943.55047909307973
 20
-1104.0003755925964
 30
0.0
 41
1.0
 10
943.55948302980607
 20
-1103.9666867141029
 30
0.0
 41
1.0
 10
943.62844757867151
 20
-1103.7086508818102
 30
0.0
 41
0.9999233658069258
 10
943.69100254989064
 20
-1103.4489867230916
 30
0.0
 41
1.0
 10
943.75355752111091
 20
-1103.1893225643691
 30
0.0
 41
1.0
 10
943.79304093996848
 20
-1103.025515899943
 30
0.0
 41
1.0
 10
943.79801954394748
 20
-1103.0048609380656
 30
0.0
 41
1.0
 10
943.80299814792636
 20
-1102.9842059761882
 30
0.0
 41
1.0
 10
943.83252435882855
 20
-1102.8617092355069
 30
0.0
 41
0.9999868670848447
 10
943.86079344282223
 20
-1102.7389162898714
 30
0.0
 41
1.0
 10
943.86469092998141
 20
-1102.7219867024482
 30
0.0
 41
1.0
 10
943.86858841714059
 20
-1102.7050571150251
 30
0.0
 41
1.0
 10
943.88906252682114
 20
-1102.6161233442144
 30
0.0
 41
0.9999778173355729
 10
943.9083501249338
 20
-1102.5269247269955
 30
0.0
 41
1.0
 10
943.92763772305125
 20
-1102.4377261097552
 30
0.0
 41
0.9999602692857482
 10
943.94533208168252
 20
-1102.3481978213265
 30
0.0
 41
1.0
 10
943.94853591375886
 20
-1102.3319873664468
 30
0.0
 41
1.0
 10
943.95173974583531
 20
-1102.3157769115674
 30
0.0
 41
1.0
 10
943.97584176862142
 20
-1102.1938277133684
 30
0.0
 41
0.9995617985320613
 10
943.99268511584023
 20
-1102.0706659656619
 30
0.0
 41
1.0
 10
943.99514960574629
 20
-1102.052645148297
 30
0.0
 41
1.0
 10
943.99761409565247
 20
-1102.0346243309323
 30
0.0
 41
1.0
 10
944.0178973567007
 20
-1101.886309281233
 30
0.0
 41
0.9991121410639424
 10
944.0256227102891
 20
-1101.7368131824251
 30
0.0
 41
1.0
 10
944.02654150031356
 20
-1101.7190333458504
 30
0.0
 41
1.0
 10
944.02746029033801
 20
-1101.7012535092758
 30
0.0
 41
1.0
 10
944.03334806387727
 20
-1101.5873170836203
 30
0.0
 41
0.9989792494905567
 10
944.02892897176002
 20
-1101.4733142477203
 30
0.0
 41
1.0
 10
944.02828099989119
 20
-1101.4565980017906
 30
0.0
 41
1.0
 10
944.02763302802248
 20
-1101.4398817558608
 30
0.0
 41
1.0
 10
944.02450987964232
 20
-1101.3593114118164
 30
0.0
 41
0.9997820295394413
 10
944.01802588226701
 20
-1101.278941690078
 30
0.0
 41
1.0
 10
944.01154188489136
 20
-1101.1985719683341
 30
0.0
 41
0.9998335105973902
 10
944.00212968937967
 20
-1101.1184923518845
 30
0.0
 41
1.0
 10
944.00053476470327
 20
-1101.1049226214011
 30
0.0
 41
1.0
 10
943.99893984002688
 20
-1101.0913528909177
 30
0.0
 41
1.0
 10
943.98633779516285
 20
-1100.9841338135043
 30
0.0
 41
0.9996876457879258
 10
943.96839388236424
 20
-1100.8776783857863
 30
0.0
 41
1.0
 10
943.96616221921897
 20
-1100.8644386505446
 30
0.0
 41
1.0
 10
943.96393055607371
 20
-1100.8511989153028
 30
0.0
 41
1.0
 10
943.95013473465224
 20
-1100.769352771342
 30
0.0
 41
0.9995547496494763
 10
943.93148141275992
 20
-1100.6884752741526
 30
0.0
 41
1.0
 10
943.93110745588888
 20
-1100.6868538634481
 30
0.0
 41
1.0
 10
943.93073349901772
 20
-1100.6852324527435
 30
0.0
 41
1.0
 10
943.91282809086715
 20
-1100.6075977769606
 30
0.0
 41
0.9994899427174981
 10
943.89000318218791
 20
-1100.5312644941268
 30
0.0
 41
1.0
 10
943.88954465544703
 20
-1100.5297310443375
 30
0.0
 41
1.0
 10
943.88908612870603
 20
-1100.5281975945484
 30
0.0
 41
1.0
 10
943.8671782735089
 20
-1100.4549312112938
 30
0.0
 41
0.9993784877591198
 10
943.84016263840203
 20
-1100.3833905061335
 30
0.0
 41
1.0
 10
943.83963094742512
 20
-1100.3819825234129
 30
0.0
 41
1.0
 10
943.83909925644821
 20
-1100.3805745406924
 30
0.0
 41
1.0
 10
943.81314700329528
 20
-1100.311849800974
 30
0.0
 41
0.9992430832254525
 10
943.78193046813612
 20
-1100.2453506489062
 30
0.0
 41
1.0
 10
943.7813483520797
 20
-1100.2441105937892
 30
0.0
 41
1.0
 10
943.78076623602328
 20
-1100.2428705386724
 30
0.0
 41
1.0
 10
943.75071393297708
 20
-1100.1788514968384
 30
0.0
 41
0.9990789632797902
 10
943.71528330620004
 20
-1100.1176448850883
 30
0.0
 41
1.0
 10
943.7146876000179
 20
-1100.1166157992288
 30
0.0
 41
1.0
 10
943.71409189383576
 20
-1100.1155867133696
 30
0.0
 41
1.0
 10
943.67985267942322
 20
-1100.0564382733382
 30
0.0
 41
0.9988874801119577
 10
943.64019340339132
 20
-1100.0007785609209
 30
0.0
 41
1.0
 10
943.63963787732678
 20
-1099.9999989092457
 30
0.0
 41
1.0
 10
943.63908235126223
 20
-1099.9992192575708
 30
0.0
 41
1.0
 10
943.60053412735897
 20
-1099.9451188485027
 30
0.0
 41
0.9986762060692752
 10
943.55663165608303
 20
-1099.8952651340637
 30
0.0
 41
1.0
 10
943.55618769575119
 20
-1099.8947609922475
 30
0.0
 41
1.0
 10
943.55574373541936
 20
-1099.8942568504312
 30
0.0
 41
1.0
 10
943.51272918480709
 20
-1099.845411419625
 30
0.0
 41
0.9984621642489052
 10
943.46457162802903
 20
-1099.8016281191535
 30
0.0
 41
1.0
 10
943.46432499351238
 20
-1099.8014038869901
 30
0.0
 41
1.0
 10
943.46407835899572
 20
-1099.8011796548265
 30
0.0
 41
1.0
 10
943.41641407125121
 20
-1099.7578448186823
 30
0.0
 41
0.9982724693850277
 10
943.36399543940979
 20
-1099.7204004681648
 30
0.0
 41
1.0
 10
943.31157680756803
 20
-1099.6829561176467
 30
0.0
 41
0.9981399180157394
 10
943.25499074417451
 20
-1099.6521695982033
 30
0.0
 41
1.0
 10
943.25494508209636
 20
-1099.6521447550463
 30
0.0
 41
1.0
 10
943.25489942001809
 20
-1099.6521199118893
 30
0.0
 41
1.0
 10
943.19822203246781
 20
-1099.6212837061314
 30
0.0
 41
0.9980927086836943
 10
943.13817668140155
 20
-1099.5976668972789
 30
0.0
 41
1.0
 10
943.13773651168981
 20
-1099.5974937714041
 30
0.0
 41
1.0
 10
943.13729634197807
 20
-1099.597320645529
 30
0.0
 41
1.0
 10
943.07637065148765
 20
-1099.5733575849263
 30
0.0
 41
0.9981411356561477
 10
943.01298213008727
 20
-1099.5569849434205
 30
0.0
 41
1.0
 10
943.01210001338666
 20
-1099.5567571012152
 30
0.0
 41
1.0
 10
943.01121789668605
 20
-1099.5565292590099
 30
0.0
 41
1.0
 10
942.94606514188399
 20
-1099.5397009330934
 30
0.0
 41
0.9983031812934696
 10
942.8793977128895
 20
-1099.5305615719174
 30
0.0
 41
1.0
 10
942.87052668748538
 20
-1099.5293454532459
 30
0.0
 41
1.0
 10
942.86165566208138
 20
-1099.5281293345745
 30
0.0
 41
1.0
 10
942.80730601957714
 20
-1099.5206786045835
 30
0.0
 41
0.9983887708264325
 10
942.75246217028428
 20
-1099.5194339309501
 30
0.0
 41
1.0
 10
942.74439876506869
 20
-1099.5192509330752
 30
0.0
 41
1.0
 10
942.73633535985311
 20
-1099.5190679352004
 30
0.0
 41
1.0
 10
942.69761832099323
 20
-1099.5181892573169
 30
0.0
 41
0.9998869563079159
 10
942.65889236778878
 20
-1099.5184751266765
 30
0.0
 41
1.0
 10
942.62016641458149
 20
-1099.5187609960362
 30
0.0
 41
0.9999972320124223
 10
942.58144223536431
 20
-1099.5192290955654
 30
0.0
 41
1.0
 10
942.56208921878988
 20
-1099.5194630356546
 30
0.0
 41
1.0
 10
942.54273620221534
 20
-1099.519696975744
 30
0.0
 41
1.0
 10
942.46530598984816
 20
-1099.5206329554519
 30
0.0
 41
0.9997304945088722
 10
942.38800268361433
 20
-1099.5251620492377
 30
0.0
 41
1.0
 10
942.37895304190647
 20
-1099.5256922552278
 30
0.0
 41
1.0
 10
942.3699034001985
 20
-1099.5262224612179
 30
0.0
 41
1.0
 10
942.27450081055349
 20
-1099.5318119669837
 30
0.0
 41
0.9997888306415969
 10
942.1794084747122
 20
-1099.5413169314725
 30
0.0
 41
1.0
 10
942.17068741313824
 20
-1099.5421886461047
 30
0.0
 41
1.0
 10
942.16196635156427
 20
-1099.5430603607369
 30
0.0
 41
1.0
 10
942.04943189257574
 20
-1099.5543087544904
 30
0.0
 41
0.9984170238191028
 10
941.93887274522422
 20
-1099.5781248364262
 30
0.0
 41
1.0
 10
941.90249161423799
 20
-1099.5859618722325
 30
0.0
 41
1.0
 10
941.86611048325176
 20
-1099.5937989080385
 30
0.0
 41
1.0
 10
941.75091941483038
 20
-1099.618612774548
 30
0.0
 41
0.9976592854198955
 10
941.64019124842548
 20
-1099.6589114516951
 30
0.0
 41
1.0
 10
941.52946308202092
 20
-1099.6992101288422
 30
0.0
 41
0.9993255074352395
 10
941.42199128323045
 20
-1099.7475270273344
 30
0.0
 41
1.0
 10
941.41736610430678
 20
-1099.7496064035342
 30
0.0
 41
1.0
 10
941.4127409253831
 20
-1099.7516857797341
 30
0.0
 41
1.0
 10
941.29601876874676
 20
-1099.8041614306258
 30
0.0
 41
0.9976475078275494
 10
941.18757142443644
 20
-1099.872109420284
 30
0.0
 41
1.0
 10
941.16922903030184
 20
-1099.8836018990983
 30
0.0
 41
1.0
 10
941.15088663616723
 20
-1099.8950943779128
 30
0.0
 41
1.0
 10
941.06668444461513
 20
-1099.9478514986811
 30
0.0
 41
0.9995131336407198
 10
940.98593672965615
 20
-1100.0057577106352
 30
0.0
 41
1.0
 10
940.9051890147008
 20
-1100.063663922587
 30
0.0
 41
0.9995810107606381
 10
940.82792736697183
 20
-1100.1261456050529
 30
0.0
 41
1.0
 10
940.82495733576081
 20
-1100.1285474765182
 30
0.0
 41
1.0
 10
940.82198730454979
 20
-1100.1309493479835
 30
0.0
 41
1.0
 10
940.73878559439936
 20
-1100.1982347733797
 30
0.0
 41
0.9996617837954935
 10
940.65919490726219
 20
-1100.2697552289412
 30
0.0
 41
1.0
 10
940.64706415638625
 20
-1100.280655961931
 30
0.0
 41
1.0
 10
940.63493340551031
 20
-1100.2915566949207
 30
0.0
 41
1.0
 10
940.56665787811323
 20
-1100.3529093103934
 30
0.0
 41
0.9997267750052307
 10
940.5013243698304
 20
-1100.417385846918
 30
0.0
 41
1.0
 10
940.43599086154472
 20
-1100.4818623834453
 30
0.0
 41
0.9999667288956335
 10
940.37171791838898
 20
-1100.547396190349
 30
0.0
 41
1.0
 10
940.30289047061933
 20
-1100.6175738491017
 30
0.0
 41
1.0
 10
940.2340630228498
 20
-1100.6877515078545
 30
0.0
 41
1.0
 10
940.03213518415043
 20
-1100.8936406322678
 30
0.0
 41
0.9988205335174498
 10
939.85112956717023
 20
-1101.1181448643299
 30
0.0
 41
1.0
 10
939.82048960226712
 20
-1101.1561481147578
 30
0.0
 41
1.0
 10
939.78984963736411
 20
-1101.1941513651857
 30
0.0
 41
1.0
 10
939.54756409057325
 20
-1101.4946620981084
 30
0.0
 41
0.9997077826755066
 10
939.32008613946664
 20
-1101.806531892327
 30
0.0
 41
1.0
 10
939.31836272433782
 20
-1101.8088946757043
 30
0.0
 41
1.0
 10
939.31663930920899
 20
-1101.8112574590816
 30
0.0
 41
1.0
 10
939.08571452784224
 20
-1102.1278528200578
 30
0.0
 41
0.9989147567078731
 10
938.88525102495805
 20
-1102.4645622812441
 30
0.0
 41
1.0
 10
938.86050987965314
 20
-1102.5061188617931
 30
0.0
 41
1.0
 10
938.83576873434811
 20
-1102.5476754423421
 30
0.0
 41
1.0
 10
938.68055743570801
 20
-1102.8083768267998
 30
0.0
 41
0.9997476598181834
 10
938.53721244819849
 20
-1103.0757865753819
 30
0.0
 41
1.0
 10
938.39386746068885
 20
-1103.3431963239643
 30
0.0
 41
0.9996258967109621
 10
938.26535920875722
 20
-1103.6180442605885
 30
0.0
 41
1.0
 10
938.25215929930528
 20
-1103.6462756606888
 30
0.0
 41
1.0
 10
938.23895938985345
 20
-1103.674507060789
 30
0.0
 41
1.0
 10
938.09875066885752
 20
-1103.9743794587339
 30
0.0
 41
0.9998735413946722
 10
937.96814932213738
 20
-1104.2785590582007
 30
0.0
 41
1.0
 10
937.96470649407797
 20
-1104.2865776436629
 30
0.0
 41
1.0
 10
937.96126366601868
 20
-1104.2945962291249
 30
0.0
 41
1.0
 10
937.83754797541678
 20
-1104.5827386576689
 30
0.0
 41
0.9999377418858403
 10
937.72029317324223
 20
-1104.8735701253436
 30
0.0
 41
1.0
 10
937.60303837106585
 20
-1105.1644015930224
 30
0.0
 41
0.9999508299510196
 10
937.49157442768887
 20
-1105.4575012698431
 30
0.0
 41
1.0
 10
937.48849365902686
 20
-1105.4656022958056
 30
0.0
 41
1.0
 10
937.48541289036484
 20
-1105.4737033217684
 30
0.0
 41
1.0
 10
937.3677874096627
 20
-1105.7830050505167
 30
0.0
 41
0.999960922843368
 10
937.2556488067878
 20
-1106.0943380665349
 30
0.0
 41
1.0
 10
937.25269279643851
 20
-1106.1025449069434
 30
0.0
 41
1.0
 10
937.24973678608922
 20
-1106.110751747352
 30
0.0
 41
1.0
 10
937.13168616252074
 20
-1106.4384984441735
 30
0.0
 41
0.9999674607398844
 10
937.01893863645125
 20
-1106.7681070641715
 30
0.0
 41
1.0
 10
936.96754024588631
 20
-1106.9183662598707
 30
0.0
 41
1.0
 10
936.91614185532126
 20
-1107.0686254555701
 30
0.0
 41
1.0
 10
936.80013124856396
 20
-1107.4077734380712
 30
0.0
 41
0.9999287532305496
 10
936.69224984459424
 20
-1107.7495941770444
 30
0.0
 41
1.0
 10
936.64577258844292
 20
-1107.8968567214538
 30
0.0
 41
1.0
 10
936.59929533229172
 20
-1108.0441192658634
 30
0.0
 41
1.0
 10
936.58436844057928
 20
-1108.0914149161597
 30
0.0
 41
0.9999998223316696
 10
936.56949793189301
 20
-1108.1387283242609
 30
0.0
 41
1.0
 10
934.94884179509756
 20
-1113.2867568260504
 30
0.0
 41
1.0
 10
933.32818565830212
 20
-1118.4347853278398
 30
0.0
 41
1.0
 10
932.42287721441119
 20
-1118.4347853278398
 30
0.0
 41
1.0
 10
931.51756877052026
 20
-1118.4347853278398
 30
0.0
 41
1.0
 10
933.3696531819063
 20
-1112.5477134053722
 30
0.0
 41
1.0
 10
935.22173759329235
 20
-1106.6606414829048
 30
0.0
 41
1.0
 10
935.23185935159506
 20
-1106.6285982694551
 30
0.0
 41
1.0
 10
935.3044670204448
 20
-1106.3982987276293
 30
0.0
 41
1.0
 10
935.37707468928966
 20
-1106.1679991858191
 30
0.0
 41
0.9999825681973007
 10
935.44695772850241
 20
-1105.9368582907505
 30
0.0
 41
1.0
 10
935.49524879066519
 20
-1105.7771337072479
 30
0.0
 41
1.0
 10
935.54353985282796
 20
-1105.6174091237453
 30
0.0
 41
1.0
 10
935.64069220614408
 20
-1105.2960739019736
 30
0.0
 41
0.9999672528959805
 10
935.7326310117669
 20
-1104.9732083563886
 30
0.0
 41
1.0
 10
935.73541989543469
 20
-1104.9634145110053
 30
0.0
 41
1.0
 10
935.73820877910248
 20
-1104.9536206656223
 30
0.0
 41
1.0
 10
935.82456981738926
 20
-1104.650342810806
 30
0.0
 41
0.9999899749175409
 10
935.90821142692494
 20
-1104.3463037223496
 30
0.0
 41
1.0
 10
935.91831734594075
 20
-1104.3095684846776
 30
0.0
 41
1.0
 10
935.92842326495656
 20
-1104.2728332470056
 30
0.0
 41
1.0
 10
935.99185303645743
 20
-1104.0422646339057
 30
0.0
 41
0.9999214200502784
 10
936.04948246483741
 20
-1103.8101782916879
 30
0.0
 41
1.0
 10
936.06224831702173
 20
-1103.7587674062765
 30
0.0
 41
1.0
 10
936.07501416920604
 20
-1103.707356520865
 30
0.0
 41
1.0
 10
936.10711189322069
 20
-1103.5780919494559
 30
0.0
 41
0.9999828681658809
 10
936.1376941452105
 20
-1103.4484604750112
 30
0.0
 41
1.0
 10
936.16827639720566
 20
-1103.3188290005455
 30
0.0
 41
0.9999389844479769
 10
936.1959873859945
 20
-1103.188553544647
 30
0.0
 41
1.0
 10
936.20312512971509
 20
-1103.1549974408081
 30
0.0
 41
1.0
 10
936.21026287343557
 20
-1103.1214413369689
 30
0.0
 41
1.0
 10
936.25224934966479
 20
-1102.924053673396
 30
0.0
 41
0.9998933699440751
 10
936.28845361406809
 20
-1102.725524065632
 30
0.0
 41
1.0
 10
936.28982643928407
 20
-1102.7179960449371
 30
0.0
 41
1.0
 10
936.29119926450016
 20
-1102.7104680242421
 30
0.0
 41
1.0
 10
936.33014917933497
 20
-1102.4968823750912
 30
0.0
 41
0.9996850305193085
 10
936.35833285559352
 20
-1102.2816113696558
 30
0.0
 41
1.0
 10
936.36032788896318
 20
-1102.2663730155316
 30
0.0
 41
1.0
 10
936.36232292233274
 20
-1102.2511346614074
 30
0.0
 41
1.0
 10
936.38973078479205
 20
-1102.041789434252
 30
0.0
 41
0.9994697936706279
 10
936.40345534401104
 20
-1101.8311042389246
 30
0.0
 41
1.0
 10
936.40393241326069
 20
-1101.8237807667142
 30
0.0
 41
1.0
 10
936.40440948251035
 20
-1101.8164572945041
 30
0.0
 41
1.0
 10
936.4171799032307
 20
-1101.6204190435947
 30
0.0
 41
0.9991804893136803
 10
936.41405158695784
 20
-1101.4239901936203
 30
0.0
 41
1.0
 10
936.41396770813571
 20
-1101.4187233922075
 30
0.0
 41
1.0
 10
936.41388382931359
 20
-1101.4134565907946
 30
0.0
 41
1.0
 10
936.41092327068509
 20
-1101.2275613436466
 30
0.0
 41
0.9988448329321524
 10
936.39013172506134
 20
-1101.0428087538135
 30
0.0
 41
1.0
 10
936.38853765135832
 20
-1101.0286438980422
 30
0.0
 41
1.0
 10
936.3869435776553
 20
-1101.014479042271
 30
0.0
 41
1.0
 10
936.36934017943759
 20
-1100.8580561639801
 30
0.0
 41
0.9985503209458704
 10
936.33502390713807
 20
-1100.7044319798908
 30
0.0
 41
1.0
 10
936.32743791506732
 20
-1100.6704716524923
 30
0.0
 41
1.0
 10
936.31985192299646
 20
-1100.636511325094
 30
0.0
 41
1.0
 10
936.30070763483911
 20
-1100.5508077958045
 30
0.0
 41
0.999103678137127
 10
936.2743827731872
 20
-1100.4670307084766
 30
0.0
 41
1.0
 10
936.27040054773101
 20
-1100.4543575459654
 30
0.0
 41
1.0
 10
936.26641832227483
 20
-1100.4416843834542
 30
0.0
 41
1.0
 10
936.24805791153585
 20
-1100.383253621151
 30
0.0
 41
0.9998874504367591
 10
936.22795270385768
 20
-1100.3254000189283
 30
0.0
 41
1.0
 10
936.2078474961794
 20
-1100.2675464167053
 30
0.0
 41
0.9994041637543277
 10
936.18379888324512
 20
-1100.2112177128158
 30
0.0
 41
1.0
 10
936.17960209902094
 20
-1100.2013876483334
 30
0.0
 41
1.0
 10
936.17540531479665
 20
-1100.1915575838509
 30
0.0
 41
1.0
 10
936.14752648380227
 20
-1100.1262574178841
 30
0.0
 41
0.999184684070209
 10
936.11447012710926
 20
-1100.063419386604
 30
0.0
 41
1.0
 10
936.11333352071415
 20
-1100.0612587701494
 30
0.0
 41
1.0
 10
936.11219691431916
 20
-1100.0590981536945
 30
0.0
 41
1.0
 10
936.08141377041625
 20
-1100.0005813553237
 30
0.0
 41
0.9989253167921961
 10
936.04534434636116
 20
-1099.9451664269336
 30
0.0
 41
1.0
 10
936.04429022168654
 20
-1099.9435469321706
 30
0.0
 41
1.0
 10
936.04323609701191
 20
-1099.9419274374079
 30
0.0
 41
1.0
 10
936.00927492230596
 20
-1099.8897514985429
 30
0.0
 41
0.9986467172835135
 10
935.97007776966893
 20
-1099.8413854649139
 30
0.0
 41
1.0
 10
935.96920364096763
 20
-1099.8403068626349
 30
0.0
 41
1.0
 10
935.96832951226645
 20
-1099.8392282603561
 30
0.0
 41
1.0
 10
935.93088061703031
 20
-1099.7930194312828
 30
0.0
 41
0.9984001104267284
 10
935.8884538865143
 20
-1099.7513343239152
 30
0.0
 41
1.0
 10
935.8878667484048
 20
-1099.7507574490339
 30
0.0
 41
1.0
 10
935.88727961029542
 20
-1099.7501805741526
 30
0.0
 41
1.0
 10
935.84602715599658
 20
-1099.709649216546
 30
0.0
 41
0.9982442159082056
 10
935.80027105466161
 20
-1099.6742806552863
 30
0.0
 41
1.0
 10
935.80005625919955
 20
-1099.6741146226429
 30
0.0
 41
1.0
 10
935.79984146373749
 20
-1099.6739485899996
 30
0.0
 41
1.0
 10
935.75451495332561
 20
-1099.638912094026
 30
0.0
 41
0.9982450060835437
 10
935.70536397425417
 20
-1099.6094803109927
 30
0.0
 41
1.0
 10
935.65621299518295
 20
-1099.5800485279594
 30
0.0
 41
0.998392263963522
 10
935.60404668901754
 20
-1099.5563688933048
 30
0.0
 41
1.0
 10
935.60381981169303
 20
-1099.5562659078234
 30
0.0
 41
1.0
 10
935.60359293436863
 20
-1099.5561629223421
 30
0.0
 41
1.0
 10
935.55097287355488
 20
-1099.5322773167252
 30
0.0
 41
0.998651714715001
 10
935.49615990068673
 20
-1099.5139761976034
 30
0.0
 41
1.0
 10
935.49548197925901
 20
-1099.513749851172
 30
0.0
 41
1.0
 10
935.49480405783129
 20
-1099.5135235047405
 30
0.0
 41
1.0
 10
935.43863524210747
 20
-1099.4947696927559
 30
0.0
 41
0.9989435598956137
 10
935.38098185495573
 20
-1099.4812519905213
 30
0.0
 41
1.0
 10
935.37990173537423
 20
-1099.4809987402682
 30
0.0
 41
1.0
 10
935.37882161579273
 20
-1099.4807454900154
 30
0.0
 41
1.0
 10
935.31900798947822
 20
-1099.4667212872748
 30
0.0
 41
0.9992249241239819
 10
935.25827648058089
 20
-1099.4574459445598
 30
0.0
 41
1.0
 10
935.25686279228967
 20
-1099.4572300361519
 30
0.0
 41
1.0
 10
935.25544910399856
 20
-1099.4570141277441
 30
0.0
 41
1.0
 10
935.19189021851889
 20
-1099.4473069682131
 30
0.0
 41
0.9994396597833383
 10
935.12782428198147
 20
-1099.4418740458673
 30
0.0
 41
1.0
 10
935.108683614504
 20
-1099.4402508781486
 30
0.0
 41
1.0
 10
935.08954294702653
 20
-1099.43862771043
 30
0.0
 41
1.0
 10
934.98719567553394
 20
-1099.4299484526471
 30
0.0
 41
0.9987693403121468
 10
934.88449205194672
 20
-1099.4314515160997
 30
0.0
 41
1.0
 10
934.87423771772069
 20
-1099.431601587874
 30
0.0
 41
1.0
 10
934.86398338349477
 20
-1099.4317516596482
 30
0.0
 41
1.0
 10
934.75442761731483
 20
-1099.4333550039355
 30
0.0
 41
0.9989753644966377
 10
934.64546561729708
 20
-1099.4448580108606
 30
0.0
 41
1.0
 10
934.53650361728069
 20
-1099.4563610177859
 30
0.0
 41
0.9983190067306238
 10
934.42960480631621
 20
-1099.4803960095726
 30
0.0
 41
1.0
 10
934.42070385470925
 20
-1099.4823972881354
 30
0.0
 41
1.0
 10
934.41180290310217
 20
-1099.484398566698
 30
0.0
 41
1.0
 10
934.28710218892525
 20
-1099.5124361156097
 30
0.0
 41
0.9985539388303673
 10
934.16613243524841
 20
-1099.5536997916547
 30
0.0
 41
1.0
 10
934.16378700428686
 20
-1099.554499835471
 30
0.0
 41
1.0
 10
934.16144157332519
 20
-1099.5552998792873
 30
0.0
 41
1.0
 10
934.03578095772582
 20
-1099.5981636429649
 30
0.0
 41
0.9988468746493592
 10
933.91481061542436
 20
-1099.652881728028
 30
0.0
 41
1.0
 10
933.91162779343665
 20
-1099.6543214025874
 30
0.0
 41
1.0
 10
933.90844497144894
 20
-1099.655761077147
 30
0.0
 41
1.0
 10
933.7811089851715
 20
-1099.713358511329
 30
0.0
 41
0.9991322885919013
 10
933.65900840111556
 20
-1099.7813538435105
 30
0.0
 41
1.0
 10
933.64140639007053
 20
-1099.7911560455009
 30
0.0
 41
1.0
 10
933.6238043790255
 20
-1099.8009582474913
 30
0.0
 41
1.0
 10
933.52162769796894
 20
-1099.8578583632716
 30
0.0
 41
0.9993860037849071
 10
933.423686693896
 20
-1099.9217743788599
 30
0.0
 41
1.0
 10
933.41806838104367
 20
-1099.9254408735549
 30
0.0
 41
1.0
 10
933.41245006819133
 20
-1099.9291073682498
 30
0.0
 41
1.0
 10
933.32574568982091
 20
-1099.9856903944496
 30
0.0
 41
0.9998821494952946
 10
933.24081931400974
 20
-1100.0449086245253
 30
0.0
 41
1.0
 10
933.15589293819937
 20
-1100.1041268546003
 30
0.0
 41
0.9997976482743735
 10
933.07341730780047
 20
-1100.1667132626383
 30
0.0
 41
1.0
 10
933.058781042992
 20
-1100.1778199524208
 30
0.0
 41
1.0
 10
933.04414477818352
 20
-1100.1889266422033
 30
0.0
 41
1.0
 10
932.93239661816938
 20
-1100.2737264298053
 30
0.0
 41
0.999809163080035
 10
932.82404634014154
 20
-1100.362826780507
 30
0.0
 41
1.0
 10
932.81104058766459
 20
-1100.3735218809527
 30
0.0
 41
1.0
 10
932.79803483518776
 20
-1100.3842169813984
 30
0.0
 41
1.0
 10
932.66367305220547
 20
-1100.4947075329919
 30
0.0
 41
0.9995035112317203
 10
932.53653717444195
 20
-1100.613441350007
 30
0.0
 41
1.0
 10
932.52688986405281
 20
-1100.6224510961665
 30
0.0
 41
1.0
 10
932.51724255366366
 20
-1100.6314608423261
 30
0.0
 41
1.0
 10
932.39381949090046
 20
-1100.7467272140798
 30
0.0
 41
0.9994630424299025
 10
932.2782110851183
 20
-1100.8698299573134
 30
0.0
 41
1.0
 10
932.27452824634543
 20
-1100.873751536828
 30
0.0
 41
1.0
 10
932.27084540757244
 20
-1100.8776731163427
 30
0.0
 41
1.0
 10
932.16260267933308
 20
-1100.99293270055
 30
0.0
 41
0.9995160693750003
 10
932.06173664980236
 20
-1101.1147001184213
 30
0.0
 41
1.0
 10
932.05980292972254
 20
-1101.1170345426285
 30
0.0
 41
1.0
 10
932.0578692096426
 20
-1101.1193689668355
 30
0.0
 41
1.0
 10
931.96087062027175
 20
-1101.2364675362921
 30
0.0
 41
0.999656147051488
 10
931.87014440160453
 20
-1101.3584902987429
 30
0.0
 41
1.0
 10
931.8639867356992
 20
-1101.3667720877897
 30
0.0
 41
1.0
 10
931.85782906979398
 20
-1101.3750538768363
 30
0.0
 41
1.0
 10
931.77941818293493
 20
-1101.4805130611971
 30
0.0
 41
0.999834905517257
 10
931.70489090100637
 20
-1101.5887516448556
 30
0.0
 41
1.0
 10
931.63036361908121
 20
-1101.6969902285089
 30
0.0
 41
0.9999728109567746
 10
931.55744072317952
 20
-1101.8063161540508
 30
0.0
 41
1.0
 10
931.55612550776004
 20
-1101.8082879235649
 30
0.0
 41
1.0
 10
931.55481029234056
 20
-1101.8102596930792
 30
0.0
 41
1.0
 10
931.47925696559821
 20
-1101.9235291576524
 30
0.0
 41
0.9999972147275646
 10
931.40423915521956
 20
-1102.0371540004955
 30
0.0
 41
1.0
 10
931.39926761260381
 20
-1102.0446840889576
 30
0.0
 41
1.0
 10
931.39429606998817
 20
-1102.05221417742
 30
0.0
 41
1.0
 10
931.30933517437586
 20
-1102.1808991971905
 30
0.0
 41
0.9999371979005065
 10
931.22727982497884
 20
-1102.311456110956
 30
0.0
 41
1.0
 10
931.22377094060994
 20
-1102.3170390390324
 30
0.0
 41
1.0
 10
931.22026205624115
 20
-1102.3226219671085
 30
0.0
 41
1.0
 10
931.13118893810929
 20
-1102.4643447370224
 30
0.0
 41
0.9998272025610072
 10
931.0474455472264
 20
-1102.6092806137665
 30
0.0
 41
1.0
 10
931.03223037520434
 20
-1102.6356137282196
 30
0.0
 41
1.0
 10
931.01701520318238
 20
-1102.6619468426729
 30
0.0
 41
1.0
 10
930.9028414682532
 20
-1102.8595489483273
 30
0.0
 41
0.9995217214838156
 10
930.80110177869676
 20
-1103.0638312761905
 30
0.0
 41
1.0
 10
930.79345821606125
 20
-1103.0791787258945
 30
0.0
 41
1.0
 10
930.78581465342575
 20
-1103.0945261755983
 30
0.0
 41
1.0
 10
930.69890936083539
 20
-1103.2690226336811
 30
0.0
 41
0.9998269762607489
 10
930.6185548945648
 20
-1103.4466309204015
 30
0.0
 41
1.0
 10
930.53820042829489
 20
-1103.6242392071206
 30
0.0
 41
0.9998944747388798
 10
930.4630396337318
 20
-1103.8041069327453
 30
0.0
 41
1.0
 10
930.45808596413849
 20
-1103.8159615876675
 30
0.0
 41
1.0
 10
930.4531322945453
 20
-1103.82781624259
 30
0.0
 41
1.0
 10
930.37248523399069
 20
-1104.020813182613
 30
0.0
 41
0.9999506734408782
 10
930.29568770508899
 20
-1104.2153739874643
 30
0.0
 41
1.0
 10
930.28108773981285
 20
-1104.2523619092835
 30
0.0
 41
1.0
 10
930.26648777453659
 20
-1104.289349831103
 30
0.0
 41
1.0
 10
930.21889017618219
 20
-1104.4099347923293
 30
0.0
 41
0.9999912393946779
 10
930.17230373216285
 20
-1104.5309139950164
 30
0.0
 41
1.0
 10
930.12571728813919
 20
-1104.6518931977153
 30
0.0
 41
0.9999927113991551
 10
930.08005599374542
 20
-1104.7732246052162
 30
0.0
 41
1.0
 10
930.06608756234812
 20
-1104.8103415872142
 30
0.0
 41
1.0
 10
930.05211913095081
 20
-1104.847458569212
 30
0.0
 41
1.0
 10
929.97852097376142
 20
-1105.0430239407108
 30
0.0
 41
0.9999487550950048
 10
929.90889734879408
 20
-1105.2400393058813
 30
0.0
 41
1.0
 10
929.88530373885351
 20
-1105.3068026161845
 30
0.0
 41
1.0
 10
929.86171012891282
 20
-1105.373565926488
 30
0.0
 41
1.0
 10
929.76702449454433
 20
-1105.6414997613069
 30
0.0
 41
0.9999808436937928
 10
929.67566290590366
 20
-1105.9105851925692
 30
0.0
 41
1.0
 10
929.58430131725902
 20
-1106.1796706238433
 30
0.0
 41
0.999987393292162
 10
929.49564660854469
 20
-1106.4496599788454
 30
0.0
 41
1.0
 10
929.47555425167502
 20
-1106.510849311599
 30
0.0
 41
1.0
 10
929.45546189480547
 20
-1106.5720386443529
 30
0.0
 41
1.0
 10
929.32662247234975
 20
-1106.9644066648686
 30
0.0
 41
0.9999794883025784
 10
929.20281968739141
 20
-1107.3583928711469
 30
0.0
 41
1.0
 10
929.19166742795414
 20
-1107.3938834813832
 30
0.0
 41
1.0
 10
929.18051516851688
 20
-1107.4293740916196
 30
0.0
 41
1.0
 10
929.03795700462047
 20
-1107.8830468437027
 30
0.0
 41
0.9999982761835015
 10
928.89708456460289
 20
-1108.3372458658332
 30
0.0
 41
1.0
 10
927.30894423203029
 20
-1113.3860155968364
 30
0.0
 41
1.0
 10
925.72080389945768
 20
-1118.4347853278398
 30
0.0
 41
1.0
 10
924.77205328798129
 20
-1118.4347853278398
 30
0.0
 41
1.0
 10
923.82330267650491
 20
-1118.4347853278398
 30
0.0
 41
1.0
 10
927.06158716265804
 20
-1108.1074631278937
 30
0.0
 41
1.0
 10
930.29987164881129
 20
-1097.7801409279475
 30
0.0
 41
1.0
  0
LWPOLYLINE
  5
6B
100
AcDbEntity
  8
0
370
              15
390
0
  6
Continuous
 62
               7
100
AcDbPolyline
 90
      232
 70
             128
 10
904.59632587498425
 20
-1098.8644837594627
 42
0.000437080068672
 10
904.54344870090802
 20
-1098.9331503987241
 10
904.50416446978477
 20
-1098.9842575116154
 42
0.0030481992175739
 10
904.37382575265565
 20
-1099.1559792039729
 10
904.33531408091517
 20
-1099.2073659877478
 42
0.0042058245754892
 10
904.13132903024484
 20
-1099.4843717328222
 10
904.07892390774464
 20
-1099.5568045796022
 42
0.0120948898743192
 10
903.78287999098518
 20
-1099.9875541841484
 10
903.68668749185622
 20
-1100.135034919384
 42
0.0141601263949725
 10
903.38304344493929
 20
-1100.6307042561116
 10
903.34350617751534
 20
-1100.69954822354
 42
0.0071131081299427
 10
903.13823385427486
 20
-1101.0690510223815
 42
0.0068458791003174
 10
902.94335432742503
 20
-1101.4441425858708
 10
902.93654246497408
 20
-1101.4577042995811
 42
0.0064120880286279
 10
902.73840021493595
 20
-1101.8651287744869
 10
902.73086552941277
 20
-1101.8811406312213
 42
0.0058857236449179
 10
902.52811013754115
 20
-1102.325516742256
 10
902.51993521124712
 20
-1102.3440068958903
 42
0.0053189741894369
 10
902.31123089857567
 20
-1102.8299703698176
 10
902.30248309289823
 20
-1102.8509522480044
 42
0.0047503650418229
 10
902.08650936674837
 20
-1103.3831516812118
 10
902.07724111839934
 20
-1103.406628057322
 42
0.0042071762170169
 10
901.85269373467349
 20
-1103.9897216513866
 10
901.84294433232299
 20
-1104.0156878262615
 42
0.0036680086484977
 10
901.60848968900757
 20
-1104.6543232108017
 10
901.59828190916312
 20
-1104.682771745137
 42
0.0032573142626997
 10
901.35264962318979
 20
-1105.3816244049094
 10
901.28399910235566
 20
-1105.5810874889435
 42
0.0026133366648846
 10
900.93555390359779
 20
-1106.6109507726153
 10
900.8722971161078
 20
-1106.8011816079759
 42
0.0020592950738082
 10
900.65843404712996
 20
-1107.4532852606214
 10
900.65538225597174
 20
-1107.4627217490158
 42
0.0025609928536041
 10
900.45356175448103
 20
-1108.097866971397
 10
900.45097038735139
 20
-1108.106169312347
 42
0.003136235624023
 10
900.26147960167737
 20
-1108.7269321685171
 10
900.2593485587447
 20
-1108.7340734747456
 42
0.003722991802947
 10
900.08254817182365
 20
-1109.3430587767025
 10
900.08086958262231
 20
-1109.3490056668588
 42
0.004307762370812
 10
899.91712878055216
 20
-1109.9488243986457
 42
0.0047654161822918
 10
899.76430005803491
 20
-1110.5515104875535
 10
899.72983544919703
 20
-1110.693072264698
 42
0.0112969368444846
 10
899.53397109105401
 20
-1111.5847644253195
 10
899.50596470195683
 20
-1111.7275924714199
 42
0.013005676257199
 10
899.30512745831015
 20
-1112.9145335430649
 10
899.28458770816314
 20
-1113.0586116565412
 42
0.013872153214432
 10
899.18088470362522
 20
-1113.9654411423676
 10
899.16158921571707
 20
-1114.1889388642958
 42
0.0071254697010599
 10
899.12824256979479
 20
-1114.65212587314
 10
899.12328159563094
 20
-1114.738129867711
 42
0.0028881799208027
 10
899.10814330234166
 20
-1115.0298715775425
 42
0.0060297297135906
 10
899.09821110256598
 20
-1115.3218205136625
 10
899.09714882089884
 20
-1115.3702128855969
 42
0.0229523164159375
 10
899.10487984868473
 20
-1115.692967731874
 10
899.10910562220533
 20
-1115.7533712658931
 42
0.0123673300674816
 10
899.12818426872343
 20
-1115.954491991065
 42
0.0128577674470165
 10
899.15737965912899
 20
-1116.1543898409875
 10
899.16450553251673
 20
-1116.1957186555887
 42
0.028571785376387
 10
899.22899953421245
 20
-1116.4738348069022
 10
899.24266805787863
 20
-1116.5204895763784
 42
0.031628309915651
 10
899.35847863779304
 20
-1116.8395040782052
 10
899.36152732954861
 20
-1116.8464904505308
 42
0.0338984824238197
 10
899.51095904051579
 20
-1117.1340564147199
 10
899.51326776988617
 20
-1117.1378474439966
 42
0.0350228718357741
 10
899.69562806055922
 20
-1117.3948994286727
 10
899.6965133123341
 20
-1117.3959785064367
 42
0.0347476747524966
 10
899.91093799957434
 20
-1117.6231635536569
 42
0.0331337701912438
 10
900.15418132532056
 20
-1117.8192922157339
 10
900.15528142383687
 20
-1117.8200649189066
 42
0.0305233319079946
 10
900.42382611940991
 20
-1117.9851930889979
 10
900.4270561639114
 20
-1117.9869171008609
 42
0.0273744481151985
 10
900.71960987548573
 20
-1118.1230552447512
 10
900.72471441062328
 20
-1118.1250988292209
 42
0.0240964406196628
 10
901.04019148626901
 20
-1118.2340825555023
 10
901.04677481547901
 20
-1118.2360072951774
 42
0.0209636179808767
 10
901.38417496813179
 20
-1118.3194754431095
 10
901.39180742858025
 20
-1118.3210273561108
 42
0.0181388704692253
 10
901.75012982057876
 20
-1118.3804434493247
 10
901.75841066895691
 20
-1118.3815096331418
 42
0.0156086547584461
 10
902.13659803314215
 20
-1118.4182458197183
 10
902.17979328547779
 20
-1118.4210843221977
 42
0.0137148329024488
 10
902.50746643077161
 20
-1118.4336045774489
 10
902.55340262070911
 20
-1118.4340990105641
 42
0.0051057823885197
 10
902.78954820728984
 20
-1118.4342292649731
 42
0.0052256693316546
 10
903.02564549107444
 20
-1118.4294804405088
 10
903.09587227481791
 20
-1118.4273334744948
 42
0.0161507179048332
 10
903.47160935291924
 20
-1118.4036831041683
 10
903.49162231329228
 20
-1118.4017729088807
 42
0.0101216737832246
 10
903.90564953478167
 20
-1118.3537799785154
 10
903.93970282420969
 20
-1118.3491322817056
 42
0.0245291776398438
 10
904.41649247976136
 20
-1118.2600572036292
 10
904.50131579528636
 20
-1118.2398612832831
 42
0.0143509212558649
 10
904.85794689922443
 20
-1118.1440566495048
 42
0.0156557857036023
 10
905.20816296395299
 20
-1118.0270454336855
 10
905.21566417844633
 20
-1118.0242752719319
 42
0.0170137333631044
 10
905.57226017413097
 20
-1117.8786176570591
 10
905.57936409653519
 20
-1117.8754298214969
 42
0.018310536441182
 10
905.93871376469951
 20
-1117.6980947796735
 10
905.94566052934022
 20
-1117.6943443448004
 42
0.0194899958151807
 10
906.30414127031997
 20
-1117.4823653629123
 10
906.31115514966086
 20
-1117.4778400206146
 42
0.020486985295494
 10
906.66516945175636
 20
-1117.2283200055276
 10
906.67243506034185
 20
-1117.2227399401804
 42
0.0212516938556666
 10
907.018424991448
 20
-1116.9328359432877
 10
907.0649416855257
 20
-1116.8903686331921
 42
0.0215248918249256
 10
907.32496785441322
 20
-1116.6316043541979
 10
907.36999758879153
 20
-1116.5827602328504
 42
0.0114578554954825
 10
907.52478974247106
 20
-1116.4069372993895
 10
907.53598427846237
 20
-1116.3936185358384
 42
0.0061531305135825
 10
907.66245892445215
 20
-1116.2393290025384
 42
0.0006325587127649
 10
907.78683740863687
 20
-1116.0833256268211
 10
907.80987754365538
 20
-1116.0543521062034
 42
0.0041897761555912
 10
907.97833294762904
 20
-1115.8388327301404
 10
908.0367950675203
 20
-1115.7627313831563
 42
0.0092993880040216
 10
908.31340699475095
 20
-1115.3884526192628
 10
908.39580148794062
 20
-1115.2725156157071
 42
0.0159321727083017
 10
908.7424079705853
 20
-1114.7503413949478
 10
908.78676410597836
 20
-1114.6786618306912
 42
0.0085547317021975
 10
909.02127587130008
 20
-1114.2847868814731
 42
0.0084601156888836
 10
909.24225204873653
 20
-1113.8831600324518
 10
909.25036752257256
 20
-1113.867800350168
 42
0.0081429654285546
 10
909.47361679301264
 20
-1113.4280788376218
 10
909.48247695719408
 20
-1113.4098999956077
 42
0.0076574581327635
 10
909.70888446776291
 20
-1112.9267171203503
 10
909.71836410848448
 20
-1112.9056526420518
 42
0.0070682724198872
 10
909.94880901629028
 20
-1112.3736153372729
 10
909.95879930027297
 20
-1112.3496261482587
 42
0.006455951444835
 10
910.1941325084548
 20
-1111.7633138817396
 10
910.20454186661959
 20
-1111.7363789562978
 42
0.0058311413908231
 10
910.44558860338225
 20
-1111.0903468619142
 10
910.45634368076992
 20
-1111.0604625207534
 42
0.0052312425819428
 10
910.70392495881447
 20
-1110.3492601069079
 10
910.71496879519054
 20
-1110.3164333948494
 42
0.0046680544796336
 10
910.9698972229213
 20
-1109.5346070791063
 10
911.01188937297445
 20
-1109.4016238417842
 42
0.0041666856445657
 10
911.21517538536364
 20
-1108.7386550667968
 10
911.25283782602685
 20
-1108.6120739591449
 42
0.0015170975157229
 10
911.37402440444043
 20
-1108.2002056076494
 42
-0.0004887993117879
 10
911.49436417753168
 20
-1107.7880871957163
 10
911.57084143505858
 20
-1107.5271298096663
 42
0.0002583378929194
 10
911.84405600512616
 20
-1106.5930731064759
 10
911.92582885470028
 20
-1106.3129738469013
 42
0.0006636169672884
 10
912.11969661471085
 20
-1105.6456209233172
 10
912.12479326907157
 20
-1105.6279893403898
 42
0.0010589131324638
 10
912.30624196997451
 20
-1104.9952579973883
 10
912.31122404046937
 20
-1104.9777450903175
 42
0.001565552446299
 10
912.47949424763783
 20
-1104.3791284111674
 10
912.48432444805553
 20
-1104.3617362522218
 42
0.0021640440480044
 10
912.63861442003872
 20
-1103.7967092342133
 10
912.64324863946661
 20
-1103.7794445042271
 42
0.0028763871851182
 10
912.78276435752173
 20
-1103.2474765533725
 10
912.78715022168672
 20
-1103.2303525752268
 42
0.0037310511946217
 10
912.91110691352583
 20
-1102.7309049811943
 10
912.91518213381414
 20
-1102.7139447099516
 42
0.0047652197770896
 10
913.02280603432325
 20
-1102.2464669416436
 10
913.02649663364809
 20
-1102.2297073864868
 42
0.0060276699303047
 10
913.11702673280024
 20
-1101.7936315913494
 10
913.12024542308689
 20
-1101.7771303770528
 42
0.0075824337757475
 10
913.19293473250491
 20
-1101.371863212614
 10
913.19558010988442
 20
-1101.3557082651678
 42
0.009513062460926
 10
913.24969534551633
 20
-1100.9806189120918
 10
913.25668156939844
 20
-1100.9246853539798
 42
0.0121054653219917
 10
913.28327289997685
 20
-1100.6597895255013
 10
913.28413938973654
 20
-1100.6483860825697
 42
0.006905082738659
 10
913.29922820777415
 20
-1100.4054448557281
 10
913.30036350744263
 20
-1100.3819185986843
 42
0.0169063976691723
 10
913.30319078642287
 20
-1100.1857258713826
 10
913.30202013489145
 20
-1100.1253901100217
 42
0.0052007732914089
 10
913.29976668629865
 20
-1100.0497967198812
 42
0.0054038123299897
 10
913.27980317446111
 20
-1099.9297784238788
 10
913.27471731858941
 20
-1099.9011199372901
 42
0.011205046046723
 10
913.23933295653137
 20
-1099.7247934989534
 10
913.22150799449014
 20
-1099.6452519122304
 42
0.0240764468009334
 10
913.13061062834436
 20
-1099.3150148767302
 10
913.11205186553093
 20
-1099.2583947117362
 42
0.0256812331834335
 10
912.968688945341
 20
-1098.8866705054779
 10
912.96327951951946
 20
-1098.8745391704879
 42
0.026836050121676
 10
912.79385227866976
 20
-1098.5435460364672
 10
912.78831587103434
 20
-1098.5340263661542
 42
0.0274670231729367
 10
912.59611489462145
 20
-1098.2417389912375
 10
912.59073359465924
 20
-1098.2344598436966
 42
0.0275035967098132
 10
912.37916071509699
 20
-1097.9789439533922
 10
912.37409121413134
 20
-1097.9734648657627
 42
0.0269557673522201
 10
912.14668767069088
 20
-1097.7528225797996
 10
912.1419446129089
 20
-1097.7486926253393
 42
0.02591248022068
 10
911.9023897814775
 20
-1097.5610020981862
 10
911.89785893629551
 20
-1097.5578165958559
 42
0.0245162153005956
 10
911.64994258320075
 20
-1097.4010835867457
 10
911.64541603687724
 20
-1097.3985233895453
 42
0.0229282588842563
 10
911.39299648004919
 20
-1097.2706551970459
 10
911.38821598621303
 20
-1097.2685028972842
 42
0.0212984135700765
 10
911.13517803375066
 20
-1097.1673039800417
 10
911.12987374878333
 20
-1097.1654404172825
 42
0.0197555462347186
 10
910.88009541105816
 20
-1097.0886249993168
 42
0.0183511896789388
 10
910.62516668559556
 20
-1097.0310420923513
 10
910.53880148887163
 20
-1097.014839301966
 42
0.0338057877144312
 10
910.25329413961174
 20
-1096.9810308968258
 10
910.16228873457169
 20
-1096.9764512415645
 42
0.0091990524490778
 10
910.0564416259358
 20
-1096.9730753856425
 42
0.0028333980789336
 10
909.95052770994016
 20
-1096.9722472781259
 10
909.94961225689349
 20
-1096.9722453083018
 42
-0.002361982780501
 10
909.84186624179608
 20
-1096.9715044672232
 10
909.80546107161172
 20
-1096.97108216076
 42
0.000882459847429
 10
909.62490508166582
 20
-1096.9693063825209
 10
909.58104364935593
 20
-1096.9689524209962
 42
0.003813266576387
 10
909.31276075348512
 20
-1096.9688334849295
 10
909.29622709868363
 20
-1096.9689522510732
 42
0.0060665569335511
 10
908.9949466070974
 20
-1096.974772550494
 10
908.98069627506698
 20
-1096.9752208584616
 42
0.0080356953336705
 10
908.65123755872389
 20
-1096.9908885805287
 10
908.6391675436405
 20
-1096.991657163469
 42
0.0098996399105952
 10
908.28640445898736
 20
-1097.0211423926673
 10
908.27635874961493
 20
-1097.0221826888653
 42
0.0117740981366489
 10
907.90520189126732
 20
-1097.069474936395
 10
907.89697919478363
 20
-1097.070720052966
 42
0.013743521513845
 10
907.51239037529592
 20
-1097.1398170265284
 10
907.50573333617513
 20
-1097.1412029227613
 42
0.0158359869388291
 10
907.11273624237162
 20
-1097.2360950112422
 10
907.1073230555055
 20
-1097.2375849521125
 42
0.0180554124029935
 10
906.71100801089278
 20
-1097.3622229683515
 10
906.70645122280973
 20
-1097.3638390046176
 42
0.0203657431285382
 10
906.31197370499672
 20
-1097.5220993461339
 10
906.30783016599105
 20
-1097.523960967575
 42
0.0226819684657288
 10
905.92039410978555
 20
-1097.7196035462473
 10
905.91619431876927
 20
-1097.7219691381661
 42
0.024863498460645
 10
905.54101237758812
 20
-1097.958595784113
 10
905.49281744880375
 20
-1097.9924528259389
 42
0.0267044190884283
 10
905.21852475188757
 20
-1098.2078932018071
 42
0.0139303002197481
 10
904.96235758595094
 20
-1098.4451320427168
 10
904.95750420022785
 20
-1098.4498847055791
 42
0.0283460963444186
 10
904.71343160600156
 20
-1098.717615366023
 10
904.6737631008441
 20
-1098.7664169434972
 42
0.0070695364819168
 10
904.59632587498425
 20
-1098.8644837594627
 42
0.0070695364819168
  0
LWPOLYLINE
  5
6C
100
AcDbEntity
  8
0
370
              15
390
0
  6
Continuous
 62
               7
100
AcDbPolyline
 90
      226
 70
             128
 10
901.06750543773785
 20
-1114.5860725656466
 42
-0.0026277636567262
 10
901.06742755393793
 20
-1114.519300639847
 10
901.06764491216984
 20
-1114.4661454224606
 42
-0.0088680296727366
 10
901.07142152846279
 20
-1114.2931296400582
 10
901.07376788757529
 20
-1114.233849614604
 42
-0.0077381705614643
 10
901.08981399833897
 20
-1113.9425891187996
 10
901.09068190951155
 20
-1113.9303008851207
 42
-0.0068872530533739
 10
901.11731398926042
 20
-1113.615079133044
 10
901.11851821344578
 20
-1113.6028381540327
 42
-0.0062130021486929
 10
901.15611193027416
 20
-1113.2639684627893
 10
901.15761583380868
 20
-1113.2517945908778
 42
-0.0056726929671088
 10
901.20653769331125
 20
-1112.8895993687629
 10
901.20831113895542
 20
-1112.8775055685192
 42
-0.0052341884495988
 10
901.26892172521445
 20
-1112.4923123130066
 10
901.27093971399199
 20
-1112.4803073830087
 42
-0.004976845016788
 10
901.34367839542222
 20
-1112.0724628155551
 10
901.36792741014017
 20
-1111.94391483257
 42
-0.0089029805623254
 10
901.5050082619357
 20
-1111.2821393851441
 10
901.53775363725345
 20
-1111.1371079546243
 42
-0.0080318257098789
 10
901.76730225159611
 20
-1110.1913983227635
 10
901.77928717804241
 20
-1110.1452676875806
 42
-0.0074265721317039
 10
902.06329871689502
 20
-1109.1152031091908
 10
902.08317826001212
 20
-1109.0470690486002
 42
-0.0069711922701489
 10
902.41048283851569
 20
-1107.9808013082825
 10
902.47043478561829
 20
-1107.7947799499209
 42
-0.0052070422891905
 10
902.69986001088046
 20
-1107.1075078728807
 10
902.71714120301669
 20
-1107.0574805923677
 42
-0.0009167004448999
 10
902.92023309034221
 20
-1106.4730247441094
 42
-0.0025162726942414
 10
903.1273307206061
 20
-1105.8899834799431
 10
903.16455533241526
 20
-1105.7868339340275
 42
-0.0028212681456475
 10
903.41273125137332
 20
-1105.1111033018706
 10
903.42256201412954
 20
-1105.0847958571787
 42
-0.0031964916822847
 10
903.65885427178625
 20
-1104.4645910950667
 10
903.66848872578259
 20
-1104.43978110493
 42
-0.0036281836451334
 10
903.89359468688644
 20
-1103.8723404240304
 10
903.90303309704245
 20
-1103.8490429925309
 42
-0.0041269166829688
 10
904.11765079370309
 20
-1103.3316020965492
 10
904.15028375012287
 20
-1103.2547236501905
 42
-0.0047472213055819
 10
904.30732855567749
 20
-1102.8943021823047
 10
904.31422263688762
 20
-1102.8788815849684
 42
-0.0025651659997371
 10
904.46258067073586
 20
-1102.5515535292243
 42
-0.0057144634995036
 10
904.61633036450621
 20
-1102.2267438558638
 10
904.64436106990468
 20
-1102.1692354734751
 42
-0.0065388068374285
 10
904.82782809764819
 20
-1101.8050029768026
 10
904.8362865534267
 20
-1101.7887433974331
 42
-0.007451084301985
 10
905.01246879930454
 20
-1101.4620551163102
 10
905.02064846983956
 20
-1101.4474143390344
 42
-0.0084648979853902
 10
905.19028232293567
 20
-1101.1555053280804
 10
905.19813844942382
 20
-1101.1424983364295
 42
-0.0095638542805224
 10
905.36197389701795
 20
-1100.882609464451
 10
905.36944884069226
 20
-1100.8712401029916
 42
-0.0107191626804486
 10
905.52825042107725
 20
-1100.6406288684516
 10
905.53526715480825
 20
-1100.630892776087
 42
-0.0118458573903881
 10
905.68981525332083
 20
-1100.4268205807762
 42
-0.0129184518188581
 10
905.85426787692609
 20
-1100.2306600646016
 10
905.88441264928611
 20
-1100.1965339857056
 42
-0.0217742579635611
 10
906.06102497162078
 20
-1100.0133272154562
 10
906.07177051608392
 20
-1100.0031103822507
 42
-0.0097266568650406
 10
906.23782813493699
 20
-1099.8512628078158
 42
-0.018772090571699
 10
906.41217571082905
 20
-1099.7091939544248
 10
906.44288170150253
 20
-1099.686034872029
 42
-0.0179428207517514
 10
906.67530242149678
 20
-1099.5234826949188
 10
906.67895474840714
 20
-1099.5211187600346
 42
-0.0170047877699453
 10
906.91471838594293
 20
-1099.3796582458795
 10
906.91850137469044
 20
-1099.3775599408427
 42
-0.0160190788363567
 10
907.15540992232479
 20
-1099.2559086388551
 42
-0.015110286149134
 10
907.39944170477168
 20
-1099.1492258628004
 10
907.45182820698324
 20
-1099.1281857299059
 42
-0.027194544188635
 10
907.81049076604165
 20
-1099.0063209191999
 10
907.8795555665323
 20
-1098.9869713779328
 42
-0.0237596594021453
 10
908.29535241355211
 20
-1098.8915206659522
 10
908.3634152672787
 20
-1098.879265977826
 42
-0.0213715440556681
 10
908.64929019872784
 20
-1098.8403189463154
 10
908.70943736494382
 20
-1098.8347292316146
 42
-0.0101465655820661
 10
908.87692989693994
 20
-1098.8225856883505
 10
908.88627028313783
 20
-1098.8220987733532
 42
-0.0100375910882476
 10
909.03542438370073
 20
-1098.8173229554279
 10
909.04568365337718
 20
-1098.8172005164135
 42
-0.0103625633384155
 10
909.17439164803591
 20
-1098.8183319499401
 10
909.19665729930432
 20
-1098.818989308405
 42
-0.0115689250235104
 10
909.28070803683079
 20
-1098.8234188146503
 42
-0.0072438037434452
 10
909.36454631627225
 20
-1098.8310080143997
 10
909.38134682574275
 20
-1098.8327745571237
 42
-0.0217917313129675
 10
909.49791658905724
 20
-1098.8501944498448
 10
909.56351667962474
 20
-1098.8629410582594
 42
-0.0332943556755175
 10
909.7679088446514
 20
-1098.9169813495664
 10
909.7980814132012
 20
-1098.9271494266848
 42
-0.0184824084806604
 10
909.93658646966696
 20
-1098.9796004420714
 42
-0.0198002050700385
 10
910.07066081016603
 20
-1099.0424845022706
 10
910.07254744754323
 20
-1099.0434622891505
 42
-0.0212242342969898
 10
910.20468638994623
 20
-1099.1192250279441
 10
910.20650168548855
 20
-1099.1203708301518
 42
-0.0226090605795186
 10
910.33500558671119
 20
-1099.2098504737171
 10
910.33685002844777
 20
-1099.2112627267038
 42
-0.0238457052221405
 10
910.46003210974118
 20
-1099.3152586225665
 10
910.46198483829971
 20
-1099.3170735003323
 42
-0.0248160564147035
 10
910.57818634559999
 20
-1099.4363481015407
 10
910.58028997900237
 20
-1099.4387334352455
 42
-0.0254109591447604
 10
910.68789519686857
 20
-1099.57402182121
 10
910.6901432187824
 20
-1099.5771633696104
 42
-0.0255528488295252
 10
910.78758989757898
 20
-1099.7291904238439
 10
910.78992099749576
 20
-1099.7332720354525
 42
-0.0252146793224302
 10
910.87570202350514
 20
-1099.9027742814501
 10
910.87800426266244
 20
-1099.9079563633622
 42
-0.0244265635952732
 10
910.95065895642369
 20
-1100.0957029354083
 10
910.95990535789247
 20
-1100.1235683537473
 42
-0.0231319612898874
 10
911.00582813688436
 20
-1100.2868694005483
 42
-0.0112130424360945
 10
911.04046415942207
 20
-1100.4530730007332
 10
911.04166668453513
 20
-1100.4595695876242
 42
-0.0210527881240268
 10
911.06735315990591
 20
-1100.6406252330657
 10
911.07086375472772
 20
-1100.6760307816128
 42
-0.0190029892428993
 10
911.08630522827241
 20
-1100.9295666278867
 10
911.08711520471638
 20
-1100.9650422422542
 42
-0.013797455365807
 10
911.08556635188063
 20
-1101.2900736489923
 10
911.08472089692543
 20
-1101.3161923935768
 42
-0.0081336634213647
 10
911.06986156170274
 20
-1101.6215398611796
 42
-0.0073526923571413
 10
911.04555302832921
 20
-1101.926288105454
 10
911.04429160454538
 20
-1101.9396247801308
 42
-0.0066886138693914
 10
911.00855601849855
 20
-1102.2702108236306
 10
911.00689892902892
 20
-1102.2838324426193
 42
-0.0061359187351343
 10
910.9590483269767
 20
-1102.6405964227285
 10
910.95701082590517
 20
-1102.6544912255486
 42
-0.005669861006094
 10
910.89636049513717
 20
-1103.0377697943925
 10
910.89395506181518
 20
-1103.0519289136173
 42
-0.0052721077270442
 10
910.81982286101356
 20
-1103.462056253305
 10
910.81705971217377
 20
-1103.4764728886812
 42
-0.004928927218243
 10
910.72876559407382
 20
-1103.9137813998032
 10
910.72565309939114
 20
-1103.9284502526195
 42
-0.0047415956715318
 10
910.62241510785896
 20
-1104.3932470100297
 10
910.5876468974991
 20
-1104.5430541054134
 42
-0.0084404470902943
 10
910.39763045392806
 20
-1105.3032781299416
 10
910.39150376594159
 20
-1105.3261422540979
 42
-0.003963594025745
 10
910.17005008165881
 20
-1106.1271311183409
 10
910.15667328647805
 20
-1106.1740627349373
 42
-0.0072475040837433
 10
909.88922639861698
 20
-1107.0632824513209
 10
909.81901407178839
 20
-1107.2850228012969
 42
-0.0051345458826329
 10
909.5322546997287
 20
-1108.1593479891105
 10
909.5107284329689
 20
-1108.2227742562177
 42
-0.0019150016603337
 10
909.2551950260945
 20
-1108.9663233764666
 10
909.24872742168634
 20
-1108.9849108414221
 42
-0.0021524362752236
 10
909.00024937063449
 20
-1109.6892366630959
 10
908.99103894993755
 20
-1109.7149902413987
 42
-0.0024331286818731
 10
908.75478369090206
 20
-1110.3655895495158
 10
908.74573573835244
 20
-1110.3901328558675
 42
-0.0027449721786554
 10
908.52112116751607
 20
-1110.9892627347945
 10
908.51223116012341
 20
-1111.0125853246479
 42
-0.0031083229768958
 10
908.29868867351388
 20
-1111.5625093622264
 10
908.28995254184531
 20
-1111.5845990780665
 42
-0.0035311343282267
 10
908.08691135624645
 20
-1112.0875822038142
 10
908.07832601710413
 20
-1112.1084249273117
 42
-0.0040245640950515
 10
907.88521421330438
 20
-1112.5667342499169
 10
907.87677809970262
 20
-1112.586313617986
 42
-0.0046015135852397
 10
907.69302180653756
 20
-1113.0022186476313
 10
907.68473562870508
 20
-1113.0205157870928
 42
-0.0052768638270867
 10
907.50975810975365
 20
-1113.3962886713537
 10
907.50162589913009
 20
-1113.4132820098898
 42
-0.0060672675643335
 10
907.33484628636074
 20
-1113.7511976330111
 10
907.32687680587821
 20
-1113.7668628920103
 42
-0.0069904648870204
 10
907.16770841187781
 20
-1114.0691986986722
 10
907.15991701227256
 20
-1114.0835092478892
 42
-0.0080637022769591
 10
907.00776515192115
 20
-1114.3525445510525
 10
907.00017611928638
 20
-1114.3654724166593
 42
-0.0093006455659528
 10
906.85443544275836
 20
-1114.6034868151564
 10
906.84708477601259
 20
-1114.6150047843328
 42
-0.0107060778045797
 10
906.7071362325762
 20
-1114.8242751017085
 10
906.70007446429338
 20
-1114.8343606442791
 42
-0.0122723111405004
 10
906.56528074609855
 20
-1115.0171539737635
 10
906.56495452254558
 20
-1115.0175743615716
 42
-0.0141836319628715
 10
906.42137291957033
 20
-1115.1921441194027
 10
906.41442516391783
 20
-1115.200119119668
 42
-0.0175957477207675
 10
906.27451899588368
 20
-1115.3497400080721
 42
-0.0080466359668728
 10
906.12705523084855
 20
-1115.4920625362279
 10
906.08102068633605
 20
-1115.5350829743145
 42
-0.0269600260395675
 10
905.82774044035352
 20
-1115.7474062328233
 10
905.76117330406089
 20
-1115.797357647444
 42
-0.0178362839758901
 10
905.52122881440027
 20
-1115.9643755737
 10
905.51398384339655
 20
-1115.9690440859069
 42
-0.0174650732648243
 10
905.2776476459585
 20
-1116.109905050864
 42
-0.0169240130160951
 10
905.03218140009892
 20
-1116.2341973106425
 10
904.98619524454307
 20
-1116.2555592662086
 42
-0.0318883036841081
 10
904.63584438892201
 20
-1116.391897575719
 10
904.56747885375717
 20
-1116.4135981961945
 42
-0.0284435909899725
 10
904.19142872746727
 20
-1116.509815631669
 10
904.15627056696576
 20
-1116.516709227498
 42
-0.0243909341008827
 10
903.84282710604975
 20
-1116.5624302585275
 10
903.79254637928307
 20
-1116.5672758054288
 42
-0.019663929293123
 10
903.57695080175131
 20
-1116.5795240909426
 10
903.52512673058823
 20
-1116.5804273516794
 42
-0.0100501510681998
 10
903.41270344892359
 20
-1116.5801269533263
 10
903.38104358759097
 20
-1116.5794058814411
 42
-0.0019752031155481
 10
903.33195125089821
 20
-1116.5780937212312
 10
903.32919094766658
 20
-1116.5780090294047
 42
0.006537875200791
 10
903.28561437292137
 20
-1116.5772421381901
 42
-0.0167974694633909
 10
903.24208354998916
 20
-1116.5755822396641
 10
903.23800421072747
 20
-1116.5752892287692
 42
-0.0081283276274033
 10
903.18644441299239
 20
-1116.5707422351315
 10
903.17470483911029
 20
-1116.5695143175528
 42
-0.0126703440160193
 10
903.09998654331309
 20
-1116.559779526481
 10
903.07719867564015
 20
-1116.5562212705661
 42
-0.0117852088438762
 10
902.95765968981186
 20
-1116.5346582754098
 10
902.90227923804468
 20
-1116.5233147351744
 42
-0.0251774592296259
 10
902.67543519903597
 20
-1116.464816725741
 10
902.63071600918681
 20
-1116.4508499064063
 42
-0.0146525199894823
 10
902.44432302164728
 20
-1116.3865833792079
 42
-0.0166929435859923
 10
902.26234536552317
 20
-1116.3107762461545
 10
902.25768873424749
 20
-1116.3086513455394
 42
-0.0191684358433512
 10
902.07250510299798
 20
-1116.2154152617493
 10
902.06917251724121
 20
-1116.2135740141962
 42
-0.0221181781806163
 10
901.8858622133373
 20
-1116.1014405158242
 10
901.88351240933059
 20
-1116.0998562178343
 42
-0.0254984685376553
 10
901.70722225894531
 20
-1115.9674450678649
 10
901.68474011124374
 20
-1115.9486927589289
 42
-0.0292492648804605
 10
901.55997117240031
 20
-1115.8315999592853
 42
-0.0159048957498739
 10
901.44613117494964
 20
-1115.7035799676855
 10
901.44481238437083
 20
-1115.7019983546661
 42
-0.0343813379558831
 10
901.34217512274449
 20
-1115.5601270288964
 10
901.31068359138328
 20
-1115.5096236368017
 42
-0.0369117275701862
 10
901.22479108948653
 20
-1115.3461463958542
 42
-0.0191751379902623
 10
901.1575977039297
 20
-1115.1737417898485
 10
901.15583438017006
 20
-1115.1686484451734
 42
-0.0378178042228332
 10
901.10603966138569
 20
-1114.9797076690916
 10
901.100044365656
 20
-1114.9471470508979
 42
-0.0184846046466747
 10
901.07932716636105
 20
-1114.8053942303502
 42
-0.0179866351308685
 10
901.06899416128738
 20
-1114.6625034172685
 10
901.06893771884165
 20
-1114.6609457306565
 42
-0.0085497186138666
 10
901.06750543773785
 20
-1114.5860725656466
 42
-0.0085497186138666
  0
ENDBLK
  5
6D
100
AcDbEntity
  8
template
390
0
100
AcDbBlockEnd
  0
BLOCK
  5
6E
100
AcDbEntity
  8
template
390
0
100
AcDbBlockBegin
  2
*D3
 70
               1
 10
0.0
 20
0.0
 30
0.0
  3
*D3
  1

  0
LINE
  5
6F
100
AcDbEntity
  8
0
370
              -2
390
0
  6
Continuous
 62
               0
100
AcDbLine
 10
-615.01603354931547
 20
-319.99868052849388
 30
0.0
 11
-751.07457145885064
 21
-3.6669076662148825
 31
0.0
  0
CIRCLE
  5
70
102
{ACAD_REACTORS
330
71
102
}
100
AcDbEntity
  8
0
370
              -2
390
0
  6
Continuous
 62
               0
100
AcDbCircle
 10
-615.01603354931547
 20
-319.99868052849388
 30
0.0
 40
1.9998779296875
  0
HATCH
  5
71
100
AcDbEntity
  8
0
370
              -2
390
0
  6
Continuous
 62
               0
100
AcDbHatch
 10
0.0
 20
0.0
 30
0.0
210
0.0
220
0.0
230
1.0
  2
SOLID
 70
               1
 71
               1
 91
        1
 92
        1
 93
        1
 72
               2
 10
-615.01603354931547
 20
-319.99868052849388
 40
1.9998779296875
 50
0.0
 51
360.0
 73
               0
 97
        1
330
70
 75
               0
 76
               1
 98
        1
 10
0.0
 20
0.0
  0
MTEXT
  5
72
100
AcDbEntity
  8
0
390
0
 62
               0
100
AcDbMText
 10
-757.10576819699452
 20
-75.385577566099386
 30
0.0
 40
27.78125
 41
0.0
 71
               1
 72
               1
  1
{\H0.8795x;\lφ35}
 11
-0.3951156745179322
 21
0.9186313753351991
 31
0.0
 73
               1
 44
0.7828267384257843
  0
POINT
  5
73
100
AcDbEntity
  8
Defpoints
370
               0
390
0
 62
               0
100
AcDbPoint
 10
-601.18698494119337
 20
-352.15077866521301
 30
0.0
  0
POINT
  5
74
100
AcDbEntity
  8
Defpoints
370
               0
390
0
 62
               0
100
AcDbPoint
 10
-615.01603354931547
 20
-319.99868052849388
 30
0.0
  0
ENDBLK
  5
75
100
AcDbEntity
  8
template
390
0
100
AcDbBlockEnd
  0
BLOCK
  5
76
100
AcDbEntity
  8
notes
390
0
100
AcDbBlockBegin
  2
*D4
 70
               1
 10
0.0
 20
0.0
 30
0.0
  3
*D4
  1

  0
LINE
  5
77
100
AcDbEntity
  8
0
370
              -2
390
0
  6
Continuous
 62
               0
100
AcDbLine
 10
-693.10150924525442
 20
88.925270403146186
 30
0.0
 11
-823.10150924525442
 21
88.925270403146186
 31
0.0
  0
LINE
  5
78
100
AcDbEntity
  8
0
370
              -2
390
0
  6
Continuous
 62
               0
100
AcDbLine
 10
-693.10150924525442
 20
-761.07472959685367
 30
0.0
 11
-823.10150924525442
 21
-761.07472959685367
 31
0.0
  0
LINE
  5
79
100
AcDbEntity
  8
0
370
              -2
390
0
  6
Continuous
 62
               0
100
AcDbLine
 10
-823.10150924525442
 20
88.925270403146186
 30
0.0
 11
-823.10150924525442
 21
-761.07472959685367
 31
0.0
  0
CIRCLE
  5
7A
102
{ACAD_REACTORS
330
7B
102
}
100
AcDbEntity
  8
0
370
              -2
390
0
  6
Continuous
 62
               0
100
AcDbCircle
 10
-823.10150924525442
 20
88.925270403146186
 30
0.0
 40
1.9998779296875
  0
HATCH
  5
7B
100
AcDbEntity
  8
0
370
              -2
390
0
  6
Continuous
 62
               0
100
AcDbHatch
 10
0.0
 20
0.0
 30
0.0
210
0.0
220
0.0
230
1.0
  2
SOLID
 70
               1
 71
               1
 91
        1
 92
        1
 93
        1
 72
               2
 10
-823.10150924525442
 20
88.925270403146186
 40
1.9998779296875
 50
0.0
 51
360.0
 73
               0
 97
        1
330
7A
 75
               0
 76
               1
 98
        1
 10
0.0
 20
0.0
  0
CIRCLE
  5
7C
102
{ACAD_REACTORS
330
7D
102
}
100
AcDbEntity
  8
0
370
              -2
390
0
  6
Continuous
 62
               0
100
AcDbCircle
 10
-823.10150924525442
 20
-761.07472959685367
 30
0.0
 40
1.9998779296875
  0
HATCH
  5
7D
100
AcDbEntity
  8
0
370
              -2
390
0
  6
Continuous
 62
               0
100
AcDbHatch
 10
0.0
 20
0.0
 30
0.0
210
0.0
220
0.0
230
1.0
  2
SOLID
 70
               1
 71
               1
 91
        1
 92
        1
 93
        1
 72
               2
 10
-823.10150924525442
 20
-761.07472959685367
 40
1.9998779296875
 50
0.0
 51
360.0
 73
               0
 97
        1
330
7C
 75
               0
 76
               1
 98
        1
 10
0.0
 20
0.0
  0
MTEXT
  5
7E
100
AcDbEntity
  8
0
390
0
 62
               0
100
AcDbMText
 10
-856.97912643275447
 20
-359.88723127902927
 30
0.0
 40
27.78125
 41
0.0
 71
               1
 72
               1
  1
{\H0.8795x;\l850}
 11
0.0
 21
1.0
 31
0.0
 73
               1
 44
0.7828267384257843
  0
POINT
  5
7F
100
AcDbEntity
  8
Defpoints
370
               0
390
0
 62
               0
100
AcDbPoint
 10
-668.10150924525442
 20
-761.07472959685367
 30
0.0
  0
POINT
  5
80
100
AcDbEntity
  8
Defpoints
370
               0
390
0
 62
               0
100
AcDbPoint
 10
-668.10150924525442
 20
88.925270403146186
 30
0.0
  0
POINT
  5
81
100
AcDbEntity
  8
Defpoints
370
               0
390
0
 62
               0
100
AcDbPoint
 10
-823.10150924525442
 20
88.925270403146186
 30
0.0
  0
ENDBLK
  5
82
100
AcDbEntity
  8
notes
390
0
100
AcDbBlockEnd
  0
BLOCK
  5
83
100
AcDbEntity
  8
notes
390
0
100
AcDbBlockBegin
  2
*D5
 70
               1
 10
0.0
 20
0.0
 30
0.0
  3
*D5
  1

  0
LINE
  5
84
100
AcDbEntity
  8
0
370
              -2
390
0
  6
Continuous
 62
               0
100
AcDbLine
 10
-673.10150924525442
 20
108.92527040314619
 30
0.0
 11
-673.10150924525442
 21
188.92527040314619
 31
0.0
  0
LINE
  5
85
100
AcDbEntity
  8
0
370
              -2
390
0
  6
Continuous
 62
               0
100
AcDbLine
 10
-183.10150924525379
 20
108.92527040314619
 30
0.0
 11
-183.10150924525379
 21
188.92527040314619
 31
0.0
  0
LINE
  5
86
100
AcDbEntity
  8
0
370
              -2
390
0
  6
Continuous
 62
               0
100
AcDbLine
 10
-673.10150924525442
 20
188.92527040314619
 30
0.0
 11
-183.10150924525379
 21
188.92527040314619
 31
0.0
  0
CIRCLE
  5
87
102
{ACAD_REACTORS
330
88
102
}
100
AcDbEntity
  8
0
370
              -2
390
0
  6
Continuous
 62
               0
100
AcDbCircle
 10
-673.10150924525442
 20
188.92527040314619
 30
0.0
 40
1.9998779296875
  0
HATCH
  5
88
100
AcDbEntity
  8
0
370
              -2
390
0
  6
Continuous
 62
               0
100
AcDbHatch
 10
0.0
 20
0.0
 30
0.0
210
0.0
220
0.0
230
1.0
  2
SOLID
 70
               1
 71
               1
 91
        1
 92
        1
 93
        1
 72
               2
 10
-673.10150924525442
 20
188.92527040314619
 40
1.9998779296875
 50
0.0
 51
360.0
 73
               0
 97
        1
330
87
 75
               0
 76
               1
 98
        1
 10
0.0
 20
0.0
  0
CIRCLE
  5
89
102
{ACAD_REACTORS
330
8A
102
}
100
AcDbEntity
  8
0
370
              -2
390
0
  6
Continuous
 62
               0
100
AcDbCircle
 10
-183.10150924525379
 20
188.92527040314619
 30
0.0
 40
1.9998779296875
  0
HATCH
  5
8A
100
AcDbEntity
  8
0
370
              -2
390
0
  6
Continuous
 62
               0
100
AcDbHatch
 10
0.0
 20
0.0
 30
0.0
210
0.0
220
0.0
230
1.0
  2
SOLID
 70
               1
 71
               1
 91
        1
 92
        1
 93
        1
 72
               2
 10
-183.10150924525379
 20
188.92527040314619
 40
1.9998779296875
 50
0.0
 51
360.0
 73
               0
 97
        1
330
89
 75
               0
 76
               1
 98
        1
 10
0.0
 20
0.0
  0
MTEXT
  5
8B
100
AcDbEntity
  8
0
390
0
 62
               0
100
AcDbMText
 10
-451.91401092742962
 20
222.80288759064618
 30
0.0
 40
27.78125
 41
0.0
 71
               1
 72
               1
  1
{\H0.8795x;\l490}
 73
               1
 44
0.7828267384257843
  0
POINT
  5
8C
100
AcDbEntity
  8
Defpoints
370
               0
390
0
 62
               0
100
AcDbPoint
 10
-183.10150924525379
 20
83.925270403146186
 30
0.0
  0
POINT
  5
8D
100
AcDbEntity
  8
Defpoints
370
               0
390
0
 62
               0
100
AcDbPoint
 10
-673.10150924525442
 20
83.925270403146186
 30
0.0
  0
POINT
  5
8E
100
AcDbEntity
  8
Defpoints
370
               0
390
0
 62
               0
100
AcDbPoint
 10
-673.10150924525442
 20
188.92527040314619
 30
0.0
  0
ENDBLK
  5
8F
100
AcDbEntity
  8
notes
390
0
100
AcDbBlockEnd
  0
BLOCK
  5
90
100
AcDbEntity
  8
notes
390
0
100
AcDbBlockBegin
  2
*D6
 70
               1
 10
0.0
 20
0.0
 30
0.0
  3
*D6
  1

  0
LINE
  5
91
100
AcDbEntity
  8
0
370
              -2
390
0
  6
Continuous
 62
               0
100
AcDbLine
 10
-159.23514345482846
 20
-591.07472959685379
 30
0.0
 11
-83.101351671987857
 21
-591.07472959685379
 31
0.0
  0
LINE
  5
92
100
AcDbEntity
  8
0
370
              -2
390
0
  6
Continuous
 62
               0
100
AcDbLine
 10
-159.23514345482118
 20
-81.074729596853444
 30
0.0
 11
-83.101351671987857
 21
-81.074729596853444
 31
0.0
  0
LINE
  5
93
100
AcDbEntity
  8
0
370
              -2
390
0
  6
Continuous
 62
               0
100
AcDbLine
 10
-83.101351671987857
 20
-591.07472959685379
 30
0.0
 11
-83.101351671987857
 21
-81.074729596853444
 31
0.0
  0
CIRCLE
  5
94
102
{ACAD_REACTORS
330
95
102
}
100
AcDbEntity
  8
0
370
              -2
390
0
  6
Continuous
 62
               0
100
AcDbCircle
 10
-83.101351671987857
 20
-591.07472959685379
 30
0.0
 40
1.9998779296875
  0
HATCH
  5
95
100
AcDbEntity
  8
0
370
              -2
390
0
  6
Continuous
 62
               0
100
AcDbHatch
 10
0.0
 20
0.0
 30
0.0
210
0.0
220
0.0
230
1.0
  2
SOLID
 70
               1
 71
               1
 91
        1
 92
        1
 93
        1
 72
               2
 10
-83.101351671987857
 20
-591.07472959685379
 40
1.9998779296875
 50
0.0
 51
360.0
 73
               0
 97
        1
330
94
 75
               0
 76
               1
 98
        1
 10
0.0
 20
0.0
  0
CIRCLE
  5
96
102
{ACAD_REACTORS
330
97
102
}
100
AcDbEntity
  8
0
370
              -2
390
0
  6
Continuous
 62
               0
100
AcDbCircle
 10
-83.101351671987857
 20
-81.074729596853444
 30
0.0
 40
1.9998779296875
  0
HATCH
  5
97
100
AcDbEntity
  8
0
370
              -2
390
0
  6
Continuous
 62
               0
100
AcDbHatch
 10
0.0
 20
0.0
 30
0.0
210
0.0
220
0.0
230
1.0
  2
SOLID
 70
               1
 71
               1
 91
        1
 92
        1
 93
        1
 72
               2
 10
-83.101351671987857
 20
-81.074729596853444
 40
1.9998779296875
 50
0.0
 51
360.0
 73
               0
 97
        1
330
96
 75
               0
 76
               1
 98
        1
 10
0.0
 20
0.0
  0
MTEXT
  5
98
100
AcDbEntity
  8
0
390
0
 62
               0
100
AcDbMText
 10
-116.97896885948786
 20
-359.88723127902915
 30
0.0
 40
27.78125
 41
0.0
 71
               1
 72
               1
  1
{\H0.8795x;\l510}
 11
0.0
 21
1.0
 31
0.0
 73
               1
 44
0.7828267384257843
  0
POINT
  5
99
100
AcDbEntity
  8
Defpoints
370
               0
390
0
 62
               0
100
AcDbPoint
 10
-184.23514345482118
 20
-81.074729596853444
 30
0.0
  0
POINT
  5
9A
100
AcDbEntity
  8
Defpoints
370
               0
390
0
 62
               0
100
AcDbPoint
 10
-184.23514345482846
 20
-591.07472959685379
 30
0.0
  0
POINT
  5
9B
100
AcDbEntity
  8
Defpoints
370
               0
390
0
 62
               0
100
AcDbPoint
 10
-83.101351671987857
 20
-591.07472959685379
 30
0.0
  0
ENDBLK
  5
9C
100
AcDbEntity
  8
notes
390
0
100
AcDbBlockEnd
  0
BLOCK
  5
9D
100
AcDbEntity
  8
notes
390
0
100
AcDbBlockBegin
  2
*D7
 70
               1
 10
0.0
 20
0.0
 30
0.0
  3
*D7
  1

  0
LINE
  5
9E
100
AcDbEntity
  8
0
370
              -2
390
0
  6
Continuous
 62
               0
100
AcDbLine
 10
-159.23514345482846
 20
-591.07472959685379
 30
0.0
 11
-83.101351671987857
 21
-591.07472959685379
 31
0.0
  0
LINE
  5
9F
100
AcDbEntity
  8
0
370
              -2
390
0
  6
Continuous
 62
               0
100
AcDbLine
 10
-171.10463799374304
 20
-761.07472959685367
 30
0.0
 11
-83.101351671987857
 21
-761.07472959685367
 31
0.0
  0
LINE
  5
A0
100
AcDbEntity
  8
0
370
              -2
390
0
  6
Continuous
 62
               0
100
AcDbLine
 10
-83.101351671987857
 20
-591.07472959685379
 30
0.0
 11
-83.101351671987857
 21
-761.07472959685367
 31
0.0
  0
CIRCLE
  5
A1
102
{ACAD_REACTORS
330
A2
102
}
100
AcDbEntity
  8
0
370
              -2
390
0
  6
Continuous
 62
               0
100
AcDbCircle
 10
-83.101351671987857
 20
-591.07472959685379
 30
0.0
 40
1.9998779296875
  0
HATCH
  5
A2
100
AcDbEntity
  8
0
370
              -2
390
0
  6
Continuous
 62
               0
100
AcDbHatch
 10
0.0
 20
0.0
 30
0.0
210
0.0
220
0.0
230
1.0
  2
SOLID
 70
               1
 71
               1
 91
        1
 92
        1
 93
        1
 72
               2
 10
-83.101351671987857
 20
-591.07472959685379
 40
1.9998779296875
 50
0.0
 51
360.0
 73
               0
 97
        1
330
A1
 75
               0
 76
               1
 98
        1
 10
0.0
 20
0.0
  0
CIRCLE
  5
A3
102
{ACAD_REACTORS
330
A4
102
}
100
AcDbEntity
  8
0
370
              -2
390
0
  6
Continuous
 62
               0
100
AcDbCircle
 10
-83.101351671987857
 20
-761.07472959685367
 30
0.0
 40
1.9998779296875
  0
HATCH
  5
A4
100
AcDbEntity
  8
0
370
              -2
390
0
  6
Continuous
 62
               0
100
AcDbHatch
 10
0.0
 20
0.0
 30
0.0
210
0.0
220
0.0
230
1.0
  2
SOLID
 70
               1
 71
               1
 91
        1
 92
        1
 93
        1
 72
               2
 10
-83.101351671987857
 20
-761.07472959685367
 40
1.9998779296875
 50
0.0
 51
360.0
 73
               0
 97
        1
330
A3
 75
               0
 76
               1
 98
        1
 10
0.0
 20
0.0
  0
MTEXT
  5
A5
100
AcDbEntity
  8
0
390
0
 62
               0
100
AcDbMText
 10
-116.97896885948786
 20
-699.88723127902927
 30
0.0
 40
27.78125
 41
0.0
 71
               1
 72
               1
  1
{\H0.8795x;\l170}
 11
0.0
 21
1.0
 31
0.0
 73
               1
 44
0.7828267384257843
  0
POINT
  5
A6
100
AcDbEntity
  8
Defpoints
370
               0
390
0
 62
               0
100
AcDbPoint
 10
-196.10463799374304
 20
-761.07472959685367
 30
0.0
  0
POINT
  5
A7
100
AcDbEntity
  8
Defpoints
370
               0
390
0
 62
               0
100
AcDbPoint
 10
-184.23514345482846
 20
-591.07472959685379
 30
0.0
  0
POINT
  5
A8
100
AcDbEntity
  8
Defpoints
370
               0
390
0
 62
               0
100
AcDbPoint
 10
-83.101351671987857
 20
-591.07472959685379
 30
0.0
  0
ENDBLK
  5
A9
100
AcDbEntity
  8
notes
390
0
100
AcDbBlockEnd
  0
BLOCK
  5
AA
100
AcDbEntity
  8
notes
390
0
100
AcDbBlockBegin
  2
*D8
 70
               1
 10
0.0
 20
0.0
 30
0.0
  3
*D8
  1

  0
LINE
  5
AB
100
AcDbEntity
  8
0
370
              -2
390
0
  6
Continuous
 62
               0
100
AcDbLine
 10
-673.10150924525442
 20
-781.07472959685367
 30
0.0
 11
-673.10150924525442
 21
-861.07472959685367
 31
0.0
  0
LINE
  5
AC
100
AcDbEntity
  8
0
370
              -2
390
0
  6
Continuous
 62
               0
100
AcDbLine
 10
-548.10150924525442
 20
-781.07472959685367
 30
0.0
 11
-548.10150924525442
 21
-861.07472959685367
 31
0.0
  0
LINE
  5
AD
100
AcDbEntity
  8
0
370
              -2
390
0
  6
Continuous
 62
               0
100
AcDbLine
 10
-673.10150924525442
 20
-861.07472959685367
 30
0.0
 11
-548.10150924525442
 21
-861.07472959685367
 31
0.0
  0
CIRCLE
  5
AE
102
{ACAD_REACTORS
330
AF
102
}
100
AcDbEntity
  8
0
370
              -2
390
0
  6
Continuous
 62
               0
100
AcDbCircle
 10
-673.10150924525442
 20
-861.07472959685367
 30
0.0
 40
1.9998779296875
  0
HATCH
  5
AF
100
AcDbEntity
  8
0
370
              -2
390
0
  6
Continuous
 62
               0
100
AcDbHatch
 10
0.0
 20
0.0
 30
0.0
210
0.0
220
0.0
230
1.0
  2
SOLID
 70
               1
 71
               1
 91
        1
 92
        1
 93
        1
 72
               2
 10
-673.10150924525442
 20
-861.07472959685367
 40
1.9998779296875
 50
0.0
 51
360.0
 73
               0
 97
        1
330
AE
 75
               0
 76
               1
 98
        1
 10
0.0
 20
0.0
  0
CIRCLE
  5
B0
102
{ACAD_REACTORS
330
B1
102
}
100
AcDbEntity
  8
0
370
              -2
390
0
  6
Continuous
 62
               0
100
AcDbCircle
 10
-548.10150924525442
 20
-861.07472959685367
 30
0.0
 40
1.9998779296875
  0
HATCH
  5
B1
100
AcDbEntity
  8
0
370
              -2
390
0
  6
Continuous
 62
               0
100
AcDbHatch
 10
0.0
 20
0.0
 30
0.0
210
0.0
220
0.0
230
1.0
  2
SOLID
 70
               1
 71
               1
 91
        1
 92
        1
 93
        1
 72
               2
 10
-548.10150924525442
 20
-861.07472959685367
 40
1.9998779296875
 50
0.0
 51
360.0
 73
               0
 97
        1
330
B0
 75
               0
 76
               1
 98
        1
 10
0.0
 20
0.0
  0
MTEXT
  5
B2
100
AcDbEntity
  8
0
390
0
 62
               0
100
AcDbMText
 10
-634.4140109274299
 20
-827.19711240935362
 30
0.0
 40
27.78125
 41
0.0
 71
               1
 72
               1
  1
{\H0.8795x;\l125}
 73
               1
 44
0.7828267384257843
  0
POINT
  5
B3
100
AcDbEntity
  8
Defpoints
370
               0
390
0
 62
               0
100
AcDbPoint
 10
-548.10150924525442
 20
-756.07472959685367
 30
0.0
  0
POINT
  5
B4
100
AcDbEntity
  8
Defpoints
370
               0
390
0
 62
               0
100
AcDbPoint
 10
-673.10150924525442
 20
-756.07472959685367
 30
0.0
  0
POINT
  5
B5
100
AcDbEntity
  8
Defpoints
370
               0
390
0
 62
               0
100
AcDbPoint
 10
-673.10150924525442
 20
-861.07472959685367
 30
0.0
  0
ENDBLK
  5
B6
100
AcDbEntity
  8
notes
390
0
100
AcDbBlockEnd
  0
BLOCK
  5
B7
100
AcDbEntity
  8
notes
390
0
100
AcDbBlockBegin
  2
*D9
 70
               1
 10
0.0
 20
0.0
 30
0.0
  3
*D9
  1

  0
LINE
  5
B8
100
AcDbEntity
  8
0
370
              -2
390
0
  6
Continuous
 62
               0
100
AcDbLine
 10
-548.10150924525442
 20
-786.07472959685367
 30
0.0
 11
-548.10150924525442
 21
-861.07472959685367
 31
0.0
  0
LINE
  5
B9
100
AcDbEntity
  8
0
370
              -2
390
0
  6
Continuous
 62
               0
100
AcDbLine
 10
-218.10150924525436
 20
-786.07472959685367
 30
0.0
 11
-218.10150924525436
 21
-861.07472959685367
 31
0.0
  0
LINE
  5
BA
100
AcDbEntity
  8
0
370
              -2
390
0
  6
Continuous
 62
               0
100
AcDbLine
 10
-548.10150924525442
 20
-861.07472959685367
 30
0.0
 11
-218.10150924525436
 21
-861.07472959685367
 31
0.0
  0
CIRCLE
  5
BB
102
{ACAD_REACTORS
330
BC
102
}
100
AcDbEntity
  8
0
370
              -2
390
0
  6
Continuous
 62
               0
100
AcDbCircle
 10
-548.10150924525442
 20
-861.07472959685367
 30
0.0
 40
1.9998779296875
  0
HATCH
  5
BC
100
AcDbEntity
  8
0
370
              -2
390
0
  6
Continuous
 62
               0
100
AcDbHatch
 10
0.0
 20
0.0
 30
0.0
210
0.0
220
0.0
230
1.0
  2
SOLID
 70
               1
 71
               1
 91
        1
 92
        1
 93
        1
 72
               2
 10
-548.10150924525442
 20
-861.07472959685367
 40
1.9998779296875
 50
0.0
 51
360.0
 73
               0
 97
        1
330
BB
 75
               0
 76
               1
 98
        1
 10
0.0
 20
0.0
  0
CIRCLE
  5
BD
102
{ACAD_REACTORS
330
BE
102
}
100
AcDbEntity
  8
0
370
              -2
390
0
  6
Continuous
 62
               0
100
AcDbCircle
 10
-218.10150924525436
 20
-861.07472959685367
 30
0.0
 40
1.9998779296875
  0
HATCH
  5
BE
100
AcDbEntity
  8
0
370
              -2
390
0
  6
Continuous
 62
               0
100
AcDbHatch
 10
0.0
 20
0.0
 30
0.0
210
0.0
220
0.0
230
1.0
  2
SOLID
 70
               1
 71
               1
 91
        1
 92
        1
 93
        1
 72
               2
 10
-218.10150924525436
 20
-861.07472959685367
 40
1.9998779296875
 50
0.0
 51
360.0
 73
               0
 97
        1
330
BD
 75
               0
 76
               1
 98
        1
 10
0.0
 20
0.0
  0
MTEXT
  5
BF
100
AcDbEntity
  8
0
390
0
 62
               0
100
AcDbMText
 10
-406.91401092742996
 20
-827.19711240935362
 30
0.0
 40
27.78125
 41
0.0
 71
               1
 72
               1
  1
{\H0.8795x;\l330}
 73
               1
 44
0.7828267384257843
  0
POINT
  5
C0
100
AcDbEntity
  8
Defpoints
370
               0
390
0
 62
               0
100
AcDbPoint
 10
-218.10150924525436
 20
-761.07472959685367
 30
0.0
  0
POINT
  5
C1
100
AcDbEntity
  8
Defpoints
370
               0
390
0
 62
               0
100
AcDbPoint
 10
-548.10150924525442
 20
-761.07472959685367
 30
0.0
  0
POINT
  5
C2
100
AcDbEntity
  8
Defpoints
370
               0
390
0
 62
               0
100
AcDbPoint
 10
-548.10150924525442
 20
-861.07472959685367
 30
0.0
  0
ENDBLK
  5
C3
100
AcDbEntity
  8
notes
390
0
100
AcDbBlockEnd
  0
BLOCK
  5
C4
100
AcDbEntity
  8
notes
390
0
100
AcDbBlockBegin
  2
*D10
 70
               1
 10
0.0
 20
0.0
 30
0.0
  3
*D10
  1

  0
LINE
  5
C5
100
AcDbEntity
  8
0
370
              -2
390
0
  6
Continuous
 62
               0
100
AcDbLine
 10
547.80784197368803
 20
-476.07472959685344
 30
0.0
 11
442.81296494573508
 21
-476.07472959685344
 31
0.0
  0
LINE
  5
C6
100
AcDbEntity
  8
0
370
              -2
390
0
  6
Continuous
 62
               0
100
AcDbLine
 10
547.80784197368803
 20
-196.07472959685347
 30
0.0
 11
442.81296494573508
 21
-196.07472959685347
 31
0.0
  0
LINE
  5
C7
100
AcDbEntity
  8
0
370
              -2
390
0
  6
Continuous
 62
               0
100
AcDbLine
 10
442.81296494573508
 20
-476.07472959685344
 30
0.0
 11
442.81296494573508
 21
-196.07472959685347
 31
0.0
  0
CIRCLE
  5
C8
102
{ACAD_REACTORS
330
C9
102
}
100
AcDbEntity
  8
0
370
              -2
390
0
  6
Continuous
 62
               0
100
AcDbCircle
 10
442.81296494573508
 20
-476.07472959685344
 30
0.0
 40
1.9998779296875
  0
HATCH
  5
C9
100
AcDbEntity
  8
0
370
              -2
390
0
  6
Continuous
 62
               0
100
AcDbHatch
 10
0.0
 20
0.0
 30
0.0
210
0.0
220
0.0
230
1.0
  2
SOLID
 70
               1
 71
               1
 91
        1
 92
        1
 93
        1
 72
               2
 10
442.81296494573508
 20
-476.07472959685344
 40
1.9998779296875
 50
0.0
 51
360.0
 73
               0
 97
        1
330
C8
 75
               0
 76
               1
 98
        1
 10
0.0
 20
0.0
  0
CIRCLE
  5
CA
102
{ACAD_REACTORS
330
CB
102
}
100
AcDbEntity
  8
0
370
              -2
390
0
  6
Continuous
 62
               0
100
AcDbCircle
 10
442.81296494573508
 20
-196.07472959685347
 30
0.0
 40
1.9998779296875
  0
HATCH
  5
CB
100
AcDbEntity
  8
0
370
              -2
390
0
  6
Continuous
 62
               0
100
AcDbHatch
 10
0.0
 20
0.0
 30
0.0
210
0.0
220
0.0
230
1.0
  2
SOLID
 70
               1
 71
               1
 91
        1
 92
        1
 93
        1
 72
               2
 10
442.81296494573508
 20
-196.07472959685347
 40
1.9998779296875
 50
0.0
 51
360.0
 73
               0
 97
        1
330
CA
 75
               0
 76
               1
 98
        1
 10
0.0
 20
0.0
  0
MTEXT
  5
CC
100
AcDbEntity
  8
0
390
0
 62
               0
100
AcDbMText
 10
408.93534775823508
 20
-359.88723127902904
 30
0.0
 40
27.78125
 41
0.0
 71
               1
 72
               1
  1
{\H0.8795x;\l280}
 11
0.0
 21
1.0
 31
0.0
 73
               1
 44
0.7828267384257843
  0
POINT
  5
CD
100
AcDbEntity
  8
Defpoints
370
               0
390
0
 62
               0
100
AcDbPoint
 10
572.80784197368803
 20
-196.07472959685347
 30
0.0
  0
POINT
  5
CE
100
AcDbEntity
  8
Defpoints
370
               0
390
0
 62
               0
100
AcDbPoint
 10
572.80784197368803
 20
-476.07472959685344
 30
0.0
  0
POINT
  5
CF
100
AcDbEntity
  8
Defpoints
370
               0
390
0
 62
               0
100
AcDbPoint
 10
442.81296494573508
 20
-476.07472959685344
 30
0.0
  0
ENDBLK
  5
D0
100
AcDbEntity
  8
notes
390
0
100
AcDbBlockEnd
  0
BLOCK
  5
D1
100
AcDbEntity
  8
notes
390
0
100
AcDbBlockBegin
  2
*D11
 70
               1
 10
0.0
 20
0.0
 30
0.0
  3
*D11
  1

  0
LINE
  5
D2
100
AcDbEntity
  8
0
370
              -2
390
0
  6
Continuous
 62
               0
100
AcDbLine
 10
542.82068863829772
 20
-776.7116911643742
 30
0.0
 11
542.82068863829772
 21
-861.07472959685367
 31
0.0
  0
LINE
  5
D3
100
AcDbEntity
  8
0
370
              -2
390
0
  6
Continuous
 62
               0
100
AcDbLine
 10
592.80784197368803
 20
-521.07472959685344
 30
0.0
 11
592.80784197368803
 21
-861.07472959685367
 31
0.0
  0
LINE
  5
D4
100
AcDbEntity
  8
0
370
              -2
390
0
  6
Continuous
 62
               0
100
AcDbLine
 10
542.82068863829772
 20
-861.07472959685367
 30
0.0
 11
592.80784197368803
 21
-861.07472959685367
 31
0.0
  0
CIRCLE
  5
D5
102
{ACAD_REACTORS
330
D6
102
}
100
AcDbEntity
  8
0
370
              -2
390
0
  6
Continuous
 62
               0
100
AcDbCircle
 10
542.82068863829772
 20
-861.07472959685367
 30
0.0
 40
1.9998779296875
  0
HATCH
  5
D6
100
AcDbEntity
  8
0
370
              -2
390
0
  6
Continuous
 62
               0
100
AcDbHatch
 10
0.0
 20
0.0
 30
0.0
210
0.0
220
0.0
230
1.0
  2
SOLID
 70
               1
 71
               1
 91
        1
 92
        1
 93
        1
 72
               2
 10
542.82068863829772
 20
-861.07472959685367
 40
1.9998779296875
 50
0.0
 51
360.0
 73
               0
 97
        1
330
D5
 75
               0
 76
               1
 98
        1
 10
0.0
 20
0.0
  0
CIRCLE
  5
D7
102
{ACAD_REACTORS
330
D8
102
}
100
AcDbEntity
  8
0
370
              -2
390
0
  6
Continuous
 62
               0
100
AcDbCircle
 10
592.80784197368803
 20
-861.07472959685367
 30
0.0
 40
1.9998779296875
  0
HATCH
  5
D8
100
AcDbEntity
  8
0
370
              -2
390
0
  6
Continuous
 62
               0
100
AcDbHatch
 10
0.0
 20
0.0
 30
0.0
210
0.0
220
0.0
230
1.0
  2
SOLID
 70
               1
 71
               1
 91
        1
 92
        1
 93
        1
 72
               2
 10
592.80784197368803
 20
-861.07472959685367
 40
1.9998779296875
 50
0.0
 51
360.0
 73
               0
 97
        1
330
D7
 75
               0
 76
               1
 98
        1
 10
0.0
 20
0.0
  0
MTEXT
  5
D9
100
AcDbEntity
  8
0
390
0
 62
               0
100
AcDbMText
 10
551.93926530599288
 20
-827.19711240935362
 30
0.0
 40
27.78125
 41
0.0
 71
               1
 72
               1
  1
{\H0.8795x;\l50}
 73
               1
 44
0.7828267384257843
  0
POINT
  5
DA
100
AcDbEntity
  8
Defpoints
370
               0
390
0
 62
               0
100
AcDbPoint
 10
592.80784197368803
 20
-496.07472959685344
 30
0.0
  0
POINT
  5
DB
100
AcDbEntity
  8
Defpoints
370
               0
390
0
 62
               0
100
AcDbPoint
 10
542.82068863829772
 20
-751.7116911643742
 30
0.0
  0
POINT
  5
DC
100
AcDbEntity
  8
Defpoints
370
               0
390
0
 62
               0
100
AcDbPoint
 10
542.82068863829772
 20
-861.07472959685367
 30
0.0
  0
ENDBLK
  5
DD
100
AcDbEntity
  8
notes
390
0
100
AcDbBlockEnd
  0
BLOCK
  5
DE
100
AcDbEntity
  8
notes
390
0
100
AcDbBlockBegin
  2
*D12
 70
               1
 10
0.0
 20
0.0
 30
0.0
  3
*D12
  1

  0
LINE
  5
DF
100
AcDbEntity
  8
0
370
              -2
390
0
  6
Continuous
 62
               0
100
AcDbLine
 10
542.82068863829772
 20
103.28830883562566
 30
0.0
 11
542.82068863829772
 21
188.92527040314619
 31
0.0
  0
LINE
  5
E0
100
AcDbEntity
  8
0
370
              -2
390
0
  6
Continuous
 62
               0
100
AcDbLine
 10
712.82068863829772
 20
-271.86657452545495
 30
0.0
 11
712.82068863829772
 21
188.92527040314619
 31
0.0
  0
LINE
  5
E1
100
AcDbEntity
  8
0
370
              -2
390
0
  6
Continuous
 62
               0
100
AcDbLine
 10
542.82068863829772
 20
188.92527040314619
 30
0.0
 11
712.82068863829772
 21
188.92527040314619
 31
0.0
  0
CIRCLE
  5
E2
102
{ACAD_REACTORS
330
E3
102
}
100
AcDbEntity
  8
0
370
              -2
390
0
  6
Continuous
 62
               0
100
AcDbCircle
 10
542.82068863829772
 20
188.92527040314619
 30
0.0
 40
1.9998779296875
  0
HATCH
  5
E3
100
AcDbEntity
  8
0
370
              -2
390
0
  6
Continuous
 62
               0
100
AcDbHatch
 10
0.0
 20
0.0
 30
0.0
210
0.0
220
0.0
230
1.0
  2
SOLID
 70
               1
 71
               1
 91
        1
 92
        1
 93
        1
 72
               2
 10
542.82068863829772
 20
188.92527040314619
 40
1.9998779296875
 50
0.0
 51
360.0
 73
               0
 97
        1
330
E2
 75
               0
 76
               1
 98
        1
 10
0.0
 20
0.0
  0
CIRCLE
  5
E4
102
{ACAD_REACTORS
330
E5
102
}
100
AcDbEntity
  8
0
370
              -2
390
0
  6
Continuous
 62
               0
100
AcDbCircle
 10
712.82068863829772
 20
188.92527040314619
 30
0.0
 40
1.9998779296875
  0
HATCH
  5
E5
100
AcDbEntity
  8
0
370
              -2
390
0
  6
Continuous
 62
               0
100
AcDbHatch
 10
0.0
 20
0.0
 30
0.0
210
0.0
220
0.0
230
1.0
  2
SOLID
 70
               1
 71
               1
 91
        1
 92
        1
 93
        1
 72
               2
 10
712.82068863829772
 20
188.92527040314619
 40
1.9998779296875
 50
0.0
 51
360.0
 73
               0
 97
        1
330
E4
 75
               0
 76
               1
 98
        1
 10
0.0
 20
0.0
  0
MTEXT
  5
E6
100
AcDbEntity
  8
0
390
0
 62
               0
100
AcDbMText
 10
604.00818695612224
 20
222.80288759064618
 30
0.0
 40
27.78125
 41
0.0
 71
               1
 72
               1
  1
{\H0.8795x;\l170}
 73
               1
 44
0.7828267384257843
  0
POINT
  5
E7
100
AcDbEntity
  8
Defpoints
370
               0
390
0
 62
               0
100
AcDbPoint
 10
712.82068863829772
 20
-296.86657452545495
 30
0.0
  0
POINT
  5
E8
100
AcDbEntity
  8
Defpoints
370
               0
390
0
 62
               0
100
AcDbPoint
 10
542.82068863829772
 20
78.288308835625656
 30
0.0
  0
POINT
  5
E9
100
AcDbEntity
  8
Defpoints
370
               0
390
0
 62
               0
100
AcDbPoint
 10
542.82068863829772
 20
188.92527040314619
 30
0.0
  0
ENDBLK
  5
EA
100
AcDbEntity
  8
notes
390
0
100
AcDbBlockEnd
  0
BLOCK
  5
EB
100
AcDbEntity
  8
notes
390
0
100
AcDbBlockBegin
  2
*D13
 70
               1
 10
0.0
 20
0.0
 30
0.0
  3
*D13
  1

  0
LINE
  5
EC
100
AcDbEntity
  8
0
370
              -2
390
0
  6
Continuous
 62
               0
100
AcDbLine
 10
542.82058640581965
 20
568.37938520819455
 30
0.0
 11
542.82058640581965
 21
483.38836262331597
 31
0.0
  0
LINE
  5
ED
100
AcDbEntity
  8
0
370
              -2
390
0
  6
Continuous
 62
               0
100
AcDbLine
 10
672.82058640581977
 20
569.07951294282805
 30
0.0
 11
672.82058640581977
 21
483.38836262331597
 31
0.0
  0
LINE
  5
EE
100
AcDbEntity
  8
0
370
              -2
390
0
  6
Continuous
 62
               0
100
AcDbLine
 10
542.82058640581965
 20
483.38836262331597
 30
0.0
 11
672.82058640581977
 21
483.38836262331597
 31
0.0
  0
CIRCLE
  5
EF
102
{ACAD_REACTORS
330
F0
102
}
100
AcDbEntity
  8
0
370
              -2
390
0
  6
Continuous
 62
               0
100
AcDbCircle
 10
542.82058640581965
 20
483.38836262331597
 30
0.0
 40
1.9998779296875
  0
HATCH
  5
F0
100
AcDbEntity
  8
0
370
              -2
390
0
  6
Continuous
 62
               0
100
AcDbHatch
 10
0.0
 20
0.0
 30
0.0
210
0.0
220
0.0
230
1.0
  2
SOLID
 70
               1
 71
               1
 91
        1
 92
        1
 93
        1
 72
               2
 10
542.82058640581965
 20
483.38836262331597
 40
1.9998779296875
 50
0.0
 51
360.0
 73
               0
 97
        1
330
EF
 75
               0
 76
               1
 98
        1
 10
0.0
 20
0.0
  0
CIRCLE
  5
F1
102
{ACAD_REACTORS
330
F2
102
}
100
AcDbEntity
  8
0
370
              -2
390
0
  6
Continuous
 62
               0
100
AcDbCircle
 10
672.82058640581977
 20
483.38836262331597
 30
0.0
 40
1.9998779296875
  0
HATCH
  5
F2
100
AcDbEntity
  8
0
370
              -2
390
0
  6
Continuous
 62
               0
100
AcDbHatch
 10
0.0
 20
0.0
 30
0.0
210
0.0
220
0.0
230
1.0
  2
SOLID
 70
               1
 71
               1
 91
        1
 92
        1
 93
        1
 72
               2
 10
672.82058640581977
 20
483.38836262331597
 40
1.9998779296875
 50
0.0
 51
360.0
 73
               0
 97
        1
330
F1
 75
               0
 76
               1
 98
        1
 10
0.0
 20
0.0
  0
MTEXT
  5
F3
100
AcDbEntity
  8
0
390
0
 62
               0
100
AcDbMText
 10
584.00808472364429
 20
517.26597981081602
 30
0.0
 40
27.78125
 41
0.0
 71
               1
 72
               1
  1
{\H0.8795x;\l130}
 73
               1
 44
0.7828267384257843
  0
POINT
  5
F4
100
AcDbEntity
  8
Defpoints
370
               0
390
0
 62
               0
100
AcDbPoint
 10
672.82058640581977
 20
594.07951294282805
 30
0.0
  0
POINT
  5
F5
100
AcDbEntity
  8
Defpoints
370
               0
390
0
 62
               0
100
AcDbPoint
 10
542.82058640581965
 20
593.37938520819455
 30
0.0
  0
POINT
  5
F6
100
AcDbEntity
  8
Defpoints
370
               0
390
0
 62
               0
100
AcDbPoint
 10
542.82058640581965
 20
483.38836262331597
 30
0.0
  0
ENDBLK
  5
F7
100
AcDbEntity
  8
notes
390
0
100
AcDbBlockEnd
  0
BLOCK
  5
F8
100
AcDbEntity
  8
notes
390
0
100
AcDbBlockBegin
  2
*D14
 70
               1
 10
0.0
 20
0.0
 30
0.0
  3
*D14
  1

  0
LINE
  5
F9
100
AcDbEntity
  8
0
370
              -2
390
0
  6
Continuous
 62
               0
100
AcDbLine
 10
672.82058640581977
 20
569.07951294282805
 30
0.0
 11
672.82058640581977
 21
483.38836262331597
 31
0.0
  0
LINE
  5
FA
100
AcDbEntity
  8
0
370
              -2
390
0
  6
Continuous
 62
               0
100
AcDbLine
 10
712.812163069809
 20
819.19674401025031
 30
0.0
 11
712.812163069809
 21
483.38836262331597
 31
0.0
  0
LINE
  5
FB
100
AcDbEntity
  8
0
370
              -2
390
0
  6
Continuous
 62
               0
100
AcDbLine
 10
672.82058640581977
 20
483.38836262331597
 30
0.0
 11
712.812163069809
 21
483.38836262331597
 31
0.0
  0
CIRCLE
  5
FC
102
{ACAD_REACTORS
330
FD
102
}
100
AcDbEntity
  8
0
370
              -2
390
0
  6
Continuous
 62
               0
100
AcDbCircle
 10
672.82058640581977
 20
483.38836262331597
 30
0.0
 40
1.9998779296875
  0
HATCH
  5
FD
100
AcDbEntity
  8
0
370
              -2
390
0
  6
Continuous
 62
               0
100
AcDbHatch
 10
0.0
 20
0.0
 30
0.0
210
0.0
220
0.0
230
1.0
  2
SOLID
 70
               1
 71
               1
 91
        1
 92
        1
 93
        1
 72
               2
 10
672.82058640581977
 20
483.38836262331597
 40
1.9998779296875
 50
0.0
 51
360.0
 73
               0
 97
        1
330
FC
 75
               0
 76
               1
 98
        1
 10
0.0
 20
0.0
  0
CIRCLE
  5
FE
102
{ACAD_REACTORS
330
FF
102
}
100
AcDbEntity
  8
0
370
              -2
390
0
  6
Continuous
 62
               0
100
AcDbCircle
 10
712.812163069809
 20
483.38836262331597
 30
0.0
 40
1.9998779296875
  0
HATCH
  5
FF
100
AcDbEntity
  8
0
370
              -2
390
0
  6
Continuous
 62
               0
100
AcDbHatch
 10
0.0
 20
0.0
 30
0.0
210
0.0
220
0.0
230
1.0
  2
SOLID
 70
               1
 71
               1
 91
        1
 92
        1
 93
        1
 72
               2
 10
712.812163069809
 20
483.38836262331597
 40
1.9998779296875
 50
0.0
 51
360.0
 73
               0
 97
        1
330
FE
 75
               0
 76
               1
 98
        1
 10
0.0
 20
0.0
  0
MTEXT
  5
100
100
AcDbEntity
  8
0
390
0
 62
               0
100
AcDbMText
 10
676.94137473781439
 20
517.26597981081602
 30
0.0
 40
27.78125
 41
0.0
 71
               1
 72
               1
  1
{\H0.8795x;\l40}
 73
               1
 44
0.7828267384257843
  0
POINT
  5
101
100
AcDbEntity
  8
Defpoints
370
               0
390
0
 62
               0
100
AcDbPoint
 10
712.812163069809
 20
844.19674401025031
 30
0.0
  0
POINT
  5
102
100
AcDbEntity
  8
Defpoints
370
               0
390
0
 62
               0
100
AcDbPoint
 10
672.82058640581977
 20
594.07951294282805
 30
0.0
  0
POINT
  5
103
100
AcDbEntity
  8
Defpoints
370
               0
390
0
 62
               0
100
AcDbPoint
 10
672.82058640581977
 20
483.38836262331597
 30
0.0
  0
ENDBLK
  5
104
100
AcDbEntity
  8
notes
390
0
100
AcDbBlockEnd
  0
BLOCK
  5
105
100
AcDbEntity
  8
notes
390
0
100
AcDbBlockBegin
  2
*D15
 70
               1
 10
0.0
 20
0.0
 30
0.0
  3
*D15
  1

  0
LINE
  5
106
100
AcDbEntity
  8
0
370
              -2
390
0
  6
Continuous
 62
               0
100
AcDbLine
 10
517.81296494573508
 20
1008.4214355399822
 30
0.0
 11
442.81764216705432
 21
1008.4214355399822
 31
0.0
  0
LINE
  5
107
100
AcDbEntity
  8
0
370
              -2
390
0
  6
Continuous
 62
               0
100
AcDbLine
 10
527.812163069809
 20
1073.4214355399822
 30
0.0
 11
442.81764216705432
 21
1073.4214355399822
 31
0.0
  0
LINE
  5
108
100
AcDbEntity
  8
0
370
              -2
390
0
  6
Continuous
 62
               0
100
AcDbLine
 10
442.81764216705432
 20
1008.4214355399822
 30
0.0
 11
442.81764216705432
 21
1073.4214355399822
 31
0.0
  0
CIRCLE
  5
109
102
{ACAD_REACTORS
330
10A
102
}
100
AcDbEntity
  8
0
370
              -2
390
0
  6
Continuous
 62
               0
100
AcDbCircle
 10
442.81764216705432
 20
1008.4214355399822
 30
0.0
 40
1.9998779296875
  0
HATCH
  5
10A
100
AcDbEntity
  8
0
370
              -2
390
0
  6
Continuous
 62
               0
100
AcDbHatch
 10
0.0
 20
0.0
 30
0.0
210
0.0
220
0.0
230
1.0
  2
SOLID
 70
               1
 71
               1
 91
        1
 92
        1
 93
        1
 72
               2
 10
442.81764216705432
 20
1008.4214355399822
 40
1.9998779296875
 50
0.0
 51
360.0
 73
               0
 97
        1
330
109
 75
               0
 76
               1
 98
        1
 10
0.0
 20
0.0
  0
CIRCLE
  5
10B
102
{ACAD_REACTORS
330
10C
102
}
100
AcDbEntity
  8
0
370
              -2
390
0
  6
Continuous
 62
               0
100
AcDbCircle
 10
442.81764216705432
 20
1073.4214355399822
 30
0.0
 40
1.9998779296875
  0
HATCH
  5
10C
100
AcDbEntity
  8
0
370
              -2
390
0
  6
Continuous
 62
               0
100
AcDbHatch
 10
0.0
 20
0.0
 30
0.0
210
0.0
220
0.0
230
1.0
  2
SOLID
 70
               1
 71
               1
 91
        1
 92
        1
 93
        1
 72
               2
 10
442.81764216705432
 20
1073.4214355399822
 40
1.9998779296875
 50
0.0
 51
360.0
 73
               0
 97
        1
330
10B
 75
               0
 76
               1
 98
        1
 10
0.0
 20
0.0
  0
MTEXT
  5
10D
100
AcDbEntity
  8
0
390
0
 62
               0
100
AcDbMText
 10
408.94002497955432
 20
1025.0464355399822
 30
0.0
 40
27.78125
 41
0.0
 71
               1
 72
               1
  1
{\H0.8795x;\l65}
 11
0.0
 21
1.0
 31
0.0
 73
               1
 44
0.7828267384257843
  0
POINT
  5
10E
100
AcDbEntity
  8
Defpoints
370
               0
390
0
 62
               0
100
AcDbPoint
 10
552.812163069809
 20
1073.4214355399822
 30
0.0
  0
POINT
  5
10F
100
AcDbEntity
  8
Defpoints
370
               0
390
0
 62
               0
100
AcDbPoint
 10
542.81296494573508
 20
1008.4214355399822
 30
0.0
  0
POINT
  5
110
100
AcDbEntity
  8
Defpoints
370
               0
390
0
 62
               0
100
AcDbPoint
 10
442.81764216705432
 20
1008.4214355399822
 30
0.0
  0
ENDBLK
  5
111
100
AcDbEntity
  8
notes
390
0
100
AcDbBlockEnd
  0
BLOCK
  5
112
100
AcDbEntity
  8
notes
390
0
100
AcDbBlockBegin
  2
*D16
 70
               1
 10
0.0
 20
0.0
 30
0.0
  3
*D16
  1

  0
LINE
  5
113
100
AcDbEntity
  8
0
370
              -2
390
0
  6
Continuous
 62
               0
100
AcDbLine
 10
737.812163069809
 20
884.05839710750297
 30
0.0
 11
812.812163069809
 21
884.05839710750297
 31
0.0
  0
LINE
  5
114
100
AcDbEntity
  8
0
370
              -2
390
0
  6
Continuous
 62
               0
100
AcDbLine
 10
697.81586108622514
 20
1074.058397107503
 30
0.0
 11
812.812163069809
 21
1074.058397107503
 31
0.0
  0
LINE
  5
115
100
AcDbEntity
  8
0
370
              -2
390
0
  6
Continuous
 62
               0
100
AcDbLine
 10
812.812163069809
 20
884.05839710750297
 30
0.0
 11
812.812163069809
 21
1074.058397107503
 31
0.0
  0
CIRCLE
  5
116
102
{ACAD_REACTORS
330
117
102
}
100
AcDbEntity
  8
0
370
              -2
390
0
  6
Continuous
 62
               0
100
AcDbCircle
 10
812.812163069809
 20
884.05839710750297
 30
0.0
 40
1.9998779296875
  0
HATCH
  5
117
100
AcDbEntity
  8
0
370
              -2
390
0
  6
Continuous
 62
               0
100
AcDbHatch
 10
0.0
 20
0.0
 30
0.0
210
0.0
220
0.0
230
1.0
  2
SOLID
 70
               1
 71
               1
 91
        1
 92
        1
 93
        1
 72
               2
 10
812.812163069809
 20
884.05839710750297
 40
1.9998779296875
 50
0.0
 51
360.0
 73
               0
 97
        1
330
116
 75
               0
 76
               1
 98
        1
 10
0.0
 20
0.0
  0
CIRCLE
  5
118
102
{ACAD_REACTORS
330
119
102
}
100
AcDbEntity
  8
0
370
              -2
390
0
  6
Continuous
 62
               0
100
AcDbCircle
 10
812.812163069809
 20
1074.058397107503
 30
0.0
 40
1.9998779296875
  0
HATCH
  5
119
100
AcDbEntity
  8
0
370
              -2
390
0
  6
Continuous
 62
               0
100
AcDbHatch
 10
0.0
 20
0.0
 30
0.0
210
0.0
220
0.0
230
1.0
  2
SOLID
 70
               1
 71
               1
 91
        1
 92
        1
 93
        1
 72
               2
 10
812.812163069809
 20
1074.058397107503
 40
1.9998779296875
 50
0.0
 51
360.0
 73
               0
 97
        1
330
118
 75
               0
 76
               1
 98
        1
 10
0.0
 20
0.0
  0
MTEXT
  5
11A
100
AcDbEntity
  8
0
390
0
 62
               0
100
AcDbMText
 10
778.93454588230895
 20
955.24589542532749
 30
0.0
 40
27.78125
 41
0.0
 71
               1
 72
               1
  1
{\H0.8795x;\l190}
 11
0.0
 21
1.0
 31
0.0
 73
               1
 44
0.7828267384257843
  0
POINT
  5
11B
100
AcDbEntity
  8
Defpoints
370
               0
390
0
 62
               0
100
AcDbPoint
 10
672.81586108622514
 20
1074.058397107503
 30
0.0
  0
POINT
  5
11C
100
AcDbEntity
  8
Defpoints
370
               0
390
0
 62
               0
100
AcDbPoint
 10
712.812163069809
 20
884.05839710750297
 30
0.0
  0
POINT
  5
11D
100
AcDbEntity
  8
Defpoints
370
               0
390
0
 62
               0
100
AcDbPoint
 10
812.812163069809
 20
884.05839710750297
 30
0.0
  0
ENDBLK
  5
11E
100
AcDbEntity
  8
notes
390
0
100
AcDbBlockEnd
  0
BLOCK
  5
11F
100
AcDbEntity
  8
notes
390
0
100
AcDbBlockBegin
  2
*D17
 70
               1
 10
0.0
 20
0.0
 30
0.0
  3
*D17
  1

  0
LINE
  5
120
100
AcDbEntity
  8
0
370
              -2
390
0
  6
Continuous
 62
               0
100
AcDbLine
 10
542.81764216705437
 20
863.38836262331597
 30
0.0
 11
542.81764216705437
 21
855.37897575516308
 31
0.0
  0
LINE
  5
121
100
AcDbEntity
  8
0
370
              -2
390
0
  6
Continuous
 62
               0
100
AcDbLine
 10
662.81764216705437
 20
863.38836262331597
 30
0.0
 11
662.81764216705437
 21
855.37897575516308
 31
0.0
  0
LINE
  5
122
100
AcDbEntity
  8
0
370
              -2
390
0
  6
Continuous
 62
               0
100
AcDbLine
 10
542.81764216705437
 20
855.37897575516308
 30
0.0
 11
393.62979550244472
 21
855.37897575516308
 31
0.0
  0
LINE
  5
123
100
AcDbEntity
  8
0
370
              -2
390
0
  6
Continuous
 62
               0
100
AcDbLine
 10
542.81764216705437
 20
855.37897575516308
 30
0.0
 11
662.81764216705437
 21
855.37897575516308
 31
0.0
  0
CIRCLE
  5
124
102
{ACAD_REACTORS
330
125
102
}
100
AcDbEntity
  8
0
370
              -2
390
0
  6
Continuous
 62
               0
100
AcDbCircle
 10
542.81764216705437
 20
855.37897575516308
 30
0.0
 40
1.9998779296875
  0
HATCH
  5
125
100
AcDbEntity
  8
0
370
              -2
390
0
  6
Continuous
 62
               0
100
AcDbHatch
 10
0.0
 20
0.0
 30
0.0
210
0.0
220
0.0
230
1.0
  2
SOLID
 70
               1
 71
               1
 91
        1
 92
        1
 93
        1
 72
               2
 10
542.81764216705437
 20
855.37897575516308
 40
1.9998779296875
 50
0.0
 51
360.0
 73
               0
 97
        1
330
124
 75
               0
 76
               1
 98
        1
 10
0.0
 20
0.0
  0
CIRCLE
  5
126
102
{ACAD_REACTORS
330
127
102
}
100
AcDbEntity
  8
0
370
              -2
390
0
  6
Continuous
 62
               0
100
AcDbCircle
 10
662.81764216705437
 20
855.37897575516308
 30
0.0
 40
1.9998779296875
  0
HATCH
  5
127
100
AcDbEntity
  8
0
370
              -2
390
0
  6
Continuous
 62
               0
100
AcDbHatch
 10
0.0
 20
0.0
 30
0.0
210
0.0
220
0.0
230
1.0
  2
SOLID
 70
               1
 71
               1
 91
        1
 92
        1
 93
        1
 72
               2
 10
662.81764216705437
 20
855.37897575516308
 40
1.9998779296875
 50
0.0
 51
360.0
 73
               0
 97
        1
330
126
 75
               0
 76
               1
 98
        1
 10
0.0
 20
0.0
  0
MTEXT
  5
128
100
AcDbEntity
  8
0
390
0
 62
               0
100
AcDbMText
 10
393.62979550244472
 20
889.25659294266302
 30
0.0
 40
27.78125
 41
0.0
 71
               1
 72
               1
  1
{\H0.8795x;\l120(深さ)}
 73
               1
 44
0.7828267384257843
  0
POINT
  5
129
100
AcDbEntity
  8
Defpoints
370
               0
390
0
 62
               0
100
AcDbPoint
 10
662.81764216705437
 20
888.38836262331597
 30
0.0
  0
POINT
  5
12A
100
AcDbEntity
  8
Defpoints
370
               0
390
0
 62
               0
100
AcDbPoint
 10
542.81764216705437
 20
888.38836262331597
 30
0.0
  0
POINT
  5
12B
100
AcDbEntity
  8
Defpoints
370
               0
390
0
 62
               0
100
AcDbPoint
 10
542.81764216705437
 20
855.37897575516308
 30
0.0
  0
ENDBLK
  5
12C
100
AcDbEntity
  8
notes
390
0
100
AcDbBlockEnd
  0
BLOCK
  5
12D
100
AcDbEntity
  8
notes
390
0
100
AcDbBlockBegin
  2
*D18
 70
               1
 10
0.0
 20
0.0
 30
0.0
  3
*D18
  1

  0
LINE
  5
12E
100
AcDbEntity
  8
0
370
              -2
390
0
  6
Continuous
 62
               0
100
AcDbLine
 10
-650.60150924525442
 20
-436.07472959685344
 30
0.0
 11
-773.10150924525442
 21
-436.07472959685344
 31
0.0
  0
LINE
  5
12F
100
AcDbEntity
  8
0
370
              -2
390
0
  6
Continuous
 62
               0
100
AcDbLine
 10
-650.60150924525442
 20
-336.07472959685344
 30
0.0
 11
-773.10150924525442
 21
-336.07472959685344
 31
0.0
  0
LINE
  5
130
100
AcDbEntity
  8
0
370
              -2
390
0
  6
Continuous
 62
               0
100
AcDbLine
 10
-773.10150924525442
 20
-436.07472959685344
 30
0.0
 11
-773.10150924525442
 21
-336.07472959685344
 31
0.0
  0
CIRCLE
  5
131
102
{ACAD_REACTORS
330
132
102
}
100
AcDbEntity
  8
0
370
              -2
390
0
  6
Continuous
 62
               0
100
AcDbCircle
 10
-773.10150924525442
 20
-436.07472959685344
 30
0.0
 40
1.9998779296875
  0
HATCH
  5
132
100
AcDbEntity
  8
0
370
              -2
390
0
  6
Continuous
 62
               0
100
AcDbHatch
 10
0.0
 20
0.0
 30
0.0
210
0.0
220
0.0
230
1.0
  2
SOLID
 70
               1
 71
               1
 91
        1
 92
        1
 93
        1
 72
               2
 10
-773.10150924525442
 20
-436.07472959685344
 40
1.9998779296875
 50
0.0
 51
360.0
 73
               0
 97
        1
330
131
 75
               0
 76
               1
 98
        1
 10
0.0
 20
0.0
  0
CIRCLE
  5
133
102
{ACAD_REACTORS
330
134
102
}
100
AcDbEntity
  8
0
370
              -2
390
0
  6
Continuous
 62
               0
100
AcDbCircle
 10
-773.10150924525442
 20
-336.07472959685344
 30
0.0
 40
1.9998779296875
  0
HATCH
  5
134
100
AcDbEntity
  8
0
370
              -2
390
0
  6
Continuous
 62
               0
100
AcDbHatch
 10
0.0
 20
0.0
 30
0.0
210
0.0
220
0.0
230
1.0
  2
SOLID
 70
               1
 71
               1
 91
        1
 92
        1
 93
        1
 72
               2
 10
-773.10150924525442
 20
-336.07472959685344
 40
1.9998779296875
 50
0.0
 51
360.0
 73
               0
 97
        1
330
133
 75
               0
 76
               1
 98
        1
 10
0.0
 20
0.0
  0
MTEXT
  5
135
100
AcDbEntity
  8
0
390
0
 62
               0
100
AcDbMText
 10
-806.97912643275447
 20
-409.88723127902904
 30
0.0
 40
27.78125
 41
0.0
 71
               1
 72
               1
  1
{\H0.8795x;\l100}
 11
0.0
 21
1.0
 31
0.0
 73
               1
 44
0.7828267384257843
  0
POINT
  5
136
100
AcDbEntity
  8
Defpoints
370
               0
390
0
 62
               0
100
AcDbPoint
 10
-625.60150924525442
 20
-336.07472959685344
 30
0.0
  0
POINT
  5
137
100
AcDbEntity
  8
Defpoints
370
               0
390
0
 62
               0
100
AcDbPoint
 10
-625.60150924525442
 20
-436.07472959685344
 30
0.0
  0
POINT
  5
138
100
AcDbEntity
  8
Defpoints
370
               0
390
0
 62
               0
100
AcDbPoint
 10
-773.10150924525442
 20
-436.07472959685344
 30
0.0
  0
ENDBLK
  5
139
100
AcDbEntity
  8
notes
390
0
100
AcDbBlockEnd
  0
BLOCK
  5
13A
100
AcDbEntity
  8
notes
390
0
100
AcDbBlockBegin
  2
*D19
 70
               1
 10
0.0
 20
0.0
 30
0.0
  3
*D19
  1

  0
LINE
  5
13B
100
AcDbEntity
  8
0
370
              -2
390
0
  6
Continuous
 62
               0
100
AcDbLine
 10
-650.60150924525442
 20
-336.07472959685344
 30
0.0
 11
-773.10150924525442
 21
-336.07472959685344
 31
0.0
  0
LINE
  5
13C
100
AcDbEntity
  8
0
370
              -2
390
0
  6
Continuous
 62
               0
100
AcDbLine
 10
-650.60150924525442
 20
-236.0747295968535
 30
0.0
 11
-773.10150924525442
 21
-236.0747295968535
 31
0.0
  0
LINE
  5
13D
100
AcDbEntity
  8
0
370
              -2
390
0
  6
Continuous
 62
               0
100
AcDbLine
 10
-773.10150924525442
 20
-336.07472959685344
 30
0.0
 11
-773.10150924525442
 21
-236.0747295968535
 31
0.0
  0
CIRCLE
  5
13E
102
{ACAD_REACTORS
330
13F
102
}
100
AcDbEntity
  8
0
370
              -2
390
0
  6
Continuous
 62
               0
100
AcDbCircle
 10
-773.10150924525442
 20
-336.07472959685344
 30
0.0
 40
1.9998779296875
  0
HATCH
  5
13F
100
AcDbEntity
  8
0
370
              -2
390
0
  6
Continuous
 62
               0
100
AcDbHatch
 10
0.0
 20
0.0
 30
0.0
210
0.0
220
0.0
230
1.0
  2
SOLID
 70
               1
 71
               1
 91
        1
 92
        1
 93
        1
 72
               2
 10
-773.10150924525442
 20
-336.07472959685344
 40
1.9998779296875
 50
0.0
 51
360.0
 73
               0
 97
        1
330
13E
 75
               0
 76
               1
 98
        1
 10
0.0
 20
0.0
  0
CIRCLE
  5
140
102
{ACAD_REACTORS
330
141
102
}
100
AcDbEntity
  8
0
370
              -2
390
0
  6
Continuous
 62
               0
100
AcDbCircle
 10
-773.10150924525442
 20
-236.0747295968535
 30
0.0
 40
1.9998779296875
  0
HATCH
  5
141
100
AcDbEntity
  8
0
370
              -2
390
0
  6
Continuous
 62
               0
100
AcDbHatch
 10
0.0
 20
0.0
 30
0.0
210
0.0
220
0.0
230
1.0
  2
SOLID
 70
               1
 71
               1
 91
        1
 92
        1
 93
        1
 72
               2
 10
-773.10150924525442
 20
-236.0747295968535
 40
1.9998779296875
 50
0.0
 51
360.0
 73
               0
 97
        1
330
140
 75
               0
 76
               1
 98
        1
 10
0.0
 20
0.0
  0
MTEXT
  5
142
100
AcDbEntity
  8
0
390
0
 62
               0
100
AcDbMText
 10
-806.97912643275447
 20
-309.88723127902904
 30
0.0
 40
27.78125
 41
0.0
 71
               1
 72
               1
  1
{\H0.8795x;\l100}
 11
0.0
 21
1.0
 31
0.0
 73
               1
 44
0.7828267384257843
  0
POINT
  5
143
100
AcDbEntity
  8
Defpoints
370
               0
390
0
 62
               0
100
AcDbPoint
 10
-625.60150924525442
 20
-236.0747295968535
 30
0.0
  0
POINT
  5
144
100
AcDbEntity
  8
Defpoints
370
               0
390
0
 62
               0
100
AcDbPoint
 10
-625.60150924525442
 20
-336.07472959685344
 30
0.0
  0
POINT
  5
145
100
AcDbEntity
  8
Defpoints
370
               0
390
0
 62
               0
100
AcDbPoint
 10
-773.10150924525442
 20
-336.07472959685344
 30
0.0
  0
ENDBLK
  5
146
100
AcDbEntity
  8
notes
390
0
100
AcDbBlockEnd
  0
BLOCK
  5
147
100
AcDbEntity
  8
notes
390
0
100
AcDbBlockBegin
  2
*D20
 70
               1
 10
0.0
 20
0.0
 30
0.0
  3
*D20
  1

  0
LINE
  5
148
100
AcDbEntity
  8
0
370
              -2
390
0
  6
Continuous
 62
               0
100
AcDbLine
 10
-650.60150924525442
 20
-236.0747295968535
 30
0.0
 11
-773.10150924525442
 21
-236.0747295968535
 31
0.0
  0
LINE
  5
149
100
AcDbEntity
  8
0
370
              -2
390
0
  6
Continuous
 62
               0
100
AcDbLine
 10
-650.60150924525442
 20
-136.07472959685344
 30
0.0
 11
-773.10150924525442
 21
-136.07472959685344
 31
0.0
  0
LINE
  5
14A
100
AcDbEntity
  8
0
370
              -2
390
0
  6
Continuous
 62
               0
100
AcDbLine
 10
-773.10150924525442
 20
-236.0747295968535
 30
0.0
 11
-773.10150924525442
 21
-136.07472959685344
 31
0.0
  0
CIRCLE
  5
14B
102
{ACAD_REACTORS
330
14C
102
}
100
AcDbEntity
  8
0
370
              -2
390
0
  6
Continuous
 62
               0
100
AcDbCircle
 10
-773.10150924525442
 20
-236.0747295968535
 30
0.0
 40
1.9998779296875
  0
HATCH
  5
14C
100
AcDbEntity
  8
0
370
              -2
390
0
  6
Continuous
 62
               0
100
AcDbHatch
 10
0.0
 20
0.0
 30
0.0
210
0.0
220
0.0
230
1.0
  2
SOLID
 70
               1
 71
               1
 91
        1
 92
        1
 93
        1
 72
               2
 10
-773.10150924525442
 20
-236.0747295968535
 40
1.9998779296875
 50
0.0
 51
360.0
 73
               0
 97
        1
330
14B
 75
               0
 76
               1
 98
        1
 10
0.0
 20
0.0
  0
CIRCLE
  5
14D
102
{ACAD_REACTORS
330
14E
102
}
100
AcDbEntity
  8
0
370
              -2
390
0
  6
Continuous
 62
               0
100
AcDbCircle
 10
-773.10150924525442
 20
-136.07472959685344
 30
0.0
 40
1.9998779296875
  0
HATCH
  5
14E
100
AcDbEntity
  8
0
370
              -2
390
0
  6
Continuous
 62
               0
100
AcDbHatch
 10
0.0
 20
0.0
 30
0.0
210
0.0
220
0.0
230
1.0
  2
SOLID
 70
               1
 71
               1
 91
        1
 92
        1
 93
        1
 72
               2
 10
-773.10150924525442
 20
-136.07472959685344
 40
1.9998779296875
 50
0.0
 51
360.0
 73
               0
 97
        1
330
14D
 75
               0
 76
               1
 98
        1
 10
0.0
 20
0.0
  0
MTEXT
  5
14F
100
AcDbEntity
  8
0
390
0
 62
               0
100
AcDbMText
 10
-806.97912643275447
 20
-209.88723127902901
 30
0.0
 40
27.78125
 41
0.0
 71
               1
 72
               1
  1
{\H0.8795x;\l100}
 11
0.0
 21
1.0
 31
0.0
 73
               1
 44
0.7828267384257843
  0
POINT
  5
150
100
AcDbEntity
  8
Defpoints
370
               0
390
0
 62
               0
100
AcDbPoint
 10
-625.60150924525442
 20
-136.07472959685344
 30
0.0
  0
POINT
  5
151
100
AcDbEntity
  8
Defpoints
370
               0
390
0
 62
               0
100
AcDbPoint
 10
-625.60150924525442
 20
-236.0747295968535
 30
0.0
  0
POINT
  5
152
100
AcDbEntity
  8
Defpoints
370
               0
390
0
 62
               0
100
AcDbPoint
 10
-773.10150924525442
 20
-236.0747295968535
 30
0.0
  0
ENDBLK
  5
153
100
AcDbEntity
  8
notes
390
0
100
AcDbBlockEnd
  0
BLOCK
  5
154
100
AcDbEntity
  8
notes
390
0
100
AcDbBlockBegin
  2
*D21
 70
               1
 10
0.0
 20
0.0
 30
0.0
  3
*D21
  1

  0
LINE
  5
155
100
AcDbEntity
  8
0
370
              -2
390
0
  6
Continuous
 62
               0
100
AcDbLine
 10
-650.60150924525442
 20
-536.07472959685367
 30
0.0
 11
-773.10150924525442
 21
-536.07472959685367
 31
0.0
  0
LINE
  5
156
100
AcDbEntity
  8
0
370
              -2
390
0
  6
Continuous
 62
               0
100
AcDbLine
 10
-650.60150924525442
 20
-436.07472959685344
 30
0.0
 11
-773.10150924525442
 21
-436.07472959685344
 31
0.0
  0
LINE
  5
157
100
AcDbEntity
  8
0
370
              -2
390
0
  6
Continuous
 62
               0
100
AcDbLine
 10
-773.10150924525442
 20
-536.07472959685367
 30
0.0
 11
-773.10150924525442
 21
-436.07472959685344
 31
0.0
  0
CIRCLE
  5
158
102
{ACAD_REACTORS
330
159
102
}
100
AcDbEntity
  8
0
370
              -2
390
0
  6
Continuous
 62
               0
100
AcDbCircle
 10
-773.10150924525442
 20
-536.07472959685367
 30
0.0
 40
1.9998779296875
  0
HATCH
  5
159
100
AcDbEntity
  8
0
370
              -2
390
0
  6
Continuous
 62
               0
100
AcDbHatch
 10
0.0
 20
0.0
 30
0.0
210
0.0
220
0.0
230
1.0
  2
SOLID
 70
               1
 71
               1
 91
        1
 92
        1
 93
        1
 72
               2
 10
-773.10150924525442
 20
-536.07472959685367
 40
1.9998779296875
 50
0.0
 51
360.0
 73
               0
 97
        1
330
158
 75
               0
 76
               1
 98
        1
 10
0.0
 20
0.0
  0
CIRCLE
  5
15A
102
{ACAD_REACTORS
330
15B
102
}
100
AcDbEntity
  8
0
370
              -2
390
0
  6
Continuous
 62
               0
100
AcDbCircle
 10
-773.10150924525442
 20
-436.07472959685344
 30
0.0
 40
1.9998779296875
  0
HATCH
  5
15B
100
AcDbEntity
  8
0
370
              -2
390
0
  6
Continuous
 62
               0
100
AcDbHatch
 10
0.0
 20
0.0
 30
0.0
210
0.0
220
0.0
230
1.0
  2
SOLID
 70
               1
 71
               1
 91
        1
 92
        1
 93
        1
 72
               2
 10
-773.10150924525442
 20
-436.07472959685344
 40
1.9998779296875
 50
0.0
 51
360.0
 73
               0
 97
        1
330
15A
 75
               0
 76
               1
 98
        1
 10
0.0
 20
0.0
  0
MTEXT
  5
15C
100
AcDbEntity
  8
0
390
0
 62
               0
100
AcDbMText
 10
-806.97912643275447
 20
-509.88723127902915
 30
0.0
 40
27.78125
 41
0.0
 71
               1
 72
               1
  1
{\H0.8795x;\l100}
 11
0.0
 21
1.0
 31
0.0
 73
               1
 44
0.7828267384257843
  0
POINT
  5
15D
100
AcDbEntity
  8
Defpoints
370
               0
390
0
 62
               0
100
AcDbPoint
 10
-625.60150924525442
 20
-436.07472959685344
 30
0.0
  0
POINT
  5
15E
100
AcDbEntity
  8
Defpoints
370
               0
390
0
 62
               0
100
AcDbPoint
 10
-625.60150924525442
 20
-536.07472959685367
 30
0.0
  0
POINT
  5
15F
100
AcDbEntity
  8
Defpoints
370
               0
390
0
 62
               0
100
AcDbPoint
 10
-773.10150924525442
 20
-536.07472959685367
 30
0.0
  0
ENDBLK
  5
160
100
AcDbEntity
  8
notes
390
0
100
AcDbBlockEnd
  0
BLOCK
  5
161
100
AcDbEntity
  8
notes
390
0
100
AcDbBlockBegin
  2
*D22
 70
               1
 10
0.0
 20
0.0
 30
0.0
  3
*D22
  1

  0
LINE
  5
162
100
AcDbEntity
  8
0
370
              -2
390
0
  6
Continuous
 62
               0
100
AcDbLine
 10
-398.10150924525442
 20
1038.9252704031469
 30
0.0
 11
-323.10150924525442
 21
1038.9252704031469
 31
0.0
  0
LINE
  5
163
100
AcDbEntity
  8
0
370
              -2
390
0
  6
Continuous
 62
               0
100
AcDbLine
 10
-398.10150924525442
 20
588.9252704031469
 30
0.0
 11
-323.10150924525442
 21
588.9252704031469
 31
0.0
  0
LINE
  5
164
100
AcDbEntity
  8
0
370
              -2
390
0
  6
Continuous
 62
               0
100
AcDbLine
 10
-323.10150924525442
 20
1038.9252704031469
 30
0.0
 11
-323.10150924525442
 21
588.9252704031469
 31
0.0
  0
CIRCLE
  5
165
102
{ACAD_REACTORS
330
166
102
}
100
AcDbEntity
  8
0
370
              -2
390
0
  6
Continuous
 62
               0
100
AcDbCircle
 10
-323.10150924525442
 20
1038.9252704031469
 30
0.0
 40
1.9998779296875
  0
HATCH
  5
166
100
AcDbEntity
  8
0
370
              -2
390
0
  6
Continuous
 62
               0
100
AcDbHatch
 10
0.0
 20
0.0
 30
0.0
210
0.0
220
0.0
230
1.0
  2
SOLID
 70
               1
 71
               1
 91
        1
 92
        1
 93
        1
 72
               2
 10
-323.10150924525442
 20
1038.9252704031469
 40
1.9998779296875
 50
0.0
 51
360.0
 73
               0
 97
        1
330
165
 75
               0
 76
               1
 98
        1
 10
0.0
 20
0.0
  0
CIRCLE
  5
167
102
{ACAD_REACTORS
330
168
102
}
100
AcDbEntity
  8
0
370
              -2
390
0
  6
Continuous
 62
               0
100
AcDbCircle
 10
-323.10150924525442
 20
588.9252704031469
 30
0.0
 40
1.9998779296875
  0
HATCH
  5
168
100
AcDbEntity
  8
0
370
              -2
390
0
  6
Continuous
 62
               0
100
AcDbHatch
 10
0.0
 20
0.0
 30
0.0
210
0.0
220
0.0
230
1.0
  2
SOLID
 70
               1
 71
               1
 91
        1
 92
        1
 93
        1
 72
               2
 10
-323.10150924525442
 20
588.9252704031469
 40
1.9998779296875
 50
0.0
 51
360.0
 73
               0
 97
        1
330
167
 75
               0
 76
               1
 98
        1
 10
0.0
 20
0.0
  0
MTEXT
  5
169
100
AcDbEntity
  8
0
390
0
 62
               0
100
AcDbMText
 10
-356.97912643275441
 20
790.11276872097142
 30
0.0
 40
27.78125
 41
0.0
 71
               1
 72
               1
  1
{\H0.8795x;\l450}
 11
0.0
 21
1.0
 31
0.0
 73
               1
 44
0.7828267384257843
  0
POINT
  5
16A
100
AcDbEntity
  8
Defpoints
370
               0
390
0
 62
               0
100
AcDbPoint
 10
-423.10150924525442
 20
588.9252704031469
 30
0.0
  0
POINT
  5
16B
100
AcDbEntity
  8
Defpoints
370
               0
390
0
 62
               0
100
AcDbPoint
 10
-423.10150924525442
 20
1038.9252704031469
 30
0.0
  0
POINT
  5
16C
100
AcDbEntity
  8
Defpoints
370
               0
390
0
 62
               0
100
AcDbPoint
 10
-323.10150924525442
 20
1038.9252704031469
 30
0.0
  0
ENDBLK
  5
16D
100
AcDbEntity
  8
notes
390
0
100
AcDbBlockEnd
  0
BLOCK
  5
16E
100
AcDbEntity
  8
notes
390
0
100
AcDbBlockBegin
  2
*D23
 70
               1
 10
0.0
 20
0.0
 30
0.0
  3
*D23
  1

  0
LINE
  5
16F
100
AcDbEntity
  8
0
370
              -2
390
0
  6
Continuous
 62
               0
100
AcDbLine
 10
-423.10150924525442
 20
1063.9252704031469
 30
0.0
 11
-423.10150924525442
 21
1138.9252704031469
 31
0.0
  0
LINE
  5
170
100
AcDbEntity
  8
0
370
              -2
390
0
  6
Continuous
 62
               0
100
AcDbLine
 10
-643.10150924525442
 20
1063.9252704031469
 30
0.0
 11
-643.10150924525442
 21
1138.9252704031469
 31
0.0
  0
LINE
  5
171
100
AcDbEntity
  8
0
370
              -2
390
0
  6
Continuous
 62
               0
100
AcDbLine
 10
-423.10150924525442
 20
1138.9252704031469
 30
0.0
 11
-643.10150924525442
 21
1138.9252704031469
 31
0.0
  0
CIRCLE
  5
172
102
{ACAD_REACTORS
330
173
102
}
100
AcDbEntity
  8
0
370
              -2
390
0
  6
Continuous
 62
               0
100
AcDbCircle
 10
-423.10150924525442
 20
1138.9252704031469
 30
0.0
 40
1.9998779296875
  0
HATCH
  5
173
100
AcDbEntity
  8
0
370
              -2
390
0
  6
Continuous
 62
               0
100
AcDbHatch
 10
0.0
 20
0.0
 30
0.0
210
0.0
220
0.0
230
1.0
  2
SOLID
 70
               1
 71
               1
 91
        1
 92
        1
 93
        1
 72
               2
 10
-423.10150924525442
 20
1138.9252704031469
 40
1.9998779296875
 50
0.0
 51
360.0
 73
               0
 97
        1
330
172
 75
               0
 76
               1
 98
        1
 10
0.0
 20
0.0
  0
CIRCLE
  5
174
102
{ACAD_REACTORS
330
175
102
}
100
AcDbEntity
  8
0
370
              -2
390
0
  6
Continuous
 62
               0
100
AcDbCircle
 10
-643.10150924525442
 20
1138.9252704031469
 30
0.0
 40
1.9998779296875
  0
HATCH
  5
175
100
AcDbEntity
  8
0
370
              -2
390
0
  6
Continuous
 62
               0
100
AcDbHatch
 10
0.0
 20
0.0
 30
0.0
210
0.0
220
0.0
230
1.0
  2
SOLID
 70
               1
 71
               1
 91
        1
 92
        1
 93
        1
 72
               2
 10
-643.10150924525442
 20
1138.9252704031469
 40
1.9998779296875
 50
0.0
 51
360.0
 73
               0
 97
        1
330
174
 75
               0
 76
               1
 98
        1
 10
0.0
 20
0.0
  0
MTEXT
  5
176
100
AcDbEntity
  8
0
390
0
 62
               0
100
AcDbMText
 10
-556.9140109274299
 20
1172.8028875906468
 30
0.0
 40
27.78125
 41
0.0
 71
               1
 72
               1
  1
{\H0.8795x;\l220}
 73
               1
 44
0.7828267384257843
  0
POINT
  5
177
100
AcDbEntity
  8
Defpoints
370
               0
390
0
 62
               0
100
AcDbPoint
 10
-643.10150924525442
 20
1038.9252704031469
 30
0.0
  0
POINT
  5
178
100
AcDbEntity
  8
Defpoints
370
               0
390
0
 62
               0
100
AcDbPoint
 10
-423.10150924525442
 20
1038.9252704031469
 30
0.0
  0
POINT
  5
179
100
AcDbEntity
  8
Defpoints
370
               0
390
0
 62
               0
100
AcDbPoint
 10
-423.10150924525442
 20
1138.9252704031469
 30
0.0
  0
ENDBLK
  5
17A
100
AcDbEntity
  8
notes
390
0
100
AcDbBlockEnd
  0
BLOCK
  5
17B
100
AcDbEntity
  8
notes
390
0
100
AcDbBlockBegin
  2
*D24
 70
               1
 10
0.0
 20
0.0
 30
0.0
  3
*D24
  1

  0
LINE
  5
17C
100
AcDbEntity
  8
0
370
              -2
390
0
  6
Continuous
 62
               0
100
AcDbLine
 10
-643.10150924525442
 20
1063.9252704031469
 30
0.0
 11
-643.10150924525442
 21
1138.9252704031469
 31
0.0
  0
LINE
  5
17D
100
AcDbEntity
  8
0
370
              -2
390
0
  6
Continuous
 62
               0
100
AcDbLine
 10
-673.10150924525442
 20
1063.9252704031469
 30
0.0
 11
-673.10150924525442
 21
1138.9252704031469
 31
0.0
  0
LINE
  5
17E
100
AcDbEntity
  8
0
370
              -2
390
0
  6
Continuous
 62
               0
100
AcDbLine
 10
-643.10150924525442
 20
1138.9252704031469
 30
0.0
 11
-673.10150924525442
 21
1138.9252704031469
 31
0.0
  0
CIRCLE
  5
17F
102
{ACAD_REACTORS
330
180
102
}
100
AcDbEntity
  8
0
370
              -2
390
0
  6
Continuous
 62
               0
100
AcDbCircle
 10
-643.10150924525442
 20
1138.9252704031469
 30
0.0
 40
1.9998779296875
  0
HATCH
  5
180
100
AcDbEntity
  8
0
370
              -2
390
0
  6
Continuous
 62
               0
100
AcDbHatch
 10
0.0
 20
0.0
 30
0.0
210
0.0
220
0.0
230
1.0
  2
SOLID
 70
               1
 71
               1
 91
        1
 92
        1
 93
        1
 72
               2
 10
-643.10150924525442
 20
1138.9252704031469
 40
1.9998779296875
 50
0.0
 51
360.0
 73
               0
 97
        1
330
17F
 75
               0
 76
               1
 98
        1
 10
0.0
 20
0.0
  0
CIRCLE
  5
181
102
{ACAD_REACTORS
330
182
102
}
100
AcDbEntity
  8
0
370
              -2
390
0
  6
Continuous
 62
               0
100
AcDbCircle
 10
-673.10150924525442
 20
1138.9252704031469
 30
0.0
 40
1.9998779296875
  0
HATCH
  5
182
100
AcDbEntity
  8
0
370
              -2
390
0
  6
Continuous
 62
               0
100
AcDbHatch
 10
0.0
 20
0.0
 30
0.0
210
0.0
220
0.0
230
1.0
  2
SOLID
 70
               1
 71
               1
 91
        1
 92
        1
 93
        1
 72
               2
 10
-673.10150924525442
 20
1138.9252704031469
 40
1.9998779296875
 50
0.0
 51
360.0
 73
               0
 97
        1
330
181
 75
               0
 76
               1
 98
        1
 10
0.0
 20
0.0
  0
MTEXT
  5
183
100
AcDbEntity
  8
0
390
0
 62
               0
100
AcDbMText
 10
-673.97650924525442
 20
1172.8028875906468
 30
0.0
 40
27.78125
 41
0.0
 71
               1
 72
               1
  1
{\H0.8795x;\l30}
 73
               1
 44
0.7828267384257843
  0
POINT
  5
184
100
AcDbEntity
  8
Defpoints
370
               0
390
0
 62
               0
100
AcDbPoint
 10
-673.10150924525442
 20
1038.9252704031469
 30
0.0
  0
POINT
  5
185
100
AcDbEntity
  8
Defpoints
370
               0
390
0
 62
               0
100
AcDbPoint
 10
-643.10150924525442
 20
1038.9252704031469
 30
0.0
  0
POINT
  5
186
100
AcDbEntity
  8
Defpoints
370
               0
390
0
 62
               0
100
AcDbPoint
 10
-643.10150924525442
 20
1138.9252704031469
 30
0.0
  0
ENDBLK
  5
187
100
AcDbEntity
  8
notes
390
0
100
AcDbBlockEnd
  0
ENDSEC
  0
SECTION
  2
ENTITIES
  0
MTEXT
  5
188
100
AcDbEntity
  8
template
390
0
 62
               7
100
AcDbMText
 10
-967.99999999975921
 20
-1147.4176292337006
 30
0.0
 40
16.288411458333332
 41
0.0
 71
               1
 72
               1
  1
品名
  7
ＭＳ ゴシック
 73
               1
 44
0.7828267384257843
  0
MTEXT
  5
189
100
AcDbEntity
  8
template
390
0
 62
               7
100
AcDbMText
 10
-967.99999999975921
 20
-1232.4176292337006
 30
0.0
 40
16.288411458333332
 41
0.0
 71
               1
 72
               1
  1
仕様
  7
ＭＳ ゴシック
 73
               1
 44
0.7828267384257843
  0
LINE
  5
18A
100
AcDbEntity
  8
template
370
               5
390
0
  6
Continuous
 62
               7
100
AcDbLine
 10
974.99999999975876
 20
-1224.0027073587005
 30
0.0
 11
-975.00000000024124
 21
-1224.0027073587005
 31
0.0
  0
LWPOLYLINE
  5
18B
100
AcDbEntity
  8
template
370
               5
390
0
  6
Continuous
 62
               7
100
AcDbPolyline
 90
        5
 70
             128
 10
975.00000000024124
 20
1405.9972926412995
 10
-974.99999999975921
 20
1405.9972926412995
 10
-974.99999999975921
 20
-1394.0027073587005
 10
975.00000000024124
 20
-1394.0027073587005
 10
975.00000000024124
 20
1405.9972926412995
  0
LINE
  5
18C
100
AcDbEntity
  8
template
370
               5
390
0
  6
Continuous
 62
               7
100
AcDbLine
 10
974.99999999975876
 20
-1139.0027073587005
 30
0.0
 11
-975.00000000024124
 21
-1139.0027073587005
 31
0.0
  0
LINE
  5
18D
100
AcDbEntity
  8
template
370
               5
390
0
  6
Continuous
 62
               7
100
AcDbLine
 10
975.00000000024124
 20
-1309.0027073587005
 30
0.0
 11
222.00000000024124
 21
-1309.0027073587005
 31
0.0
  0
MTEXT
  5
18E
100
AcDbEntity
  8
template
390
0
 62
               7
100
AcDbMText
 10
251.87140625250089
 20
-1338.9131018320081
 30
0.0
 40
24.432617187500004
 41
0.0
 71
               1
 72
               1
  1
大洋金物株式会社 ティーフォルム事業部
  7
ＭＳ ゴシック
 73
               1
 44
0.7828267384257843
  0
INSERT
  5
18F
100
AcDbEntity
  8
template
390
0
 62
               7
100
AcDbBlockReference
  2
グループ
 10
0.0
 20
-246.50328746319977
 30
0.0
  0
MTEXT
  5
190
100
AcDbEntity
  8
template
390
0
 62
               7
100
AcDbMText
 10
784.00000000049999
 20
-1261.0000901712006
 30
0.0
 40
24.432617187500004
 41
0.0
 71
               1
 72
               1
  1
1:10
  7
ＭＳ ゴシック
 73
               1
 44
0.7828267384257843
  0
MTEXT
  5
191
100
AcDbEntity
  8
template
390
0
 62
               7
100
AcDbMText
 10
731.00000000049999
 20
-1232.4176292337006
 30
0.0
 40
16.288411458333332
 41
0.0
 71
               1
 72
               1
  1
縮尺
  7
ＭＳ ゴシック
 73
               1
 44
0.7828267384257843
  0
LINE
  5
192
100
AcDbEntity
  8
template
370
               5
390
0
  6
Continuous
 62
               7
100
AcDbLine
 10
724.00000000049999
 20
-1309.0027073587005
 30
0.0
 11
724.00000000049999
 21
-1224.0027073587005
 31
0.0
  0
MTEXT
  5
193
100
AcDbEntity
  8
template
390
0
 62
               7
100
AcDbMText
 10
480.00000000049999
 20
-1232.4176292337006
 30
0.0
 40
16.288411458333332
 41
0.0
 71
               1
 72
               1
  1
容量
  7
ＭＳ ゴシック
 73
               1
 44
0.7828267384257843
  0
MTEXT
  5
194
100
AcDbEntity
  8
template
390
0
 62
               7
100
AcDbMText
 10
533.00000000049999
 20
-1261.0000901712006
 30
0.0
 40
24.432617187500004
 41
0.0
 71
               1
 72
               1
  1
8L
  7
ＭＳ ゴシック
 73
               1
 44
0.7828267384257843
  0
LINE
  5
195
100
AcDbEntity
  8
template
370
               5
390
0
  6
Continuous
 62
               7
100
AcDbLine
 10
473.00000000049999
 20
-1309.0027073587005
 30
0.0
 11
473.00000000049999
 21
-1224.0027073587005
 31
0.0
  0
MTEXT
  5
196
100
AcDbEntity
  8
template
390
0
 62
               7
100
AcDbMText
 10
229.00000000049999
 20
-1147.4176292337006
 30
0.0
 40
16.288411458333332
 41
0.0
 71
               1
 72
               1
  1
品番
  7
ＭＳ ゴシック
 73
               1
 44
0.7828267384257843
  0
MTEXT
  5
197
100
AcDbEntity
  8
template
390
0
 62
               7
100
AcDbMText
 10
229.00000000049999
 20
-1232.4176292337006
 30
0.0
 40
16.288411458333332
 41
0.0
 71
               1
 72
               1
  1
重量
  7
ＭＳ ゴシック
 73
               1
 44
0.7828267384257843
  0
MTEXT
  5
198
100
AcDbEntity
  8
template
390
0
 62
               7
100
AcDbMText
 10
282.00000000049999
 20
-1175.9168196142582
 30
0.0
 40
23.724314090883261
 41
0.0
 71
               1
 72
               1
  1
FAA70-0511
  7
ＭＳ ゴシック
 73
               1
 44
0.7828267384257843
  0
MTEXT
  5
199
100
AcDbEntity
  8
template
390
0
 62
               7
100
AcDbMText
 10
282.00000000049999
 20
-1261.0000901712006
 30
0.0
 40
24.432617187500004
 41
0.0
 71
               1
 72
               1
  1
25kg
  7
ＭＳ ゴシック
 73
               1
 44
0.7828267384257843
  0
LINE
  5
19A
100
AcDbEntity
  8
template
370
               5
390
0
  6
Continuous
 62
               7
100
AcDbLine
 10
222.00000000049999
 20
-1394.0027073587005
 30
0.0
 11
222.00000000049999
 21
-1139.0027073587005
 31
0.0
  0
MTEXT
  5
19B
100
AcDbEntity
  8
template
390
0
 62
               7
100
AcDbMText
 10
-974.99999999955617
 20
-1405.8565294155576
 30
0.0
 40
21.717881944444446
 41
0.0
 71
               1
 72
               1
  1
100709SH
  7
ＭＳ ゴシック
 73
               1
 44
0.7828267384257843
  0
MTEXT
  5
19C
100
AcDbEntity
  8
template
390
0
 62
               7
100
AcDbMText
 10
-915.00000000020327
 20
-1175.8723828124998
 30
0.0
 40
24.432617187500004
 41
0.0
 71
               1
 72
               1
  1
洗面器 -DURAVIT,Vero-
  7
ＭＳ ゴシック
 73
               1
 44
0.7828267384257843
  0
MTEXT
  5
19D
100
AcDbEntity
  8
template
390
0
 62
               7
100
AcDbMText
 10
-915.00000000020327
 20
-1260.8723828124998
 30
0.0
 40
24.432617187500004
 41
0.0
 71
               1
 72
               1
  1
壁掛け,カウンタ ートップ/オーバーフロー付き/壁取付ボルト付属/\P陶器/ホワイト\P
  7
ＭＳ ゴシック
 73
               1
 44
1.1307497332816883
  0
DIMENSION
  5
19E
100
AcDbEntity
  8
template
370
               5
390
0
  6
Continuous
 62
               7
100
AcDbDimension
  2
*D3
 10
-601.18698494119337
 20
-352.15077866521301
 30
0.0
 11
-665.98472612696196
 21
-61.999999999999972
 31
0.0
 70
               3
 71
               5
 72
               1
 41
1.0
 42
0.0
  3
tform線あり
100
AcDbDiametricDimension
 15
-615.01603354931547
 25
-319.99868052849388
 35
0.0
 40
280.85115254674685
1001
ACAD
1000
DSTYLE
1002
{
1070
             289
1070
               0
1070
             342
1005
58
1070
             340
1005
3A
1070
             140
1040
24.432617187500004
1070
              75
1070
               1
1070
              76
1070
               1
1070
               3
1000

1070
             174
1070
               0
1070
             147
1040
5.0
1002
}
  0
MTEXT
  5
19F
100
AcDbEntity
  8
notes
390
0
 62
               7
100
AcDbMText
 10
-22.837902422294476
 20
-706.56586932920402
 30
0.0
 40
24.432617187500004
 41
953.67029335246252
 71
               1
 72
               1
  1
＝φ30もしくはφ35の水栓取付用穴あけ加工を承ります。\P   必要な場合、ご注文の際にご指示ください。
  7
ＭＳ ゴシック
 11
0.0
 21
1.0
 31
0.0
 73
               1
 44
1.0437689845677123
  0
CIRCLE
  5
1A0
100
AcDbEntity
  8
notes
370
               5
390
0
  6
STYLE_25
 62
               7
100
AcDbCircle
 10
-10.790205881259665
 20
-733.19391183243363
 30
0.0
 40
17.5
  0
MTEXT
  5
1A1
100
AcDbEntity
  8
notes
390
0
 62
               7
100
AcDbMText
 10
-22.837902422294476
 20
420.3002704031469
 30
0.0
 40
24.432617187500004
 41
0.0
 71
               1
 72
               1
  1
※陶器製品には寸法公差があります。\P  洗面器の収め方をご確認の上、必ず現物を合わせて\P  カウンターの切込を行ってください。
  7
ＭＳ ゴシック
 11
0.0
 21
1.0
 31
0.0
 73
               1
 44
1.0437689845677123
  0
MTEXT
  5
1A2
100
AcDbEntity
  8
notes
390
0
 62
               7
100
AcDbMText
 10
455.95447579105439
 20
-111.94575719490931
 30
0.0
 40
24.432617187500004
 41
0.0
 71
               1
 72
               1
  1
壁取付ボルト穴(2ヶ所)
  7
ＭＳ ゴシック
 11
0.0
 21
1.0
 31
0.0
 73
               1
 44
0.7828267384257843
  0
DIMENSION
  5
1A3
100
AcDbEntity
  8
notes
370
               5
390
0
  6
Continuous
 62
               7
100
AcDbDimension
  2
*D4
 10
-823.10150924525442
 20
88.925270403146186
 30
0.0
 11
-823.10150924525442
 21
-336.07472959685379
 31
0.0
 71
               5
 72
               1
 41
1.0
 42
0.0
  3
tform線あり
100
AcDbAlignedDimension
 13
-668.10150924525442
 23
-761.07472959685367
 33
0.0
 14
-668.10150924525442
 24
88.925270403146186
 34
0.0
 50
90.0
100
AcDbRotatedDimension
1001
ACAD
1000
DSTYLE
1002
{
1070
             279
1070
               2
1070
             340
1005
3A
1070
             140
1040
24.432617187500004
1070
             147
1040
5.0
1002
}
  0
DIMENSION
  5
1A4
100
AcDbEntity
  8
notes
370
               5
390
0
  6
Continuous
 62
               7
100
AcDbDimension
  2
*D5
 10
-673.10150924525442
 20
188.92527040314619
 30
0.0
 11
-428.10150924525408
 21
188.92527040314619
 31
0.0
 71
               5
 72
               1
 41
1.0
 42
0.0
  3
tform線あり
100
AcDbAlignedDimension
 13
-183.10150924525379
 23
83.925270403146186
 33
0.0
 14
-673.10150924525442
 24
83.925270403146186
 34
0.0
100
AcDbRotatedDimension
1001
ACAD
1000
DSTYLE
1002
{
1070
             279
1070
               2
1070
             340
1005
3A
1070
             140
1040
24.432617187500004
1070
             147
1040
5.0
1002
}
  0
DIMENSION
  5
1A5
100
AcDbEntity
  8
notes
370
               5
390
0
  6
Continuous
 62
               7
100
AcDbDimension
  2
*D6
 10
-83.101351671987857
 20
-591.07472959685379
 30
0.0
 11
-83.101351671987857
 21
-336.07472959685367
 31
0.0
 71
               5
 72
               1
 41
1.0
 42
0.0
  3
tform線あり
100
AcDbAlignedDimension
 13
-184.23514345482118
 23
-81.074729596853444
 33
0.0
 14
-184.23514345482846
 24
-591.07472959685379
 34
0.0
 50
90.0
100
AcDbRotatedDimension
1001
ACAD
1000
DSTYLE
1002
{
1070
             279
1070
               2
1070
             340
1005
3A
1070
             140
1040
24.432617187500004
1070
             147
1040
5.0
1002
}
  0
DIMENSION
  5
1A6
100
AcDbEntity
  8
notes
370
               5
390
0
  6
Continuous
 62
               7
100
AcDbDimension
  2
*D7
 10
-83.101351671987857
 20
-591.07472959685379
 30
0.0
 11
-83.101351671987857
 21
-676.07472959685379
 31
0.0
 71
               5
 72
               1
 41
1.0
 42
0.0
  3
tform線あり
100
AcDbAlignedDimension
 13
-196.10463799374304
 23
-761.07472959685367
 33
0.0
 14
-184.23514345482846
 24
-591.07472959685379
 34
0.0
 50
90.0
100
AcDbRotatedDimension
1001
ACAD
1000
DSTYLE
1002
{
1070
             279
1070
               2
1070
             340
1005
3A
1070
             140
1040
24.432617187500004
1070
             147
1040
5.0
1002
}
  0
DIMENSION
  5
1A7
100
AcDbEntity
  8
notes
370
               5
390
0
  6
Continuous
 62
               7
100
AcDbDimension
  2
*D8
 10
-673.10150924525442
 20
-861.07472959685367
 30
0.0
 11
-610.60150924525442
 21
-861.07472959685367
 31
0.0
 71
               5
 72
               1
 41
1.0
 42
0.0
  3
tform線あり
100
AcDbAlignedDimension
 13
-548.10150924525442
 23
-756.07472959685367
 33
0.0
 14
-673.10150924525442
 24
-756.07472959685367
 34
0.0
100
AcDbRotatedDimension
1001
ACAD
1000
DSTYLE
1002
{
1070
             279
1070
               2
1070
             340
1005
3A
1070
             140
1040
24.432617187500004
1070
             147
1040
5.0
1002
}
  0
DIMENSION
  5
1A8
100
AcDbEntity
  8
notes
370
               5
390
0
  6
Continuous
 62
               7
100
AcDbDimension
  2
*D9
 10
-548.10150924525442
 20
-861.07472959685367
 30
0.0
 11
-383.10150924525442
 21
-861.07472959685367
 31
0.0
 71
               5
 72
               1
 41
1.0
 42
0.0
  3
tform線あり
100
AcDbAlignedDimension
 13
-218.10150924525436
 23
-761.07472959685367
 33
0.0
 14
-548.10150924525442
 24
-761.07472959685367
 34
0.0
100
AcDbRotatedDimension
1001
ACAD
1000
DSTYLE
1002
{
1070
             279
1070
               2
1070
             340
1005
3A
1070
             140
1040
24.432617187500004
1070
             147
1040
5.0
1002
}
  0
DIMENSION
  5
1A9
100
AcDbEntity
  8
notes
370
               5
390
0
  6
Continuous
 62
               7
100
AcDbDimension
  2
*D10
 10
442.81296494573508
 20
-476.07472959685344
 30
0.0
 11
442.81296494573508
 21
-336.07472959685344
 31
0.0
 71
               5
 72
               1
 41
1.0
 42
0.0
  3
tform線あり
100
AcDbAlignedDimension
 13
572.80784197368803
 23
-196.07472959685347
 33
0.0
 14
572.80784197368803
 24
-476.07472959685344
 34
0.0
 50
90.0
100
AcDbRotatedDimension
1001
ACAD
1000
DSTYLE
1002
{
1070
             279
1070
               2
1070
             340
1005
3A
1070
             140
1040
24.432617187500004
1070
             147
1040
5.0
1002
}
  0
DIMENSION
  5
1AA
100
AcDbEntity
  8
notes
370
               5
390
0
  6
Continuous
 62
               7
100
AcDbDimension
  2
*D11
 10
542.82068863829772
 20
-861.07472959685367
 30
0.0
 11
567.81426530599288
 21
-861.07472959685367
 31
0.0
 71
               5
 72
               1
 41
1.0
 42
0.0
  3
tform線あり
100
AcDbAlignedDimension
 13
592.80784197368803
 23
-496.07472959685344
 33
0.0
 14
542.82068863829772
 24
-751.7116911643742
 34
0.0
100
AcDbRotatedDimension
1001
ACAD
1000
DSTYLE
1002
{
1070
             279
1070
               2
1070
             340
1005
3A
1070
             140
1040
24.432617187500004
1070
             147
1040
5.0
1002
}
  0
DIMENSION
  5
1AB
100
AcDbEntity
  8
notes
370
               5
390
0
  6
Continuous
 62
               7
100
AcDbDimension
  2
*D12
 10
542.82068863829772
 20
188.92527040314619
 30
0.0
 11
627.82068863829772
 21
193.92527040314619
 31
0.0
 70
             128
 71
               5
 72
               1
 41
1.0
 42
0.0
  3
tform線あり
100
AcDbAlignedDimension
 13
712.82068863829772
 23
-296.86657452545495
 33
0.0
 14
542.82068863829772
 24
78.288308835625656
 34
0.0
100
AcDbRotatedDimension
1001
ACAD
1000
DSTYLE
1002
{
1070
             279
1070
               2
1070
             340
1005
3A
1070
             140
1040
24.432617187500004
1070
             147
1040
5.0
1002
}
  0
DIMENSION
  5
1AC
100
AcDbEntity
  8
notes
370
               5
390
0
  6
Continuous
 62
               7
100
AcDbDimension
  2
*D13
 10
542.82058640581965
 20
483.38836262331597
 30
0.0
 11
607.82058640581977
 21
483.38836262331597
 31
0.0
 71
               5
 72
               1
 41
1.0
 42
0.0
  3
tform線あり
100
AcDbAlignedDimension
 13
672.82058640581977
 23
594.07951294282805
 33
0.0
 14
542.82058640581965
 24
593.37938520819455
 34
0.0
100
AcDbRotatedDimension
1001
ACAD
1000
DSTYLE
1002
{
1070
             279
1070
               2
1070
             340
1005
3A
1070
             140
1040
24.432617187500004
1070
             147
1040
5.0
1002
}
  0
DIMENSION
  5
1AD
100
AcDbEntity
  8
notes
370
               5
390
0
  6
Continuous
 62
               7
100
AcDbDimension
  2
*D14
 10
672.82058640581977
 20
483.38836262331597
 30
0.0
 11
692.81637473781439
 21
483.38836262331597
 31
0.0
 71
               5
 72
               1
 41
1.0
 42
0.0
  3
tform線あり
100
AcDbAlignedDimension
 13
712.812163069809
 23
844.19674401025031
 33
0.0
 14
672.82058640581977
 24
594.07951294282805
 34
0.0
100
AcDbRotatedDimension
1001
ACAD
1000
DSTYLE
1002
{
1070
             279
1070
               2
1070
             340
1005
3A
1070
             140
1040
24.432617187500004
1070
             147
1040
5.0
1002
}
  0
DIMENSION
  5
1AE
100
AcDbEntity
  8
notes
370
               5
390
0
  6
Continuous
 62
               7
100
AcDbDimension
  2
*D15
 10
442.81764216705432
 20
1008.4214355399822
 30
0.0
 11
442.81764216705432
 21
1040.9214355399822
 31
0.0
 71
               5
 72
               1
 41
1.0
 42
0.0
  3
tform線あり
100
AcDbAlignedDimension
 13
552.812163069809
 23
1073.4214355399822
 33
0.0
 14
542.81296494573508
 24
1008.4214355399822
 34
0.0
 50
90.0
100
AcDbRotatedDimension
1001
ACAD
1000
DSTYLE
1002
{
1070
             279
1070
               2
1070
             340
1005
3A
1070
             140
1040
24.432617187500004
1070
             147
1040
5.0
1002
}
  0
DIMENSION
  5
1AF
100
AcDbEntity
  8
notes
370
               5
390
0
  6
Continuous
 62
               7
100
AcDbDimension
  2
*D16
 10
812.812163069809
 20
884.05839710750297
 30
0.0
 11
812.812163069809
 21
979.05839710750297
 31
0.0
 71
               5
 72
               1
 41
1.0
 42
0.0
  3
tform線あり
100
AcDbAlignedDimension
 13
672.81586108622514
 23
1074.058397107503
 33
0.0
 14
712.812163069809
 24
884.05839710750297
 34
0.0
 50
90.0
100
AcDbRotatedDimension
1001
ACAD
1000
DSTYLE
1002
{
1070
             279
1070
               2
1070
             340
1005
3A
1070
             140
1040
24.432617187500004
1070
             147
1040
5.0
1002
}
  0
DIMENSION
  5
1B0
100
AcDbEntity
  8
notes
370
               5
390
0
  6
Continuous
 62
               7
100
AcDbDimension
  2
*D17
 10
542.81764216705437
 20
855.37897575516308
 30
0.0
 11
536.50479550244472
 21
860.37897575516308
 31
0.0
 70
             128
 71
               5
 72
               1
 41
1.0
 42
0.0
  3
tform線あり
100
AcDbAlignedDimension
 13
662.81764216705437
 23
888.38836262331597
 33
0.0
 14
542.81764216705437
 24
888.38836262331597
 34
0.0
100
AcDbRotatedDimension
1001
ACAD
1000
DSTYLE
1002
{
1070
             279
1070
               2
1070
             340
1005
3A
1070
             140
1040
24.432617187500004
1070
               3
1000
<>(深さ)
1070
             174
1070
               0
1070
             147
1040
5.0
1002
}
  0
DIMENSION
  5
1B1
100
AcDbEntity
  8
notes
370
               5
390
0
  6
Continuous
 62
               7
100
AcDbDimension
  2
*D18
 10
-773.10150924525442
 20
-436.07472959685344
 30
0.0
 11
-773.10150924525442
 21
-386.07472959685344
 31
0.0
 71
               5
 72
               1
 41
1.0
 42
0.0
  3
tform線あり
100
AcDbAlignedDimension
 13
-625.60150924525442
 23
-336.07472959685344
 33
0.0
 14
-625.60150924525442
 24
-436.07472959685344
 34
0.0
 50
90.0
100
AcDbRotatedDimension
1001
ACAD
1000
DSTYLE
1002
{
1070
             279
1070
               2
1070
             340
1005
3A
1070
             140
1040
24.432617187500004
1070
             147
1040
5.0
1002
}
  0
DIMENSION
  5
1B2
100
AcDbEntity
  8
notes
370
               5
390
0
  6
Continuous
 62
               7
100
AcDbDimension
  2
*D19
 10
-773.10150924525442
 20
-336.07472959685344
 30
0.0
 11
-773.10150924525442
 21
-286.0747295968535
 31
0.0
 71
               5
 72
               1
 41
1.0
 42
0.0
  3
tform線あり
100
AcDbAlignedDimension
 13
-625.60150924525442
 23
-236.0747295968535
 33
0.0
 14
-625.60150924525442
 24
-336.07472959685344
 34
0.0
 50
90.0
100
AcDbRotatedDimension
1001
ACAD
1000
DSTYLE
1002
{
1070
             279
1070
               2
1070
             340
1005
3A
1070
             140
1040
24.432617187500004
1070
             147
1040
5.0
1002
}
  0
DIMENSION
  5
1B3
100
AcDbEntity
  8
notes
370
               5
390
0
  6
Continuous
 62
               7
100
AcDbDimension
  2
*D20
 10
-773.10150924525442
 20
-236.0747295968535
 30
0.0
 11
-773.10150924525442
 21
-186.07472959685347
 31
0.0
 71
               5
 72
               1
 41
1.0
 42
0.0
  3
tform線あり
100
AcDbAlignedDimension
 13
-625.60150924525442
 23
-136.07472959685344
 33
0.0
 14
-625.60150924525442
 24
-236.0747295968535
 34
0.0
 50
90.0
100
AcDbRotatedDimension
1001
ACAD
1000
DSTYLE
1002
{
1070
             279
1070
               2
1070
             340
1005
3A
1070
             140
1040
24.432617187500004
1070
             147
1040
5.0
1002
}
  0
DIMENSION
  5
1B4
100
AcDbEntity
  8
notes
370
               5
390
0
  6
Continuous
 62
               7
100
AcDbDimension
  2
*D21
 10
-773.10150924525442
 20
-536.07472959685367
 30
0.0
 11
-773.10150924525442
 21
-486.07472959685356
 31
0.0
 71
               5
 72
               1
 41
1.0
 42
0.0
  3
tform線あり
100
AcDbAlignedDimension
 13
-625.60150924525442
 23
-436.07472959685344
 33
0.0
 14
-625.60150924525442
 24
-536.07472959685367
 34
0.0
 50
90.0
100
AcDbRotatedDimension
1001
ACAD
1000
DSTYLE
1002
{
1070
             279
1070
               2
1070
             340
1005
3A
1070
             140
1040
24.432617187500004
1070
             147
1040
5.0
1002
}
  0
DIMENSION
  5
1B5
100
AcDbEntity
  8
notes
370
               5
390
0
  6
Continuous
 62
               7
100
AcDbDimension
  2
*D22
 10
-323.10150924525442
 20
1038.9252704031469
 30
0.0
 11
-318.10150924525442
 21
813.9252704031469
 31
0.0
 70
             128
 71
               5
 72
               1
 41
1.0
 42
0.0
  3
tform線あり
100
AcDbAlignedDimension
 13
-423.10150924525442
 23
588.9252704031469
 33
0.0
 14
-423.10150924525442
 24
1038.9252704031469
 34
0.0
 50
90.0
100
AcDbRotatedDimension
1001
ACAD
1000
DSTYLE
1002
{
1070
             279
1070
               2
1070
             340
1005
3A
1070
             140
1040
24.432617187500004
1070
             147
1040
5.0
1002
}
  0
DIMENSION
  5
1B6
100
AcDbEntity
  8
notes
370
               5
390
0
  6
Continuous
 62
               7
100
AcDbDimension
  2
*D23
 10
-423.10150924525442
 20
1138.9252704031469
 30
0.0
 11
-533.10150924525442
 21
1138.9252704031469
 31
0.0
 71
               5
 72
               1
 41
1.0
 42
0.0
  3
tform線あり
100
AcDbAlignedDimension
 13
-643.10150924525442
 23
1038.9252704031469
 33
0.0
 14
-423.10150924525442
 24
1038.9252704031469
 34
0.0
100
AcDbRotatedDimension
1001
ACAD
1000
DSTYLE
1002
{
1070
             279
1070
               2
1070
             340
1005
3A
1070
             140
1040
24.432617187500004
1070
             147
1040
5.0
1002
}
  0
MTEXT
  5
1B7
100
AcDbEntity
  8
notes
390
0
 62
               7
100
AcDbMText
 10
-802.93661965870979
 20
671.05027040314678
 30
0.0
 40
27.78125
 41
0.0
 71
               1
 72
               1
  1
{\H0.8795x;\lカウンタ ー切込寸法}
 11
0.0
 21
1.0
 31
0.0
 73
               1
 44
0.7828267384257843
  0
LINE
  5
1B8
100
AcDbEntity
  8
notes
370
               5
390
0
  6
Continuous
 62
               7
100
AcDbLine
 10
592.03245079107546
 20
-196.07472959685347
 30
0.0
 11
499.26671089686783
 21
-90.89557597674127
 31
0.0
  0
DIMENSION
  5
1B9
100
AcDbEntity
  8
notes
370
               5
390
0
  6
Continuous
 62
               7
100
AcDbDimension
  2
*D24
 10
-643.10150924525442
 20
1138.9252704031469
 30
0.0
 11
-658.10150924525442
 21
1138.9252704031469
 31
0.0
 71
               5
 72
               1
 41
1.0
 42
0.0
  3
tform線あり
100
AcDbAlignedDimension
 13
-673.10150924525442
 23
1038.9252704031469
 33
0.0
 14
-643.10150924525442
 24
1038.9252704031469
 34
0.0
100
AcDbRotatedDimension
1001
ACAD
1000
DSTYLE
1002
{
1070
             279
1070
               2
1070
             340
1005
3A
1070
             140
1040
24.432617187500004
1070
             147
1040
5.0
1002
}
  0
LINE
  5
1BA
100
AcDbEntity
  8
FAA70-0511
370
              15
390
0
  6
STYLE_25
 62
               7
100
AcDbLine
 10
572.80784197368803
 20
-476.07472959685344
 30
0.0
 11
612.80784197368803
 21
-476.07472959685344
 31
0.0
  0
LINE
  5
1BB
100
AcDbEntity
  8
FAA70-0511
370
              15
390
0
  6
Continuous
 62
               7
100
AcDbLine
 10
672.82068863829772
 20
-386.04666757785151
 30
0.0
 11
672.82068863829772
 21
-286.13586453252213
 31
0.0
  0
LINE
  5
1BC
100
AcDbEntity
  8
FAA70-0511
370
              15
390
0
  6
STYLE_25
 62
               7
100
AcDbLine
 10
572.80784197368803
 20
-196.07472959685347
 30
0.0
 11
612.80784197368803
 21
-196.07472959685347
 31
0.0
  0
LINE
  5
1BD
100
AcDbEntity
  8
FAA70-0511
370
              15
390
0
  6
STYLE_25
 62
               7
100
AcDbLine
 10
662.80667290084011
 20
-368.06650680538098
 30
0.0
 11
662.80667290084011
 21
-336.07472959685344
 31
0.0
  0
LINE
  5
1BE
100
AcDbEntity
  8
FAA70-0511
370
              15
390
0
  6
STYLE_25
 62
               7
100
AcDbLine
 10
669.12068863829768
 20
-362.07472959685344
 30
0.0
 11
669.12068863829768
 21
-336.07472959685344
 31
0.0
  0
LINE
  5
1BF
100
AcDbEntity
  8
FAA70-0511
370
              15
390
0
  6
STYLE_25
 62
               7
100
AcDbLine
 10
548.60515139462927
 20
-610.05477274400937
 30
0.0
 11
642.88853880528018
 21
-594.31170261446505
 31
0.0
  0
ARC
  5
1C0
100
AcDbEntity
  8
FAA70-0511
370
              15
390
0
  6
STYLE_25
 62
               7
100
AcDbCircle
 10
641.1520570286109
 20
-584.46362508434299
 30
0.0
 40
9.9999999999999698
100
AcDbArc
 50
279.99999999999989
 51
357.00000000000091
  0
LINE
  5
1C1
100
AcDbEntity
  8
FAA70-0511
370
              15
390
0
  6
STYLE_25
 62
               7
100
AcDbLine
 10
651.13835237615649
 20
-584.98698464677227
 30
0.0
 11
662.80667290084011
 21
-368.06650680538098
 31
0.0
  0
LINE
  5
1C2
100
AcDbEntity
  8
FAA70-0511
370
              15
390
0
  6
STYLE_25
 62
               7
100
AcDbLine
 10
662.80667290084011
 20
-368.06650680538098
 30
0.0
 11
669.12068863829768
 21
-362.07472959685344
 31
0.0
  0
LINE
  5
1C3
100
AcDbEntity
  8
FAA70-0511
370
              15
390
0
  6
STYLE_25
 62
               7
100
AcDbLine
 10
669.12068863829768
 20
-362.07472959685344
 30
0.0
 11
712.82068863829772
 21
-362.07472959685344
 31
0.0
  0
ARC
  5
1C4
100
AcDbEntity
  8
FAA70-0511
370
              15
390
0
  6
STYLE_25
 62
               7
100
AcDbCircle
 10
549.82068863829772
 20
-616.94842701509469
 30
0.0
 40
6.9999999999998597
100
AcDbArc
 50
99.999999999999673
 51
180.0
  0
LWPOLYLINE
  5
1C5
100
AcDbEntity
  8
FAA70-0511
370
              15
390
0
  6
Continuous
 62
               7
100
AcDbPolyline
 90
       14
 70
             129
 10
552.82068863829761
 20
88.288308835625656
 42
0.4142135623730967
 10
542.82068863829772
 20
78.288308835625656
 10
542.82068863829772
 20
-751.7116911643742
 42
0.4142135623730917
 10
552.82068863829772
 20
-761.7116911643742
 10
662.82068863829772
 20
-761.7116911643742
 42
0.414213562373095
 10
672.82068863829772
 20
-751.7116911643742
 10
672.82068863829772
 20
-386.68362914537204
 42
-0.3729018752333198
 10
677.10774427625802
 20
-381.73471913036485
 10
712.82068863829772
 20
-376.58988071995975
 10
712.82068863829772
 20
-296.86657452545495
 10
677.10774427625574
 20
-291.7217361150494
 42
-0.3729018752331758
 10
672.82068863829772
 20
-286.77282610004266
 10
672.82068863829772
 20
77.588181100992159
 42
0.3945442706201164
 10
662.82068863830045
 20
88.288308835625656
  0
LINE
  5
1C6
100
AcDbEntity
  8
FAA70-0511
370
              15
390
0
  6
Continuous
 62
               7
100
AcDbLine
 10
-218.05493806469877
 20
-581.07472959685379
 30
0.0
 11
-218.05493806469877
 21
-91.074729596853444
 31
0.0
  0
CIRCLE
  5
1C7
100
AcDbEntity
  8
FAA70-0511
370
              15
390
0
  6
Continuous
 62
               7
100
AcDbCircle
 10
-483.10150924525436
 20
-336.07472959685344
 30
0.0
 40
37.499999999999972
  0
CIRCLE
  5
1C8
100
AcDbEntity
  8
FAA70-0511
370
              15
390
0
  6
Continuous
 62
               7
100
AcDbCircle
 10
-483.10150924525436
 20
-336.07472959685344
 30
0.0
 40
25.999999999999986
  0
LWPOLYLINE
  5
1C9
100
AcDbEntity
  8
FAA70-0511
370
              15
390
0
  6
Continuous
 62
               7
100
AcDbPolyline
 90
       10
 70
             129
 10
-668.10150924525442
 20
88.925270403146186
 42
0.414213562373095
 10
-673.10150924525442
 20
83.925270403146186
 10
-673.10150924525442
 20
-756.07472959685367
 42
0.414213562373095
 10
-668.10150924525442
 20
-761.07472959685367
 10
-196.10463799374307
 20
-761.07472959685367
 42
0.4069028275172557
 10
-186.10776902511668
 20
-751.3249511469154
 10
-186.10776902511861
 20
-751.32495114672304
 42
0.0072396343791083
 10
-186.10776902512225
 20
79.175491953117927
 10
-186.10776902512089
 20
79.175491953372983
 42
0.4069028275124392
 10
-196.10463799374304
 20
88.925270403146186
  0
LINE
  5
1CA
100
AcDbEntity
  8
FAA70-0511
370
              15
390
0
  6
Continuous
 62
               7
100
AcDbLine
 10
-548.10150924525442
 20
-91.074729596853444
 30
0.0
 11
-548.10150924525442
 21
-581.07472959685379
 31
0.0
  0
LINE
  5
1CB
100
AcDbEntity
  8
FAA70-0511
370
              15
390
0
  6
Continuous
 62
               7
100
AcDbLine
 10
-538.10150924525442
 20
-81.074729596853444
 30
0.0
 11
-233.05493806469877
 21
-81.074729596853444
 31
0.0
  0
LINE
  5
1CC
100
AcDbEntity
  8
FAA70-0511
370
              15
390
0
  6
Continuous
 62
               7
100
AcDbLine
 10
-538.10150924525442
 20
-591.07472959685379
 30
0.0
 11
-233.05493806469877
 21
-591.07472959685379
 31
0.0
  0
ARC
  5
1CD
100
AcDbEntity
  8
FAA70-0511
370
              15
390
0
  6
Continuous
 62
               7
100
AcDbCircle
 10
-228.0549380646988
 20
-581.07472959685379
 30
0.0
 40
10.0
100
AcDbArc
 50
270.0
 51
0.0
  0
ARC
  5
1CE
100
AcDbEntity
  8
FAA70-0511
370
              15
390
0
  6
Continuous
 62
               7
100
AcDbCircle
 10
-228.05493806469877
 20
-91.074729596853416
 30
0.0
 40
10.0
100
AcDbArc
 50
0.0
 51
90.0
  0
ARC
  5
1CF
100
AcDbEntity
  8
FAA70-0511
370
              15
390
0
  6
Continuous
 62
               7
100
AcDbCircle
 10
-538.10150924525442
 20
-91.074729596853416
 30
0.0
 40
10.0
100
AcDbArc
 50
90.0
 51
180.0
  0
ARC
  5
1D0
100
AcDbEntity
  8
FAA70-0511
370
              15
390
0
  6
Continuous
 62
               7
100
AcDbCircle
 10
-538.10150924525442
 20
-581.07472959685379
 30
0.0
 40
10.0
100
AcDbArc
 50
180.0
 51
270.0
  0
CIRCLE
  5
1D1
100
AcDbEntity
  8
FAA70-0511
370
              15
390
0
  6
Continuous
 62
               7
100
AcDbCircle
 10
-608.10150924525442
 20
-336.07472959685333
 30
0.0
 40
17.499999999999986
  0
LINE
  5
1D2
100
AcDbEntity
  8
FAA70-0511
370
              15
390
0
  6
STYLE_25
 62
               7
100
AcDbLine
 10
662.79814733235139
 20
915.3966762901764
 30
0.0
 11
662.79814733235139
 21
883.40489908164909
 31
0.0
  0
LINE
  5
1D3
100
AcDbEntity
  8
FAA70-0511
370
              15
390
0
  6
STYLE_25
 62
               7
100
AcDbLine
 10
669.11216306980896
 20
909.40489908164909
 30
0.0
 11
669.11216306980896
 21
883.40489908164909
 31
0.0
  0
LINE
  5
1D4
100
AcDbEntity
  8
FAA70-0511
370
              15
390
0
  6
STYLE_25
 62
               7
100
AcDbLine
 10
661.6104878228366
 20
922.54470862938115
 30
0.0
 11
662.79814733235139
 21
915.3966762901764
 31
0.0
  0
LINE
  5
1D5
100
AcDbEntity
  8
FAA70-0511
370
              15
390
0
  6
STYLE_25
 62
               7
100
AcDbLine
 10
662.79814733235139
 20
915.3966762901764
 30
0.0
 11
669.11216306980896
 21
909.40489908164909
 31
0.0
  0
LINE
  5
1D6
100
AcDbEntity
  8
FAA70-0511
370
              15
390
0
  6
STYLE_25
 62
               7
100
AcDbLine
 10
669.11216306980896
 20
909.40489908164909
 30
0.0
 11
712.812163069809
 21
909.40489908164909
 31
0.0
  0
LINE
  5
1D7
100
AcDbEntity
  8
FAA70-0511
370
              15
390
0
  6
Continuous
 62
               7
100
AcDbLine
 10
662.82058640582227
 20
583.37938520819455
 30
0.0
 11
552.82058640581965
 21
583.37938520819455
 31
0.0
  0
ARC
  5
1D8
100
AcDbEntity
  8
FAA70-0511
370
              15
390
0
  6
Continuous
 62
               7
100
AcDbCircle
 10
662.09594972894593
 20
594.07951294282793
 30
0.0
 40
10.724636676873846
100
AcDbArc
 50
273.87428319203553
 51
0.0
  0
ARC
  5
1D9
100
AcDbEntity
  8
FAA70-0511
370
              15
390
0
  6
Continuous
 62
               7
100
AcDbCircle
 10
677.81216306980923
 20
834.10299558483848
 30
0.0
 40
5.0000000000001696
100
AcDbArc
 50
98.197680954058754
 51
180.0
  0
LINE
  5
1DA
100
AcDbEntity
  8
FAA70-0511
370
              15
390
0
  6
Continuous
 62
               7
100
AcDbLine
 10
712.812163069809
 20
844.19674401025031
 30
0.0
 11
677.09921870776702
 21
839.05190559984521
 31
0.0
  0
LINE
  5
1DB
100
AcDbEntity
  8
FAA70-0511
370
              15
390
0
  6
Continuous
 62
               7
100
AcDbLine
 10
712.812163069809
 20
923.92005020475563
 30
0.0
 11
712.812163069809
 21
844.19674401025031
 31
0.0
  0
LINE
  5
1DC
100
AcDbEntity
  8
FAA70-0511
370
              15
390
0
  6
Continuous
 62
               7
100
AcDbLine
 10
677.0992187077693
 20
929.06488861516073
 30
0.0
 11
712.812163069809
 21
923.92005020475563
 31
0.0
  0
ARC
  5
1DD
100
AcDbEntity
  8
FAA70-0511
370
              15
390
0
  6
Continuous
 62
               7
100
AcDbCircle
 10
677.81216306980946
 20
934.01379863016746
 30
0.0
 40
5.0000000000004547
100
AcDbArc
 50
180.0
 51
261.80231904596525
  0
LINE
  5
1DE
100
AcDbEntity
  8
FAA70-0511
370
              15
390
0
  6
Continuous
 62
               7
100
AcDbLine
 10
672.812163069809
 20
1063.4214355399822
 30
0.0
 11
672.82058640581977
 21
594.07951294282805
 31
0.0
  0
ARC
  5
1DF
100
AcDbEntity
  8
FAA70-0511
370
              15
390
0
  6
Continuous
 62
               7
100
AcDbCircle
 10
662.812163069809
 20
1063.4214355399822
 30
0.0
 40
10.0
100
AcDbArc
 50
0.0
 51
90.0
  0
LINE
  5
1E0
100
AcDbEntity
  8
FAA70-0511
370
              15
390
0
  6
Continuous
 62
               7
100
AcDbLine
 10
552.812163069809
 20
1073.4214355399822
 30
0.0
 11
662.812163069809
 21
1073.4214355399822
 31
0.0
  0
ARC
  5
1E1
100
AcDbEntity
  8
FAA70-0511
370
              15
390
0
  6
Continuous
 62
               7
100
AcDbCircle
 10
552.812163069809
 20
1063.4214355399822
 30
0.0
 40
10.0
100
AcDbArc
 50
90.0
 51
180.0
  0
LINE
  5
1E2
100
AcDbEntity
  8
FAA70-0511
370
              15
390
0
  6
Continuous
 62
               7
100
AcDbLine
 10
542.82058640581965
 20
593.37938520819455
 30
0.0
 11
542.812163069809
 21
1063.4214355399822
 31
0.0
  0
ARC
  5
1E3
100
AcDbEntity
  8
FAA70-0511
370
              15
390
0
  6
Continuous
 62
               7
100
AcDbCircle
 10
552.82058640581965
 20
593.37938520819444
 30
0.0
 40
10.0
100
AcDbArc
 50
180.0
 51
270.0
  0
LINE
  5
1E4
100
AcDbEntity
  8
FAA70-0511
370
              15
390
0
  6
STYLE_25
 62
               7
100
AcDbLine
 10
662.80667290084011
 20
-304.08295238832596
 30
0.0
 11
662.80667290084011
 21
-336.07472959685344
 31
0.0
  0
LINE
  5
1E5
100
AcDbEntity
  8
FAA70-0511
370
              15
390
0
  6
STYLE_25
 62
               7
100
AcDbLine
 10
669.12068863829768
 20
-310.0747295968535
 30
0.0
 11
669.12068863829768
 21
-336.07472959685344
 31
0.0
  0
LINE
  5
1E6
100
AcDbEntity
  8
FAA70-0511
370
              15
390
0
  6
STYLE_25
 62
               7
100
AcDbLine
 10
548.60515139462927
 20
-62.094686449697861
 30
0.0
 11
642.88853880528018
 21
-77.837756579242324
 31
0.0
  0
ARC
  5
1E7
100
AcDbEntity
  8
FAA70-0511
370
              15
390
0
  6
STYLE_25
 62
               7
100
AcDbCircle
 10
641.1520570286109
 20
-87.685834109364265
 30
0.0
 40
9.9999999999998455
100
AcDbArc
 50
2.9999999999991243
 51
79.999999999999972
  0
LINE
  5
1E8
100
AcDbEntity
  8
FAA70-0511
370
              15
390
0
  6
STYLE_25
 62
               7
100
AcDbLine
 10
651.13835237615649
 20
-87.162474546934959
 30
0.0
 11
662.80667290084011
 21
-304.08295238832596
 31
0.0
  0
LINE
  5
1E9
100
AcDbEntity
  8
FAA70-0511
370
              15
390
0
  6
STYLE_25
 62
               7
100
AcDbLine
 10
662.80667290084011
 20
-304.08295238832596
 30
0.0
 11
669.12068863829768
 21
-310.0747295968535
 31
0.0
  0
LINE
  5
1EA
100
AcDbEntity
  8
FAA70-0511
370
              15
390
0
  6
STYLE_25
 62
               7
100
AcDbLine
 10
669.12068863829768
 20
-310.0747295968535
 30
0.0
 11
712.82068863829772
 21
-310.0747295968535
 31
0.0
  0
ARC
  5
1EB
100
AcDbEntity
  8
FAA70-0511
370
              15
390
0
  6
STYLE_25
 62
               7
100
AcDbCircle
 10
549.82068863829772
 20
-55.201032178612564
 30
0.0
 40
7.0
100
AcDbArc
 50
180.0
 51
260.00000000000051
  0
LINE
  5
1EC
100
AcDbEntity
  8
FAA70-0511
370
              15
390
0
  6
STYLE_25
 62
               7
100
AcDbLine
 10
662.79814733235139
 20
851.37897575516308
 30
0.0
 11
662.79814733235139
 21
883.37075296369039
 31
0.0
  0
LINE
  5
1ED
100
AcDbEntity
  8
FAA70-0511
370
              15
390
0
  6
STYLE_25
 62
               7
100
AcDbLine
 10
669.11216306980896
 20
857.37075296369039
 30
0.0
 11
669.11216306980896
 21
883.37075296369039
 31
0.0
  0
LINE
  5
1EE
100
AcDbEntity
  8
FAA70-0511
370
              15
390
0
  6
STYLE_25
 62
               7
100
AcDbLine
 10
662.79814733235139
 20
851.37897575516308
 30
0.0
 11
669.11216306980896
 21
857.37075296369039
 31
0.0
  0
LINE
  5
1EF
100
AcDbEntity
  8
FAA70-0511
370
              15
390
0
  6
STYLE_25
 62
               7
100
AcDbLine
 10
669.11216306980896
 20
857.37075296369039
 30
0.0
 11
712.812163069809
 21
857.37075296369039
 31
0.0
  0
ARC
  5
1F0
100
AcDbEntity
  8
FAA70-0511
370
              15
390
0
  6
STYLE_25
 62
               7
100
AcDbCircle
 10
651.62419247529078
 20
922.02134906695255
 30
0.0
 40
9.9999999999993552
100
AcDbArc
 50
2.999999999995357
 51
84.999999999999872
  0
LINE
  5
1F1
100
AcDbEntity
  8
FAA70-0511
370
              15
390
0
  6
STYLE_25
 62
               7
100
AcDbLine
 10
548.73584607136604
 20
940.82890463334161
 30
0.0
 11
652.49574990276733
 21
931.98329604786932
 31
0.0
  0
ARC
  5
1F2
100
AcDbEntity
  8
FAA70-0511
370
              15
390
0
  6
STYLE_25
 62
               7
100
AcDbCircle
 10
549.31613214479489
 20
947.30295036016378
 30
0.0
 40
6.4999999999999991
100
AcDbArc
 50
180.00072108899144
 51
264.8781128701815
  0
LINE
  5
1F3
100
AcDbEntity
  8
FAA70-0511
370
              15
390
0
  6
STYLE_25
 62
               7
100
AcDbLine
 10
548.6048400990519
 20
628.80157073859084
 30
0.0
 11
642.88822750970257
 21
644.54464086813539
 31
0.0
  0
ARC
  5
1F4
100
AcDbEntity
  8
FAA70-0511
370
              15
390
0
  6
STYLE_25
 62
               7
100
AcDbCircle
 10
641.15174573303352
 20
654.39271839825733
 30
0.0
 40
9.9999999999998188
100
AcDbArc
 50
279.99999999999875
 51
356.99999999999955
  0
LINE
  5
1F5
100
AcDbEntity
  8
FAA70-0511
370
              15
390
0
  6
STYLE_25
 62
               7
100
AcDbLine
 10
651.13804108057911
 20
653.86935883582794
 30
0.0
 11
662.79814733235139
 21
851.37897575516308
 31
0.0
  0
ARC
  5
1F6
100
AcDbEntity
  8
FAA70-0511
370
              15
390
0
  6
STYLE_25
 62
               7
100
AcDbCircle
 10
549.82037734272035
 20
621.9079164675054
 30
0.0
 40
6.9999999999999707
100
AcDbArc
 50
99.999999999999531
 51
180.0
  0
CIRCLE
  5
1F7
100
AcDbEntity
  8
FAA70-0511
370
              15
390
0
  6
STYLE_25
 62
               7
100
AcDbCircle
 10
-608.10150924525442
 20
-236.07472959685344
 30
0.0
 40
17.500000000000018
  0
CIRCLE
  5
1F8
100
AcDbEntity
  8
FAA70-0511
370
              15
390
0
  6
STYLE_25
 62
               7
100
AcDbCircle
 10
-608.10150924525442
 20
-436.07472959685333
 30
0.0
 40
17.5
  0
CIRCLE
  5
1F9
100
AcDbEntity
  8
FAA70-0511
370
              15
390
0
  6
STYLE_25
 62
               7
100
AcDbCircle
 10
-608.10150924525442
 20
-136.07472959685342
 30
0.0
 40
17.5
  0
CIRCLE
  5
1FA
100
AcDbEntity
  8
FAA70-0511
370
              15
390
0
  6
STYLE_25
 62
               7
100
AcDbCircle
 10
-608.10150924525442
 20
-536.07472959685367
 30
0.0
 40
17.500000000000114
  0
LINE
  5
1FB
100
AcDbEntity
  8
FAA70-0511
370
              15
390
0
  6
STYLE_25
 62
               7
100
AcDbLine
 10
592.80784197368803
 20
-496.07472959685344
 30
0.0
 11
592.80784197368803
 21
-456.07472959685344
 31
0.0
  0
LINE
  5
1FC
100
AcDbEntity
  8
FAA70-0511
370
              15
390
0
  6
STYLE_25
 62
               7
100
AcDbLine
 10
592.80784197368803
 20
-216.07472959685347
 30
0.0
 11
592.80784197368803
 21
-176.07472959685347
 31
0.0
  0
CIRCLE
  5
1FD
100
AcDbEntity
  8
FAA70-0511
370
              15
390
0
  6
STYLE_25
 62
               7
100
AcDbCircle
 10
592.82068863829772
 20
-476.07472959685344
 30
0.0
 40
9.9999999999999396
  0
CIRCLE
  5
1FE
100
AcDbEntity
  8
FAA70-0511
370
              15
390
0
  6
STYLE_25
 62
               7
100
AcDbCircle
 10
592.03245079107546
 20
-196.07472959685347
 30
0.0
 40
9.9999999999999964
  0
CIRCLE
  5
1FF
100
AcDbEntity
  8
FAA70-0511
370
               5
390
0
  6
STYLE_25
 62
               7
100
AcDbCircle
 10
-608.10150924525442
 20
1013.9252704031469
 30
0.0
 40
17.5
  0
CIRCLE
  5
200
100
AcDbEntity
  8
FAA70-0511
370
               5
390
0
  6
STYLE_25
 62
               7
100
AcDbCircle
 10
-608.10150924525442
 20
613.92527040314678
 30
0.0
 40
17.5
  0
CIRCLE
  5
201
100
AcDbEntity
  8
FAA70-0511
370
               5
390
0
  6
STYLE_25
 62
               7
100
AcDbCircle
 10
-483.10150924525436
 20
813.9252704031469
 30
0.0
 40
26.0
  0
LWPOLYLINE
  5
202
100
AcDbEntity
  8
FAA70-0511
370
               5
390
0
  6
STYLE_25
 62
               7
100
AcDbPolyline
 90
        8
 70
             129
 10
-668.10150924525442
 20
1238.9252704031469
 42
0.414213562373095
 10
-673.10150924525442
 20
1233.9252704031469
 10
-673.10150924525442
 20
393.9252704031469
 42
0.414213562373095
 10
-668.10150924525442
 20
388.9252704031469
 10
-196.10463799374304
 20
388.9252704031469
 42
0.4069028275172573
 10
-186.10776902511668
 20
398.67504885308517
 42
0.0072396343791035
 10
-186.10776902512089
 20
1229.1754919533737
 42
0.4069028275124442
 10
-196.10463799374304
 20
1238.9252704031469
  0
CIRCLE
  5
203
100
AcDbEntity
  8
FAA70-0511
370
               5
390
0
  6
Continuous
 62
               7
100
AcDbCircle
 10
-608.10150924525442
 20
813.9252704031469
 30
0.0
 40
17.5
  0
CIRCLE
  5
204
100
AcDbEntity
  8
FAA70-0511
370
               5
390
0
  6
STYLE_25
 62
               7
100
AcDbCircle
 10
-608.10150924525442
 20
913.9252704031469
 30
0.0
 40
17.5
  0
CIRCLE
  5
205
100
AcDbEntity
  8
FAA70-0511
370
               5
390
0
  6
STYLE_25
 62
               7
100
AcDbCircle
 10
-608.10150924525442
 20
713.9252704031469
 30
0.0
 40
17.5
  0
POLYLINE
  5
206
100
AcDbEntity
  8
FAA70-0511
370
              15
390
0
  6
Continuous
 62
               7
100
AcDb2dPolyline
 66
               1
 10
0.0
 20
0.0
 30
0.0
 70
               1
 75
               5
  0
VERTEX
  5
207
100
AcDbEntity
  8
FAA70-0511
370
              15
390
0
  6
Continuous
 62
               7
100
AcDbVertex
100
AcDb2dVertex
 10
-643.10150924525442
 20
1038.9252704031469
 30
0.0
  0
VERTEX
  5
208
100
AcDbEntity
  8
FAA70-0511
370
              15
390
0
  6
Continuous
 62
               7
100
AcDbVertex
100
AcDb2dVertex
 10
-423.10150924525442
 20
1038.9252704031469
 30
0.0
  0
VERTEX
  5
209
100
AcDbEntity
  8
FAA70-0511
370
              15
390
0
  6
Continuous
 62
               7
100
AcDbVertex
100
AcDb2dVertex
 10
-423.10150924525442
 20
588.9252704031469
 30
0.0
  0
VERTEX
  5
20A
100
AcDbEntity
  8
FAA70-0511
370
              15
390
0
  6
Continuous
 62
               7
100
AcDbVertex
100
AcDb2dVertex
 10
-643.10150924525442
 20
588.9252704031469
 30
0.0
  0
SEQEND
  5
20B
100
AcDbEntity
  8
FAA70-0511
370
              15
390
0
  6
Continuous
 62
               7
  0
LINE
  5
20C
100
AcDbEntity
  8
FAA70-0511
370
               5
390
0
  6
Continuous
 62
               7
100
AcDbLine
 10
-673.10150924525442
 20
338.9252704031469
 30
0.0
 11
-673.10150924525442
 21
1288.9252704031469
 31
0.0
  0
LINE
  5
20D
100
AcDbEntity
  8
FAA70-0511
370
               5
390
0
  6
Continuous
 62
               7
100
AcDbLine
 10
-673.53041310422509
 20
1179.9252704031469
 30
0.0
 11
-710.53041310422509
 21
1216.9252704031469
 31
0.0
  0
LINE
  5
20E
100
AcDbEntity
  8
FAA70-0511
370
               5
390
0
  6
Continuous
 62
               7
100
AcDbLine
 10
-673.53041310422509
 20
1199.9252704031469
 30
0.0
 11
-710.53041310422509
 21
1236.9252704031469
 31
0.0
  0
LINE
  5
20F
100
AcDbEntity
  8
FAA70-0511
370
               5
390
0
  6
Continuous
 62
               7
100
AcDbLine
 10
-673.53041310422509
 20
1219.9252704031469
 30
0.0
 11
-710.53041310422509
 21
1256.9252704031469
 31
0.0
  0
LINE
  5
210
100
AcDbEntity
  8
FAA70-0511
370
              15
390
0
  6
Continuous
 62
               7
100
AcDbLine
 10
542.81296494573508
 20
990.92143553998221
 30
0.0
 11
557.81296494573508
 21
990.92182363505481
 31
0.0
  0
LINE
  5
211
100
AcDbEntity
  8
FAA70-0511
370
              15
390
0
  6
Continuous
 62
               7
100
AcDbLine
 10
542.81296494573508
 20
1025.9214355399822
 30
0.0
 11
557.81296494573508
 21
1025.9218236350548
 31
0.0
  0
ENDSEC
  0
SECTION
  2
OBJECTS
  0
DICTIONARY
  5
19
100
AcDbDictionary
280
               0
281
               1
  3
ACAD_GROUP
350
1A
  3
ACAD_MLINESTYLE
350
1B
  3
ACAD_LAYOUT
350
1E
  3
ACAD_PLOTSETTINGS
350
22
  3
ACAD_PLOTSTYLENAME
350
1F
  0
DICTIONARY
  5
1A
102
{ACAD_REACTORS
330
19
102
}
100
AcDbDictionary
280
               0
281
               1
  0
DICTIONARY
  5
1B
102
{ACAD_REACTORS
330
19
102
}
100
AcDbDictionary
280
               0
281
               1
  3
Standard
350
1C
  0
MLINESTYLE
  5
1C
102
{ACAD_REACTORS
330
1B
102
}
100
AcDbMlineStyle
  2
Standard
 70
               0
  3

 62
               0
 51
90.0
 52
90.0
 71
               2
 49
0.5
 62
             256
  6
ByLayer
 49
-0.5
 62
             256
  6
ByLayer
  0
ACDBDICTIONARYWDFLT
  5
1F
102
{ACAD_REACTORS
330
19
102
}
100
AcDbDictionary
281
               1
  3
Normal
350
1D
100
AcDbDictionaryWithDefault
340
1D
  0
ACDBPLACEHOLDER
  5
1D
102
{ACAD_REACTORS
330
1F
102
}
  0
LAYOUT
  5
20
102
{ACAD_REACTORS
330
1E
102
}
100
AcDbPlotSettings
  1

  2

  4

  6

 40
0.0
 41
0.0
 42
0.0
 43
0.0
 44
0.0
 45
0.0
 46
0.0
 47
0.0
 48
0.0
 49
0.0
140
0.0
141
0.0
142
1.0
143
1.0
 70
            1024
 72
               0
 73
               0
 74
               0
  7

 75
               0
147
1.0
148
0.0
149
0.0
100
AcDbLayout
  1
Model
 70
               0
 71
               0
 10
0.0
 20
0.0
 11
0.0
 21
0.0
 12
0.0
 22
0.0
 32
0.0
 14
0.0
 24
0.0
 34
0.0
 15
0.0
 25
0.0
 35
0.0
146
0.0
 13
0.0
 23
0.0
 33
0.0
 16
0.0
 26
0.0
 36
0.0
 17
0.0
 27
0.0
 37
0.0
 76
               0
330
A
331
0
345
0
346
0
  0
LAYOUT
  5
21
102
{ACAD_REACTORS
330
1E
102
}
100
AcDbPlotSettings
  1

  2

  4

  6

 40
0.0
 41
0.0
 42
0.0
 43
0.0
 44
0.0
 45
0.0
 46
0.0
 47
0.0
 48
0.0
 49
0.0
140
0.0
141
0.0
142
1.0
143
1.0
 70
               0
 72
               0
 73
               0
 74
               0
  7

 75
               0
147
1.0
148
0.0
149
0.0
100
AcDbLayout
  1
Layout1
 70
               0
 71
               0
 10
0.0
 20
0.0
 11
0.0
 21
0.0
 12
0.0
 22
0.0
 32
0.0
 14
0.0
 24
0.0
 34
0.0
 15
0.0
 25
0.0
 35
0.0
146
0.0
 13
0.0
 23
0.0
 33
0.0
 16
0.0
 26
0.0
 36
0.0
 17
0.0
 27
0.0
 37
0.0
 76
               0
330
B
331
0
345
0
346
0
  0
DICTIONARY
  5
1E
102
{ACAD_REACTORS
330
19
102
}
100
AcDbDictionary
280
               0
281
               1
  3
Layout1
350
21
  3
Model
350
20
  0
DICTIONARY
  5
22
102
{ACAD_REACTORS
330
19
102
}
100
AcDbDictionary
280
               0
281
               1
  0
ENDSEC
  0
EOF
