  0
SECTION
  2
HEADER
  9
$ACADVER
  1
AC1015
  9
$ACADMAINTVER
 70
               6
  9
$DWGCODEPAGE
  3
ANSI_932
  9
$INSBASE
 10
0.0
 20
0.0
 30
0.0
  9
$EXTMIN
 10
-1049.9999999999998
 20
-1485.0
 30
-14.428611111111111
  9
$EXTMAX
 10
1049.9999999999998
 20
1485.0
 30
14.428611111111111
  9
$LIMMIN
 10
0.0
 20
0.0
  9
$LIMMAX
 10
0.0
 20
0.0
  9
$ORTHOMODE
 70
               0
  9
$REGENMODE
 70
               1
  9
$FILLMODE
 70
               1
  9
$QTEXTMODE
 70
               0
  9
$MIRRTEXT
 70
               1
  9
$LTSCALE
 40
12.699999999999999
  9
$ATTMODE
 70
               1
  9
$TEXTSIZE
 40
0.2
  9
$TRACEWID
 40
1.0
  9
$TEXTSTYLE
  7
Standard
  9
$CLAYER
  8
notes
  9
$CELTYPE
  6
Continuous
  9
$CECOLOR
 62
             256
  9
$CELTSCALE
 40
1.0
  9
$DISPSILH
 70
               0
  9
$DIMSCALE
 40
1.0
  9
$DIMASZ
 40
31.75
  9
$DIMEXO
 40
0.0
  9
$DIMDLI
 40
6.9999999999999396
  9
$DIMRND
 40
0.0
  9
$DIMDLE
 40
0.0
  9
$DIMEXE
 40
19.999999999996199
  9
$DIMTP
 40
0.0
  9
$DIMTM
 40
0.0
  9
$DIMTXT
 40
24.432617187500004
  9
$DIMCEN
 40
0.0
  9
$DIMTSZ
 40
0.0
  9
$DIMTOL
 70
               0
  9
$DIMLIM
 70
               0
  9
$DIMTIH
 70
               0
  9
$DIMTOH
 70
               0
  9
$DIMSE1
 70
               0
  9
$DIMSE2
 70
               0
  9
$DIMTAD
 70
               1
  9
$DIMZIN
 70
              11
  9
$DIMBLK
  1
VW_FILLEDARROW
  9
$DIMASO
 70
               1
  9
$DIMSHO
 70
               1
  9
$DIMPOST
  1
<>
  9
$DIMAPOST
  1
[]
  9
$DIMALT
 70
               0
  9
$DIMALTD
 70
               1
  9
$DIMALTF
 40
1.0
  9
$DIMLFAC
 40
1.0
  9
$DIMTOFL
 70
               0
  9
$DIMTVP
 40
0.0
  9
$DIMTIX
 70
               1
  9
$DIMSOXD
 70
               0
  9
$DIMSAH
 70
               0
  9
$DIMBLK1
  1

  9
$DIMBLK2
  1

  9
$DIMSTYLE
  2
JIS
  9
$DIMCLRD
 70
               0
  9
$DIMCLRE
 70
               0
  9
$DIMCLRT
 70
               0
  9
$DIMTFAC
 40
1.0
  9
$DIMGAP
 40
1.00000000000108
  9
$DIMJUST
 70
               0
  9
$DIMSD1
 70
               0
  9
$DIMSD2
 70
               0
  9
$DIMTOLJ
 70
               1
  9
$DIMTZIN
 70
              11
  9
$DIMALTZ
 70
              11
  9
$DIMALTTZ
 70
              11
  9
$DIMUPT
 70
               0
  9
$DIMDEC
 70
               1
  9
$DIMTDEC
 70
               1
  9
$DIMALTU
 70
               2
  9
$DIMALTTD
 70
               2
  9
$DIMTXSTY
  7
ＭＳ ゴシック
  9
$DIMAUNIT
 70
               0
  9
$DIMADEC
 70
               2
  9
$DIMALTRND
 40
0.0
  9
$DIMAZIN
 70
               0
  9
$DIMDSEP
 70
              46
  9
$DIMATFIT
 70
               0
  9
$DIMFRAC
 70
               2
  9
$DIMLDRBLK
  1

  9
$DIMLUNIT
 70
               2
  9
$DIMLWD
 70
              -2
  9
$DIMLWE
 70
              -2
  9
$DIMTMOVE
 70
               0
  9
$LUNITS
 70
               2
  9
$LUPREC
 70
               4
  9
$SKETCHINC
 40
0.1
  9
$FILLETRAD
 40
0.0
  9
$AUNITS
 70
               0
  9
$AUPREC
 70
               0
  9
$MENU
  1
acad
  9
$ELEVATION
 40
0.0
  9
$PELEVATION
 40
0.0
  9
$THICKNESS
 40
0.0
  9
$LIMCHECK
 70
               0
  9
$CHAMFERA
 40
0.0
  9
$CHAMFERB
 40
0.0
  9
$CHAMFERC
 40
0.0
  9
$CHAMFERD
 40
0.0
  9
$SKPOLY
 70
               0
  9
$TDCREATE
 40
2455791.439594907
  9
$TDUCREATE
 40
0.000000000
  9
$TDUPDATE
 40
2455791.439594907
  9
$TDUUPDATE
 40
0.000000000
  9
$TDINDWG
 40
0.0000000000
  9
$TDUSRTIMER
 40
0.0000000000
  9
$USRTIMER
 70
               1
  9
$ANGBASE
 50
0.0
  9
$ANGDIR
 70
               0
  9
$PDMODE
 70
               1
  9
$PDSIZE
 40
-2.0
  9
$PLINEWID
 40
0.0
  9
$SPLFRAME
 70
               0
  9
$SPLINETYPE
 70
               6
  9
$SPLINESEGS
 70
               8
  9
$HANDSEED
  5
254
  9
$SURFTAB1
 70
               6
  9
$SURFTAB2
 70
               6
  9
$SURFTYPE
 70
               6
  9
$SURFU
 70
               6
  9
$SURFV
 70
               6
  9
$UCSBASE
  2

  9
$UCSNAME
  2

  9
$UCSORG
 10
0.0
 20
0.0
 30
0.0
  9
$UCSXDIR
 10
1.0
 20
0.0
 30
0.0
  9
$UCSYDIR
 10
0.0
 20
1.0
 30
0.0
  9
$UCSORTHOREF
  2

  9
$UCSORTHOVIEW
 70
               0
  9
$UCSORGTOP
 10
0.0
 20
0.0
 30
0.0
  9
$UCSORGBOTTOM
 10
0.0
 20
0.0
 30
0.0
  9
$UCSORGLEFT
 10
0.0
 20
0.0
 30
0.0
  9
$UCSORGRIGHT
 10
0.0
 20
0.0
 30
0.0
  9
$UCSORGFRONT
 10
0.0
 20
0.0
 30
0.0
  9
$UCSORGBACK
 10
0.0
 20
0.0
 30
0.0
  9
$PUCSBASE
  2

  9
$PUCSNAME
  2

  9
$PUCSORG
 10
0.0
 20
0.0
 30
0.0
  9
$PUCSXDIR
 10
1.0
 20
0.0
 30
0.0
  9
$PUCSYDIR
 10
0.0
 20
1.0
 30
0.0
  9
$PUCSORTHOREF
  2

  9
$PUCSORTHOVIEW
 70
               0
  9
$PUCSORGTOP
 10
0.0
 20
0.0
 30
0.0
  9
$PUCSORGBOTTOM
 10
0.0
 20
0.0
 30
0.0
  9
$PUCSORGLEFT
 10
0.0
 20
0.0
 30
0.0
  9
$PUCSORGRIGHT
 10
0.0
 20
0.0
 30
0.0
  9
$PUCSORGFRONT
 10
0.0
 20
0.0
 30
0.0
  9
$PUCSORGBACK
 10
0.0
 20
0.0
 30
0.0
  9
$USERI1
 70
               0
  9
$USERI2
 70
               0
  9
$USERI3
 70
               0
  9
$USERI4
 70
               0
  9
$USERI5
 70
               0
  9
$USERR1
 40
0.0
  9
$USERR2
 40
0.0
  9
$USERR3
 40
0.0
  9
$USERR4
 40
0.0
  9
$USERR5
 40
0.0
  9
$WORLDVIEW
 70
               1
  9
$SHADEDGE
 70
               3
  9
$SHADEDIF
 70
              70
  9
$TILEMODE
 70
               1
  9
$MAXACTVP
 70
              64
  9
$PINSBASE
 10
0.0
 20
0.0
 30
0.0
  9
$PLIMCHECK
 70
               0
  9
$PEXTMIN
 10
1.0000000000000000E+20
 20
1.0000000000000000E+20
 30
1.0000000000000000E+20
  9
$PEXTMAX
 10
-1.0000000000000000E+20
 20
-1.0000000000000000E+20
 30
-1.0000000000000000E+20
  9
$PLIMMIN
 10
0.0
 20
0.0
  9
$PLIMMAX
 10
12.0
 20
9.0
  9
$UNITMODE
 70
               0
  9
$VISRETAIN
 70
               0
  9
$PLINEGEN
 70
               1
  9
$PSLTSCALE
 70
               0
  9
$TREEDEPTH
 70
            3020
  9
$CMLSTYLE
  2
Standard
  9
$CMLJUST
 70
               0
  9
$CMLSCALE
 40
1.0
  9
$PROXYGRAPHICS
 70
               0
  9
$MEASUREMENT
 70
               1
  9
$CELWEIGHT
370
               0
  9
$ENDCAPS
280
               0
  9
$JOINSTYLE
280
               0
  9
$LWDISPLAY
290
               1
  9
$INSUNITS
 70
               4
  9
$HYPERLINKBASE
  1

  9
$STYLESHEET
  1

  9
$XEDIT
290
               1
  9
$CEPSNTYPE
380
               0
  9
$PSTYLEMODE
290
               1
  9
$FINGERPRINTGUID
  2

  9
$VERSIONGUID
  2

  9
$EXTNAMES
290
               1
  9
$PSVPSCALE
 40
0.0
  0
ENDSEC
  0
SECTION
  2
CLASSES
  0
CLASS
  1
LWPOLYLINE
  2
AcDbPolyline
  3
AutoCAD 2000
 90
        0
280
               0
281
               1
  0
CLASS
  1
IMAGE
  2
AcDbRasterImage
  3
ISM
 90
      127
280
               0
281
               1
  0
CLASS
  1
OLE2FRAME
  2
AcDbOle2Frame
  3
AutoCAD 2000
 90
        0
280
               0
281
               1
  0
CLASS
  1
HATCH
  2
AcDbHatch
  3
AutoCAD 2000
 90
        0
280
               0
281
               1
  0
CLASS
  1
DICTIONARYVAR
  2
AcDbDictionaryVar
  3
AutoCAD 2000
 90
        0
280
               0
281
               0
  0
CLASS
  1
RASTERVARIABLES
  2
AcDbRasterVariables
  3
ISM
 90
        0
280
               0
281
               0
  0
CLASS
  1
IMAGEDEF
  2
AcDbRasterImageDef
  3
ISM
 90
        0
280
               0
281
               0
  0
CLASS
  1
IMAGEDEF_REACTOR
  2
AcDbRasterImageDefReactor
  3
ISM
 90
        1
280
               0
281
               0
  0
CLASS
  1
IDBUFFER
  2
AcDbIdBuffer
  3
AutoCAD 2000
 90
        0
280
               0
281
               0
  0
CLASS
  1
SPATIAL_FILTER
  2
AcDbSpatialFilter
  3
AutoCAD 2000
 90
        0
280
               0
281
               0
  0
CLASS
  1
XRECORD
  2
AcDbXrecord
  3
AutoCAD 2000
 90
        0
280
               0
281
               0
  0
CLASS
  1
SORTENTSTABLE
  2
AcDbSortentsTable
  3
AutoCAD 2000
 90
        0
280
               0
281
               0
  0
CLASS
  1
LAYER_INDEX
  2
AcDbLayerIndex
  3
AutoCAD 2000
 90
        0
280
               0
281
               0
  0
CLASS
  1
SPATIAL_INDEX
  2
AcDbSpatialIndex
  3
AutoCAD 2000
 90
        0
280
               0
281
               0
  0
CLASS
  1
OBJECT_PTR
  2
CAseDLPNTableRecord
  3
"ASE-LPNTableRecord"
 90
        1
280
               0
281
               0
  0
CLASS
  1
LAYOUT
  2
AcDbLayout
  3
AutoCAD 2000
 90
        0
280
               0
281
               0
  0
CLASS
  1
PLOTSETTINGS
  2
AcDbPlotSettings
  3
AutoCAD 2000
 90
        0
280
               0
281
               0
  0
CLASS
  1
ACDBDICTIONARYWDFLT
  2
AcDbDictionaryWithDefault
  3
AutoCAD 2000
 90
        0
280
               0
281
               0
  0
CLASS
  1
ACDBPLACEHOLDER
  2
AcDbPlaceHolder
  3
AutoCAD 2000
 90
        0
280
               0
281
               0
  0
ENDSEC
  0
SECTION
  2
TABLES
  0
TABLE
  2
VPORT
  5
7
100
AcDbSymbolTable
 70
               1
  0
VPORT
  5
15
100
AcDbSymbolTableRecord
100
AcDbViewportTableRecord
  2
*ACTIVE
 70
               0
 10
0.0
 20
0.0
 11
1.0
 21
1.0
 12
0.0
 22
0.0
 13
0.0
 23
0.0
 14
1.0
 24
1.0
 15
0.0
 25
0.0
 16
0.0
 26
0.0
 36
1.0
 17
0.0
 27
0.0
 37
0.0
 40
2970.0
 41
0.688564
 42
50.0
 43
0.0
 44
0.0
 50
0.0
 51
0.0
 71
               0
 72
            2000
 73
               1
 74
               1
 75
               0
 76
               0
 77
               0
 78
               0
281
               0
 65
               0
110
0.0
120
0.0
130
0.0
111
1.0
121
0.0
131
0.0
112
0.0
122
1.0
132
0.0
345
0
346
0
 79
               0
146
0.0
  0
ENDTAB
  0
TABLE
  2
LTYPE
  5
4
100
AcDbSymbolTable
 70
              28
  0
LTYPE
  5
11
100
AcDbSymbolTableRecord
100
AcDbLinetypeTableRecord
  2
ByBlock
 70
              64
  3

 72
              65
 73
               0
 40
0.0
  0
LTYPE
  5
12
100
AcDbSymbolTableRecord
100
AcDbLinetypeTableRecord
  2
ByLayer
 70
              64
  3

 72
              65
 73
               0
 40
0.0
  0
LTYPE
  5
13
100
AcDbSymbolTableRecord
100
AcDbLinetypeTableRecord
  2
Continuous
 70
              64
  3
Solid line
 72
              65
 73
               0
 40
0.0
  0
LTYPE
  5
3F
100
AcDbSymbolTableRecord
100
AcDbLinetypeTableRecord
  2
STYLE_01
 70
               0
  3

 72
              65
 73
               2
 40
0.157472
 49
0.078736
 74
               0
 49
-0.078736
 74
               0
  0
LTYPE
  5
40
100
AcDbSymbolTableRecord
100
AcDbLinetypeTableRecord
  2
STYLE_02
 70
               0
  3

 72
              65
 73
               2
 40
0.236206
 49
0.15747
 74
               0
 49
-0.078736
 74
               0
  0
LTYPE
  5
41
100
AcDbSymbolTableRecord
100
AcDbLinetypeTableRecord
  2
STYLE_03
 70
               0
  3

 72
              65
 73
               2
 40
0.314942
 49
0.236206
 74
               0
 49
-0.078736
 74
               0
  0
LTYPE
  5
42
100
AcDbSymbolTableRecord
100
AcDbLinetypeTableRecord
  2
STYLE_04
 70
               0
  3

 72
              65
 73
               2
 40
0.4724119999999999
 49
0.393676
 74
               0
 49
-0.0787359999999999
 74
               0
  0
LTYPE
  5
43
100
AcDbSymbolTableRecord
100
AcDbLinetypeTableRecord
  2
STYLE_05
 70
               0
  3

 72
              65
 73
               4
 40
0.4214800000000001
 49
0.236206
 74
               0
 49
-0.078736
 74
               0
 49
0.027802
 74
               0
 49
-0.0787360000000001
 74
               0
  0
LTYPE
  5
44
100
AcDbSymbolTableRecord
100
AcDbLinetypeTableRecord
  2
STYLE_06
 70
               0
  3

 72
              65
 73
               6
 40
0.736422
 49
0.236206
 74
               0
 49
-0.078736
 74
               0
 49
0.2362059999999999
 74
               0
 49
-0.0787360000000001
 74
               0
 49
0.027802
 74
               0
 49
-0.0787360000000001
 74
               0
  0
LTYPE
  5
45
100
AcDbSymbolTableRecord
100
AcDbLinetypeTableRecord
  2
STYLE_07
 70
               0
  3

 72
              65
 73
               6
 40
0.528018
 49
0.236206
 74
               0
 49
-0.078736
 74
               0
 49
0.027802
 74
               0
 49
-0.0787360000000001
 74
               0
 49
0.027802
 74
               0
 49
-0.0787359999999999
 74
               0
  0
LTYPE
  5
46
100
AcDbSymbolTableRecord
100
AcDbLinetypeTableRecord
  2
STYLE_08
 70
               0
  3

 72
              65
 73
               4
 40
1.0235619999999999
 49
0.7873539999999996
 74
               0
 49
-0.0787360000000001
 74
               0
 49
0.0787360000000001
 74
               0
 49
-0.0787360000000001
 74
               0
  0
LTYPE
  5
47
100
AcDbSymbolTableRecord
100
AcDbLinetypeTableRecord
  2
STYLE_09
 70
               0
  3

 72
              65
 73
               6
 40
1.1810339999999997
 49
0.7873539999999996
 74
               0
 49
-0.0787360000000001
 74
               0
 49
0.0787360000000001
 74
               0
 49
-0.0787360000000001
 74
               0
 49
0.0787359999999999
 74
               0
 49
-0.0787359999999999
 74
               0
  0
LTYPE
  5
48
100
AcDbSymbolTableRecord
100
AcDbLinetypeTableRecord
  2
STYLE_10
 70
               0
  3

 72
              65
 73
               4
 40
1.0826771653543308
 49
0.7677165354330708
 74
               0
 49
-0.1181102362204725
 74
               0
 49
0.078740157480315
 74
               0
 49
-0.1181102362204724
 74
               0
  0
LTYPE
  5
49
100
AcDbSymbolTableRecord
100
AcDbLinetypeTableRecord
  2
STYLE_11
 70
               0
  3

 72
              65
 73
               2
 40
0.4921259842519685
 49
0.374015748031496
 74
               0
 49
-0.1181102362204724
 74
               0
  0
LTYPE
  5
4A
100
AcDbSymbolTableRecord
100
AcDbLinetypeTableRecord
  2
STYLE_12
 70
               0
  3

 72
              65
 73
               2
 40
3.8099999999999987
 49
2.5399999999999996
 74
               0
 49
-1.2699999999999996
 74
               0
  0
LTYPE
  5
4B
100
AcDbSymbolTableRecord
100
AcDbLinetypeTableRecord
  2
STYLE_13
 70
               0
  3

 72
              65
 73
               6
 40
12.699999999999999
 49
6.3499999999999996
 74
               0
 49
-1.27
 74
               0
 49
1.27
 74
               0
 49
-1.27
 74
               0
 49
1.27
 74
               0
 49
-1.27
 74
               0
  0
LTYPE
  5
4C
100
AcDbSymbolTableRecord
100
AcDbLinetypeTableRecord
  2
STYLE_14
 70
               0
  3

 72
              65
 73
               4
 40
20.32
 49
12.699999999999999
 74
               0
 49
-2.54
 74
               0
 49
2.54
 74
               0
 49
-2.54
 74
               0
  0
LTYPE
  5
4D
100
AcDbSymbolTableRecord
100
AcDbLinetypeTableRecord
  2
STYLE_15
 70
               0
  3

 72
              65
 73
               2
 40
1.2020000000000004
 49
1.2000000000000002
 74
               0
 49
-0.0020000000000001
 74
               0
  0
LTYPE
  5
4E
100
AcDbSymbolTableRecord
100
AcDbLinetypeTableRecord
  2
STYLE_16
 70
               0
  3

 72
              65
 73
               2
 40
0.3
 49
0.2
 74
               0
 49
-0.1
 74
               0
  0
LTYPE
  5
4F
100
AcDbSymbolTableRecord
100
AcDbLinetypeTableRecord
  2
STYLE_17
 70
               0
  3

 72
              65
 73
               2
 40
3.0
 49
2.3999999999999999
 74
               0
 49
-0.6
 74
               0
  0
LTYPE
  5
50
100
AcDbSymbolTableRecord
100
AcDbLinetypeTableRecord
  2
STYLE_18
 70
               0
  3

 72
              65
 73
               4
 40
7.1999999999999993
 49
4.7999999999999998
 74
               0
 49
-0.6000000000000005
 74
               0
 49
1.2
 74
               0
 49
-0.5999999999999994
 74
               0
  0
LTYPE
  5
51
100
AcDbSymbolTableRecord
100
AcDbLinetypeTableRecord
  2
STYLE_19
 70
               0
  3

 72
              65
 73
               6
 40
9.0
 49
4.7999999999999998
 74
               0
 49
-0.6000000000000005
 74
               0
 49
1.2
 74
               0
 49
-0.5999999999999994
 74
               0
 49
1.2
 74
               0
 49
-0.5999999999999994
 74
               0
  0
LTYPE
  5
52
100
AcDbSymbolTableRecord
100
AcDbLinetypeTableRecord
  2
STYLE_20
 70
               0
  3

 72
              65
 73
               4
 40
3.5999999999999996
 49
2.3999999999999999
 74
               0
 49
-0.3000000000000003
 74
               0
 49
0.6
 74
               0
 49
-0.2999999999999997
 74
               0
  0
LTYPE
  5
53
100
AcDbSymbolTableRecord
100
AcDbLinetypeTableRecord
  2
STYLE_21
 70
               0
  3

 72
              65
 73
               2
 40
1.5
 49
1.2
 74
               0
 49
-0.3
 74
               0
  0
LTYPE
  5
54
100
AcDbSymbolTableRecord
100
AcDbLinetypeTableRecord
  2
STYLE_22
 70
               0
  3

 72
              65
 73
               2
 40
4.4000399999999997
 49
0.002
 74
               0
 49
-4.3980399999999999
 74
               0
  0
LTYPE
  5
55
100
AcDbSymbolTableRecord
100
AcDbLinetypeTableRecord
  2
STYLE_23
 70
               0
  3

 72
              65
 73
               2
 40
2.5
 49
1.8999999999999999
 74
               0
 49
-0.6
 74
               0
  0
LTYPE
  5
56
100
AcDbSymbolTableRecord
100
AcDbLinetypeTableRecord
  2
STYLE_24
 70
               0
  3

 72
              65
 73
               4
 40
5.5
 49
3.9000000000000008
 74
               0
 49
-0.6
 74
               0
 49
0.3999999999999998
 74
               0
 49
-0.6
 74
               0
  0
LTYPE
  5
57
100
AcDbSymbolTableRecord
100
AcDbLinetypeTableRecord
  2
STYLE_25
 70
               0
  3

 72
              65
 73
               2
 40
1.5748031496062991
 49
0.7874015748031495
 74
               0
 49
-0.7874015748031495
 74
               0
  0
ENDTAB
  0
TABLE
  2
LAYER
  5
2
100
AcDbSymbolTable
 70
               5
  0
LAYER
  5
14
100
AcDbSymbolTableRecord
100
AcDbLayerTableRecord
  2
0
 70
               0
 62
               7
  6
Continuous
290
               1
370
              -3
390
1D
  0
LAYER
  5
58
100
AcDbSymbolTableRecord
100
AcDbLayerTableRecord
  2
Defpoints
 70
               0
 62
               7
  6
Continuous
290
               0
370
              -3
390
1D
  0
LAYER
  5
59
100
AcDbSymbolTableRecord
100
AcDbLayerTableRecord
  2
template
 70
               0
 62
               7
  6
Continuous
290
               1
370
              -3
390
1D
  0
LAYER
  5
5A
100
AcDbSymbolTableRecord
100
AcDbLayerTableRecord
  2
notes
 70
               0
 62
               7
  6
Continuous
290
               1
370
              -3
390
1D
  0
LAYER
  5
5B
100
AcDbSymbolTableRecord
100
AcDbLayerTableRecord
  2
FAA70-0512
 70
               0
 62
               7
  6
Continuous
290
               1
370
              -3
390
1D
  0
ENDTAB
  0
TABLE
  2
STYLE
  5
3
100
AcDbSymbolTable
 70
               2
  0
STYLE
  5
17
100
AcDbSymbolTableRecord
100
AcDbTextStyleTableRecord
  2
Standard
 70
               0
 40
0.0
 41
1.0
 50
0.0
 71
               0
 42
0.0
  3
txt
  4
BIGFONT.SHX
  0
STYLE
  5
3E
100
AcDbSymbolTableRecord
100
AcDbTextStyleTableRecord
  2
ＭＳ ゴシック
 70
               0
 40
0.0
 41
1.0
 50
0.0
 71
               0
 42
0.0
  3

  4
ＭＳ ゴシック
1001
ACAD
1000
ＭＳ ゴシック
1071
        0
  0
ENDTAB
  0
TABLE
  2
VIEW
  5
5
100
AcDbSymbolTable
 70
               0
  0
ENDTAB
  0
TABLE
  2
UCS
  5
6
100
AcDbSymbolTable
 70
               0
  0
ENDTAB
  0
TABLE
  2
APPID
  5
8
100
AcDbSymbolTable
 70
               1
  0
APPID
  5
16
100
AcDbSymbolTableRecord
100
AcDbRegAppTableRecord
  2
ACAD
 70
               0
  0
ENDTAB
  0
TABLE
  2
DIMSTYLE
  5
9
100
AcDbSymbolTable
 70
               3
100
AcDbDimStyleTable
 71
               0
  0
DIMSTYLE
105
18
100
AcDbSymbolTableRecord
100
AcDbDimStyleTableRecord
  2
Standard
 70
               0
  3

  4

 40
1.0
 41
0.18
 42
0.0625
 43
0.38
 44
0.18
 45
0.0
 46
0.0
 47
0.0
 48
0.0
 71
               0
 72
               0
 73
               1
 74
               1
 75
               0
 76
               0
 77
               0
 78
               0
 79
               0
140
0.18
141
0.09
142
0.0
143
25.399999999999999
144
1.0
145
0.0
146
1.0
147
0.09
148
0.0
170
               0
171
               2
172
               0
173
               0
174
               0
175
               0
176
               0
177
               0
178
               0
179
               0
271
               4
272
               4
273
               2
274
               2
275
               0
276
               0
277
               2
278
              46
279
               0
280
               0
281
               0
282
               0
283
               1
284
               0
285
               0
286
               0
288
               0
289
               3
340
17
341
0
342
0
343
0
344
0
371
              -2
372
              -2
  0
DIMSTYLE
105
64
100
AcDbSymbolTableRecord
100
AcDbDimStyleTableRecord
  2
tform線あり
 70
               0
  3
<>
  4
[]
 40
1.0
 41
3.999755859375
 42
24.999999999999996
 43
0.9999999999999999
 44
0.0
 45
0.0
 46
0.0
 47
0.0
 48
0.0
 71
               0
 72
               0
 73
               0
 74
               0
 75
               0
 76
               0
 77
               1
 78
              11
 79
               0
140
24.432617187500004
141
0.0
142
0.0
143
1.0
144
1.0
145
0.0
146
1.0
147
0.4999999999999999
148
0.0
170
               0
171
               1
172
               0
173
               0
174
               1
175
               0
176
               0
177
               0
178
               0
179
               2
271
               1
272
               1
273
               2
274
               2
275
               0
276
               2
277
               2
278
              46
279
               0
280
               0
281
               0
282
               0
283
               1
284
              11
285
              11
286
              11
288
               0
289
               0
340
3E
341
5C
342
5C
343
0
344
0
371
              -2
372
              -2
  0
DIMSTYLE
105
69
100
AcDbSymbolTableRecord
100
AcDbDimStyleTableRecord
  2
JIS
 70
               0
  3
<>
  4
[]
 40
1.0
 41
31.75
 42
0.0
 43
6.9999999999999396
 44
19.999999999996199
 45
0.0
 46
0.0
 47
0.0
 48
0.0
 71
               0
 72
               0
 73
               0
 74
               0
 75
               0
 76
               0
 77
               1
 78
              11
 79
               0
140
24.432617187500004
141
0.0
142
0.0
143
1.0
144
1.0
145
0.0
146
1.0
147
1.00000000000108
148
0.0
170
               0
171
               1
172
               0
173
               0
174
               1
175
               0
176
               0
177
               0
178
               0
179
               2
271
               1
272
               1
273
               2
274
               2
275
               0
276
               2
277
               2
278
              46
279
               0
280
               0
281
               0
282
               0
283
               1
284
              11
285
              11
286
              11
288
               0
289
               0
340
3E
341
65
342
65
343
0
344
0
371
              -2
372
              -2
  0
ENDTAB
  0
TABLE
  2
BLOCK_RECORD
  5
1
100
AcDbSymbolTable
 70
              29
  0
BLOCK_RECORD
  5
A
100
AcDbSymbolTableRecord
100
AcDbBlockTableRecord
  2
*MODEL_SPACE
340
20
  0
BLOCK_RECORD
  5
B
100
AcDbSymbolTableRecord
100
AcDbBlockTableRecord
  2
*PAPER_SPACE
340
21
  0
BLOCK_RECORD
  5
5C
100
AcDbSymbolTableRecord
100
AcDbBlockTableRecord
  2
_DOT
340
0
  0
BLOCK_RECORD
  5
65
100
AcDbSymbolTableRecord
100
AcDbBlockTableRecord
  2
VW_FILLEDARROW
340
0
  0
BLOCK_RECORD
  5
23
100
AcDbSymbolTableRecord
100
AcDbBlockTableRecord
  2
グループ
340
0
102
{BLKREFS
331
1C7
102
}
  0
BLOCK_RECORD
  5
24
100
AcDbSymbolTableRecord
100
AcDbBlockTableRecord
  2
*D3
340
0
  0
BLOCK_RECORD
  5
25
100
AcDbSymbolTableRecord
100
AcDbBlockTableRecord
  2
*D4
340
0
  0
BLOCK_RECORD
  5
26
100
AcDbSymbolTableRecord
100
AcDbBlockTableRecord
  2
*D5
340
0
  0
BLOCK_RECORD
  5
27
100
AcDbSymbolTableRecord
100
AcDbBlockTableRecord
  2
*D6
340
0
  0
BLOCK_RECORD
  5
28
100
AcDbSymbolTableRecord
100
AcDbBlockTableRecord
  2
*D7
340
0
  0
BLOCK_RECORD
  5
29
100
AcDbSymbolTableRecord
100
AcDbBlockTableRecord
  2
*D8
340
0
  0
BLOCK_RECORD
  5
2A
100
AcDbSymbolTableRecord
100
AcDbBlockTableRecord
  2
*D9
340
0
  0
BLOCK_RECORD
  5
2B
100
AcDbSymbolTableRecord
100
AcDbBlockTableRecord
  2
*D10
340
0
  0
BLOCK_RECORD
  5
2C
100
AcDbSymbolTableRecord
100
AcDbBlockTableRecord
  2
*D11
340
0
  0
BLOCK_RECORD
  5
2D
100
AcDbSymbolTableRecord
100
AcDbBlockTableRecord
  2
*D12
340
0
  0
BLOCK_RECORD
  5
2E
100
AcDbSymbolTableRecord
100
AcDbBlockTableRecord
  2
*D13
340
0
  0
BLOCK_RECORD
  5
2F
100
AcDbSymbolTableRecord
100
AcDbBlockTableRecord
  2
*D14
340
0
  0
BLOCK_RECORD
  5
30
100
AcDbSymbolTableRecord
100
AcDbBlockTableRecord
  2
*D15
340
0
  0
BLOCK_RECORD
  5
31
100
AcDbSymbolTableRecord
100
AcDbBlockTableRecord
  2
*D16
340
0
  0
BLOCK_RECORD
  5
32
100
AcDbSymbolTableRecord
100
AcDbBlockTableRecord
  2
*D17
340
0
  0
BLOCK_RECORD
  5
33
100
AcDbSymbolTableRecord
100
AcDbBlockTableRecord
  2
*D18
340
0
  0
BLOCK_RECORD
  5
34
100
AcDbSymbolTableRecord
100
AcDbBlockTableRecord
  2
*D19
340
0
  0
BLOCK_RECORD
  5
35
100
AcDbSymbolTableRecord
100
AcDbBlockTableRecord
  2
*D20
340
0
  0
BLOCK_RECORD
  5
36
100
AcDbSymbolTableRecord
100
AcDbBlockTableRecord
  2
*D21
340
0
  0
BLOCK_RECORD
  5
37
100
AcDbSymbolTableRecord
100
AcDbBlockTableRecord
  2
*D22
340
0
  0
BLOCK_RECORD
  5
38
100
AcDbSymbolTableRecord
100
AcDbBlockTableRecord
  2
*D23
340
0
  0
BLOCK_RECORD
  5
39
100
AcDbSymbolTableRecord
100
AcDbBlockTableRecord
  2
*D24
340
0
  0
BLOCK_RECORD
  5
3A
100
AcDbSymbolTableRecord
100
AcDbBlockTableRecord
  2
*D25
340
0
  0
BLOCK_RECORD
  5
3B
100
AcDbSymbolTableRecord
100
AcDbBlockTableRecord
  2
*D26
340
0
  0
BLOCK_RECORD
  5
3C
100
AcDbSymbolTableRecord
100
AcDbBlockTableRecord
  2
*D27
340
0
  0
BLOCK_RECORD
  5
3D
100
AcDbSymbolTableRecord
100
AcDbBlockTableRecord
  2
*D28
340
0
  0
ENDTAB
  0
ENDSEC
  0
SECTION
  2
BLOCKS
  0
BLOCK
  5
D
100
AcDbEntity
  8
0
390
0
100
AcDbBlockBegin
  2
*MODEL_SPACE
 70
               0
 10
0.0
 20
0.0
 30
0.0
  3
*MODEL_SPACE
  1

  0
ENDBLK
  5
E
100
AcDbEntity
  8
0
390
0
100
AcDbBlockEnd
  0
BLOCK
  5
F
100
AcDbEntity
 67
               1
  8
0
390
0
100
AcDbBlockBegin
  2
*PAPER_SPACE
 70
               0
 10
0.0
 20
0.0
 30
0.0
  3
*PAPER_SPACE
  1

  0
ENDBLK
  5
10
100
AcDbEntity
 67
               1
  8
0
390
0
100
AcDbBlockEnd
  0
BLOCK
  5
5D
100
AcDbEntity
  8
0
390
0
100
AcDbBlockBegin
  2
_DOT
 70
               0
 10
0.0
 20
0.0
 30
0.0
  3
_DOT
  1

  0
POLYLINE
  5
5E
100
AcDbEntity
  8
0
370
              -2
390
0
  6
ByBlock
 62
               0
100
AcDb2dPolyline
 66
               1
 10
0.0
 20
0.0
 30
0.0
 70
               1
 40
0.5
 41
0.5
  0
VERTEX
  5
5F
100
AcDbEntity
  8
0
370
              -2
390
0
  6
ByBlock
 62
               0
100
AcDbVertex
100
AcDb2dVertex
 10
-0.25
 20
0.0
 30
0.0
 42
1.0
  0
VERTEX
  5
60
100
AcDbEntity
  8
0
370
              -2
390
0
  6
ByBlock
 62
               0
100
AcDbVertex
100
AcDb2dVertex
 10
0.25
 20
0.0
 30
0.0
 42
1.0
  0
SEQEND
  5
61
100
AcDbEntity
  8
0
390
0
  0
LINE
  5
62
100
AcDbEntity
  8
0
370
              -2
390
0
  6
ByBlock
 62
               0
100
AcDbLine
 10
-0.5
 20
0.0
 30
0.0
 11
-1.0
 21
0.0
 31
0.0
  0
ENDBLK
  5
63
100
AcDbEntity
  8
0
390
0
100
AcDbBlockEnd
  0
BLOCK
  5
66
100
AcDbEntity
  8
0
370
              -2
390
0
  6
ByBlock
 62
               0
100
AcDbBlockBegin
  2
VW_FILLEDARROW
 70
               0
 10
0.0
 20
0.0
 30
0.0
  3
VW_FILLEDARROW
  1

  0
SOLID
  5
67
100
AcDbEntity
  8
0
370
              -2
390
0
 62
               0
100
AcDbTrace
 10
0.0
 20
0.0
 30
0.0
 11
-0.9921874999999999
 21
-0.2658558393652545
 31
0.0
 12
-0.9921874999999999
 22
0.2658558393652548
 32
0.0
 13
-0.9921874999999999
 23
0.2658558393652548
 33
0.0
  0
ENDBLK
  5
68
100
AcDbEntity
  8
0
390
0
100
AcDbBlockEnd
  0
BLOCK
  5
6A
100
AcDbEntity
  8
template
390
0
100
AcDbBlockBegin
  2
グループ
 70
               0
 10
0.0
 20
0.0
 30
0.0
  3
グループ
  1

  0
LWPOLYLINE
  5
6B
100
AcDbEntity
  8
0
370
              15
390
0
  6
Continuous
 62
               7
100
AcDbPolyline
 90
        8
 70
             129
 10
887.42850780307481
 20
-1087.9864887908004
 10
887.42850780307481
 20
-1093.9838774843763
 10
877.92731088507151
 20
-1093.9838774843763
 10
877.92731088507151
 20
-1118.4348407478851
 10
869.57193362328871
 20
-1118.4348407478851
 10
869.57193362328871
 20
-1093.9838774843763
 10
860.23897667697929
 20
-1093.9838774843763
 10
860.23897667697929
 20
-1087.9864887908004
  0
LWPOLYLINE
  5
6C
100
AcDbEntity
  8
0
370
              15
390
0
  6
Continuous
 62
               7
100
AcDbPolyline
 90
      101
 70
             128
 10
900.15679963363175
 20
-1088.7147372837369
 10
900.17214966241681
 20
-1088.7103765270517
 42
-0.0222221607812283
 10
900.46215423908779
 20
-1088.6417520618072
 10
900.47794800308122
 20
-1088.6387486387102
 42
-0.0146883565586854
 10
900.74065070830557
 20
-1088.5967454517609
 42
-0.0127458844187406
 10
901.00528967545358
 20
-1088.5692084836887
 10
901.06774475377142
 20
-1088.5643150611002
 42
-0.0198099018566901
 10
901.45859386324832
 20
-1088.5492299037037
 10
901.51040533269202
 20
-1088.5492836793687
 42
-0.0147617382765114
 10
902.00502879366343
 20
-1088.5644037046134
 10
902.07772024853898
 20
-1088.5687763115011
 42
-0.0162624549004703
 10
902.46787387800578
 20
-1088.6050091867735
 10
902.58940626926312
 20
-1088.6202957457697
 42
-0.0080020874662754
 10
902.73498530035658
 20
-1088.6409785930384
 10
902.77330477094858
 20
-1088.6470498708491
 42
-0.005382192967833
 10
902.84178887626638
 20
-1088.6586573946711
 10
902.11538317706777
 20
-1090.839585850385
 42
0.0108667757405689
 10
902.04806610693811
 20
-1090.8263987351654
 10
902.01059808374748
 20
-1090.8199009925706
 42
0.0170663203307829
 10
901.8673812968301
 20
-1090.8000713952786
 10
901.79950596414892
 20
-1090.7930242246914
 42
0.0220162375274052
 10
901.51912655629496
 20
-1090.7763418639213
 10
901.44127098924173
 20
-1090.7751424966548
 42
0.0282606915783738
 10
901.10563466566362
 20
-1090.7889457736237
 10
901.06172139189118
 20
-1090.7932457636275
 42
0.0169677213690595
 10
900.8157968969324
 20
-1090.8257828131796
 42
0.0190576269865484
 10
900.57288893435555
 20
-1090.875929685285
 10
900.56662974624146
 20
-1090.8774726593952
 42
0.0213685642844021
 10
900.3162452617612
 20
-1090.9506729445006
 10
900.3107553668475
 20
-1090.9525359405588
 42
0.0237595297591213
 10
900.05726048194606
 20
-1091.0522204624556
 10
900.05215840791914
 20
-1091.0545122379326
 42
0.0261857468810989
 10
899.79998763168908
 20
-1091.1840485753071
 10
899.78956144260292
 20
-1091.190114049775
 42
0.0272553062019101
 10
899.55313166736369
 20
-1091.3454862557201
 10
899.51836865385337
 20
-1091.371147403813
 42
0.032599689317751
 10
899.36821331020269
 20
-1091.4978952767835
 10
899.34450388107427
 20
-1091.5207133053016
 42
0.0138050960639914
 10
899.25262072486953
 20
-1091.6141629668482
 42
0.0125280103805281
 10
899.16577819203565
 20
-1091.7123262934485
 10
899.14209774712765
 20
-1091.7404847916355
 42
0.0205218024729119
 10
899.01699767161574
 20
-1091.902278105862
 10
898.99453133112684
 20
-1091.9339378356915
 42
0.0163110129581913
 10
898.83882095187528
 20
-1092.1692682707617
 10
898.83609705582455
 20
-1092.1736920327469
 42
0.0131897341896935
 10
898.68929653491978
 20
-1092.4268241251091
 10
898.68759643955218
 20
-1092.4299423642469
 42
0.0107895576059858
 10
898.54981973734516
 20
-1092.6961575738746
 10
898.5490868478164
 20
-1092.6976518065287
 42
0.0091371507219095
 10
898.42060689916514
 20
-1092.9721770042922
 10
898.3908612677576
 20
-1093.0388835114472
 42
0.0135418326351206
 10
898.21914732868856
 20
-1093.4538212967093
 10
898.1855425202524
 20
-1093.5416874389955
 42
0.0092834542409608
 10
898.01431346033087
 20
-1094.0155859373026
 10
897.98869633261734
 20
-1094.0908270070838
 42
0.0054261043577207
 10
897.88105818432018
 20
-1094.4185909801608
 10
897.86353219811349
 20
-1094.4739791424836
 42
0.0008225090822076
 10
897.79486214631277
 20
-1094.6922479005402
 10
896.8101730143793
 20
-1097.7171391937968
 10
900.04279685445317
 20
-1097.7171391937968
 10
899.53860442459973
 20
-1099.6216174921492
 10
896.28254814261641
 20
-1099.6216174921492
 10
890.45339911026258
 20
-1118.4348405581541
 10
888.62830149995227
 20
-1118.4348405581541
 10
894.4629795354532
 20
-1099.6216174921492
 10
892.05786316641286
 20
-1099.6216174921492
 10
892.5620555962663
 20
-1097.7171391937968
 10
894.99060440721632
 20
-1097.7171391937968
 10
895.85075932540497
 20
-1095.0807261930979
 42
-0.0005863560650262
 10
895.88749400353095
 20
-1094.9638997730519
 10
895.96358183726886
 20
-1094.7229074734207
 42
-0.0087522378925693
 10
896.16304998072576
 20
-1094.1276313862741
 10
896.25531425613713
 20
-1093.8674912177669
 42
-0.0077400953830536
 10
896.51324791527031
 20
-1093.1744865402129
 10
896.52901288684689
 20
-1093.1340556568327
 42
-0.0082369946330518
 10
896.77609735746114
 20
-1092.5299765906311
 42
-0.0085725238363833
 10
897.0433434534657
 20
-1091.9345505513406
 10
897.14497305447333
 20
-1091.718129449355
 42
-0.0168109410595879
 10
897.43191748320146
 20
-1091.1569219232547
 10
897.55776087367406
 20
-1090.9299578902326
 42
-0.0007817726859269
 10
897.61204522371713
 20
-1090.8324136452261
 10
897.61217352973449
 20
-1090.8321839364896
 42
-0.0036626142157143
 10
897.6670613937556
 20
-1090.7355860565212
 42
-0.0080221150679748
 10
897.72418564916165
 20
-1090.6403068217696
 10
897.75488560052349
 20
-1090.5909158726463
 42
-0.020213932556849
 10
897.88254134033025
 20
-1090.4029342719648
 10
897.93660880551784
 20
-1090.3298554077239
 42
-0.0249323791798447
 10
898.1957715992371
 20
-1090.0138101655693
 10
898.219911413364
 20
-1089.9871958926569
 42
-0.0242132121533685
 10
898.55959215490736
 20
-1089.6473124064516
 10
898.60750372765756
 20
-1089.6038032702661
 42
-0.025101752785879
 10
898.8914854282973
 20
-1089.3708105245023
 10
898.8929309051116
 20
-1089.369741266923
 42
-0.0130868069040762
 10
899.19119155506837
 20
-1089.1609607983808
 10
899.19275337420993
 20
-1089.1599273581064
 42
-0.0290329526391372
 10
899.50386451560439
 20
-1088.9791018564765
 10
899.53371007759586
 20
-1088.9639994736342
 42
-0.0160250190043653
 10
899.79961449135521
 20
-1088.8399833634235
 42
-0.0267600374781006
 10
900.07489056882639
 20
-1088.7392350428743
 10
900.10162648834478
 20
-1088.7310424840493
 42
-0.0049981587670151
 10
900.15679963363175
 20
-1088.7147372837369
 42
-0.0049981587670151
  0
LWPOLYLINE
  5
6D
100
AcDbEntity
  8
0
370
              15
390
0
  6
Continuous
 62
               7
100
AcDbPolyline
 90
      118
 70
             128
 10
919.97116719807866
 20
-1097.7911225216242
 10
921.84628912257813
 20
-1097.7911225216242
 10
921.00825021697824
 20
-1100.4726890480242
 42
-0.0010587229211422
 10
921.03970603257619
 20
-1100.4357845146383
 10
921.09790012318217
 20
-1100.3678022584932
 42
-0.0071874740407281
 10
921.24827534128485
 20
-1100.197161566459
 10
921.38999811454244
 20
-1100.0409254251508
 42
-0.0148118053512363
 10
921.84012740725746
 20
-1099.5733115791356
 10
921.92734974215796
 20
-1099.4879142582834
 42
-0.0086273358692412
 10
922.26289854316542
 20
-1099.1705386242679
 10
922.30673225939188
 20
-1099.1304889799344
 42
-0.0103138323110657
 10
922.56475596162477
 20
-1098.9043258425966
 10
922.61053036794067
 20
-1098.8658437953457
 42
-0.0060206748566775
 10
922.78337843206407
 20
-1098.7240491445818
 10
922.78540956294921
 20
-1098.7224234389512
 42
-0.0067069027288388
 10
922.95770237761258
 20
-1098.5882728051556
 10
922.96025114353938
 20
-1098.5863426352796
 42
-0.0076184352042701
 10
923.13115640940987
 20
-1098.4609677600365
 42
-0.0089652861674684
 10
923.30611737214042
 20
-1098.3413344997068
 10
923.34246909229182
 20
-1098.3174232862195
 42
-0.0156916245935726
 10
923.5384285894495
 20
-1098.1971607997466
 42
-0.002329901106332
 10
923.7386906333893
 20
-1098.0839828602282
 10
923.75407476580915
 20
-1098.0753828651411
 42
-0.0107669341484053
 10
923.98831159090878
 20
-1097.9509827317925
 10
924.0105763919853
 20
-1097.9397659818417
 42
-0.0078058045895926
 10
924.29416650993699
 20
-1097.8024045262036
 10
924.30407359764718
 20
-1097.7977953983348
 42
-0.0181829330473932
 10
924.61438300225871
 20
-1097.6669316572406
 10
924.66843844483174
 20
-1097.6464165372947
 42
-0.0208411536025736
 10
925.01752341227984
 20
-1097.5303260748024
 10
925.03187951240682
 20
-1097.5262076298491
 42
-0.0222799817135775
 10
925.3605993063245
 20
-1097.4475660637086
 10
925.36948826956063
 20
-1097.4458540531236
 42
-0.0215509523883926
 10
925.68595923784142
 20
-1097.3989383645894
 10
925.72844119889146
 20
-1097.3945008377984
 42
-0.018254592487324
 10
925.96254997819551
 20
-1097.3786570124075
 10
926.00195099454572
 20
-1097.3774324673282
 42
-0.0072962856529092
 10
926.15787387423256
 20
-1097.3748631388062
 10
926.18697354479764
 20
-1097.3748083034025
 42
-0.0059227516312688
 10
926.2847230439495
 20
-1097.3757820151927
 10
926.31396526140736
 20
-1097.3764197817957
 42
-0.0011833111893351
 10
926.35321654515383
 20
-1097.3773687861062
 10
925.55782994954666
 20
-1099.9161027312052
 42
0.0143932051524636
 10
925.53142856719489
 20
-1099.9059037611594
 10
925.52415659477879
 20
-1099.9033325423025
 42
0.0234388603494022
 10
925.48232572884672
 20
-1099.8907133065873
 10
925.47364406593397
 20
-1099.8885323445822
 42
0.0199162742988474
 10
925.41335523185239
 20
-1099.8759156092469
 10
925.39254129404776
 20
-1099.8724184098187
 42
0.0293643550669223
 10
925.28946643528752
 20
-1099.8612683641654
 10
925.26478125456833
 20
-1099.8600567471469
 42
0.0214606686869791
 10
925.11164033861701
 20
-1099.8591181867296
 10
925.10226842779787
 20
-1099.8594630982739
 42
0.0167564054187993
 10
924.93074823669042
 20
-1099.8715401406419
 10
924.92228844393048
 20
-1099.8724214810691
 42
0.0137677553246399
 10
924.73493513066614
 20
-1099.8971707896123
 10
924.72758339115785
 20
-1099.8983487095804
 42
0.0118497261481205
 10
924.52708562705527
 20
-1099.9353660597696
 10
924.52093561980928
 20
-1099.9366529224897
 42
0.0106421143891936
 10
924.31005473252526
 20
-1099.9854852980643
 10
924.30514592413522
 20
-1099.9867326407496
 42
0.0099746379706426
 10
924.08668745497073
 20
-1100.046907169065
 10
924.02513941480242
 20
-1100.065189047695
 42
0.0191613675860962
 10
923.68915495228782
 20
-1100.1791664279817
 10
923.60109517953936
 20
-1100.212853338307
 42
0.0205274080147135
 10
923.21578840764073
 20
-1100.3786817461325
 10
923.15813912565523
 20
-1100.4063497107065
 42
0.0181256912193595
 10
922.89986218499178
 20
-1100.5420335296826
 10
922.84690680167512
 20
-1100.5723511428989
 42
0.0140709242412418
 10
922.7019518670495
 20
-1100.6608458163319
 10
922.6757029984326
 20
-1100.6779026350464
 42
0.0086667884399223
 10
922.58677683688848
 20
-1100.7379053029301
 42
0.003640819201488
 10
922.4993435988797
 20
-1100.8000861607047
 10
922.46411672438649
 20
-1100.8255271066353
 42
0.0052260781283436
 10
922.30788802698567
 20
-1100.9408594932768
 10
922.29168117073573
 20
-1100.9530876038875
 42
0.0050024435892504
 10
922.1056778276743
 20
-1101.0963701721519
 10
922.09035967116176
 20
-1101.1084161945955
 42
0.0136138710277092
 10
921.87991840283541
 20
-1101.28338269951
 10
921.84625052704291
 20
-1101.3129616722231
 42
0.0172815186909998
 10
921.58184698538162
 20
-1101.5619583448452
 10
921.57928463953772
 20
-1101.5645441619936
 42
0.0189403857991616
 10
921.32870284095702
 20
-1101.8373494267998
 10
921.29607134742253
 20
-1101.8756933582954
 42
0.0185044199506342
 10
921.10411490844263
 20
-1102.1189419394182
 42
0.0088565243901835
 10
920.92565480181418
 20
-1102.3724583595681
 10
920.91647682216569
 20
-1102.3859997393281
 42
0.0157195347233255
 10
920.73325621582558
 20
-1102.675521948654
 10
920.68717327389959
 20
-1102.7536741456665
 42
0.009545187978228
 10
920.52208772376309
 20
-1103.0462687880213
 10
920.51093980483051
 20
-1103.0669394601587
 42
0.0100351706259463
 10
920.3788960556742
 20
-1103.3239950206439
 42
0.0086935915427105
 10
920.25656490388042
 20
-1103.5858281660478
 10
920.25324416246565
 20
-1103.5932704890201
 42
0.0072580174868562
 10
920.13289771051973
 20
-1103.8738624806056
 10
920.1296360772144
 20
-1103.8817825066212
 42
0.0060005122612748
 10
920.01043540887395
 20
-1104.1813921772202
 10
920.00722443053007
 20
-1104.1897537051309
 42
0.0049017786976095
 10
919.88832427167415
 20
-1104.5086826857312
 10
919.88515846528219
 20
-1104.5174356229659
 42
0.0039415167601332
 10
919.76572218722583
 20
-1104.8559776853781
 10
919.76259108457339
 20
-1104.8650808862551
 42
0.003103583876369
 10
919.64178629887749
 20
-1105.2235207480369
 10
919.63867625434989
 20
-1105.2329413694033
 42
0.0025070747152459
 10
919.51577490304032
 20
-1105.6115885863294
 10
919.47848100660917
 20
-1105.7284802516003
 42
0.0029081910285026
 10
919.28646270879403
 20
-1106.3426439099057
 10
919.24565954028128
 20
-1106.4758671521679
 42
0.000926645373586
 10
918.97724216595384
 20
-1107.3580916121334
 10
918.95635469337412
 20
-1107.4272034911678
 42
-0.0005809993666905
 10
918.67901801273479
 20
-1108.3410115979664
 10
918.61273621446674
 20
-1108.5584965301098
 42
-0.001201870816555
 10
918.46575190503268
 20
-1109.0366591946467
 10
918.41343205345527
 20
-1109.2054183355503
 42
-0.0002691059615676
 10
918.36986257229853
 20
-1109.3456859558544
 10
915.53690667400929
 20
-1118.4348405581541
 10
913.71891778203076
 20
-1118.4348405581541
 10
919.97116719807866
 20
-1097.7911225216242
  0
SPLINE
  5
6E
100
AcDbEntity
  8
0
370
              15
390
0
  6
Continuous
 62
               7
100
AcDbSpline
210
0.0
220
0.0
230
1.0
 70
              13
 71
               2
 72
             782
 73
             779
 74
               0
 42
0.000001
 43
0.000001
 40
0.0
 40
0.0
 40
0.0
 40
1.0
 40
1.0
 40
2.0
 40
2.0
 40
3.0
 40
3.0
 40
4.0
 40
4.0
 40
5.0
 40
5.0
 40
6.0
 40
6.0
 40
7.0
 40
7.0
 40
8.0
 40
8.0
 40
9.0
 40
9.0
 40
10.0
 40
10.0
 40
11.0
 40
11.0
 40
12.0
 40
12.0
 40
13.0
 40
13.0
 40
14.0
 40
14.0
 40
15.0
 40
15.0
 40
16.0
 40
16.0
 40
17.0
 40
17.0
 40
18.0
 40
18.0
 40
19.0
 40
19.0
 40
20.0
 40
20.0
 40
21.0
 40
21.0
 40
22.0
 40
22.0
 40
23.0
 40
23.0
 40
24.0
 40
24.0
 40
25.0
 40
25.0
 40
26.0
 40
26.0
 40
27.0
 40
27.0
 40
28.0
 40
28.0
 40
29.0
 40
29.0
 40
30.0
 40
30.0
 40
31.0
 40
31.0
 40
32.0
 40
32.0
 40
33.0
 40
33.0
 40
34.0
 40
34.0
 40
35.0
 40
35.0
 40
36.0
 40
36.0
 40
37.0
 40
37.0
 40
38.0
 40
38.0
 40
39.0
 40
39.0
 40
40.0
 40
40.0
 40
41.0
 40
41.0
 40
42.0
 40
42.0
 40
43.0
 40
43.0
 40
44.0
 40
44.0
 40
45.0
 40
45.0
 40
46.0
 40
46.0
 40
47.0
 40
47.0
 40
48.0
 40
48.0
 40
49.0
 40
49.0
 40
50.0
 40
50.0
 40
51.0
 40
51.0
 40
52.0
 40
52.0
 40
53.0
 40
53.0
 40
54.0
 40
54.0
 40
55.0
 40
55.0
 40
56.0
 40
56.0
 40
57.0
 40
57.0
 40
58.0
 40
58.0
 40
59.0
 40
59.0
 40
60.0
 40
60.0
 40
61.0
 40
61.0
 40
62.0
 40
62.0
 40
63.0
 40
63.0
 40
64.0
 40
64.0
 40
65.0
 40
65.0
 40
66.0
 40
66.0
 40
67.0
 40
67.0
 40
68.0
 40
68.0
 40
69.0
 40
69.0
 40
70.0
 40
70.0
 40
71.0
 40
71.0
 40
72.0
 40
72.0
 40
73.0
 40
73.0
 40
74.0
 40
74.0
 40
75.0
 40
75.0
 40
76.0
 40
76.0
 40
77.0
 40
77.0
 40
78.0
 40
78.0
 40
79.0
 40
79.0
 40
80.0
 40
80.0
 40
81.0
 40
81.0
 40
82.0
 40
82.0
 40
83.0
 40
83.0
 40
84.0
 40
84.0
 40
85.0
 40
85.0
 40
86.0
 40
86.0
 40
87.0
 40
87.0
 40
88.0
 40
88.0
 40
89.0
 40
89.0
 40
90.0
 40
90.0
 40
91.0
 40
91.0
 40
92.0
 40
92.0
 40
93.0
 40
93.0
 40
94.0
 40
94.0
 40
95.0
 40
95.0
 40
96.0
 40
96.0
 40
97.0
 40
97.0
 40
98.0
 40
98.0
 40
99.0
 40
99.0
 40
100.0
 40
100.0
 40
101.0
 40
101.0
 40
102.0
 40
102.0
 40
103.0
 40
103.0
 40
104.0
 40
104.0
 40
105.0
 40
105.0
 40
106.0
 40
106.0
 40
107.0
 40
107.0
 40
108.0
 40
108.0
 40
109.0
 40
109.0
 40
110.0
 40
110.0
 40
111.0
 40
111.0
 40
112.0
 40
112.0
 40
113.0
 40
113.0
 40
114.0
 40
114.0
 40
115.0
 40
115.0
 40
116.0
 40
116.0
 40
117.0
 40
117.0
 40
118.0
 40
118.0
 40
119.0
 40
119.0
 40
120.0
 40
120.0
 40
121.0
 40
121.0
 40
122.0
 40
122.0
 40
123.0
 40
123.0
 40
124.0
 40
124.0
 40
125.0
 40
125.0
 40
126.0
 40
126.0
 40
127.0
 40
127.0
 40
128.0
 40
128.0
 40
129.0
 40
129.0
 40
130.0
 40
130.0
 40
131.0
 40
131.0
 40
132.0
 40
132.0
 40
133.0
 40
133.0
 40
134.0
 40
134.0
 40
135.0
 40
135.0
 40
136.0
 40
136.0
 40
137.0
 40
137.0
 40
138.0
 40
138.0
 40
139.0
 40
139.0
 40
140.0
 40
140.0
 40
141.0
 40
141.0
 40
142.0
 40
142.0
 40
143.0
 40
143.0
 40
144.0
 40
144.0
 40
145.0
 40
145.0
 40
146.0
 40
146.0
 40
147.0
 40
147.0
 40
148.0
 40
148.0
 40
149.0
 40
149.0
 40
150.0
 40
150.0
 40
151.0
 40
151.0
 40
152.0
 40
152.0
 40
153.0
 40
153.0
 40
154.0
 40
154.0
 40
155.0
 40
155.0
 40
156.0
 40
156.0
 40
157.0
 40
157.0
 40
158.0
 40
158.0
 40
159.0
 40
159.0
 40
160.0
 40
160.0
 40
161.0
 40
161.0
 40
162.0
 40
162.0
 40
163.0
 40
163.0
 40
164.0
 40
164.0
 40
165.0
 40
165.0
 40
166.0
 40
166.0
 40
167.0
 40
167.0
 40
168.0
 40
168.0
 40
169.0
 40
169.0
 40
170.0
 40
170.0
 40
171.0
 40
171.0
 40
172.0
 40
172.0
 40
173.0
 40
173.0
 40
174.0
 40
174.0
 40
175.0
 40
175.0
 40
176.0
 40
176.0
 40
177.0
 40
177.0
 40
178.0
 40
178.0
 40
179.0
 40
179.0
 40
180.0
 40
180.0
 40
181.0
 40
181.0
 40
182.0
 40
182.0
 40
183.0
 40
183.0
 40
184.0
 40
184.0
 40
185.0
 40
185.0
 40
186.0
 40
186.0
 40
187.0
 40
187.0
 40
188.0
 40
188.0
 40
189.0
 40
189.0
 40
190.0
 40
190.0
 40
191.0
 40
191.0
 40
192.0
 40
192.0
 40
193.0
 40
193.0
 40
194.0
 40
194.0
 40
195.0
 40
195.0
 40
196.0
 40
196.0
 40
197.0
 40
197.0
 40
198.0
 40
198.0
 40
199.0
 40
199.0
 40
200.0
 40
200.0
 40
201.0
 40
201.0
 40
202.0
 40
202.0
 40
203.0
 40
203.0
 40
204.0
 40
204.0
 40
205.0
 40
205.0
 40
206.0
 40
206.0
 40
207.0
 40
207.0
 40
208.0
 40
208.0
 40
209.0
 40
209.0
 40
210.0
 40
210.0
 40
211.0
 40
211.0
 40
212.0
 40
212.0
 40
213.0
 40
213.0
 40
214.0
 40
214.0
 40
215.0
 40
215.0
 40
216.0
 40
216.0
 40
217.0
 40
217.0
 40
218.0
 40
218.0
 40
219.0
 40
219.0
 40
220.0
 40
220.0
 40
221.0
 40
221.0
 40
222.0
 40
222.0
 40
223.0
 40
223.0
 40
224.0
 40
224.0
 40
225.0
 40
225.0
 40
226.0
 40
226.0
 40
227.0
 40
227.0
 40
228.0
 40
228.0
 40
229.0
 40
229.0
 40
230.0
 40
230.0
 40
231.0
 40
231.0
 40
232.0
 40
232.0
 40
233.0
 40
233.0
 40
234.0
 40
234.0
 40
235.0
 40
235.0
 40
236.0
 40
236.0
 40
237.0
 40
237.0
 40
238.0
 40
238.0
 40
239.0
 40
239.0
 40
240.0
 40
240.0
 40
241.0
 40
241.0
 40
242.0
 40
242.0
 40
243.0
 40
243.0
 40
244.0
 40
244.0
 40
245.0
 40
245.0
 40
246.0
 40
246.0
 40
247.0
 40
247.0
 40
248.0
 40
248.0
 40
249.0
 40
249.0
 40
250.0
 40
250.0
 40
251.0
 40
251.0
 40
252.0
 40
252.0
 40
253.0
 40
253.0
 40
254.0
 40
254.0
 40
255.0
 40
255.0
 40
256.0
 40
256.0
 40
257.0
 40
257.0
 40
258.0
 40
258.0
 40
259.0
 40
259.0
 40
260.0
 40
260.0
 40
261.0
 40
261.0
 40
262.0
 40
262.0
 40
263.0
 40
263.0
 40
264.0
 40
264.0
 40
265.0
 40
265.0
 40
266.0
 40
266.0
 40
267.0
 40
267.0
 40
268.0
 40
268.0
 40
269.0
 40
269.0
 40
270.0
 40
270.0
 40
271.0
 40
271.0
 40
272.0
 40
272.0
 40
273.0
 40
273.0
 40
274.0
 40
274.0
 40
275.0
 40
275.0
 40
276.0
 40
276.0
 40
277.0
 40
277.0
 40
278.0
 40
278.0
 40
279.0
 40
279.0
 40
280.0
 40
280.0
 40
281.0
 40
281.0
 40
282.0
 40
282.0
 40
283.0
 40
283.0
 40
284.0
 40
284.0
 40
285.0
 40
285.0
 40
286.0
 40
286.0
 40
287.0
 40
287.0
 40
288.0
 40
288.0
 40
289.0
 40
289.0
 40
290.0
 40
290.0
 40
291.0
 40
291.0
 40
292.0
 40
292.0
 40
293.0
 40
293.0
 40
294.0
 40
294.0
 40
295.0
 40
295.0
 40
296.0
 40
296.0
 40
297.0
 40
297.0
 40
298.0
 40
298.0
 40
299.0
 40
299.0
 40
300.0
 40
300.0
 40
301.0
 40
301.0
 40
302.0
 40
302.0
 40
303.0
 40
303.0
 40
304.0
 40
304.0
 40
305.0
 40
305.0
 40
306.0
 40
306.0
 40
307.0
 40
307.0
 40
308.0
 40
308.0
 40
309.0
 40
309.0
 40
310.0
 40
310.0
 40
311.0
 40
311.0
 40
312.0
 40
312.0
 40
313.0
 40
313.0
 40
314.0
 40
314.0
 40
315.0
 40
315.0
 40
316.0
 40
316.0
 40
317.0
 40
317.0
 40
318.0
 40
318.0
 40
319.0
 40
319.0
 40
320.0
 40
320.0
 40
321.0
 40
321.0
 40
322.0
 40
322.0
 40
323.0
 40
323.0
 40
324.0
 40
324.0
 40
325.0
 40
325.0
 40
326.0
 40
326.0
 40
327.0
 40
327.0
 40
328.0
 40
328.0
 40
329.0
 40
329.0
 40
330.0
 40
330.0
 40
331.0
 40
331.0
 40
332.0
 40
332.0
 40
333.0
 40
333.0
 40
334.0
 40
334.0
 40
335.0
 40
335.0
 40
336.0
 40
336.0
 40
337.0
 40
337.0
 40
338.0
 40
338.0
 40
339.0
 40
339.0
 40
340.0
 40
340.0
 40
341.0
 40
341.0
 40
342.0
 40
342.0
 40
343.0
 40
343.0
 40
344.0
 40
344.0
 40
345.0
 40
345.0
 40
346.0
 40
346.0
 40
347.0
 40
347.0
 40
348.0
 40
348.0
 40
349.0
 40
349.0
 40
350.0
 40
350.0
 40
351.0
 40
351.0
 40
352.0
 40
352.0
 40
353.0
 40
353.0
 40
354.0
 40
354.0
 40
355.0
 40
355.0
 40
356.0
 40
356.0
 40
357.0
 40
357.0
 40
358.0
 40
358.0
 40
359.0
 40
359.0
 40
360.0
 40
360.0
 40
361.0
 40
361.0
 40
362.0
 40
362.0
 40
363.0
 40
363.0
 40
364.0
 40
364.0
 40
365.0
 40
365.0
 40
366.0
 40
366.0
 40
367.0
 40
367.0
 40
368.0
 40
368.0
 40
369.0
 40
369.0
 40
370.0
 40
370.0
 40
371.0
 40
371.0
 40
372.0
 40
372.0
 40
373.0
 40
373.0
 40
374.0
 40
374.0
 40
375.0
 40
375.0
 40
376.0
 40
376.0
 40
377.0
 40
377.0
 40
378.0
 40
378.0
 40
379.0
 40
379.0
 40
380.0
 40
380.0
 40
381.0
 40
381.0
 40
382.0
 40
382.0
 40
383.0
 40
383.0
 40
384.0
 40
384.0
 40
385.0
 40
385.0
 40
386.0
 40
386.0
 40
387.0
 40
387.0
 40
388.0
 40
388.0
 40
389.0
 40
389.0
 40
389.0
 10
930.29987164881129
 20
-1097.7801961582618
 30
0.0
 41
1.0
 10
931.11829575753177
 20
-1097.7801961582618
 30
0.0
 41
1.0
 10
931.93671986625225
 20
-1097.7801961582618
 30
0.0
 41
1.0
 10
931.52296613073554
 20
-1099.1228224225115
 30
0.0
 41
1.0
 10
931.10921239521872
 20
-1100.4654486867612
 30
0.0
 41
1.0
 10
931.12755189036329
 20
-1100.4367479138855
 30
0.0
 41
0.9999957264449635
 10
931.14605888718995
 20
-1100.4081548637414
 30
0.0
 41
1.0
 10
931.17648821134094
 20
-1100.3611419853444
 30
0.0
 41
1.0
 10
931.20691753549204
 20
-1100.3141291069473
 30
0.0
 41
1.0
 10
931.2862831805985
 20
-1100.1915103000431
 30
0.0
 41
0.9995394069080581
 10
931.3729415721516
 20
-1100.0739322383001
 30
0.0
 41
1.0
 10
931.40869843440998
 20
-1100.0254173457085
 30
0.0
 41
1.0
 10
931.44445529666837
 20
-1099.976902453117
 30
0.0
 41
1.0
 10
931.57818196448693
 20
-1099.7954621779895
 30
0.0
 41
0.9994460617143366
 10
931.72368244577569
 20
-1099.623319780339
 30
0.0
 41
1.0
 10
931.72807062675201
 20
-1099.6181280999549
 30
0.0
 41
1.0
 10
931.73245880772845
 20
-1099.6129364195706
 30
0.0
 41
1.0
 10
931.86918292706423
 20
-1099.4511773826887
 30
0.0
 41
0.9994359394934378
 10
932.01645715741506
 20
-1099.2989611815246
 30
0.0
 41
1.0
 10
932.0188405113704
 20
-1099.2964978511495
 30
0.0
 41
1.0
 10
932.02122386532574
 20
-1099.2940345207742
 30
0.0
 41
1.0
 10
932.16373138776817
 20
-1099.1467449803583
 30
0.0
 41
0.9995293688567949
 10
932.31500306874864
 20
-1099.0084717681957
 30
0.0
 41
1.0
 10
932.33429682800966
 20
-1098.9908358825467
 30
0.0
 41
1.0
 10
932.35359058727079
 20
-1098.9731999968976
 30
0.0
 41
1.0
 10
932.46627474973047
 20
-1098.8701985560319
 30
0.0
 41
0.99970876148039
 10
932.58379763868584
 20
-1098.7727542752339
 30
0.0
 41
1.0
 10
932.6029637118711
 20
-1098.7568626967177
 30
0.0
 41
1.0
 10
932.62212978505647
 20
-1098.7409711182017
 30
0.0
 41
1.0
 10
932.70132052764779
 20
-1098.6753099944303
 30
0.0
 41
0.9999595338701152
 10
932.78167979849604
 20
-1098.6110842637809
 30
0.0
 41
1.0
 10
932.86203906936078
 20
-1098.5468585331187
 30
0.0
 41
0.9999749417497325
 10
932.94329960370794
 20
-1098.4837769791693
 30
0.0
 41
1.0
 10
932.96428574986498
 20
-1098.4674856918718
 30
0.0
 41
1.0
 10
932.98527189602214
 20
-1098.4511944045744
 30
0.0
 41
1.0
 10
933.06983978132359
 20
-1098.3855453947338
 30
0.0
 41
0.9999792037126249
 10
933.15524738109707
 20
-1098.3209926130871
 30
0.0
 41
1.0
 10
933.17607220707259
 20
-1098.3052527907807
 30
0.0
 41
1.0
 10
933.19689703304812
 20
-1098.2895129684746
 30
0.0
 41
1.0
 10
933.2406549809275
 20
-1098.2564398313973
 30
0.0
 41
0.9999993373911212
 10
933.28433666700971
 20
-1098.2232660360194
 30
0.0
 41
1.0
 10
933.32801835315365
 20
-1098.1900922405948
 30
0.0
 41
0.9999160953814502
 10
933.37254476407406
 20
-1098.1580611753959
 30
0.0
 41
1.0
 10
933.40536665149284
 20
-1098.1344500198115
 30
0.0
 41
1.0
 10
933.4381885389115
 20
-1098.1108388642274
 30
0.0
 41
1.0
 10
933.54835872467049
 20
-1098.031585487859
 30
0.0
 41
0.9980964527231465
 10
933.66744771817071
 20
-1097.9664980150035
 30
0.0
 41
1.0
 10
933.70448032510012
 20
-1097.9462580354098
 30
0.0
 41
1.0
 10
933.74151293202942
 20
-1097.9260180558158
 30
0.0
 41
1.0
 10
933.92083994530083
 20
-1097.8280078051155
 30
0.0
 41
0.9984572810572661
 10
934.10992851165884
 20
-1097.7504855437696
 30
0.0
 41
1.0
 10
934.11357478105367
 20
-1097.748990651432
 30
0.0
 41
1.0
 10
934.11722105044851
 20
-1097.7474957590946
 30
0.0
 41
1.0
 10
934.29901707801673
 20
-1097.6729632824236
 30
0.0
 41
0.9987838528033862
 10
934.48726973657699
 20
-1097.6166976422573
 30
0.0
 41
1.0
 10
934.4915076857742
 20
-1097.6154309885676
 30
0.0
 41
1.0
 10
934.49574563497151
 20
-1097.6141643348778
 30
0.0
 41
1.0
 10
934.67552239513429
 20
-1097.5604320020921
 30
0.0
 41
0.9990652816207043
 10
934.85926832685209
 20
-1097.5224283225496
 30
0.0
 41
1.0
 10
934.86445672788182
 20
-1097.5213552194434
 30
0.0
 41
1.0
 10
934.86964512891166
 20
-1097.5202821163373
 30
0.0
 41
1.0
 10
935.04301425856613
 20
-1097.4844246430077
 30
0.0
 41
0.9992909934270049
 10
935.21859002502629
 20
-1097.461714210541
 30
0.0
 41
1.0
 10
935.39416579148281
 20
-1097.4390037780745
 30
0.0
 41
0.9994553539448754
 10
935.57085722457441
 20
-1097.4279244738684
 30
0.0
 41
1.0
 10
935.60629163237218
 20
-1097.4257025858205
 30
0.0
 41
1.0
 10
935.64172604016983
 20
-1097.4234806977727
 30
0.0
 41
1.0
 10
935.80795180673897
 20
-1097.4130576353609
 30
0.0
 41
0.9990928098293184
 10
935.97446159864103
 20
-1097.4168172765953
 30
0.0
 41
1.0
 10
936.01302343391262
 20
-1097.4176879681283
 30
0.0
 41
1.0
 10
936.05158526918422
 20
-1097.4185586596614
 30
0.0
 41
1.0
 10
936.14097139054343
 20
-1097.42057691783
 30
0.0
 41
0.9998382089206199
 10
936.23022707332984
 20
-1097.4258090443582
 30
0.0
 41
1.0
 10
936.23065697954712
 20
-1097.4258342452604
 30
0.0
 41
1.0
 10
936.2310868857644
 20
-1097.4258594461623
 30
0.0
 41
1.0
 10
936.31948275611342
 20
-1097.4310411708859
 30
0.0
 41
0.9997558016758312
 10
936.40756333331683
 20
-1097.4401236862527
 30
0.0
 41
1.0
 10
936.40803947174527
 20
-1097.4401727837353
 30
0.0
 41
1.0
 10
936.40851561017359
 20
-1097.4402218812177
 30
0.0
 41
1.0
 10
936.49564391051661
 20
-1097.4492062016188
 30
0.0
 41
0.99965651441815
 10
936.58218176385981
 20
-1097.462743508308
 30
0.0
 41
1.0
 10
936.58264768923755
 20
-1097.4628163940392
 30
0.0
 41
1.0
 10
936.58311361461517
 20
-1097.4628892797707
 30
0.0
 41
1.0
 10
936.66871961720187
 20
-1097.4762808149972
 30
0.0
 41
0.9995321806867643
 10
936.75334669752976
 20
-1097.4948813034264
 30
0.0
 41
1.0
 10
936.75373589210108
 20
-1097.4949668458921
 30
0.0
 41
1.0
 10
936.7541250866725
 20
-1097.4950523883579
 30
0.0
 41
1.0
 10
936.83797377785731
 20
-1097.5134817918556
 30
0.0
 41
0.9993819199219232
 10
936.92032031205395
 20
-1097.5377571751164
 30
0.0
 41
1.0
 10
936.92055874555172
 20
-1097.5378274642258
 30
0.0
 41
1.0
 10
936.92079717904949
 20
-1097.5378977533351
 30
0.0
 41
1.0
 10
937.00266684624944
 20
-1097.5620325583766
 30
0.0
 41
0.9992088568504867
 10
937.0823593652384
 20
-1097.5925977941715
 30
0.0
 41
1.0
 10
937.16204035611736
 20
-1097.6231573949046
 30
0.0
 41
0.9990226101773279
 10
937.23871102602459
 20
-1097.6606348265191
 30
0.0
 41
1.0
 10
937.31537016782215
 20
-1097.6981066230721
 30
0.0
 41
0.9988424273972592
 10
937.38807379503442
 20
-1097.7427713983252
 30
0.0
 41
1.0
 10
937.38834150341404
 20
-1097.7429358623976
 30
0.0
 41
1.0
 10
937.38860921179366
 20
-1097.7431003264701
 30
0.0
 41
1.0
 10
937.46184825576483
 20
-1097.7880940298676
 30
0.0
 41
0.9986928844490697
 10
937.53011112247441
 20
-1097.8403297641471
 30
0.0
 41
1.0
 10
937.53069241469711
 20
-1097.840774577375
 30
0.0
 41
1.0
 10
937.53127370691982
 20
-1097.8412193906029
 30
0.0
 41
1.0
 10
937.6006991580748
 20
-1097.8943447513379
 30
0.0
 41
0.9986007262277985
 10
937.66412532784125
 20
-1097.9545055210313
 30
0.0
 41
1.0
 10
937.66501974329879
 20
-1097.9553538888667
 30
0.0
 41
1.0
 10
937.66591415875632
 20
-1097.956202256702
 30
0.0
 41
1.0
 10
937.73112915943818
 20
-1098.0180597620663
 30
0.0
 41
0.9985581491381195
 10
937.78933677113935
 20
-1098.0865522523375
 30
0.0
 41
1.0
 10
937.79859522473498
 20
-1098.0974466100392
 30
0.0
 41
1.0
 10
937.80785367833073
 20
-1098.1083409677408
 30
0.0
 41
1.0
 10
937.8845781972243
 20
-1098.1986221734162
 30
0.0
 41
0.9970460233520636
 10
937.9465700983842
 20
-1098.2995892575984
 30
0.0
 41
1.0
 10
937.96103946346375
 20
-1098.3231557166796
 30
0.0
 41
1.0
 10
937.9755088285433
 20
-1098.346722175761
 30
0.0
 41
1.0
 10
938.01524552855506
 20
-1098.4114418997922
 30
0.0
 41
0.9988468816637008
 10
938.0485918993063
 20
-1098.4796743522193
 30
0.0
 41
1.0
 10
938.05562792179842
 20
-1098.4940712733578
 30
0.0
 41
1.0
 10
938.06266394429053
 20
-1098.5084681944966
 30
0.0
 41
1.0
 10
938.08193827005812
 20
-1098.5479068046477
 30
0.0
 41
0.9998431189996929
 10
938.09980359755286
 20
-1098.5880033590877
 30
0.0
 41
1.0
 10
938.11766892506489
 20
-1098.628099913567
 30
0.0
 41
0.9999989989972418
 10
938.13564764850821
 20
-1098.6681457511982
 30
0.0
 41
1.0
 10
938.14181996008324
 20
-1098.6818939679679
 30
0.0
 41
1.0
 10
938.14799227165827
 20
-1098.6956421847376
 30
0.0
 41
1.0
 10
938.17831561826631
 20
-1098.7631844559405
 30
0.0
 41
0.999879035632118
 10
938.20652349840441
 20
-1098.8316372078784
 30
0.0
 41
1.0
 10
938.21335867969003
 20
-1098.848224309309
 30
0.0
 41
1.0
 10
938.22019386097566
 20
-1098.8648114107395
 30
0.0
 41
1.0
 10
938.24375152335676
 20
-1098.9219793656271
 30
0.0
 41
0.9998227574560588
 10
938.26514027174494
 20
-1098.9799936739014
 30
0.0
 41
1.0
 10
938.28652902013471
 20
-1099.0380079821805
 30
0.0
 41
0.9996797971041512
 10
938.30495530509313
 20
-1099.097030101296
 30
0.0
 41
1.0
 10
938.30885910781876
 20
-1099.1095345594654
 30
0.0
 41
1.0
 10
938.31276291054451
 20
-1099.122039017635
 30
0.0
 41
1.0
 10
938.33899680095487
 20
-1099.206070053091
 30
0.0
 41
0.9979274938734355
 10
938.35422132443409
 20
-1099.2927744117515
 30
0.0
 41
1.0
 10
938.35644501169509
 20
-1099.3054384125717
 30
0.0
 41
1.0
 10
938.35866869895608
 20
-1099.3181024133917
 30
0.0
 41
1.0
 10
938.36959863865457
 20
-1099.3803489206828
 30
0.0
 41
0.999498598213714
 10
938.37656680383157
 20
-1099.4431624218259
 30
0.0
 41
1.0
 10
938.38353496900834
 20
-1099.5059759229632
 30
0.0
 41
0.9996372611201243
 10
938.38711083477608
 20
-1099.5690735016456
 30
0.0
 41
1.0
 10
938.38727941226557
 20
-1099.57204811873
 30
0.0
 41
1.0
 10
938.38744798975495
 20
-1099.5750227358144
 30
0.0
 41
1.0
 10
938.39136101050133
 20
-1099.6440695486592
 30
0.0
 41
0.9997730630735293
 10
938.3923293239892
 20
-1099.7132203726858
 30
0.0
 41
1.0
 10
938.39238643040744
 20
-1099.7172985518321
 30
0.0
 41
1.0
 10
938.39244353682557
 20
-1099.7213767309784
 30
0.0
 41
1.0
 10
938.39352606314992
 20
-1099.7986839132936
 30
0.0
 41
0.9998772614069799
 10
938.3921859764182
 20
-1099.8759870598553
 30
0.0
 41
1.0
 10
938.39209671321942
 20
-1099.8811362236929
 30
0.0
 41
1.0
 10
938.39200745002063
 20
-1099.8862853875305
 30
0.0
 41
1.0
 10
938.39048883689168
 20
-1099.973886861759
 30
0.0
 41
0.9999415567327246
 10
938.3870765266455
 20
-1100.0614350234384
 30
0.0
 41
1.0
 10
938.3868352059701
 20
-1100.0676264831764
 30
0.0
 41
1.0
 10
938.38659388529481
 20
-1100.0738179429145
 30
0.0
 41
1.0
 10
938.38269893369886
 20
-1100.1737490240555
 30
0.0
 41
0.9999716810429059
 10
938.37730035057996
 20
-1100.2736101622888
 30
0.0
 41
1.0
 10
938.37408755179115
 20
-1100.3330394119471
 30
0.0
 41
1.0
 10
938.37087475300234
 20
-1100.3924686616053
 30
0.0
 41
1.0
 10
938.36280084384907
 20
-1100.5418170628964
 30
0.0
 41
0.9999819129914191
 10
938.35293105223286
 20
-1100.6910575406
 30
0.0
 41
1.0
 10
938.34306126061631
 20
-1100.8402980183114
 30
0.0
 41
1.0
 10
938.34062194005242
 20
-1100.8774910641607
 30
0.0
 41
1.0
 10
938.36332017385212
 20
-1100.8387500668837
 30
0.0
 41
0.9999982128158768
 10
938.38616473258503
 20
-1100.8000951729641
 30
0.0
 41
1.0
 10
938.41307429249673
 20
-1100.7545619588634
 30
0.0
 41
1.0
 10
938.43998385240855
 20
-1100.7090287447627
 30
0.0
 41
1.0
 10
938.51664753093371
 20
-1100.5793074226938
 30
0.0
 41
0.9998609190058981
 10
938.59759484379924
 20
-1100.4522150407588
 30
0.0
 41
1.0
 10
938.62724316527749
 20
-1100.4056653078071
 30
0.0
 41
1.0
 10
938.65689148675574
 20
-1100.3591155748554
 30
0.0
 41
1.0
 10
938.7391637069951
 20
-1100.2299430048565
 30
0.0
 41
0.9999067609731702
 10
938.82493271646081
 20
-1100.103065315413
 30
0.0
 41
1.0
 10
938.82733741966513
 20
-1100.0995080493531
 30
0.0
 41
1.0
 10
938.82974212286945
 20
-1100.0959507832933
 30
0.0
 41
1.0
 10
938.91070172592958
 20
-1099.9761876259649
 30
0.0
 41
0.9998784952151018
 10
938.99535533560618
 20
-1099.8590064092627
 30
0.0
 41
1.0
 10
939.08000894528914
 20
-1099.7418251925521
 30
0.0
 41
0.9998532968284247
 10
939.16862656611295
 20
-1099.6276122840802
 30
0.0
 41
1.0
 10
939.18858835510332
 20
-1099.6018849630609
 30
0.0
 41
1.0
 10
939.20855014409381
 20
-1099.5761576420416
 30
0.0
 41
1.0
 10
939.32703419385189
 20
-1099.4234520310742
 30
0.0
 41
0.9991551975795382
 10
939.45765864347482
 20
-1099.2809924689914
 30
0.0
 41
1.0
 10
939.46116825945796
 20
-1099.2771648673634
 30
0.0
 41
1.0
 10
939.46467787544111
 20
-1099.2733372657353
 30
0.0
 41
1.0
 10
939.58828309310161
 20
-1099.1385329069046
 30
0.0
 41
0.9997418144180776
 10
939.71788523279884
 20
-1099.0094834962954
 30
0.0
 41
1.0
 10
939.84748737249856
 20
-1098.8804340856836
 30
0.0
 41
0.9989238204632881
 10
939.98848992074863
 20
-1098.7639491236457
 30
0.0
 41
1.0
 10
940.03373759889155
 20
-1098.7265691320342
 30
0.0
 41
1.0
 10
940.07898527703435
 20
-1098.6891891404227
 30
0.0
 41
1.0
 10
940.21922533425413
 20
-1098.5733340871334
 30
0.0
 41
0.9990825084096954
 10
940.36886526685498
 20
-1098.4699050893028
 30
0.0
 41
1.0
 10
940.37891063091308
 20
-1098.4629618762224
 30
0.0
 41
1.0
 10
940.38895599497118
 20
-1098.456018663142
 30
0.0
 41
1.0
 10
940.51850519945867
 20
-1098.3664760914698
 30
0.0
 41
0.9998164899825629
 10
940.65138940283521
 20
-1098.2819618499534
 30
0.0
 41
1.0
 10
940.66323496335917
 20
-1098.274428083429
 30
0.0
 41
1.0
 10
940.67508052388314
 20
-1098.2668943169047
 30
0.0
 41
1.0
 10
940.78427360621083
 20
-1098.1974476084372
 30
0.0
 41
0.9997473449130689
 10
940.89647756346085
 20
-1098.1329786506212
 30
0.0
 41
1.0
 10
941.00868152070495
 20
-1098.0685096928084
 30
0.0
 41
0.999932786114679
 10
941.12235013146881
 20
-1098.0066597011269
 30
0.0
 41
1.0
 10
941.12290213403207
 20
-1098.0063593424463
 30
0.0
 41
1.0
 10
941.12345413659523
 20
-1098.0060589837658
 30
0.0
 41
1.0
 10
941.23822675248164
 20
-1097.9436082747254
 30
0.0
 41
0.9996956420484265
 10
941.35594007832333
 20
-1097.88689480775
 30
0.0
 41
1.0
 10
941.38638048321604
 20
-1097.87222883102
 30
0.0
 41
1.0
 10
941.41682088810865
 20
-1097.8575628542901
 30
0.0
 41
1.0
 10
941.51979799485105
 20
-1097.8079491958472
 30
0.0
 41
0.9998070570176726
 10
941.6246443837905
 20
-1097.762418608947
 30
0.0
 41
1.0
 10
941.72949077272949
 20
-1097.7168880220465
 30
0.0
 41
0.9997827436147982
 10
941.83614370933537
 20
-1097.6757668507364
 30
0.0
 41
1.0
 10
941.85536655896976
 20
-1097.6683552771028
 30
0.0
 41
1.0
 10
941.87458940860415
 20
-1097.6609437034692
 30
0.0
 41
1.0
 10
942.01968804447711
 20
-1097.6049993848924
 30
0.0
 41
0.9988031841976705
 10
942.16955840708192
 20
-1097.5634993207245
 30
0.0
 41
1.0
 10
942.1944756554459
 20
-1097.5565995749175
 30
0.0
 41
1.0
 10
942.21939290380988
 20
-1097.5496998291105
 30
0.0
 41
1.0
 10
942.38666292945641
 20
-1097.503381686704
 30
0.0
 41
0.9984748040550251
 10
942.55801983810409
 20
-1097.4757874544393
 30
0.0
 41
1.0
 10
942.56275897435319
 20
-1097.4750242939258
 30
0.0
 41
1.0
 10
942.56749811060229
 20
-1097.4742611334125
 30
0.0
 41
1.0
 10
942.72937674675313
 20
-1097.4481932221745
 30
0.0
 41
0.9984436495479865
 10
942.89315149047775
 20
-1097.4403152683558
 30
0.0
 41
1.0
 10
942.91484869860903
 20
-1097.4392715811562
 30
0.0
 41
1.0
 10
942.93654590674032
 20
-1097.4382278939565
 30
0.0
 41
1.0
 10
943.05692623420248
 20
-1097.4324373145371
 30
0.0
 41
0.9987954789335237
 10
943.17729447911233
 20
-1097.4384738422793
 30
0.0
 41
1.0
 10
943.19725927160812
 20
-1097.4394750866181
 30
0.0
 41
1.0
 10
943.21722406410402
 20
-1097.4404763309567
 30
0.0
 41
1.0
 10
943.29766272402355
 20
-1097.4445103700218
 30
0.0
 41
0.9997941595876596
 10
943.37787150211659
 20
-1097.4518044359427
 30
0.0
 41
1.0
 10
943.45808028021133
 20
-1097.4590985018638
 30
0.0
 41
0.9998589466236768
 10
943.53799882706642
 20
-1097.4690823563139
 30
0.0
 41
1.0
 10
943.57040502887446
 20
-1097.4731307132331
 30
0.0
 41
1.0
 10
943.60281123068251
 20
-1097.4771790701523
 30
0.0
 41
1.0
 10
943.74754218115447
 20
-1097.495259638441
 30
0.0
 41
0.999349506324917
 10
943.89059342492044
 20
-1097.5237253481828
 30
0.0
 41
1.0
 10
943.92352712207037
 20
-1097.5302788113972
 30
0.0
 41
1.0
 10
943.9564608192203
 20
-1097.5368322746115
 30
0.0
 41
1.0
 10
944.06575464242678
 20
-1097.558580608747
 30
0.0
 41
0.9996788715560496
 10
944.17380621438463
 20
-1097.5858384081105
 30
0.0
 41
1.0
 10
944.17586921692441
 20
-1097.5863588346836
 30
0.0
 41
1.0
 10
944.1779322194642
 20
-1097.5868792612566
 30
0.0
 41
1.0
 10
944.28185778634236
 20
-1097.613096207474
 30
0.0
 41
0.9995480654492678
 10
944.38402002157045
 20
-1097.645511164098
 30
0.0
 41
1.0
 10
944.38570966369957
 20
-1097.6460472690119
 30
0.0
 41
1.0
 10
944.38739930582869
 20
-1097.646583373926
 30
0.0
 41
1.0
 10
944.48618225680048
 20
-1097.6779261207225
 30
0.0
 41
0.9993867959456048
 10
944.58252941524245
 20
-1097.7161054900121
 30
0.0
 41
1.0
 10
944.58377236432659
 20
-1097.716598031908
 30
0.0
 41
1.0
 10
944.58501531341074
 20
-1097.7170905738039
 30
0.0
 41
1.0
 10
944.6788765736834
 20
-1097.7542848593012
 30
0.0
 41
0.9992050256521992
 10
944.76947624871832
 20
-1097.7988387585406
 30
0.0
 41
1.0
 10
944.77021093143162
 20
-1097.7992000510019
 30
0.0
 41
1.0
 10
944.77094561414503
 20
-1097.7995613434632
 30
0.0
 41
1.0
 10
944.86007592375188
 20
-1097.8433926577793
 30
0.0
 41
0.999022235074129
 10
944.94498598514542
 20
-1097.8949259254778
 30
0.0
 41
1.0
 10
944.94516987042812
 20
-1097.8950375283825
 30
0.0
 41
1.0
 10
944.94535375571081
 20
-1097.8951491312873
 30
0.0
 41
1.0
 10
945.02989604653919
 20
-1097.946459193176
 30
0.0
 41
0.9988642743805237
 10
945.10917058115797
 20
-1098.0055833807012
 30
0.0
 41
1.0
 10
945.18844511577709
 20
-1098.0647075682266
 30
0.0
 41
0.9987681233311242
 10
945.26146890005339
 20
-1098.1313982596273
 30
0.0
 41
1.0
 10
945.2617978280191
 20
-1098.1316986608413
 30
0.0
 41
1.0
 10
945.26212675598481
 20
-1098.1319990620555
 30
0.0
 41
1.0
 10
945.33580839619219
 20
-1098.1992905558845
 30
0.0
 41
0.9987496570898646
 10
945.40240220151941
 20
-1098.2736033699712
 30
0.0
 41
1.0
 10
945.40317437127999
 20
-1098.2744650433292
 30
0.0
 41
1.0
 10
945.40394654104057
 20
-1098.2753267166872
 30
0.0
 41
1.0
 10
945.47208468588781
 20
-1098.3513628774883
 30
0.0
 41
0.9988147669826533
 10
945.53250694011274
 20
-1098.4336638843308
 30
0.0
 41
1.0
 10
945.53362626619094
 20
-1098.4351885156839
 30
0.0
 41
1.0
 10
945.53474559226913
 20
-1098.4367131470372
 30
0.0
 41
1.0
 10
945.59740649864955
 20
-1098.5220634165846
 30
0.0
 41
0.9989452636216141
 10
945.65197341161104
 20
-1098.6128021057425
 30
0.0
 41
1.0
 10
945.6533221376967
 20
-1098.6150448867686
 30
0.0
 41
1.0
 10
945.65467086378226
 20
-1098.6172876677947
 30
0.0
 41
1.0
 10
945.71193522891485
 20
-1098.7125119190048
 30
0.0
 41
0.9991046436070412
 10
945.76094444223747
 20
-1098.8122363520322
 30
0.0
 41
1.0
 10
945.76240830382699
 20
-1098.8152150321039
 30
0.0
 41
1.0
 10
945.76387216541661
 20
-1098.8181937121753
 30
0.0
 41
1.0
 10
945.81580910191849
 20
-1098.9238755053468
 30
0.0
 41
0.9992763831101611
 10
945.85956223047424
 20
-1099.0331995673037
 30
0.0
 41
1.0
 10
945.86104150013716
 20
-1099.0368957548362
 30
0.0
 41
1.0
 10
945.86252076980008
 20
-1099.040591942369
 30
0.0
 41
1.0
 10
945.90923243768168
 20
-1099.1573083793924
 30
0.0
 41
0.9994163472884043
 10
945.94786546887065
 20
-1099.2769419678534
 30
0.0
 41
1.0
 10
945.94910362111807
 20
-1099.2807761116383
 30
0.0
 41
1.0
 10
945.95034177336549
 20
-1099.2846102554231
 30
0.0
 41
1.0
 10
945.99022533438188
 20
-1099.4081163168985
 30
0.0
 41
0.9997268055891129
 10
946.02429339029436
 20
-1099.5333513488508
 30
0.0
 41
1.0
 10
946.02522357056375
 20
-1099.5367707149589
 30
0.0
 41
1.0
 10
946.02615375083315
 20
-1099.5401900810673
 30
0.0
 41
1.0
 10
946.05836144620616
 20
-1099.6585863808007
 30
0.0
 41
0.9996701319000749
 10
946.08444706297678
 20
-1099.7784803340651
 30
0.0
 41
1.0
 10
946.11053267974785
 20
-1099.8983742873311
 30
0.0
 41
0.9995785451109355
 10
946.12961625708795
 20
-1100.0195800483657
 30
0.0
 41
1.0
 10
946.13383603926115
 20
-1100.0463812031276
 30
0.0
 41
1.0
 10
946.13805582143436
 20
-1100.0731823578892
 30
0.0
 41
1.0
 10
946.16463079737321
 20
-1100.2419683315939
 30
0.0
 41
0.9979925101216325
 10
946.16965638329941
 20
-1100.4127596596848
 30
0.0
 41
1.0
 10
946.17048119572405
 20
-1100.4407903831661
 30
0.0
 41
1.0
 10
946.17130600814869
 20
-1100.4688211066473
 30
0.0
 41
1.0
 10
946.17468196922584
 20
-1100.5835509877761
 30
0.0
 41
0.9995314902263194
 10
946.17103177708725
 20
-1100.6982724715285
 30
0.0
 41
1.0
 10
946.16738158494866
 20
-1100.8129939552798
 30
0.0
 41
0.9996245486944881
 10
946.15745248981796
 20
-1100.9273432264044
 30
0.0
 41
1.0
 10
946.15728944182365
 20
-1100.9292209825396
 30
0.0
 41
1.0
 10
946.15712639382946
 20
-1100.9310987386748
 30
0.0
 41
1.0
 10
946.14687120270969
 20
-1101.0492035220714
 30
0.0
 41
0.9997286095000868
 10
946.13112587913815
 20
-1101.166702430967
 30
0.0
 41
1.0
 10
946.13073238648803
 20
-1101.1696388556675
 30
0.0
 41
1.0
 10
946.13033889383792
 20
-1101.1725752803677
 30
0.0
 41
1.0
 10
946.11380658496682
 20
-1101.2959470386602
 30
0.0
 41
0.9998265533969971
 10
946.09269112623417
 20
-1101.4186175134485
 30
0.0
 41
1.0
 10
946.09201458409643
 20
-1101.4225478919589
 30
0.0
 41
1.0
 10
946.09133804195881
 20
-1101.4264782704695
 30
0.0
 41
1.0
 10
946.06886949895136
 20
-1101.5570095022758
 30
0.0
 41
0.9999022530850071
 10
946.0427600343412
 20
-1101.6868614709153
 30
0.0
 41
1.0
 10
946.04178139317628
 20
-1101.6917286133007
 30
0.0
 41
1.0
 10
946.04080275201125
 20
-1101.6965957556861
 30
0.0
 41
1.0
 10
946.01273600506806
 20
-1101.8361820091104
 30
0.0
 41
0.9999524761938338
 10
945.98195303623356
 20
-1101.975194502274
 30
0.0
 41
1.0
 10
945.9806769290592
 20
-1101.9809572615713
 30
0.0
 41
1.0
 10
945.97940082188484
 20
-1101.9867200208687
 30
0.0
 41
1.0
 10
945.94606563869854
 20
-1102.1372580326399
 30
0.0
 41
0.999981358872056
 10
945.91089463790593
 20
-1102.2873777452828
 30
0.0
 41
1.0
 10
945.90934071244806
 20
-1102.2940103357105
 30
0.0
 41
1.0
 10
945.9077867869903
 20
-1102.3006429261384
 30
0.0
 41
1.0
 10
945.86950793528104
 20
-1102.4640278196403
 30
0.0
 41
0.9999955237689477
 10
945.8302520572995
 20
-1102.6271807232513
 30
0.0
 41
1.0
 10
945.81797042166579
 20
-1102.6782249137714
 30
0.0
 41
1.0
 10
945.80568878603208
 20
-1102.7292691042917
 30
0.0
 41
1.0
 10
945.74186963678903
 20
-1102.9945103889177
 30
0.0
 41
0.9999993604774109
 10
945.67745068963688
 20
-1103.2596066395374
 30
0.0
 41
1.0
 10
945.67273185407885
 20
-1103.2790255476234
 30
0.0
 41
1.0
 10
945.66801301852081
 20
-1103.2984444557092
 30
0.0
 41
1.0
 10
945.5941564002577
 20
-1103.6023785224784
 30
0.0
 41
0.999965991473211
 10
945.51529680437352
 20
-1103.9050530690333
 30
0.0
 41
1.0
 10
945.51034411544367
 20
-1103.9240622062127
 30
0.0
 41
1.0
 10
945.50539142651382
 20
-1103.9430713433921
 30
0.0
 41
1.0
 10
945.41662645276972
 20
-1104.2837641643064
 30
0.0
 41
0.9999441976024407
 10
945.32068341980698
 20
-1104.6225055896032
 30
0.0
 41
1.0
 10
945.30398290138044
 20
-1104.6814693021342
 30
0.0
 41
1.0
 10
945.28728238295389
 20
-1104.7404330146655
 30
0.0
 41
1.0
 10
945.15793831314215
 20
-1105.1971018650099
 30
0.0
 41
0.9999625120733445
 10
945.02070554581849
 20
-1105.6514623990072
 30
0.0
 41
1.0
 10
944.98491560272782
 20
-1105.7699584256598
 30
0.0
 41
1.0
 10
944.94912565963705
 20
-1105.8884544523121
 30
0.0
 41
1.0
 10
944.87460545560293
 20
-1106.135181530391
 30
0.0
 41
0.9999793386319124
 10
944.79691943247121
 20
-1106.3809301696083
 30
0.0
 41
1.0
 10
944.7192334093337
 20
-1106.6266788088444
 30
0.0
 41
1.0
 10
944.708453850463
 20
-1106.6606967132191
 30
0.0
 41
1.0
 10
942.85808079719391
 20
-1112.5477686356867
 30
0.0
 41
1.0
 10
941.0077077439247
 20
-1118.4348405581541
 30
0.0
 41
1.0
 10
940.04645105390114
 20
-1118.4348405581541
 30
0.0
 41
1.0
 10
939.08519436387758
 20
-1118.4348405581541
 30
0.0
 41
1.0
 10
940.70413914255596
 20
-1113.2868120563646
 30
0.0
 41
1.0
 10
942.32308392123446
 20
-1108.1387835545752
 30
0.0
 41
1.0
 10
942.36824974441424
 20
-1107.9947523322878
 30
0.0
 41
1.0
 10
942.41341556759403
 20
-1107.8507211100004
 30
0.0
 41
1.0
 10
942.58371998495204
 20
-1107.3076300808534
 30
0.0
 41
0.9999911657882764
 10
942.74945279662597
 20
-1106.7631265495093
 30
0.0
 41
1.0
 10
942.77914874012822
 20
-1106.665562609453
 30
0.0
 41
1.0
 10
942.80884468363047
 20
-1106.5679986693965
 30
0.0
 41
1.0
 10
942.91518560830821
 20
-1106.2186230181392
 30
0.0
 41
0.9999952428193707
 10
943.01936919763125
 20
-1105.8685979937959
 30
0.0
 41
1.0
 10
943.02442866795548
 20
-1105.8515997195486
 30
0.0
 41
1.0
 10
943.0294881382797
 20
-1105.8346014453011
 30
0.0
 41
1.0
 10
943.12355278694929
 20
-1105.518572969469
 30
0.0
 41
0.9999931687465478
 10
943.21527862482981
 20
-1105.201857756176
 30
0.0
 41
1.0
 10
943.22021388928897
 20
-1105.1848170469061
 30
0.0
 41
1.0
 10
943.22514915374813
 20
-1105.1677763376363
 30
0.0
 41
1.0
 10
943.30700446270021
 20
-1104.885142542917
 30
0.0
 41
0.9999893840818839
 10
943.3862516891603
 20
-1104.6017664136589
 30
0.0
 41
1.0
 10
943.46549891561563
 20
-1104.3183902844175
 30
0.0
 41
0.9999833980071855
 10
943.54147515635339
 20
-1104.0341197014047
 30
0.0
 41
1.0
 10
943.55047909307996
 20
-1104.0004308229104
 30
0.0
 41
1.0
 10
943.55948302980642
 20
-1103.9667419444161
 30
0.0
 41
1.0
 10
943.62844757867265
 20
-1103.7087061121197
 30
0.0
 41
0.9999233658068563
 10
943.69100254989064
 20
-1103.4490419534059
 30
0.0
 41
1.0
 10
943.75355752111091
 20
-1103.1893777946834
 30
0.0
 41
1.0
 10
943.79304093996848
 20
-1103.0255711302573
 30
0.0
 41
1.0
 10
943.7980195439427
 20
-1103.0049161683992
 30
0.0
 41
1.0
 10
943.80299814791704
 20
-1102.9842612065411
 30
0.0
 41
1.0
 10
943.83252435882378
 20
-1102.8617644658407
 30
0.0
 41
0.9999868670871406
 10
943.86079344282223
 20
-1102.7389715201857
 30
0.0
 41
1.0
 10
943.86469092998459
 20
-1102.7220419327482
 30
0.0
 41
1.0
 10
943.86858841714707
 20
-1102.7051123453107
 30
0.0
 41
1.0
 10
943.8890625268225
 20
-1102.6161785745228
 30
0.0
 41
0.9999778173347331
 10
943.9083501249338
 20
-1102.5269799573098
 30
0.0
 41
1.0
 10
943.92763772305011
 20
-1102.4377813400761
 30
0.0
 41
0.9999602692855361
 10
943.94533208168241
 20
-1102.3482530516412
 30
0.0
 41
1.0
 10
943.94853591375886
 20
-1102.3320425967613
 30
0.0
 41
1.0
 10
943.95173974583531
 20
-1102.3158321418816
 30
0.0
 41
1.0
 10
943.97584176862176
 20
-1102.1938829436822
 30
0.0
 41
0.9995617985320181
 10
943.99268511584046
 20
-1102.0707211959748
 30
0.0
 41
1.0
 10
943.99514960574629
 20
-1102.0527003786119
 30
0.0
 41
1.0
 10
943.99761409565212
 20
-1102.034679561249
 30
0.0
 41
1.0
 10
944.01789735670059
 20
-1101.8863645115471
 30
0.0
 41
0.9991121410639567
 10
944.0256227102891
 20
-1101.7368684127391
 30
0.0
 41
1.0
 10
944.02654150031367
 20
-1101.7190885761638
 30
0.0
 41
1.0
 10
944.02746029033813
 20
-1101.7013087395885
 30
0.0
 41
1.0
 10
944.03334806387716
 20
-1101.587372313935
 30
0.0
 41
0.998979249490619
 10
944.02892897176002
 20
-1101.4733694780348
 30
0.0
 41
1.0
 10
944.02828099989142
 20
-1101.4566532321096
 30
0.0
 41
1.0
 10
944.02763302802293
 20
-1101.4399369861846
 30
0.0
 41
1.0
 10
944.02450987964278
 20
-1101.3593666421355
 30
0.0
 41
0.999782029539269
 10
944.01802588226701
 20
-1101.2789969203923
 30
0.0
 41
1.0
 10
944.01154188489159
 20
-1101.1986271986507
 30
0.0
 41
0.9998335105972758
 10
944.00212968938013
 20
-1101.1185475822028
 30
0.0
 41
1.0
 10
944.0005347647035
 20
-1101.1049778517176
 30
0.0
 41
1.0
 10
943.99893984002688
 20
-1101.0914081212322
 30
0.0
 41
1.0
 10
943.98633779516274
 20
-1100.9841890438172
 30
0.0
 41
0.9996876457879326
 10
943.96839388236458
 20
-1100.8777336161027
 30
0.0
 41
1.0
 10
943.9661622192192
 20
-1100.8644938808602
 30
0.0
 41
1.0
 10
943.96393055607382
 20
-1100.8512541456175
 30
0.0
 41
1.0
 10
943.95013473465247
 20
-1100.7694080016583
 30
0.0
 41
0.9995547496495519
 10
943.93148141275992
 20
-1100.6885305044668
 30
0.0
 41
1.0
 10
943.93110745588888
 20
-1100.6869090937626
 30
0.0
 41
1.0
 10
943.93073349901783
 20
-1100.685287683058
 30
0.0
 41
1.0
 10
943.91282809086761
 20
-1100.6076530072767
 30
0.0
 41
0.9994899427175379
 10
943.89000318218791
 20
-1100.5313197244413
 30
0.0
 41
1.0
 10
943.8895446554468
 20
-1100.5297862746515
 30
0.0
 41
1.0
 10
943.88908612870569
 20
-1100.528252824862
 30
0.0
 41
1.0
 10
943.86717827350833
 20
-1100.454986441606
 30
0.0
 41
0.9993784877590231
 10
943.84016263840203
 20
-1100.3834457364478
 30
0.0
 41
1.0
 10
943.83963094742512
 20
-1100.3820377537272
 30
0.0
 41
1.0
 10
943.83909925644821
 20
-1100.3806297710066
 30
0.0
 41
1.0
 10
943.81314700329528
 20
-1100.3119050312882
 30
0.0
 41
0.9992430832254525
 10
943.78193046813612
 20
-1100.2454058792205
 30
0.0
 41
1.0
 10
943.7813483520797
 20
-1100.2441658241037
 30
0.0
 41
1.0
 10
943.78076623602328
 20
-1100.2429257689867
 30
0.0
 41
1.0
 10
943.75071393297685
 20
-1100.1789067271527
 30
0.0
 41
0.9990789632799295
 10
943.71528330620004
 20
-1100.1177001154026
 30
0.0
 41
1.0
 10
943.71468760001767
 20
-1100.1166710295429
 30
0.0
 41
1.0
 10
943.71409189383542
 20
-1100.1156419436832
 30
0.0
 41
1.0
 10
943.67985267942231
 20
-1100.0564935036512
 30
0.0
 41
0.9988874801120632
 10
943.64019340339132
 20
-1100.000833791235
 30
0.0
 41
1.0
 10
943.63963787732769
 20
-1100.0000541395611
 30
0.0
 41
1.0
 10
943.63908235126394
 20
-1099.9992744878871
 30
0.0
 41
1.0
 10
943.60053412736033
 20
-1099.9451740788186
 30
0.0
 41
0.998676206069311
 10
943.55663165608303
 20
-1099.8953203643782
 30
0.0
 41
1.0
 10
943.55618769575131
 20
-1099.894816222562
 30
0.0
 41
1.0
 10
943.55574373541958
 20
-1099.894312080746
 30
0.0
 41
1.0
 10
943.51272918480731
 20
-1099.8454666499395
 30
0.0
 41
0.9984621642488807
 10
943.46457162802903
 20
-1099.8016833494678
 30
0.0
 41
1.0
 10
943.46432499351272
 20
-1099.8014591173046
 30
0.0
 41
1.0
 10
943.46407835899629
 20
-1099.8012348851412
 30
0.0
 41
1.0
 10
943.41641407125087
 20
-1099.7579000489964
 30
0.0
 41
0.998272469385192
 10
943.36399543940979
 20
-1099.7204556984789
 30
0.0
 41
1.0
 10
943.31157680756894
 20
-1099.6830113479616
 30
0.0
 41
0.9981399180158652
 10
943.25499074417519
 20
-1099.652224828518
 30
0.0
 41
1.0
 10
943.25494508209658
 20
-1099.6521999853608
 30
0.0
 41
1.0
 10
943.25489942001809
 20
-1099.6521751422035
 30
0.0
 41
1.0
 10
943.19822203246781
 20
-1099.6213389364457
 30
0.0
 41
0.9980927086837029
 10
943.13817668140155
 20
-1099.5977221275932
 30
0.0
 41
1.0
 10
943.13773651168981
 20
-1099.5975490017181
 30
0.0
 41
1.0
 10
943.13729634197807
 20
-1099.5973758758432
 30
0.0
 41
1.0
 10
943.07637065148765
 20
-1099.5734128152405
 30
0.0
 41
0.9981411356560805
 10
943.01298213008727
 20
-1099.5570401737348
 30
0.0
 41
1.0
 10
943.01210001338666
 20
-1099.5568123315295
 30
0.0
 41
1.0
 10
943.01121789668605
 20
-1099.5565844893242
 30
0.0
 41
1.0
 10
942.94606514188376
 20
-1099.5397561634077
 30
0.0
 41
0.9983031812934693
 10
942.8793977128895
 20
-1099.5306168022316
 30
0.0
 41
1.0
 10
942.87052668748584
 20
-1099.5294006835602
 30
0.0
 41
1.0
 10
942.86165566208228
 20
-1099.528184564889
 30
0.0
 41
1.0
 10
942.80730601957771
 20
-1099.5207338348978
 30
0.0
 41
0.998388770826295
 10
942.75246217028428
 20
-1099.5194891612646
 30
0.0
 41
1.0
 10
942.74439876507051
 20
-1099.5193061633897
 30
0.0
 41
1.0
 10
942.73633535985675
 20
-1099.5191231655149
 30
0.0
 41
1.0
 10
942.69761832099516
 20
-1099.5182444876311
 30
0.0
 41
0.9998869563078238
 10
942.65889236778878
 20
-1099.5185303569908
 30
0.0
 41
1.0
 10
942.62016641454159
 20
-1099.5188162263507
 30
0.0
 41
0.9999972320166543
 10
942.58144223528654
 20
-1099.5192843258806
 30
0.0
 41
1.0
 10
942.562089218751
 20
-1099.5195182659695
 30
0.0
 41
1.0
 10
942.54273620221534
 20
-1099.5197522060585
 30
0.0
 41
1.0
 10
942.46530598984373
 20
-1099.5206881857662
 30
0.0
 41
0.9997304945086705
 10
942.38800268360478
 20
-1099.5252172795522
 30
0.0
 41
1.0
 10
942.3789530419017
 20
-1099.5257474855421
 30
0.0
 41
1.0
 10
942.3699034001985
 20
-1099.526277691532
 30
0.0
 41
1.0
 10
942.2745008105511
 20
-1099.531867197298
 30
0.0
 41
0.9997888306415476
 10
942.17940847470788
 20
-1099.5413721617874
 30
0.0
 41
1.0
 10
942.17068741313608
 20
-1099.5422438764194
 30
0.0
 41
1.0
 10
942.16196635156427
 20
-1099.5431155910514
 30
0.0
 41
1.0
 10
942.0494318925754
 20
-1099.5543639848047
 30
0.0
 41
0.998417023819027
 10
941.93887274522331
 20
-1099.5781800667407
 30
0.0
 41
1.0
 10
941.90249161423731
 20
-1099.5860171025467
 30
0.0
 41
1.0
 10
941.86611048325142
 20
-1099.5938541383528
 30
0.0
 41
1.0
 10
941.75091941483038
 20
-1099.6186680048622
 30
0.0
 41
0.9976592854198687
 10
941.64019124842548
 20
-1099.6589666820096
 30
0.0
 41
1.0
 10
941.52946308201967
 20
-1099.6992653591569
 30
0.0
 41
0.9993255074351625
 10
941.42199128322716
 20
-1099.7475822576503
 30
0.0
 41
1.0
 10
941.41736610430507
 20
-1099.7496616338494
 30
0.0
 41
1.0
 10
941.4127409253831
 20
-1099.7517410100486
 30
0.0
 41
1.0
 10
941.29601876874528
 20
-1099.8042166609407
 30
0.0
 41
0.9976475078274926
 10
941.18757142443451
 20
-1099.8721646505992
 30
0.0
 41
1.0
 10
941.16922903030127
 20
-1099.8836571294128
 30
0.0
 41
1.0
 10
941.15088663616814
 20
-1099.8951496082261
 30
0.0
 41
1.0
 10
941.06668444461548
 20
-1099.9479067289949
 30
0.0
 41
0.9995131336406915
 10
940.98593672965615
 20
-1100.0058129409495
 30
0.0
 41
1.0
 10
940.9051890146992
 20
-1100.0637191529022
 30
0.0
 41
0.9995810107606254
 10
940.82792736697081
 20
-1100.1262008353679
 30
0.0
 41
1.0
 10
940.82495733576025
 20
-1100.1286027068327
 30
0.0
 41
1.0
 10
940.82198730454979
 20
-1100.1310045782975
 30
0.0
 41
1.0
 10
940.73878559440129
 20
-1100.1982900036924
 30
0.0
 41
0.9996617837954557
 10
940.65919490726583
 20
-1100.2698104592523
 30
0.0
 41
1.0
 10
940.64706415639091
 20
-1100.2807111922411
 30
0.0
 41
1.0
 10
940.63493340551599
 20
-1100.2916119252297
 30
0.0
 41
1.0
 10
940.56665787811608
 20
-1100.3529645407054
 30
0.0
 41
0.9997267750053095
 10
940.5013243698304
 20
-1100.4174410772325
 30
0.0
 41
1.0
 10
940.43599086154632
 20
-1100.481917613758
 30
0.0
 41
0.9999667288965898
 10
940.37171791839887
 20
-1100.5474514206533
 30
0.0
 41
1.0
 10
940.30289047062433
 20
-1100.617629079411
 30
0.0
 41
1.0
 10
940.2340630228498
 20
-1100.6878067381685
 30
0.0
 41
1.0
 10
940.03213518415453
 20
-1100.8936958625777
 30
0.0
 41
0.998820533517514
 10
939.85112956717626
 20
-1101.1182000946367
 30
0.0
 41
1.0
 10
939.82048960227019
 20
-1101.1562033450682
 30
0.0
 41
1.0
 10
939.78984963736411
 20
-1101.1942065955
 30
0.0
 41
1.0
 10
939.54756409057325
 20
-1101.4947173284229
 30
0.0
 41
0.9997077826754861
 10
939.32008613946687
 20
-1101.8065871226411
 30
0.0
 41
1.0
 10
939.31836272433793
 20
-1101.8089499060184
 30
0.0
 41
1.0
 10
939.31663930920899
 20
-1101.8113126893959
 30
0.0
 41
1.0
 10
939.08571452784452
 20
-1102.1279080503691
 30
0.0
 41
0.9989147567078999
 10
938.88525102496089
 20
-1102.4646175115536
 30
0.0
 41
1.0
 10
938.86050987965189
 20
-1102.5061740921096
 30
0.0
 41
1.0
 10
938.83576873434288
 20
-1102.5477306726655
 30
0.0
 41
1.0
 10
938.68055743570767
 20
-1102.8084320571147
 30
0.0
 41
0.9997476598181253
 10
938.53721244819849
 20
-1103.0758418056962
 30
0.0
 41
1.0
 10
938.39386746068806
 20
-1103.3432515542802
 30
0.0
 41
0.9996258967109512
 10
938.26535920875733
 20
-1103.6180994909023
 30
0.0
 41
1.0
 10
938.25215929930755
 20
-1103.6463308909981
 30
0.0
 41
1.0
 10
938.23895938985777
 20
-1103.6745622910939
 30
0.0
 41
1.0
 10
938.09875066885945
 20
-1103.9744346890436
 30
0.0
 41
0.9998735413945121
 10
937.96814932213738
 20
-1104.2786142885152
 30
0.0
 41
1.0
 10
937.96470649407593
 20
-1104.2866328739819
 30
0.0
 41
1.0
 10
937.96126366601459
 20
-1104.2946514594487
 30
0.0
 41
1.0
 10
937.8375479754186
 20
-1104.5827938879793
 30
0.0
 41
0.9999377418864015
 10
937.72029317324223
 20
-1104.8736253556576
 30
0.0
 41
1.0
 10
937.60303837106551
 20
-1105.1644568233373
 30
0.0
 41
0.9999508299509609
 10
937.49157442768796
 20
-1105.4575565001599
 30
0.0
 41
1.0
 10
937.4884936590264
 20
-1105.4656575261215
 30
0.0
 41
1.0
 10
937.48541289036484
 20
-1105.4737585520829
 30
0.0
 41
1.0
 10
937.3677874096644
 20
-1105.7830602808267
 30
0.0
 41
0.9999609228431653
 10
937.25564880679542
 20
-1106.0943932968285
 30
0.0
 41
1.0
 10
937.25269279644226
 20
-1106.1026001372475
 30
0.0
 41
1.0
 10
937.24973678608922
 20
-1106.1108069776665
 30
0.0
 41
1.0
 10
937.13168616251278
 20
-1106.4385536745099
 30
0.0
 41
0.9999674607402643
 10
937.01893863644489
 20
-1106.7681622945045
 30
0.0
 41
1.0
 10
936.96754024588472
 20
-1106.9184214901898
 30
0.0
 41
1.0
 10
936.91614185532444
 20
-1107.0686806858751
 30
0.0
 41
1.0
 10
936.80013124856566
 20
-1107.4078286683807
 30
0.0
 41
0.9999287532307414
 10
936.69224984459424
 20
-1107.7496494073584
 30
0.0
 41
1.0
 10
936.64577258844065
 20
-1107.8969119517751
 30
0.0
 41
1.0
 10
936.59929533228717
 20
-1108.0441744961918
 30
0.0
 41
1.0
 10
936.58436844057712
 20
-1108.091470146481
 30
0.0
 41
0.999999822364146
 10
936.56949793189301
 20
-1108.1387835545752
 30
0.0
 41
1.0
 10
934.94884179509756
 20
-1113.2868120563646
 30
0.0
 41
1.0
 10
933.32818565830212
 20
-1118.4348405581541
 30
0.0
 41
1.0
 10
932.42287721441119
 20
-1118.4348405581541
 30
0.0
 41
1.0
 10
931.51756877052026
 20
-1118.4348405581541
 30
0.0
 41
1.0
 10
933.3696531819063
 20
-1112.5477686356867
 30
0.0
 41
1.0
 10
935.22173759329235
 20
-1106.6606967132191
 30
0.0
 41
1.0
 10
935.23185935159506
 20
-1106.6286534997694
 30
0.0
 41
1.0
 10
935.3044670204448
 20
-1106.3983539579435
 30
0.0
 41
1.0
 10
935.37707468929659
 20
-1106.1680544161113
 30
0.0
 41
0.9999825681973988
 10
935.44695772851026
 20
-1105.9369135210388
 30
0.0
 41
1.0
 10
935.49524879066848
 20
-1105.7771889375513
 30
0.0
 41
1.0
 10
935.54353985282671
 20
-1105.6174643540639
 30
0.0
 41
1.0
 10
935.64069220614124
 20
-1105.2961291322968
 30
0.0
 41
0.9999672528966247
 10
935.7326310117669
 20
-1104.9732635867026
 30
0.0
 41
1.0
 10
935.73541989542923
 20
-1104.9634697413389
 30
0.0
 41
1.0
 10
935.73820877909145
 20
-1104.953675895975
 30
0.0
 41
1.0
 10
935.82456981738642
 20
-1104.6503980411296
 30
0.0
 41
0.9999899749146598
 10
935.90821142692494
 20
-1104.3463589526641
 30
0.0
 41
1.0
 10
935.91831734594246
 20
-1104.3096237149857
 30
0.0
 41
1.0
 10
935.92842326495997
 20
-1104.2728884773073
 30
0.0
 41
1.0
 10
935.99185303645891
 20
-1104.0423198642138
 30
0.0
 41
0.999921420050221
 10
936.04948246483741
 20
-1103.8102335220024
 30
0.0
 41
1.0
 10
936.06224831702048
 20
-1103.7588226365961
 30
0.0
 41
1.0
 10
936.07501416920354
 20
-1103.7074117511897
 30
0.0
 41
1.0
 10
936.10711189321478
 20
-1103.5781471797941
 30
0.0
 41
0.9999828681660192
 10
936.1376941452105
 20
-1103.4485157053255
 30
0.0
 41
1.0
 10
936.16827639720327
 20
-1103.3188842308687
 30
0.0
 41
0.9999389844483548
 10
936.19598738599063
 20
-1103.188608774979
 30
0.0
 41
1.0
 10
936.20312512971304
 20
-1103.155052671131
 30
0.0
 41
1.0
 10
936.21026287343557
 20
-1103.121496567283
 30
0.0
 41
1.0
 10
936.25224934966684
 20
-1102.9241089037005
 30
0.0
 41
0.9998933699440159
 10
936.288453614069
 20
-1102.7255792959413
 30
0.0
 41
1.0
 10
936.28982643928452
 20
-1102.7180512752489
 30
0.0
 41
1.0
 10
936.29119926450016
 20
-1102.7105232545564
 30
0.0
 41
1.0
 10
936.33014917933508
 20
-1102.496937605405
 30
0.0
 41
0.9996850305193196
 10
936.35833285559374
 20
-1102.2816665999687
 30
0.0
 41
1.0
 10
936.36032788896284
 20
-1102.2664282458481
 30
0.0
 41
1.0
 10
936.36232292233194
 20
-1102.2511898917276
 30
0.0
 41
1.0
 10
936.38973078479125
 20
-1102.041844664571
 30
0.0
 41
0.999469793670707
 10
936.40345534401104
 20
-1101.8311594692386
 30
0.0
 41
1.0
 10
936.40393241326069
 20
-1101.8238359970278
 30
0.0
 41
1.0
 10
936.40440948251035
 20
-1101.816512524817
 30
0.0
 41
1.0
 10
936.41717990323059
 20
-1101.6204742739085
 30
0.0
 41
0.9991804893137241
 10
936.41405158695784
 20
-1101.4240454239346
 30
0.0
 41
1.0
 10
936.41396770813571
 20
-1101.418778622522
 30
0.0
 41
1.0
 10
936.41388382931359
 20
-1101.4135118211093
 30
0.0
 41
1.0
 10
936.41092327068509
 20
-1101.2276165739611
 30
0.0
 41
0.9988448329321498
 10
936.39013172506134
 20
-1101.0428639841277
 30
0.0
 41
1.0
 10
936.38853765135832
 20
-1101.0286991283567
 30
0.0
 41
1.0
 10
936.3869435776553
 20
-1101.0145342725857
 30
0.0
 41
1.0
 10
936.36934017943759
 20
-1100.8581113942948
 30
0.0
 41
0.9985503209458699
 10
936.33502390713807
 20
-1100.7044872102051
 30
0.0
 41
1.0
 10
936.32743791506709
 20
-1100.6705268828064
 30
0.0
 41
1.0
 10
936.31985192299624
 20
-1100.6365665554074
 30
0.0
 41
1.0
 10
936.300707634839
 20
-1100.5508630261186
 30
0.0
 41
0.9991036781371003
 10
936.2743827731872
 20
-1100.4670859387909
 30
0.0
 41
1.0
 10
936.27040054773101
 20
-1100.4544127762797
 30
0.0
 41
1.0
 10
936.26641832227483
 20
-1100.4417396137685
 30
0.0
 41
1.0
 10
936.24805791153574
 20
-1100.383308851465
 30
0.0
 41
0.9998874504368696
 10
936.22795270385768
 20
-1100.3254552492426
 30
0.0
 41
1.0
 10
936.20784749617826
 20
-1100.2676016470173
 30
0.0
 41
0.9994041637544384
 10
936.18379888324409
 20
-1100.2112729431274
 30
0.0
 41
1.0
 10
936.17960209902037
 20
-1100.2014428786463
 30
0.0
 41
1.0
 10
936.17540531479665
 20
-1100.1916128141652
 30
0.0
 41
1.0
 10
936.14752648380215
 20
-1100.1263126481981
 30
0.0
 41
0.9991846840701656
 10
936.11447012710926
 20
-1100.0634746169183
 30
0.0
 41
1.0
 10
936.11333352071449
 20
-1100.0613140004641
 30
0.0
 41
1.0
 10
936.11219691431972
 20
-1100.05915338401
 30
0.0
 41
1.0
 10
936.08141377041682
 20
-1100.0006365856393
 30
0.0
 41
0.9989253167923567
 10
936.04534434636116
 20
-1099.9452216572477
 30
0.0
 41
1.0
 10
936.04429022168711
 20
-1099.9436021624856
 30
0.0
 41
1.0
 10
936.04323609701316
 20
-1099.9419826677238
 30
0.0
 41
1.0
 10
936.00927492230687
 20
-1099.8898067288587
 30
0.0
 41
0.9986467172838246
 10
935.97007776966893
 20
-1099.8414406952279
 30
0.0
 41
1.0
 10
935.9692036409682
 20
-1099.8403620929498
 30
0.0
 41
1.0
 10
935.96832951226747
 20
-1099.8392834906715
 30
0.0
 41
1.0
 10
935.93088061703133
 20
-1099.7930746615982
 30
0.0
 41
0.998400110426685
 10
935.8884538865143
 20
-1099.7513895542297
 30
0.0
 41
1.0
 10
935.88786674840503
 20
-1099.7508126793487
 30
0.0
 41
1.0
 10
935.88727961029588
 20
-1099.7502358044676
 30
0.0
 41
1.0
 10
935.84602715599783
 20
-1099.7097044468615
 30
0.0
 41
0.9982442159082329
 10
935.80027105466161
 20
-1099.6743358856006
 30
0.0
 41
1.0
 10
935.80005625919966
 20
-1099.6741698529572
 30
0.0
 41
1.0
 10
935.79984146373772
 20
-1099.6740038203138
 30
0.0
 41
1.0
 10
935.75451495332584
 20
-1099.6389673243405
 30
0.0
 41
0.9982450060837329
 10
935.70536397425417
 20
-1099.6095355413067
 30
0.0
 41
1.0
 10
935.65621299518284
 20
-1099.5801037582735
 30
0.0
 41
0.9983922639635626
 10
935.60404668901776
 20
-1099.5564241236193
 30
0.0
 41
1.0
 10
935.60381981169326
 20
-1099.5563211381377
 30
0.0
 41
1.0
 10
935.60359293436863
 20
-1099.5562181526564
 30
0.0
 41
1.0
 10
935.55097287355466
 20
-1099.5323325470395
 30
0.0
 41
0.9986517147149977
 10
935.49615990068673
 20
-1099.5140314279176
 30
0.0
 41
1.0
 10
935.49548197925901
 20
-1099.5138050814862
 30
0.0
 41
1.0
 10
935.49480405783129
 20
-1099.5135787350548
 30
0.0
 41
1.0
 10
935.43863524210735
 20
-1099.4948249230702
 30
0.0
 41
0.9989435598956645
 10
935.38098185495573
 20
-1099.4813072208356
 30
0.0
 41
1.0
 10
935.37990173537423
 20
-1099.4810539705827
 30
0.0
 41
1.0
 10
935.37882161579273
 20
-1099.4808007203296
 30
0.0
 41
1.0
 10
935.31900798947754
 20
-1099.4667765175891
 30
0.0
 41
0.9992249241240742
 10
935.25827648058032
 20
-1099.4575011748736
 30
0.0
 41
1.0
 10
935.25686279228944
 20
-1099.457285266466
 30
0.0
 41
1.0
 10
935.25544910399856
 20
-1099.4570693580581
 30
0.0
 41
1.0
 10
935.19189021851855
 20
-1099.4473621985273
 30
0.0
 41
0.9994396597833952
 10
935.12782428198057
 20
-1099.4419292761816
 30
0.0
 41
1.0
 10
935.10868361450355
 20
-1099.4403061084631
 30
0.0
 41
1.0
 10
935.08954294702653
 20
-1099.4386829407445
 30
0.0
 41
1.0
 10
934.98719567553542
 20
-1099.4300036829616
 30
0.0
 41
0.9987693403121803
 10
934.88449205194968
 20
-1099.4315067464138
 30
0.0
 41
1.0
 10
934.87423771771955
 20
-1099.431656818188
 30
0.0
 41
1.0
 10
934.86398338348943
 20
-1099.4318068899622
 30
0.0
 41
1.0
 10
934.75442761731222
 20
-1099.4334102342498
 30
0.0
 41
0.9989753644966057
 10
934.64546561729708
 20
-1099.4449132411751
 30
0.0
 41
1.0
 10
934.53650361727944
 20
-1099.4564162481004
 30
0.0
 41
0.9983190067305373
 10
934.42960480631359
 20
-1099.4804512398873
 30
0.0
 41
1.0
 10
934.42070385470788
 20
-1099.4824525184499
 30
0.0
 41
1.0
 10
934.41180290310217
 20
-1099.4844537970123
 30
0.0
 41
1.0
 10
934.28710218892331
 20
-1099.5124913459244
 30
0.0
 41
0.9985539388302972
 10
934.16613243524512
 20
-1099.5537550219703
 30
0.0
 41
1.0
 10
934.16378700428515
 20
-1099.5545550657862
 30
0.0
 41
1.0
 10
934.16144157332519
 20
-1099.5553551096018
 30
0.0
 41
1.0
 10
934.03578095772764
 20
-1099.5982188732787
 30
0.0
 41
0.9988468746493737
 10
933.91481061542822
 20
-1099.6529369583404
 30
0.0
 41
1.0
 10
933.91162779343858
 20
-1099.6543766329009
 30
0.0
 41
1.0
 10
933.90844497144894
 20
-1099.6558163074612
 30
0.0
 41
1.0
 10
933.78110898517116
 20
-1099.7134137416435
 30
0.0
 41
0.9991322885918755
 10
933.6590084011151
 20
-1099.7814090738252
 30
0.0
 41
1.0
 10
933.64140639006996
 20
-1099.7912112758156
 30
0.0
 41
1.0
 10
933.62380437902482
 20
-1099.801013477806
 30
0.0
 41
1.0
 10
933.52162769796848
 20
-1099.8579135935861
 30
0.0
 41
0.9993860037849144
 10
933.423686693896
 20
-1099.9218296091742
 30
0.0
 41
1.0
 10
933.41806838104276
 20
-1099.9254961038696
 30
0.0
 41
1.0
 10
933.41245006818951
 20
-1099.9291625985652
 30
0.0
 41
1.0
 10
933.32574568982352
 20
-1099.9857456247621
 30
0.0
 41
0.9998821494955138
 10
933.24081931400974
 20
-1100.0449638548394
 30
0.0
 41
1.0
 10
933.15589293819244
 20
-1100.1041820849193
 30
0.0
 41
0.9997976482744052
 10
933.07341730778421
 20
-1100.1667684929648
 30
0.0
 41
1.0
 10
933.05878104298381
 20
-1100.1778751827412
 30
0.0
 41
1.0
 10
933.04414477818352
 20
-1100.1889818725176
 30
0.0
 41
1.0
 10
932.93239661817063
 20
-1100.2737816601186
 30
0.0
 41
0.9998091630799529
 10
932.82404634014642
 20
-1100.362882010817
 30
0.0
 41
1.0
 10
932.81104058766709
 20
-1100.3735771112647
 30
0.0
 41
1.0
 10
932.79803483518776
 20
-1100.3842722117124
 30
0.0
 41
1.0
 10
932.66367305220513
 20
-1100.4947627633064
 30
0.0
 41
0.9995035112317073
 10
932.53653717444104
 20
-1100.6134965803217
 30
0.0
 41
1.0
 10
932.52688986405417
 20
-1100.6225063264792
 30
0.0
 41
1.0
 10
932.5172425536673
 20
-1100.6315160726367
 30
0.0
 41
1.0
 10
932.39381949090239
 20
-1100.7467824443925
 30
0.0
 41
0.9994630424299369
 10
932.2782110851183
 20
-1100.8698851876277
 30
0.0
 41
1.0
 10
932.2745282463477
 20
-1100.8738067671397
 30
0.0
 41
1.0
 10
932.27084540757721
 20
-1100.8777283466518
 30
0.0
 41
1.0
 10
932.16260267933535
 20
-1100.9929879308615
 30
0.0
 41
0.9995160693749906
 10
932.06173664980236
 20
-1101.1147553487353
 30
0.0
 41
1.0
 10
932.05980292972504
 20
-1101.1170897729394
 30
0.0
 41
1.0
 10
932.05786920964772
 20
-1101.1194241971434
 30
0.0
 41
1.0
 10
931.96087062027323
 20
-1101.2365227666046
 30
0.0
 41
0.9996561470514556
 10
931.87014440160453
 20
-1101.3585455290572
 30
0.0
 41
1.0
 10
931.86398673570034
 20
-1101.3668273181024
 30
0.0
 41
1.0
 10
931.85782906979614
 20
-1101.3751091071479
 30
0.0
 41
1.0
 10
931.77941818293448
 20
-1101.4805682915121
 30
0.0
 41
0.99983490551725
 10
931.70489090100637
 20
-1101.5888068751697
 30
0.0
 41
1.0
 10
931.63036361907075
 20
-1101.6970454588386
 30
0.0
 41
0.9999728109573848
 10
931.557440723166
 20
-1101.8063713843856
 30
0.0
 41
1.0
 10
931.55612550775322
 20
-1101.8083431538894
 30
0.0
 41
1.0
 10
931.55481029234056
 20
-1101.8103149233934
 30
0.0
 41
1.0
 10
931.47925696561629
 20
-1101.9235843879399
 30
0.0
 41
0.9999972147395209
 10
931.40423915525093
 20
-1102.0372092307621
 30
0.0
 41
1.0
 10
931.3992676126195
 20
-1102.044739319248
 30
0.0
 41
1.0
 10
931.39429606998817
 20
-1102.052269407734
 30
0.0
 41
1.0
 10
931.30933517437552
 20
-1102.1809544275052
 30
0.0
 41
0.9999371979007919
 10
931.22727982497349
 20
-1102.3115113412787
 30
0.0
 41
1.0
 10
931.22377094060732
 20
-1102.3170942693507
 30
0.0
 41
1.0
 10
931.22026205624115
 20
-1102.3226771974228
 30
0.0
 41
1.0
 10
931.13118893811179
 20
-1102.4643999673326
 30
0.0
 41
0.9998272025611418
 10
931.0474455472314
 20
-1102.6093358440721
 30
0.0
 41
1.0
 10
931.03223037520684
 20
-1102.6356689585295
 30
0.0
 41
1.0
 10
931.01701520318238
 20
-1102.662002072987
 30
0.0
 41
1.0
 10
930.90284146825195
 20
-1102.8596041786436
 30
0.0
 41
0.9995217214838064
 10
930.80110177869619
 20
-1103.0638865065059
 30
0.0
 41
1.0
 10
930.79345821606103
 20
-1103.079233956209
 30
0.0
 41
1.0
 10
930.78581465342586
 20
-1103.0945814059123
 30
0.0
 41
1.0
 10
930.69890936083664
 20
-1103.2690778639926
 30
0.0
 41
0.9998269762607343
 10
930.6185548945648
 20
-1103.4466861507158
 30
0.0
 41
1.0
 10
930.53820042829329
 20
-1103.6242944374376
 30
0.0
 41
0.9998944747386324
 10
930.46303963372668
 20
-1103.8041621630719
 30
0.0
 41
1.0
 10
930.45808596413485
 20
-1103.8160168179911
 30
0.0
 41
1.0
 10
930.45313229454291
 20
-1103.8278714729101
 30
0.0
 41
1.0
 10
930.37248523399148
 20
-1104.0208684129252
 30
0.0
 41
0.999950673441408
 10
930.29568770508899
 20
-1104.2154292177788
 30
0.0
 41
1.0
 10
930.28108773981705
 20
-1104.2524171395876
 30
0.0
 41
1.0
 10
930.26648777454511
 20
-1104.2894050613961
 30
0.0
 41
1.0
 10
930.21889017618196
 20
-1104.4099900226433
 30
0.0
 41
0.9999912393922585
 10
930.17230373216285
 20
-1104.5309692253306
 30
0.0
 41
1.0
 10
930.12571728813487
 20
-1104.6519484280411
 30
0.0
 41
0.9999927113965598
 10
930.0800559937453
 20
-1104.773279835531
 30
0.0
 41
1.0
 10
930.066087562348
 20
-1104.8103968175287
 30
0.0
 41
1.0
 10
930.05211913095081
 20
-1104.8475137995263
 30
0.0
 41
1.0
 10
929.97852097376051
 20
-1105.0430791710276
 30
0.0
 41
0.9999487550947976
 10
929.90889734878874
 20
-1105.2400945362106
 30
0.0
 41
1.0
 10
929.88530373885487
 20
-1105.3068578464949
 30
0.0
 41
1.0
 10
929.861710128921
 20
-1105.3736211567791
 30
0.0
 41
1.0
 10
929.7670244945482
 20
-1105.6415549916105
 30
0.0
 41
0.9999808436942207
 10
929.67566290590366
 20
-1105.9106404228835
 30
0.0
 41
1.0
 10
929.58430131726232
 20
-1106.1797258541478
 30
0.0
 41
0.9999873932890966
 10
929.49564660854458
 20
-1106.4497152091601
 30
0.0
 41
1.0
 10
929.47555425167502
 20
-1106.5109045419135
 30
0.0
 41
1.0
 10
929.45546189480547
 20
-1106.5720938746672
 30
0.0
 41
1.0
 10
929.32662247234657
 20
-1106.964461895192
 30
0.0
 41
0.9999794883020002
 10
929.20281968738527
 20
-1107.3584481014807
 30
0.0
 41
1.0
 10
929.19166742795028
 20
-1107.3939387117098
 30
0.0
 41
1.0
 10
929.1805151685154
 20
-1107.4294293219389
 30
0.0
 41
1.0
 10
929.03795700461239
 20
-1107.8831020740424
 30
0.0
 41
0.9999982761701056
 10
928.89708456460289
 20
-1108.3373010961475
 30
0.0
 41
1.0
 10
927.30894423203029
 20
-1113.3860708271509
 30
0.0
 41
1.0
 10
925.72080389945768
 20
-1118.4348405581541
 30
0.0
 41
1.0
 10
924.77205328798129
 20
-1118.4348405581541
 30
0.0
 41
1.0
 10
923.82330267650491
 20
-1118.4348405581541
 30
0.0
 41
1.0
 10
927.06158716265804
 20
-1108.1075183582079
 30
0.0
 41
1.0
 10
930.29987164881129
 20
-1097.7801961582618
 30
0.0
 41
1.0
  0
LWPOLYLINE
  5
6F
100
AcDbEntity
  8
0
370
              15
390
0
  6
Continuous
 62
               7
100
AcDbPolyline
 90
      232
 70
             128
 10
904.59632587498425
 20
-1098.864538989777
 42
0.0004370800691959
 10
904.54344870091234
 20
-1098.933205629033
 10
904.50416446978477
 20
-1098.9843127419299
 42
0.003048199217171
 10
904.37382575268362
 20
-1099.1560344342502
 10
904.33531408091517
 20
-1099.2074212180621
 42
0.0042058245764033
 10
904.131329030232
 20
-1099.4844269631542
 10
904.07892390774464
 20
-1099.5568598099167
 42
0.0120948898744094
 10
903.78287999098211
 20
-1099.9876094144672
 10
903.68668749186156
 20
-1100.1350901496899
 42
0.0141601263947062
 10
903.38304344493929
 20
-1100.6307594864259
 10
903.34350617750772
 20
-1100.6996034538672
 42
0.007113108130372
 10
903.13823385427486
 20
-1101.0691062526957
 42
0.0068458791003417
 10
902.9433543274306
 20
-1101.4441978161742
 10
902.93654246497408
 20
-1101.4577595298956
 42
0.0064120880289223
 10
902.73840021493447
 20
-1101.8651840048044
 10
902.73086552941277
 20
-1101.8811958615356
 42
0.0058857236448259
 10
902.52811013754138
 20
-1102.3255719725701
 10
902.51993521124712
 20
-1102.3440621262046
 42
0.0053189741896757
 10
902.31123089858136
 20
-1102.8300256001182
 10
902.30248309289823
 20
-1102.8510074783185
 42
0.0047503650417849
 10
902.08650936674803
 20
-1103.3832069115267
 10
902.07724111839934
 20
-1103.406683287636
 42
0.0042071762169229
 10
901.85269373467156
 20
-1103.9897768817061
 10
901.84294433232299
 20
-1104.0157430565755
 42
0.003668008648511
 10
901.60848968901075
 20
-1104.6543784411076
 10
901.59828190916312
 20
-1104.6828269754515
 42
0.0032573142627999
 10
901.35264962319297
 20
-1105.3816796352148
 10
901.28399910235282
 20
-1105.5811427192664
 42
0.0026133366650121
 10
900.93555390359779
 20
-1106.6110060029296
 10
900.87229711609712
 20
-1106.8012368383224
 42
0.0020592950739362
 10
900.65843404712996
 20
-1107.4533404909357
 10
900.65538225597163
 20
-1107.4627769793306
 42
0.0025609928533873
 10
900.45356175448103
 20
-1108.0979222017113
 10
900.45097038735128
 20
-1108.1062245426617
 42
0.0031362356242951
 10
900.26147960167737
 20
-1108.7269873988314
 10
900.25934855875028
 20
-1108.7341287050415
 42
0.0037229918030943
 10
900.08254817182365
 20
-1109.3431140070165
 10
900.08086958261606
 20
-1109.3490608971952
 42
0.0043077623707331
 10
899.91712878055216
 20
-1109.9488796289602
 42
0.0047654161821928
 10
899.76430005803581
 20
-1110.5515657178635
 10
899.72983544919703
 20
-1110.693127495012
 42
0.0112969368443174
 10
899.53397109105424
 20
-1111.5848196556326
 10
899.50596470195683
 20
-1111.7276477017342
 42
0.0130056762570148
 10
899.30512745831015
 20
-1112.9145887733791
 10
899.28458770816292
 20
-1113.0586668868577
 42
0.0138721532145176
 10
899.18088470362522
 20
-1113.9654963726819
 10
899.16158921571719
 20
-1114.1889940946089
 42
0.0071254697009206
 10
899.12824256979479
 20
-1114.652181103454
 10
899.12328159563219
 20
-1114.7381850980018
 42
0.0028881799202236
 10
899.10814330234166
 20
-1115.029926807857
 42
0.0060297297130646
 10
899.09821110256632
 20
-1115.3218757439606
 10
899.09714882089895
 20
-1115.3702681159059
 42
0.0229523164157418
 10
899.10487984868473
 20
-1115.6930229621885
 10
899.10910562220511
 20
-1115.7534264962039
 42
0.0123673300666928
 10
899.12818426872343
 20
-1115.9545472213795
 42
0.0128577674467638
 10
899.15737965912933
 20
-1116.1544450713038
 10
899.16450553251673
 20
-1116.1957738859032
 42
0.0285717853759638
 10
899.22899953421188
 20
-1116.4738900372145
 10
899.24266805787886
 20
-1116.5205448066936
 42
0.0316283099153373
 10
899.35847863779304
 20
-1116.8395593085195
 10
899.36152732954861
 20
-1116.8465456808451
 42
0.0338984824234845
 10
899.51095904051579
 20
-1117.1341116450342
 10
899.51326776988617
 20
-1117.1379026743109
 42
0.0350228718351254
 10
899.69562806055922
 20
-1117.394954658987
 10
899.6965133123341
 20
-1117.396033736751
 42
0.0347476747530243
 10
899.91093799957434
 20
-1117.623218783971
 42
0.0331337701909162
 10
900.15418132532091
 20
-1117.8193474460488
 10
900.15528142383687
 20
-1117.8201201492211
 42
0.0305233319079248
 10
900.42382611941002
 20
-1117.9852483193122
 10
900.4270561639114
 20
-1117.9869723311749
 42
0.0273744481157507
 10
900.71960987548698
 20
-1118.1231104750659
 10
900.72471441062328
 20
-1118.1251540595351
 42
0.0240964406196282
 10
901.04019148626878
 20
-1118.2341377858163
 10
901.04677481547901
 20
-1118.2360625254914
 42
0.0209636179812975
 10
901.38417496813292
 20
-1118.319530673424
 10
901.39180742858025
 20
-1118.3210825864251
 42
0.0181388704693399
 10
901.75012982057876
 20
-1118.380498679639
 10
901.75841066895691
 20
-1118.3815648634561
 42
0.0156086547584653
 10
902.13659803314215
 20
-1118.4183010500326
 10
902.17979328547915
 20
-1118.4211395525122
 42
0.0137148329026488
 10
902.50746643077161
 20
-1118.433659807763
 10
902.55340262071343
 20
-1118.4341542408781
 42
0.0051057823887155
 10
902.78954820728984
 20
-1118.4342844952876
 42
0.0052256693311738
 10
903.02564549107444
 20
-1118.429535670823
 10
903.09587227481791
 20
-1118.4273887048091
 42
0.0161507179048104
 10
903.47160935291924
 20
-1118.4037383344826
 10
903.49162231329228
 20
-1118.401828139195
 42
0.0101216737832719
 10
903.90564953478167
 20
-1118.3538352088297
 10
903.93970282420969
 20
-1118.3491875120199
 42
0.0245291776397457
 10
904.41649247975909
 20
-1118.260112433944
 10
904.50131579528295
 20
-1118.2399165135982
 42
0.014350921255892
 10
904.85794689922443
 20
-1118.1441118798189
 42
0.0156557857041937
 10
905.20816296395094
 20
-1118.0271006640003
 10
905.21566417844633
 20
-1118.0243305022459
 42
0.0170137333631318
 10
905.57226017412859
 20
-1117.8786728873745
 10
905.57936409653519
 20
-1117.8754850518112
 42
0.0183105364409703
 10
905.93871376470281
 20
-1117.6981500099862
 10
905.94566052934022
 20
-1117.6943995751149
 42
0.0194899958149863
 10
906.30414127032441
 20
-1117.4824205932239
 10
906.31115514966086
 20
-1117.4778952509291
 42
0.0204869852950445
 10
906.66516945175624
 20
-1117.2283752358421
 10
906.67243506034185
 20
-1117.2227951704949
 42
0.0212516938555694
 10
907.01842499145016
 20
-1116.9328911736
 10
907.0649416855241
 20
-1116.890423863508
 42
0.0215248918250838
 10
907.32496785441322
 20
-1116.6316595845119
 10
907.36999758878915
 20
-1116.5828154631672
 42
0.0114578554953019
 10
907.52478974247106
 20
-1116.406992529704
 10
907.53598427844099
 20
-1116.3936737661784
 42
0.0061531305117666
 10
907.66245892445215
 20
-1116.2393842328529
 42
0.0006325587120629
 10
907.78683740858332
 20
-1116.0833808572029
 10
907.80987754365538
 20
-1116.0544073365177
 42
0.0041897761554223
 10
907.97833294762052
 20
-1115.8388879604656
 10
908.0367950675203
 20
-1115.7627866134708
 42
0.0092993880039111
 10
908.31340699474765
 20
-1115.3885078495816
 10
908.39580148794039
 20
-1115.2725708460216
 42
0.0159321727087909
 10
908.7424079705853
 20
-1114.7503966252621
 10
908.7867641059712
 20
-1114.6787170610171
 42
0.0085547317020393
 10
909.02127587130008
 20
-1114.2848421117874
 42
0.0084601156889796
 10
909.24225204874233
 20
-1113.8832152627551
 10
909.25036752257256
 20
-1113.8678555804822
 42
0.0081429654285291
 10
909.47361679301139
 20
-1113.4281340679388
 10
909.48247695719408
 20
-1113.4099552259222
 42
0.0076574581328677
 10
909.70888446776098
 20
-1112.9267723506684
 10
909.71836410848448
 20
-1112.9057078723658
 42
0.0070682724199216
 10
909.94880901629006
 20
-1112.3736705675879
 10
909.95879930027297
 20
-1112.3496813785732
 42
0.0064559514449726
 10
910.19413250845673
 20
-1111.7633691120486
 10
910.20454186661959
 20
-1111.7364341866119
 42
0.0058311413906422
 10
910.44558860337986
 20
-1111.0904020922355
 10
910.45634368076992
 20
-1111.0605177510679
 42
0.0052312425819601
 10
910.70392495881345
 20
-1110.3493153372251
 10
910.71496879519054
 20
-1110.3164886251634
 42
0.0046680544797109
 10
910.96989722292221
 20
-1109.5346623094176
 10
911.0118893729682
 20
-1109.401679072118
 42
0.0041666856444191
 10
911.21517538536364
 20
-1108.7387102971111
 10
911.25283782602673
 20
-1108.6121291894597
 42
0.0015170975158235
 10
911.37402440444043
 20
-1108.2002608379637
 42
-0.0004887993109788
 10
911.49436417760501
 20
-1107.7881424257801
 10
911.57084143505858
 20
-1107.5271850399806
 42
0.0002583378927851
 10
911.84405600512878
 20
-1106.5931283367815
 10
911.92582885467425
 20
-1106.3130290773051
 42
0.0006636169672048
 10
912.11969661471085
 20
-1105.6456761536315
 10
912.12479326907146
 20
-1105.6280445707046
 42
0.001058913132359
 10
912.30624196997451
 20
-1104.9953132277026
 10
912.31122404044811
 20
-1104.9778003207068
 42
0.0015655524461306
 10
912.47949424763783
 20
-1104.3791836414816
 10
912.48432444805621
 20
-1104.3617914825336
 42
0.0021640440476036
 10
912.63861442003872
 20
-1103.7967644645278
 10
912.64324863947218
 20
-1103.7794997345209
 42
0.0028763871852605
 10
912.78276435752173
 20
-1103.2475317836868
 10
912.78715022168842
 20
-1103.2304078055345
 42
0.0037310511946031
 10
912.91110691352583
 20
-1102.7309602115083
 10
912.91518213381289
 20
-1102.7139999402709
 42
0.0047652197767401
 10
913.02280603432325
 20
-1102.2465221719578
 10
913.02649663364798
 20
-1102.2297626168015
 42
0.0060276699306858
 10
913.11702673280024
 20
-1101.7936868216636
 10
913.12024542308689
 20
-1101.7771856073675
 42
0.0075824337756304
 10
913.19293473250491
 20
-1101.3719184429283
 10
913.19558010988442
 20
-1101.3557634954827
 42
0.0095130624608129
 10
913.24969534551633
 20
-1100.9806741424059
 10
913.25668156939889
 20
-1100.9247405842891
 42
0.0121054653233911
 10
913.28327289997685
 20
-1100.6598447558156
 10
913.28413938973688
 20
-1100.6484413128792
 42
0.0069050827395746
 10
913.29922820777415
 20
-1100.4055000860421
 10
913.30036350744228
 20
-1100.3819738290047
 42
0.016906397669626
 10
913.30319078642287
 20
-1100.1857811016966
 10
913.30202013489202
 20
-1100.1254453403637
 42
0.0052007732885467
 10
913.29976668629865
 20
-1100.0498519501955
 42
0.0054038123292089
 10
913.27980317446122
 20
-1099.9298336541933
 10
913.27471731858941
 20
-1099.9011751676044
 42
0.0112050460458512
 10
913.23933295653046
 20
-1099.7248487292638
 10
913.22150799449014
 20
-1099.6453071425444
 42
0.024076446800975
 10
913.13061062834413
 20
-1099.3150701070438
 10
913.11205186553093
 20
-1099.2584499420504
 42
0.0256812331834053
 10
912.968688945341
 20
-1098.8867257357922
 10
912.96327951951946
 20
-1098.8745944008022
 42
0.0268360501217043
 10
912.79385227866976
 20
-1098.5436012667815
 10
912.78831587103537
 20
-1098.5340815964703
 42
0.0274670231731511
 10
912.59611489462145
 20
-1098.241794221552
 10
912.59073359465879
 20
-1098.2345150740107
 42
0.0275035967101781
 10
912.37916071509699
 20
-1097.9789991837065
 10
912.37409121413066
 20
-1097.9735200960763
 42
0.0269557673526001
 10
912.14668767069088
 20
-1097.7528778101137
 10
912.14194461290776
 20
-1097.7487478556525
 42
0.0259124802208897
 10
911.9023897814775
 20
-1097.5610573285007
 10
911.89785893629505
 20
-1097.55787182617
 42
0.0245162153003859
 10
911.64994258320075
 20
-1097.4011388170597
 10
911.64541603687599
 20
-1097.3985786198587
 42
0.0229282588838199
 10
911.39299648004919
 20
-1097.27071042736
 10
911.38821598621178
 20
-1097.2685581275978
 42
0.0212984135693725
 10
911.13517803375066
 20
-1097.1673592103557
 10
911.12987374878207
 20
-1097.1654956475961
 42
0.0197555462340833
 10
910.88009541105816
 20
-1097.0886802296309
 42
0.0183511896788373
 10
910.62516668559488
 20
-1097.0310973226656
 10
910.53880148887231
 20
-1097.0148945322806
 42
0.0338057877150354
 10
910.25329413961174
 20
-1096.9810861271403
 10
910.16228873457555
 20
-1096.976506471879
 42
0.0091990524488461
 10
910.0564416259358
 20
-1096.9731306159567
 42
0.002833398077736
 10
909.9505277099438
 20
-1096.97230250844
 10
909.94961225689349
 20
-1096.9723005386159
 42
-0.0023619827812208
 10
909.84186624179131
 20
-1096.9715596975375
 10
909.80546107161172
 20
-1096.9711373910745
 42
0.0008824598485298
 10
909.62490508169446
 20
-1096.9693616128357
 10
909.58104364935593
 20
-1096.9690076513107
 42
0.003813266576811
 10
909.31276075349149
 20
-1096.9688887152438
 10
909.29622709868363
 20
-1096.9690074813875
 42
0.0060665569335522
 10
908.9949466070974
 20
-1096.9748277808083
 10
908.98069627506698
 20
-1096.9752760887759
 42
0.0080356953336912
 10
908.65123755872389
 20
-1096.990943810843
 10
908.6391675436405
 20
-1096.9917123937832
 42
0.0098996399105945
 10
908.28640445898736
 20
-1097.0211976229816
 10
908.27635874961493
 20
-1097.0222379191796
 42
0.0117740981366489
 10
907.90520189126732
 20
-1097.0695301667092
 10
907.89697919478363
 20
-1097.0707752832802
 42
0.0137435215135065
 10
907.51239037529808
 20
-1097.139872256842
 10
907.50573333617513
 20
-1097.1412581530753
 42
0.015835986938262
 10
907.11273624237356
 20
-1097.2361502415558
 10
907.1073230555055
 20
-1097.2376401824267
 42
0.018055412402713
 10
906.71100801089335
 20
-1097.3622781986653
 10
906.70645122280973
 20
-1097.3638942349316
 42
0.0203657431282945
 10
906.3119737049991
 20
-1097.5221545764473
 10
906.30783016599105
 20
-1097.5240161978895
 42
0.022681968465513
 10
905.92039410978794
 20
-1097.71965877656
 10
905.91619431876927
 20
-1097.7220243684801
 42
0.0248634984606092
 10
905.5410123775888
 20
-1097.958651014427
 10
905.49281744880352
 20
-1097.9925080562537
 42
0.0267044190885524
 10
905.21852475188757
 20
-1098.2079484321212
 42
0.0139303002197481
 10
904.9623575859506
 20
-1098.4451872730315
 10
904.95750420022785
 20
-1098.4499399358933
 42
0.0283460963442526
 10
904.71343160599974
 20
-1098.7176705963395
 10
904.6737631008441
 20
-1098.7664721738115
 42
0.0070695364826285
 10
904.59632587498425
 20
-1098.864538989777
 42
0.0070695364826285
  0
LWPOLYLINE
  5
70
100
AcDbEntity
  8
0
370
              15
390
0
  6
Continuous
 62
               7
100
AcDbPolyline
 90
      226
 70
             128
 10
901.06750543773785
 20
-1114.5861277959609
 42
-0.0026277636595095
 10
901.06742755393793
 20
-1114.5193558701526
 10
901.06764491216984
 20
-1114.4662006527747
 42
-0.008868029673182
 10
901.07142152846291
 20
-1114.2931848703713
 10
901.07376788757529
 20
-1114.233904844918
 42
-0.0077381705617092
 10
901.08981399833817
 20
-1113.9426443491236
 10
901.09068190951155
 20
-1113.9303561154347
 42
-0.006887253053131
 10
901.11731398925883
 20
-1113.6151343633753
 10
901.11851821344578
 20
-1113.6028933843472
 42
-0.0062130021484136
 10
901.15611193027439
 20
-1113.264023693102
 10
901.15761583380868
 20
-1113.2518498211921
 42
-0.005672692966261
 10
901.20653769331216
 20
-1112.8896545990704
 10
901.20831113895542
 20
-1112.8775607988332
 42
-0.0052341884491334
 10
901.26892172521434
 20
-1112.4923675433215
 10
901.27093971399199
 20
-1112.480362613323
 42
-0.0049768450170836
 10
901.3436783954179
 20
-1112.0725180458935
 10
901.36792741014017
 20
-1111.9439700628845
 42
-0.0089029805624003
 10
901.5050082619357
 20
-1111.2821946154586
 10
901.53775363725345
 20
-1111.1371631849386
 42
-0.0080318257100647
 10
901.76730225159565
 20
-1110.1914535530791
 10
901.77928717804241
 20
-1110.1453229178946
 42
-0.0074265721319319
 10
902.06329871689195
 20
-1109.1152583395158
 10
902.08317826000621
 20
-1109.0471242789349
 42
-0.00697119227034
 10
902.41048283851569
 20
-1107.980856538597
 10
902.47043478562171
 20
-1107.7948351802249
 42
-0.005207042289633
 10
902.69986001088046
 20
-1107.1075631031949
 10
902.71714120305626
 20
-1107.0575358225676
 42
-0.0009167004448166
 10
902.92023309034221
 20
-1106.4730799744239
 42
-0.0025162726947047
 10
903.12733072059621
 20
-1105.8900387102849
 10
903.16455533241003
 20
-1105.7868891643559
 42
-0.0028212681457016
 10
903.41273125137332
 20
-1105.1111585321846
 10
903.42256201412999
 20
-1105.0848510874916
 42
-0.00319649168192
 10
903.65885427178625
 20
-1104.464646325381
 10
903.66848872578657
 20
-1104.4398363352341
 42
-0.0036281836450875
 10
903.89359468688644
 20
-1103.8723956543445
 10
903.90303309704564
 20
-1103.8490982228375
 42
-0.0041269166833236
 10
904.11765079370309
 20
-1103.3316573268635
 10
904.15028375012298
 20
-1103.2547788805043
 42
-0.004747221305617
 10
904.30732855567749
 20
-1102.894357412619
 10
904.31422263688773
 20
-1102.8789368152825
 42
-0.0025651659996072
 10
904.46258067073586
 20
-1102.5516087595386
 42
-0.0057144634997853
 10
904.61633036450633
 20
-1102.2267990861776
 10
904.6443610699049
 20
-1102.1692907037891
 42
-0.0065388068375537
 10
904.82782809764819
 20
-1101.8050582071169
 10
904.83628655342488
 20
-1101.7887986277508
 42
-0.0074510843021667
 10
905.01246879930454
 20
-1101.4621103466247
 10
905.02064846983785
 20
-1101.4474695693518
 42
-0.0084648979862929
 10
905.19028232293567
 20
-1101.1555605583947
 10
905.19813844941734
 20
-1101.1425535667545
 42
-0.0095638542813491
 10
905.36197389701795
 20
-1100.8826646947653
 10
905.36944884069146
 20
-1100.8712953333072
 42
-0.0107191626802504
 10
905.52825042107725
 20
-1100.6406840987656
 10
905.53526715480757
 20
-1100.6309480064019
 42
-0.0118458573901384
 10
905.68981525332083
 20
-1100.4268758110904
 42
-0.0129184518193446
 10
905.85426787692177
 20
-1100.2307152949209
 10
905.88441264928747
 20
-1100.1965892160183
 42
-0.02177425796298
 10
906.06102497162078
 20
-1100.0133824457703
 10
906.0717705160755
 20
-1100.0031656125727
 42
-0.0097266568651055
 10
906.23782813493699
 20
-1099.8513180381301
 42
-0.0187720905728109
 10
906.41217571082154
 20
-1099.7092491847447
 10
906.44288170149798
 20
-1099.6860901023467
 42
-0.017942820752072
 10
906.67530242149678
 20
-1099.5235379252331
 10
906.67895474841396
 20
-1099.5211739903446
 42
-0.0170047877699502
 10
906.91471838594293
 20
-1099.379713476194
 10
906.91850137469214
 20
-1099.3776151711561
 42
-0.0160190788367999
 10
907.15540992232479
 20
-1099.2559638691696
 42
-0.0151102861496382
 10
907.39944170477122
 20
-1099.149281093115
 10
907.45182820698324
 20
-1099.1282409602202
 42
-0.0271945441887305
 10
907.81049076604165
 20
-1099.0063761495142
 10
907.87955556653117
 20
-1098.9870266082476
 42
-0.0237596594021696
 10
908.29535241355211
 20
-1098.8915758962662
 10
908.36341526728256
 20
-1098.8793212081396
 42
-0.0213715440554746
 10
908.64929019872784
 20
-1098.8403741766297
 10
908.70943736494155
 20
-1098.8347844619291
 42
-0.010146565581566
 10
908.87692989693994
 20
-1098.8226409186645
 10
908.88627028313556
 20
-1098.8221540036675
 42
-0.0100375910879903
 10
909.03542438370073
 20
-1098.8173781857422
 10
909.04568365337718
 20
-1098.8172557467278
 42
-0.0103625633384416
 10
909.17439164803591
 20
-1098.8183871802544
 10
909.19665729930318
 20
-1098.8190445387193
 42
-0.0115689250225718
 10
909.28070803683079
 20
-1098.8234740449643
 42
-0.0072438037433685
 10
909.36454631627089
 20
-1098.831063244714
 10
909.38134682574275
 20
-1098.832829787438
 42
-0.0217917313138267
 10
909.49791658905701
 20
-1098.8502496801593
 10
909.56351667962645
 20
-1098.8629962885741
 42
-0.0332943556749213
 10
909.7679088446514
 20
-1098.9170365798805
 10
909.79808141320382
 20
-1098.9272046569997
 42
-0.0184824084788148
 10
909.93658646966696
 20
-1098.9796556723854
 42
-0.0198002050689465
 10
910.07066081016615
 20
-1099.0425397325848
 10
910.07254744754323
 20
-1099.0435175194648
 42
-0.0212242342982324
 10
910.20468638994589
 20
-1099.1192802582584
 10
910.20650168548855
 20
-1099.1204260604663
 42
-0.0226090605805313
 10
910.33500558671074
 20
-1099.2099057040311
 10
910.33685002844777
 20
-1099.2113179570183
 42
-0.0238457052245872
 10
910.4600321097405
 20
-1099.3153138528805
 10
910.46198483829971
 20
-1099.3171287306468
 42
-0.0248160564157572
 10
910.57818634559987
 20
-1099.436403331855
 10
910.58028997900237
 20
-1099.43878866556
 42
-0.0254109591459934
 10
910.68789519686845
 20
-1099.5740770515245
 10
910.6901432187824
 20
-1099.5772185999249
 42
-0.0255528488285827
 10
910.78758989758001
 20
-1099.7292456541597
 10
910.78992099749576
 20
-1099.7333272657665
 42
-0.0252146793219262
 10
910.87570202350503
 20
-1099.9028295117641
 10
910.87800426266244
 20
-1099.9080115936765
 42
-0.0244265635947783
 10
910.95065895642415
 20
-1100.0957581657235
 10
910.95990535789269
 20
-1100.123623584062
 42
-0.0231319612902914
 10
911.00582813688436
 20
-1100.2869246308626
 42
-0.0112130424358419
 10
911.04046415942298
 20
-1100.4531282310525
 10
911.04166668453513
 20
-1100.4596248179387
 42
-0.0210527881241506
 10
911.06735315990591
 20
-1100.6406804633802
 10
911.07086375472772
 20
-1100.6760860119271
 42
-0.0190029892425786
 10
911.08630522827229
 20
-1100.929621858196
 10
911.08711520471638
 20
-1100.9650974725682
 42
-0.0137974553662238
 10
911.08556635188097
 20
-1101.2901288792982
 10
911.08472089692555
 20
-1101.3162476238861
 42
-0.0081336634217735
 10
911.06986156170274
 20
-1101.6215950914939
 42
-0.0073526923576567
 10
911.0455530283283
 20
-1101.9263433357778
 10
911.04429160454538
 20
-1101.939680010445
 42
-0.0066886138696342
 10
911.00855601850117
 20
-1102.2702660539235
 10
911.00689892902892
 20
-1102.2838876729338
 42
-0.0061359187361557
 10
910.95904832698011
 20
-1102.6406516530194
 10
910.95701082590517
 20
-1102.6545464558631
 42
-0.0056698610059973
 10
910.89636049513717
 20
-1103.037825024707
 10
910.89395506181518
 20
-1103.0519841439318
 42
-0.0052721077271153
 10
910.81982286101743
 20
-1103.4621114835998
 10
910.81705971217377
 20
-1103.4765281189957
 42
-0.0049289272177728
 10
910.72876559407416
 20
-1103.9138366301161
 10
910.72565309939114
 20
-1103.9285054829338
 42
-0.004741595671182
 10
910.62241510785884
 20
-1104.3933022403444
 10
910.5876468974991
 20
-1104.5431093357276
 42
-0.0084404470905304
 10
910.39763045392795
 20
-1105.3033333602561
 10
910.39150376594159
 20
-1105.3261974844122
 42
-0.0039635940257047
 10
910.17005008165768
 20
-1106.1271863486593
 10
910.15667328647805
 20
-1106.1741179652513
 42
-0.0072475040837385
 10
909.88922639861846
 20
-1107.0633376816306
 10
909.81901407179146
 20
-1107.2850780316019
 42
-0.0051345458829167
 10
909.5322546997287
 20
-1108.1594032194248
 10
909.51072843295651
 20
-1108.2228294865688
 42
-0.0019150016601091
 10
909.2551950260945
 20
-1108.9663786067808
 10
909.24872742170169
 20
-1108.984966071692
 42
-0.0021524362752881
 10
909.00024937063449
 20
-1109.6892918934104
 10
908.99103894992834
 20
-1109.7150454717391
 42
-0.0024331286818218
 10
908.75478369090206
 20
-1110.3656447798298
 10
908.74573573834994
 20
-1110.3901880861886
 42
-0.0027449721789461
 10
908.52112116751607
 20
-1110.9893179651087
 10
908.51223116013296
 20
-1111.0126405549372
 42
-0.0031083229770231
 10
908.29868867351388
 20
-1111.5625645925406
 10
908.28995254183644
 20
-1111.5846543084031
 42
-0.0035311343283131
 10
908.08691135624645
 20
-1112.0876374341285
 10
908.07832601709913
 20
-1112.108480157638
 42
-0.0040245640948877
 10
907.88521421330438
 20
-1112.5667894802314
 10
907.87677809969796
 20
-1112.5863688483112
 42
-0.0046015135849637
 10
907.69302180653756
 20
-1113.0022738779455
 10
907.6847356287127
 20
-1113.0205710173902
 42
-0.0052768638267054
 10
907.50975810975365
 20
-1113.3963439016679
 10
907.50162589912986
 20
-1113.4133372402046
 42
-0.0060672675646069
 10
907.33484628636074
 20
-1113.7512528633254
 10
907.32687680588197
 20
-1113.7669181223171
 42
-0.0069904648875863
 10
907.16770841187781
 20
-1114.0692539289862
 10
907.15991701226267
 20
-1114.0835644782214
 42
-0.0080637022764263
 10
907.00776515192115
 20
-1114.3525997813667
 10
907.00017611929013
 20
-1114.3655276469672
 42
-0.0093006455662364
 10
906.85443544275836
 20
-1114.6035420454705
 10
906.84708477601657
 20
-1114.6150600146407
 42
-0.0107060778059551
 10
906.7071362325762
 20
-1114.8243303320228
 10
906.70007446429724
 20
-1114.8344158745879
 42
-0.012272311141508
 10
906.56528074609855
 20
-1115.0172092040775
 10
906.56495452253762
 20
-1115.0176295918959
 42
-0.0141836319627482
 10
906.42137291957033
 20
-1115.1921993497167
 10
906.41442516391794
 20
-1115.200174349982
 42
-0.0175957477207174
 10
906.27451899588368
 20
-1115.3497952383864
 42
-0.0080466359680596
 10
906.12705523085583
 20
-1115.4921177665353
 10
906.08102068633605
 20
-1115.5351382046288
 42
-0.0269600260395902
 10
905.82774044035352
 20
-1115.7474614631376
 10
905.76117330405248
 20
-1115.7974128777646
 42
-0.0178362839751624
 10
905.52122881440027
 20
-1115.9644308040142
 10
905.51398384340109
 20
-1115.9690993162183
 42
-0.0174650732652146
 10
905.2776476459585
 20
-1116.1099602811782
 42
-0.0169240130163348
 10
905.03218140009903
 20
-1116.2342525409565
 10
904.98619524454307
 20
-1116.2556144965229
 42
-0.03188830368418
 10
904.63584438892519
 20
-1116.3919528060324
 10
904.56747885375785
 20
-1116.4136534265085
 42
-0.0284435909903825
 10
904.19142872746727
 20
-1116.509870861983
 10
904.15627056696667
 20
-1116.5167644578119
 42
-0.0243909341014117
 10
903.84282710604975
 20
-1116.5624854888417
 10
903.79254637928307
 20
-1116.5673310357431
 42
-0.0196639292930916
 10
903.57695080175131
 20
-1116.5795793212569
 10
903.52512673058823
 20
-1116.5804825819937
 42
-0.0100501510681314
 10
903.41270344892359
 20
-1116.5801821836405
 10
903.38104358754617
 20
-1116.5794611117544
 42
-0.0019752031102575
 10
903.33195125089821
 20
-1116.5781489515457
 10
903.32919094767999
 20
-1116.5780642597194
 42
0.0065378751991828
 10
903.28561437292137
 20
-1116.5772973685043
 42
-0.0167974694687804
 10
903.24208354999348
 20
-1116.5756374699783
 10
903.23800421072747
 20
-1116.5753444590832
 42
-0.0081283276280967
 10
903.18644441298738
 20
-1116.5707974654454
 10
903.17470483911029
 20
-1116.5695695478671
 42
-0.0126703440162243
 10
903.09998654331309
 20
-1116.5598347567952
 10
903.07719867564015
 20
-1116.5562765008804
 42
-0.011785208843839
 10
902.95765968981186
 20
-1116.5347135057241
 10
902.90227923804468
 20
-1116.5233699654887
 42
-0.025177459228981
 10
902.67543519903575
 20
-1116.4648719560555
 10
902.63071600918363
 20
-1116.4509051367197
 42
-0.014652519988295
 10
902.44432302164728
 20
-1116.3866386095224
 42
-0.0166929435854634
 10
902.26234536552101
 20
-1116.3108314764679
 10
902.25768873424749
 20
-1116.3087065758536
 42
-0.0191684358438663
 10
902.07250510299923
 20
-1116.2154704920642
 10
902.06917251724121
 20
-1116.2136292445102
 42
-0.0221181781813434
 10
901.88586221333844
 20
-1116.1014957461391
 10
901.88351240933059
 20
-1116.0999114481485
 42
-0.0254984685387022
 10
901.70722225894519
 20
-1115.9675002981787
 10
901.6847401112434
 20
-1115.9487479892427
 42
-0.029249264880581
 10
901.55997117240031
 20
-1115.8316551895996
 42
-0.0159048957495093
 10
901.44613117495066
 20
-1115.7036351980012
 10
901.44481238437083
 20
-1115.7020535849806
 42
-0.0343813379558462
 10
901.34217512274461
 20
-1115.5601822592109
 10
901.31068359138294
 20
-1115.5096788671158
 42
-0.0369117275698362
 10
901.22479108948653
 20
-1115.3462016261685
 42
-0.0191751379920098
 10
901.1575977039297
 20
-1115.1737970201627
 10
901.15583438017006
 20
-1115.1687036754877
 42
-0.0378178042228349
 10
901.10603966138569
 20
-1114.9797628994058
 10
901.10004436565589
 20
-1114.9472022812117
 42
-0.0184846046476622
 10
901.07932716636105
 20
-1114.8054494606645
 42
-0.0179866351323981
 10
901.06899416128738
 20
-1114.6625586475814
 10
901.06893771884165
 20
-1114.6610009609708
 42
-0.0085497186109164
 10
901.06750543773785
 20
-1114.5861277959609
 42
-0.0085497186109164
  0
ENDBLK
  5
71
100
AcDbEntity
  8
template
390
0
100
AcDbBlockEnd
  0
BLOCK
  5
72
100
AcDbEntity
  8
notes
390
0
100
AcDbBlockBegin
  2
*D3
 70
               1
 10
0.0
 20
0.0
 30
0.0
  3
*D3
  1

  0
LINE
  5
73
100
AcDbEntity
  8
0
370
              -2
390
0
  6
Continuous
 62
               0
100
AcDbLine
 10
-622.09354624283219
 20
-951.7857063934664
 30
0.0
 11
-752.09354624283219
 21
-951.7857063934664
 31
0.0
  0
LINE
  5
74
100
AcDbEntity
  8
0
370
              -2
390
0
  6
Continuous
 62
               0
100
AcDbLine
 10
-622.09354624283219
 20
98.214293606533602
 30
0.0
 11
-752.09354624283219
 21
98.214293606533602
 31
0.0
  0
LINE
  5
75
100
AcDbEntity
  8
0
370
              -2
390
0
  6
Continuous
 62
               0
100
AcDbLine
 10
-752.09354624283219
 20
-951.7857063934664
 30
0.0
 11
-752.09354624283219
 21
98.214293606533602
 31
0.0
  0
CIRCLE
  5
76
102
{ACAD_REACTORS
330
77
102
}
100
AcDbEntity
  8
0
370
              -2
390
0
  6
Continuous
 62
               0
100
AcDbCircle
 10
-752.09354624283219
 20
-951.7857063934664
 30
0.0
 40
1.9998779296875
  0
HATCH
  5
77
100
AcDbEntity
  8
0
370
              -2
390
0
  6
Continuous
 62
               0
100
AcDbHatch
 10
0.0
 20
0.0
 30
0.0
210
0.0
220
0.0
230
1.0
  2
SOLID
 70
               1
 71
               1
 91
        1
 92
        1
 93
        1
 72
               2
 10
-752.09354624283219
 20
-951.7857063934664
 40
1.9998779296875
 50
0.0
 51
360.0
 73
               0
 97
        1
330
76
 75
               0
 76
               1
 98
        1
 10
0.0
 20
0.0
  0
CIRCLE
  5
78
102
{ACAD_REACTORS
330
79
102
}
100
AcDbEntity
  8
0
370
              -2
390
0
  6
Continuous
 62
               0
100
AcDbCircle
 10
-752.09354624283219
 20
98.214293606533602
 30
0.0
 40
1.9998779296875
  0
HATCH
  5
79
100
AcDbEntity
  8
0
370
              -2
390
0
  6
Continuous
 62
               0
100
AcDbHatch
 10
0.0
 20
0.0
 30
0.0
210
0.0
220
0.0
230
1.0
  2
SOLID
 70
               1
 71
               1
 91
        1
 92
        1
 93
        1
 72
               2
 10
-752.09354624283219
 20
98.214293606533602
 40
1.9998779296875
 50
0.0
 51
360.0
 73
               0
 97
        1
330
78
 75
               0
 76
               1
 98
        1
 10
0.0
 20
0.0
  0
MTEXT
  5
7A
100
AcDbEntity
  8
0
390
0
 62
               0
100
AcDbMText
 10
-785.97116343033224
 20
-458.5357063934664
 30
0.0
 40
24.432617187500004
 41
0.0
 71
               1
 72
               1
  1
1050
  7
ＭＳ ゴシック
 11
0.0
 21
1.0
 31
0.0
 73
               1
 44
0.7828267384257843
  0
POINT
  5
7B
100
AcDbEntity
  8
Defpoints
370
               0
390
0
 62
               0
100
AcDbPoint
 10
-597.09354624283219
 20
98.214293606533602
 30
0.0
  0
POINT
  5
7C
100
AcDbEntity
  8
Defpoints
370
               0
390
0
 62
               0
100
AcDbPoint
 10
-597.09354624283219
 20
-951.7857063934664
 30
0.0
  0
POINT
  5
7D
100
AcDbEntity
  8
Defpoints
370
               0
390
0
 62
               0
100
AcDbPoint
 10
-752.09354624283219
 20
-951.7857063934664
 30
0.0
  0
ENDBLK
  5
7E
100
AcDbEntity
  8
notes
390
0
100
AcDbBlockEnd
  0
BLOCK
  5
7F
100
AcDbEntity
  8
notes
390
0
100
AcDbBlockBegin
  2
*D4
 70
               1
 10
0.0
 20
0.0
 30
0.0
  3
*D4
  1

  0
LINE
  5
80
100
AcDbEntity
  8
0
370
              -2
390
0
  6
Continuous
 62
               0
100
AcDbLine
 10
-602.09354624283219
 20
118.2142936065336
 30
0.0
 11
-602.09354624283219
 21
198.2142936065336
 31
0.0
  0
LINE
  5
81
100
AcDbEntity
  8
0
370
              -2
390
0
  6
Continuous
 62
               0
100
AcDbLine
 10
-112.0935462428277
 20
123.2142936065336
 30
0.0
 11
-112.0935462428277
 21
198.2142936065336
 31
0.0
  0
LINE
  5
82
100
AcDbEntity
  8
0
370
              -2
390
0
  6
Continuous
 62
               0
100
AcDbLine
 10
-602.09354624283219
 20
198.2142936065336
 30
0.0
 11
-112.0935462428277
 21
198.2142936065336
 31
0.0
  0
CIRCLE
  5
83
102
{ACAD_REACTORS
330
84
102
}
100
AcDbEntity
  8
0
370
              -2
390
0
  6
Continuous
 62
               0
100
AcDbCircle
 10
-602.09354624283219
 20
198.2142936065336
 30
0.0
 40
1.9998779296875
  0
HATCH
  5
84
100
AcDbEntity
  8
0
370
              -2
390
0
  6
Continuous
 62
               0
100
AcDbHatch
 10
0.0
 20
0.0
 30
0.0
210
0.0
220
0.0
230
1.0
  2
SOLID
 70
               1
 71
               1
 91
        1
 92
        1
 93
        1
 72
               2
 10
-602.09354624283219
 20
198.2142936065336
 40
1.9998779296875
 50
0.0
 51
360.0
 73
               0
 97
        1
330
83
 75
               0
 76
               1
 98
        1
 10
0.0
 20
0.0
  0
CIRCLE
  5
85
102
{ACAD_REACTORS
330
86
102
}
100
AcDbEntity
  8
0
370
              -2
390
0
  6
Continuous
 62
               0
100
AcDbCircle
 10
-112.0935462428277
 20
198.2142936065336
 30
0.0
 40
1.9998779296875
  0
HATCH
  5
86
100
AcDbEntity
  8
0
370
              -2
390
0
  6
Continuous
 62
               0
100
AcDbHatch
 10
0.0
 20
0.0
 30
0.0
210
0.0
220
0.0
230
1.0
  2
SOLID
 70
               1
 71
               1
 91
        1
 92
        1
 93
        1
 72
               2
 10
-112.0935462428277
 20
198.2142936065336
 40
1.9998779296875
 50
0.0
 51
360.0
 73
               0
 97
        1
330
85
 75
               0
 76
               1
 98
        1
 10
0.0
 20
0.0
  0
MTEXT
  5
87
100
AcDbEntity
  8
0
390
0
 62
               0
100
AcDbMText
 10
-380.90604792500545
 20
232.09191079403359
 30
0.0
 40
24.432617187500004
 41
0.0
 71
               1
 72
               1
  1
490
  7
ＭＳ ゴシック
 73
               1
 44
0.7828267384257843
  0
POINT
  5
88
100
AcDbEntity
  8
Defpoints
370
               0
390
0
 62
               0
100
AcDbPoint
 10
-112.0935462428277
 20
98.214293606533602
 30
0.0
  0
POINT
  5
89
100
AcDbEntity
  8
Defpoints
370
               0
390
0
 62
               0
100
AcDbPoint
 10
-602.09354624283219
 20
93.214293606533602
 30
0.0
  0
POINT
  5
8A
100
AcDbEntity
  8
Defpoints
370
               0
390
0
 62
               0
100
AcDbPoint
 10
-602.09354624283219
 20
198.2142936065336
 30
0.0
  0
ENDBLK
  5
8B
100
AcDbEntity
  8
notes
390
0
100
AcDbBlockEnd
  0
BLOCK
  5
8C
100
AcDbEntity
  8
notes
390
0
100
AcDbBlockBegin
  2
*D5
 70
               1
 10
0.0
 20
0.0
 30
0.0
  3
*D5
  1

  0
LINE
  5
8D
100
AcDbEntity
  8
0
370
              -2
390
0
  6
Continuous
 62
               0
100
AcDbLine
 10
-602.09354624283219
 20
-971.7857063934664
 30
0.0
 11
-602.09354624283219
 21
-1051.7857063934664
 31
0.0
  0
LINE
  5
8E
100
AcDbEntity
  8
0
370
              -2
390
0
  6
Continuous
 62
               0
100
AcDbLine
 10
-477.09354624283219
 20
-976.7857063934664
 30
0.0
 11
-477.09354624283219
 21
-1051.7857063934664
 31
0.0
  0
LINE
  5
8F
100
AcDbEntity
  8
0
370
              -2
390
0
  6
Continuous
 62
               0
100
AcDbLine
 10
-602.09354624283219
 20
-1051.7857063934664
 30
0.0
 11
-477.09354624283219
 21
-1051.7857063934664
 31
0.0
  0
CIRCLE
  5
90
102
{ACAD_REACTORS
330
91
102
}
100
AcDbEntity
  8
0
370
              -2
390
0
  6
Continuous
 62
               0
100
AcDbCircle
 10
-602.09354624283219
 20
-1051.7857063934664
 30
0.0
 40
1.9998779296875
  0
HATCH
  5
91
100
AcDbEntity
  8
0
370
              -2
390
0
  6
Continuous
 62
               0
100
AcDbHatch
 10
0.0
 20
0.0
 30
0.0
210
0.0
220
0.0
230
1.0
  2
SOLID
 70
               1
 71
               1
 91
        1
 92
        1
 93
        1
 72
               2
 10
-602.09354624283219
 20
-1051.7857063934664
 40
1.9998779296875
 50
0.0
 51
360.0
 73
               0
 97
        1
330
90
 75
               0
 76
               1
 98
        1
 10
0.0
 20
0.0
  0
CIRCLE
  5
92
102
{ACAD_REACTORS
330
93
102
}
100
AcDbEntity
  8
0
370
              -2
390
0
  6
Continuous
 62
               0
100
AcDbCircle
 10
-477.09354624283219
 20
-1051.7857063934664
 30
0.0
 40
1.9998779296875
  0
HATCH
  5
93
100
AcDbEntity
  8
0
370
              -2
390
0
  6
Continuous
 62
               0
100
AcDbHatch
 10
0.0
 20
0.0
 30
0.0
210
0.0
220
0.0
230
1.0
  2
SOLID
 70
               1
 71
               1
 91
        1
 92
        1
 93
        1
 72
               2
 10
-477.09354624283219
 20
-1051.7857063934664
 40
1.9998779296875
 50
0.0
 51
360.0
 73
               0
 97
        1
330
92
 75
               0
 76
               1
 98
        1
 10
0.0
 20
0.0
  0
MTEXT
  5
94
100
AcDbEntity
  8
0
390
0
 62
               0
100
AcDbMText
 10
-563.40604792500767
 20
-1017.9080892059663
 30
0.0
 40
24.432617187500004
 41
0.0
 71
               1
 72
               1
  1
125
  7
ＭＳ ゴシック
 73
               1
 44
0.7828267384257843
  0
POINT
  5
95
100
AcDbEntity
  8
Defpoints
370
               0
390
0
 62
               0
100
AcDbPoint
 10
-477.09354624283219
 20
-951.7857063934664
 30
0.0
  0
POINT
  5
96
100
AcDbEntity
  8
Defpoints
370
               0
390
0
 62
               0
100
AcDbPoint
 10
-602.09354624283219
 20
-946.7857063934664
 30
0.0
  0
POINT
  5
97
100
AcDbEntity
  8
Defpoints
370
               0
390
0
 62
               0
100
AcDbPoint
 10
-602.09354624283219
 20
-1051.7857063934664
 30
0.0
  0
ENDBLK
  5
98
100
AcDbEntity
  8
notes
390
0
100
AcDbBlockEnd
  0
BLOCK
  5
99
100
AcDbEntity
  8
notes
390
0
100
AcDbBlockBegin
  2
*D6
 70
               1
 10
0.0
 20
0.0
 30
0.0
  3
*D6
  1

  0
LINE
  5
9A
100
AcDbEntity
  8
0
370
              -2
390
0
  6
Continuous
 62
               0
100
AcDbLine
 10
-477.09354624283219
 20
-976.7857063934664
 30
0.0
 11
-477.09354624283219
 21
-1051.7857063934664
 31
0.0
  0
LINE
  5
9B
100
AcDbEntity
  8
0
370
              -2
390
0
  6
Continuous
 62
               0
100
AcDbLine
 10
-147.09354624283219
 20
-976.7857063934664
 30
0.0
 11
-147.09354624283219
 21
-1051.7857063934664
 31
0.0
  0
LINE
  5
9C
100
AcDbEntity
  8
0
370
              -2
390
0
  6
Continuous
 62
               0
100
AcDbLine
 10
-477.09354624283219
 20
-1051.7857063934664
 30
0.0
 11
-147.09354624283219
 21
-1051.7857063934664
 31
0.0
  0
CIRCLE
  5
9D
102
{ACAD_REACTORS
330
9E
102
}
100
AcDbEntity
  8
0
370
              -2
390
0
  6
Continuous
 62
               0
100
AcDbCircle
 10
-477.09354624283219
 20
-1051.7857063934664
 30
0.0
 40
1.9998779296875
  0
HATCH
  5
9E
100
AcDbEntity
  8
0
370
              -2
390
0
  6
Continuous
 62
               0
100
AcDbHatch
 10
0.0
 20
0.0
 30
0.0
210
0.0
220
0.0
230
1.0
  2
SOLID
 70
               1
 71
               1
 91
        1
 92
        1
 93
        1
 72
               2
 10
-477.09354624283219
 20
-1051.7857063934664
 40
1.9998779296875
 50
0.0
 51
360.0
 73
               0
 97
        1
330
9D
 75
               0
 76
               1
 98
        1
 10
0.0
 20
0.0
  0
CIRCLE
  5
9F
102
{ACAD_REACTORS
330
A0
102
}
100
AcDbEntity
  8
0
370
              -2
390
0
  6
Continuous
 62
               0
100
AcDbCircle
 10
-147.09354624283219
 20
-1051.7857063934664
 30
0.0
 40
1.9998779296875
  0
HATCH
  5
A0
100
AcDbEntity
  8
0
370
              -2
390
0
  6
Continuous
 62
               0
100
AcDbHatch
 10
0.0
 20
0.0
 30
0.0
210
0.0
220
0.0
230
1.0
  2
SOLID
 70
               1
 71
               1
 91
        1
 92
        1
 93
        1
 72
               2
 10
-147.09354624283219
 20
-1051.7857063934664
 40
1.9998779296875
 50
0.0
 51
360.0
 73
               0
 97
        1
330
9F
 75
               0
 76
               1
 98
        1
 10
0.0
 20
0.0
  0
MTEXT
  5
A1
100
AcDbEntity
  8
0
390
0
 62
               0
100
AcDbMText
 10
-335.90604792500773
 20
-1017.9080892059663
 30
0.0
 40
24.432617187500004
 41
0.0
 71
               1
 72
               1
  1
330
  7
ＭＳ ゴシック
 73
               1
 44
0.7828267384257843
  0
POINT
  5
A2
100
AcDbEntity
  8
Defpoints
370
               0
390
0
 62
               0
100
AcDbPoint
 10
-147.09354624283219
 20
-951.7857063934664
 30
0.0
  0
POINT
  5
A3
100
AcDbEntity
  8
Defpoints
370
               0
390
0
 62
               0
100
AcDbPoint
 10
-477.09354624283219
 20
-951.7857063934664
 30
0.0
  0
POINT
  5
A4
100
AcDbEntity
  8
Defpoints
370
               0
390
0
 62
               0
100
AcDbPoint
 10
-477.09354624283219
 20
-1051.7857063934664
 30
0.0
  0
ENDBLK
  5
A5
100
AcDbEntity
  8
notes
390
0
100
AcDbBlockEnd
  0
BLOCK
  5
A6
100
AcDbEntity
  8
notes
390
0
100
AcDbBlockBegin
  2
*D7
 70
               1
 10
0.0
 20
0.0
 30
0.0
  3
*D7
  1

  0
LINE
  5
A7
100
AcDbEntity
  8
0
370
              -2
390
0
  6
Continuous
 62
               0
100
AcDbLine
 10
-147.09354624283219
 20
-976.7857063934664
 30
0.0
 11
-147.09354624283219
 21
-1051.5357063934664
 31
0.0
  0
LINE
  5
A8
100
AcDbEntity
  8
0
370
              -2
390
0
  6
Continuous
 62
               0
100
AcDbLine
 10
-112.09354624283219
 20
-977.7857063934664
 30
0.0
 11
-112.09354624283219
 21
-1051.5357063934664
 31
0.0
  0
LINE
  5
A9
100
AcDbEntity
  8
0
370
              -2
390
0
  6
Continuous
 62
               0
100
AcDbLine
 10
-147.09354624283219
 20
-1051.5357063934664
 30
0.0
 11
-112.09354624283219
 21
-1051.5357063934664
 31
0.0
  0
CIRCLE
  5
AA
102
{ACAD_REACTORS
330
AB
102
}
100
AcDbEntity
  8
0
370
              -2
390
0
  6
Continuous
 62
               0
100
AcDbCircle
 10
-147.09354624283219
 20
-1051.5357063934664
 30
0.0
 40
1.9998779296875
  0
HATCH
  5
AB
100
AcDbEntity
  8
0
370
              -2
390
0
  6
Continuous
 62
               0
100
AcDbHatch
 10
0.0
 20
0.0
 30
0.0
210
0.0
220
0.0
230
1.0
  2
SOLID
 70
               1
 71
               1
 91
        1
 92
        1
 93
        1
 72
               2
 10
-147.09354624283219
 20
-1051.5357063934664
 40
1.9998779296875
 50
0.0
 51
360.0
 73
               0
 97
        1
330
AA
 75
               0
 76
               1
 98
        1
 10
0.0
 20
0.0
  0
CIRCLE
  5
AC
102
{ACAD_REACTORS
330
AD
102
}
100
AcDbEntity
  8
0
370
              -2
390
0
  6
Continuous
 62
               0
100
AcDbCircle
 10
-112.09354624283219
 20
-1051.5357063934664
 30
0.0
 40
1.9998779296875
  0
HATCH
  5
AD
100
AcDbEntity
  8
0
370
              -2
390
0
  6
Continuous
 62
               0
100
AcDbHatch
 10
0.0
 20
0.0
 30
0.0
210
0.0
220
0.0
230
1.0
  2
SOLID
 70
               1
 71
               1
 91
        1
 92
        1
 93
        1
 72
               2
 10
-112.09354624283219
 20
-1051.5357063934664
 40
1.9998779296875
 50
0.0
 51
360.0
 73
               0
 97
        1
330
AC
 75
               0
 76
               1
 98
        1
 10
0.0
 20
0.0
  0
MTEXT
  5
AE
100
AcDbEntity
  8
0
390
0
 62
               0
100
AcDbMText
 10
-145.46854624283219
 20
-1017.6580892059663
 30
0.0
 40
24.432617187500004
 41
0.0
 71
               1
 72
               1
  1
35
  7
ＭＳ ゴシック
 73
               1
 44
0.7828267384257843
  0
POINT
  5
AF
100
AcDbEntity
  8
Defpoints
370
               0
390
0
 62
               0
100
AcDbPoint
 10
-112.09354624283219
 20
-952.7857063934664
 30
0.0
  0
POINT
  5
B0
100
AcDbEntity
  8
Defpoints
370
               0
390
0
 62
               0
100
AcDbPoint
 10
-147.09354624283219
 20
-951.7857063934664
 30
0.0
  0
POINT
  5
B1
100
AcDbEntity
  8
Defpoints
370
               0
390
0
 62
               0
100
AcDbPoint
 10
-147.09354624283219
 20
-1051.5357063934664
 30
0.0
  0
ENDBLK
  5
B2
100
AcDbEntity
  8
notes
390
0
100
AcDbBlockEnd
  0
BLOCK
  5
B3
100
AcDbEntity
  8
notes
390
0
100
AcDbBlockBegin
  2
*D8
 70
               1
 10
0.0
 20
0.0
 30
0.0
  3
*D8
  1

  0
LINE
  5
B4
100
AcDbEntity
  8
0
370
              -2
390
0
  6
Continuous
 62
               0
100
AcDbLine
 10
-87.949883711859044
 20
-701.7857063934664
 30
0.0
 11
-12.100623343936434
 21
-701.7857063934664
 31
0.0
  0
LINE
  5
B5
100
AcDbEntity
  8
0
370
              -2
390
0
  6
Continuous
 62
               0
100
AcDbLine
 10
-91.379079759374889
 20
-151.7857063934664
 30
0.0
 11
-12.100623343936434
 21
-151.7857063934664
 31
0.0
  0
LINE
  5
B6
100
AcDbEntity
  8
0
370
              -2
390
0
  6
Continuous
 62
               0
100
AcDbLine
 10
-12.100623343936434
 20
-701.7857063934664
 30
0.0
 11
-12.100623343936434
 21
-151.7857063934664
 31
0.0
  0
CIRCLE
  5
B7
102
{ACAD_REACTORS
330
B8
102
}
100
AcDbEntity
  8
0
370
              -2
390
0
  6
Continuous
 62
               0
100
AcDbCircle
 10
-12.100623343936434
 20
-701.7857063934664
 30
0.0
 40
1.9998779296875
  0
HATCH
  5
B8
100
AcDbEntity
  8
0
370
              -2
390
0
  6
Continuous
 62
               0
100
AcDbHatch
 10
0.0
 20
0.0
 30
0.0
210
0.0
220
0.0
230
1.0
  2
SOLID
 70
               1
 71
               1
 91
        1
 92
        1
 93
        1
 72
               2
 10
-12.100623343936434
 20
-701.7857063934664
 40
1.9998779296875
 50
0.0
 51
360.0
 73
               0
 97
        1
330
B7
 75
               0
 76
               1
 98
        1
 10
0.0
 20
0.0
  0
CIRCLE
  5
B9
102
{ACAD_REACTORS
330
BA
102
}
100
AcDbEntity
  8
0
370
              -2
390
0
  6
Continuous
 62
               0
100
AcDbCircle
 10
-12.100623343936434
 20
-151.7857063934664
 30
0.0
 40
1.9998779296875
  0
HATCH
  5
BA
100
AcDbEntity
  8
0
370
              -2
390
0
  6
Continuous
 62
               0
100
AcDbHatch
 10
0.0
 20
0.0
 30
0.0
210
0.0
220
0.0
230
1.0
  2
SOLID
 70
               1
 71
               1
 91
        1
 92
        1
 93
        1
 72
               2
 10
-12.100623343936434
 20
-151.7857063934664
 40
1.9998779296875
 50
0.0
 51
360.0
 73
               0
 97
        1
330
B9
 75
               0
 76
               1
 98
        1
 10
0.0
 20
0.0
  0
MTEXT
  5
BB
100
AcDbEntity
  8
0
390
0
 62
               0
100
AcDbMText
 10
-45.978240531436441
 20
-450.59820807564194
 30
0.0
 40
24.432617187500004
 41
0.0
 71
               1
 72
               1
  1
550
  7
ＭＳ ゴシック
 11
0.0
 21
1.0
 31
0.0
 73
               1
 44
0.7828267384257843
  0
POINT
  5
BC
100
AcDbEntity
  8
Defpoints
370
               0
390
0
 62
               0
100
AcDbPoint
 10
-116.37907975937489
 20
-151.7857063934664
 30
0.0
  0
POINT
  5
BD
100
AcDbEntity
  8
Defpoints
370
               0
390
0
 62
               0
100
AcDbPoint
 10
-112.94988371185904
 20
-701.7857063934664
 30
0.0
  0
POINT
  5
BE
100
AcDbEntity
  8
Defpoints
370
               0
390
0
 62
               0
100
AcDbPoint
 10
-12.100623343936434
 20
-701.7857063934664
 30
0.0
  0
ENDBLK
  5
BF
100
AcDbEntity
  8
notes
390
0
100
AcDbBlockEnd
  0
BLOCK
  5
C0
100
AcDbEntity
  8
notes
390
0
100
AcDbBlockBegin
  2
*D9
 70
               1
 10
0.0
 20
0.0
 30
0.0
  3
*D9
  1

  0
LINE
  5
C1
100
AcDbEntity
  8
0
370
              -2
390
0
  6
Continuous
 62
               0
100
AcDbLine
 10
-87.949883711859044
 20
-701.7857063934664
 30
0.0
 11
-12.100623343936434
 21
-701.7857063934664
 31
0.0
  0
LINE
  5
C2
100
AcDbEntity
  8
0
370
              -2
390
0
  6
Continuous
 62
               0
100
AcDbLine
 10
-100.09667499132092
 20
-951.7857063934664
 30
0.0
 11
-12.100623343936434
 21
-951.7857063934664
 31
0.0
  0
LINE
  5
C3
100
AcDbEntity
  8
0
370
              -2
390
0
  6
Continuous
 62
               0
100
AcDbLine
 10
-12.100623343936434
 20
-701.7857063934664
 30
0.0
 11
-12.100623343936434
 21
-951.7857063934664
 31
0.0
  0
CIRCLE
  5
C4
102
{ACAD_REACTORS
330
C5
102
}
100
AcDbEntity
  8
0
370
              -2
390
0
  6
Continuous
 62
               0
100
AcDbCircle
 10
-12.100623343936434
 20
-701.7857063934664
 30
0.0
 40
1.9998779296875
  0
HATCH
  5
C5
100
AcDbEntity
  8
0
370
              -2
390
0
  6
Continuous
 62
               0
100
AcDbHatch
 10
0.0
 20
0.0
 30
0.0
210
0.0
220
0.0
230
1.0
  2
SOLID
 70
               1
 71
               1
 91
        1
 92
        1
 93
        1
 72
               2
 10
-12.100623343936434
 20
-701.7857063934664
 40
1.9998779296875
 50
0.0
 51
360.0
 73
               0
 97
        1
330
C4
 75
               0
 76
               1
 98
        1
 10
0.0
 20
0.0
  0
CIRCLE
  5
C6
102
{ACAD_REACTORS
330
C7
102
}
100
AcDbEntity
  8
0
370
              -2
390
0
  6
Continuous
 62
               0
100
AcDbCircle
 10
-12.100623343936434
 20
-951.7857063934664
 30
0.0
 40
1.9998779296875
  0
HATCH
  5
C7
100
AcDbEntity
  8
0
370
              -2
390
0
  6
Continuous
 62
               0
100
AcDbHatch
 10
0.0
 20
0.0
 30
0.0
210
0.0
220
0.0
230
1.0
  2
SOLID
 70
               1
 71
               1
 91
        1
 92
        1
 93
        1
 72
               2
 10
-12.100623343936434
 20
-951.7857063934664
 40
1.9998779296875
 50
0.0
 51
360.0
 73
               0
 97
        1
330
C6
 75
               0
 76
               1
 98
        1
 10
0.0
 20
0.0
  0
MTEXT
  5
C8
100
AcDbEntity
  8
0
390
0
 62
               0
100
AcDbMText
 10
-45.978240531436441
 20
-850.59820807564188
 30
0.0
 40
24.432617187500004
 41
0.0
 71
               1
 72
               1
  1
250
  7
ＭＳ ゴシック
 11
0.0
 21
1.0
 31
0.0
 73
               1
 44
0.7828267384257843
  0
POINT
  5
C9
100
AcDbEntity
  8
Defpoints
370
               0
390
0
 62
               0
100
AcDbPoint
 10
-125.09667499132092
 20
-951.7857063934664
 30
0.0
  0
POINT
  5
CA
100
AcDbEntity
  8
Defpoints
370
               0
390
0
 62
               0
100
AcDbPoint
 10
-112.94988371185904
 20
-701.7857063934664
 30
0.0
  0
POINT
  5
CB
100
AcDbEntity
  8
Defpoints
370
               0
390
0
 62
               0
100
AcDbPoint
 10
-12.100623343936434
 20
-701.7857063934664
 30
0.0
  0
ENDBLK
  5
CC
100
AcDbEntity
  8
notes
390
0
100
AcDbBlockEnd
  0
BLOCK
  5
CD
100
AcDbEntity
  8
notes
390
0
100
AcDbBlockBegin
  2
*D10
 70
               1
 10
0.0
 20
0.0
 30
0.0
  3
*D10
  1

  0
LINE
  5
CE
100
AcDbEntity
  8
0
370
              -2
390
0
  6
Continuous
 62
               0
100
AcDbLine
 10
-87.949883711851044
 20
-151.7857063934664
 30
0.0
 11
-12.100623343936434
 21
-151.7857063934664
 31
0.0
  0
LINE
  5
CF
100
AcDbEntity
  8
0
370
              -2
390
0
  6
Continuous
 62
               0
100
AcDbLine
 10
-100.09667499132092
 20
98.214293606533602
 30
0.0
 11
-12.100623343936434
 21
98.214293606533602
 31
0.0
  0
LINE
  5
D0
100
AcDbEntity
  8
0
370
              -2
390
0
  6
Continuous
 62
               0
100
AcDbLine
 10
-12.100623343936434
 20
-151.7857063934664
 30
0.0
 11
-12.100623343936434
 21
98.214293606533602
 31
0.0
  0
CIRCLE
  5
D1
102
{ACAD_REACTORS
330
D2
102
}
100
AcDbEntity
  8
0
370
              -2
390
0
  6
Continuous
 62
               0
100
AcDbCircle
 10
-12.100623343936434
 20
-151.7857063934664
 30
0.0
 40
1.9998779296875
  0
HATCH
  5
D2
100
AcDbEntity
  8
0
370
              -2
390
0
  6
Continuous
 62
               0
100
AcDbHatch
 10
0.0
 20
0.0
 30
0.0
210
0.0
220
0.0
230
1.0
  2
SOLID
 70
               1
 71
               1
 91
        1
 92
        1
 93
        1
 72
               2
 10
-12.100623343936434
 20
-151.7857063934664
 40
1.9998779296875
 50
0.0
 51
360.0
 73
               0
 97
        1
330
D1
 75
               0
 76
               1
 98
        1
 10
0.0
 20
0.0
  0
CIRCLE
  5
D3
102
{ACAD_REACTORS
330
D4
102
}
100
AcDbEntity
  8
0
370
              -2
390
0
  6
Continuous
 62
               0
100
AcDbCircle
 10
-12.100623343936434
 20
98.214293606533602
 30
0.0
 40
1.9998779296875
  0
HATCH
  5
D4
100
AcDbEntity
  8
0
370
              -2
390
0
  6
Continuous
 62
               0
100
AcDbHatch
 10
0.0
 20
0.0
 30
0.0
210
0.0
220
0.0
230
1.0
  2
SOLID
 70
               1
 71
               1
 91
        1
 92
        1
 93
        1
 72
               2
 10
-12.100623343936434
 20
98.214293606533602
 40
1.9998779296875
 50
0.0
 51
360.0
 73
               0
 97
        1
330
D3
 75
               0
 76
               1
 98
        1
 10
0.0
 20
0.0
  0
MTEXT
  5
D5
100
AcDbEntity
  8
0
390
0
 62
               0
100
AcDbMText
 10
-45.978240531436441
 20
-55.598208075641935
 30
0.0
 40
24.432617187500004
 41
0.0
 71
               1
 72
               1
  1
250
  7
ＭＳ ゴシック
 11
0.0
 21
1.0
 31
0.0
 73
               1
 44
0.7828267384257843
  0
POINT
  5
D6
100
AcDbEntity
  8
Defpoints
370
               0
390
0
 62
               0
100
AcDbPoint
 10
-125.09667499132092
 20
98.214293606533602
 30
0.0
  0
POINT
  5
D7
100
AcDbEntity
  8
Defpoints
370
               0
390
0
 62
               0
100
AcDbPoint
 10
-112.94988371185104
 20
-151.7857063934664
 30
0.0
  0
POINT
  5
D8
100
AcDbEntity
  8
Defpoints
370
               0
390
0
 62
               0
100
AcDbPoint
 10
-12.100623343936434
 20
-151.7857063934664
 30
0.0
  0
ENDBLK
  5
D9
100
AcDbEntity
  8
notes
390
0
100
AcDbBlockEnd
  0
BLOCK
  5
DA
100
AcDbEntity
  8
notes
390
0
100
AcDbBlockBegin
  2
*D11
 70
               1
 10
0.0
 20
0.0
 30
0.0
  3
*D11
  1

  0
LINE
  5
DB
100
AcDbEntity
  8
0
370
              -2
390
0
  6
Continuous
 62
               0
100
AcDbLine
 10
-582.09354624283219
 20
-526.7857063934664
 30
0.0
 11
-702.09354624283219
 21
-526.7857063934664
 31
0.0
  0
LINE
  5
DC
100
AcDbEntity
  8
0
370
              -2
390
0
  6
Continuous
 62
               0
100
AcDbLine
 10
-582.09354624283219
 20
-426.7857063934664
 30
0.0
 11
-702.09354624283219
 21
-426.7857063934664
 31
0.0
  0
LINE
  5
DD
100
AcDbEntity
  8
0
370
              -2
390
0
  6
Continuous
 62
               0
100
AcDbLine
 10
-702.09354624283219
 20
-526.7857063934664
 30
0.0
 11
-702.09354624283219
 21
-426.7857063934664
 31
0.0
  0
CIRCLE
  5
DE
102
{ACAD_REACTORS
330
DF
102
}
100
AcDbEntity
  8
0
370
              -2
390
0
  6
Continuous
 62
               0
100
AcDbCircle
 10
-702.09354624283219
 20
-526.7857063934664
 30
0.0
 40
1.9998779296875
  0
HATCH
  5
DF
100
AcDbEntity
  8
0
370
              -2
390
0
  6
Continuous
 62
               0
100
AcDbHatch
 10
0.0
 20
0.0
 30
0.0
210
0.0
220
0.0
230
1.0
  2
SOLID
 70
               1
 71
               1
 91
        1
 92
        1
 93
        1
 72
               2
 10
-702.09354624283219
 20
-526.7857063934664
 40
1.9998779296875
 50
0.0
 51
360.0
 73
               0
 97
        1
330
DE
 75
               0
 76
               1
 98
        1
 10
0.0
 20
0.0
  0
CIRCLE
  5
E0
102
{ACAD_REACTORS
330
E1
102
}
100
AcDbEntity
  8
0
370
              -2
390
0
  6
Continuous
 62
               0
100
AcDbCircle
 10
-702.09354624283219
 20
-426.7857063934664
 30
0.0
 40
1.9998779296875
  0
HATCH
  5
E1
100
AcDbEntity
  8
0
370
              -2
390
0
  6
Continuous
 62
               0
100
AcDbHatch
 10
0.0
 20
0.0
 30
0.0
210
0.0
220
0.0
230
1.0
  2
SOLID
 70
               1
 71
               1
 91
        1
 92
        1
 93
        1
 72
               2
 10
-702.09354624283219
 20
-426.7857063934664
 40
1.9998779296875
 50
0.0
 51
360.0
 73
               0
 97
        1
330
E0
 75
               0
 76
               1
 98
        1
 10
0.0
 20
0.0
  0
MTEXT
  5
E2
100
AcDbEntity
  8
0
390
0
 62
               0
100
AcDbMText
 10
-735.97116343033224
 20
-500.59820807564194
 30
0.0
 40
24.432617187500004
 41
0.0
 71
               1
 72
               1
  1
100
  7
ＭＳ ゴシック
 11
0.0
 21
1.0
 31
0.0
 73
               1
 44
0.7828267384257843
  0
POINT
  5
E3
100
AcDbEntity
  8
Defpoints
370
               0
390
0
 62
               0
100
AcDbPoint
 10
-557.09354624283219
 20
-426.7857063934664
 30
0.0
  0
POINT
  5
E4
100
AcDbEntity
  8
Defpoints
370
               0
390
0
 62
               0
100
AcDbPoint
 10
-557.09354624283219
 20
-526.7857063934664
 30
0.0
  0
POINT
  5
E5
100
AcDbEntity
  8
Defpoints
370
               0
390
0
 62
               0
100
AcDbPoint
 10
-702.09354624283219
 20
-526.7857063934664
 30
0.0
  0
ENDBLK
  5
E6
100
AcDbEntity
  8
notes
390
0
100
AcDbBlockEnd
  0
BLOCK
  5
E7
100
AcDbEntity
  8
notes
390
0
100
AcDbBlockBegin
  2
*D12
 70
               1
 10
0.0
 20
0.0
 30
0.0
  3
*D12
  1

  0
LINE
  5
E8
100
AcDbEntity
  8
0
370
              -2
390
0
  6
Continuous
 62
               0
100
AcDbLine
 10
-582.09354624283219
 20
-426.78570639346651
 30
0.0
 11
-702.09354624283219
 21
-426.78570639346651
 31
0.0
  0
LINE
  5
E9
100
AcDbEntity
  8
0
370
              -2
390
0
  6
Continuous
 62
               0
100
AcDbLine
 10
-582.09354624283219
 20
-326.78570639346651
 30
0.0
 11
-702.09354624283219
 21
-326.78570639346651
 31
0.0
  0
LINE
  5
EA
100
AcDbEntity
  8
0
370
              -2
390
0
  6
Continuous
 62
               0
100
AcDbLine
 10
-702.09354624283219
 20
-426.78570639346651
 30
0.0
 11
-702.09354624283219
 21
-326.78570639346651
 31
0.0
  0
CIRCLE
  5
EB
102
{ACAD_REACTORS
330
EC
102
}
100
AcDbEntity
  8
0
370
              -2
390
0
  6
Continuous
 62
               0
100
AcDbCircle
 10
-702.09354624283219
 20
-426.78570639346651
 30
0.0
 40
1.9998779296875
  0
HATCH
  5
EC
100
AcDbEntity
  8
0
370
              -2
390
0
  6
Continuous
 62
               0
100
AcDbHatch
 10
0.0
 20
0.0
 30
0.0
210
0.0
220
0.0
230
1.0
  2
SOLID
 70
               1
 71
               1
 91
        1
 92
        1
 93
        1
 72
               2
 10
-702.09354624283219
 20
-426.78570639346651
 40
1.9998779296875
 50
0.0
 51
360.0
 73
               0
 97
        1
330
EB
 75
               0
 76
               1
 98
        1
 10
0.0
 20
0.0
  0
CIRCLE
  5
ED
102
{ACAD_REACTORS
330
EE
102
}
100
AcDbEntity
  8
0
370
              -2
390
0
  6
Continuous
 62
               0
100
AcDbCircle
 10
-702.09354624283219
 20
-326.78570639346651
 30
0.0
 40
1.9998779296875
  0
HATCH
  5
EE
100
AcDbEntity
  8
0
370
              -2
390
0
  6
Continuous
 62
               0
100
AcDbHatch
 10
0.0
 20
0.0
 30
0.0
210
0.0
220
0.0
230
1.0
  2
SOLID
 70
               1
 71
               1
 91
        1
 92
        1
 93
        1
 72
               2
 10
-702.09354624283219
 20
-326.78570639346651
 40
1.9998779296875
 50
0.0
 51
360.0
 73
               0
 97
        1
330
ED
 75
               0
 76
               1
 98
        1
 10
0.0
 20
0.0
  0
MTEXT
  5
EF
100
AcDbEntity
  8
0
390
0
 62
               0
100
AcDbMText
 10
-735.97116343033224
 20
-400.59820807564199
 30
0.0
 40
24.432617187500004
 41
0.0
 71
               1
 72
               1
  1
100
  7
ＭＳ ゴシック
 11
0.0
 21
1.0
 31
0.0
 73
               1
 44
0.7828267384257843
  0
POINT
  5
F0
100
AcDbEntity
  8
Defpoints
370
               0
390
0
 62
               0
100
AcDbPoint
 10
-557.09354624283219
 20
-326.78570639346651
 30
0.0
  0
POINT
  5
F1
100
AcDbEntity
  8
Defpoints
370
               0
390
0
 62
               0
100
AcDbPoint
 10
-557.09354624283219
 20
-426.78570639346651
 30
0.0
  0
POINT
  5
F2
100
AcDbEntity
  8
Defpoints
370
               0
390
0
 62
               0
100
AcDbPoint
 10
-702.09354624283219
 20
-426.78570639346651
 30
0.0
  0
ENDBLK
  5
F3
100
AcDbEntity
  8
notes
390
0
100
AcDbBlockEnd
  0
BLOCK
  5
F4
100
AcDbEntity
  8
notes
390
0
100
AcDbBlockBegin
  2
*D13
 70
               1
 10
0.0
 20
0.0
 30
0.0
  3
*D13
  1

  0
LINE
  5
F5
100
AcDbEntity
  8
0
370
              -2
390
0
  6
Continuous
 62
               0
100
AcDbLine
 10
502.14479028922119
 20
-771.80224285179975
 30
0.0
 11
397.93302813644345
 21
-771.80224285179975
 31
0.0
  0
LINE
  5
F6
100
AcDbEntity
  8
0
370
              -2
390
0
  6
Continuous
 62
               0
100
AcDbLine
 10
502.14479028922119
 20
-566.80224285179975
 30
0.0
 11
397.93302813644345
 21
-566.80224285179975
 31
0.0
  0
LINE
  5
F7
100
AcDbEntity
  8
0
370
              -2
390
0
  6
Continuous
 62
               0
100
AcDbLine
 10
397.93302813644345
 20
-771.80224285179975
 30
0.0
 11
397.93302813644345
 21
-566.80224285179975
 31
0.0
  0
CIRCLE
  5
F8
102
{ACAD_REACTORS
330
F9
102
}
100
AcDbEntity
  8
0
370
              -2
390
0
  6
Continuous
 62
               0
100
AcDbCircle
 10
397.93302813644345
 20
-771.80224285179975
 30
0.0
 40
1.9998779296875
  0
HATCH
  5
F9
100
AcDbEntity
  8
0
370
              -2
390
0
  6
Continuous
 62
               0
100
AcDbHatch
 10
0.0
 20
0.0
 30
0.0
210
0.0
220
0.0
230
1.0
  2
SOLID
 70
               1
 71
               1
 91
        1
 92
        1
 93
        1
 72
               2
 10
397.93302813644345
 20
-771.80224285179975
 40
1.9998779296875
 50
0.0
 51
360.0
 73
               0
 97
        1
330
F8
 75
               0
 76
               1
 98
        1
 10
0.0
 20
0.0
  0
CIRCLE
  5
FA
102
{ACAD_REACTORS
330
FB
102
}
100
AcDbEntity
  8
0
370
              -2
390
0
  6
Continuous
 62
               0
100
AcDbCircle
 10
397.93302813644345
 20
-566.80224285179975
 30
0.0
 40
1.9998779296875
  0
HATCH
  5
FB
100
AcDbEntity
  8
0
370
              -2
390
0
  6
Continuous
 62
               0
100
AcDbHatch
 10
0.0
 20
0.0
 30
0.0
210
0.0
220
0.0
230
1.0
  2
SOLID
 70
               1
 71
               1
 91
        1
 92
        1
 93
        1
 72
               2
 10
397.93302813644345
 20
-566.80224285179975
 40
1.9998779296875
 50
0.0
 51
360.0
 73
               0
 97
        1
330
FA
 75
               0
 76
               1
 98
        1
 10
0.0
 20
0.0
  0
MTEXT
  5
FC
100
AcDbEntity
  8
0
390
0
 62
               0
100
AcDbMText
 10
364.05541094894346
 20
-693.11474453397523
 30
0.0
 40
24.432617187500004
 41
0.0
 71
               1
 72
               1
  1
205
  7
ＭＳ ゴシック
 11
0.0
 21
1.0
 31
0.0
 73
               1
 44
0.7828267384257843
  0
POINT
  5
FD
100
AcDbEntity
  8
Defpoints
370
               0
390
0
 62
               0
100
AcDbPoint
 10
527.14479028922119
 20
-566.80224285179975
 30
0.0
  0
POINT
  5
FE
100
AcDbEntity
  8
Defpoints
370
               0
390
0
 62
               0
100
AcDbPoint
 10
527.14479028922119
 20
-771.80224285179975
 30
0.0
  0
POINT
  5
FF
100
AcDbEntity
  8
Defpoints
370
               0
390
0
 62
               0
100
AcDbPoint
 10
397.93302813644345
 20
-771.80224285179975
 30
0.0
  0
ENDBLK
  5
100
100
AcDbEntity
  8
notes
390
0
100
AcDbBlockEnd
  0
BLOCK
  5
101
100
AcDbEntity
  8
notes
390
0
100
AcDbBlockBegin
  2
*D14
 70
               1
 10
0.0
 20
0.0
 30
0.0
  3
*D14
  1

  0
LINE
  5
102
100
AcDbEntity
  8
0
370
              -2
390
0
  6
Continuous
 62
               0
100
AcDbLine
 10
502.14479028922119
 20
-566.80224285179975
 30
0.0
 11
397.93302813644345
 21
-566.80224285179975
 31
0.0
  0
LINE
  5
103
100
AcDbEntity
  8
0
370
              -2
390
0
  6
Continuous
 62
               0
100
AcDbLine
 10
502.14479028922119
 20
-286.8022428517998
 30
0.0
 11
397.93302813644345
 21
-286.8022428517998
 31
0.0
  0
LINE
  5
104
100
AcDbEntity
  8
0
370
              -2
390
0
  6
Continuous
 62
               0
100
AcDbLine
 10
397.93302813644345
 20
-566.80224285179975
 30
0.0
 11
397.93302813644345
 21
-286.8022428517998
 31
0.0
  0
CIRCLE
  5
105
102
{ACAD_REACTORS
330
106
102
}
100
AcDbEntity
  8
0
370
              -2
390
0
  6
Continuous
 62
               0
100
AcDbCircle
 10
397.93302813644345
 20
-566.80224285179975
 30
0.0
 40
1.9998779296875
  0
HATCH
  5
106
100
AcDbEntity
  8
0
370
              -2
390
0
  6
Continuous
 62
               0
100
AcDbHatch
 10
0.0
 20
0.0
 30
0.0
210
0.0
220
0.0
230
1.0
  2
SOLID
 70
               1
 71
               1
 91
        1
 92
        1
 93
        1
 72
               2
 10
397.93302813644345
 20
-566.80224285179975
 40
1.9998779296875
 50
0.0
 51
360.0
 73
               0
 97
        1
330
105
 75
               0
 76
               1
 98
        1
 10
0.0
 20
0.0
  0
CIRCLE
  5
107
102
{ACAD_REACTORS
330
108
102
}
100
AcDbEntity
  8
0
370
              -2
390
0
  6
Continuous
 62
               0
100
AcDbCircle
 10
397.93302813644345
 20
-286.8022428517998
 30
0.0
 40
1.9998779296875
  0
HATCH
  5
108
100
AcDbEntity
  8
0
370
              -2
390
0
  6
Continuous
 62
               0
100
AcDbHatch
 10
0.0
 20
0.0
 30
0.0
210
0.0
220
0.0
230
1.0
  2
SOLID
 70
               1
 71
               1
 91
        1
 92
        1
 93
        1
 72
               2
 10
397.93302813644345
 20
-286.8022428517998
 40
1.9998779296875
 50
0.0
 51
360.0
 73
               0
 97
        1
330
107
 75
               0
 76
               1
 98
        1
 10
0.0
 20
0.0
  0
MTEXT
  5
109
100
AcDbEntity
  8
0
390
0
 62
               0
100
AcDbMText
 10
364.05541094894346
 20
-450.61474453397534
 30
0.0
 40
24.432617187500004
 41
0.0
 71
               1
 72
               1
  1
280
  7
ＭＳ ゴシック
 11
0.0
 21
1.0
 31
0.0
 73
               1
 44
0.7828267384257843
  0
POINT
  5
10A
100
AcDbEntity
  8
Defpoints
370
               0
390
0
 62
               0
100
AcDbPoint
 10
527.14479028922119
 20
-286.8022428517998
 30
0.0
  0
POINT
  5
10B
100
AcDbEntity
  8
Defpoints
370
               0
390
0
 62
               0
100
AcDbPoint
 10
527.14479028922119
 20
-566.80224285179975
 30
0.0
  0
POINT
  5
10C
100
AcDbEntity
  8
Defpoints
370
               0
390
0
 62
               0
100
AcDbPoint
 10
397.93302813644345
 20
-566.80224285179975
 30
0.0
  0
ENDBLK
  5
10D
100
AcDbEntity
  8
notes
390
0
100
AcDbBlockEnd
  0
BLOCK
  5
10E
100
AcDbEntity
  8
notes
390
0
100
AcDbBlockBegin
  2
*D15
 70
               1
 10
0.0
 20
0.0
 30
0.0
  3
*D15
  1

  0
LINE
  5
10F
100
AcDbEntity
  8
0
370
              -2
390
0
  6
Continuous
 62
               0
100
AcDbLine
 10
502.14479028922119
 20
-286.8022428517998
 30
0.0
 11
397.93302813644345
 21
-286.8022428517998
 31
0.0
  0
LINE
  5
110
100
AcDbEntity
  8
0
370
              -2
390
0
  6
Continuous
 62
               0
100
AcDbLine
 10
502.14479028922119
 20
-81.802242851799747
 30
0.0
 11
397.93302813644345
 21
-81.802242851799747
 31
0.0
  0
LINE
  5
111
100
AcDbEntity
  8
0
370
              -2
390
0
  6
Continuous
 62
               0
100
AcDbLine
 10
397.93302813644345
 20
-286.8022428517998
 30
0.0
 11
397.93302813644345
 21
-81.802242851799747
 31
0.0
  0
CIRCLE
  5
112
102
{ACAD_REACTORS
330
113
102
}
100
AcDbEntity
  8
0
370
              -2
390
0
  6
Continuous
 62
               0
100
AcDbCircle
 10
397.93302813644345
 20
-286.8022428517998
 30
0.0
 40
1.9998779296875
  0
HATCH
  5
113
100
AcDbEntity
  8
0
370
              -2
390
0
  6
Continuous
 62
               0
100
AcDbHatch
 10
0.0
 20
0.0
 30
0.0
210
0.0
220
0.0
230
1.0
  2
SOLID
 70
               1
 71
               1
 91
        1
 92
        1
 93
        1
 72
               2
 10
397.93302813644345
 20
-286.8022428517998
 40
1.9998779296875
 50
0.0
 51
360.0
 73
               0
 97
        1
330
112
 75
               0
 76
               1
 98
        1
 10
0.0
 20
0.0
  0
CIRCLE
  5
114
102
{ACAD_REACTORS
330
115
102
}
100
AcDbEntity
  8
0
370
              -2
390
0
  6
Continuous
 62
               0
100
AcDbCircle
 10
397.93302813644345
 20
-81.802242851799747
 30
0.0
 40
1.9998779296875
  0
HATCH
  5
115
100
AcDbEntity
  8
0
370
              -2
390
0
  6
Continuous
 62
               0
100
AcDbHatch
 10
0.0
 20
0.0
 30
0.0
210
0.0
220
0.0
230
1.0
  2
SOLID
 70
               1
 71
               1
 91
        1
 92
        1
 93
        1
 72
               2
 10
397.93302813644345
 20
-81.802242851799747
 40
1.9998779296875
 50
0.0
 51
360.0
 73
               0
 97
        1
330
114
 75
               0
 76
               1
 98
        1
 10
0.0
 20
0.0
  0
MTEXT
  5
116
100
AcDbEntity
  8
0
390
0
 62
               0
100
AcDbMText
 10
364.05541094894346
 20
-208.11474453397528
 30
0.0
 40
24.432617187500004
 41
0.0
 71
               1
 72
               1
  1
205
  7
ＭＳ ゴシック
 11
0.0
 21
1.0
 31
0.0
 73
               1
 44
0.7828267384257843
  0
POINT
  5
117
100
AcDbEntity
  8
Defpoints
370
               0
390
0
 62
               0
100
AcDbPoint
 10
527.14479028922119
 20
-81.802242851799747
 30
0.0
  0
POINT
  5
118
100
AcDbEntity
  8
Defpoints
370
               0
390
0
 62
               0
100
AcDbPoint
 10
527.14479028922119
 20
-286.8022428517998
 30
0.0
  0
POINT
  5
119
100
AcDbEntity
  8
Defpoints
370
               0
390
0
 62
               0
100
AcDbPoint
 10
397.93302813644345
 20
-286.8022428517998
 30
0.0
  0
ENDBLK
  5
11A
100
AcDbEntity
  8
notes
390
0
100
AcDbBlockEnd
  0
BLOCK
  5
11B
100
AcDbEntity
  8
notes
390
0
100
AcDbBlockBegin
  2
*D16
 70
               1
 10
0.0
 20
0.0
 30
0.0
  3
*D16
  1

  0
LINE
  5
11C
100
AcDbEntity
  8
0
370
              -2
390
0
  6
Continuous
 62
               0
100
AcDbLine
 10
547.55828502121847
 20
-816.80224285179975
 30
0.0
 11
547.55828502121847
 21
-1051.7857063934664
 31
0.0
  0
LINE
  5
11D
100
AcDbEntity
  8
0
370
              -2
390
0
  6
Continuous
 62
               0
100
AcDbLine
 10
497.55828502121847
 20
-966.7857063934664
 30
0.0
 11
497.55828502121847
 21
-1051.7857063934664
 31
0.0
  0
LINE
  5
11E
100
AcDbEntity
  8
0
370
              -2
390
0
  6
Continuous
 62
               0
100
AcDbLine
 10
547.55828502121847
 20
-1051.7857063934664
 30
0.0
 11
497.55828502121847
 21
-1051.7857063934664
 31
0.0
  0
CIRCLE
  5
11F
102
{ACAD_REACTORS
330
120
102
}
100
AcDbEntity
  8
0
370
              -2
390
0
  6
Continuous
 62
               0
100
AcDbCircle
 10
547.55828502121847
 20
-1051.7857063934664
 30
0.0
 40
1.9998779296875
  0
HATCH
  5
120
100
AcDbEntity
  8
0
370
              -2
390
0
  6
Continuous
 62
               0
100
AcDbHatch
 10
0.0
 20
0.0
 30
0.0
210
0.0
220
0.0
230
1.0
  2
SOLID
 70
               1
 71
               1
 91
        1
 92
        1
 93
        1
 72
               2
 10
547.55828502121847
 20
-1051.7857063934664
 40
1.9998779296875
 50
0.0
 51
360.0
 73
               0
 97
        1
330
11F
 75
               0
 76
               1
 98
        1
 10
0.0
 20
0.0
  0
CIRCLE
  5
121
102
{ACAD_REACTORS
330
122
102
}
100
AcDbEntity
  8
0
370
              -2
390
0
  6
Continuous
 62
               0
100
AcDbCircle
 10
497.55828502121847
 20
-1051.7857063934664
 30
0.0
 40
1.9998779296875
  0
HATCH
  5
122
100
AcDbEntity
  8
0
370
              -2
390
0
  6
Continuous
 62
               0
100
AcDbHatch
 10
0.0
 20
0.0
 30
0.0
210
0.0
220
0.0
230
1.0
  2
SOLID
 70
               1
 71
               1
 91
        1
 92
        1
 93
        1
 72
               2
 10
497.55828502121847
 20
-1051.7857063934664
 40
1.9998779296875
 50
0.0
 51
360.0
 73
               0
 97
        1
330
121
 75
               0
 76
               1
 98
        1
 10
0.0
 20
0.0
  0
MTEXT
  5
123
100
AcDbEntity
  8
0
390
0
 62
               0
100
AcDbMText
 10
506.68328502121847
 20
-1017.9080892059663
 30
0.0
 40
24.432617187500004
 41
0.0
 71
               1
 72
               1
  1
50
  7
ＭＳ ゴシック
 73
               1
 44
0.7828267384257843
  0
POINT
  5
124
100
AcDbEntity
  8
Defpoints
370
               0
390
0
 62
               0
100
AcDbPoint
 10
497.55828502121847
 20
-941.7857063934664
 30
0.0
  0
POINT
  5
125
100
AcDbEntity
  8
Defpoints
370
               0
390
0
 62
               0
100
AcDbPoint
 10
547.55828502121847
 20
-791.80224285179975
 30
0.0
  0
POINT
  5
126
100
AcDbEntity
  8
Defpoints
370
               0
390
0
 62
               0
100
AcDbPoint
 10
547.55828502121847
 20
-1051.7857063934664
 30
0.0
  0
ENDBLK
  5
127
100
AcDbEntity
  8
notes
390
0
100
AcDbBlockEnd
  0
BLOCK
  5
128
100
AcDbEntity
  8
notes
390
0
100
AcDbBlockBegin
  2
*D17
 70
               1
 10
0.0
 20
0.0
 30
0.0
  3
*D17
  1

  0
LINE
  5
129
100
AcDbEntity
  8
0
370
              -2
390
0
  6
Continuous
 62
               0
100
AcDbLine
 10
627.57227509216534
 20
559.76293483249685
 30
0.0
 11
627.57227509216534
 21
474.07178451298478
 31
0.0
  0
LINE
  5
12A
100
AcDbEntity
  8
0
370
              -2
390
0
  6
Continuous
 62
               0
100
AcDbLine
 10
667.56385175615458
 20
809.88016589991616
 30
0.0
 11
667.56385175615458
 21
474.07178451298478
 31
0.0
  0
LINE
  5
12B
100
AcDbEntity
  8
0
370
              -2
390
0
  6
Continuous
 62
               0
100
AcDbLine
 10
627.57227509216534
 20
474.07178451298478
 30
0.0
 11
667.56385175615458
 21
474.07178451298478
 31
0.0
  0
CIRCLE
  5
12C
102
{ACAD_REACTORS
330
12D
102
}
100
AcDbEntity
  8
0
370
              -2
390
0
  6
Continuous
 62
               0
100
AcDbCircle
 10
627.57227509216534
 20
474.07178451298478
 30
0.0
 40
1.9998779296875
  0
HATCH
  5
12D
100
AcDbEntity
  8
0
370
              -2
390
0
  6
Continuous
 62
               0
100
AcDbHatch
 10
0.0
 20
0.0
 30
0.0
210
0.0
220
0.0
230
1.0
  2
SOLID
 70
               1
 71
               1
 91
        1
 92
        1
 93
        1
 72
               2
 10
627.57227509216534
 20
474.07178451298478
 40
1.9998779296875
 50
0.0
 51
360.0
 73
               0
 97
        1
330
12C
 75
               0
 76
               1
 98
        1
 10
0.0
 20
0.0
  0
CIRCLE
  5
12E
102
{ACAD_REACTORS
330
12F
102
}
100
AcDbEntity
  8
0
370
              -2
390
0
  6
Continuous
 62
               0
100
AcDbCircle
 10
667.56385175615458
 20
474.07178451298478
 30
0.0
 40
1.9998779296875
  0
HATCH
  5
12F
100
AcDbEntity
  8
0
370
              -2
390
0
  6
Continuous
 62
               0
100
AcDbHatch
 10
0.0
 20
0.0
 30
0.0
210
0.0
220
0.0
230
1.0
  2
SOLID
 70
               1
 71
               1
 91
        1
 92
        1
 93
        1
 72
               2
 10
667.56385175615458
 20
474.07178451298478
 40
1.9998779296875
 50
0.0
 51
360.0
 73
               0
 97
        1
330
12E
 75
               0
 76
               1
 98
        1
 10
0.0
 20
0.0
  0
MTEXT
  5
130
100
AcDbEntity
  8
0
390
0
 62
               0
100
AcDbMText
 10
631.69306342415996
 20
507.94940170048483
 30
0.0
 40
24.432617187500004
 41
0.0
 71
               1
 72
               1
  1
40
  7
ＭＳ ゴシック
 73
               1
 44
0.7828267384257843
  0
POINT
  5
131
100
AcDbEntity
  8
Defpoints
370
               0
390
0
 62
               0
100
AcDbPoint
 10
667.56385175615458
 20
834.88016589991616
 30
0.0
  0
POINT
  5
132
100
AcDbEntity
  8
Defpoints
370
               0
390
0
 62
               0
100
AcDbPoint
 10
627.57227509216534
 20
584.76293483249685
 30
0.0
  0
POINT
  5
133
100
AcDbEntity
  8
Defpoints
370
               0
390
0
 62
               0
100
AcDbPoint
 10
627.57227509216534
 20
474.07178451298478
 30
0.0
  0
ENDBLK
  5
134
100
AcDbEntity
  8
notes
390
0
100
AcDbBlockEnd
  0
BLOCK
  5
135
100
AcDbEntity
  8
notes
390
0
100
AcDbBlockBegin
  2
*D18
 70
               1
 10
0.0
 20
0.0
 30
0.0
  3
*D18
  1

  0
LINE
  5
136
100
AcDbEntity
  8
0
370
              -2
390
0
  6
Continuous
 62
               0
100
AcDbLine
 10
472.56465363208076
 20
999.10485742964806
 30
0.0
 11
397.55828502121847
 21
999.10485742964806
 31
0.0
  0
LINE
  5
137
100
AcDbEntity
  8
0
370
              -2
390
0
  6
Continuous
 62
               0
100
AcDbLine
 10
482.56385175615458
 20
1064.1048574296481
 30
0.0
 11
397.55828502121847
 21
1064.1048574296481
 31
0.0
  0
LINE
  5
138
100
AcDbEntity
  8
0
370
              -2
390
0
  6
Continuous
 62
               0
100
AcDbLine
 10
397.55828502121847
 20
999.10485742964806
 30
0.0
 11
397.55828502121847
 21
1064.1048574296481
 31
0.0
  0
CIRCLE
  5
139
102
{ACAD_REACTORS
330
13A
102
}
100
AcDbEntity
  8
0
370
              -2
390
0
  6
Continuous
 62
               0
100
AcDbCircle
 10
397.55828502121847
 20
999.10485742964806
 30
0.0
 40
1.9998779296875
  0
HATCH
  5
13A
100
AcDbEntity
  8
0
370
              -2
390
0
  6
Continuous
 62
               0
100
AcDbHatch
 10
0.0
 20
0.0
 30
0.0
210
0.0
220
0.0
230
1.0
  2
SOLID
 70
               1
 71
               1
 91
        1
 92
        1
 93
        1
 72
               2
 10
397.55828502121847
 20
999.10485742964806
 40
1.9998779296875
 50
0.0
 51
360.0
 73
               0
 97
        1
330
139
 75
               0
 76
               1
 98
        1
 10
0.0
 20
0.0
  0
CIRCLE
  5
13B
102
{ACAD_REACTORS
330
13C
102
}
100
AcDbEntity
  8
0
370
              -2
390
0
  6
Continuous
 62
               0
100
AcDbCircle
 10
397.55828502121847
 20
1064.1048574296481
 30
0.0
 40
1.9998779296875
  0
HATCH
  5
13C
100
AcDbEntity
  8
0
370
              -2
390
0
  6
Continuous
 62
               0
100
AcDbHatch
 10
0.0
 20
0.0
 30
0.0
210
0.0
220
0.0
230
1.0
  2
SOLID
 70
               1
 71
               1
 91
        1
 92
        1
 93
        1
 72
               2
 10
397.55828502121847
 20
1064.1048574296481
 40
1.9998779296875
 50
0.0
 51
360.0
 73
               0
 97
        1
330
13B
 75
               0
 76
               1
 98
        1
 10
0.0
 20
0.0
  0
MTEXT
  5
13D
100
AcDbEntity
  8
0
390
0
 62
               0
100
AcDbMText
 10
363.68066783371847
 20
1015.7298574296481
 30
0.0
 40
24.432617187500004
 41
0.0
 71
               1
 72
               1
  1
65
  7
ＭＳ ゴシック
 11
0.0
 21
1.0
 31
0.0
 73
               1
 44
0.7828267384257843
  0
POINT
  5
13E
100
AcDbEntity
  8
Defpoints
370
               0
390
0
 62
               0
100
AcDbPoint
 10
507.56385175615458
 20
1064.1048574296481
 30
0.0
  0
POINT
  5
13F
100
AcDbEntity
  8
Defpoints
370
               0
390
0
 62
               0
100
AcDbPoint
 10
497.56465363208076
 20
999.10485742964806
 30
0.0
  0
POINT
  5
140
100
AcDbEntity
  8
Defpoints
370
               0
390
0
 62
               0
100
AcDbPoint
 10
397.55828502121847
 20
999.10485742964806
 30
0.0
  0
ENDBLK
  5
141
100
AcDbEntity
  8
notes
390
0
100
AcDbBlockEnd
  0
BLOCK
  5
142
100
AcDbEntity
  8
notes
390
0
100
AcDbBlockBegin
  2
*D19
 70
               1
 10
0.0
 20
0.0
 30
0.0
  3
*D19
  1

  0
LINE
  5
143
100
AcDbEntity
  8
0
370
              -2
390
0
  6
Continuous
 62
               0
100
AcDbLine
 10
692.56385175615458
 20
874.74181899716882
 30
0.0
 11
767.56385175615458
 21
874.74181899716882
 31
0.0
  0
LINE
  5
144
100
AcDbEntity
  8
0
370
              -2
390
0
  6
Continuous
 62
               0
100
AcDbLine
 10
652.56754977257094
 20
1064.7418189971688
 30
0.0
 11
767.56385175615458
 21
1064.7418189971688
 31
0.0
  0
LINE
  5
145
100
AcDbEntity
  8
0
370
              -2
390
0
  6
Continuous
 62
               0
100
AcDbLine
 10
767.56385175615458
 20
874.74181899716882
 30
0.0
 11
767.56385175615458
 21
1064.7418189971688
 31
0.0
  0
CIRCLE
  5
146
102
{ACAD_REACTORS
330
147
102
}
100
AcDbEntity
  8
0
370
              -2
390
0
  6
Continuous
 62
               0
100
AcDbCircle
 10
767.56385175615458
 20
874.74181899716882
 30
0.0
 40
1.9998779296875
  0
HATCH
  5
147
100
AcDbEntity
  8
0
370
              -2
390
0
  6
Continuous
 62
               0
100
AcDbHatch
 10
0.0
 20
0.0
 30
0.0
210
0.0
220
0.0
230
1.0
  2
SOLID
 70
               1
 71
               1
 91
        1
 92
        1
 93
        1
 72
               2
 10
767.56385175615458
 20
874.74181899716882
 40
1.9998779296875
 50
0.0
 51
360.0
 73
               0
 97
        1
330
146
 75
               0
 76
               1
 98
        1
 10
0.0
 20
0.0
  0
CIRCLE
  5
148
102
{ACAD_REACTORS
330
149
102
}
100
AcDbEntity
  8
0
370
              -2
390
0
  6
Continuous
 62
               0
100
AcDbCircle
 10
767.56385175615458
 20
1064.7418189971688
 30
0.0
 40
1.9998779296875
  0
HATCH
  5
149
100
AcDbEntity
  8
0
370
              -2
390
0
  6
Continuous
 62
               0
100
AcDbHatch
 10
0.0
 20
0.0
 30
0.0
210
0.0
220
0.0
230
1.0
  2
SOLID
 70
               1
 71
               1
 91
        1
 92
        1
 93
        1
 72
               2
 10
767.56385175615458
 20
1064.7418189971688
 40
1.9998779296875
 50
0.0
 51
360.0
 73
               0
 97
        1
330
148
 75
               0
 76
               1
 98
        1
 10
0.0
 20
0.0
  0
MTEXT
  5
14A
100
AcDbEntity
  8
0
390
0
 62
               0
100
AcDbMText
 10
733.68623456865453
 20
945.92931731499334
 30
0.0
 40
24.432617187500004
 41
0.0
 71
               1
 72
               1
  1
190
  7
ＭＳ ゴシック
 11
0.0
 21
1.0
 31
0.0
 73
               1
 44
0.7828267384257843
  0
POINT
  5
14B
100
AcDbEntity
  8
Defpoints
370
               0
390
0
 62
               0
100
AcDbPoint
 10
627.56754977257094
 20
1064.7418189971688
 30
0.0
  0
POINT
  5
14C
100
AcDbEntity
  8
Defpoints
370
               0
390
0
 62
               0
100
AcDbPoint
 10
667.56385175615458
 20
874.74181899716882
 30
0.0
  0
POINT
  5
14D
100
AcDbEntity
  8
Defpoints
370
               0
390
0
 62
               0
100
AcDbPoint
 10
767.56385175615458
 20
874.74181899716882
 30
0.0
  0
ENDBLK
  5
14E
100
AcDbEntity
  8
notes
390
0
100
AcDbBlockEnd
  0
BLOCK
  5
14F
100
AcDbEntity
  8
notes
390
0
100
AcDbBlockBegin
  2
*D20
 70
               1
 10
0.0
 20
0.0
 30
0.0
  3
*D20
  1

  0
LINE
  5
150
100
AcDbEntity
  8
0
370
              -2
390
0
  6
Continuous
 62
               0
100
AcDbLine
 10
497.56933085340006
 20
854.07178451298182
 30
0.0
 11
497.56933085340006
 21
846.06239764482893
 31
0.0
  0
LINE
  5
151
100
AcDbEntity
  8
0
370
              -2
390
0
  6
Continuous
 62
               0
100
AcDbLine
 10
612.56933085340006
 20
854.07178451298182
 30
0.0
 11
612.56933085340006
 21
846.06239764482893
 31
0.0
  0
LINE
  5
152
100
AcDbEntity
  8
0
370
              -2
390
0
  6
Continuous
 62
               0
100
AcDbLine
 10
497.56933085340006
 20
846.06239764482893
 30
0.0
 11
348.38148418879041
 21
846.06239764482893
 31
0.0
  0
LINE
  5
153
100
AcDbEntity
  8
0
370
              -2
390
0
  6
Continuous
 62
               0
100
AcDbLine
 10
497.56933085340006
 20
846.06239764482893
 30
0.0
 11
612.56933085340006
 21
846.06239764482893
 31
0.0
  0
CIRCLE
  5
154
102
{ACAD_REACTORS
330
155
102
}
100
AcDbEntity
  8
0
370
              -2
390
0
  6
Continuous
 62
               0
100
AcDbCircle
 10
497.56933085340006
 20
846.06239764482893
 30
0.0
 40
1.9998779296875
  0
HATCH
  5
155
100
AcDbEntity
  8
0
370
              -2
390
0
  6
Continuous
 62
               0
100
AcDbHatch
 10
0.0
 20
0.0
 30
0.0
210
0.0
220
0.0
230
1.0
  2
SOLID
 70
               1
 71
               1
 91
        1
 92
        1
 93
        1
 72
               2
 10
497.56933085340006
 20
846.06239764482893
 40
1.9998779296875
 50
0.0
 51
360.0
 73
               0
 97
        1
330
154
 75
               0
 76
               1
 98
        1
 10
0.0
 20
0.0
  0
CIRCLE
  5
156
102
{ACAD_REACTORS
330
157
102
}
100
AcDbEntity
  8
0
370
              -2
390
0
  6
Continuous
 62
               0
100
AcDbCircle
 10
612.56933085340006
 20
846.06239764482893
 30
0.0
 40
1.9998779296875
  0
HATCH
  5
157
100
AcDbEntity
  8
0
370
              -2
390
0
  6
Continuous
 62
               0
100
AcDbHatch
 10
0.0
 20
0.0
 30
0.0
210
0.0
220
0.0
230
1.0
  2
SOLID
 70
               1
 71
               1
 91
        1
 92
        1
 93
        1
 72
               2
 10
612.56933085340006
 20
846.06239764482893
 40
1.9998779296875
 50
0.0
 51
360.0
 73
               0
 97
        1
330
156
 75
               0
 76
               1
 98
        1
 10
0.0
 20
0.0
  0
MTEXT
  5
158
100
AcDbEntity
  8
0
390
0
 62
               0
100
AcDbMText
 10
348.38148418879041
 20
879.94001483232887
 30
0.0
 40
24.432617187500004
 41
0.0
 71
               1
 72
               1
  1
115(深さ)
  7
ＭＳ ゴシック
 73
               1
 44
0.7828267384257843
  0
POINT
  5
159
100
AcDbEntity
  8
Defpoints
370
               0
390
0
 62
               0
100
AcDbPoint
 10
612.56933085340006
 20
879.07178451298182
 30
0.0
  0
POINT
  5
15A
100
AcDbEntity
  8
Defpoints
370
               0
390
0
 62
               0
100
AcDbPoint
 10
497.56933085340006
 20
879.07178451298182
 30
0.0
  0
POINT
  5
15B
100
AcDbEntity
  8
Defpoints
370
               0
390
0
 62
               0
100
AcDbPoint
 10
497.56933085340006
 20
846.06239764482893
 30
0.0
  0
ENDBLK
  5
15C
100
AcDbEntity
  8
notes
390
0
100
AcDbBlockEnd
  0
BLOCK
  5
15D
100
AcDbEntity
  8
notes
390
0
100
AcDbBlockBegin
  2
*D21
 70
               1
 10
0.0
 20
0.0
 30
0.0
  3
*D21
  1

  0
LINE
  5
15E
100
AcDbEntity
  8
0
370
              -2
390
0
  6
Continuous
 62
               0
100
AcDbLine
 10
497.55828502121847
 20
113.2142936065336
 30
0.0
 11
497.55828502121847
 21
198.2142936065336
 31
0.0
  0
LINE
  5
15F
100
AcDbEntity
  8
0
370
              -2
390
0
  6
Continuous
 62
               0
100
AcDbLine
 10
667.55828502121847
 20
-361.94058975454726
 30
0.0
 11
667.55828502121847
 21
198.21429360653366
 31
0.0
  0
LINE
  5
160
100
AcDbEntity
  8
0
370
              -2
390
0
  6
Continuous
 62
               0
100
AcDbLine
 10
497.55828502121847
 20
198.2142936065336
 30
0.0
 11
667.55828502121847
 21
198.21429360653366
 31
0.0
  0
CIRCLE
  5
161
102
{ACAD_REACTORS
330
162
102
}
100
AcDbEntity
  8
0
370
              -2
390
0
  6
Continuous
 62
               0
100
AcDbCircle
 10
497.55828502121847
 20
198.2142936065336
 30
0.0
 40
1.9998779296875
  0
HATCH
  5
162
100
AcDbEntity
  8
0
370
              -2
390
0
  6
Continuous
 62
               0
100
AcDbHatch
 10
0.0
 20
0.0
 30
0.0
210
0.0
220
0.0
230
1.0
  2
SOLID
 70
               1
 71
               1
 91
        1
 92
        1
 93
        1
 72
               2
 10
497.55828502121847
 20
198.2142936065336
 40
1.9998779296875
 50
0.0
 51
360.0
 73
               0
 97
        1
330
161
 75
               0
 76
               1
 98
        1
 10
0.0
 20
0.0
  0
CIRCLE
  5
163
102
{ACAD_REACTORS
330
164
102
}
100
AcDbEntity
  8
0
370
              -2
390
0
  6
Continuous
 62
               0
100
AcDbCircle
 10
667.55828502121847
 20
198.21429360653366
 30
0.0
 40
1.9998779296875
  0
HATCH
  5
164
100
AcDbEntity
  8
0
370
              -2
390
0
  6
Continuous
 62
               0
100
AcDbHatch
 10
0.0
 20
0.0
 30
0.0
210
0.0
220
0.0
230
1.0
  2
SOLID
 70
               1
 71
               1
 91
        1
 92
        1
 93
        1
 72
               2
 10
667.55828502121847
 20
198.21429360653366
 40
1.9998779296875
 50
0.0
 51
360.0
 73
               0
 97
        1
330
163
 75
               0
 76
               1
 98
        1
 10
0.0
 20
0.0
  0
MTEXT
  5
165
100
AcDbEntity
  8
0
390
0
 62
               0
100
AcDbMText
 10
558.74578333904299
 20
232.09191079403359
 30
0.0
 40
24.432617187500004
 41
0.0
 71
               1
 72
               1
  1
170
  7
ＭＳ ゴシック
 73
               1
 44
0.7828267384257843
  0
POINT
  5
166
100
AcDbEntity
  8
Defpoints
370
               0
390
0
 62
               0
100
AcDbPoint
 10
667.55828502121847
 20
-386.94058975454726
 30
0.0
  0
POINT
  5
167
100
AcDbEntity
  8
Defpoints
370
               0
390
0
 62
               0
100
AcDbPoint
 10
497.55828502121847
 20
88.214293606533602
 30
0.0
  0
POINT
  5
168
100
AcDbEntity
  8
Defpoints
370
               0
390
0
 62
               0
100
AcDbPoint
 10
497.55828502121847
 20
198.2142936065336
 30
0.0
  0
ENDBLK
  5
169
100
AcDbEntity
  8
notes
390
0
100
AcDbBlockEnd
  0
BLOCK
  5
16A
100
AcDbEntity
  8
notes
390
0
100
AcDbBlockBegin
  2
*D22
 70
               1
 10
0.0
 20
0.0
 30
0.0
  3
*D22
  1

  0
LINE
  5
16B
100
AcDbEntity
  8
0
370
              -2
390
0
  6
Continuous
 62
               0
100
AcDbLine
 10
497.57227509216546
 20
559.06280709786336
 30
0.0
 11
497.57227509216546
 21
474.07178451298478
 31
0.0
  0
LINE
  5
16C
100
AcDbEntity
  8
0
370
              -2
390
0
  6
Continuous
 62
               0
100
AcDbLine
 10
627.57227509216534
 20
559.76293483249685
 30
0.0
 11
627.57227509216534
 21
474.07178451298478
 31
0.0
  0
LINE
  5
16D
100
AcDbEntity
  8
0
370
              -2
390
0
  6
Continuous
 62
               0
100
AcDbLine
 10
497.57227509216546
 20
474.07178451298478
 30
0.0
 11
627.57227509216534
 21
474.07178451298478
 31
0.0
  0
CIRCLE
  5
16E
102
{ACAD_REACTORS
330
16F
102
}
100
AcDbEntity
  8
0
370
              -2
390
0
  6
Continuous
 62
               0
100
AcDbCircle
 10
497.57227509216546
 20
474.07178451298478
 30
0.0
 40
1.9998779296875
  0
HATCH
  5
16F
100
AcDbEntity
  8
0
370
              -2
390
0
  6
Continuous
 62
               0
100
AcDbHatch
 10
0.0
 20
0.0
 30
0.0
210
0.0
220
0.0
230
1.0
  2
SOLID
 70
               1
 71
               1
 91
        1
 92
        1
 93
        1
 72
               2
 10
497.57227509216546
 20
474.07178451298478
 40
1.9998779296875
 50
0.0
 51
360.0
 73
               0
 97
        1
330
16E
 75
               0
 76
               1
 98
        1
 10
0.0
 20
0.0
  0
CIRCLE
  5
170
102
{ACAD_REACTORS
330
171
102
}
100
AcDbEntity
  8
0
370
              -2
390
0
  6
Continuous
 62
               0
100
AcDbCircle
 10
627.57227509216534
 20
474.07178451298478
 30
0.0
 40
1.9998779296875
  0
HATCH
  5
171
100
AcDbEntity
  8
0
370
              -2
390
0
  6
Continuous
 62
               0
100
AcDbHatch
 10
0.0
 20
0.0
 30
0.0
210
0.0
220
0.0
230
1.0
  2
SOLID
 70
               1
 71
               1
 91
        1
 92
        1
 93
        1
 72
               2
 10
627.57227509216534
 20
474.07178451298478
 40
1.9998779296875
 50
0.0
 51
360.0
 73
               0
 97
        1
330
170
 75
               0
 76
               1
 98
        1
 10
0.0
 20
0.0
  0
MTEXT
  5
172
100
AcDbEntity
  8
0
390
0
 62
               0
100
AcDbMText
 10
538.75977340998998
 20
507.94940170048483
 30
0.0
 40
24.432617187500004
 41
0.0
 71
               1
 72
               1
  1
130
  7
ＭＳ ゴシック
 73
               1
 44
0.7828267384257843
  0
POINT
  5
173
100
AcDbEntity
  8
Defpoints
370
               0
390
0
 62
               0
100
AcDbPoint
 10
627.57227509216534
 20
584.76293483249685
 30
0.0
  0
POINT
  5
174
100
AcDbEntity
  8
Defpoints
370
               0
390
0
 62
               0
100
AcDbPoint
 10
497.57227509216546
 20
584.06280709786336
 30
0.0
  0
POINT
  5
175
100
AcDbEntity
  8
Defpoints
370
               0
390
0
 62
               0
100
AcDbPoint
 10
497.57227509216546
 20
474.07178451298478
 30
0.0
  0
ENDBLK
  5
176
100
AcDbEntity
  8
notes
390
0
100
AcDbBlockEnd
  0
BLOCK
  5
177
100
AcDbEntity
  8
notes
390
0
100
AcDbBlockBegin
  2
*D23
 70
               1
 10
0.0
 20
0.0
 30
0.0
  3
*D23
  1

  0
LINE
  5
178
100
AcDbEntity
  8
0
370
              -2
390
0
  6
Continuous
 62
               0
100
AcDbLine
 10
-582.09354624283219
 20
-326.78570639346651
 30
0.0
 11
-702.09354624283219
 21
-326.78570639346651
 31
0.0
  0
LINE
  5
179
100
AcDbEntity
  8
0
370
              -2
390
0
  6
Continuous
 62
               0
100
AcDbLine
 10
-582.09354624283219
 20
-226.78570639346646
 30
0.0
 11
-702.09354624283219
 21
-226.78570639346646
 31
0.0
  0
LINE
  5
17A
100
AcDbEntity
  8
0
370
              -2
390
0
  6
Continuous
 62
               0
100
AcDbLine
 10
-702.09354624283219
 20
-326.78570639346651
 30
0.0
 11
-702.09354624283219
 21
-226.78570639346646
 31
0.0
  0
CIRCLE
  5
17B
102
{ACAD_REACTORS
330
17C
102
}
100
AcDbEntity
  8
0
370
              -2
390
0
  6
Continuous
 62
               0
100
AcDbCircle
 10
-702.09354624283219
 20
-326.78570639346651
 30
0.0
 40
1.9998779296875
  0
HATCH
  5
17C
100
AcDbEntity
  8
0
370
              -2
390
0
  6
Continuous
 62
               0
100
AcDbHatch
 10
0.0
 20
0.0
 30
0.0
210
0.0
220
0.0
230
1.0
  2
SOLID
 70
               1
 71
               1
 91
        1
 92
        1
 93
        1
 72
               2
 10
-702.09354624283219
 20
-326.78570639346651
 40
1.9998779296875
 50
0.0
 51
360.0
 73
               0
 97
        1
330
17B
 75
               0
 76
               1
 98
        1
 10
0.0
 20
0.0
  0
CIRCLE
  5
17D
102
{ACAD_REACTORS
330
17E
102
}
100
AcDbEntity
  8
0
370
              -2
390
0
  6
Continuous
 62
               0
100
AcDbCircle
 10
-702.09354624283219
 20
-226.78570639346646
 30
0.0
 40
1.9998779296875
  0
HATCH
  5
17E
100
AcDbEntity
  8
0
370
              -2
390
0
  6
Continuous
 62
               0
100
AcDbHatch
 10
0.0
 20
0.0
 30
0.0
210
0.0
220
0.0
230
1.0
  2
SOLID
 70
               1
 71
               1
 91
        1
 92
        1
 93
        1
 72
               2
 10
-702.09354624283219
 20
-226.78570639346646
 40
1.9998779296875
 50
0.0
 51
360.0
 73
               0
 97
        1
330
17D
 75
               0
 76
               1
 98
        1
 10
0.0
 20
0.0
  0
MTEXT
  5
17F
100
AcDbEntity
  8
0
390
0
 62
               0
100
AcDbMText
 10
-735.97116343033224
 20
-300.59820807564199
 30
0.0
 40
24.432617187500004
 41
0.0
 71
               1
 72
               1
  1
100
  7
ＭＳ ゴシック
 11
0.0
 21
1.0
 31
0.0
 73
               1
 44
0.7828267384257843
  0
POINT
  5
180
100
AcDbEntity
  8
Defpoints
370
               0
390
0
 62
               0
100
AcDbPoint
 10
-557.09354624283219
 20
-226.78570639346646
 30
0.0
  0
POINT
  5
181
100
AcDbEntity
  8
Defpoints
370
               0
390
0
 62
               0
100
AcDbPoint
 10
-557.09354624283219
 20
-326.78570639346651
 30
0.0
  0
POINT
  5
182
100
AcDbEntity
  8
Defpoints
370
               0
390
0
 62
               0
100
AcDbPoint
 10
-702.09354624283219
 20
-326.78570639346651
 30
0.0
  0
ENDBLK
  5
183
100
AcDbEntity
  8
notes
390
0
100
AcDbBlockEnd
  0
BLOCK
  5
184
100
AcDbEntity
  8
notes
390
0
100
AcDbBlockBegin
  2
*D24
 70
               1
 10
0.0
 20
0.0
 30
0.0
  3
*D24
  1

  0
LINE
  5
185
100
AcDbEntity
  8
0
370
              -2
390
0
  6
Continuous
 62
               0
100
AcDbLine
 10
-582.09354624283219
 20
-626.7857063934664
 30
0.0
 11
-702.09354624283219
 21
-626.7857063934664
 31
0.0
  0
LINE
  5
186
100
AcDbEntity
  8
0
370
              -2
390
0
  6
Continuous
 62
               0
100
AcDbLine
 10
-582.09354624283219
 20
-526.7857063934664
 30
0.0
 11
-702.09354624283219
 21
-526.7857063934664
 31
0.0
  0
LINE
  5
187
100
AcDbEntity
  8
0
370
              -2
390
0
  6
Continuous
 62
               0
100
AcDbLine
 10
-702.09354624283219
 20
-626.7857063934664
 30
0.0
 11
-702.09354624283219
 21
-526.7857063934664
 31
0.0
  0
CIRCLE
  5
188
102
{ACAD_REACTORS
330
189
102
}
100
AcDbEntity
  8
0
370
              -2
390
0
  6
Continuous
 62
               0
100
AcDbCircle
 10
-702.09354624283219
 20
-626.7857063934664
 30
0.0
 40
1.9998779296875
  0
HATCH
  5
189
100
AcDbEntity
  8
0
370
              -2
390
0
  6
Continuous
 62
               0
100
AcDbHatch
 10
0.0
 20
0.0
 30
0.0
210
0.0
220
0.0
230
1.0
  2
SOLID
 70
               1
 71
               1
 91
        1
 92
        1
 93
        1
 72
               2
 10
-702.09354624283219
 20
-626.7857063934664
 40
1.9998779296875
 50
0.0
 51
360.0
 73
               0
 97
        1
330
188
 75
               0
 76
               1
 98
        1
 10
0.0
 20
0.0
  0
CIRCLE
  5
18A
102
{ACAD_REACTORS
330
18B
102
}
100
AcDbEntity
  8
0
370
              -2
390
0
  6
Continuous
 62
               0
100
AcDbCircle
 10
-702.09354624283219
 20
-526.7857063934664
 30
0.0
 40
1.9998779296875
  0
HATCH
  5
18B
100
AcDbEntity
  8
0
370
              -2
390
0
  6
Continuous
 62
               0
100
AcDbHatch
 10
0.0
 20
0.0
 30
0.0
210
0.0
220
0.0
230
1.0
  2
SOLID
 70
               1
 71
               1
 91
        1
 92
        1
 93
        1
 72
               2
 10
-702.09354624283219
 20
-526.7857063934664
 40
1.9998779296875
 50
0.0
 51
360.0
 73
               0
 97
        1
330
18A
 75
               0
 76
               1
 98
        1
 10
0.0
 20
0.0
  0
MTEXT
  5
18C
100
AcDbEntity
  8
0
390
0
 62
               0
100
AcDbMText
 10
-735.97116343033224
 20
-600.59820807564188
 30
0.0
 40
24.432617187500004
 41
0.0
 71
               1
 72
               1
  1
100
  7
ＭＳ ゴシック
 11
0.0
 21
1.0
 31
0.0
 73
               1
 44
0.7828267384257843
  0
POINT
  5
18D
100
AcDbEntity
  8
Defpoints
370
               0
390
0
 62
               0
100
AcDbPoint
 10
-557.09354624283219
 20
-526.7857063934664
 30
0.0
  0
POINT
  5
18E
100
AcDbEntity
  8
Defpoints
370
               0
390
0
 62
               0
100
AcDbPoint
 10
-557.09354624283219
 20
-626.7857063934664
 30
0.0
  0
POINT
  5
18F
100
AcDbEntity
  8
Defpoints
370
               0
390
0
 62
               0
100
AcDbPoint
 10
-702.09354624283219
 20
-626.7857063934664
 30
0.0
  0
ENDBLK
  5
190
100
AcDbEntity
  8
notes
390
0
100
AcDbBlockEnd
  0
BLOCK
  5
191
100
AcDbEntity
  8
notes
390
0
100
AcDbBlockBegin
  2
*D25
 70
               1
 10
0.0
 20
0.0
 30
0.0
  3
*D25
  1

  0
LINE
  5
192
100
AcDbEntity
  8
0
370
              -2
390
0
  6
Continuous
 62
               0
100
AcDbLine
 10
-327.09354624283219
 20
1010.8195937317976
 30
0.0
 11
-252.09354624283208
 21
1010.8195937317976
 31
0.0
  0
LINE
  5
193
100
AcDbEntity
  8
0
370
              -2
390
0
  6
Continuous
 62
               0
100
AcDbLine
 10
-327.09354624283219
 20
560.81959373180041
 30
0.0
 11
-252.09354624283208
 21
560.81959373180041
 31
0.0
  0
LINE
  5
194
100
AcDbEntity
  8
0
370
              -2
390
0
  6
Continuous
 62
               0
100
AcDbLine
 10
-252.09354624283208
 20
1010.8195937317976
 30
0.0
 11
-252.09354624283208
 21
560.81959373180041
 31
0.0
  0
CIRCLE
  5
195
102
{ACAD_REACTORS
330
196
102
}
100
AcDbEntity
  8
0
370
              -2
390
0
  6
Continuous
 62
               0
100
AcDbCircle
 10
-252.09354624283208
 20
1010.8195937317976
 30
0.0
 40
1.9998779296875
  0
HATCH
  5
196
100
AcDbEntity
  8
0
370
              -2
390
0
  6
Continuous
 62
               0
100
AcDbHatch
 10
0.0
 20
0.0
 30
0.0
210
0.0
220
0.0
230
1.0
  2
SOLID
 70
               1
 71
               1
 91
        1
 92
        1
 93
        1
 72
               2
 10
-252.09354624283208
 20
1010.8195937317976
 40
1.9998779296875
 50
0.0
 51
360.0
 73
               0
 97
        1
330
195
 75
               0
 76
               1
 98
        1
 10
0.0
 20
0.0
  0
CIRCLE
  5
197
102
{ACAD_REACTORS
330
198
102
}
100
AcDbEntity
  8
0
370
              -2
390
0
  6
Continuous
 62
               0
100
AcDbCircle
 10
-252.09354624283208
 20
560.81959373180041
 30
0.0
 40
1.9998779296875
  0
HATCH
  5
198
100
AcDbEntity
  8
0
370
              -2
390
0
  6
Continuous
 62
               0
100
AcDbHatch
 10
0.0
 20
0.0
 30
0.0
210
0.0
220
0.0
230
1.0
  2
SOLID
 70
               1
 71
               1
 91
        1
 92
        1
 93
        1
 72
               2
 10
-252.09354624283208
 20
560.81959373180041
 40
1.9998779296875
 50
0.0
 51
360.0
 73
               0
 97
        1
330
197
 75
               0
 76
               1
 98
        1
 10
0.0
 20
0.0
  0
MTEXT
  5
199
100
AcDbEntity
  8
0
390
0
 62
               0
100
AcDbMText
 10
-285.97116343033207
 20
762.00709204962345
 30
0.0
 40
24.432617187500004
 41
0.0
 71
               1
 72
               1
  1
450
  7
ＭＳ ゴシック
 11
0.0
 21
1.0
 31
0.0
 73
               1
 44
0.7828267384257843
  0
POINT
  5
19A
100
AcDbEntity
  8
Defpoints
370
               0
390
0
 62
               0
100
AcDbPoint
 10
-352.09354624283219
 20
560.81959373180041
 30
0.0
  0
POINT
  5
19B
100
AcDbEntity
  8
Defpoints
370
               0
390
0
 62
               0
100
AcDbPoint
 10
-352.09354624283219
 20
1010.8195937317976
 30
0.0
  0
POINT
  5
19C
100
AcDbEntity
  8
Defpoints
370
               0
390
0
 62
               0
100
AcDbPoint
 10
-252.09354624283208
 20
1010.8195937317976
 30
0.0
  0
ENDBLK
  5
19D
100
AcDbEntity
  8
notes
390
0
100
AcDbBlockEnd
  0
BLOCK
  5
19E
100
AcDbEntity
  8
notes
390
0
100
AcDbBlockBegin
  2
*D26
 70
               1
 10
0.0
 20
0.0
 30
0.0
  3
*D26
  1

  0
LINE
  5
19F
100
AcDbEntity
  8
0
370
              -2
390
0
  6
Continuous
 62
               0
100
AcDbLine
 10
-352.09354624283219
 20
1035.8195937317976
 30
0.0
 11
-352.09354624283219
 21
1110.8195937317976
 31
0.0
  0
LINE
  5
1A0
100
AcDbEntity
  8
0
370
              -2
390
0
  6
Continuous
 62
               0
100
AcDbLine
 10
-572.09354624283219
 20
1035.8195937317976
 30
0.0
 11
-572.09354624283219
 21
1110.8195937317976
 31
0.0
  0
LINE
  5
1A1
100
AcDbEntity
  8
0
370
              -2
390
0
  6
Continuous
 62
               0
100
AcDbLine
 10
-352.09354624283219
 20
1110.8195937317976
 30
0.0
 11
-572.09354624283219
 21
1110.8195937317976
 31
0.0
  0
CIRCLE
  5
1A2
102
{ACAD_REACTORS
330
1A3
102
}
100
AcDbEntity
  8
0
370
              -2
390
0
  6
Continuous
 62
               0
100
AcDbCircle
 10
-352.09354624283219
 20
1110.8195937317976
 30
0.0
 40
1.9998779296875
  0
HATCH
  5
1A3
100
AcDbEntity
  8
0
370
              -2
390
0
  6
Continuous
 62
               0
100
AcDbHatch
 10
0.0
 20
0.0
 30
0.0
210
0.0
220
0.0
230
1.0
  2
SOLID
 70
               1
 71
               1
 91
        1
 92
        1
 93
        1
 72
               2
 10
-352.09354624283219
 20
1110.8195937317976
 40
1.9998779296875
 50
0.0
 51
360.0
 73
               0
 97
        1
330
1A2
 75
               0
 76
               1
 98
        1
 10
0.0
 20
0.0
  0
CIRCLE
  5
1A4
102
{ACAD_REACTORS
330
1A5
102
}
100
AcDbEntity
  8
0
370
              -2
390
0
  6
Continuous
 62
               0
100
AcDbCircle
 10
-572.09354624283219
 20
1110.8195937317976
 30
0.0
 40
1.9998779296875
  0
HATCH
  5
1A5
100
AcDbEntity
  8
0
370
              -2
390
0
  6
Continuous
 62
               0
100
AcDbHatch
 10
0.0
 20
0.0
 30
0.0
210
0.0
220
0.0
230
1.0
  2
SOLID
 70
               1
 71
               1
 91
        1
 92
        1
 93
        1
 72
               2
 10
-572.09354624283219
 20
1110.8195937317976
 40
1.9998779296875
 50
0.0
 51
360.0
 73
               0
 97
        1
330
1A4
 75
               0
 76
               1
 98
        1
 10
0.0
 20
0.0
  0
MTEXT
  5
1A6
100
AcDbEntity
  8
0
390
0
 62
               0
100
AcDbMText
 10
-485.90604792500773
 20
1144.6972109192975
 30
0.0
 40
24.432617187500004
 41
0.0
 71
               1
 72
               1
  1
220
  7
ＭＳ ゴシック
 73
               1
 44
0.7828267384257843
  0
POINT
  5
1A7
100
AcDbEntity
  8
Defpoints
370
               0
390
0
 62
               0
100
AcDbPoint
 10
-572.09354624283219
 20
1010.8195937317976
 30
0.0
  0
POINT
  5
1A8
100
AcDbEntity
  8
Defpoints
370
               0
390
0
 62
               0
100
AcDbPoint
 10
-352.09354624283219
 20
1010.8195937317976
 30
0.0
  0
POINT
  5
1A9
100
AcDbEntity
  8
Defpoints
370
               0
390
0
 62
               0
100
AcDbPoint
 10
-352.09354624283219
 20
1110.8195937317976
 30
0.0
  0
ENDBLK
  5
1AA
100
AcDbEntity
  8
notes
390
0
100
AcDbBlockEnd
  0
BLOCK
  5
1AB
100
AcDbEntity
  8
notes
390
0
100
AcDbBlockBegin
  2
*D27
 70
               1
 10
0.0
 20
0.0
 30
0.0
  3
*D27
  1

  0
LINE
  5
1AC
100
AcDbEntity
  8
0
370
              -2
390
0
  6
Continuous
 62
               0
100
AcDbLine
 10
-572.09354624283219
 20
1035.8195937317976
 30
0.0
 11
-572.09354624283219
 21
1110.8195937317976
 31
0.0
  0
LINE
  5
1AD
100
AcDbEntity
  8
0
370
              -2
390
0
  6
Continuous
 62
               0
100
AcDbLine
 10
-602.09354624283219
 20
1037.8354524802467
 30
0.0
 11
-602.09354624283219
 21
1110.8195937317976
 31
0.0
  0
LINE
  5
1AE
100
AcDbEntity
  8
0
370
              -2
390
0
  6
Continuous
 62
               0
100
AcDbLine
 10
-572.09354624283219
 20
1110.8195937317976
 30
0.0
 11
-602.09354624283219
 21
1110.8195937317976
 31
0.0
  0
CIRCLE
  5
1AF
102
{ACAD_REACTORS
330
1B0
102
}
100
AcDbEntity
  8
0
370
              -2
390
0
  6
Continuous
 62
               0
100
AcDbCircle
 10
-572.09354624283219
 20
1110.8195937317976
 30
0.0
 40
1.9998779296875
  0
HATCH
  5
1B0
100
AcDbEntity
  8
0
370
              -2
390
0
  6
Continuous
 62
               0
100
AcDbHatch
 10
0.0
 20
0.0
 30
0.0
210
0.0
220
0.0
230
1.0
  2
SOLID
 70
               1
 71
               1
 91
        1
 92
        1
 93
        1
 72
               2
 10
-572.09354624283219
 20
1110.8195937317976
 40
1.9998779296875
 50
0.0
 51
360.0
 73
               0
 97
        1
330
1AF
 75
               0
 76
               1
 98
        1
 10
0.0
 20
0.0
  0
CIRCLE
  5
1B1
102
{ACAD_REACTORS
330
1B2
102
}
100
AcDbEntity
  8
0
370
              -2
390
0
  6
Continuous
 62
               0
100
AcDbCircle
 10
-602.09354624283219
 20
1110.8195937317976
 30
0.0
 40
1.9998779296875
  0
HATCH
  5
1B2
100
AcDbEntity
  8
0
370
              -2
390
0
  6
Continuous
 62
               0
100
AcDbHatch
 10
0.0
 20
0.0
 30
0.0
210
0.0
220
0.0
230
1.0
  2
SOLID
 70
               1
 71
               1
 91
        1
 92
        1
 93
        1
 72
               2
 10
-602.09354624283219
 20
1110.8195937317976
 40
1.9998779296875
 50
0.0
 51
360.0
 73
               0
 97
        1
330
1B1
 75
               0
 76
               1
 98
        1
 10
0.0
 20
0.0
  0
MTEXT
  5
1B3
100
AcDbEntity
  8
0
390
0
 62
               0
100
AcDbMText
 10
-602.96854624283219
 20
1144.6972109192975
 30
0.0
 40
24.432617187500004
 41
0.0
 71
               1
 72
               1
  1
30
  7
ＭＳ ゴシック
 73
               1
 44
0.7828267384257843
  0
POINT
  5
1B4
100
AcDbEntity
  8
Defpoints
370
               0
390
0
 62
               0
100
AcDbPoint
 10
-602.09354624283219
 20
1012.8354524802467
 30
0.0
  0
POINT
  5
1B5
100
AcDbEntity
  8
Defpoints
370
               0
390
0
 62
               0
100
AcDbPoint
 10
-572.09354624283219
 20
1010.8195937317976
 30
0.0
  0
POINT
  5
1B6
100
AcDbEntity
  8
Defpoints
370
               0
390
0
 62
               0
100
AcDbPoint
 10
-572.09354624283219
 20
1110.8195937317976
 30
0.0
  0
ENDBLK
  5
1B7
100
AcDbEntity
  8
notes
390
0
100
AcDbBlockEnd
  0
BLOCK
  5
1B8
100
AcDbEntity
  8
notes
390
0
100
AcDbBlockBegin
  2
*D28
 70
               1
 10
0.0
 20
0.0
 30
0.0
  3
*D28
  1

  0
LINE
  5
1B9
100
AcDbEntity
  8
0
370
              -2
390
0
  6
Continuous
 62
               0
100
AcDbLine
 10
-542.63619711273054
 20
-410.1866395120378
 30
0.0
 11
-666.11190458506871
 21
-40.403015272567359
 31
0.0
  0
CIRCLE
  5
1BA
102
{ACAD_REACTORS
330
1BB
102
}
100
AcDbEntity
  8
0
370
              -2
390
0
  6
Continuous
 62
               0
100
AcDbCircle
 10
-542.63619711273054
 20
-410.1866395120378
 30
0.0
 40
1.9998779296875
  0
HATCH
  5
1BB
100
AcDbEntity
  8
0
370
              -2
390
0
  6
Continuous
 62
               0
100
AcDbHatch
 10
0.0
 20
0.0
 30
0.0
210
0.0
220
0.0
230
1.0
  2
SOLID
 70
               1
 71
               1
 91
        1
 92
        1
 93
        1
 72
               2
 10
-542.63619711273054
 20
-410.1866395120378
 40
1.9998779296875
 50
0.0
 51
360.0
 73
               0
 97
        1
330
1BA
 75
               0
 76
               1
 98
        1
 10
0.0
 20
0.0
  0
MTEXT
  5
1BC
100
AcDbEntity
  8
0
390
0
 62
               0
100
AcDbMText
 10
-678.1335333416572
 20
-111.363732492319
 30
0.0
 40
24.432617187500004
 41
0.0
 71
               1
 72
               1
  1
φ35
  7
ＭＳ ゴシック
 11
-0.3167229068514751
 21
0.9485181075106325
 31
0.0
 73
               1
 44
0.7828267384257843
  0
POINT
  5
1BD
100
AcDbEntity
  8
Defpoints
370
               0
390
0
 62
               0
100
AcDbPoint
 10
-531.55089537293384
 20
-443.38477327489522
 30
0.0
  0
POINT
  5
1BE
100
AcDbEntity
  8
Defpoints
370
               0
390
0
 62
               0
100
AcDbPoint
 10
-542.63619711273054
 20
-410.1866395120378
 30
0.0
  0
ENDBLK
  5
1BF
100
AcDbEntity
  8
notes
390
0
100
AcDbBlockEnd
  0
ENDSEC
  0
SECTION
  2
ENTITIES
  0
MTEXT
  5
1C0
100
AcDbEntity
  8
template
390
0
 62
               7
100
AcDbMText
 10
-967.99999999975921
 20
-1147.4176292337006
 30
0.0
 40
16.288411458333332
 41
0.0
 71
               1
 72
               1
  1
品名
  7
ＭＳ ゴシック
 73
               1
 44
0.7828267384257843
  0
MTEXT
  5
1C1
100
AcDbEntity
  8
template
390
0
 62
               7
100
AcDbMText
 10
-967.99999999975921
 20
-1232.4176292337006
 30
0.0
 40
16.288411458333332
 41
0.0
 71
               1
 72
               1
  1
仕様
  7
ＭＳ ゴシック
 73
               1
 44
0.7828267384257843
  0
LINE
  5
1C2
100
AcDbEntity
  8
template
370
               5
390
0
  6
Continuous
 62
               7
100
AcDbLine
 10
974.99999999975876
 20
-1224.0027073587005
 30
0.0
 11
-975.00000000024124
 21
-1224.0027073587005
 31
0.0
  0
LWPOLYLINE
  5
1C3
100
AcDbEntity
  8
template
370
               5
390
0
  6
Continuous
 62
               7
100
AcDbPolyline
 90
        5
 70
             128
 10
975.00000000024124
 20
1405.9972926412995
 10
-974.99999999975921
 20
1405.9972926412995
 10
-974.99999999975921
 20
-1394.0027073587005
 10
975.00000000024124
 20
-1394.0027073587005
 10
975.00000000024124
 20
1405.9972926412995
  0
LINE
  5
1C4
100
AcDbEntity
  8
template
370
               5
390
0
  6
Continuous
 62
               7
100
AcDbLine
 10
974.99999999975876
 20
-1139.0027073587005
 30
0.0
 11
-975.00000000024124
 21
-1139.0027073587005
 31
0.0
  0
LINE
  5
1C5
100
AcDbEntity
  8
template
370
               5
390
0
  6
Continuous
 62
               7
100
AcDbLine
 10
975.00000000024124
 20
-1309.0027073587005
 30
0.0
 11
222.00000000024124
 21
-1309.0027073587005
 31
0.0
  0
MTEXT
  5
1C6
100
AcDbEntity
  8
template
390
0
 62
               7
100
AcDbMText
 10
251.87140625250089
 20
-1338.9131018320081
 30
0.0
 40
24.432617187500004
 41
0.0
 71
               1
 72
               1
  1
大洋金物株式会社 ティーフォルム事業部
  7
ＭＳ ゴシック
 73
               1
 44
0.7828267384257843
  0
INSERT
  5
1C7
100
AcDbEntity
  8
template
390
0
 62
               7
100
AcDbBlockReference
  2
グループ
 10
0.0
 20
-246.50323223288547
 30
0.0
  0
MTEXT
  5
1C8
100
AcDbEntity
  8
template
390
0
 62
               7
100
AcDbMText
 10
784.00000000049999
 20
-1261.0000901712006
 30
0.0
 40
24.432617187500004
 41
0.0
 71
               1
 72
               1
  1
1:10
  7
ＭＳ ゴシック
 73
               1
 44
0.7828267384257843
  0
MTEXT
  5
1C9
100
AcDbEntity
  8
template
390
0
 62
               7
100
AcDbMText
 10
731.00000000049999
 20
-1232.4176292337006
 30
0.0
 40
16.288411458333332
 41
0.0
 71
               1
 72
               1
  1
縮尺
  7
ＭＳ ゴシック
 73
               1
 44
0.7828267384257843
  0
LINE
  5
1CA
100
AcDbEntity
  8
template
370
               5
390
0
  6
Continuous
 62
               7
100
AcDbLine
 10
724.00000000049999
 20
-1309.0027073587005
 30
0.0
 11
724.00000000049999
 21
-1224.0027073587005
 31
0.0
  0
MTEXT
  5
1CB
100
AcDbEntity
  8
template
390
0
 62
               7
100
AcDbMText
 10
480.00000000049999
 20
-1232.4176292337006
 30
0.0
 40
16.288411458333332
 41
0.0
 71
               1
 72
               1
  1
容量
  7
ＭＳ ゴシック
 73
               1
 44
0.7828267384257843
  0
MTEXT
  5
1CC
100
AcDbEntity
  8
template
390
0
 62
               7
100
AcDbMText
 10
533.00000000049999
 20
-1261.0000901712006
 30
0.0
 40
24.432617187500004
 41
0.0
 71
               1
 72
               1
  1
8.3L
  7
ＭＳ ゴシック
 73
               1
 44
0.7828267384257843
  0
LINE
  5
1CD
100
AcDbEntity
  8
template
370
               5
390
0
  6
Continuous
 62
               7
100
AcDbLine
 10
473.00000000049999
 20
-1309.0027073587005
 30
0.0
 11
473.00000000049999
 21
-1224.0027073587005
 31
0.0
  0
MTEXT
  5
1CE
100
AcDbEntity
  8
template
390
0
 62
               7
100
AcDbMText
 10
229.00000000049999
 20
-1147.4176292337006
 30
0.0
 40
16.288411458333332
 41
0.0
 71
               1
 72
               1
  1
品番
  7
ＭＳ ゴシック
 73
               1
 44
0.7828267384257843
  0
MTEXT
  5
1CF
100
AcDbEntity
  8
template
390
0
 62
               7
100
AcDbMText
 10
229.00000000049999
 20
-1232.4176292337006
 30
0.0
 40
16.288411458333332
 41
0.0
 71
               1
 72
               1
  1
重量
  7
ＭＳ ゴシック
 73
               1
 44
0.7828267384257843
  0
MTEXT
  5
1D0
100
AcDbEntity
  8
template
390
0
 62
               7
100
AcDbMText
 10
282.00000000049999
 20
-1176.0000901712006
 30
0.0
 40
24.432617187500004
 41
0.0
 71
               1
 72
               1
  1
FAA70-0512
  7
ＭＳ ゴシック
 73
               1
 44
0.7828267384257843
  0
MTEXT
  5
1D1
100
AcDbEntity
  8
template
390
0
 62
               7
100
AcDbMText
 10
282.00000000049999
 20
-1261.0000901712006
 30
0.0
 40
24.432617187500004
 41
0.0
 71
               1
 72
               1
  1
29kg
  7
ＭＳ ゴシック
 73
               1
 44
0.7828267384257843
  0
LINE
  5
1D2
100
AcDbEntity
  8
template
370
               5
390
0
  6
Continuous
 62
               7
100
AcDbLine
 10
222.00000000049999
 20
-1394.0027073587005
 30
0.0
 11
222.00000000049999
 21
-1139.0027073587005
 31
0.0
  0
MTEXT
  5
1D3
100
AcDbEntity
  8
template
390
0
 62
               7
100
AcDbMText
 10
-974.99999999955617
 20
-1405.8565294155576
 30
0.0
 40
21.717881944444446
 41
0.0
 71
               1
 72
               1
  1
100709SH
  7
ＭＳ ゴシック
 73
               1
 44
0.7828267384257843
  0
MTEXT
  5
1D4
100
AcDbEntity
  8
template
390
0
 62
               7
100
AcDbMText
 10
-915.00000000020327
 20
-1175.8723828124998
 30
0.0
 40
24.432617187500004
 41
0.0
 71
               1
 72
               1
  1
洗面器 -DURAVIT,Vero-
  7
ＭＳ ゴシック
 73
               1
 44
0.7828267384257843
  0
MTEXT
  5
1D5
100
AcDbEntity
  8
template
390
0
 62
               7
100
AcDbMText
 10
-915.00000000020327
 20
-1260.8723828124998
 30
0.0
 40
24.432617187500004
 41
0.0
 71
               1
 72
               1
  1
壁掛け,カウンタ ートップ/オーバーフロー付き/壁取付ボルト付属/\P陶器/ホワイト\P
  7
ＭＳ ゴシック
 73
               1
 44
1.1307497332816883
  0
CIRCLE
  5
1D6
100
AcDbEntity
  8
notes
370
               5
390
0
  6
STYLE_25
 62
               7
100
AcDbCircle
 10
-537.00000000000045
 20
681.0
 30
0.0
 40
17.499999999999773
  0
MTEXT
  5
1D7
100
AcDbEntity
  8
notes
390
0
 62
               7
100
AcDbMText
 10
61.770553461163829
 20
403.63460605588637
 30
0.0
 40
24.432617187500004
 41
773.20084642436325
 71
               1
 72
               1
  1
※陶器製品には寸法公差があります。\P  洗面器の収め方をご確認の上、必ず現物を合わせて\P  カウンターの切込を行ってください。
  7
ＭＳ ゴシック
 11
0.0
 21
1.0
 31
0.0
 73
               1
 44
1.0437689845677123
  0
MTEXT
  5
1D8
100
AcDbEntity
  8
notes
390
0
 62
               7
100
AcDbMText
 10
-814.26963483823192
 20
649.82376039846565
 30
0.0
 40
24.432617187500004
 41
0.0
 71
               1
 72
               1
  1
カウンター切込寸法
  7
ＭＳ ゴシック
 11
0.0
 21
1.0
 31
0.0
 73
               1
 44
0.7828267384257843
  0
MTEXT
  5
1D9
100
AcDbEntity
  8
notes
390
0
 62
               7
100
AcDbMText
 10
410.10359580709172
 20
-22.815715107024971
 30
0.0
 40
24.432617187500004
 41
0.0
 71
               1
 72
               1
  1
壁取付ボルト位置
  7
ＭＳ ゴシック
 11
0.0
 21
1.0
 31
0.0
 73
               1
 44
0.7828267384257843
  0
LINE
  5
1DA
100
AcDbEntity
  8
notes
370
               5
390
0
  6
Continuous
 62
               7
100
AcDbLine
 10
547.55828502121847
 20
-81.802242851799804
 30
0.0
 11
453.41583091290511
 21
-3.7655338888569077
 31
0.0
  0
DIMENSION
  5
1DB
100
AcDbEntity
  8
notes
370
               5
390
0
  6
Continuous
 62
               7
100
AcDbDimension
  2
*D3
 10
-752.09354624283219
 20
-951.7857063934664
 30
0.0
 11
-752.09354624283219
 21
-426.7857063934664
 31
0.0
 71
               5
 72
               1
 41
1.0
 42
0.0
  3
tform線あり
100
AcDbAlignedDimension
 13
-597.09354624283219
 23
98.214293606533602
 33
0.0
 14
-597.09354624283219
 24
-951.7857063934664
 34
0.0
 50
90.0
100
AcDbRotatedDimension
1001
ACAD
1000
DSTYLE
1002
{
1070
             279
1070
               2
1070
             340
1005
3E
1070
             147
1040
5.0
1002
}
  0
DIMENSION
  5
1DC
100
AcDbEntity
  8
notes
370
               5
390
0
  6
Continuous
 62
               7
100
AcDbDimension
  2
*D4
 10
-602.09354624283219
 20
198.2142936065336
 30
0.0
 11
-357.09354624282992
 21
198.2142936065336
 31
0.0
 71
               5
 72
               1
 41
1.0
 42
0.0
  3
tform線あり
100
AcDbAlignedDimension
 13
-112.0935462428277
 23
98.214293606533602
 33
0.0
 14
-602.09354624283219
 24
93.214293606533602
 34
0.0
100
AcDbRotatedDimension
1001
ACAD
1000
DSTYLE
1002
{
1070
             279
1070
               2
1070
             340
1005
3E
1070
             147
1040
5.0
1002
}
  0
DIMENSION
  5
1DD
100
AcDbEntity
  8
notes
370
               5
390
0
  6
Continuous
 62
               7
100
AcDbDimension
  2
*D5
 10
-602.09354624283219
 20
-1051.7857063934664
 30
0.0
 11
-539.59354624283219
 21
-1051.7857063934664
 31
0.0
 71
               5
 72
               1
 41
1.0
 42
0.0
  3
tform線あり
100
AcDbAlignedDimension
 13
-477.09354624283219
 23
-951.7857063934664
 33
0.0
 14
-602.09354624283219
 24
-946.7857063934664
 34
0.0
100
AcDbRotatedDimension
1001
ACAD
1000
DSTYLE
1002
{
1070
             279
1070
               2
1070
             340
1005
3E
1070
             147
1040
5.0
1002
}
  0
DIMENSION
  5
1DE
100
AcDbEntity
  8
notes
370
               5
390
0
  6
Continuous
 62
               7
100
AcDbDimension
  2
*D6
 10
-477.09354624283219
 20
-1051.7857063934664
 30
0.0
 11
-312.09354624283219
 21
-1051.7857063934664
 31
0.0
 71
               5
 72
               1
 41
1.0
 42
0.0
  3
tform線あり
100
AcDbAlignedDimension
 13
-147.09354624283219
 23
-951.7857063934664
 33
0.0
 14
-477.09354624283219
 24
-951.7857063934664
 34
0.0
100
AcDbRotatedDimension
1001
ACAD
1000
DSTYLE
1002
{
1070
             279
1070
               2
1070
             340
1005
3E
1070
             147
1040
5.0
1002
}
  0
DIMENSION
  5
1DF
100
AcDbEntity
  8
notes
370
               5
390
0
  6
Continuous
 62
               7
100
AcDbDimension
  2
*D7
 10
-147.09354624283219
 20
-1051.5357063934664
 30
0.0
 11
-129.59354624283219
 21
-1051.5357063934664
 31
0.0
 71
               5
 72
               1
 41
1.0
 42
0.0
  3
tform線あり
100
AcDbAlignedDimension
 13
-112.09354624283219
 23
-952.7857063934664
 33
0.0
 14
-147.09354624283219
 24
-951.7857063934664
 34
0.0
100
AcDbRotatedDimension
1001
ACAD
1000
DSTYLE
1002
{
1070
             279
1070
               2
1070
             340
1005
3E
1070
             147
1040
5.0
1002
}
  0
DIMENSION
  5
1E0
100
AcDbEntity
  8
notes
370
               5
390
0
  6
Continuous
 62
               7
100
AcDbDimension
  2
*D8
 10
-12.100623343936434
 20
-701.7857063934664
 30
0.0
 11
-12.100623343936434
 21
-426.7857063934664
 31
0.0
 71
               5
 72
               1
 41
1.0
 42
0.0
  3
tform線あり
100
AcDbAlignedDimension
 13
-116.37907975937489
 23
-151.7857063934664
 33
0.0
 14
-112.94988371185904
 24
-701.7857063934664
 34
0.0
 50
90.0
100
AcDbRotatedDimension
1001
ACAD
1000
DSTYLE
1002
{
1070
             279
1070
               2
1070
             340
1005
3E
1070
             147
1040
5.0
1002
}
  0
DIMENSION
  5
1E1
100
AcDbEntity
  8
notes
370
               5
390
0
  6
Continuous
 62
               7
100
AcDbDimension
  2
*D9
 10
-12.100623343936434
 20
-701.7857063934664
 30
0.0
 11
-12.100623343936434
 21
-826.7857063934664
 31
0.0
 71
               5
 72
               1
 41
1.0
 42
0.0
  3
tform線あり
100
AcDbAlignedDimension
 13
-125.09667499132092
 23
-951.7857063934664
 33
0.0
 14
-112.94988371185904
 24
-701.7857063934664
 34
0.0
 50
90.0
100
AcDbRotatedDimension
1001
ACAD
1000
DSTYLE
1002
{
1070
             279
1070
               2
1070
             340
1005
3E
1070
             147
1040
5.0
1002
}
  0
DIMENSION
  5
1E2
100
AcDbEntity
  8
notes
370
               5
390
0
  6
Continuous
 62
               7
100
AcDbDimension
  2
*D10
 10
-12.100623343936434
 20
-151.7857063934664
 30
0.0
 11
-7.1006233439364337
 21
-31.785706393466398
 31
0.0
 70
             128
 71
               5
 72
               1
 41
1.0
 42
0.0
  3
tform線あり
100
AcDbAlignedDimension
 13
-125.09667499132092
 23
98.214293606533602
 33
0.0
 14
-112.94988371185104
 24
-151.7857063934664
 34
0.0
 50
90.0
100
AcDbRotatedDimension
1001
ACAD
1000
DSTYLE
1002
{
1070
             279
1070
               2
1070
             340
1005
3E
1070
             147
1040
5.0
1002
}
  0
DIMENSION
  5
1E3
100
AcDbEntity
  8
notes
370
               5
390
0
  6
Continuous
 62
               7
100
AcDbDimension
  2
*D11
 10
-702.09354624283219
 20
-526.7857063934664
 30
0.0
 11
-707.09354624283219
 21
-476.7857063934664
 31
0.0
 70
             128
 71
               5
 72
               1
 41
1.0
 42
0.0
  3
tform線あり
100
AcDbAlignedDimension
 13
-557.09354624283219
 23
-426.7857063934664
 33
0.0
 14
-557.09354624283219
 24
-526.7857063934664
 34
0.0
 50
90.0
100
AcDbRotatedDimension
1001
ACAD
1000
DSTYLE
1002
{
1070
             279
1070
               2
1070
             340
1005
3E
1070
             147
1040
5.0
1002
}
  0
DIMENSION
  5
1E4
100
AcDbEntity
  8
notes
370
               5
390
0
  6
Continuous
 62
               7
100
AcDbDimension
  2
*D12
 10
-702.09354624283219
 20
-426.78570639346651
 30
0.0
 11
-702.09354624283219
 21
-376.78570639346651
 31
0.0
 71
               5
 72
               1
 41
1.0
 42
0.0
  3
tform線あり
100
AcDbAlignedDimension
 13
-557.09354624283219
 23
-326.78570639346651
 33
0.0
 14
-557.09354624283219
 24
-426.78570639346651
 34
0.0
 50
90.0
100
AcDbRotatedDimension
1001
ACAD
1000
DSTYLE
1002
{
1070
             279
1070
               2
1070
             340
1005
3E
1070
             147
1040
5.0
1002
}
  0
DIMENSION
  5
1E5
100
AcDbEntity
  8
notes
370
               5
390
0
  6
Continuous
 62
               7
100
AcDbDimension
  2
*D13
 10
397.93302813644345
 20
-771.80224285179975
 30
0.0
 11
397.93302813644345
 21
-669.30224285179975
 31
0.0
 71
               5
 72
               1
 41
1.0
 42
0.0
  3
tform線あり
100
AcDbAlignedDimension
 13
527.14479028922119
 23
-566.80224285179975
 33
0.0
 14
527.14479028922119
 24
-771.80224285179975
 34
0.0
 50
90.0
100
AcDbRotatedDimension
1001
ACAD
1000
DSTYLE
1002
{
1070
             279
1070
               2
1070
             340
1005
3E
1070
             147
1040
5.0
1002
}
  0
DIMENSION
  5
1E6
100
AcDbEntity
  8
notes
370
               5
390
0
  6
Continuous
 62
               7
100
AcDbDimension
  2
*D14
 10
397.93302813644345
 20
-566.80224285179975
 30
0.0
 11
397.93302813644345
 21
-426.80224285179975
 31
0.0
 71
               5
 72
               1
 41
1.0
 42
0.0
  3
tform線あり
100
AcDbAlignedDimension
 13
527.14479028922119
 23
-286.8022428517998
 33
0.0
 14
527.14479028922119
 24
-566.80224285179975
 34
0.0
 50
90.0
100
AcDbRotatedDimension
1001
ACAD
1000
DSTYLE
1002
{
1070
             279
1070
               2
1070
             340
1005
3E
1070
             147
1040
5.0
1002
}
  0
DIMENSION
  5
1E7
100
AcDbEntity
  8
notes
370
               5
390
0
  6
Continuous
 62
               7
100
AcDbDimension
  2
*D15
 10
397.93302813644345
 20
-286.8022428517998
 30
0.0
 11
397.93302813644345
 21
-184.30224285179975
 31
0.0
 71
               5
 72
               1
 41
1.0
 42
0.0
  3
tform線あり
100
AcDbAlignedDimension
 13
527.14479028922119
 23
-81.802242851799747
 33
0.0
 14
527.14479028922119
 24
-286.8022428517998
 34
0.0
 50
90.0
100
AcDbRotatedDimension
1001
ACAD
1000
DSTYLE
1002
{
1070
             279
1070
               2
1070
             340
1005
3E
1070
             147
1040
5.0
1002
}
  0
DIMENSION
  5
1E8
100
AcDbEntity
  8
notes
370
               5
390
0
  6
Continuous
 62
               7
100
AcDbDimension
  2
*D16
 10
547.55828502121847
 20
-1051.7857063934664
 30
0.0
 11
522.55828502121847
 21
-1051.7857063934664
 31
0.0
 71
               5
 72
               1
 41
1.0
 42
0.0
  3
tform線あり
100
AcDbAlignedDimension
 13
497.55828502121847
 23
-941.7857063934664
 33
0.0
 14
547.55828502121847
 24
-791.80224285179975
 34
0.0
100
AcDbRotatedDimension
1001
ACAD
1000
DSTYLE
1002
{
1070
             279
1070
               2
1070
             340
1005
3E
1070
             147
1040
5.0
1002
}
  0
DIMENSION
  5
1E9
100
AcDbEntity
  8
notes
370
               5
390
0
  6
Continuous
 62
               7
100
AcDbDimension
  2
*D17
 10
627.57227509216534
 20
474.07178451298478
 30
0.0
 11
647.56806342415996
 21
474.07178451298478
 31
0.0
 71
               5
 72
               1
 41
1.0
 42
0.0
  3
tform線あり
100
AcDbAlignedDimension
 13
667.56385175615458
 23
834.88016589991616
 33
0.0
 14
627.57227509216534
 24
584.76293483249685
 34
0.0
100
AcDbRotatedDimension
1001
ACAD
1000
DSTYLE
1002
{
1070
             279
1070
               2
1070
             340
1005
3E
1070
             147
1040
5.0
1002
}
  0
DIMENSION
  5
1EA
100
AcDbEntity
  8
notes
370
               5
390
0
  6
Continuous
 62
               7
100
AcDbDimension
  2
*D18
 10
397.55828502121847
 20
999.10485742964806
 30
0.0
 11
392.55828502121847
 21
1031.6048574296481
 31
0.0
 70
             128
 71
               5
 72
               1
 41
1.0
 42
0.0
  3
tform線あり
100
AcDbAlignedDimension
 13
507.56385175615458
 23
1064.1048574296481
 33
0.0
 14
497.56465363208076
 24
999.10485742964806
 34
0.0
 50
90.0
100
AcDbRotatedDimension
1001
ACAD
1000
DSTYLE
1002
{
1070
             279
1070
               2
1070
             340
1005
3E
1070
             147
1040
5.0
1002
}
  0
DIMENSION
  5
1EB
100
AcDbEntity
  8
notes
370
               5
390
0
  6
Continuous
 62
               7
100
AcDbDimension
  2
*D19
 10
767.56385175615458
 20
874.74181899716882
 30
0.0
 11
767.56385175615458
 21
969.74181899716882
 31
0.0
 71
               5
 72
               1
 41
1.0
 42
0.0
  3
tform線あり
100
AcDbAlignedDimension
 13
627.56754977257094
 23
1064.7418189971688
 33
0.0
 14
667.56385175615458
 24
874.74181899716882
 34
0.0
 50
90.0
100
AcDbRotatedDimension
1001
ACAD
1000
DSTYLE
1002
{
1070
             279
1070
               2
1070
             340
1005
3E
1070
             147
1040
5.0
1002
}
  0
DIMENSION
  5
1EC
100
AcDbEntity
  8
notes
370
               5
390
0
  6
Continuous
 62
               7
100
AcDbDimension
  2
*D20
 10
497.56933085340006
 20
846.06239764482893
 30
0.0
 11
491.25648418879041
 21
851.06239764482893
 31
0.0
 70
             128
 71
               5
 72
               1
 41
1.0
 42
0.0
  3
tform線あり
100
AcDbAlignedDimension
 13
612.56933085340006
 23
879.07178451298182
 33
0.0
 14
497.56933085340006
 24
879.07178451298182
 34
0.0
100
AcDbRotatedDimension
1001
ACAD
1000
DSTYLE
1002
{
1070
             279
1070
               2
1070
             340
1005
3E
1070
               3
1000
<>(深さ)
1070
             174
1070
               0
1070
             147
1040
5.0
1002
}
  0
DIMENSION
  5
1ED
100
AcDbEntity
  8
notes
370
               5
390
0
  6
Continuous
 62
               7
100
AcDbDimension
  2
*D21
 10
497.55828502121847
 20
198.2142936065336
 30
0.0
 11
582.55828502121847
 21
198.2142936065336
 31
0.0
 71
               5
 72
               1
 41
1.0
 42
0.0
  3
tform線あり
100
AcDbAlignedDimension
 13
667.55828502121847
 23
-386.94058975454726
 33
0.0
 14
497.55828502121847
 24
88.214293606533602
 34
0.0
100
AcDbRotatedDimension
1001
ACAD
1000
DSTYLE
1002
{
1070
             279
1070
               2
1070
             340
1005
3E
1070
             147
1040
5.0
1002
}
  0
DIMENSION
  5
1EE
100
AcDbEntity
  8
notes
370
               5
390
0
  6
Continuous
 62
               7
100
AcDbDimension
  2
*D22
 10
497.57227509216546
 20
474.07178451298478
 30
0.0
 11
562.57227509216546
 21
474.07178451298478
 31
0.0
 71
               5
 72
               1
 41
1.0
 42
0.0
  3
tform線あり
100
AcDbAlignedDimension
 13
627.57227509216534
 23
584.76293483249685
 33
0.0
 14
497.57227509216546
 24
584.06280709786336
 34
0.0
100
AcDbRotatedDimension
1001
ACAD
1000
DSTYLE
1002
{
1070
             279
1070
               2
1070
             340
1005
3E
1070
             147
1040
5.0
1002
}
  0
DIMENSION
  5
1EF
100
AcDbEntity
  8
notes
370
               5
390
0
  6
Continuous
 62
               7
100
AcDbDimension
  2
*D23
 10
-702.09354624283219
 20
-326.78570639346651
 30
0.0
 11
-702.09354624283219
 21
-276.78570639346651
 31
0.0
 71
               5
 72
               1
 41
1.0
 42
0.0
  3
tform線あり
100
AcDbAlignedDimension
 13
-557.09354624283219
 23
-226.78570639346646
 33
0.0
 14
-557.09354624283219
 24
-326.78570639346651
 34
0.0
 50
90.0
100
AcDbRotatedDimension
1001
ACAD
1000
DSTYLE
1002
{
1070
             279
1070
               2
1070
             340
1005
3E
1070
             147
1040
5.0
1002
}
  0
DIMENSION
  5
1F0
100
AcDbEntity
  8
notes
370
               5
390
0
  6
Continuous
 62
               7
100
AcDbDimension
  2
*D24
 10
-702.09354624283219
 20
-626.7857063934664
 30
0.0
 11
-707.09354624283219
 21
-576.7857063934664
 31
0.0
 70
             128
 71
               5
 72
               1
 41
1.0
 42
0.0
  3
tform線あり
100
AcDbAlignedDimension
 13
-557.09354624283219
 23
-526.7857063934664
 33
0.0
 14
-557.09354624283219
 24
-626.7857063934664
 34
0.0
 50
90.0
100
AcDbRotatedDimension
1001
ACAD
1000
DSTYLE
1002
{
1070
             279
1070
               2
1070
             340
1005
3E
1070
             147
1040
5.0
1002
}
  0
DIMENSION
  5
1F1
100
AcDbEntity
  8
notes
370
               5
390
0
  6
Continuous
 62
               7
100
AcDbDimension
  2
*D25
 10
-252.09354624283208
 20
1010.8195937317976
 30
0.0
 11
-252.09354624283208
 21
785.81959373179893
 31
0.0
 71
               5
 72
               1
 41
1.0
 42
0.0
  3
tform線あり
100
AcDbAlignedDimension
 13
-352.09354624283219
 23
560.81959373180041
 33
0.0
 14
-352.09354624283219
 24
1010.8195937317976
 34
0.0
 50
90.0
100
AcDbRotatedDimension
1001
ACAD
1000
DSTYLE
1002
{
1070
             279
1070
               2
1070
             340
1005
3E
1070
             147
1040
5.0
1002
}
  0
DIMENSION
  5
1F2
100
AcDbEntity
  8
notes
370
               5
390
0
  6
Continuous
 62
               7
100
AcDbDimension
  2
*D26
 10
-352.09354624283219
 20
1110.8195937317976
 30
0.0
 11
-462.09354624283219
 21
1110.8195937317976
 31
0.0
 71
               5
 72
               1
 41
1.0
 42
0.0
  3
tform線あり
100
AcDbAlignedDimension
 13
-572.09354624283219
 23
1010.8195937317976
 33
0.0
 14
-352.09354624283219
 24
1010.8195937317976
 34
0.0
100
AcDbRotatedDimension
1001
ACAD
1000
DSTYLE
1002
{
1070
             279
1070
               2
1070
             340
1005
3E
1070
             147
1040
5.0
1002
}
  0
MTEXT
  5
1F3
100
AcDbEntity
  8
notes
390
0
 62
               7
100
AcDbMText
 10
31.375804574973348
 20
-884.6251158785476
 30
0.0
 40
24.432617187500004
 41
948.08432766400801
 71
               1
 72
               1
  1
＝φ30もしくはφ35の水栓取付用穴あけ加工を承ります。\P   必要な場合、ご注文の際にご指示ください。
  7
ＭＳ ゴシック
 11
0.0
 21
1.0
 31
0.0
 73
               1
 44
1.0437689845677123
  0
CIRCLE
  5
1F4
100
AcDbEntity
  8
notes
370
               5
390
0
  6
STYLE_25
 62
               7
100
AcDbCircle
 10
46.095947779849325
 20
-907.6619470882556
 30
0.0
 40
17.5
  0
DIMENSION
  5
1F5
100
AcDbEntity
  8
notes
370
               5
390
0
  6
Continuous
 62
               7
100
AcDbDimension
  2
*D27
 10
-572.09354624283219
 20
1110.8195937317976
 30
0.0
 11
-587.09354624283219
 21
1110.8195937317976
 31
0.0
 71
               5
 72
               1
 41
1.0
 42
0.0
  3
tform線あり
100
AcDbAlignedDimension
 13
-602.09354624283219
 23
1012.8354524802467
 33
0.0
 14
-572.09354624283219
 24
1010.8195937317976
 34
0.0
100
AcDbRotatedDimension
1001
ACAD
1000
DSTYLE
1002
{
1070
             279
1070
               2
1070
             340
1005
3E
1070
             147
1040
5.0
1002
}
  0
CIRCLE
  5
1F6
100
AcDbEntity
  8
notes
370
               5
390
0
  6
STYLE_25
 62
               7
100
AcDbCircle
 10
-537.00000000000045
 20
581.0
 30
0.0
 40
17.499999999999773
  0
CIRCLE
  5
1F7
100
AcDbEntity
  8
notes
370
               5
390
0
  6
STYLE_25
 62
               7
100
AcDbCircle
 10
-537.09354624283219
 20
990.81959373179757
 30
0.0
 40
17.5
  0
DIMENSION
  5
1F8
100
AcDbEntity
  8
notes
370
               5
390
0
  6
Continuous
 62
               7
100
AcDbDimension
  2
*D28
 10
-531.55089537293384
 20
-443.38477327489522
 30
0.0
 11
-586.00000000001137
 21
-100.63391509949253
 31
0.0
 70
               3
 71
               5
 72
               1
 41
1.0
 42
0.0
  3
tform線あり
100
AcDbDiametricDimension
 15
-542.63619711273054
 25
-410.1866395120378
 35
0.0
 40
326.35404844822671
1001
ACAD
1000
DSTYLE
1002
{
1070
             289
1070
               0
1070
             342
1005
5C
1070
             340
1005
3E
1070
              75
1070
               1
1070
              76
1070
               1
1070
               3
1000

1070
             174
1070
               0
1070
             147
1040
5.0
1002
}
  0
CIRCLE
  5
1F9
100
AcDbEntity
  8
FAA70-0512
370
               5
390
0
  6
STYLE_25
 62
               7
100
AcDbCircle
 10
-537.09354624283219
 20
890.81959373179757
 30
0.0
 40
17.5
  0
LINE
  5
1FA
100
AcDbEntity
  8
FAA70-0512
370
              15
390
0
  6
STYLE_25
 62
               7
100
AcDbLine
 10
527.14479028922119
 20
-566.80224285179975
 30
0.0
 11
567.14479028922119
 21
-566.80224285179975
 31
0.0
  0
LINE
  5
1FB
100
AcDbEntity
  8
FAA70-0512
370
              15
390
0
  6
Continuous
 62
               7
100
AcDbLine
 10
627.55828502121847
 20
-476.7741808327977
 30
0.0
 11
627.55828502121847
 21
-376.86337778746849
 31
0.0
  0
LINE
  5
1FC
100
AcDbEntity
  8
FAA70-0512
370
              15
390
0
  6
STYLE_25
 62
               7
100
AcDbLine
 10
527.14479028922119
 20
-286.8022428517998
 30
0.0
 11
567.14479028922119
 21
-286.8022428517998
 31
0.0
  0
LINE
  5
1FD
100
AcDbEntity
  8
FAA70-0512
370
              15
390
0
  6
STYLE_25
 62
               7
100
AcDbLine
 10
612.2442692837609
 20
-458.79402006032717
 30
0.0
 11
612.2442692837609
 21
-426.80224285179975
 31
0.0
  0
LINE
  5
1FE
100
AcDbEntity
  8
FAA70-0512
370
              15
390
0
  6
STYLE_25
 62
               7
100
AcDbLine
 10
618.55828502121847
 20
-452.80224285179975
 30
0.0
 11
618.55828502121847
 21
-426.80224285179975
 31
0.0
  0
LINE
  5
1FF
100
AcDbEntity
  8
FAA70-0512
370
              15
390
0
  6
STYLE_25
 62
               7
100
AcDbLine
 10
503.3427477775499
 20
-700.78228599895533
 30
0.0
 11
592.62613518820069
 21
-685.03921586941101
 31
0.0
  0
ARC
  5
200
100
AcDbEntity
  8
FAA70-0512
370
              15
390
0
  6
STYLE_25
 62
               7
100
AcDbCircle
 10
590.88965341153141
 20
-675.19113833928895
 30
0.0
 40
9.9999999999999698
100
AcDbArc
 50
279.99999999999989
 51
357.00000000000091
  0
LINE
  5
201
100
AcDbEntity
  8
FAA70-0512
370
              15
390
0
  6
STYLE_25
 62
               7
100
AcDbLine
 10
600.87594875907723
 20
-675.71449790171823
 30
0.0
 11
612.2442692837609
 21
-458.79402006032717
 31
0.0
  0
LINE
  5
202
100
AcDbEntity
  8
FAA70-0512
370
              15
390
0
  6
STYLE_25
 62
               7
100
AcDbLine
 10
612.2442692837609
 20
-458.79402006032717
 30
0.0
 11
618.55828502121847
 21
-452.80224285179975
 31
0.0
  0
LINE
  5
203
100
AcDbEntity
  8
FAA70-0512
370
              15
390
0
  6
STYLE_25
 62
               7
100
AcDbLine
 10
613.55828502121847
 20
-452.80224285179975
 30
0.0
 11
667.55828502121847
 21
-452.80224285179975
 31
0.0
  0
ARC
  5
204
100
AcDbEntity
  8
FAA70-0512
370
              15
390
0
  6
STYLE_25
 62
               7
100
AcDbCircle
 10
504.55828502121835
 20
-707.67594027004066
 30
0.0
 40
6.9999999999998792
100
AcDbArc
 50
100.00000000000063
 51
180.0
  0
LINE
  5
205
100
AcDbEntity
  8
FAA70-0512
370
              15
390
0
  6
STYLE_25
 62
               7
100
AcDbLine
 10
527.14479028922119
 20
-81.802242851799747
 30
0.0
 11
567.14479028922119
 21
-81.802242851799747
 31
0.0
  0
LINE
  5
206
100
AcDbEntity
  8
FAA70-0512
370
              15
390
0
  6
STYLE_25
 62
               7
100
AcDbLine
 10
527.14479028922119
 20
-771.80224285179975
 30
0.0
 11
567.14479028922119
 21
-771.80224285179975
 31
0.0
  0
LWPOLYLINE
  5
207
100
AcDbEntity
  8
FAA70-0512
370
              15
390
0
  6
Continuous
 62
               7
100
AcDbPolyline
 90
       14
 70
             129
 10
507.55828502121847
 20
98.214293606533602
 42
0.414213562373095
 10
497.55828502121847
 20
88.214293606533602
 10
497.55828502121847
 20
-941.7857063934664
 42
0.4142135623730917
 10
507.55828502121847
 20
-951.7857063934664
 10
617.55828502121847
 20
-951.7857063934664
 42
0.414213562373095
 10
627.55828502121847
 20
-941.7857063934664
 10
627.55828502121847
 20
-476.75764437446435
 42
-0.3729018752331696
 10
631.84534065917626
 20
-471.80873435945762
 10
667.55828502121847
 20
-466.66389594905229
 10
667.55828502121847
 20
-386.94058975454726
 10
631.84534065917614
 20
-381.79575134414182
 42
-0.3729018752331698
 10
627.55828502121847
 20
-376.84684132913509
 10
627.55828502121847
 20
87.514165871900104
 42
0.3945442706201164
 10
617.5582850212212
 20
98.214293606533602
  0
LINE
  5
208
100
AcDbEntity
  8
FAA70-0512
370
              15
390
0
  6
Continuous
 62
               7
100
AcDbLine
 10
-147.04697506227672
 20
-691.7857063934664
 30
0.0
 11
-147.04697506227672
 21
-161.7857063934664
 31
0.0
  0
LINE
  5
209
100
AcDbEntity
  8
FAA70-0512
370
              15
390
0
  6
Continuous
 62
               7
100
AcDbLine
 10
-467.09354624283219
 20
-701.7857063934664
 30
0.0
 11
-156.3935462428322
 21
-701.7857063934664
 31
0.0
  0
ARC
  5
20A
100
AcDbEntity
  8
FAA70-0512
370
              15
390
0
  6
Continuous
 62
               7
100
AcDbCircle
 10
-157.04697506227674
 20
-691.7857063934664
 30
0.0
 40
10.0
100
AcDbArc
 50
270.0
 51
0.0
  0
CIRCLE
  5
20B
100
AcDbEntity
  8
FAA70-0512
370
              15
390
0
  6
Continuous
 62
               7
100
AcDbCircle
 10
-412.09354624283225
 20
-426.7857063934664
 30
0.0
 40
37.499999999999972
  0
CIRCLE
  5
20C
100
AcDbEntity
  8
FAA70-0512
370
              15
390
0
  6
Continuous
 62
               7
100
AcDbCircle
 10
-412.09354624283225
 20
-426.7857063934664
 30
0.0
 40
26.0
  0
LINE
  5
20D
100
AcDbEntity
  8
FAA70-0512
370
              15
390
0
  6
Continuous
 62
               7
100
AcDbLine
 10
-467.09354624283219
 20
-151.7857063934664
 30
0.0
 11
-156.3935462428322
 21
-151.7857063934664
 31
0.0
  0
ARC
  5
20E
100
AcDbEntity
  8
FAA70-0512
370
              15
390
0
  6
Continuous
 62
               7
100
AcDbCircle
 10
-157.04697506227672
 20
-161.7857063934664
 30
0.0
 40
10.0
100
AcDbArc
 50
0.0
 51
90.0
  0
LWPOLYLINE
  5
20F
100
AcDbEntity
  8
FAA70-0512
370
              15
390
0
  6
Continuous
 62
               7
100
AcDbPolyline
 90
        8
 70
             129
 10
-597.09354624283219
 20
98.214293606533602
 42
0.414213562373095
 10
-602.09354624283219
 20
93.214293606533602
 10
-602.09354624283219
 20
-946.7857063934664
 42
0.414213562373095
 10
-597.09354624283219
 20
-951.7857063934664
 10
-125.09667499132092
 20
-951.7857063934664
 42
0.4069028275172573
 10
-115.09980602269462
 20
-942.03592794352835
 42
0.0058345628087697
 10
-115.09980602269877
 20
88.464515156760626
 42
0.4069028275124461
 10
-125.09667499132092
 20
98.214293606533602
  0
LINE
  5
210
100
AcDbEntity
  8
FAA70-0512
370
              15
390
0
  6
Continuous
 62
               7
100
AcDbLine
 10
-477.09354624283219
 20
-161.7857063934664
 30
0.0
 11
-477.09354624283219
 21
-691.7857063934664
 31
0.0
  0
ARC
  5
211
100
AcDbEntity
  8
FAA70-0512
370
              15
390
0
  6
Continuous
 62
               7
100
AcDbCircle
 10
-467.0935462428323
 20
-691.7857063934664
 30
0.0
 40
10.0
100
AcDbArc
 50
180.0
 51
270.0
  0
ARC
  5
212
100
AcDbEntity
  8
FAA70-0512
370
              15
390
0
  6
Continuous
 62
               7
100
AcDbCircle
 10
-467.09354624283219
 20
-161.7857063934664
 30
0.0
 40
10.0
100
AcDbArc
 50
90.0
 51
180.0
  0
CIRCLE
  5
213
100
AcDbEntity
  8
FAA70-0512
370
              15
390
0
  6
Continuous
 62
               7
100
AcDbCircle
 10
-537.09354624283219
 20
-426.7857063934664
 30
0.0
 40
17.5
  0
CIRCLE
  5
214
100
AcDbEntity
  8
FAA70-0512
370
              15
390
0
  6
STYLE_25
 62
               7
100
AcDbCircle
 10
-537.09354624283219
 20
-326.78570639346646
 30
0.0
 40
17.5
  0
CIRCLE
  5
215
100
AcDbEntity
  8
FAA70-0512
370
              15
390
0
  6
STYLE_25
 62
               7
100
AcDbCircle
 10
-537.0935462428323
 20
-526.7857063934664
 30
0.0
 40
17.5
  0
LINE
  5
216
100
AcDbEntity
  8
FAA70-0512
370
              15
390
0
  6
STYLE_25
 62
               7
100
AcDbLine
 10
612.2442692837609
 20
-394.81046564327238
 30
0.0
 11
612.2442692837609
 21
-426.80224285179975
 31
0.0
  0
LINE
  5
217
100
AcDbEntity
  8
FAA70-0512
370
              15
390
0
  6
STYLE_25
 62
               7
100
AcDbLine
 10
618.55828502121847
 20
-400.80224285179975
 30
0.0
 11
618.55828502121847
 21
-426.80224285179975
 31
0.0
  0
LINE
  5
218
100
AcDbEntity
  8
FAA70-0512
370
              15
390
0
  6
STYLE_25
 62
               7
100
AcDbLine
 10
503.3427477775499
 20
-152.82219970464422
 30
0.0
 11
592.62613518820069
 21
-168.56526983418848
 31
0.0
  0
ARC
  5
219
100
AcDbEntity
  8
FAA70-0512
370
              15
390
0
  6
STYLE_25
 62
               7
100
AcDbCircle
 10
590.88965341153141
 20
-178.41334736431068
 30
0.0
 40
10.000000000000082
100
AcDbArc
 50
3.0000000000000311
 51
80.000000000000256
  0
LINE
  5
21A
100
AcDbEntity
  8
FAA70-0512
370
              15
390
0
  6
STYLE_25
 62
               7
100
AcDbLine
 10
600.87594875907723
 20
-177.88998780188123
 30
0.0
 11
612.2442692837609
 21
-394.81046564327238
 31
0.0
  0
LINE
  5
21B
100
AcDbEntity
  8
FAA70-0512
370
              15
390
0
  6
STYLE_25
 62
               7
100
AcDbLine
 10
612.2442692837609
 20
-394.81046564327238
 30
0.0
 11
618.55828502121847
 21
-400.80224285179975
 31
0.0
  0
LINE
  5
21C
100
AcDbEntity
  8
FAA70-0512
370
              15
390
0
  6
STYLE_25
 62
               7
100
AcDbLine
 10
613.55828502121847
 20
-400.80224285179975
 30
0.0
 11
667.55828502121847
 21
-400.80224285179975
 31
0.0
  0
ARC
  5
21D
100
AcDbEntity
  8
FAA70-0512
370
              15
390
0
  6
STYLE_25
 62
               7
100
AcDbCircle
 10
504.55828502121847
 20
-145.92854543355884
 30
0.0
 40
7.0
100
AcDbArc
 50
180.0
 51
259.99999999999955
  0
LINE
  5
21E
100
AcDbEntity
  8
FAA70-0512
370
              15
390
0
  6
STYLE_25
 62
               7
100
AcDbLine
 10
612.54983601869696
 20
906.08009817984225
 30
0.0
 11
612.54983601869696
 21
874.08832097131494
 31
0.0
  0
LINE
  5
21F
100
AcDbEntity
  8
FAA70-0512
370
              15
390
0
  6
STYLE_25
 62
               7
100
AcDbLine
 10
618.86385175615476
 20
900.08832097131494
 30
0.0
 11
618.86385175615476
 21
874.08832097131494
 31
0.0
  0
LINE
  5
220
100
AcDbEntity
  8
FAA70-0512
370
              15
390
0
  6
STYLE_25
 62
               7
100
AcDbLine
 10
611.36217650918218
 20
913.228130519047
 30
0.0
 11
612.54983601869696
 21
906.08009817984225
 31
0.0
  0
LINE
  5
221
100
AcDbEntity
  8
FAA70-0512
370
              15
390
0
  6
STYLE_25
 62
               7
100
AcDbLine
 10
612.54983601869696
 20
906.08009817984225
 30
0.0
 11
618.86385175615476
 21
900.08832097131494
 31
0.0
  0
LINE
  5
222
100
AcDbEntity
  8
FAA70-0512
370
              15
390
0
  6
STYLE_25
 62
               7
100
AcDbLine
 10
618.86385175615453
 20
900.08832097131494
 30
0.0
 11
667.56385175615458
 21
900.08832097131494
 31
0.0
  0
LINE
  5
223
100
AcDbEntity
  8
FAA70-0512
370
              15
390
0
  6
Continuous
 62
               7
100
AcDbLine
 10
617.57227509216784
 20
574.06280709786336
 30
0.0
 11
507.57227509216534
 21
574.06280709786336
 31
0.0
  0
ARC
  5
224
100
AcDbEntity
  8
FAA70-0512
370
              15
390
0
  6
Continuous
 62
               7
100
AcDbCircle
 10
616.84763841529161
 20
584.76293483249685
 30
0.0
 40
10.724636676873846
100
AcDbArc
 50
273.87428319203553
 51
0.0
  0
ARC
  5
225
100
AcDbEntity
  8
FAA70-0512
370
              15
390
0
  6
Continuous
 62
               7
100
AcDbCircle
 10
632.5638517561548
 20
824.78641747450433
 30
0.0
 40
5.0000000000001377
100
AcDbArc
 50
98.19768095405621
 51
180.0
  0
LINE
  5
226
100
AcDbEntity
  8
FAA70-0512
370
              15
390
0
  6
Continuous
 62
               7
100
AcDbLine
 10
667.56385175615458
 20
834.88016589991616
 30
0.0
 11
631.8509073941126
 21
829.73532748951106
 31
0.0
  0
LINE
  5
227
100
AcDbEntity
  8
FAA70-0512
370
              15
390
0
  6
Continuous
 62
               7
100
AcDbLine
 10
667.56385175615458
 20
914.60347209442148
 30
0.0
 11
667.56385175615458
 21
834.88016589991616
 31
0.0
  0
LINE
  5
228
100
AcDbEntity
  8
FAA70-0512
370
              15
390
0
  6
Continuous
 62
               7
100
AcDbLine
 10
631.85090739411487
 20
919.74831050482658
 30
0.0
 11
667.56385175615458
 21
914.60347209442148
 31
0.0
  0
ARC
  5
229
100
AcDbEntity
  8
FAA70-0512
370
              15
390
0
  6
Continuous
 62
               7
100
AcDbCircle
 10
632.56385175615503
 20
924.69722051983331
 30
0.0
 40
5.0000000000003411
100
AcDbArc
 50
180.0
 51
261.80231904596525
  0
LINE
  5
22A
100
AcDbEntity
  8
FAA70-0512
370
              15
390
0
  6
Continuous
 62
               7
100
AcDbLine
 10
627.56385175615458
 20
1054.1048574296481
 30
0.0
 11
627.57227509216534
 21
584.76293483249685
 31
0.0
  0
ARC
  5
22B
100
AcDbEntity
  8
FAA70-0512
370
              15
390
0
  6
Continuous
 62
               7
100
AcDbCircle
 10
617.56385175615458
 20
1054.1048574296483
 30
0.0
 40
10.0
100
AcDbArc
 50
0.0
 51
90.0
  0
LINE
  5
22C
100
AcDbEntity
  8
FAA70-0512
370
              15
390
0
  6
Continuous
 62
               7
100
AcDbLine
 10
507.56385175615458
 20
1064.1048574296481
 30
0.0
 11
617.56385175615458
 21
1064.1048574296481
 31
0.0
  0
ARC
  5
22D
100
AcDbEntity
  8
FAA70-0512
370
              15
390
0
  6
Continuous
 62
               7
100
AcDbCircle
 10
507.56385175615458
 20
1054.1048574296481
 30
0.0
 40
10.0
100
AcDbArc
 50
90.0
 51
180.0
  0
LINE
  5
22E
100
AcDbEntity
  8
FAA70-0512
370
              15
390
0
  6
Continuous
 62
               7
100
AcDbLine
 10
497.57227509216546
 20
584.06280709786336
 30
0.0
 11
497.56385175615469
 21
1054.1048574296481
 31
0.0
  0
ARC
  5
22F
100
AcDbEntity
  8
FAA70-0512
370
              15
390
0
  6
Continuous
 62
               7
100
AcDbCircle
 10
507.57227509216546
 20
584.06280709786336
 30
0.0
 40
10.0
100
AcDbArc
 50
180.0
 51
270.0
  0
LINE
  5
230
100
AcDbEntity
  8
FAA70-0512
370
              15
390
0
  6
STYLE_25
 62
               7
100
AcDbLine
 10
612.54983601869696
 20
842.06239764482893
 30
0.0
 11
612.54983601869696
 21
874.05417485335624
 31
0.0
  0
LINE
  5
231
100
AcDbEntity
  8
FAA70-0512
370
              15
390
0
  6
STYLE_25
 62
               7
100
AcDbLine
 10
618.86385175615476
 20
848.05417485335624
 30
0.0
 11
618.86385175615476
 21
874.05417485335624
 31
0.0
  0
LINE
  5
232
100
AcDbEntity
  8
FAA70-0512
370
              15
390
0
  6
STYLE_25
 62
               7
100
AcDbLine
 10
612.54983601869696
 20
842.06239764482893
 30
0.0
 11
618.86385175615476
 21
848.05417485335624
 31
0.0
  0
LINE
  5
233
100
AcDbEntity
  8
FAA70-0512
370
              15
390
0
  6
STYLE_25
 62
               7
100
AcDbLine
 10
618.86385175615453
 20
848.05417485335624
 30
0.0
 11
667.56385175615458
 21
848.05417485335624
 31
0.0
  0
ARC
  5
234
100
AcDbEntity
  8
FAA70-0512
370
              15
390
0
  6
STYLE_25
 62
               7
100
AcDbCircle
 10
601.37588116163647
 20
912.7047709566184
 30
0.0
 40
9.9999999999993552
100
AcDbArc
 50
2.999999999995357
 51
84.999999999999872
  0
LINE
  5
235
100
AcDbEntity
  8
FAA70-0512
370
              15
390
0
  6
STYLE_25
 62
               7
100
AcDbLine
 10
503.48753475771161
 20
931.51232652300746
 30
0.0
 11
602.24743858911302
 21
922.66671793753517
 31
0.0
  0
ARC
  5
236
100
AcDbEntity
  8
FAA70-0512
370
              15
390
0
  6
STYLE_25
 62
               7
100
AcDbCircle
 10
504.06782083114058
 20
937.98637224982963
 30
0.0
 40
6.4999999999999991
100
AcDbArc
 50
180.00072108899144
 51
264.8781128701815
  0
LINE
  5
237
100
AcDbEntity
  8
FAA70-0512
370
              15
390
0
  6
STYLE_25
 62
               7
100
AcDbLine
 10
503.35652878539747
 20
619.48499262825919
 30
0.0
 11
592.63991619604838
 21
635.22806275780374
 31
0.0
  0
ARC
  5
238
100
AcDbEntity
  8
FAA70-0512
370
              15
390
0
  6
STYLE_25
 62
               7
100
AcDbCircle
 10
590.90343441937921
 20
645.07614028792534
 30
0.0
 40
9.9999999999995026
100
AcDbArc
 50
279.99999999999972
 51
356.99999999999955
  0
LINE
  5
239
100
AcDbEntity
  8
FAA70-0512
370
              15
390
0
  6
STYLE_25
 62
               7
100
AcDbLine
 10
600.88972976692469
 20
644.55278072549584
 30
0.0
 11
612.54983601869696
 21
842.06239764482893
 31
0.0
  0
ARC
  5
23A
100
AcDbEntity
  8
FAA70-0512
370
              15
390
0
  6
STYLE_25
 62
               7
100
AcDbCircle
 10
504.57206602906604
 20
612.59133835717398
 30
0.0
 40
6.9999999999997469
100
AcDbArc
 50
99.999999999999844
 51
180.0
  0
CIRCLE
  5
23B
100
AcDbEntity
  8
FAA70-0512
370
              15
390
0
  6
STYLE_25
 62
               7
100
AcDbCircle
 10
-537.09354624283219
 20
-226.7857063934664
 30
0.0
 40
17.500000000000007
  0
CIRCLE
  5
23C
100
AcDbEntity
  8
FAA70-0512
370
              15
390
0
  6
STYLE_25
 62
               7
100
AcDbCircle
 10
-537.0935462428323
 20
-626.7857063934664
 30
0.0
 40
17.5
  0
LINE
  5
23D
100
AcDbEntity
  8
FAA70-0512
370
              15
390
0
  6
STYLE_25
 62
               7
100
AcDbLine
 10
547.14479028922119
 20
-101.80224285179975
 30
0.0
 11
547.14479028922119
 21
-61.802242851799747
 31
0.0
  0
LINE
  5
23E
100
AcDbEntity
  8
FAA70-0512
370
              15
390
0
  6
STYLE_25
 62
               7
100
AcDbLine
 10
547.14479028922119
 20
-306.8022428517998
 30
0.0
 11
547.14479028922119
 21
-266.80224285179975
 31
0.0
  0
LINE
  5
23F
100
AcDbEntity
  8
FAA70-0512
370
              15
390
0
  6
STYLE_25
 62
               7
100
AcDbLine
 10
547.14479028922119
 20
-586.80224285179975
 30
0.0
 11
547.14479028922119
 21
-546.80224285179975
 31
0.0
  0
LINE
  5
240
100
AcDbEntity
  8
FAA70-0512
370
              15
390
0
  6
STYLE_25
 62
               7
100
AcDbLine
 10
547.14479028922119
 20
-791.80224285179975
 30
0.0
 11
547.14479028922119
 21
-751.80224285179975
 31
0.0
  0
CIRCLE
  5
241
100
AcDbEntity
  8
FAA70-0512
370
               5
390
0
  6
STYLE_25
 62
               7
100
AcDbCircle
 10
547.14479028922119
 20
-771.80224285179975
 30
0.0
 40
10.0
  0
CIRCLE
  5
242
100
AcDbEntity
  8
FAA70-0512
370
               5
390
0
  6
STYLE_25
 62
               7
100
AcDbCircle
 10
547.14479028922119
 20
-566.80224285179975
 30
0.0
 40
10.0
  0
CIRCLE
  5
243
100
AcDbEntity
  8
FAA70-0512
370
               5
390
0
  6
STYLE_25
 62
               7
100
AcDbCircle
 10
547.14479028922119
 20
-286.8022428517998
 30
0.0
 40
10.0
  0
CIRCLE
  5
244
100
AcDbEntity
  8
FAA70-0512
370
               5
390
0
  6
STYLE_25
 62
               7
100
AcDbCircle
 10
547.14479028922119
 20
-81.802242851799747
 30
0.0
 40
10.0
  0
LINE
  5
245
100
AcDbEntity
  8
FAA70-0512
370
               5
390
0
  6
Continuous
 62
               7
100
AcDbLine
 10
497.56465363208076
 20
981.60485742964806
 30
0.0
 11
512.56465363208076
 21
981.60527820281209
 31
0.0
  0
LINE
  5
246
100
AcDbEntity
  8
FAA70-0512
370
               5
390
0
  6
Continuous
 62
               7
100
AcDbLine
 10
497.56465363208076
 20
1016.6048574296481
 30
0.0
 11
512.56465363208076
 21
1016.6048574296481
 31
0.0
  0
POLYLINE
  5
247
100
AcDbEntity
  8
FAA70-0512
370
               5
390
0
  6
Continuous
 62
               7
100
AcDb2dPolyline
 66
               1
 10
0.0
 20
0.0
 30
0.0
 70
               1
 75
               5
  0
VERTEX
  5
248
100
AcDbEntity
  8
FAA70-0512
370
               5
390
0
  6
Continuous
 62
               7
100
AcDbVertex
100
AcDb2dVertex
 10
-572.09354624283219
 20
1010.8195937317976
 30
0.0
  0
VERTEX
  5
249
100
AcDbEntity
  8
FAA70-0512
370
               5
390
0
  6
Continuous
 62
               7
100
AcDbVertex
100
AcDb2dVertex
 10
-352.09354624283219
 20
1010.8195937317976
 30
0.0
  0
VERTEX
  5
24A
100
AcDbEntity
  8
FAA70-0512
370
               5
390
0
  6
Continuous
 62
               7
100
AcDbVertex
100
AcDb2dVertex
 10
-352.09354624283219
 20
560.81959373180041
 30
0.0
  0
VERTEX
  5
24B
100
AcDbEntity
  8
FAA70-0512
370
               5
390
0
  6
Continuous
 62
               7
100
AcDbVertex
100
AcDb2dVertex
 10
-572.09354624283219
 20
560.81959373180041
 30
0.0
  0
SEQEND
  5
24C
100
AcDbEntity
  8
FAA70-0512
370
               5
390
0
  6
Continuous
 62
               7
  0
CIRCLE
  5
24D
100
AcDbEntity
  8
FAA70-0512
370
               5
390
0
  6
STYLE_25
 62
               7
100
AcDbCircle
 10
-412.09354624283225
 20
785.81959373179757
 30
0.0
 40
26.0
  0
LWPOLYLINE
  5
24E
100
AcDbEntity
  8
FAA70-0512
370
               5
390
0
  6
STYLE_25
 62
               7
100
AcDbPolyline
 90
        9
 70
             129
 10
-597.09354624283219
 20
1310.8195937317967
 42
0.414213562373095
 10
-602.09354624283219
 20
1305.8195937317967
 10
-602.09354624283219
 20
265.81959373180007
 42
0.414213562373095
 10
-597.09354624283219
 20
260.81959373180007
 10
-125.09667499132092
 20
260.81959373180007
 42
0.406902827517254
 10
-115.09980602269462
 20
270.56937218173812
 10
-115.09980602269934
 20
270.56937218160522
 42
0.0058345628087709
 10
-115.09980602269877
 20
1301.0698152820237
 42
0.4069028275124474
 10
-125.09667499132092
 20
1310.8195937317967
  0
CIRCLE
  5
24F
100
AcDbEntity
  8
FAA70-0512
370
               5
390
0
  6
Continuous
 62
               7
100
AcDbCircle
 10
-537.09354624283219
 20
785.81959373179757
 30
0.0
 40
17.5
  0
LINE
  5
250
100
AcDbEntity
  8
FAA70-0512
370
               5
390
0
  6
Continuous
 62
               7
100
AcDbLine
 10
-602.09354624283219
 20
235.40431595402208
 30
0.0
 11
-602.09354624283219
 21
1335.404315954019
 31
0.0
  0
LINE
  5
251
100
AcDbEntity
  8
FAA70-0512
370
               5
390
0
  6
Continuous
 62
               7
100
AcDbLine
 10
-602.09354624283219
 20
1244.1043159540193
 30
0.0
 11
-639.09354624283219
 21
1281.1043159540193
 31
0.0
  0
LINE
  5
252
100
AcDbEntity
  8
FAA70-0512
370
               5
390
0
  6
Continuous
 62
               7
100
AcDbLine
 10
-602.09354624283219
 20
1264.1043159540193
 30
0.0
 11
-639.09354624283219
 21
1301.1043159540193
 31
0.0
  0
LINE
  5
253
100
AcDbEntity
  8
FAA70-0512
370
               5
390
0
  6
Continuous
 62
               7
100
AcDbLine
 10
-602.09354624283219
 20
1284.1043159540193
 30
0.0
 11
-639.09354624283219
 21
1321.1043159540193
 31
0.0
  0
ENDSEC
  0
SECTION
  2
OBJECTS
  0
DICTIONARY
  5
19
100
AcDbDictionary
280
               0
281
               1
  3
ACAD_GROUP
350
1A
  3
ACAD_MLINESTYLE
350
1B
  3
ACAD_LAYOUT
350
1E
  3
ACAD_PLOTSETTINGS
350
22
  3
ACAD_PLOTSTYLENAME
350
1F
  0
DICTIONARY
  5
1A
102
{ACAD_REACTORS
330
19
102
}
100
AcDbDictionary
280
               0
281
               1
  0
DICTIONARY
  5
1B
102
{ACAD_REACTORS
330
19
102
}
100
AcDbDictionary
280
               0
281
               1
  3
Standard
350
1C
  0
MLINESTYLE
  5
1C
102
{ACAD_REACTORS
330
1B
102
}
100
AcDbMlineStyle
  2
Standard
 70
               0
  3

 62
               0
 51
90.0
 52
90.0
 71
               2
 49
0.5
 62
             256
  6
ByLayer
 49
-0.5
 62
             256
  6
ByLayer
  0
ACDBDICTIONARYWDFLT
  5
1F
102
{ACAD_REACTORS
330
19
102
}
100
AcDbDictionary
281
               1
  3
Normal
350
1D
100
AcDbDictionaryWithDefault
340
1D
  0
ACDBPLACEHOLDER
  5
1D
102
{ACAD_REACTORS
330
1F
102
}
  0
LAYOUT
  5
20
102
{ACAD_REACTORS
330
1E
102
}
100
AcDbPlotSettings
  1

  2

  4

  6

 40
0.0
 41
0.0
 42
0.0
 43
0.0
 44
0.0
 45
0.0
 46
0.0
 47
0.0
 48
0.0
 49
0.0
140
0.0
141
0.0
142
1.0
143
1.0
 70
            1024
 72
               0
 73
               0
 74
               0
  7

 75
               0
147
1.0
148
0.0
149
0.0
100
AcDbLayout
  1
Model
 70
               0
 71
               0
 10
0.0
 20
0.0
 11
0.0
 21
0.0
 12
0.0
 22
0.0
 32
0.0
 14
0.0
 24
0.0
 34
0.0
 15
0.0
 25
0.0
 35
0.0
146
0.0
 13
0.0
 23
0.0
 33
0.0
 16
0.0
 26
0.0
 36
0.0
 17
0.0
 27
0.0
 37
0.0
 76
               0
330
A
331
0
345
0
346
0
  0
LAYOUT
  5
21
102
{ACAD_REACTORS
330
1E
102
}
100
AcDbPlotSettings
  1

  2

  4

  6

 40
0.0
 41
0.0
 42
0.0
 43
0.0
 44
0.0
 45
0.0
 46
0.0
 47
0.0
 48
0.0
 49
0.0
140
0.0
141
0.0
142
1.0
143
1.0
 70
               0
 72
               0
 73
               0
 74
               0
  7

 75
               0
147
1.0
148
0.0
149
0.0
100
AcDbLayout
  1
Layout1
 70
               0
 71
               0
 10
0.0
 20
0.0
 11
0.0
 21
0.0
 12
0.0
 22
0.0
 32
0.0
 14
0.0
 24
0.0
 34
0.0
 15
0.0
 25
0.0
 35
0.0
146
0.0
 13
0.0
 23
0.0
 33
0.0
 16
0.0
 26
0.0
 36
0.0
 17
0.0
 27
0.0
 37
0.0
 76
               0
330
B
331
0
345
0
346
0
  0
DICTIONARY
  5
1E
102
{ACAD_REACTORS
330
19
102
}
100
AcDbDictionary
280
               0
281
               1
  3
Layout1
350
21
  3
Model
350
20
  0
DICTIONARY
  5
22
102
{ACAD_REACTORS
330
19
102
}
100
AcDbDictionary
280
               0
281
               1
  0
ENDSEC
  0
EOF
