  0
SECTION
  2
HEADER
  9
$ACADVER
  1
AC1015
  9
$ACADMAINTVER
 70
               6
  9
$DWGCODEPAGE
  3
ANSI_932
  9
$INSBASE
 10
0.0
 20
0.0
 30
0.0
  9
$EXTMIN
 10
-975.00000000024124
 20
-1431.5255224711129
 30
-14.428611111111111
  9
$EXTMAX
 10
975.00000000024124
 20
1405.9972926412995
 30
14.428611111111111
  9
$LIMMIN
 10
0.0
 20
0.0
  9
$LIMMAX
 10
0.0
 20
0.0
  9
$ORTHOMODE
 70
               0
  9
$REGENMODE
 70
               1
  9
$FILLMODE
 70
               1
  9
$QTEXTMODE
 70
               0
  9
$MIRRTEXT
 70
               1
  9
$LTSCALE
 40
12.699999999999999
  9
$ATTMODE
 70
               1
  9
$TEXTSIZE
 40
0.2
  9
$TRACEWID
 40
1.0
  9
$TEXTSTYLE
  7
Standard
  9
$CLAYER
  8
notes
  9
$CELTYPE
  6
Continuous
  9
$CECOLOR
 62
             256
  9
$CELTSCALE
 40
1.0
  9
$DISPSILH
 70
               0
  9
$DIMSCALE
 40
1.0
  9
$DIMASZ
 40
31.75
  9
$DIMEXO
 40
0.0
  9
$DIMDLI
 40
6.9999999999999396
  9
$DIMRND
 40
0.0
  9
$DIMDLE
 40
0.0
  9
$DIMEXE
 40
19.999999999996199
  9
$DIMTP
 40
0.0
  9
$DIMTM
 40
0.0
  9
$DIMTXT
 40
24.432617187500004
  9
$DIMCEN
 40
0.0
  9
$DIMTSZ
 40
0.0
  9
$DIMTOL
 70
               0
  9
$DIMLIM
 70
               0
  9
$DIMTIH
 70
               0
  9
$DIMTOH
 70
               0
  9
$DIMSE1
 70
               0
  9
$DIMSE2
 70
               0
  9
$DIMTAD
 70
               1
  9
$DIMZIN
 70
              11
  9
$DIMBLK
  1
VW_FILLEDARROW
  9
$DIMASO
 70
               1
  9
$DIMSHO
 70
               1
  9
$DIMPOST
  1
<>
  9
$DIMAPOST
  1
[]
  9
$DIMALT
 70
               0
  9
$DIMALTD
 70
               1
  9
$DIMALTF
 40
1.0
  9
$DIMLFAC
 40
1.0
  9
$DIMTOFL
 70
               0
  9
$DIMTVP
 40
0.0
  9
$DIMTIX
 70
               1
  9
$DIMSOXD
 70
               0
  9
$DIMSAH
 70
               0
  9
$DIMBLK1
  1

  9
$DIMBLK2
  1

  9
$DIMSTYLE
  2
JIS
  9
$DIMCLRD
 70
               0
  9
$DIMCLRE
 70
               0
  9
$DIMCLRT
 70
               0
  9
$DIMTFAC
 40
1.0
  9
$DIMGAP
 40
1.00000000000108
  9
$DIMJUST
 70
               0
  9
$DIMSD1
 70
               0
  9
$DIMSD2
 70
               0
  9
$DIMTOLJ
 70
               1
  9
$DIMTZIN
 70
              11
  9
$DIMALTZ
 70
              11
  9
$DIMALTTZ
 70
              11
  9
$DIMUPT
 70
               0
  9
$DIMDEC
 70
               1
  9
$DIMTDEC
 70
               1
  9
$DIMALTU
 70
               2
  9
$DIMALTTD
 70
               2
  9
$DIMTXSTY
  7
ＭＳ ゴシック
  9
$DIMAUNIT
 70
               0
  9
$DIMADEC
 70
               2
  9
$DIMALTRND
 40
0.0
  9
$DIMAZIN
 70
               0
  9
$DIMDSEP
 70
              46
  9
$DIMATFIT
 70
               0
  9
$DIMFRAC
 70
               2
  9
$DIMLDRBLK
  1

  9
$DIMLUNIT
 70
               2
  9
$DIMLWD
 70
              -2
  9
$DIMLWE
 70
              -2
  9
$DIMTMOVE
 70
               0
  9
$LUNITS
 70
               2
  9
$LUPREC
 70
               4
  9
$SKETCHINC
 40
0.1
  9
$FILLETRAD
 40
0.0
  9
$AUNITS
 70
               0
  9
$AUPREC
 70
               0
  9
$MENU
  1
acad
  9
$ELEVATION
 40
0.0
  9
$PELEVATION
 40
0.0
  9
$THICKNESS
 40
0.0
  9
$LIMCHECK
 70
               0
  9
$CHAMFERA
 40
0.0
  9
$CHAMFERB
 40
0.0
  9
$CHAMFERC
 40
0.0
  9
$CHAMFERD
 40
0.0
  9
$SKPOLY
 70
               0
  9
$TDCREATE
 40
2456451.481238426
  9
$TDUCREATE
 40
0.000000000
  9
$TDUPDATE
 40
2456451.481238426
  9
$TDUUPDATE
 40
0.000000000
  9
$TDINDWG
 40
0.0000000000
  9
$TDUSRTIMER
 40
0.0000000000
  9
$USRTIMER
 70
               1
  9
$ANGBASE
 50
0.0
  9
$ANGDIR
 70
               0
  9
$PDMODE
 70
               1
  9
$PDSIZE
 40
-2.0
  9
$PLINEWID
 40
0.0
  9
$SPLFRAME
 70
               0
  9
$SPLINETYPE
 70
               6
  9
$SPLINESEGS
 70
               8
  9
$HANDSEED
  5
173
  9
$SURFTAB1
 70
               6
  9
$SURFTAB2
 70
               6
  9
$SURFTYPE
 70
               6
  9
$SURFU
 70
               6
  9
$SURFV
 70
               6
  9
$UCSBASE
  2

  9
$UCSNAME
  2

  9
$UCSORG
 10
0.0
 20
0.0
 30
0.0
  9
$UCSXDIR
 10
1.0
 20
0.0
 30
0.0
  9
$UCSYDIR
 10
0.0
 20
1.0
 30
0.0
  9
$UCSORTHOREF
  2

  9
$UCSORTHOVIEW
 70
               0
  9
$UCSORGTOP
 10
0.0
 20
0.0
 30
0.0
  9
$UCSORGBOTTOM
 10
0.0
 20
0.0
 30
0.0
  9
$UCSORGLEFT
 10
0.0
 20
0.0
 30
0.0
  9
$UCSORGRIGHT
 10
0.0
 20
0.0
 30
0.0
  9
$UCSORGFRONT
 10
0.0
 20
0.0
 30
0.0
  9
$UCSORGBACK
 10
0.0
 20
0.0
 30
0.0
  9
$PUCSBASE
  2

  9
$PUCSNAME
  2

  9
$PUCSORG
 10
0.0
 20
0.0
 30
0.0
  9
$PUCSXDIR
 10
1.0
 20
0.0
 30
0.0
  9
$PUCSYDIR
 10
0.0
 20
1.0
 30
0.0
  9
$PUCSORTHOREF
  2

  9
$PUCSORTHOVIEW
 70
               0
  9
$PUCSORGTOP
 10
0.0
 20
0.0
 30
0.0
  9
$PUCSORGBOTTOM
 10
0.0
 20
0.0
 30
0.0
  9
$PUCSORGLEFT
 10
0.0
 20
0.0
 30
0.0
  9
$PUCSORGRIGHT
 10
0.0
 20
0.0
 30
0.0
  9
$PUCSORGFRONT
 10
0.0
 20
0.0
 30
0.0
  9
$PUCSORGBACK
 10
0.0
 20
0.0
 30
0.0
  9
$USERI1
 70
               0
  9
$USERI2
 70
               0
  9
$USERI3
 70
               0
  9
$USERI4
 70
               0
  9
$USERI5
 70
               0
  9
$USERR1
 40
0.0
  9
$USERR2
 40
0.0
  9
$USERR3
 40
0.0
  9
$USERR4
 40
0.0
  9
$USERR5
 40
0.0
  9
$WORLDVIEW
 70
               1
  9
$SHADEDGE
 70
               3
  9
$SHADEDIF
 70
              70
  9
$TILEMODE
 70
               1
  9
$MAXACTVP
 70
              64
  9
$PINSBASE
 10
0.0
 20
0.0
 30
0.0
  9
$PLIMCHECK
 70
               0
  9
$PEXTMIN
 10
1.0000000000000000E+20
 20
1.0000000000000000E+20
 30
1.0000000000000000E+20
  9
$PEXTMAX
 10
-1.0000000000000000E+20
 20
-1.0000000000000000E+20
 30
-1.0000000000000000E+20
  9
$PLIMMIN
 10
0.0
 20
0.0
  9
$PLIMMAX
 10
12.0
 20
9.0
  9
$UNITMODE
 70
               0
  9
$VISRETAIN
 70
               0
  9
$PLINEGEN
 70
               1
  9
$PSLTSCALE
 70
               0
  9
$TREEDEPTH
 70
            3020
  9
$CMLSTYLE
  2
Standard
  9
$CMLJUST
 70
               0
  9
$CMLSCALE
 40
1.0
  9
$PROXYGRAPHICS
 70
               0
  9
$MEASUREMENT
 70
               1
  9
$CELWEIGHT
370
               0
  9
$ENDCAPS
280
               0
  9
$JOINSTYLE
280
               0
  9
$LWDISPLAY
290
               1
  9
$INSUNITS
 70
               4
  9
$HYPERLINKBASE
  1

  9
$STYLESHEET
  1

  9
$XEDIT
290
               1
  9
$CEPSNTYPE
380
               0
  9
$PSTYLEMODE
290
               1
  9
$FINGERPRINTGUID
  2

  9
$VERSIONGUID
  2

  9
$EXTNAMES
290
               1
  9
$PSVPSCALE
 40
0.0
  0
ENDSEC
  0
SECTION
  2
CLASSES
  0
CLASS
  1
LWPOLYLINE
  2
AcDbPolyline
  3
AutoCAD 2000
 90
        0
280
               0
281
               1
  0
CLASS
  1
IMAGE
  2
AcDbRasterImage
  3
ISM
 90
      127
280
               0
281
               1
  0
CLASS
  1
OLE2FRAME
  2
AcDbOle2Frame
  3
AutoCAD 2000
 90
        0
280
               0
281
               1
  0
CLASS
  1
HATCH
  2
AcDbHatch
  3
AutoCAD 2000
 90
        0
280
               0
281
               1
  0
CLASS
  1
DICTIONARYVAR
  2
AcDbDictionaryVar
  3
AutoCAD 2000
 90
        0
280
               0
281
               0
  0
CLASS
  1
RASTERVARIABLES
  2
AcDbRasterVariables
  3
ISM
 90
        0
280
               0
281
               0
  0
CLASS
  1
IMAGEDEF
  2
AcDbRasterImageDef
  3
ISM
 90
        0
280
               0
281
               0
  0
CLASS
  1
IMAGEDEF_REACTOR
  2
AcDbRasterImageDefReactor
  3
ISM
 90
        1
280
               0
281
               0
  0
CLASS
  1
IDBUFFER
  2
AcDbIdBuffer
  3
AutoCAD 2000
 90
        0
280
               0
281
               0
  0
CLASS
  1
SPATIAL_FILTER
  2
AcDbSpatialFilter
  3
AutoCAD 2000
 90
        0
280
               0
281
               0
  0
CLASS
  1
XRECORD
  2
AcDbXrecord
  3
AutoCAD 2000
 90
        0
280
               0
281
               0
  0
CLASS
  1
SORTENTSTABLE
  2
AcDbSortentsTable
  3
AutoCAD 2000
 90
        0
280
               0
281
               0
  0
CLASS
  1
LAYER_INDEX
  2
AcDbLayerIndex
  3
AutoCAD 2000
 90
        0
280
               0
281
               0
  0
CLASS
  1
SPATIAL_INDEX
  2
AcDbSpatialIndex
  3
AutoCAD 2000
 90
        0
280
               0
281
               0
  0
CLASS
  1
OBJECT_PTR
  2
CAseDLPNTableRecord
  3
"ASE-LPNTableRecord"
 90
        1
280
               0
281
               0
  0
CLASS
  1
LAYOUT
  2
AcDbLayout
  3
AutoCAD 2000
 90
        0
280
               0
281
               0
  0
CLASS
  1
PLOTSETTINGS
  2
AcDbPlotSettings
  3
AutoCAD 2000
 90
        0
280
               0
281
               0
  0
CLASS
  1
ACDBDICTIONARYWDFLT
  2
AcDbDictionaryWithDefault
  3
AutoCAD 2000
 90
        0
280
               0
281
               0
  0
CLASS
  1
ACDBPLACEHOLDER
  2
AcDbPlaceHolder
  3
AutoCAD 2000
 90
        0
280
               0
281
               0
  0
ENDSEC
  0
SECTION
  2
TABLES
  0
TABLE
  2
VPORT
  5
7
100
AcDbSymbolTable
 70
               1
  0
VPORT
  5
15
100
AcDbSymbolTableRecord
100
AcDbViewportTableRecord
  2
*ACTIVE
 70
               0
 10
0.0
 20
0.0
 11
1.0
 21
1.0
 12
0.0
 22
-12.764114914906713
 13
0.0
 23
0.0
 14
1.0
 24
1.0
 15
0.0
 25
0.0
 16
0.0
 26
0.0
 36
1.0
 17
0.0
 27
0.0
 37
0.0
 40
2837.5228151124124
 41
0.688564
 42
50.0
 43
0.0
 44
0.0
 50
0.0
 51
0.0
 71
               0
 72
            2000
 73
               1
 74
               1
 75
               0
 76
               0
 77
               0
 78
               0
281
               0
 65
               0
110
0.0
120
0.0
130
0.0
111
1.0
121
0.0
131
0.0
112
0.0
122
1.0
132
0.0
345
0
346
0
 79
               0
146
0.0
  0
ENDTAB
  0
TABLE
  2
LTYPE
  5
4
100
AcDbSymbolTable
 70
              28
  0
LTYPE
  5
11
100
AcDbSymbolTableRecord
100
AcDbLinetypeTableRecord
  2
ByBlock
 70
              64
  3

 72
              65
 73
               0
 40
0.0
  0
LTYPE
  5
12
100
AcDbSymbolTableRecord
100
AcDbLinetypeTableRecord
  2
ByLayer
 70
              64
  3

 72
              65
 73
               0
 40
0.0
  0
LTYPE
  5
13
100
AcDbSymbolTableRecord
100
AcDbLinetypeTableRecord
  2
Continuous
 70
              64
  3
Solid line
 72
              65
 73
               0
 40
0.0
  0
LTYPE
  5
31
100
AcDbSymbolTableRecord
100
AcDbLinetypeTableRecord
  2
STYLE_01
 70
               0
  3

 72
              65
 73
               2
 40
0.157472
 49
0.078736
 74
               0
 49
-0.078736
 74
               0
  0
LTYPE
  5
32
100
AcDbSymbolTableRecord
100
AcDbLinetypeTableRecord
  2
STYLE_02
 70
               0
  3

 72
              65
 73
               2
 40
0.236206
 49
0.15747
 74
               0
 49
-0.078736
 74
               0
  0
LTYPE
  5
33
100
AcDbSymbolTableRecord
100
AcDbLinetypeTableRecord
  2
STYLE_03
 70
               0
  3

 72
              65
 73
               2
 40
0.314942
 49
0.236206
 74
               0
 49
-0.078736
 74
               0
  0
LTYPE
  5
34
100
AcDbSymbolTableRecord
100
AcDbLinetypeTableRecord
  2
STYLE_04
 70
               0
  3

 72
              65
 73
               2
 40
0.4724119999999999
 49
0.393676
 74
               0
 49
-0.0787359999999999
 74
               0
  0
LTYPE
  5
35
100
AcDbSymbolTableRecord
100
AcDbLinetypeTableRecord
  2
STYLE_05
 70
               0
  3

 72
              65
 73
               4
 40
0.4214800000000001
 49
0.236206
 74
               0
 49
-0.078736
 74
               0
 49
0.027802
 74
               0
 49
-0.0787360000000001
 74
               0
  0
LTYPE
  5
36
100
AcDbSymbolTableRecord
100
AcDbLinetypeTableRecord
  2
STYLE_06
 70
               0
  3

 72
              65
 73
               6
 40
0.736422
 49
0.236206
 74
               0
 49
-0.078736
 74
               0
 49
0.2362059999999999
 74
               0
 49
-0.0787360000000001
 74
               0
 49
0.027802
 74
               0
 49
-0.0787360000000001
 74
               0
  0
LTYPE
  5
37
100
AcDbSymbolTableRecord
100
AcDbLinetypeTableRecord
  2
STYLE_07
 70
               0
  3

 72
              65
 73
               6
 40
0.528018
 49
0.236206
 74
               0
 49
-0.078736
 74
               0
 49
0.027802
 74
               0
 49
-0.0787360000000001
 74
               0
 49
0.027802
 74
               0
 49
-0.0787359999999999
 74
               0
  0
LTYPE
  5
38
100
AcDbSymbolTableRecord
100
AcDbLinetypeTableRecord
  2
STYLE_08
 70
               0
  3

 72
              65
 73
               4
 40
1.0235619999999999
 49
0.7873539999999996
 74
               0
 49
-0.0787360000000001
 74
               0
 49
0.0787360000000001
 74
               0
 49
-0.0787360000000001
 74
               0
  0
LTYPE
  5
39
100
AcDbSymbolTableRecord
100
AcDbLinetypeTableRecord
  2
STYLE_09
 70
               0
  3

 72
              65
 73
               6
 40
1.1810339999999997
 49
0.7873539999999996
 74
               0
 49
-0.0787360000000001
 74
               0
 49
0.0787360000000001
 74
               0
 49
-0.0787360000000001
 74
               0
 49
0.0787359999999999
 74
               0
 49
-0.0787359999999999
 74
               0
  0
LTYPE
  5
3A
100
AcDbSymbolTableRecord
100
AcDbLinetypeTableRecord
  2
STYLE_10
 70
               0
  3

 72
              65
 73
               4
 40
1.0826771653543308
 49
0.7677165354330708
 74
               0
 49
-0.1181102362204725
 74
               0
 49
0.078740157480315
 74
               0
 49
-0.1181102362204724
 74
               0
  0
LTYPE
  5
3B
100
AcDbSymbolTableRecord
100
AcDbLinetypeTableRecord
  2
STYLE_11
 70
               0
  3

 72
              65
 73
               2
 40
0.4921259842519685
 49
0.374015748031496
 74
               0
 49
-0.1181102362204724
 74
               0
  0
LTYPE
  5
3C
100
AcDbSymbolTableRecord
100
AcDbLinetypeTableRecord
  2
STYLE_12
 70
               0
  3

 72
              65
 73
               2
 40
3.8099999999999987
 49
2.5399999999999996
 74
               0
 49
-1.2699999999999996
 74
               0
  0
LTYPE
  5
3D
100
AcDbSymbolTableRecord
100
AcDbLinetypeTableRecord
  2
STYLE_13
 70
               0
  3

 72
              65
 73
               6
 40
12.699999999999999
 49
6.3499999999999996
 74
               0
 49
-1.27
 74
               0
 49
1.27
 74
               0
 49
-1.27
 74
               0
 49
1.27
 74
               0
 49
-1.27
 74
               0
  0
LTYPE
  5
3E
100
AcDbSymbolTableRecord
100
AcDbLinetypeTableRecord
  2
STYLE_14
 70
               0
  3

 72
              65
 73
               4
 40
20.32
 49
12.699999999999999
 74
               0
 49
-2.54
 74
               0
 49
2.54
 74
               0
 49
-2.54
 74
               0
  0
LTYPE
  5
3F
100
AcDbSymbolTableRecord
100
AcDbLinetypeTableRecord
  2
STYLE_15
 70
               0
  3

 72
              65
 73
               2
 40
1.2020000000000004
 49
1.2000000000000002
 74
               0
 49
-0.0020000000000001
 74
               0
  0
LTYPE
  5
40
100
AcDbSymbolTableRecord
100
AcDbLinetypeTableRecord
  2
STYLE_16
 70
               0
  3

 72
              65
 73
               2
 40
0.3
 49
0.2
 74
               0
 49
-0.1
 74
               0
  0
LTYPE
  5
41
100
AcDbSymbolTableRecord
100
AcDbLinetypeTableRecord
  2
STYLE_17
 70
               0
  3

 72
              65
 73
               2
 40
3.0
 49
2.3999999999999999
 74
               0
 49
-0.6
 74
               0
  0
LTYPE
  5
42
100
AcDbSymbolTableRecord
100
AcDbLinetypeTableRecord
  2
STYLE_18
 70
               0
  3

 72
              65
 73
               4
 40
7.1999999999999993
 49
4.7999999999999998
 74
               0
 49
-0.6000000000000005
 74
               0
 49
1.2
 74
               0
 49
-0.5999999999999994
 74
               0
  0
LTYPE
  5
43
100
AcDbSymbolTableRecord
100
AcDbLinetypeTableRecord
  2
STYLE_19
 70
               0
  3

 72
              65
 73
               6
 40
9.0
 49
4.7999999999999998
 74
               0
 49
-0.6000000000000005
 74
               0
 49
1.2
 74
               0
 49
-0.5999999999999994
 74
               0
 49
1.2
 74
               0
 49
-0.5999999999999994
 74
               0
  0
LTYPE
  5
44
100
AcDbSymbolTableRecord
100
AcDbLinetypeTableRecord
  2
STYLE_20
 70
               0
  3

 72
              65
 73
               4
 40
3.5999999999999996
 49
2.3999999999999999
 74
               0
 49
-0.3000000000000003
 74
               0
 49
0.6
 74
               0
 49
-0.2999999999999997
 74
               0
  0
LTYPE
  5
45
100
AcDbSymbolTableRecord
100
AcDbLinetypeTableRecord
  2
STYLE_21
 70
               0
  3

 72
              65
 73
               2
 40
1.5
 49
1.2
 74
               0
 49
-0.3
 74
               0
  0
LTYPE
  5
46
100
AcDbSymbolTableRecord
100
AcDbLinetypeTableRecord
  2
STYLE_22
 70
               0
  3

 72
              65
 73
               2
 40
4.4000399999999997
 49
0.002
 74
               0
 49
-4.3980399999999999
 74
               0
  0
LTYPE
  5
47
100
AcDbSymbolTableRecord
100
AcDbLinetypeTableRecord
  2
STYLE_23
 70
               0
  3

 72
              65
 73
               2
 40
2.5
 49
1.8999999999999999
 74
               0
 49
-0.6
 74
               0
  0
LTYPE
  5
48
100
AcDbSymbolTableRecord
100
AcDbLinetypeTableRecord
  2
STYLE_24
 70
               0
  3

 72
              65
 73
               4
 40
5.5
 49
3.9000000000000008
 74
               0
 49
-0.6
 74
               0
 49
0.3999999999999998
 74
               0
 49
-0.6
 74
               0
  0
LTYPE
  5
49
100
AcDbSymbolTableRecord
100
AcDbLinetypeTableRecord
  2
STYLE_25
 70
               0
  3

 72
              65
 73
               2
 40
1.5748031496062991
 49
0.7874015748031495
 74
               0
 49
-0.7874015748031495
 74
               0
  0
ENDTAB
  0
TABLE
  2
LAYER
  5
2
100
AcDbSymbolTable
 70
               5
  0
LAYER
  5
14
100
AcDbSymbolTableRecord
100
AcDbLayerTableRecord
  2
0
 70
               0
 62
               7
  6
Continuous
290
               1
370
              -3
390
1D
  0
LAYER
  5
4A
100
AcDbSymbolTableRecord
100
AcDbLayerTableRecord
  2
Defpoints
 70
               0
 62
               7
  6
Continuous
290
               0
370
              -3
390
1D
  0
LAYER
  5
4B
100
AcDbSymbolTableRecord
100
AcDbLayerTableRecord
  2
template
 70
               0
 62
               7
  6
Continuous
290
               1
370
              -3
390
1D
  0
LAYER
  5
4C
100
AcDbSymbolTableRecord
100
AcDbLayerTableRecord
  2
notes
 70
               0
 62
               7
  6
Continuous
290
               1
370
              -3
390
1D
  0
LAYER
  5
4D
100
AcDbSymbolTableRecord
100
AcDbLayerTableRecord
  2
FAA70-0514
 70
               0
 62
               7
  6
Continuous
290
               1
370
              -3
390
1D
  0
ENDTAB
  0
TABLE
  2
STYLE
  5
3
100
AcDbSymbolTable
 70
               2
  0
STYLE
  5
17
100
AcDbSymbolTableRecord
100
AcDbTextStyleTableRecord
  2
Standard
 70
               0
 40
0.0
 41
1.0
 50
0.0
 71
               0
 42
0.0
  3
txt
  4
BIGFONT.SHX
  0
STYLE
  5
30
100
AcDbSymbolTableRecord
100
AcDbTextStyleTableRecord
  2
ＭＳ ゴシック
 70
               0
 40
0.0
 41
1.0
 50
0.0
 71
               0
 42
0.0
  3

  4
ＭＳ ゴシック
1001
ACAD
1000
ＭＳ ゴシック
1071
        0
  0
ENDTAB
  0
TABLE
  2
VIEW
  5
5
100
AcDbSymbolTable
 70
               0
  0
ENDTAB
  0
TABLE
  2
UCS
  5
6
100
AcDbSymbolTable
 70
               0
  0
ENDTAB
  0
TABLE
  2
APPID
  5
8
100
AcDbSymbolTable
 70
               1
  0
APPID
  5
16
100
AcDbSymbolTableRecord
100
AcDbRegAppTableRecord
  2
ACAD
 70
               0
  0
ENDTAB
  0
TABLE
  2
DIMSTYLE
  5
9
100
AcDbSymbolTable
 70
               3
100
AcDbDimStyleTable
 71
               0
  0
DIMSTYLE
105
18
100
AcDbSymbolTableRecord
100
AcDbDimStyleTableRecord
  2
Standard
 70
               0
  3

  4

 40
1.0
 41
0.18
 42
0.0625
 43
0.38
 44
0.18
 45
0.0
 46
0.0
 47
0.0
 48
0.0
 71
               0
 72
               0
 73
               1
 74
               1
 75
               0
 76
               0
 77
               0
 78
               0
 79
               0
140
0.18
141
0.09
142
0.0
143
25.399999999999999
144
1.0
145
0.0
146
1.0
147
0.09
148
0.0
170
               0
171
               2
172
               0
173
               0
174
               0
175
               0
176
               0
177
               0
178
               0
179
               0
271
               4
272
               4
273
               2
274
               2
275
               0
276
               0
277
               2
278
              46
279
               0
280
               0
281
               0
282
               0
283
               1
284
               0
285
               0
286
               0
288
               0
289
               3
340
17
341
0
342
0
343
0
344
0
371
              -2
372
              -2
  0
DIMSTYLE
105
56
100
AcDbSymbolTableRecord
100
AcDbDimStyleTableRecord
  2
tform線あり
 70
               0
  3
<>
  4
[]
 40
1.0
 41
3.999755859375
 42
24.999999999999996
 43
0.9999999999999999
 44
0.0
 45
0.0
 46
0.0
 47
0.0
 48
0.0
 71
               0
 72
               0
 73
               0
 74
               0
 75
               0
 76
               0
 77
               1
 78
              11
 79
               0
140
24.432617187500004
141
0.0
142
0.0
143
1.0
144
1.0
145
0.0
146
1.0
147
0.4999999999999999
148
0.0
170
               0
171
               1
172
               0
173
               0
174
               1
175
               0
176
               0
177
               0
178
               0
179
               2
271
               1
272
               1
273
               2
274
               2
275
               0
276
               2
277
               2
278
              46
279
               0
280
               0
281
               0
282
               0
283
               1
284
              11
285
              11
286
              11
288
               0
289
               0
340
30
341
4E
342
4E
343
0
344
0
371
              -2
372
              -2
  0
DIMSTYLE
105
5B
100
AcDbSymbolTableRecord
100
AcDbDimStyleTableRecord
  2
JIS
 70
               0
  3
<>
  4
[]
 40
1.0
 41
31.75
 42
0.0
 43
6.9999999999999396
 44
19.999999999996199
 45
0.0
 46
0.0
 47
0.0
 48
0.0
 71
               0
 72
               0
 73
               0
 74
               0
 75
               0
 76
               0
 77
               1
 78
              11
 79
               0
140
24.432617187500004
141
0.0
142
0.0
143
1.0
144
1.0
145
0.0
146
1.0
147
1.00000000000108
148
0.0
170
               0
171
               1
172
               0
173
               0
174
               1
175
               0
176
               0
177
               0
178
               0
179
               2
271
               1
272
               1
273
               2
274
               2
275
               0
276
               2
277
               2
278
              46
279
               0
280
               0
281
               0
282
               0
283
               1
284
              11
285
              11
286
              11
288
               0
289
               0
340
30
341
57
342
57
343
0
344
0
371
              -2
372
              -2
  0
ENDTAB
  0
TABLE
  2
BLOCK_RECORD
  5
1
100
AcDbSymbolTable
 70
              15
  0
BLOCK_RECORD
  5
A
100
AcDbSymbolTableRecord
100
AcDbBlockTableRecord
  2
*MODEL_SPACE
340
20
  0
BLOCK_RECORD
  5
B
100
AcDbSymbolTableRecord
100
AcDbBlockTableRecord
  2
*PAPER_SPACE
340
21
  0
BLOCK_RECORD
  5
4E
100
AcDbSymbolTableRecord
100
AcDbBlockTableRecord
  2
_DOT
340
0
  0
BLOCK_RECORD
  5
57
100
AcDbSymbolTableRecord
100
AcDbBlockTableRecord
  2
VW_FILLEDARROW
340
0
  0
BLOCK_RECORD
  5
23
100
AcDbSymbolTableRecord
100
AcDbBlockTableRecord
  2
グループ
340
0
102
{BLKREFS
331
10A
102
}
  0
BLOCK_RECORD
  5
24
100
AcDbSymbolTableRecord
100
AcDbBlockTableRecord
  2
*D3
340
0
  0
BLOCK_RECORD
  5
25
100
AcDbSymbolTableRecord
100
AcDbBlockTableRecord
  2
*D4
340
0
  0
BLOCK_RECORD
  5
26
100
AcDbSymbolTableRecord
100
AcDbBlockTableRecord
  2
*D5
340
0
  0
BLOCK_RECORD
  5
27
100
AcDbSymbolTableRecord
100
AcDbBlockTableRecord
  2
*D6
340
0
  0
BLOCK_RECORD
  5
28
100
AcDbSymbolTableRecord
100
AcDbBlockTableRecord
  2
*D7
340
0
  0
BLOCK_RECORD
  5
29
100
AcDbSymbolTableRecord
100
AcDbBlockTableRecord
  2
*D8
340
0
  0
BLOCK_RECORD
  5
2A
100
AcDbSymbolTableRecord
100
AcDbBlockTableRecord
  2
*D9
340
0
  0
BLOCK_RECORD
  5
2B
100
AcDbSymbolTableRecord
100
AcDbBlockTableRecord
  2
*D10
340
0
  0
BLOCK_RECORD
  5
2C
100
AcDbSymbolTableRecord
100
AcDbBlockTableRecord
  2
*D11
340
0
  0
BLOCK_RECORD
  5
2D
100
AcDbSymbolTableRecord
100
AcDbBlockTableRecord
  2
*D12
340
0
  0
BLOCK_RECORD
  5
2E
100
AcDbSymbolTableRecord
100
AcDbBlockTableRecord
  2
*D13
340
0
  0
BLOCK_RECORD
  5
2F
100
AcDbSymbolTableRecord
100
AcDbBlockTableRecord
  2
*D14
340
0
  0
ENDTAB
  0
ENDSEC
  0
SECTION
  2
BLOCKS
  0
BLOCK
  5
D
100
AcDbEntity
  8
0
390
0
100
AcDbBlockBegin
  2
*MODEL_SPACE
 70
               0
 10
0.0
 20
0.0
 30
0.0
  3
*MODEL_SPACE
  1

  0
ENDBLK
  5
E
100
AcDbEntity
  8
0
390
0
100
AcDbBlockEnd
  0
BLOCK
  5
F
100
AcDbEntity
 67
               1
  8
0
390
0
100
AcDbBlockBegin
  2
*PAPER_SPACE
 70
               0
 10
0.0
 20
0.0
 30
0.0
  3
*PAPER_SPACE
  1

  0
ENDBLK
  5
10
100
AcDbEntity
 67
               1
  8
0
390
0
100
AcDbBlockEnd
  0
BLOCK
  5
4F
100
AcDbEntity
  8
0
390
0
100
AcDbBlockBegin
  2
_DOT
 70
               0
 10
0.0
 20
0.0
 30
0.0
  3
_DOT
  1

  0
POLYLINE
  5
50
100
AcDbEntity
  8
0
370
              -2
390
0
  6
ByBlock
 62
               0
100
AcDb2dPolyline
 66
               1
 10
0.0
 20
0.0
 30
0.0
 70
               1
 40
0.5
 41
0.5
  0
VERTEX
  5
51
100
AcDbEntity
  8
0
370
              -2
390
0
  6
ByBlock
 62
               0
100
AcDbVertex
100
AcDb2dVertex
 10
-0.25
 20
0.0
 30
0.0
 42
1.0
  0
VERTEX
  5
52
100
AcDbEntity
  8
0
370
              -2
390
0
  6
ByBlock
 62
               0
100
AcDbVertex
100
AcDb2dVertex
 10
0.25
 20
0.0
 30
0.0
 42
1.0
  0
SEQEND
  5
53
100
AcDbEntity
  8
0
390
0
  0
LINE
  5
54
100
AcDbEntity
  8
0
370
              -2
390
0
  6
ByBlock
 62
               0
100
AcDbLine
 10
-0.5
 20
0.0
 30
0.0
 11
-1.0
 21
0.0
 31
0.0
  0
ENDBLK
  5
55
100
AcDbEntity
  8
0
390
0
100
AcDbBlockEnd
  0
BLOCK
  5
58
100
AcDbEntity
  8
0
370
              -2
390
0
  6
ByBlock
 62
               0
100
AcDbBlockBegin
  2
VW_FILLEDARROW
 70
               0
 10
0.0
 20
0.0
 30
0.0
  3
VW_FILLEDARROW
  1

  0
SOLID
  5
59
100
AcDbEntity
  8
0
370
              -2
390
0
 62
               0
100
AcDbTrace
 10
0.0
 20
0.0
 30
0.0
 11
-0.9921874999999999
 21
-0.2658558393652545
 31
0.0
 12
-0.9921874999999999
 22
0.2658558393652548
 32
0.0
 13
-0.9921874999999999
 23
0.2658558393652548
 33
0.0
  0
ENDBLK
  5
5A
100
AcDbEntity
  8
0
390
0
100
AcDbBlockEnd
  0
BLOCK
  5
5C
100
AcDbEntity
  8
template
390
0
100
AcDbBlockBegin
  2
グループ
 70
               0
 10
0.0
 20
0.0
 30
0.0
  3
グループ
  1

  0
LWPOLYLINE
  5
5D
100
AcDbEntity
  8
0
370
              15
390
0
  6
Continuous
 62
               7
100
AcDbPolyline
 90
        8
 70
             129
 10
887.43126387946359
 20
-1403.159486501929
 10
887.43126387946359
 20
-1409.1568751955049
 10
877.93006696146028
 20
-1409.1568751955049
 10
877.93006696146028
 20
-1433.6078384590137
 10
869.57468969967749
 20
-1433.6078384590137
 10
869.57468969967749
 20
-1409.1568751955049
 10
860.24173275336807
 20
-1409.1568751955049
 10
860.24173275336807
 20
-1403.159486501929
  0
LWPOLYLINE
  5
5E
100
AcDbEntity
  8
0
370
              15
390
0
  6
Continuous
 62
               7
100
AcDbPolyline
 90
      101
 70
             128
 10
900.15955571002053
 20
-1403.8877349948655
 10
900.17490573880741
 20
-1403.8833742381798
 42
-0.022222160781208
 10
900.46491031547657
 20
-1403.8147497729358
 10
900.48070407946602
 20
-1403.8117463498395
 42
-0.0146883565587558
 10
900.74340678469434
 20
-1403.7697431628894
 42
-0.0127458844181555
 10
901.00804575185396
 20
-1403.7422061948164
 10
901.0705008301602
 20
-1403.7373127722287
 42
-0.0198099018570865
 10
901.4613499396296
 20
-1403.7222276148323
 10
901.51316140908079
 20
-1403.7222813904973
 42
-0.0147617382764667
 10
902.00778487005016
 20
-1403.7374014157417
 10
902.08047632492969
 20
-1403.7417740226297
 42
-0.0162624549002226
 10
902.47062995439455
 20
-1403.7780068979021
 10
902.59216234565667
 20
-1403.7932934568989
 42
-0.0080020874663717
 10
902.73774137674536
 20
-1403.813976304167
 10
902.77606084731826
 20
-1403.8200475819744
 42
-0.0053821929681863
 10
902.84454495265516
 20
-1403.8316551057997
 10
902.11813925345655
 20
-1406.0125835615136
 42
0.0108667757404507
 10
902.05082218332348
 20
-1405.9993964462933
 10
902.01335416013626
 20
-1405.9928987036992
 42
0.0170663203306148
 10
901.87013737321934
 20
-1405.9730691064071
 10
901.8022620405377
 20
-1405.96602193582
 42
0.0220162375272811
 10
901.52188263268488
 20
-1405.9493395750499
 10
901.44402706562914
 20
-1405.9481402077834
 42
0.02826069157854
 10
901.10839074205239
 20
-1405.9619434847523
 10
901.06447746828155
 20
-1405.9662434747559
 42
0.0169677213687656
 10
900.81855297332118
 20
-1405.9987805243081
 42
0.0190576269871197
 10
900.57564501074125
 20
-1406.0489273964145
 10
900.56938582263024
 20
-1406.0504703705237
 42
0.021368564284257
 10
900.31900133815361
 20
-1406.1236706556281
 10
900.31351144323628
 20
-1406.1255336516874
 42
0.0237595297591679
 10
900.06001655833654
 20
-1406.2252181735835
 10
900.05491448430791
 20
-1406.2275099490612
 42
0.0261857468810896
 10
899.80274370807786
 20
-1406.3570462864357
 10
899.79231751899204
 20
-1406.3631117609034
 42
0.0272553062015008
 10
899.55588774375246
 20
-1406.5184839668486
 10
899.52112473024306
 20
-1406.5441451149406
 42
0.0325996893170864
 10
899.37096938659147
 20
-1406.6708929879121
 10
899.34725995747112
 20
-1406.6937110164222
 42
0.0138050960632052
 10
899.25537680125831
 20
-1406.7871606779768
 42
0.012528010380987
 10
899.16853426842226
 20
-1406.8853240045796
 10
899.14485382351643
 20
-1406.9134825027641
 42
0.0205218024729776
 10
899.01975374800531
 20
-1407.0752758169895
 10
898.99728740751561
 20
-1407.1069355468201
 42
0.0163110129583838
 10
898.8415770282619
 20
-1407.3422659818939
 10
898.83885313221333
 20
-1407.3466897438755
 42
0.0131897341897388
 10
898.69205261130833
 20
-1407.5998218362381
 10
898.69035251594096
 20
-1407.6029400753755
 42
0.0107895576060302
 10
898.55257581373303
 20
-1407.869155285005
 10
898.55184292420518
 20
-1407.8706495176573
 42
0.0091371507216231
 10
898.42336297555755
 20
-1408.1451747154126
 10
898.39361734414638
 20
-1408.2118812225758
 42
0.013541832635137
 10
898.22190340507541
 20
-1408.6268190078429
 10
898.18829859663845
 20
-1408.7146851501311
 42
0.0092834542417085
 10
898.01706953671965
 20
-1409.1885836484312
 10
897.99145240900327
 20
-1409.2638247182206
 42
0.005426104357933
 10
897.88381426070896
 20
-1409.5915886912894
 10
897.86628827455661
 20
-1409.6469768534403
 42
0.0008225090809759
 10
897.79761822270154
 20
-1409.8652456116688
 10
896.81292909076808
 20
-1412.8901369049254
 10
900.04555293084195
 20
-1412.8901369049254
 10
899.5413605009885
 20
-1414.7946152032778
 10
896.28530421900518
 20
-1414.7946152032778
 10
890.45615518665136
 20
-1433.6078382692826
 10
888.63105757634105
 20
-1433.6078382692826
 10
894.46573561184198
 20
-1414.7946152032778
 10
892.06061924280164
 20
-1414.7946152032778
 10
892.56481167265508
 20
-1412.8901369049254
 10
894.9933604836051
 20
-1412.8901369049254
 10
895.85351540179374
 20
-1410.2537239042265
 42
-0.0005863560648487
 10
895.89025007997452
 20
-1410.1368974840068
 10
895.96633791365764
 20
-1409.8959051845493
 42
-0.0087522378927319
 10
896.16580605711329
 20
-1409.3006290974063
 10
896.25807033252693
 20
-1409.0404889288925
 42
-0.0077400953829388
 10
896.51600399165909
 20
-1408.3474842513415
 10
896.53176896323782
 20
-1408.3070533679559
 42
-0.0082369946329186
 10
896.77885343384992
 20
-1407.7029743017597
 42
-0.0085725238360797
 10
897.04609952985527
 20
-1407.1075482624674
 10
897.14772913085903
 20
-1406.89112716049
 42
-0.0168109410596338
 10
897.43467355959024
 20
-1406.3299196343833
 10
897.5605169500252
 20
-1406.1029556014289
 42
-0.000781772685776
 10
897.61480130010591
 20
-1406.0054113563547
 10
897.61492960611974
 20
-1406.0051816476246
 42
-0.003662614215629
 10
897.66981747014438
 20
-1405.9085837676498
 42
-0.0080221150682231
 10
897.72694172555225
 20
-1405.8133045328955
 10
897.75764167691227
 20
-1405.7639135837749
 42
-0.0202139325570897
 10
897.88529741672028
 20
-1405.5759319830916
 10
897.93936488190661
 20
-1405.5028531188525
 42
-0.0249323791796449
 10
898.19852767562577
 20
-1405.1868078766979
 10
898.22266748975278
 20
-1405.1601936037855
 42
-0.0242132121539464
 10
898.56234823129296
 20
-1404.8203101175832
 10
898.61025980404816
 20
-1404.7768009813929
 42
-0.0251017527855331
 10
898.89424150468608
 20
-1404.5438082356309
 10
898.89568698150049
 20
-1404.5427389780514
 42
-0.0130868069038077
 10
899.19394763145715
 20
-1404.3339585095093
 10
899.19550945060098
 20
-1404.3329250692336
 42
-0.0290329526389314
 10
899.50662059199317
 20
-1404.1520995676051
 10
899.53646615398179
 20
-1404.1369971847641
 42
-0.0160250190045027
 10
899.80237056774399
 20
-1404.012981074552
 42
-0.0267600374780385
 10
900.07764664521221
 20
-1403.9122327540038
 10
900.10438256473356
 20
-1403.9040401951779
 42
-0.004998158766997
 10
900.15955571002053
 20
-1403.8877349948655
 42
-0.004998158766997
  0
LWPOLYLINE
  5
5F
100
AcDbEntity
  8
0
370
              15
390
0
  6
Continuous
 62
               7
100
AcDbPolyline
 90
      118
 70
             128
 10
919.97392327446744
 20
-1412.9641202327527
 10
921.84904519896691
 20
-1412.9641202327527
 10
921.01100629336702
 20
-1415.6456867591528
 42
-0.0010587229221778
 10
921.04246210893257
 20
-1415.6087822258048
 10
921.10065619957095
 20
-1415.5407999696217
 42
-0.0071874740395887
 10
921.25103141768523
 20
-1415.3701592775744
 10
921.39275419093121
 20
-1415.2139231362794
 42
-0.0148118053511932
 10
921.84288348363862
 20
-1414.7463092902715
 10
921.93010581853457
 20
-1414.6609119694238
 42
-0.0086273358694037
 10
922.2656546195542
 20
-1414.3435363353965
 10
922.30948833578771
 20
-1414.3034866910564
 42
-0.0103138323106276
 10
922.56751203801355
 20
-1414.0773235537251
 10
922.61328644432501
 20
-1414.0388415064781
 42
-0.0060206748568988
 10
922.78613450845285
 20
-1413.8970468557104
 10
922.78816563932992
 20
-1413.8954211500863
 42
-0.0067069027292341
 10
922.96045845400135
 20
-1413.7612705162842
 10
922.96300721992839
 20
-1413.759340346408
 42
-0.0076184352041617
 10
923.13391248579865
 20
-1413.6339654711651
 42
-0.0089652861670054
 10
923.30887344853602
 20
-1413.5143322108308
 10
923.34522516868196
 20
-1413.4904209973472
 42
-0.0156916245934451
 10
923.54118466583827
 20
-1413.3701585108752
 42
-0.0023299011063141
 10
923.74144670981184
 20
-1413.2569805713379
 10
923.75683084219793
 20
-1413.2483805762697
 42
-0.0107669341484949
 10
923.99106766730063
 20
-1413.1239804429194
 10
924.01333246837407
 20
-1413.1127636929702
 42
-0.0078058045896584
 10
924.29692258632485
 20
-1412.9754022373327
 10
924.30682967403595
 20
-1412.9707931094633
 42
-0.0181829330469737
 10
924.61713907865226
 20
-1412.8399293683674
 10
924.67119452122142
 20
-1412.8194142484231
 42
-0.020841153602666
 10
925.02027948866862
 20
-1412.7033237859309
 10
925.03463558879832
 20
-1412.699205340977
 42
-0.022279981713542
 10
925.36335538271328
 20
-1412.6205637748371
 10
925.372244345951
 20
-1412.618851764252
 42
-0.021550952388361
 10
925.68871531423019
 20
-1412.571936075718
 10
925.73119727527728
 20
-1412.5674985489272
 42
-0.0182545924873815
 10
925.96530605458429
 20
-1412.5516547235361
 10
926.00470707093041
 20
-1412.550430178457
 42
-0.0072962856534248
 10
926.16062995062134
 20
-1412.5478608499348
 10
926.18972962119619
 20
-1412.547806014531
 42
-0.0059227516308001
 10
926.28747912033828
 20
-1412.5487797263213
 10
926.31672133777727
 20
-1412.549417492924
 42
-0.0011833111922613
 10
926.35597262154261
 20
-1412.5503664972348
 10
925.56058602593544
 20
-1415.0891004423338
 42
0.0143932051500212
 10
925.5341846435864
 20
-1415.0789014722889
 10
925.52691267116757
 20
-1415.076330253431
 42
0.0234388603507002
 10
925.48508180523436
 20
-1415.0637110177156
 10
925.47640014232275
 20
-1415.0615300557108
 42
0.0199162742980019
 10
925.41611130824276
 20
-1415.0489133203757
 10
925.39529737043654
 20
-1415.0454161209473
 42
0.0293643550666866
 10
925.29222251167675
 20
-1415.034266075294
 10
925.26753733095711
 20
-1415.0330544582755
 42
0.0214606686869962
 10
925.11439641500601
 20
-1415.0321158978581
 10
925.10502450418664
 20
-1415.0324608094024
 42
0.0167564054190286
 10
924.93350431307397
 20
-1415.0445378517709
 10
924.92504452031926
 20
-1415.0454191921976
 42
0.0137677553247363
 10
924.73769120705174
 20
-1415.0701685007414
 10
924.73033946754663
 20
-1415.071346420709
 42
0.0118497261483478
 10
924.52984170344428
 20
-1415.1083637708982
 10
924.52369169619806
 20
-1415.1096506336182
 42
0.010642114389294
 10
924.3128108089054
 20
-1415.1584830091949
 10
924.307902000524
 20
-1415.1597303518781
 42
0.0099746379704261
 10
924.08944353136246
 20
-1415.2199048801926
 10
924.0278954911912
 20
-1415.2381867588235
 42
0.0191613675859036
 10
923.69191102867796
 20
-1415.3521641391096
 10
923.60385125592904
 20
-1415.3858510494351
 42
0.0205274080145581
 10
923.21854448402951
 20
-1415.5516794572611
 10
923.16089520204616
 20
-1415.5793474218342
 42
0.01812569121968
 10
922.90261826138055
 20
-1415.7150312408112
 10
922.84966287806583
 20
-1415.7453488540264
 42
0.0140709242407981
 10
922.70470794343828
 20
-1415.8338435274604
 10
922.67845907481944
 20
-1415.8509003461761
 42
0.0086667884405045
 10
922.58953291327725
 20
-1415.9109030140587
 42
0.0036408192022542
 10
922.50209967525598
 20
-1415.9730838718424
 10
922.46687280077526
 20
-1415.9985248177638
 42
0.0052260781280727
 10
922.31064410338115
 20
-1416.1138572044003
 10
922.29443724712451
 20
-1416.1260853150161
 42
0.0050024435896499
 10
922.108433904055
 20
-1416.2693678832868
 10
922.09311574755054
 20
-1416.2814139057241
 42
0.0136138710276735
 10
921.88267447922306
 20
-1416.4563804106394
 10
921.84900660343169
 20
-1416.4859593833517
 42
0.0172815186915835
 10
921.58460306176448
 20
-1416.7349560559799
 10
921.5820407159265
 20
-1416.7375418731222
 42
0.0189403857993858
 10
921.33145891734364
 20
-1417.0103471379311
 10
921.29882742381415
 20
-1417.0486910694206
 42
0.0185044199504172
 10
921.1068709848314
 20
-1417.2919396505467
 42
0.0088565243898089
 10
920.92841087820966
 20
-1417.5454560706869
 10
920.91923289855447
 20
-1417.5589974504567
 42
0.0157195347230286
 10
920.73601229221799
 20
-1417.8485196597765
 10
920.68992935028882
 20
-1417.9266718567944
 42
0.0095451879782848
 10
920.52484380015187
 20
-1418.2192664991499
 10
920.51369588122407
 20
-1418.2399371712784
 42
0.010035170625588
 10
920.38165213206298
 20
-1418.4969927317725
 42
0.0086935915428127
 10
920.2593209802684
 20
-1418.758825877178
 10
920.25600023885443
 20
-1418.7662682001487
 42
0.007258017486862
 10
920.13565378690851
 20
-1419.0468601917341
 10
920.13239215360318
 20
-1419.0547802177498
 42
0.0060005122615674
 10
920.01319148525749
 20
-1419.3543898883624
 10
920.00998050691885
 20
-1419.3627514162595
 42
0.0049017786977695
 10
919.89108034806327
 20
-1419.6816803968588
 10
919.88791454167097
 20
-1419.6904333340945
 42
0.0039415167601332
 10
919.76847826361461
 20
-1420.0289753965067
 10
919.76534716096216
 20
-1420.0380785973837
 42
0.0031035838759755
 10
919.64454237527343
 20
-1420.3965184591436
 10
919.64143233073867
 20
-1420.4059390805319
 42
0.0025070747153372
 10
919.51853097941796
 20
-1420.7845862974925
 10
919.48123708299795
 20
-1420.9014779627289
 42
0.0029081910285933
 10
919.28921878517997
 20
-1421.5156416210434
 10
919.24841561667006
 20
-1421.6488648632965
 42
0.0009266453733988
 10
918.97999824238138
 20
-1422.5310893231338
 10
918.95911076970708
 20
-1422.600201202481
 42
-0.0005809993665113
 10
918.68177408912356
 20
-1423.5140093090949
 10
918.61549229086279
 20
-1423.7314942412147
 42
-0.0012018708165607
 10
918.46850798142145
 20
-1424.2096569057753
 10
918.41618812993477
 20
-1424.3784160463867
 42
-0.0002691059616965
 10
918.37261864868731
 20
-1424.518683666983
 10
915.53966275039807
 20
-1433.6078382692826
 10
913.72167385841954
 20
-1433.6078382692826
 10
919.97392327446744
 20
-1412.9641202327527
  0
SPLINE
  5
60
100
AcDbEntity
  8
0
370
              15
390
0
  6
Continuous
 62
               7
100
AcDbSpline
210
0.0
220
0.0
230
1.0
 70
              13
 71
               2
 72
             782
 73
             779
 74
               0
 42
0.000001
 43
0.000001
 40
0.0
 40
0.0
 40
0.0
 40
1.0
 40
1.0
 40
2.0
 40
2.0
 40
3.0
 40
3.0
 40
4.0
 40
4.0
 40
5.0
 40
5.0
 40
6.0
 40
6.0
 40
7.0
 40
7.0
 40
8.0
 40
8.0
 40
9.0
 40
9.0
 40
10.0
 40
10.0
 40
11.0
 40
11.0
 40
12.0
 40
12.0
 40
13.0
 40
13.0
 40
14.0
 40
14.0
 40
15.0
 40
15.0
 40
16.0
 40
16.0
 40
17.0
 40
17.0
 40
18.0
 40
18.0
 40
19.0
 40
19.0
 40
20.0
 40
20.0
 40
21.0
 40
21.0
 40
22.0
 40
22.0
 40
23.0
 40
23.0
 40
24.0
 40
24.0
 40
25.0
 40
25.0
 40
26.0
 40
26.0
 40
27.0
 40
27.0
 40
28.0
 40
28.0
 40
29.0
 40
29.0
 40
30.0
 40
30.0
 40
31.0
 40
31.0
 40
32.0
 40
32.0
 40
33.0
 40
33.0
 40
34.0
 40
34.0
 40
35.0
 40
35.0
 40
36.0
 40
36.0
 40
37.0
 40
37.0
 40
38.0
 40
38.0
 40
39.0
 40
39.0
 40
40.0
 40
40.0
 40
41.0
 40
41.0
 40
42.0
 40
42.0
 40
43.0
 40
43.0
 40
44.0
 40
44.0
 40
45.0
 40
45.0
 40
46.0
 40
46.0
 40
47.0
 40
47.0
 40
48.0
 40
48.0
 40
49.0
 40
49.0
 40
50.0
 40
50.0
 40
51.0
 40
51.0
 40
52.0
 40
52.0
 40
53.0
 40
53.0
 40
54.0
 40
54.0
 40
55.0
 40
55.0
 40
56.0
 40
56.0
 40
57.0
 40
57.0
 40
58.0
 40
58.0
 40
59.0
 40
59.0
 40
60.0
 40
60.0
 40
61.0
 40
61.0
 40
62.0
 40
62.0
 40
63.0
 40
63.0
 40
64.0
 40
64.0
 40
65.0
 40
65.0
 40
66.0
 40
66.0
 40
67.0
 40
67.0
 40
68.0
 40
68.0
 40
69.0
 40
69.0
 40
70.0
 40
70.0
 40
71.0
 40
71.0
 40
72.0
 40
72.0
 40
73.0
 40
73.0
 40
74.0
 40
74.0
 40
75.0
 40
75.0
 40
76.0
 40
76.0
 40
77.0
 40
77.0
 40
78.0
 40
78.0
 40
79.0
 40
79.0
 40
80.0
 40
80.0
 40
81.0
 40
81.0
 40
82.0
 40
82.0
 40
83.0
 40
83.0
 40
84.0
 40
84.0
 40
85.0
 40
85.0
 40
86.0
 40
86.0
 40
87.0
 40
87.0
 40
88.0
 40
88.0
 40
89.0
 40
89.0
 40
90.0
 40
90.0
 40
91.0
 40
91.0
 40
92.0
 40
92.0
 40
93.0
 40
93.0
 40
94.0
 40
94.0
 40
95.0
 40
95.0
 40
96.0
 40
96.0
 40
97.0
 40
97.0
 40
98.0
 40
98.0
 40
99.0
 40
99.0
 40
100.0
 40
100.0
 40
101.0
 40
101.0
 40
102.0
 40
102.0
 40
103.0
 40
103.0
 40
104.0
 40
104.0
 40
105.0
 40
105.0
 40
106.0
 40
106.0
 40
107.0
 40
107.0
 40
108.0
 40
108.0
 40
109.0
 40
109.0
 40
110.0
 40
110.0
 40
111.0
 40
111.0
 40
112.0
 40
112.0
 40
113.0
 40
113.0
 40
114.0
 40
114.0
 40
115.0
 40
115.0
 40
116.0
 40
116.0
 40
117.0
 40
117.0
 40
118.0
 40
118.0
 40
119.0
 40
119.0
 40
120.0
 40
120.0
 40
121.0
 40
121.0
 40
122.0
 40
122.0
 40
123.0
 40
123.0
 40
124.0
 40
124.0
 40
125.0
 40
125.0
 40
126.0
 40
126.0
 40
127.0
 40
127.0
 40
128.0
 40
128.0
 40
129.0
 40
129.0
 40
130.0
 40
130.0
 40
131.0
 40
131.0
 40
132.0
 40
132.0
 40
133.0
 40
133.0
 40
134.0
 40
134.0
 40
135.0
 40
135.0
 40
136.0
 40
136.0
 40
137.0
 40
137.0
 40
138.0
 40
138.0
 40
139.0
 40
139.0
 40
140.0
 40
140.0
 40
141.0
 40
141.0
 40
142.0
 40
142.0
 40
143.0
 40
143.0
 40
144.0
 40
144.0
 40
145.0
 40
145.0
 40
146.0
 40
146.0
 40
147.0
 40
147.0
 40
148.0
 40
148.0
 40
149.0
 40
149.0
 40
150.0
 40
150.0
 40
151.0
 40
151.0
 40
152.0
 40
152.0
 40
153.0
 40
153.0
 40
154.0
 40
154.0
 40
155.0
 40
155.0
 40
156.0
 40
156.0
 40
157.0
 40
157.0
 40
158.0
 40
158.0
 40
159.0
 40
159.0
 40
160.0
 40
160.0
 40
161.0
 40
161.0
 40
162.0
 40
162.0
 40
163.0
 40
163.0
 40
164.0
 40
164.0
 40
165.0
 40
165.0
 40
166.0
 40
166.0
 40
167.0
 40
167.0
 40
168.0
 40
168.0
 40
169.0
 40
169.0
 40
170.0
 40
170.0
 40
171.0
 40
171.0
 40
172.0
 40
172.0
 40
173.0
 40
173.0
 40
174.0
 40
174.0
 40
175.0
 40
175.0
 40
176.0
 40
176.0
 40
177.0
 40
177.0
 40
178.0
 40
178.0
 40
179.0
 40
179.0
 40
180.0
 40
180.0
 40
181.0
 40
181.0
 40
182.0
 40
182.0
 40
183.0
 40
183.0
 40
184.0
 40
184.0
 40
185.0
 40
185.0
 40
186.0
 40
186.0
 40
187.0
 40
187.0
 40
188.0
 40
188.0
 40
189.0
 40
189.0
 40
190.0
 40
190.0
 40
191.0
 40
191.0
 40
192.0
 40
192.0
 40
193.0
 40
193.0
 40
194.0
 40
194.0
 40
195.0
 40
195.0
 40
196.0
 40
196.0
 40
197.0
 40
197.0
 40
198.0
 40
198.0
 40
199.0
 40
199.0
 40
200.0
 40
200.0
 40
201.0
 40
201.0
 40
202.0
 40
202.0
 40
203.0
 40
203.0
 40
204.0
 40
204.0
 40
205.0
 40
205.0
 40
206.0
 40
206.0
 40
207.0
 40
207.0
 40
208.0
 40
208.0
 40
209.0
 40
209.0
 40
210.0
 40
210.0
 40
211.0
 40
211.0
 40
212.0
 40
212.0
 40
213.0
 40
213.0
 40
214.0
 40
214.0
 40
215.0
 40
215.0
 40
216.0
 40
216.0
 40
217.0
 40
217.0
 40
218.0
 40
218.0
 40
219.0
 40
219.0
 40
220.0
 40
220.0
 40
221.0
 40
221.0
 40
222.0
 40
222.0
 40
223.0
 40
223.0
 40
224.0
 40
224.0
 40
225.0
 40
225.0
 40
226.0
 40
226.0
 40
227.0
 40
227.0
 40
228.0
 40
228.0
 40
229.0
 40
229.0
 40
230.0
 40
230.0
 40
231.0
 40
231.0
 40
232.0
 40
232.0
 40
233.0
 40
233.0
 40
234.0
 40
234.0
 40
235.0
 40
235.0
 40
236.0
 40
236.0
 40
237.0
 40
237.0
 40
238.0
 40
238.0
 40
239.0
 40
239.0
 40
240.0
 40
240.0
 40
241.0
 40
241.0
 40
242.0
 40
242.0
 40
243.0
 40
243.0
 40
244.0
 40
244.0
 40
245.0
 40
245.0
 40
246.0
 40
246.0
 40
247.0
 40
247.0
 40
248.0
 40
248.0
 40
249.0
 40
249.0
 40
250.0
 40
250.0
 40
251.0
 40
251.0
 40
252.0
 40
252.0
 40
253.0
 40
253.0
 40
254.0
 40
254.0
 40
255.0
 40
255.0
 40
256.0
 40
256.0
 40
257.0
 40
257.0
 40
258.0
 40
258.0
 40
259.0
 40
259.0
 40
260.0
 40
260.0
 40
261.0
 40
261.0
 40
262.0
 40
262.0
 40
263.0
 40
263.0
 40
264.0
 40
264.0
 40
265.0
 40
265.0
 40
266.0
 40
266.0
 40
267.0
 40
267.0
 40
268.0
 40
268.0
 40
269.0
 40
269.0
 40
270.0
 40
270.0
 40
271.0
 40
271.0
 40
272.0
 40
272.0
 40
273.0
 40
273.0
 40
274.0
 40
274.0
 40
275.0
 40
275.0
 40
276.0
 40
276.0
 40
277.0
 40
277.0
 40
278.0
 40
278.0
 40
279.0
 40
279.0
 40
280.0
 40
280.0
 40
281.0
 40
281.0
 40
282.0
 40
282.0
 40
283.0
 40
283.0
 40
284.0
 40
284.0
 40
285.0
 40
285.0
 40
286.0
 40
286.0
 40
287.0
 40
287.0
 40
288.0
 40
288.0
 40
289.0
 40
289.0
 40
290.0
 40
290.0
 40
291.0
 40
291.0
 40
292.0
 40
292.0
 40
293.0
 40
293.0
 40
294.0
 40
294.0
 40
295.0
 40
295.0
 40
296.0
 40
296.0
 40
297.0
 40
297.0
 40
298.0
 40
298.0
 40
299.0
 40
299.0
 40
300.0
 40
300.0
 40
301.0
 40
301.0
 40
302.0
 40
302.0
 40
303.0
 40
303.0
 40
304.0
 40
304.0
 40
305.0
 40
305.0
 40
306.0
 40
306.0
 40
307.0
 40
307.0
 40
308.0
 40
308.0
 40
309.0
 40
309.0
 40
310.0
 40
310.0
 40
311.0
 40
311.0
 40
312.0
 40
312.0
 40
313.0
 40
313.0
 40
314.0
 40
314.0
 40
315.0
 40
315.0
 40
316.0
 40
316.0
 40
317.0
 40
317.0
 40
318.0
 40
318.0
 40
319.0
 40
319.0
 40
320.0
 40
320.0
 40
321.0
 40
321.0
 40
322.0
 40
322.0
 40
323.0
 40
323.0
 40
324.0
 40
324.0
 40
325.0
 40
325.0
 40
326.0
 40
326.0
 40
327.0
 40
327.0
 40
328.0
 40
328.0
 40
329.0
 40
329.0
 40
330.0
 40
330.0
 40
331.0
 40
331.0
 40
332.0
 40
332.0
 40
333.0
 40
333.0
 40
334.0
 40
334.0
 40
335.0
 40
335.0
 40
336.0
 40
336.0
 40
337.0
 40
337.0
 40
338.0
 40
338.0
 40
339.0
 40
339.0
 40
340.0
 40
340.0
 40
341.0
 40
341.0
 40
342.0
 40
342.0
 40
343.0
 40
343.0
 40
344.0
 40
344.0
 40
345.0
 40
345.0
 40
346.0
 40
346.0
 40
347.0
 40
347.0
 40
348.0
 40
348.0
 40
349.0
 40
349.0
 40
350.0
 40
350.0
 40
351.0
 40
351.0
 40
352.0
 40
352.0
 40
353.0
 40
353.0
 40
354.0
 40
354.0
 40
355.0
 40
355.0
 40
356.0
 40
356.0
 40
357.0
 40
357.0
 40
358.0
 40
358.0
 40
359.0
 40
359.0
 40
360.0
 40
360.0
 40
361.0
 40
361.0
 40
362.0
 40
362.0
 40
363.0
 40
363.0
 40
364.0
 40
364.0
 40
365.0
 40
365.0
 40
366.0
 40
366.0
 40
367.0
 40
367.0
 40
368.0
 40
368.0
 40
369.0
 40
369.0
 40
370.0
 40
370.0
 40
371.0
 40
371.0
 40
372.0
 40
372.0
 40
373.0
 40
373.0
 40
374.0
 40
374.0
 40
375.0
 40
375.0
 40
376.0
 40
376.0
 40
377.0
 40
377.0
 40
378.0
 40
378.0
 40
379.0
 40
379.0
 40
380.0
 40
380.0
 40
381.0
 40
381.0
 40
382.0
 40
382.0
 40
383.0
 40
383.0
 40
384.0
 40
384.0
 40
385.0
 40
385.0
 40
386.0
 40
386.0
 40
387.0
 40
387.0
 40
388.0
 40
388.0
 40
389.0
 40
389.0
 40
389.0
 10
930.30262772520007
 20
-1412.9531938693904
 30
0.0
 41
1.0
 10
931.12105183392055
 20
-1412.9531938693904
 30
0.0
 41
1.0
 10
931.93947594264102
 20
-1412.9531938693904
 30
0.0
 41
1.0
 10
931.52572220712432
 20
-1414.2958201336401
 30
0.0
 41
1.0
 10
931.1119684716075
 20
-1415.6384463978898
 30
0.0
 41
1.0
 10
931.1303079667714
 20
-1415.6097456249845
 30
0.0
 41
0.9999957264440834
 10
931.14881496361647
 20
-1415.5811525748118
 30
0.0
 41
1.0
 10
931.17924428774859
 20
-1415.5341396964438
 30
0.0
 41
1.0
 10
931.20967361188082
 20
-1415.4871268180759
 30
0.0
 41
1.0
 10
931.28903925698785
 20
-1415.364508011171
 30
0.0
 41
0.9995394069080864
 10
931.37569764854129
 20
-1415.2469299494273
 30
0.0
 41
1.0
 10
931.41145451079979
 20
-1415.1984150568355
 30
0.0
 41
1.0
 10
931.44721137305817
 20
-1415.1499001642439
 30
0.0
 41
1.0
 10
931.58093804087537
 20
-1414.9684598891183
 30
0.0
 41
0.9994460617143511
 10
931.72643852216447
 20
-1414.7963174914676
 30
0.0
 41
1.0
 10
931.73082670314238
 20
-1414.7911258110817
 30
0.0
 41
1.0
 10
931.73521488412018
 20
-1414.7859341306958
 30
0.0
 41
1.0
 10
931.8719390034546
 20
-1414.6241750938157
 30
0.0
 41
0.9994359394934593
 10
932.01921323380384
 20
-1414.4719588926532
 30
0.0
 41
1.0
 10
932.02159658775872
 20
-1414.4694955622786
 30
0.0
 41
1.0
 10
932.02397994171349
 20
-1414.4670322319039
 30
0.0
 41
1.0
 10
932.16648746415729
 20
-1414.3197426914867
 30
0.0
 41
0.9995293688568024
 10
932.31775914513742
 20
-1414.1814694793243
 30
0.0
 41
1.0
 10
932.33705290440344
 20
-1414.1638335936707
 30
0.0
 41
1.0
 10
932.35634666366946
 20
-1414.1461977080171
 30
0.0
 41
1.0
 10
932.46903082612323
 20
-1414.0431962671573
 30
0.0
 41
0.9997087614804502
 10
932.58655371507461
 20
-1413.9457519863624
 30
0.0
 41
1.0
 10
932.60571978824464
 20
-1413.929860407859
 30
0.0
 41
1.0
 10
932.62488586141478
 20
-1413.9139688293556
 30
0.0
 41
1.0
 10
932.70407660402122
 20
-1413.8483077055712
 30
0.0
 41
0.9999595338693549
 10
932.78443587488482
 20
-1413.7840819749094
 30
0.0
 41
1.0
 10
932.86479514573307
 20
-1413.71985624426
 30
0.0
 41
0.9999749417505901
 10
932.94605568007114
 20
-1413.6567746903177
 30
0.0
 41
1.0
 10
932.96704182625922
 20
-1413.6404834029963
 30
0.0
 41
1.0
 10
932.9880279724473
 20
-1413.6241921156748
 30
0.0
 41
1.0
 10
933.07259585773068
 20
-1413.5585431058485
 30
0.0
 41
0.9999792037115748
 10
933.15800345748585
 20
-1413.4939903242157
 30
0.0
 41
1.0
 10
933.17882828348593
 20
-1413.4782505018909
 30
0.0
 41
1.0
 10
933.19965310948612
 20
-1413.4625106795661
 30
0.0
 41
1.0
 10
933.24341105736391
 20
-1413.4294375424899
 30
0.0
 41
0.999999337421855
 10
933.28709274339849
 20
-1413.3962637471479
 30
0.0
 41
1.0
 10
933.33077442955414
 20
-1413.363089951715
 30
0.0
 41
0.9999160953815801
 10
933.37530084049047
 20
-1413.3310588865047
 30
0.0
 41
1.0
 10
933.40812272789537
 20
-1413.3074477309303
 30
0.0
 41
1.0
 10
933.44094461530028
 20
-1413.283836575356
 30
0.0
 41
1.0
 10
933.55111480105847
 20
-1413.2045831989881
 30
0.0
 41
0.9980964527231115
 10
933.67020379455892
 20
-1413.1394957261323
 30
0.0
 41
1.0
 10
933.70723640148663
 20
-1413.1192557465392
 30
0.0
 41
1.0
 10
933.74426900841434
 20
-1413.0990157669464
 30
0.0
 41
1.0
 10
933.92359602168756
 20
-1413.001005516245
 30
0.0
 41
0.9984572810572392
 10
934.11268458804761
 20
-1412.9234832548982
 30
0.0
 41
1.0
 10
934.11633085744165
 20
-1412.921988362561
 30
0.0
 41
1.0
 10
934.11997712683569
 20
-1412.9204934702238
 30
0.0
 41
1.0
 10
934.3017731544046
 20
-1412.8459609935524
 30
0.0
 41
0.9987838528033531
 10
934.49002581296577
 20
-1412.7896953533859
 30
0.0
 41
1.0
 10
934.49426376216388
 20
-1412.7884286996959
 30
0.0
 41
1.0
 10
934.49850171136188
 20
-1412.787162046006
 30
0.0
 41
1.0
 10
934.67827847152466
 20
-1412.7334297132202
 30
0.0
 41
0.9990652816207011
 10
934.86202440324087
 20
-1412.6954260336781
 30
0.0
 41
1.0
 10
934.86721280427093
 20
-1412.6943529305718
 30
0.0
 41
1.0
 10
934.872401205301
 20
-1412.6932798274656
 30
0.0
 41
1.0
 10
935.04577033495536
 20
-1412.6574223541363
 30
0.0
 41
0.999290993427035
 10
935.22134610141507
 20
-1412.6347119216696
 30
0.0
 41
1.0
 10
935.39692186787317
 20
-1412.6120014892031
 30
0.0
 41
0.9994553539448307
 10
935.57361330096603
 20
-1412.6009221849968
 30
0.0
 41
1.0
 10
935.60904770876152
 20
-1412.5987002969491
 30
0.0
 41
1.0
 10
935.64448211655701
 20
-1412.5964784089012
 30
0.0
 41
1.0
 10
935.81070788312684
 20
-1412.5860553464895
 30
0.0
 41
0.9990928098292948
 10
935.97721767502981
 20
-1412.5898149877239
 30
0.0
 41
1.0
 10
936.01577951030083
 20
-1412.5906856792567
 30
0.0
 41
1.0
 10
936.05434134557186
 20
-1412.5915563707897
 30
0.0
 41
1.0
 10
936.14372746693164
 20
-1412.5935746289585
 30
0.0
 41
0.9998382089204028
 10
936.23298314971862
 20
-1412.5988067554867
 30
0.0
 41
1.0
 10
936.23341305593794
 20
-1412.5988319563889
 30
0.0
 41
1.0
 10
936.23384296215727
 20
-1412.5988571572911
 30
0.0
 41
1.0
 10
936.32223883250424
 20
-1412.6040388820147
 30
0.0
 41
0.9997558016757961
 10
936.41031940970561
 20
-1412.6131213973813
 30
0.0
 41
1.0
 10
936.41079554813655
 20
-1412.6131704948639
 30
0.0
 41
1.0
 10
936.41127168656749
 20
-1412.6132195923467
 30
0.0
 41
1.0
 10
936.49839998690766
 20
-1412.6222039127479
 30
0.0
 41
0.999656514418224
 10
936.58493784024859
 20
-1412.6357412194366
 30
0.0
 41
1.0
 10
936.58540376562541
 20
-1412.6358141051678
 30
0.0
 41
1.0
 10
936.58586969100224
 20
-1412.6358869908991
 30
0.0
 41
1.0
 10
936.67147569359031
 20
-1412.6492785261257
 30
0.0
 41
0.9995321806867495
 10
936.75610277391854
 20
-1412.667879014555
 30
0.0
 41
1.0
 10
936.75649196849008
 20
-1412.6679645570207
 30
0.0
 41
1.0
 10
936.75688116306162
 20
-1412.6680500994867
 30
0.0
 41
1.0
 10
936.84072985424666
 20
-1412.6864795029842
 30
0.0
 41
0.9993819199219324
 10
936.92307638844272
 20
-1412.710754886245
 30
0.0
 41
1.0
 10
936.92331482193981
 20
-1412.7108251753541
 30
0.0
 41
1.0
 10
936.92355325543679
 20
-1412.7108954644632
 30
0.0
 41
1.0
 10
937.0054229226381
 20
-1412.7350302695052
 30
0.0
 41
0.9992088568504794
 10
937.08511544162718
 20
-1412.7655955053001
 30
0.0
 41
1.0
 10
937.16479643250614
 20
-1412.7961551060332
 30
0.0
 41
0.999022610177337
 10
937.24146710241337
 20
-1412.8336325376476
 30
0.0
 41
1.0
 10
937.31812624421195
 20
-1412.8711043342014
 30
0.0
 41
0.9988424273972585
 10
937.39082987142399
 20
-1412.9157691094545
 30
0.0
 41
1.0
 10
937.39109757980327
 20
-1412.9159335735267
 30
0.0
 41
1.0
 10
937.39136528818244
 20
-1412.9160980375987
 30
0.0
 41
1.0
 10
937.46460433215327
 20
-1412.9610917409959
 30
0.0
 41
0.9986928844490124
 10
937.53286719886296
 20
-1413.0133274752757
 30
0.0
 41
1.0
 10
937.53344849108578
 20
-1413.0137722885036
 30
0.0
 41
1.0
 10
937.5340297833086
 20
-1413.0142171017314
 30
0.0
 41
1.0
 10
937.60345523446449
 20
-1413.0673424624674
 30
0.0
 41
0.9986007262277916
 10
937.66688140423082
 20
-1413.1275032321605
 30
0.0
 41
1.0
 10
937.6677758196879
 20
-1413.1283515999955
 30
0.0
 41
1.0
 10
937.6686702351451
 20
-1413.1291999678306
 30
0.0
 41
1.0
 10
937.73388523582673
 20
-1413.1910574731946
 30
0.0
 41
0.9985581491381208
 10
937.7920928475279
 20
-1413.2595499634658
 30
0.0
 41
1.0
 10
937.80135130112376
 20
-1413.2704443211676
 30
0.0
 41
1.0
 10
937.81060975471951
 20
-1413.2813386788694
 30
0.0
 41
1.0
 10
937.88733427361205
 20
-1413.3716198845432
 30
0.0
 41
0.9970460233519852
 10
937.94932617477173
 20
-1413.4725869687252
 30
0.0
 41
1.0
 10
937.96379553985162
 20
-1413.4961534278068
 30
0.0
 41
1.0
 10
937.97826490493151
 20
-1413.5197198868887
 30
0.0
 41
1.0
 10
938.01800160494406
 20
-1413.5844396109212
 30
0.0
 41
0.9988468816637061
 10
938.05134797569508
 20
-1413.6526720633478
 30
0.0
 41
1.0
 10
938.05838399818799
 20
-1413.6670689844882
 30
0.0
 41
1.0
 10
938.06542002068079
 20
-1413.6814659056283
 30
0.0
 41
1.0
 10
938.08469434644655
 20
-1413.7209045157754
 30
0.0
 41
0.9998431189999623
 10
938.10255967394164
 20
-1413.7610010702163
 30
0.0
 41
1.0
 10
938.1204250014539
 20
-1413.801097624696
 30
0.0
 41
0.9999989989947753
 10
938.13840372486686
 20
-1413.8411434622594
 30
0.0
 41
1.0
 10
938.14457603645701
 20
-1413.8548916790628
 30
0.0
 41
1.0
 10
938.15074834804705
 20
-1413.8686398958662
 30
0.0
 41
1.0
 10
938.18107169465657
 20
-1413.9361821670727
 30
0.0
 41
0.9998790356320277
 10
938.20927957479637
 20
-1414.0046349190145
 30
0.0
 41
1.0
 10
938.21611475608154
 20
-1414.0212220204439
 30
0.0
 41
1.0
 10
938.22294993736671
 20
-1414.0378091218736
 30
0.0
 41
1.0
 10
938.24650759974656
 20
-1414.0949770767584
 30
0.0
 41
0.999822757456113
 10
938.26789634813372
 20
-1414.15299138503
 30
0.0
 41
1.0
 10
938.28928509652303
 20
-1414.2110056933079
 30
0.0
 41
0.9996797971041598
 10
938.30771138148248
 20
-1414.2700278124264
 30
0.0
 41
1.0
 10
938.31161518420788
 20
-1414.2825322705949
 30
0.0
 41
1.0
 10
938.31551898693328
 20
-1414.2950367287635
 30
0.0
 41
1.0
 10
938.34175287734354
 20
-1414.3790677642191
 30
0.0
 41
0.9979274938733874
 10
938.35697740082264
 20
-1414.4657721228791
 30
0.0
 41
1.0
 10
938.35920108808409
 20
-1414.4784361237016
 30
0.0
 41
1.0
 10
938.36142477534554
 20
-1414.4911001245239
 30
0.0
 41
1.0
 10
938.37235471504357
 20
-1414.5533466318134
 30
0.0
 41
0.9994985982137375
 10
938.37932288022034
 20
-1414.6161601329545
 30
0.0
 41
1.0
 10
938.38629104539746
 20
-1414.6789736340982
 30
0.0
 41
0.9996372611201628
 10
938.38986691116509
 20
-1414.7420712127787
 30
0.0
 41
1.0
 10
938.39003548865435
 20
-1414.7450458298608
 30
0.0
 41
1.0
 10
938.39020406614372
 20
-1414.748020446943
 30
0.0
 41
1.0
 10
938.39411708689011
 20
-1414.8170672597889
 30
0.0
 41
0.9997730630736408
 10
938.39508540037821
 20
-1414.886218083828
 30
0.0
 41
1.0
 10
938.39514250679622
 20
-1414.8902962629675
 30
0.0
 41
1.0
 10
938.39519961321434
 20
-1414.8943744421069
 30
0.0
 41
1.0
 10
938.3962821395387
 20
-1414.971681624429
 30
0.0
 41
0.9998772614069057
 10
938.39494205280664
 20
-1415.0489847710048
 30
0.0
 41
1.0
 10
938.39485278960797
 20
-1415.054133934832
 30
0.0
 41
1.0
 10
938.39476352640941
 20
-1415.0592830986591
 30
0.0
 41
1.0
 10
938.39324491328011
 20
-1415.1468845728923
 30
0.0
 41
0.9999415567329466
 10
938.38983260303439
 20
-1415.2344327345661
 30
0.0
 41
1.0
 10
938.38959128235899
 20
-1415.2406241943045
 30
0.0
 41
1.0
 10
938.38934996168359
 20
-1415.2468156540431
 30
0.0
 41
1.0
 10
938.38545501008787
 20
-1415.3467467351802
 30
0.0
 41
0.9999716810428426
 10
938.38005642696919
 20
-1415.4466078734092
 30
0.0
 41
1.0
 10
938.37684362817959
 20
-1415.5060371230802
 30
0.0
 41
1.0
 10
938.37363082939009
 20
-1415.5654663727512
 30
0.0
 41
1.0
 10
938.36555692023785
 20
-1415.7148147740247
 30
0.0
 41
0.9999819129894182
 10
938.35568712862164
 20
-1415.8640552517286
 30
0.0
 41
1.0
 10
938.34581733700509
 20
-1416.01329572944
 30
0.0
 41
1.0
 10
938.34337801644119
 20
-1416.0504887752893
 30
0.0
 41
1.0
 10
938.36607625026215
 20
-1416.0117477779768
 30
0.0
 41
0.999998212813646
 10
938.38892080901496
 20
-1415.9730928840231
 30
0.0
 41
1.0
 10
938.4158303689062
 20
-1415.9275596699572
 30
0.0
 41
1.0
 10
938.44273992879732
 20
-1415.8820264558913
 30
0.0
 41
1.0
 10
938.51940360732328
 20
-1415.7523051338212
 30
0.0
 41
0.999860919006006
 10
938.60035092018961
 20
-1415.6252127518849
 30
0.0
 41
1.0
 10
938.62999924167275
 20
-1415.5786630189255
 30
0.0
 41
1.0
 10
938.65964756315589
 20
-1415.532113285966
 30
0.0
 41
1.0
 10
938.7419197833899
 20
-1415.4029407159762
 30
0.0
 41
0.9999067609733446
 10
938.82768879284959
 20
-1415.2760630265416
 30
0.0
 41
1.0
 10
938.83009349605618
 20
-1415.2725057604782
 30
0.0
 41
1.0
 10
938.83249819926289
 20
-1415.2689484944149
 30
0.0
 41
1.0
 10
938.91345780231904
 20
-1415.1491853370926
 30
0.0
 41
0.9998784952149076
 10
938.99811141199496
 20
-1415.0320041203913
 30
0.0
 41
1.0
 10
939.08276502167087
 20
-1414.9148229036896
 30
0.0
 41
0.9998532968285206
 10
939.17138264249115
 20
-1414.8006099952224
 30
0.0
 41
1.0
 10
939.19134443148459
 20
-1414.7748826741993
 30
0.0
 41
1.0
 10
939.21130622047804
 20
-1414.7491553531761
 30
0.0
 41
1.0
 10
939.32979027023828
 20
-1414.5964497422053
 30
0.0
 41
0.999155197579539
 10
939.46041471986359
 20
-1414.4539901801199
 30
0.0
 41
1.0
 10
939.46392433584128
 20
-1414.4501625784978
 30
0.0
 41
1.0
 10
939.46743395181886
 20
-1414.446334976876
 30
0.0
 41
1.0
 10
939.59103916948334
 20
-1414.3115306180403
 30
0.0
 41
0.9997418144180383
 10
939.72064130918761
 20
-1414.182481207424
 30
0.0
 41
1.0
 10
939.85024344888973
 20
-1414.0534317968102
 30
0.0
 41
0.9989238204633065
 10
939.99124599714071
 20
-1413.9369468347716
 30
0.0
 41
1.0
 10
940.03649367528055
 20
-1413.8995668431626
 30
0.0
 41
1.0
 10
940.08174135342051
 20
-1413.8621868515534
 30
0.0
 41
1.0
 10
940.22198141064086
 20
-1413.7463317982636
 30
0.0
 41
0.9990825084096503
 10
940.37162134324376
 20
-1413.6429028004313
 30
0.0
 41
1.0
 10
940.38166670729856
 20
-1413.6359595873532
 30
0.0
 41
1.0
 10
940.39171207135325
 20
-1413.6290163742754
 30
0.0
 41
1.0
 10
940.5212612758454
 20
-1413.5394738025996
 30
0.0
 41
0.9998164899827163
 10
940.65414547922398
 20
-1413.454959561082
 30
0.0
 41
1.0
 10
940.6659910397525
 20
-1413.4474257945549
 30
0.0
 41
1.0
 10
940.6778366002809
 20
-1413.4398920280275
 30
0.0
 41
1.0
 10
940.78702968260302
 20
-1413.3704453195639
 30
0.0
 41
0.9997473449131973
 10
940.89923363984963
 20
-1413.3059763617498
 30
0.0
 41
1.0
 10
941.01143759710476
 20
-1413.2415074039311
 30
0.0
 41
0.9999327861145991
 10
941.12510620787123
 20
-1413.1796574122479
 30
0.0
 41
1.0
 10
941.12565821042767
 20
-1413.179357053571
 30
0.0
 41
1.0
 10
941.12621021298401
 20
-1413.1790566948944
 30
0.0
 41
1.0
 10
941.24098282886848
 20
-1413.1166059858549
 30
0.0
 41
0.9996956420483661
 10
941.35869615470995
 20
-1413.0598925188795
 30
0.0
 41
1.0
 10
941.38913655959914
 20
-1413.0452265421511
 30
0.0
 41
1.0
 10
941.41957696448844
 20
-1413.0305605654228
 30
0.0
 41
1.0
 10
941.52255407123414
 20
-1412.9809469069783
 30
0.0
 41
0.9998070570176397
 10
941.62740046017927
 20
-1412.9354163200755
 30
0.0
 41
1.0
 10
941.73224684912395
 20
-1412.8898857331731
 30
0.0
 41
0.9997827436148448
 10
941.83889978573552
 20
-1412.8487645618604
 30
0.0
 41
1.0
 10
941.85812263536423
 20
-1412.8413529882291
 30
0.0
 41
1.0
 10
941.87734548499293
 20
-1412.8339414145978
 30
0.0
 41
1.0
 10
942.02244412086725
 20
-1412.7779970960207
 30
0.0
 41
0.9988031841977062
 10
942.1723144834732
 20
-1412.7364970318524
 30
0.0
 41
1.0
 10
942.19723173183399
 20
-1412.7295972860461
 30
0.0
 41
1.0
 10
942.22214898019479
 20
-1412.72269754024
 30
0.0
 41
1.0
 10
942.3894190058428
 20
-1412.676379397833
 30
0.0
 41
0.9984748040550141
 10
942.56077591449287
 20
-1412.6487851655679
 30
0.0
 41
1.0
 10
942.56551505074208
 20
-1412.6480220050544
 30
0.0
 41
1.0
 10
942.57025418699129
 20
-1412.6472588445408
 30
0.0
 41
1.0
 10
942.73213282314202
 20
-1412.6211909333031
 30
0.0
 41
0.9984436495480155
 10
942.89590756686653
 20
-1412.6133129794844
 30
0.0
 41
1.0
 10
942.91760477499963
 20
-1412.6122692922845
 30
0.0
 41
1.0
 10
942.93930198313274
 20
-1412.6112256050849
 30
0.0
 41
1.0
 10
943.05968231059296
 20
-1412.6054350256657
 30
0.0
 41
0.9987954789335627
 10
943.18005055550111
 20
-1412.6114715534079
 30
0.0
 41
1.0
 10
943.20001534799258
 20
-1412.6124727977462
 30
0.0
 41
1.0
 10
943.21998014048404
 20
-1412.6134740420848
 30
0.0
 41
1.0
 10
943.30041880040778
 20
-1412.6175080811499
 30
0.0
 41
0.9997941595876896
 10
943.38062757850537
 20
-1412.6248021470713
 30
0.0
 41
1.0
 10
943.46083635660125
 20
-1412.6320962129926
 30
0.0
 41
0.9998589466236494
 10
943.54075490345724
 20
-1412.6420800674427
 30
0.0
 41
1.0
 10
943.57316110526426
 20
-1412.6461284243619
 30
0.0
 41
1.0
 10
943.60556730707128
 20
-1412.6501767812808
 30
0.0
 41
1.0
 10
943.75029825754166
 20
-1412.6682573495691
 30
0.0
 41
0.999349506324879
 10
943.89334950130626
 20
-1412.6967230593107
 30
0.0
 41
1.0
 10
943.92628319845812
 20
-1412.7032765225254
 30
0.0
 41
1.0
 10
943.95921689560987
 20
-1412.7098299857403
 30
0.0
 41
1.0
 10
944.06851071881533
 20
-1412.7315783198756
 30
0.0
 41
0.9996788715560477
 10
944.1765622907734
 20
-1412.758836119239
 30
0.0
 41
1.0
 10
944.17862529331205
 20
-1412.7593565458119
 30
0.0
 41
1.0
 10
944.1806882958507
 20
-1412.7598769723847
 30
0.0
 41
1.0
 10
944.28461386273
 20
-1412.7860939186021
 30
0.0
 41
0.9995480654492892
 10
944.38677609795923
 20
-1412.8185088752266
 30
0.0
 41
1.0
 10
944.38846574008994
 20
-1412.8190449801409
 30
0.0
 41
1.0
 10
944.39015538222066
 20
-1412.8195810850555
 30
0.0
 41
1.0
 10
944.48893833319073
 20
-1412.8509238318518
 30
0.0
 41
0.9993867959456516
 10
944.58528549163123
 20
-1412.8891032011406
 30
0.0
 41
1.0
 10
944.58652844071503
 20
-1412.8895957430364
 30
0.0
 41
1.0
 10
944.58777138979895
 20
-1412.8900882849323
 30
0.0
 41
1.0
 10
944.68163265007252
 20
-1412.92728257043
 30
0.0
 41
0.9992050256522246
 10
944.7722323251071
 20
-1412.9718364696691
 30
0.0
 41
1.0
 10
944.7729670078204
 20
-1412.9721977621302
 30
0.0
 41
1.0
 10
944.77370169053358
 20
-1412.9725590545916
 30
0.0
 41
1.0
 10
944.86283200014134
 20
-1413.0163903689083
 30
0.0
 41
0.9990222350741582
 10
944.9477420615342
 20
-1413.0679236366063
 30
0.0
 41
1.0
 10
944.94792594681712
 20
-1413.0680352395113
 30
0.0
 41
1.0
 10
944.94810983210004
 20
-1413.0681468424164
 30
0.0
 41
1.0
 10
945.03265212292831
 20
-1413.1194569043048
 30
0.0
 41
0.9988642743804916
 10
945.11192665754675
 20
-1413.1785810918298
 30
0.0
 41
1.0
 10
945.19120119216598
 20
-1413.2377052793552
 30
0.0
 41
0.9987681233311304
 10
945.26422497644262
 20
-1413.3043959707563
 30
0.0
 41
1.0
 10
945.2645539044081
 20
-1413.3046963719703
 30
0.0
 41
1.0
 10
945.26488283237359
 20
-1413.304996773184
 30
0.0
 41
1.0
 10
945.33856447258074
 20
-1413.3722882670127
 30
0.0
 41
0.9987496570898775
 10
945.4051582779075
 20
-1413.4466010810988
 30
0.0
 41
1.0
 10
945.40593044766842
 20
-1413.4474627544573
 30
0.0
 41
1.0
 10
945.40670261742935
 20
-1413.4483244278158
 30
0.0
 41
1.0
 10
945.47484076227806
 20
-1413.5243605886189
 30
0.0
 41
0.9988147669827157
 10
945.5352630165022
 20
-1413.6066615954603
 30
0.0
 41
1.0
 10
945.53638234258005
 20
-1413.6081862268129
 30
0.0
 41
1.0
 10
945.53750166865791
 20
-1413.6097108581657
 30
0.0
 41
1.0
 10
945.60016257503821
 20
-1413.695061127713
 30
0.0
 41
0.9989452636216474
 10
945.65472948799959
 20
-1413.7857998168706
 30
0.0
 41
1.0
 10
945.65607821408526
 20
-1413.7880425978969
 30
0.0
 41
1.0
 10
945.65742694017104
 20
-1413.7902853789233
 30
0.0
 41
1.0
 10
945.71469130530443
 20
-1413.8855096301349
 30
0.0
 41
0.9991046436071065
 10
945.76370051862557
 20
-1413.9852340631594
 30
0.0
 41
1.0
 10
945.76516438021554
 20
-1413.9882127432315
 30
0.0
 41
1.0
 10
945.76662824180539
 20
-1413.9911914233039
 30
0.0
 41
1.0
 10
945.81856517830704
 20
-1414.0968732164745
 30
0.0
 41
0.9992763831101076
 10
945.86231830686108
 20
-1414.2061972784277
 30
0.0
 41
1.0
 10
945.86379757652503
 20
-1414.2098934659625
 30
0.0
 41
1.0
 10
945.86527684618886
 20
-1414.2135896534976
 30
0.0
 41
1.0
 10
945.91198851407046
 20
-1414.3303060905203
 30
0.0
 41
0.9994163472883743
 10
945.95062154525999
 20
-1414.4499396789838
 30
0.0
 41
1.0
 10
945.95185969750651
 20
-1414.4537738227659
 30
0.0
 41
1.0
 10
945.95309784975314
 20
-1414.4576079665478
 30
0.0
 41
1.0
 10
945.9929814107702
 20
-1414.5811140280252
 30
0.0
 41
0.9997268055890749
 10
946.02704946668314
 20
-1414.7063490599794
 30
0.0
 41
1.0
 10
946.0279796469523
 20
-1414.7097684260866
 30
0.0
 41
1.0
 10
946.02890982722147
 20
-1414.713187792194
 30
0.0
 41
1.0
 10
946.06111752259471
 20
-1414.8315840919281
 30
0.0
 41
0.9996701319000441
 10
946.08720313936556
 20
-1414.9514780451937
 30
0.0
 41
1.0
 10
946.11328875613594
 20
-1415.071371998456
 30
0.0
 41
0.9995785451109166
 10
946.13237233347616
 20
-1415.1925777594906
 30
0.0
 41
1.0
 10
946.13659211564959
 20
-1415.2193789142539
 30
0.0
 41
1.0
 10
946.14081189782303
 20
-1415.2461800690169
 30
0.0
 41
1.0
 10
946.16738687376198
 20
-1415.4149660427211
 30
0.0
 41
0.9979925101216068
 10
946.17241245968819
 20
-1415.5857573708133
 30
0.0
 41
1.0
 10
946.17323727211283
 20
-1415.6137880942979
 30
0.0
 41
1.0
 10
946.17406208453758
 20
-1415.6418188177822
 30
0.0
 41
1.0
 10
946.17743804561451
 20
-1415.7565486989097
 30
0.0
 41
0.9995314902263455
 10
946.17378785347603
 20
-1415.8712701826571
 30
0.0
 41
1.0
 10
946.17013766133755
 20
-1415.9859916664102
 30
0.0
 41
0.9996245486944307
 10
946.16020856620651
 20
-1416.1003409375357
 30
0.0
 41
1.0
 10
946.16004551821243
 20
-1416.1022186936696
 30
0.0
 41
1.0
 10
946.15988247021824
 20
-1416.1040964498034
 30
0.0
 41
1.0
 10
946.14962727909767
 20
-1416.2222012332065
 30
0.0
 41
0.9997286095000912
 10
946.13388195552591
 20
-1416.3397001421038
 30
0.0
 41
1.0
 10
946.13348846287636
 20
-1416.3426365668001
 30
0.0
 41
1.0
 10
946.13309497022669
 20
-1416.3455729914963
 30
0.0
 41
1.0
 10
946.11656266135424
 20
-1416.4689447497967
 30
0.0
 41
0.9998265533968893
 10
946.09544720262022
 20
-1416.5916152245925
 30
0.0
 41
1.0
 10
946.09477066048385
 20
-1416.5955456030952
 30
0.0
 41
1.0
 10
946.09409411834758
 20
-1416.5994759815981
 30
0.0
 41
1.0
 10
946.07162557533991
 20
-1416.7300072134053
 30
0.0
 41
0.9999022530855922
 10
946.04551611072804
 20
-1416.8598591820537
 30
0.0
 41
1.0
 10
946.04453746956403
 20
-1416.8647263244343
 30
0.0
 41
1.0
 10
946.04355882840002
 20
-1416.8695934668146
 30
0.0
 41
1.0
 10
946.01549208145957
 20
-1417.0091797202267
 30
0.0
 41
0.9999524761939613
 10
945.9847091126278
 20
-1417.148192213378
 30
0.0
 41
1.0
 10
945.98343300545071
 20
-1417.1539549726876
 30
0.0
 41
1.0
 10
945.98215689827362
 20
-1417.1597177319973
 30
0.0
 41
1.0
 10
945.94882171508334
 20
-1417.3102557437855
 30
0.0
 41
0.9999813588718847
 10
945.91365071428697
 20
-1417.4603754564441
 30
0.0
 41
1.0
 10
945.91209678883297
 20
-1417.4670080468554
 30
0.0
 41
1.0
 10
945.91054286337908
 20
-1417.473640637267
 30
0.0
 41
1.0
 10
945.87226401167004
 20
-1417.6370255307675
 30
0.0
 41
0.999995523768913
 10
945.83300813369772
 20
-1417.8001784343408
 30
0.0
 41
1.0
 10
945.82072649805923
 20
-1417.8512226248804
 30
0.0
 41
1.0
 10
945.80844486242086
 20
-1417.9022668154203
 30
0.0
 41
1.0
 10
945.74462571315257
 20
-1418.1675081001504
 30
0.0
 41
0.9999993604641669
 10
945.68020676599065
 20
-1418.4326043508106
 30
0.0
 41
1.0
 10
945.67548793045012
 20
-1418.4520232588243
 30
0.0
 41
1.0
 10
945.67076909490959
 20
-1418.4714421668377
 30
0.0
 41
1.0
 10
945.59691247664773
 20
-1418.7753762336017
 30
0.0
 41
0.9999659914734553
 10
945.51805288076457
 20
-1419.078050780153
 30
0.0
 41
1.0
 10
945.51310019183359
 20
-1419.097059917337
 30
0.0
 41
1.0
 10
945.5081475029026
 20
-1419.1160690545207
 30
0.0
 41
1.0
 10
945.41938252915668
 20
-1419.4567618754413
 30
0.0
 41
0.9999441976025588
 10
945.32343949619212
 20
-1419.7955033007445
 30
0.0
 41
1.0
 10
945.3067389777674
 20
-1419.8544670132692
 30
0.0
 41
1.0
 10
945.29003845934267
 20
-1419.9134307257941
 30
0.0
 41
1.0
 10
945.16069438952582
 20
-1420.370099576156
 30
0.0
 41
0.9999625120738998
 10
945.02346162220033
 20
-1420.8244601101585
 30
0.0
 41
1.0
 10
944.98767167911842
 20
-1420.9429561367824
 30
0.0
 41
1.0
 10
944.9518817360364
 20
-1421.0614521634061
 30
0.0
 41
1.0
 10
944.87736153199967
 20
-1421.3081792414946
 30
0.0
 41
0.9999793386316217
 10
944.79967550885999
 20
-1421.5539278807369
 30
0.0
 41
1.0
 10
944.72198948572247
 20
-1421.799676519973
 30
0.0
 41
1.0
 10
944.71120992685178
 20
-1421.8336944243476
 30
0.0
 41
1.0
 10
942.86083687358268
 20
-1427.7207663468153
 30
0.0
 41
1.0
 10
941.01046382031348
 20
-1433.6078382692826
 30
0.0
 41
1.0
 10
940.04920713028991
 20
-1433.6078382692826
 30
0.0
 41
1.0
 10
939.08795044026635
 20
-1433.6078382692826
 30
0.0
 41
1.0
 10
940.70689521894474
 20
-1428.4598097674932
 30
0.0
 41
1.0
 10
942.32583999762323
 20
-1423.3117812657038
 30
0.0
 41
1.0
 10
942.37100582080166
 20
-1423.1677500434205
 30
0.0
 41
1.0
 10
942.41617164398019
 20
-1423.0237188211372
 30
0.0
 41
1.0
 10
942.58647606134275
 20
-1422.4806277919756
 30
0.0
 41
0.999991165788483
 10
942.75220887301475
 20
-1421.9361242606378
 30
0.0
 41
1.0
 10
942.7819048165162
 20
-1421.8385603205843
 30
0.0
 41
1.0
 10
942.81160076001765
 20
-1421.7409963805305
 30
0.0
 41
1.0
 10
942.91794168469494
 20
-1421.3916207292746
 30
0.0
 41
0.9999952428170494
 10
943.02212527402003
 20
-1421.0415957049245
 30
0.0
 41
1.0
 10
943.02718474434437
 20
-1421.0245974306767
 30
0.0
 41
1.0
 10
943.03224421466871
 20
-1421.0075991564288
 30
0.0
 41
1.0
 10
943.12630886333795
 20
-1420.6915706805989
 30
0.0
 41
0.9999931687510896
 10
943.21803470121858
 20
-1420.3748554673045
 30
0.0
 41
1.0
 10
943.22296996567457
 20
-1420.3578147580461
 30
0.0
 41
1.0
 10
943.22790523013043
 20
-1420.3407740487876
 30
0.0
 41
1.0
 10
943.30976053908898
 20
-1420.0581402540456
 30
0.0
 41
0.9999893840777876
 10
943.38900776554908
 20
-1419.7747641247875
 30
0.0
 41
1.0
 10
943.468254992006
 20
-1419.4913879955407
 30
0.0
 41
0.9999833980078854
 10
943.54423123275069
 20
-1419.2071174125015
 30
0.0
 41
1.0
 10
943.55323516947237
 20
-1419.1734285340253
 30
0.0
 41
1.0
 10
943.56223910619394
 20
-1419.1397396555492
 30
0.0
 41
1.0
 10
943.63120365505984
 20
-1418.8817038232551
 30
0.0
 41
0.9999233658067724
 10
943.69375862627942
 20
-1418.6220396645344
 30
0.0
 41
1.0
 10
943.75631359749968
 20
-1418.362375505812
 30
0.0
 41
1.0
 10
943.79579701635726
 20
-1418.1985688413858
 30
0.0
 41
1.0
 10
943.80077562033398
 20
-1418.1779138795177
 30
0.0
 41
1.0
 10
943.8057542243107
 20
-1418.1572589176496
 30
0.0
 41
1.0
 10
943.83528043521756
 20
-1418.0347621769488
 30
0.0
 41
0.9999868670841888
 10
943.86354951921101
 20
-1417.9119692313143
 30
0.0
 41
1.0
 10
943.86744700636859
 20
-1417.8950396438981
 30
0.0
 41
1.0
 10
943.87134449352607
 20
-1417.878110056482
 30
0.0
 41
1.0
 10
943.89181860320639
 20
-1417.7891762856723
 30
0.0
 41
0.9999778173345933
 10
943.91110620132258
 20
-1417.6999776684384
 30
0.0
 41
1.0
 10
943.9303937994398
 20
-1417.6107790512008
 30
0.0
 41
0.9999602692857601
 10
943.94808815807278
 20
-1417.5212507627616
 30
0.0
 41
1.0
 10
943.95129199014843
 20
-1417.5050403078858
 30
0.0
 41
1.0
 10
943.95449582222409
 20
-1417.4888298530102
 30
0.0
 41
1.0
 10
943.97859784501088
 20
-1417.3668806548094
 30
0.0
 41
0.9995617985319835
 10
943.99544119222912
 20
-1417.2437189071043
 30
0.0
 41
1.0
 10
943.99790568213518
 20
-1417.2256980897396
 30
0.0
 41
1.0
 10
944.00037017204124
 20
-1417.2076772723749
 30
0.0
 41
1.0
 10
944.02065343308948
 20
-1417.0593622226756
 30
0.0
 41
0.9991121410639382
 10
944.02837878667788
 20
-1416.9098661238677
 30
0.0
 41
1.0
 10
944.02929757670256
 20
-1416.8920862872883
 30
0.0
 41
1.0
 10
944.03021636672725
 20
-1416.8743064507089
 30
0.0
 41
1.0
 10
944.03610414026627
 20
-1416.7603700250584
 30
0.0
 41
0.9989792494904755
 10
944.0316850481488
 20
-1416.6463671891634
 30
0.0
 41
1.0
 10
944.03103707628009
 20
-1416.6296509432341
 30
0.0
 41
1.0
 10
944.03038910441137
 20
-1416.612934697305
 30
0.0
 41
1.0
 10
944.02726595603133
 20
-1416.5323643532629
 30
0.0
 41
0.9997820295393327
 10
944.02078195865579
 20
-1416.4519946315208
 30
0.0
 41
1.0
 10
944.01429796127979
 20
-1416.3716249097729
 30
0.0
 41
0.9998335105973341
 10
944.00488576576811
 20
-1416.291545293325
 30
0.0
 41
1.0
 10
944.00329084109194
 20
-1416.277975562843
 30
0.0
 41
1.0
 10
944.00169591641566
 20
-1416.2644058323608
 30
0.0
 41
1.0
 10
943.98909387155118
 20
-1416.157186754943
 30
0.0
 41
0.9996876457878805
 10
943.97114995875324
 20
-1416.0507313272303
 30
0.0
 41
1.0
 10
943.96891829560786
 20
-1416.0374915919879
 30
0.0
 41
1.0
 10
943.96668663246237
 20
-1416.0242518567452
 30
0.0
 41
1.0
 10
943.95289081104147
 20
-1415.9424057127867
 30
0.0
 41
0.999554749649395
 10
943.9342374891487
 20
-1415.8615282155954
 30
0.0
 41
1.0
 10
943.93386353227743
 20
-1415.8599068048902
 30
0.0
 41
1.0
 10
943.93348957540616
 20
-1415.8582853941848
 30
0.0
 41
1.0
 10
943.91558416725616
 20
-1415.7806507184043
 30
0.0
 41
0.9994899427175117
 10
943.89275925857669
 20
-1415.7043174355699
 30
0.0
 41
1.0
 10
943.89230073183546
 20
-1415.7027839857797
 30
0.0
 41
1.0
 10
943.89184220509424
 20
-1415.7012505359894
 30
0.0
 41
1.0
 10
943.86993434989699
 20
-1415.6279841527341
 30
0.0
 41
0.9993784877590581
 10
943.84291871479081
 20
-1415.5564434475764
 30
0.0
 41
1.0
 10
943.8423870238139
 20
-1415.5550354648558
 30
0.0
 41
1.0
 10
943.84185533283699
 20
-1415.5536274821352
 30
0.0
 41
1.0
 10
943.81590307968406
 20
-1415.4849027424168
 30
0.0
 41
0.9992430832254695
 10
943.7846865445249
 20
-1415.418403590349
 30
0.0
 41
1.0
 10
943.78410442846825
 20
-1415.4171635352318
 30
0.0
 41
1.0
 10
943.78352231241172
 20
-1415.4159234801143
 30
0.0
 41
1.0
 10
943.75347000936597
 20
-1415.351904438282
 30
0.0
 41
0.9990789632798947
 10
943.71803938258881
 20
-1415.2906978265312
 30
0.0
 41
1.0
 10
943.71744367640713
 20
-1415.2896687406724
 30
0.0
 41
1.0
 10
943.71684797022533
 20
-1415.2886396548136
 30
0.0
 41
1.0
 10
943.68260875581268
 20
-1415.2294912147827
 30
0.0
 41
0.9988874801121815
 10
943.6429494797801
 20
-1415.1738315023636
 30
0.0
 41
1.0
 10
943.64239395371646
 20
-1415.1730518506897
 30
0.0
 41
1.0
 10
943.64183842765271
 20
-1415.1722721990157
 30
0.0
 41
1.0
 10
943.60329020374911
 20
-1415.1181717899472
 30
0.0
 41
0.9986762060693335
 10
943.55938773247181
 20
-1415.0683180755068
 30
0.0
 41
1.0
 10
943.55894377213997
 20
-1415.0678139336906
 30
0.0
 41
1.0
 10
943.55849981180813
 20
-1415.0673097918743
 30
0.0
 41
1.0
 10
943.51548526119575
 20
-1415.0184643610678
 30
0.0
 41
0.9984621642488512
 10
943.46732770441781
 20
-1414.9746810605964
 30
0.0
 41
1.0
 10
943.46708106990104
 20
-1414.9744568284327
 30
0.0
 41
1.0
 10
943.46683443538416
 20
-1414.9742325962688
 30
0.0
 41
1.0
 10
943.41917014763931
 20
-1414.9308977601247
 30
0.0
 41
0.9982724693851878
 10
943.36675151579857
 20
-1414.8934534096074
 30
0.0
 41
1.0
 10
943.31433288395704
 20
-1414.8560090590897
 30
0.0
 41
0.9981399180158236
 10
943.25774682056363
 20
-1414.8252225396463
 30
0.0
 41
1.0
 10
943.25770115848525
 20
-1414.8251976964893
 30
0.0
 41
1.0
 10
943.25765549640687
 20
-1414.8251728533321
 30
0.0
 41
1.0
 10
943.2009781088567
 20
-1414.7943366475743
 30
0.0
 41
0.9980927086836353
 10
943.14093275778998
 20
-1414.7707198387218
 30
0.0
 41
1.0
 10
943.14049258807836
 20
-1414.7705467128467
 30
0.0
 41
1.0
 10
943.14005241836685
 20
-1414.7703735869718
 30
0.0
 41
1.0
 10
943.07912672787711
 20
-1414.7464105263693
 30
0.0
 41
0.998141135656071
 10
943.01573820647741
 20
-1414.7300378848638
 30
0.0
 41
1.0
 10
943.01485608977612
 20
-1414.7298100426583
 30
0.0
 41
1.0
 10
943.01397397307483
 20
-1414.7295822004528
 30
0.0
 41
1.0
 10
942.94882121827254
 20
-1414.7127538745362
 30
0.0
 41
0.9983031812934664
 10
942.88215378927828
 20
-1414.7036145133602
 30
0.0
 41
1.0
 10
942.87328276387325
 20
-1414.7023983946888
 30
0.0
 41
1.0
 10
942.86441173846833
 20
-1414.7011822760173
 30
0.0
 41
1.0
 10
942.81006209596512
 20
-1414.6937315460261
 30
0.0
 41
0.9983887708261431
 10
942.75521824667305
 20
-1414.6924868723931
 30
0.0
 41
1.0
 10
942.74715484145293
 20
-1414.6923038745181
 30
0.0
 41
1.0
 10
942.7390914362328
 20
-1414.6921208766432
 30
0.0
 41
1.0
 10
942.70037439737757
 20
-1414.6912421987597
 30
0.0
 41
0.9998869563078924
 10
942.66164844417756
 20
-1414.6915280681194
 30
0.0
 41
1.0
 10
942.62292249097118
 20
-1414.6918139374791
 30
0.0
 41
0.999997232005836
 10
942.58419831175763
 20
-1414.6922820370082
 30
0.0
 41
1.0
 10
942.56484529518093
 20
-1414.6925159770976
 30
0.0
 41
1.0
 10
942.54549227860412
 20
-1414.692749917187
 30
0.0
 41
1.0
 10
942.46806206623489
 20
-1414.6936858968947
 30
0.0
 41
0.9997304945086901
 10
942.39075875999879
 20
-1414.6982149906805
 30
0.0
 41
1.0
 10
942.38170911829297
 20
-1414.6987451966706
 30
0.0
 41
1.0
 10
942.37265947658727
 20
-1414.6992754026605
 30
0.0
 41
1.0
 10
942.27725688693909
 20
-1414.7048649084268
 30
0.0
 41
0.9997888306415238
 10
942.18216455109484
 20
-1414.7143698729162
 30
0.0
 41
1.0
 10
942.17344348952395
 20
-1414.715241587548
 30
0.0
 41
1.0
 10
942.16472242795305
 20
-1414.71611330218
 30
0.0
 41
1.0
 10
942.05218796896304
 20
-1414.7273616959335
 30
0.0
 41
0.9984170238190105
 10
941.94162882160981
 20
-1414.7511777778698
 30
0.0
 41
1.0
 10
941.90524769062608
 20
-1414.7590148136753
 30
0.0
 41
1.0
 10
941.86886655964236
 20
-1414.7668518494809
 30
0.0
 41
1.0
 10
941.75367549122006
 20
-1414.7916657159908
 30
0.0
 41
0.9976592854199147
 10
941.64294732481426
 20
-1414.8319643931382
 30
0.0
 41
1.0
 10
941.53221915840822
 20
-1414.8722630702855
 30
0.0
 41
0.9993255074351543
 10
941.42474735961673
 20
-1414.9205799687786
 30
0.0
 41
1.0
 10
941.42012218069431
 20
-1414.922659344978
 30
0.0
 41
1.0
 10
941.41549700177188
 20
-1414.9247387211772
 30
0.0
 41
1.0
 10
941.29877484513486
 20
-1414.9772143720688
 30
0.0
 41
0.9976475078275086
 10
941.19032750082488
 20
-1415.0451623617269
 30
0.0
 41
1.0
 10
941.17198510668857
 20
-1415.0566548405423
 30
0.0
 41
1.0
 10
941.15364271255226
 20
-1415.0681473193576
 30
0.0
 41
1.0
 10
941.06944052100107
 20
-1415.1209044401255
 30
0.0
 41
0.999513133640687
 10
940.98869280604492
 20
-1415.178810652078
 30
0.0
 41
1.0
 10
940.90794509108707
 20
-1415.2367168640315
 30
0.0
 41
0.9995810107606051
 10
940.83068344335561
 20
-1415.2991985464996
 30
0.0
 41
1.0
 10
940.82771341214709
 20
-1415.3016004179628
 30
0.0
 41
1.0
 10
940.82474338093857
 20
-1415.3040022894261
 30
0.0
 41
1.0
 10
940.74154167079223
 20
-1415.3712877148191
 30
0.0
 41
0.9996617837954656
 10
940.66195098366086
 20
-1415.4428081703754
 30
0.0
 41
1.0
 10
940.64982023277969
 20
-1415.4537089033697
 30
0.0
 41
1.0
 10
940.63768948189852
 20
-1415.4646096363642
 30
0.0
 41
1.0
 10
940.56941395450269
 20
-1415.5259622518358
 30
0.0
 41
0.9997267750051758
 10
940.50408044621918
 20
-1415.5904387883611
 30
0.0
 41
1.0
 10
940.43874693794089
 20
-1415.6549153248809
 30
0.0
 41
0.9999667288959506
 10
940.37447399479947
 20
-1415.72044913177
 30
0.0
 41
1.0
 10
940.30564654701902
 20
-1415.7906267905337
 30
0.0
 41
1.0
 10
940.23681909923857
 20
-1415.8608044492971
 30
0.0
 41
1.0
 10
940.03489126054205
 20
-1416.0666935737077
 30
0.0
 41
0.9988205335175129
 10
939.85388564356253
 20
-1416.2911978057682
 30
0.0
 41
1.0
 10
939.82324567865771
 20
-1416.3292010561984
 30
0.0
 41
1.0
 10
939.79260571375289
 20
-1416.3672043066285
 30
0.0
 41
1.0
 10
939.5503201669668
 20
-1416.6677150395456
 30
0.0
 41
0.9997077826755334
 10
939.32284221586212
 20
-1416.9795848337608
 30
0.0
 41
1.0
 10
939.32111880072989
 20
-1416.9819476171426
 30
0.0
 41
1.0
 10
939.31939538559777
 20
-1416.9843104005245
 30
0.0
 41
1.0
 10
939.08847060423147
 20
-1417.3009057615002
 30
0.0
 41
0.9989147567078605
 10
938.88800710134751
 20
-1417.6376152226858
 30
0.0
 41
1.0
 10
938.86326595603964
 20
-1417.6791718032396
 30
0.0
 41
1.0
 10
938.83852481073188
 20
-1417.7207283837936
 30
0.0
 41
1.0
 10
938.68331351209406
 20
-1417.9814297682469
 30
0.0
 41
0.9997476598180705
 10
938.53996852458727
 20
-1418.2488395168248
 30
0.0
 41
1.0
 10
938.39662353707752
 20
-1418.5162492654074
 30
0.0
 41
0.9996258967109527
 10
938.26811528514747
 20
-1418.7910972020281
 30
0.0
 41
1.0
 10
938.25491537569633
 20
-1418.8193286021267
 30
0.0
 41
1.0
 10
938.2417154662453
 20
-1418.8475600022252
 30
0.0
 41
1.0
 10
938.1015067452463
 20
-1419.1474324001765
 30
0.0
 41
0.9998735413945008
 10
937.97090539852616
 20
-1419.4516119996438
 30
0.0
 41
1.0
 10
937.96746257046811
 20
-1419.4596305851028
 30
0.0
 41
1.0
 10
937.96401974240996
 20
-1419.4676491705618
 30
0.0
 41
1.0
 10
937.84030405180681
 20
-1419.7557915991088
 30
0.0
 41
0.9999377418859528
 10
937.723049249631
 20
-1420.0466230667862
 30
0.0
 41
1.0
 10
937.60579444745622
 20
-1420.3374545344614
 30
0.0
 41
0.9999508299502367
 10
937.49433050408061
 20
-1420.6305542112784
 30
0.0
 41
1.0
 10
937.49124973541711
 20
-1420.6386552372451
 30
0.0
 41
1.0
 10
937.48816896675362
 20
-1420.6467562632115
 30
0.0
 41
1.0
 10
937.37054348604511
 20
-1420.9560579919762
 30
0.0
 41
0.9999609228428866
 10
937.25840488316896
 20
-1421.2673910079991
 30
0.0
 41
1.0
 10
937.25544887282354
 20
-1421.275597848397
 30
0.0
 41
1.0
 10
937.25249286247799
 20
-1421.283804688795
 30
0.0
 41
1.0
 10
937.1344422389036
 20
-1421.6115513856325
 30
0.0
 41
0.9999674607408955
 10
937.02169471283332
 20
-1421.9411600056339
 30
0.0
 41
1.0
 10
936.97029632227236
 20
-1422.0914192013215
 30
0.0
 41
1.0
 10
936.91889793171129
 20
-1422.2416783970093
 30
0.0
 41
1.0
 10
936.80288732495194
 20
-1422.5808263795163
 30
0.0
 41
0.9999287532307466
 10
936.69500592098302
 20
-1422.922647118487
 30
0.0
 41
1.0
 10
936.64852866484853
 20
-1423.0699096628432
 30
0.0
 41
1.0
 10
936.60205140871403
 20
-1423.2171722071994
 30
0.0
 41
1.0
 10
936.58712451701297
 20
-1423.2644678574607
 30
0.0
 41
0.9999998223400171
 10
936.57225400828179
 20
-1423.3117812657038
 30
0.0
 41
1.0
 10
934.95159787148634
 20
-1428.4598097674932
 30
0.0
 41
1.0
 10
933.3309417346909
 20
-1433.6078382692826
 30
0.0
 41
1.0
 10
932.42563329079996
 20
-1433.6078382692826
 30
0.0
 41
1.0
 10
931.52032484690903
 20
-1433.6078382692826
 30
0.0
 41
1.0
 10
933.37240925829508
 20
-1427.7207663468153
 30
0.0
 41
1.0
 10
935.22449366968112
 20
-1421.8336944243476
 30
0.0
 41
1.0
 10
935.23461542798384
 20
-1421.8016512108979
 30
0.0
 41
1.0
 10
935.30722309683358
 20
-1421.5713516690721
 30
0.0
 41
1.0
 10
935.37983076568537
 20
-1421.3410521272399
 30
0.0
 41
0.9999825681975112
 10
935.44971380489903
 20
-1421.1099112321674
 30
0.0
 41
1.0
 10
935.49800486705863
 20
-1420.9501866486753
 30
0.0
 41
1.0
 10
935.5462959292181
 20
-1420.7904620651834
 30
0.0
 41
1.0
 10
935.64344828253354
 20
-1420.469126843414
 30
0.0
 41
0.9999672528963188
 10
935.73538708815568
 20
-1420.1462612978312
 30
0.0
 41
1.0
 10
935.73817597183029
 20
-1420.1364674524243
 30
0.0
 41
1.0
 10
935.74096485550479
 20
-1420.1266736070174
 30
0.0
 41
1.0
 10
935.82732589378759
 20
-1419.8233957522152
 30
0.0
 41
0.9999899749165987
 10
935.91096750331371
 20
-1419.5193566637927
 30
0.0
 41
1.0
 10
935.92107342233203
 20
-1419.4826214261111
 30
0.0
 41
1.0
 10
935.93117934135046
 20
-1419.4458861884295
 30
0.0
 41
1.0
 10
935.99460911284973
 20
-1419.2153175753351
 30
0.0
 41
0.9999214200506532
 10
936.05223854122619
 20
-1418.9832312331309
 30
0.0
 41
1.0
 10
936.06500439340539
 20
-1418.9318203477401
 30
0.0
 41
1.0
 10
936.0777702455847
 20
-1418.8804094623492
 30
0.0
 41
1.0
 10
936.10986796960196
 20
-1418.7511448909288
 30
0.0
 41
0.9999828681677677
 10
936.14045022159928
 20
-1418.621513416454
 30
0.0
 41
1.0
 10
936.17103247359648
 20
-1418.4918819419786
 30
0.0
 41
0.9999389844475963
 10
936.19874346238737
 20
-1418.3616064860703
 30
0.0
 41
1.0
 10
936.20588120610591
 20
-1418.3280503822409
 30
0.0
 41
1.0
 10
936.21301894982435
 20
-1418.2944942784115
 30
0.0
 41
1.0
 10
936.25500542605482
 20
-1418.0971066148331
 30
0.0
 41
0.9998933699442137
 10
936.29120969045618
 20
-1417.8985770070783
 30
0.0
 41
1.0
 10
936.29258251567262
 20
-1417.8910489863815
 30
0.0
 41
1.0
 10
936.29395534088894
 20
-1417.883520965685
 30
0.0
 41
1.0
 10
936.33290525572352
 20
-1417.6699353165352
 30
0.0
 41
0.9996850305194163
 10
936.36108893198264
 20
-1417.4546643110964
 30
0.0
 41
1.0
 10
936.36308396535196
 20
-1417.4394259569749
 30
0.0
 41
1.0
 10
936.36507899872117
 20
-1417.4241876028534
 30
0.0
 41
1.0
 10
936.39248686118026
 20
-1417.2148423756978
 30
0.0
 41
0.9994697936706873
 10
936.40621142039981
 20
-1417.0041571803672
 30
0.0
 41
1.0
 10
936.40668848964947
 20
-1416.9968337081559
 30
0.0
 41
1.0
 10
936.40716555889924
 20
-1416.9895102359446
 30
0.0
 41
1.0
 10
936.41993597961959
 20
-1416.793471985035
 30
0.0
 41
0.999180489313663
 10
936.41680766334662
 20
-1416.5970431350631
 30
0.0
 41
1.0
 10
936.41672378452449
 20
-1416.5917763336483
 30
0.0
 41
1.0
 10
936.41663990570237
 20
-1416.5865095322333
 30
0.0
 41
1.0
 10
936.41367934707387
 20
-1416.4006142850874
 30
0.0
 41
0.9988448329321258
 10
936.39288780145012
 20
-1416.2158616952563
 30
0.0
 41
1.0
 10
936.3912937277471
 20
-1416.2016968394848
 30
0.0
 41
1.0
 10
936.38969965404397
 20
-1416.1875319837134
 30
0.0
 41
1.0
 10
936.37209625582614
 20
-1416.0311091054218
 30
0.0
 41
0.998550320945882
 10
936.33777998352684
 20
-1415.8774849213337
 30
0.0
 41
1.0
 10
936.33019399145564
 20
-1415.8435245939336
 30
0.0
 41
1.0
 10
936.32260799938433
 20
-1415.8095642665332
 30
0.0
 41
1.0
 10
936.30346371122698
 20
-1415.7238607372433
 30
0.0
 41
0.9991036781369985
 10
936.27713884957598
 20
-1415.6400836499195
 30
0.0
 41
1.0
 10
936.27315662412025
 20
-1415.6274104874096
 30
0.0
 41
1.0
 10
936.26917439866452
 20
-1415.6147373248998
 30
0.0
 41
1.0
 10
936.25081398792486
 20
-1415.5563065625947
 30
0.0
 41
0.9998874504370029
 10
936.23070878024646
 20
-1415.4984529603712
 30
0.0
 41
1.0
 10
936.21060357256783
 20
-1415.4405993581479
 30
0.0
 41
0.9994041637544791
 10
936.18655495963367
 20
-1415.3842706542578
 30
0.0
 41
1.0
 10
936.1823581754104
 20
-1415.3744405897776
 30
0.0
 41
1.0
 10
936.17816139118702
 20
-1415.3646105252974
 30
0.0
 41
1.0
 10
936.15028256019173
 20
-1415.2993103593285
 30
0.0
 41
0.9991846840702433
 10
936.11722620349803
 20
-1415.2364723280468
 30
0.0
 41
1.0
 10
936.11608959710281
 20
-1415.2343117115918
 30
0.0
 41
1.0
 10
936.11495299070759
 20
-1415.2321510951367
 30
0.0
 41
1.0
 10
936.08416984680514
 20
-1415.173634296767
 30
0.0
 41
0.998925316792336
 10
936.04810042274994
 20
-1415.1182193683762
 30
0.0
 41
1.0
 10
936.04704629807588
 20
-1415.1165998736142
 30
0.0
 41
1.0
 10
936.04599217340183
 20
-1415.1149803788521
 30
0.0
 41
1.0
 10
936.0120309986952
 20
-1415.0628044399864
 30
0.0
 41
0.9986467172837056
 10
935.97283384605771
 20
-1415.0144384063565
 30
0.0
 41
1.0
 10
935.97195971735744
 20
-1415.0133598040788
 30
0.0
 41
1.0
 10
935.97108558865716
 20
-1415.0122812018012
 30
0.0
 41
1.0
 10
935.93363669342045
 20
-1414.9660723727275
 30
0.0
 41
0.9984001104268853
 10
935.89120996290308
 20
-1414.9243872653583
 30
0.0
 41
1.0
 10
935.89062282479381
 20
-1414.9238103904772
 30
0.0
 41
1.0
 10
935.89003568668466
 20
-1414.9232335155962
 30
0.0
 41
1.0
 10
935.8487832323865
 20
-1414.88270215799
 30
0.0
 41
0.9982442159082278
 10
935.80302713105038
 20
-1414.8473335967292
 30
0.0
 41
1.0
 10
935.80281233558821
 20
-1414.8471675640858
 30
0.0
 41
1.0
 10
935.80259754012616
 20
-1414.8470015314422
 30
0.0
 41
1.0
 10
935.75727102971393
 20
-1414.8119650354683
 30
0.0
 41
0.998245006083602
 10
935.70812005064295
 20
-1414.7825332524353
 30
0.0
 41
1.0
 10
935.65896907157071
 20
-1414.7531014694016
 30
0.0
 41
0.9983922639635523
 10
935.60680276540529
 20
-1414.7294218347472
 30
0.0
 41
1.0
 10
935.60657588808135
 20
-1414.7293188492661
 30
0.0
 41
1.0
 10
935.60634901075741
 20
-1414.7292158637849
 30
0.0
 41
1.0
 10
935.55372894994343
 20
-1414.705330258168
 30
0.0
 41
0.9986517147149804
 10
935.49891597707608
 20
-1414.6870291390464
 30
0.0
 41
1.0
 10
935.49823805564802
 20
-1414.6868027926148
 30
0.0
 41
1.0
 10
935.49756013422007
 20
-1414.6865764461834
 30
0.0
 41
1.0
 10
935.44139131849818
 20
-1414.6678226341994
 30
0.0
 41
0.9989435598957295
 10
935.38373793134838
 20
-1414.654304931965
 30
0.0
 41
1.0
 10
935.38265781176494
 20
-1414.6540516817117
 30
0.0
 41
1.0
 10
935.38157769218151
 20
-1414.6537984314582
 30
0.0
 41
1.0
 10
935.32176406586711
 20
-1414.6397742287177
 30
0.0
 41
0.999224924124083
 10
935.26103255697035
 20
-1414.6304988860024
 30
0.0
 41
1.0
 10
935.2596188686789
 20
-1414.6302829775946
 30
0.0
 41
1.0
 10
935.25820518038734
 20
-1414.6300670691867
 30
0.0
 41
1.0
 10
935.19464629491017
 20
-1414.6203599096561
 30
0.0
 41
0.9994396597834511
 10
935.13058035837525
 20
-1414.6149269873106
 30
0.0
 41
1.0
 10
935.11143969089528
 20
-1414.6133038195917
 30
0.0
 41
1.0
 10
935.09229902341531
 20
-1414.611680651873
 30
0.0
 41
1.0
 10
934.98995175192317
 20
-1414.6030013940899
 30
0.0
 41
0.9987693403121755
 10
934.88724812833664
 20
-1414.6045044575424
 30
0.0
 41
1.0
 10
934.87699379410901
 20
-1414.6046545293166
 30
0.0
 41
1.0
 10
934.86673945988139
 20
-1414.6048046010908
 30
0.0
 41
1.0
 10
934.75718369370247
 20
-1414.6064079453784
 30
0.0
 41
0.9989753644966275
 10
934.64822169368585
 20
-1414.6179109523036
 30
0.0
 41
1.0
 10
934.53925969367037
 20
-1414.6294139592287
 30
0.0
 41
0.9983190067306267
 10
934.43236088270623
 20
-1414.653448951015
 30
0.0
 41
1.0
 10
934.42345993109859
 20
-1414.655450229578
 30
0.0
 41
1.0
 10
934.41455897949095
 20
-1414.6574515081409
 30
0.0
 41
1.0
 10
934.28985826531198
 20
-1414.685489057053
 30
0.0
 41
0.9985539388302692
 10
934.16888851163412
 20
-1414.7267527330989
 30
0.0
 41
1.0
 10
934.16654308067405
 20
-1414.7275527769148
 30
0.0
 41
1.0
 10
934.16419764971397
 20
-1414.7283528207304
 30
0.0
 41
1.0
 10
934.03853703411619
 20
-1414.7712165844073
 30
0.0
 41
0.9988468746493497
 10
933.91756669181632
 20
-1414.8259346694695
 30
0.0
 41
1.0
 10
933.91438386982702
 20
-1414.8273743440295
 30
0.0
 41
1.0
 10
933.91120104783772
 20
-1414.8288140185898
 30
0.0
 41
1.0
 10
933.78386506155903
 20
-1414.8864114527726
 30
0.0
 41
0.9991322885918813
 10
933.66176447750206
 20
-1414.9544067849547
 30
0.0
 41
1.0
 10
933.64416246645806
 20
-1414.9642089869444
 30
0.0
 41
1.0
 10
933.62656045541394
 20
-1414.9740111889344
 30
0.0
 41
1.0
 10
933.52438377435681
 20
-1415.0309113047151
 30
0.0
 41
0.9993860037849099
 10
933.42644277028478
 20
-1415.0948273203028
 30
0.0
 41
1.0
 10
933.42082445743222
 20
-1415.0984938149977
 30
0.0
 41
1.0
 10
933.41520614457966
 20
-1415.1021603096929
 30
0.0
 41
1.0
 10
933.32850176621287
 20
-1415.1587433358904
 30
0.0
 41
0.9998821494953846
 10
933.24357539039852
 20
-1415.2179615659679
 30
0.0
 41
1.0
 10
933.15864901458428
 20
-1415.2771797960459
 30
0.0
 41
0.9997976482744789
 10
933.07617338418152
 20
-1415.339766204087
 30
0.0
 41
1.0
 10
933.06153711937691
 20
-1415.3508728938666
 30
0.0
 41
1.0
 10
933.0469008545723
 20
-1415.3619795836462
 30
0.0
 41
1.0
 10
932.93515269456191
 20
-1415.4467793712452
 30
0.0
 41
0.9998091630799216
 10
932.82680241653475
 20
-1415.535879721946
 30
0.0
 41
1.0
 10
932.81379666405564
 20
-1415.5465748223935
 30
0.0
 41
1.0
 10
932.80079091157654
 20
-1415.557269922841
 30
0.0
 41
1.0
 10
932.66642912859777
 20
-1415.6677604744318
 30
0.0
 41
0.9995035112317637
 10
932.53929325083584
 20
-1415.7864942914448
 30
0.0
 41
1.0
 10
932.52964594044511
 20
-1415.795504037606
 30
0.0
 41
1.0
 10
932.51999863005437
 20
-1415.8045137837669
 30
0.0
 41
1.0
 10
932.39657556728946
 20
-1415.9197801555226
 30
0.0
 41
0.9994630424299227
 10
932.28096716150708
 20
-1416.0428828987563
 30
0.0
 41
1.0
 10
932.277284322735
 20
-1416.0468044782701
 30
0.0
 41
1.0
 10
932.27360148396292
 20
-1416.0507260577838
 30
0.0
 41
1.0
 10
932.16535875572367
 20
-1416.1659856419908
 30
0.0
 41
0.9995160693750125
 10
932.06449272619113
 20
-1416.2877530598639
 30
0.0
 41
1.0
 10
932.06255900610904
 20
-1416.2900874840736
 30
0.0
 41
1.0
 10
932.06062528602706
 20
-1416.2924219082834
 30
0.0
 41
1.0
 10
931.96362669665621
 20
-1416.4095204777402
 30
0.0
 41
0.9996561470514619
 10
931.87290047799331
 20
-1416.5315432401858
 30
0.0
 41
1.0
 10
931.86674281209503
 20
-1416.5398250292233
 30
0.0
 41
1.0
 10
931.86058514619663
 20
-1416.5481068182605
 30
0.0
 41
1.0
 10
931.78217425933076
 20
-1416.6535660026304
 30
0.0
 41
0.9998349055174169
 10
931.70764697739514
 20
-1416.7618045862982
 30
0.0
 41
1.0
 10
931.63311969545998
 20
-1416.8700431699663
 30
0.0
 41
0.9999728109572702
 10
931.56019679954829
 20
-1416.9793690955237
 30
0.0
 41
1.0
 10
931.55888158413882
 20
-1416.981340865023
 30
0.0
 41
1.0
 10
931.55756636872934
 20
-1416.983312634522
 30
0.0
 41
1.0
 10
931.48201304200597
 20
-1417.0965820990673
 30
0.0
 41
0.9999972147374875
 10
931.4069952316454
 20
-1417.210206941882
 30
0.0
 41
1.0
 10
931.40202368901123
 20
-1417.2177370303723
 30
0.0
 41
1.0
 10
931.39705214637695
 20
-1417.2252671188626
 30
0.0
 41
1.0
 10
931.31209125075998
 20
-1417.3539521386406
 30
0.0
 41
0.9999371979008835
 10
931.23003590136273
 20
-1417.4845090524066
 30
0.0
 41
1.0
 10
931.22652701699633
 20
-1417.4900919804791
 30
0.0
 41
1.0
 10
931.22301813262993
 20
-1417.4956749085513
 30
0.0
 41
1.0
 10
931.13394501449943
 20
-1417.637397678463
 30
0.0
 41
0.9998272025611268
 10
931.05020162361814
 20
-1417.7823335552041
 30
0.0
 41
1.0
 10
931.0349864515947
 20
-1417.8086666696599
 30
0.0
 41
1.0
 10
931.01977127957116
 20
-1417.8349997841156
 30
0.0
 41
1.0
 10
930.90559754464073
 20
-1418.0326018897722
 30
0.0
 41
0.9995217214838271
 10
930.80385785508474
 20
-1418.236884217635
 30
0.0
 41
1.0
 10
930.79621429245117
 20
-1418.2522316673349
 30
0.0
 41
1.0
 10
930.78857072981759
 20
-1418.267579117035
 30
0.0
 41
1.0
 10
930.70166543722712
 20
-1418.4420755751182
 30
0.0
 41
0.9998269762608112
 10
930.62131097095357
 20
-1418.6196838618444
 30
0.0
 41
1.0
 10
930.54095650468025
 20
-1418.7972921485702
 30
0.0
 41
0.9998944747388089
 10
930.46579571011466
 20
-1418.9771598742022
 30
0.0
 41
1.0
 10
930.46084204052545
 20
-1418.9890145291149
 30
0.0
 41
1.0
 10
930.45588837093624
 20
-1419.0008691840276
 30
0.0
 41
1.0
 10
930.37524131038253
 20
-1419.1938661240483
 30
0.0
 41
0.9999506734410468
 10
930.29844378147777
 20
-1419.3884269289074
 30
0.0
 41
1.0
 10
930.28384381621095
 20
-1419.425414850703
 30
0.0
 41
1.0
 10
930.26924385094424
 20
-1419.4624027724983
 30
0.0
 41
1.0
 10
930.2216462525804
 20
-1419.5829877337474
 30
0.0
 41
0.9999912393959568
 10
930.17505980855162
 20
-1419.7039669364592
 30
0.0
 41
1.0
 10
930.12847336453387
 20
-1419.8249461391429
 30
0.0
 41
0.9999927113941587
 10
930.0828120701442
 20
-1419.9462775466322
 30
0.0
 41
1.0
 10
930.0688436387419
 20
-1419.9833945286437
 30
0.0
 41
1.0
 10
930.05487520733959
 20
-1420.0205115106548
 30
0.0
 41
1.0
 10
929.98127705014929
 20
-1420.2160768821564
 30
0.0
 41
0.9999487550947894
 10
929.91165342518104
 20
-1420.4130922473291
 30
0.0
 41
1.0
 10
929.88805981524411
 20
-1420.4798555576222
 30
0.0
 41
1.0
 10
929.86446620530717
 20
-1420.546618867915
 30
0.0
 41
1.0
 10
929.76978057093288
 20
-1420.8145527027509
 30
0.0
 41
0.9999808436940437
 10
929.67841898229244
 20
-1421.0836381340121
 30
0.0
 41
1.0
 10
929.58705739365041
 20
-1421.3527235652782
 30
0.0
 41
0.9999873932897306
 10
929.49840268493938
 20
-1421.6227129202705
 30
0.0
 41
1.0
 10
929.47831032806675
 20
-1421.683902253033
 30
0.0
 41
1.0
 10
929.45821797119424
 20
-1421.7450915857958
 30
0.0
 41
1.0
 10
929.32937854873762
 20
-1422.1374596063138
 30
0.0
 41
0.999979488303982
 10
929.20557576377837
 20
-1422.5314458125956
 30
0.0
 41
1.0
 10
929.19442350435509
 20
-1422.5669364227874
 30
0.0
 41
1.0
 10
929.1832712449318
 20
-1422.602427032979
 30
0.0
 41
1.0
 10
929.04071308102482
 20
-1423.0560997850962
 30
0.0
 41
0.999998276171018
 10
928.89984064099167
 20
-1423.5102988072761
 30
0.0
 41
1.0
 10
927.31170030841906
 20
-1428.5590685382795
 30
0.0
 41
1.0
 10
925.72355997584646
 20
-1433.6078382692826
 30
0.0
 41
1.0
 10
924.77480936437007
 20
-1433.6078382692826
 30
0.0
 41
1.0
 10
923.82605875289369
 20
-1433.6078382692826
 30
0.0
 41
1.0
 10
927.06434323904682
 20
-1423.2805160693365
 30
0.0
 41
1.0
 10
930.30262772520007
 20
-1412.9531938693904
 30
0.0
 41
1.0
  0
LWPOLYLINE
  5
61
100
AcDbEntity
  8
0
370
              15
390
0
  6
Continuous
 62
               7
100
AcDbPolyline
 90
      232
 70
             128
 10
904.59908195137302
 20
-1414.0375367009055
 42
0.0004370800691641
 10
904.5462047773733
 20
-1414.1062033400676
 10
904.50692054617355
 20
-1414.1573104530585
 42
0.003048199218184
 10
904.37658182903647
 20
-1414.3290321454265
 10
904.33807015730395
 20
-1414.3804189291907
 42
0.0042058245763274
 10
904.13408510662941
 20
-1414.6574246742709
 10
904.08167998413342
 20
-1414.7298575210452
 42
0.0120948898745879
 10
903.78563606736861
 20
-1415.1606071255994
 10
903.68944356824682
 20
-1415.3080878608239
 42
0.0141601263948136
 10
903.38579952132807
 20
-1415.8037571975544
 10
903.34626225390639
 20
-1415.8726011649787
 42
0.007113108130251
 10
903.14098993066364
 20
-1416.2421039638243
 42
0.006845879100359
 10
902.94611040381881
 20
-1416.6171955273041
 10
902.93929854136286
 20
-1416.6307572410242
 42
0.0064120880289862
 10
902.74115629132143
 20
-1417.0381817159368
 10
902.73362160580155
 20
-1417.0541935726642
 42
0.0058857236449226
 10
902.5308662139289
 20
-1417.4985696837014
 10
902.52269128763589
 20
-1417.5170598373331
 42
0.0053189741896705
 10
902.31398697497275
 20
-1418.0030233112404
 10
902.30523916928701
 20
-1418.0240051894471
 42
0.0047503650419266
 10
902.08926544313135
 20
-1418.5562046226692
 10
902.07999719478812
 20
-1418.5796809987646
 42
0.0042071762169345
 10
901.85544981105954
 20
-1419.1627745928365
 10
901.84570040871176
 20
-1419.1887407677041
 42
0.0036680086483161
 10
901.61124576540635
 20
-1419.8273761522169
 10
901.6010379855519
 20
-1419.85582468658
 42
0.0032573142627743
 10
901.35540569957948
 20
-1420.5546773463498
 10
901.28675517873501
 20
-1420.7541404304141
 42
0.0026133366649563
 10
900.93830997998657
 20
-1421.7840037140581
 10
900.87505319248237
 20
-1421.9742345494619
 42
0.0020592950742766
 10
900.66119012351874
 20
-1422.6263382020643
 10
900.65813833236894
 20
-1422.6357746904328
 42
0.0025609928533575
 10
900.45631783086981
 20
-1423.2709199128399
 10
900.45372646373721
 20
-1423.2792222537994
 42
0.0031362356240894
 10
900.26423567806614
 20
-1423.89998510996
 10
900.26210463513871
 20
-1423.907126416171
 42
0.0037229918027961
 10
900.08530424821242
 20
-1424.5161117181451
 10
900.0836256589987
 20
-1424.5220586083453
 42
0.0043077623708571
 10
899.91988485694094
 20
-1425.1218773400888
 42
0.0047654161823835
 10
899.7670561344238
 20
-1425.7245634289957
 10
899.7325915255858
 20
-1425.8661252061406
 42
0.0112969368443942
 10
899.53672716744245
 20
-1426.7578173667639
 10
899.50872077834561
 20
-1426.9006454128628
 42
0.0130056762570138
 10
899.30788353469893
 20
-1428.0875864845077
 10
899.28734378455169
 20
-1428.2316645979854
 42
0.0138721532144375
 10
899.183640780014
 20
-1429.1384940838104
 10
899.16434529210608
 20
-1429.3619918057366
 42
0.0071254697008203
 10
899.13099864618357
 20
-1429.8251788145826
 10
899.12603767202017
 20
-1429.9111828091441
 42
0.0028881799205384
 10
899.11089937873044
 20
-1430.2029245189856
 42
0.0060297297134317
 10
899.10096717895499
 20
-1430.4948734550956
 10
899.09990489728773
 20
-1430.5432658270336
 42
0.0229523164156554
 10
899.10763592507351
 20
-1430.8660206733171
 10
899.11186169859388
 20
-1430.9264242073334
 42
0.0123673300665637
 10
899.13094034511221
 20
-1431.127544932508
 42
0.0128577674472007
 10
899.16013573551948
 20
-1431.3274427824406
 10
899.16726160890551
 20
-1431.3687715970318
 42
0.0285717853763685
 10
899.23175561060123
 20
-1431.6468877483449
 10
899.24542413426718
 20
-1431.6935425178203
 42
0.0316283099152911
 10
899.36123471418182
 20
-1432.0125570196481
 10
899.36428340593818
 20
-1432.0195433919755
 42
0.0338984824238575
 10
899.51371511690456
 20
-1432.3071093561628
 10
899.51602384627324
 20
-1432.3109003854368
 42
0.0350228718352306
 10
899.69838413694799
 20
-1432.5679523701156
 10
899.69926938872391
 20
-1432.5690314478807
 42
0.0347476747528951
 10
899.91369407596312
 20
-1432.7962164950995
 42
0.0331337701908988
 10
900.15693740170968
 20
-1432.9923451571774
 10
900.15803750022565
 20
-1432.9931178603497
 42
0.0305233319079996
 10
900.42658219580005
 20
-1433.1582460304414
 10
900.42981224030018
 20
-1433.1599700423035
 42
0.0273744481155624
 10
900.72236595187348
 20
-1433.2961081861936
 10
900.72747048701206
 20
-1433.2981517706637
 42
0.0240964406196037
 10
901.04294756265688
 20
-1433.4071354969446
 10
901.04953089186779
 20
-1433.40906023662
 42
0.0209636179813061
 10
901.38693104452193
 20
-1433.4925283845525
 10
901.39456350496903
 20
-1433.4940802975536
 42
0.0181388704692483
 10
901.75288589696584
 20
-1433.5534963907674
 10
901.76116674534569
 20
-1433.5545625745847
 42
0.0156086547585227
 10
902.13935410952911
 20
-1433.5912987611609
 10
902.18254936186497
 20
-1433.5941372636405
 42
0.0137148329025668
 10
902.51022250716039
 20
-1433.6066575188916
 10
902.55615869709607
 20
-1433.6071519520067
 42
0.0051057823884368
 10
902.79230428367862
 20
-1433.6072822064161
 42
0.0052256693309733
 10
903.02840156745663
 20
-1433.6025333819518
 10
903.09862835120668
 20
-1433.6003864159377
 42
0.0161507179047175
 10
903.47436542930552
 20
-1433.5767360456114
 10
903.49437838968106
 20
-1433.5748258503236
 42
0.0101216737832836
 10
903.90840561117068
 20
-1433.5268329199582
 10
903.94245890059847
 20
-1433.5221852231484
 42
0.0245291776397707
 10
904.41924855614877
 20
-1433.4331101450723
 10
904.5040718716715
 20
-1433.4129142247268
 42
0.0143509212558185
 10
904.86070297561321
 20
-1433.3171095909474
 42
0.015655785704388
 10
905.21091904034279
 20
-1433.2000983751277
 10
905.21842025483511
 20
-1433.1973282133745
 42
0.0170137333630603
 10
905.5750162505143
 20
-1433.0516705985044
 10
905.58212017292396
 20
-1433.0484827629398
 42
0.0183105364409768
 10
905.94146984109068
 20
-1432.8711477211152
 10
905.94841660572899
 20
-1432.8673972862434
 42
0.0194899958152292
 10
906.30689734671557
 20
-1432.6554183043509
 10
906.31391122604964
 20
-1432.6508929620577
 42
0.0204869852948691
 10
906.66792552814229
 20
-1432.401372946973
 10
906.67519113673063
 20
-1432.3957928816235
 42
0.0212516938558291
 10
907.02118106784349
 20
-1432.1058888847244
 10
907.06769776191084
 20
-1432.0634215746384
 42
0.0215248918247673
 10
907.32772393080199
 20
-1431.8046572956405
 10
907.37275366518531
 20
-1431.7558131742878
 42
0.0114578554962877
 10
907.52754581885983
 20
-1431.5799902408326
 10
907.53874035485717
 20
-1431.5666714772744
 42
0.0061531305136017
 10
907.66521500084093
 20
-1431.4123819439815
 42
0.0006325587113608
 10
907.78959348487717
 20
-1431.2563785684508
 10
907.81263362004415
 20
-1431.2274050476462
 42
0.0041897761556277
 10
907.98108902402248
 20
-1431.0118856715771
 10
908.03955114390908
 20
-1430.9357843245994
 42
0.0092993880038686
 10
908.31616307113586
 20
-1430.5615055607109
 10
908.39855756433644
 20
-1430.4455685571399
 42
0.015932172708814
 10
908.74516404697408
 20
-1429.9233943363906
 10
908.78952018235964
 20
-1429.8517147721464
 42
0.0085547317018421
 10
909.02403194768885
 20
-1429.457839822916
 42
0.008460115688868
 10
909.24500812513236
 20
-1429.0562129738814
 10
909.25312359896134
 20
-1429.0408532916108
 42
0.0081429654284754
 10
909.47637286939653
 20
-1428.6011317790746
 10
909.48523303358286
 20
-1428.5829529370508
 42
0.0076574581329103
 10
909.71164054415249
 20
-1428.0997700617911
 10
909.72112018487326
 20
-1428.0787055834944
 42
0.0070682724199216
 10
909.95156509267883
 20
-1427.5466682787164
 10
909.96155537666175
 20
-1427.5226790897018
 42
0.0064559514448662
 10
910.19688858484335
 20
-1426.9363668231827
 10
910.20729794300837
 20
-1426.9094318977404
 42
0.0058311413909231
 10
910.4483446797758
 20
-1426.2633998033441
 10
910.4590997571587
 20
-1426.2335154621965
 42
0.0052312425818805
 10
910.70668103519949
 20
-1425.5223130483619
 10
910.71772487157932
 20
-1425.489486336292
 42
0.0046680544795935
 10
910.97265329930633
 20
-1424.7076600205608
 10
911.01464544936357
 20
-1424.5746767832256
 42
0.0041666856445607
 10
911.21793146175241
 20
-1423.9117080082397
 10
911.25559390240312
 20
-1423.7851269006301
 42
0.0015170975152198
 10
911.37678048082921
 20
-1423.3732585490923
 42
-0.0004887993119299
 10
911.49712025392319
 20
-1422.9611401371503
 10
911.57359751144736
 20
-1422.7001827511092
 42
0.0002583378926776
 10
911.84681208149289
 20
-1421.7661260479947
 10
911.92858493102722
 20
-1421.4860267885565
 42
0.0006636169669956
 10
912.12245269109962
 20
-1420.8186738647601
 10
912.12754934548354
 20
-1420.8010422817522
 42
0.0010589131323065
 10
912.30899804636329
 20
-1420.1683109388312
 10
912.31398011684155
 20
-1420.150798031819
 42
0.0015655524460951
 10
912.48225032402661
 20
-1419.5521813526102
 10
912.48708052442987
 20
-1419.5347891937165
 42
0.0021640440476934
 10
912.6413704964275
 20
-1418.9697621756563
 10
912.64600471586823
 20
-1418.9524974456222
 42
0.0028763871854463
 10
912.78552043391051
 20
-1418.4205294948154
 10
912.78990629808141
 20
-1418.4034055166467
 42
0.0037310511948207
 10
912.91386298991461
 20
-1417.9039579226369
 10
912.91793821020372
 20
-1417.8869976513911
 42
0.0047652197767983
 10
913.02556211071203
 20
-1417.4195198830864
 10
913.02925271003301
 20
-1417.4027603279471
 42
0.0060276699300779
 10
913.11978280918902
 20
-1416.9666845327922
 10
913.12300149947964
 20
-1416.9501833184752
 42
0.007582433776283
 10
913.19569080889369
 20
-1416.5449161540569
 10
913.19833618627422
 20
-1416.5287612066049
 42
0.009513062461142
 10
913.25245142190511
 20
-1416.1536718535344
 10
913.25943764578756
 20
-1416.0977382954186
 42
0.0121054653227166
 10
913.28602897636563
 20
-1415.8328424669442
 10
913.2868954661252
 20
-1415.8214390240141
 42
0.0069050827393424
 10
913.30198428416293
 20
-1415.5784977971707
 10
913.30311958383152
 20
-1415.5549715401251
 42
0.016906397670214
 10
913.30594686281165
 20
-1415.3587788128252
 10
913.30477621128011
 20
-1415.2984430514623
 42
0.0052007732912661
 10
913.30252276268743
 20
-1415.2228496613241
 42
0.0054038123300269
 10
913.28255925084636
 20
-1415.1028313653012
 10
913.27747339497819
 20
-1415.074172878733
 42
0.0112050460458438
 10
913.24208903291833
 20
-1414.8978464403879
 10
913.22426407087892
 20
-1414.818304853673
 42
0.0240764468013202
 10
913.13336670473234
 20
-1414.4880678181707
 10
913.11480794191903
 20
-1414.4314476531772
 42
0.0256812331836226
 10
912.97144502172978
 20
-1414.0597234469208
 10
912.96603559590847
 20
-1414.0475921119312
 42
0.0268360501215936
 10
912.79660835505854
 20
-1413.7165989779101
 10
912.79107194742357
 20
-1413.7070793075977
 42
0.0274670231726737
 10
912.59887097101023
 20
-1413.4147919326806
 10
912.59348967104802
 20
-1413.4075127851397
 42
0.0275035967099823
 10
912.38191679148576
 20
-1413.1519968948351
 10
912.37684729051978
 20
-1413.1465178072051
 42
0.0269557673522903
 10
912.14944374707966
 20
-1412.9258755212422
 10
912.14470068929688
 20
-1412.9217455667813
 42
0.0259124802211574
 10
911.90514585786627
 20
-1412.7340550396293
 10
911.90061501268497
 20
-1412.7308695372994
 42
0.024516215299966
 10
911.65269865958953
 20
-1412.5741365281883
 10
911.64817211326545
 20
-1412.5715763309877
 42
0.0229282588834384
 10
911.39575255643797
 20
-1412.4437081384885
 10
911.39097206260215
 20
-1412.441555838727
 42
0.0212984135693725
 10
911.13793411013944
 20
-1412.3403569214843
 10
911.13262982516972
 20
-1412.3384933587242
 42
0.0197555462340826
 10
910.88285148744694
 20
-1412.2616779407595
 42
0.0183511896787071
 10
910.62792276198184
 20
-1412.2040950337937
 10
910.54155756525995
 20
-1412.1878922434089
 42
0.0338057877151688
 10
910.25605021600052
 20
-1412.1540838382689
 10
910.16504481096092
 20
-1412.1495041830074
 42
0.0091990524488537
 10
910.05919770232458
 20
-1412.1461283270853
 42
0.0028333980775866
 10
909.95328378633644
 20
-1412.1453002195685
 10
909.95236833328227
 20
-1412.1452982497444
 42
-0.0023619827805774
 10
909.84462231815803
 20
-1412.1445574086658
 10
909.80821714800049
 20
-1412.1441351022031
 42
0.0008824598479558
 10
909.62766115817374
 20
-1412.1423593239649
 10
909.58379972574471
 20
-1412.1420053624392
 42
0.0038132665768074
 10
909.31551682988436
 20
-1412.1418864263724
 10
909.29898317507241
 20
-1412.1420051925161
 42
0.0060665569336312
 10
908.99770268346549
 20
-1412.1478254919373
 10
908.98345235145575
 20
-1412.1482737999045
 42
0.008035695333566
 10
908.65399363512518
 20
-1412.1639415219709
 10
908.64192362002927
 20
-1412.1647101049118
 42
0.0098996399107067
 10
908.28916053537978
 20
-1412.19419533411
 10
908.27911482600371
 20
-1412.1952356303082
 42
0.0117740981369267
 10
907.90795796765065
 20
-1412.2425278778387
 10
907.8997352711724
 20
-1412.2437729944088
 42
0.0137435215135636
 10
907.51514645168459
 20
-1412.312869967971
 10
907.5084894125639
 20
-1412.3142558642039
 42
0.0158359869383291
 10
907.11549231876256
 20
-1412.4091479526844
 10
907.11007913189428
 20
-1412.4106378935553
 42
0.0180554124024486
 10
906.71376408728599
 20
-1412.5352759097925
 10
906.70920729919851
 20
-1412.5368919460602
 42
0.0203657431284249
 10
906.3147297813864
 20
-1412.6951522875765
 10
906.31058624237983
 20
-1412.6970139090181
 42
0.0226819684654048
 10
905.9231501861783
 20
-1412.8926564876876
 10
905.91895039515805
 20
-1412.8950220796087
 42
0.0248634984603837
 10
905.54376845397769
 20
-1413.1316487255554
 10
905.49557352519412
 20
-1413.1655057673809
 42
0.026704419088273
 10
905.22128082827635
 20
-1413.3809461432497
 42
0.0139303002201394
 10
904.96511366233131
 20
-1413.618184984168
 10
904.96026027661662
 20
-1413.6229376470219
 42
0.0283460963440134
 10
904.71618768239034
 20
-1413.8906683074658
 10
904.67651917723288
 20
-1413.9394698849401
 42
0.0070695364826246
 10
904.59908195137302
 20
-1414.0375367009055
 42
0.0070695364826246
  0
LWPOLYLINE
  5
62
100
AcDbEntity
  8
0
370
              15
390
0
  6
Continuous
 62
               7
100
AcDbPolyline
 90
      226
 70
             128
 10
901.07026151412663
 20
-1429.7591255070895
 42
-0.0026277636592586
 10
901.0701836303266
 20
-1429.6923535813021
 10
901.07040098855862
 20
-1429.6391983639032
 42
-0.0088680296730168
 10
901.07417760485168
 20
-1429.466182581499
 10
901.07652396396406
 20
-1429.4069025560466
 42
-0.0077381705616285
 10
901.09257007472627
 20
-1429.1156420602622
 10
901.09343798590032
 20
-1429.1033538265633
 42
-0.0068872530530494
 10
901.12007006564795
 20
-1428.7881320744993
 10
901.12127428983456
 20
-1428.7758910954758
 42
-0.0062130021489286
 10
901.15886800666306
 20
-1428.4370214042315
 10
901.16037191019745
 20
-1428.4248475323207
 42
-0.0056726929662965
 10
901.20929376970139
 20
-1428.0626523101962
 10
901.2110672153442
 20
-1428.0505585099618
 42
-0.0052341884493336
 10
901.27167780160505
 20
-1427.6653652544383
 10
901.27369579038077
 20
-1427.6533603244516
 42
-0.0049768450169121
 10
901.34643447180611
 20
-1427.2455157570248
 10
901.37068348652895
 20
-1427.1169677740131
 42
-0.0089029805628306
 10
901.50776433832107
 20
-1426.4551923266026
 10
901.54050971364222
 20
-1426.3101608960671
 42
-0.0080318257099852
 10
901.77005832798159
 20
-1425.3644512642186
 10
901.78204325443119
 20
-1425.3183206290232
 42
-0.007426572131788
 10
902.06605479328232
 20
-1424.2882560506389
 10
902.08593433639601
 20
-1424.2201219900599
 42
-0.0069711922702514
 10
902.41323891490447
 20
-1423.1538542497256
 10
902.47319086201378
 20
-1422.9678328913433
 42
-0.0052070422894824
 10
902.70261608726923
 20
-1422.2805608143235
 10
902.71989727943276
 20
-1422.2305335337317
 42
-0.000916700444862
 10
902.92298916673099
 20
-1421.6460776855524
 42
-0.0025162726944979
 10
903.13008679698794
 20
-1421.0630364214053
 10
903.16731140880245
 20
-1420.9598868754745
 42
-0.0028212681456844
 10
903.41548732776209
 20
-1420.2841562433132
 10
903.42531809051945
 20
-1420.2578487986184
 42
-0.0031964916819092
 10
903.66161034817503
 20
-1419.6376440365095
 10
903.6712448021616
 20
-1419.6128340463981
 42
-0.0036281836454107
 10
903.89635076327522
 20
-1419.045393365473
 10
903.90578917342918
 20
-1419.0220959339788
 42
-0.0041269166835557
 10
904.12040687009187
 20
-1418.5046550379921
 10
904.15303982650926
 20
-1418.4277765916388
 42
-0.0047472213057032
 10
904.31008463206626
 20
-1418.0673551237476
 10
904.31697871327901
 20
-1418.0519345264054
 42
-0.0025651659995044
 10
904.46533674712464
 20
-1417.7246064706671
 42
-0.0057144634997792
 10
904.61908644089601
 20
-1417.3997967973044
 10
904.64711714629755
 20
-1417.3422884149097
 42
-0.0065388068374019
 10
904.83058417403697
 20
-1416.9780559182454
 10
904.83904262981844
 20
-1416.9617963388703
 42
-0.0074510843022878
 10
905.01522487569332
 20
-1416.6351080577533
 10
905.02340454622595
 20
-1416.6204672804818
 42
-0.0084648979864364
 10
905.19303839932445
 20
-1416.3285582695232
 10
905.20089452581703
 20
-1416.3155512778649
 42
-0.0095638542805936
 10
905.36472997340672
 20
-1416.0556624058938
 10
905.37220491707262
 20
-1416.0442930444472
 42
-0.0107191626807284
 10
905.53100649746602
 20
-1415.8136818098942
 10
905.53802323119817
 20
-1415.803945717528
 42
-0.0118458573900095
 10
905.69257132970961
 20
-1415.599873522219
 42
-0.0129184518204077
 10
905.85702395330566
 20
-1415.4037130060551
 10
905.88716872567431
 20
-1415.3695869271492
 42
-0.0217742579631984
 10
906.06378104800956
 20
-1415.1863801568988
 10
906.07452659247826
 20
-1415.1761633236881
 42
-0.0097266568646116
 10
906.24058421132577
 20
-1415.0243157492587
 42
-0.0187720905717993
 10
906.41493178721464
 20
-1414.8822468958699
 10
906.44563777789176
 20
-1414.8590878134717
 42
-0.0179428207518815
 10
906.67805849788556
 20
-1414.6965356363617
 10
906.68171082479842
 20
-1414.6941717014759
 42
-0.0170047877703987
 10
906.91747446233171
 20
-1414.5527111873225
 10
906.92125745107865
 20
-1414.550612882286
 42
-0.0160190788371103
 10
907.15816599871357
 20
-1414.4289615802982
 42
-0.015110286148884
 10
907.40219778116602
 20
-1414.322278804241
 10
907.45458428337201
 20
-1414.3012386713488
 42
-0.0271945441887985
 10
907.81324684242998
 20
-1414.179373860643
 10
907.88231164291835
 20
-1414.1600243193764
 42
-0.0237596594019404
 10
908.29810848994089
 20
-1414.0645736073948
 10
908.36617134366816
 20
-1414.0523189192686
 42
-0.0213715440555312
 10
908.65204627511662
 20
-1414.0133718877582
 10
908.71219344133829
 20
-1414.007782173057
 42
-0.0101465655812862
 10
908.87968597332872
 20
-1413.9956386297931
 10
908.88902635952593
 20
-1413.9951517147958
 42
-0.0100375910874316
 10
909.03818046008951
 20
-1413.9903758968708
 10
909.04843972976664
 20
-1413.9902534578564
 42
-0.0103625633384
 10
909.17714772442469
 20
-1413.9913848913829
 10
909.19941337568719
 20
-1413.9920422498476
 42
-0.0115689250227195
 10
909.28346411321957
 20
-1413.9964717560929
 42
-0.0072438037429153
 10
909.36730239265626
 20
-1414.0040609558421
 10
909.38410290213153
 20
-1414.0058274985665
 42
-0.0217917313134008
 10
909.50067266544625
 20
-1414.0232473912879
 10
909.56627275601375
 20
-1414.0359939997024
 42
-0.0332943556752975
 10
909.77066492104018
 20
-1414.090034291009
 10
909.80083748959123
 20
-1414.1002023681278
 42
-0.0184824084790047
 10
909.93934254605574
 20
-1414.152653383514
 42
-0.0198002050687928
 10
910.07341688655583
 20
-1414.2155374437139
 10
910.07530352393201
 20
-1414.2165152305934
 42
-0.0212242342976828
 10
910.20744246633365
 20
-1414.2922779693863
 10
910.20925776187732
 20
-1414.2934237715949
 42
-0.0226090605798256
 10
910.33776166309849
 20
-1414.3829034151588
 10
910.33960610483655
 20
-1414.3843156681469
 42
-0.0238457052246598
 10
910.46278818612905
 20
-1414.4883115640089
 10
910.46474091468849
 20
-1414.4901264417754
 42
-0.0248160564163657
 10
910.58094242198933
 20
-1414.6094010429845
 10
910.58304605539115
 20
-1414.6117863766885
 42
-0.0254109591449676
 10
910.69065127325678
 20
-1414.7470747626523
 10
910.69289929517117
 20
-1414.7502163110535
 42
-0.025552848828042
 10
910.79034597396935
 20
-1414.9022433652892
 10
910.79267707388453
 20
-1414.9063249768951
 42
-0.0252146793221905
 10
910.87845809989346
 20
-1415.0758272228918
 10
910.88076033905122
 20
-1415.0810093048051
 42
-0.0244265635948102
 10
910.95341503281293
 20
-1415.2687558768521
 10
910.9626614342809
 20
-1415.2966212951887
 42
-0.023131961290749
 10
911.00858421327314
 20
-1415.4599223419912
 42
-0.0112130424367973
 10
911.04322023581051
 20
-1415.6261259421747
 10
911.04442276092391
 20
-1415.6326225290672
 42
-0.0210527881238515
 10
911.07010923629457
 20
-1415.813678174507
 10
911.0736198311165
 20
-1415.8490837230556
 42
-0.0190029892425643
 10
911.08906130466107
 20
-1416.1026195693255
 10
911.08987128110516
 20
-1416.1380951836968
 42
-0.0137974553660023
 10
911.08832242826952
 20
-1416.4631265904331
 10
911.08747697331421
 20
-1416.4892453350174
 42
-0.0081336634215661
 10
911.07261763809151
 20
-1416.7945928026224
 42
-0.007352692356523
 10
911.0483091047164
 20
-1417.0993410469127
 10
911.04704768093416
 20
-1417.1126777215736
 42
-0.0066886138690936
 10
911.01131209488699
 20
-1417.4432637650766
 10
911.0096550054177
 20
-1417.4568853840624
 42
-0.0061359187354635
 10
910.96180440336536
 20
-1417.8136493641725
 10
910.95976690229395
 20
-1417.8275441669916
 42
-0.005669861006444
 10
910.89911657152743
 20
-1418.2108227358274
 10
910.89671113820395
 20
-1418.2249818550604
 42
-0.0052721077276997
 10
910.82257893740598
 20
-1418.6351091947292
 10
910.81981578856255
 20
-1418.6495258301243
 42
-0.0049289272174715
 10
910.73152167046192
 20
-1419.086834341249
 10
910.72840917577992
 20
-1419.1015031940624
 42
-0.0047415956710064
 10
910.62517118424603
 20
-1419.5662999514802
 10
910.59040297388788
 20
-1419.7161070468562
 42
-0.0084404470901159
 10
910.40038653031718
 20
-1420.4763310713831
 10
910.39425984233037
 20
-1420.4991951955408
 42
-0.0039635940256837
 10
910.1728061580402
 20
-1421.3001840598097
 10
910.15942936286683
 20
-1421.3471156763799
 42
-0.0072475040836284
 10
909.89198247500281
 20
-1422.2363353927735
 10
909.82177014817842
 20
-1422.4580757427359
 42
-0.0051345458829329
 10
909.53501077611747
 20
-1423.3324009305534
 10
909.51348450934677
 20
-1423.3958271976928
 42
-0.001915001660225
 10
909.25795110248328
 20
-1424.1393763179094
 10
909.25148349809081
 20
-1424.1579637828197
 42
-0.0021524362751946
 10
909.00300544702327
 20
-1424.862289604539
 10
908.99379502631484
 20
-1424.8880431828741
 42
-0.0024331286817961
 10
908.75753976729084
 20
-1425.5386424909584
 10
908.74849181474769
 20
-1425.5631857972926
 42
-0.0027449721791989
 10
908.52387724390485
 20
-1426.1623156762373
 10
908.51498723651332
 20
-1426.1856382660876
 42
-0.0031083229767954
 10
908.30144474990266
 20
-1426.7355623036692
 10
908.29270861822602
 20
-1426.7576520195298
 42
-0.0035311343281638
 10
908.08966743263522
 20
-1427.2606351452571
 10
908.0810820934887
 20
-1427.2814778687648
 42
-0.0040245640949653
 10
907.88797028969316
 20
-1427.7397871913599
 10
907.87953417609367
 20
-1427.7593665594238
 42
-0.0046015135851749
 10
907.69577788292634
 20
-1428.1752715890741
 10
907.68749170509113
 20
-1428.1935687285415
 42
-0.0052768638265712
 10
907.51251418614243
 20
-1428.5693416127965
 10
907.50438197551057
 20
-1428.58633495135
 42
-0.0060672675641962
 10
907.33760236274952
 20
-1428.9242505744539
 10
907.32963288226927
 20
-1428.9399158334488
 42
-0.0069904648871921
 10
907.17046448826659
 20
-1429.2422516401148
 10
907.16267308864724
 20
-1429.2565621893577
 42
-0.0080637022763506
 10
907.01052122830993
 20
-1429.5255974924953
 10
907.00293219568016
 20
-1429.5385253580937
 42
-0.0093006455664095
 10
906.85719151914714
 20
-1429.776539756599
 10
906.84984085240706
 20
-1429.7880577257665
 42
-0.0107060778059674
 10
906.70989230896498
 20
-1429.9973280431514
 10
906.70283054068977
 20
-1430.007413585711
 42
-0.0122723111417875
 10
906.56803682248733
 20
-1430.1902069152061
 10
906.56771059893947
 20
-1430.1906273030077
 42
-0.0141836319638655
 10
906.42412899595911
 20
-1430.3651970608453
 10
906.41718124030751
 20
-1430.3731720611097
 42
-0.0175957477210289
 10
906.27727507227246
 20
-1430.522792949515
 42
-0.0080466359677905
 10
906.12981130724302
 20
-1430.6651154776655
 10
906.08377676272482
 20
-1430.7081359157573
 42
-0.0269600260395259
 10
905.83049651674537
 20
-1430.9204591742639
 10
905.76392938044671
 20
-1430.9704105888891
 42
-0.0178362839753619
 10
905.52398489078905
 20
-1431.1374285151428
 10
905.51673991978714
 20
-1431.1420970273487
 42
-0.0174650732649158
 10
905.28040372234727
 20
-1431.2829579923068
 42
-0.0169240130164863
 10
905.03493747649202
 20
-1431.4072502520833
 10
904.98895132093185
 20
-1431.4286122076514
 42
-0.031888303684069
 10
904.63860046531215
 20
-1431.5649505171614
 10
904.57023493014765
 20
-1431.5866511376369
 42
-0.0284435909903088
 10
904.19418480385605
 20
-1431.6828685731116
 10
904.1590266433559
 20
-1431.6897621689404
 42
-0.0243909341012917
 10
903.84558318243853
 20
-1431.7354831999703
 10
903.79530245566889
 20
-1431.7403287468719
 42
-0.0196639292929877
 10
903.57970687814009
 20
-1431.7525770323855
 10
903.52788280697405
 20
-1431.7534802931223
 42
-0.0100501510681149
 10
903.41545952531237
 20
-1431.7531798947691
 10
903.38379966401158
 20
-1431.7524588228848
 42
-0.0019752031126428
 10
903.33470732728699
 20
-1431.7511466626743
 10
903.33194702406513
 20
-1431.751061970848
 42
0.0065378752010214
 10
903.28837044931015
 20
-1431.7502950796329
 42
-0.0167974694678619
 10
903.24483962638362
 20
-1431.7486351811071
 10
903.24076028711625
 20
-1431.7483421702118
 42
-0.0081283276277235
 10
903.18920048937207
 20
-1431.7437951765735
 10
903.17746091549907
 20
-1431.7425672589957
 42
-0.0126703440173712
 10
903.10274261970801
 20
-1431.7328324679247
 10
903.07995475202893
 20
-1431.7292742120089
 42
-0.0117852088438673
 10
902.96041576619564
 20
-1431.7077112168515
 10
902.90503531443346
 20
-1431.6963676766172
 42
-0.0251774592291841
 10
902.67819127542327
 20
-1431.6378696671836
 10
902.63347208557366
 20
-1431.623902847849
 42
-0.0146525199877893
 10
902.44707909803606
 20
-1431.559636320651
 42
-0.0166929435856815
 10
902.26510144190513
 20
-1431.4838291875942
 10
902.26044481063627
 20
-1431.4817042869822
 42
-0.0191684358438232
 10
902.07526117938914
 20
-1431.3884682031933
 10
902.07192859362999
 20
-1431.3866269556388
 42
-0.0221181781813673
 10
901.88861828972722
 20
-1431.2744934572677
 10
901.88626848571937
 20
-1431.2729091592771
 42
-0.0254984685380255
 10
901.70997833533409
 20
-1431.1404980093075
 10
901.6874961876332
 20
-1431.121745700372
 42
-0.0292492648812194
 10
901.56272724878909
 20
-1431.0046529007282
 42
-0.0159048957499822
 10
901.44888725134012
 20
-1430.8766329091306
 10
901.44756846075961
 20
-1430.8750512961092
 42
-0.034381337955325
 10
901.34493119913282
 20
-1430.7331799703386
 10
901.31343966777251
 20
-1430.6826765782455
 42
-0.0369117275700832
 10
901.22754716587531
 20
-1430.5191993372971
 42
-0.0191751379906414
 10
901.16035378031745
 20
-1430.3467947312886
 10
901.15859045655884
 20
-1430.3417013866163
 42
-0.0378178042223689
 10
901.10879573777481
 20
-1430.1527606105362
 10
901.10280044204421
 20
-1430.1201999923376
 42
-0.0184846046475025
 10
901.08208324274983
 20
-1429.9784471717931
 42
-0.0179866351323916
 10
901.07175023767616
 20
-1429.8355563587108
 10
901.07169379523043
 20
-1429.8339986720994
 42
-0.0085497186109058
 10
901.07026151412663
 20
-1429.7591255070895
 42
-0.0085497186109058
  0
ENDBLK
  5
63
100
AcDbEntity
  8
template
390
0
100
AcDbBlockEnd
  0
BLOCK
  5
64
100
AcDbEntity
  8
notes
390
0
100
AcDbBlockBegin
  2
*D3
 70
               1
 10
0.0
 20
0.0
 30
0.0
  3
*D3
  1

  0
LINE
  5
65
100
AcDbEntity
  8
0
370
              -2
390
0
  6
Continuous
 62
               0
100
AcDbLine
 10
652.01396954109475
 20
-432.1397937231668
 30
0.0
 11
652.01396954109475
 21
-632.1397937231668
 31
0.0
  0
LINE
  5
66
100
AcDbEntity
  8
0
370
              -2
390
0
  6
Continuous
 62
               0
100
AcDbLine
 10
561.9680501872233
 20
-557.1397937231668
 30
0.0
 11
561.9680501872233
 21
-632.1397937231668
 31
0.0
  0
LINE
  5
67
100
AcDbEntity
  8
0
370
              -2
390
0
  6
Continuous
 62
               0
100
AcDbLine
 10
652.01396954109475
 20
-632.1397937231668
 30
0.0
 11
561.9680501872233
 21
-632.1397937231668
 31
0.0
  0
CIRCLE
  5
68
102
{ACAD_REACTORS
330
69
102
}
100
AcDbEntity
  8
0
370
              -2
390
0
  6
Continuous
 62
               0
100
AcDbCircle
 10
652.01396954109475
 20
-632.1397937231668
 30
0.0
 40
1.9998779296875
  0
HATCH
  5
69
100
AcDbEntity
  8
0
370
              -2
390
0
  6
Continuous
 62
               0
100
AcDbHatch
 10
0.0
 20
0.0
 30
0.0
210
0.0
220
0.0
230
1.0
  2
SOLID
 70
               1
 71
               1
 91
        1
 92
        1
 93
        1
 72
               2
 10
652.01396954109475
 20
-632.1397937231668
 40
1.9998779296875
 50
0.0
 51
360.0
 73
               0
 97
        1
330
68
 75
               0
 76
               1
 98
        1
 10
0.0
 20
0.0
  0
CIRCLE
  5
6A
102
{ACAD_REACTORS
330
6B
102
}
100
AcDbEntity
  8
0
370
              -2
390
0
  6
Continuous
 62
               0
100
AcDbCircle
 10
561.9680501872233
 20
-632.1397937231668
 30
0.0
 40
1.9998779296875
  0
HATCH
  5
6B
100
AcDbEntity
  8
0
370
              -2
390
0
  6
Continuous
 62
               0
100
AcDbHatch
 10
0.0
 20
0.0
 30
0.0
210
0.0
220
0.0
230
1.0
  2
SOLID
 70
               1
 71
               1
 91
        1
 92
        1
 93
        1
 72
               2
 10
561.9680501872233
 20
-632.1397937231668
 40
1.9998779296875
 50
0.0
 51
360.0
 73
               0
 97
        1
330
6A
 75
               0
 76
               1
 98
        1
 10
0.0
 20
0.0
  0
MTEXT
  5
6C
100
AcDbEntity
  8
0
390
0
 62
               0
100
AcDbMText
 10
591.11600986415897
 20
-598.26217653566687
 30
0.0
 40
24.432617187500004
 41
0.0
 71
               1
 72
               1
  1
90
  7
ＭＳ ゴシック
 73
               1
 44
0.7828267384257843
  0
POINT
  5
6D
100
AcDbEntity
  8
Defpoints
370
               0
390
0
 62
               0
100
AcDbPoint
 10
561.9680501872233
 20
-532.1397937231668
 30
0.0
  0
POINT
  5
6E
100
AcDbEntity
  8
Defpoints
370
               0
390
0
 62
               0
100
AcDbPoint
 10
652.01396954109475
 20
-407.1397937231668
 30
0.0
  0
POINT
  5
6F
100
AcDbEntity
  8
Defpoints
370
               0
390
0
 62
               0
100
AcDbPoint
 10
652.01396954109475
 20
-632.1397937231668
 30
0.0
  0
ENDBLK
  5
70
100
AcDbEntity
  8
notes
390
0
100
AcDbBlockEnd
  0
BLOCK
  5
71
100
AcDbEntity
  8
notes
390
0
100
AcDbBlockBegin
  2
*D4
 70
               1
 10
0.0
 20
0.0
 30
0.0
  3
*D4
  1

  0
LINE
  5
72
100
AcDbEntity
  8
0
370
              -2
390
0
  6
Continuous
 62
               0
100
AcDbLine
 10
-727.48795689414078
 20
838.78240416038511
 30
0.0
 11
-727.48795689414078
 21
943.78240416038511
 31
0.0
  0
LINE
  5
73
100
AcDbEntity
  8
0
370
              -2
390
0
  6
Continuous
 62
               0
100
AcDbLine
 10
-202.48795689414075
 20
838.78240416038511
 30
0.0
 11
-202.48795689414075
 21
943.78240416038511
 31
0.0
  0
LINE
  5
74
100
AcDbEntity
  8
0
370
              -2
390
0
  6
Continuous
 62
               0
100
AcDbLine
 10
-727.48795689414078
 20
943.78240416038511
 30
0.0
 11
-202.48795689414075
 21
943.78240416038511
 31
0.0
  0
CIRCLE
  5
75
102
{ACAD_REACTORS
330
76
102
}
100
AcDbEntity
  8
0
370
              -2
390
0
  6
Continuous
 62
               0
100
AcDbCircle
 10
-727.48795689414078
 20
943.78240416038511
 30
0.0
 40
1.9998779296875
  0
HATCH
  5
76
100
AcDbEntity
  8
0
370
              -2
390
0
  6
Continuous
 62
               0
100
AcDbHatch
 10
0.0
 20
0.0
 30
0.0
210
0.0
220
0.0
230
1.0
  2
SOLID
 70
               1
 71
               1
 91
        1
 92
        1
 93
        1
 72
               2
 10
-727.48795689414078
 20
943.78240416038511
 40
1.9998779296875
 50
0.0
 51
360.0
 73
               0
 97
        1
330
75
 75
               0
 76
               1
 98
        1
 10
0.0
 20
0.0
  0
CIRCLE
  5
77
102
{ACAD_REACTORS
330
78
102
}
100
AcDbEntity
  8
0
370
              -2
390
0
  6
Continuous
 62
               0
100
AcDbCircle
 10
-202.48795689414075
 20
943.78240416038511
 30
0.0
 40
1.9998779296875
  0
HATCH
  5
78
100
AcDbEntity
  8
0
370
              -2
390
0
  6
Continuous
 62
               0
100
AcDbHatch
 10
0.0
 20
0.0
 30
0.0
210
0.0
220
0.0
230
1.0
  2
SOLID
 70
               1
 71
               1
 91
        1
 92
        1
 93
        1
 72
               2
 10
-202.48795689414075
 20
943.78240416038511
 40
1.9998779296875
 50
0.0
 51
360.0
 73
               0
 97
        1
330
77
 75
               0
 76
               1
 98
        1
 10
0.0
 20
0.0
  0
MTEXT
  5
79
100
AcDbEntity
  8
0
390
0
 62
               0
100
AcDbMText
 10
-488.80045857631626
 20
977.66002134788528
 30
0.0
 40
24.432617187500004
 41
0.0
 71
               1
 72
               1
  1
525
  7
ＭＳ ゴシック
 73
               1
 44
0.7828267384257843
  0
POINT
  5
7A
100
AcDbEntity
  8
Defpoints
370
               0
390
0
 62
               0
100
AcDbPoint
 10
-202.48795689414075
 20
813.78240416038511
 30
0.0
  0
POINT
  5
7B
100
AcDbEntity
  8
Defpoints
370
               0
390
0
 62
               0
100
AcDbPoint
 10
-727.48795689414078
 20
813.78240416038511
 30
0.0
  0
POINT
  5
7C
100
AcDbEntity
  8
Defpoints
370
               0
390
0
 62
               0
100
AcDbPoint
 10
-727.48795689414078
 20
943.78240416038511
 30
0.0
  0
ENDBLK
  5
7D
100
AcDbEntity
  8
notes
390
0
100
AcDbBlockEnd
  0
BLOCK
  5
7E
100
AcDbEntity
  8
notes
390
0
100
AcDbBlockBegin
  2
*D5
 70
               1
 10
0.0
 20
0.0
 30
0.0
  3
*D5
  1

  0
LINE
  5
7F
100
AcDbEntity
  8
0
370
              -2
390
0
  6
Continuous
 62
               0
100
AcDbLine
 10
-212.50604719764007
 20
848.79999999999995
 30
0.0
 11
-107.48795689414086
 21
848.79999999999995
 31
0.0
  0
LINE
  5
80
100
AcDbEntity
  8
0
370
              -2
390
0
  6
Continuous
 62
               0
100
AcDbLine
 10
-212.48795689414104
 20
493.78240416038517
 30
0.0
 11
-107.48795689414086
 21
493.78240416038517
 31
0.0
  0
LINE
  5
81
100
AcDbEntity
  8
0
370
              -2
390
0
  6
Continuous
 62
               0
100
AcDbLine
 10
-107.48795689414086
 20
848.79999999999995
 30
0.0
 11
-107.48795689414086
 21
493.78240416038517
 31
0.0
  0
CIRCLE
  5
82
102
{ACAD_REACTORS
330
83
102
}
100
AcDbEntity
  8
0
370
              -2
390
0
  6
Continuous
 62
               0
100
AcDbCircle
 10
-107.48795689414086
 20
848.79999999999995
 30
0.0
 40
1.9998779296875
  0
HATCH
  5
83
100
AcDbEntity
  8
0
370
              -2
390
0
  6
Continuous
 62
               0
100
AcDbHatch
 10
0.0
 20
0.0
 30
0.0
210
0.0
220
0.0
230
1.0
  2
SOLID
 70
               1
 71
               1
 91
        1
 92
        1
 93
        1
 72
               2
 10
-107.48795689414086
 20
848.79999999999995
 40
1.9998779296875
 50
0.0
 51
360.0
 73
               0
 97
        1
330
82
 75
               0
 76
               1
 98
        1
 10
0.0
 20
0.0
  0
CIRCLE
  5
84
102
{ACAD_REACTORS
330
85
102
}
100
AcDbEntity
  8
0
370
              -2
390
0
  6
Continuous
 62
               0
100
AcDbCircle
 10
-107.48795689414086
 20
493.78240416038517
 30
0.0
 40
1.9998779296875
  0
HATCH
  5
85
100
AcDbEntity
  8
0
370
              -2
390
0
  6
Continuous
 62
               0
100
AcDbHatch
 10
0.0
 20
0.0
 30
0.0
210
0.0
220
0.0
230
1.0
  2
SOLID
 70
               1
 71
               1
 91
        1
 92
        1
 93
        1
 72
               2
 10
-107.48795689414086
 20
493.78240416038517
 40
1.9998779296875
 50
0.0
 51
360.0
 73
               0
 97
        1
330
84
 75
               0
 76
               1
 98
        1
 10
0.0
 20
0.0
  0
MTEXT
  5
86
100
AcDbEntity
  8
0
390
0
 62
               0
100
AcDbMText
 10
-141.36557408164086
 20
647.47870039801705
 30
0.0
 40
24.432617187500004
 41
0.0
 71
               1
 72
               1
  1
355
  7
ＭＳ ゴシック
 11
0.0
 21
1.0
 31
0.0
 73
               1
 44
0.7828267384257843
  0
POINT
  5
87
100
AcDbEntity
  8
Defpoints
370
               0
390
0
 62
               0
100
AcDbPoint
 10
-237.48795689414104
 20
493.78240416038517
 30
0.0
  0
POINT
  5
88
100
AcDbEntity
  8
Defpoints
370
               0
390
0
 62
               0
100
AcDbPoint
 10
-237.50604719764007
 20
848.79999999999995
 30
0.0
  0
POINT
  5
89
100
AcDbEntity
  8
Defpoints
370
               0
390
0
 62
               0
100
AcDbPoint
 10
-107.48795689414086
 20
848.79999999999995
 30
0.0
  0
ENDBLK
  5
8A
100
AcDbEntity
  8
notes
390
0
100
AcDbBlockEnd
  0
BLOCK
  5
8B
100
AcDbEntity
  8
notes
390
0
100
AcDbBlockBegin
  2
*D6
 70
               1
 10
0.0
 20
0.0
 30
0.0
  3
*D6
  1

  0
LINE
  5
8C
100
AcDbEntity
  8
0
370
              -2
390
0
  6
Continuous
 62
               0
100
AcDbLine
 10
-707.48795689414078
 20
470.49813291292327
 30
0.0
 11
-707.48795689414078
 21
378.80000000000001
 31
0.0
  0
LINE
  5
8D
100
AcDbEntity
  8
0
370
              -2
390
0
  6
Continuous
 62
               0
100
AcDbLine
 10
-222.48795689414075
 20
473.78240416038517
 30
0.0
 11
-222.48795689414075
 21
378.80000000000001
 31
0.0
  0
LINE
  5
8E
100
AcDbEntity
  8
0
370
              -2
390
0
  6
Continuous
 62
               0
100
AcDbLine
 10
-707.48795689414078
 20
378.80000000000001
 30
0.0
 11
-222.48795689414075
 21
378.80000000000001
 31
0.0
  0
CIRCLE
  5
8F
102
{ACAD_REACTORS
330
90
102
}
100
AcDbEntity
  8
0
370
              -2
390
0
  6
Continuous
 62
               0
100
AcDbCircle
 10
-707.48795689414078
 20
378.80000000000001
 30
0.0
 40
1.9998779296875
  0
HATCH
  5
90
100
AcDbEntity
  8
0
370
              -2
390
0
  6
Continuous
 62
               0
100
AcDbHatch
 10
0.0
 20
0.0
 30
0.0
210
0.0
220
0.0
230
1.0
  2
SOLID
 70
               1
 71
               1
 91
        1
 92
        1
 93
        1
 72
               2
 10
-707.48795689414078
 20
378.80000000000001
 40
1.9998779296875
 50
0.0
 51
360.0
 73
               0
 97
        1
330
8F
 75
               0
 76
               1
 98
        1
 10
0.0
 20
0.0
  0
CIRCLE
  5
91
102
{ACAD_REACTORS
330
92
102
}
100
AcDbEntity
  8
0
370
              -2
390
0
  6
Continuous
 62
               0
100
AcDbCircle
 10
-222.48795689414075
 20
378.80000000000001
 30
0.0
 40
1.9998779296875
  0
HATCH
  5
92
100
AcDbEntity
  8
0
370
              -2
390
0
  6
Continuous
 62
               0
100
AcDbHatch
 10
0.0
 20
0.0
 30
0.0
210
0.0
220
0.0
230
1.0
  2
SOLID
 70
               1
 71
               1
 91
        1
 92
        1
 93
        1
 72
               2
 10
-222.48795689414075
 20
378.80000000000001
 40
1.9998779296875
 50
0.0
 51
360.0
 73
               0
 97
        1
330
91
 75
               0
 76
               1
 98
        1
 10
0.0
 20
0.0
  0
MTEXT
  5
93
100
AcDbEntity
  8
0
390
0
 62
               0
100
AcDbMText
 10
-488.80045857631626
 20
412.6776171875
 30
0.0
 40
24.432617187500004
 41
0.0
 71
               1
 72
               1
  1
485
  7
ＭＳ ゴシック
 73
               1
 44
0.7828267384257843
  0
POINT
  5
94
100
AcDbEntity
  8
Defpoints
370
               0
390
0
 62
               0
100
AcDbPoint
 10
-222.48795689414075
 20
498.78240416038517
 30
0.0
  0
POINT
  5
95
100
AcDbEntity
  8
Defpoints
370
               0
390
0
 62
               0
100
AcDbPoint
 10
-707.48795689414078
 20
495.49813291292327
 30
0.0
  0
POINT
  5
96
100
AcDbEntity
  8
Defpoints
370
               0
390
0
 62
               0
100
AcDbPoint
 10
-707.48795689414078
 20
378.80000000000001
 30
0.0
  0
ENDBLK
  5
97
100
AcDbEntity
  8
notes
390
0
100
AcDbBlockEnd
  0
BLOCK
  5
98
100
AcDbEntity
  8
notes
390
0
100
AcDbBlockBegin
  2
*D7
 70
               1
 10
0.0
 20
0.0
 30
0.0
  3
*D7
  1

  0
LINE
  5
99
100
AcDbEntity
  8
0
370
              -2
390
0
  6
Continuous
 62
               0
100
AcDbLine
 10
-750.79653335780893
 20
828.78240416038511
 30
0.0
 11
-827.48795689414078
 21
828.78240416038511
 31
0.0
  0
LINE
  5
9A
100
AcDbEntity
  8
0
370
              -2
390
0
  6
Continuous
 62
               0
100
AcDbLine
 10
-747.48795689414078
 20
513.78240416038511
 30
0.0
 11
-827.48795689414078
 21
513.78240416038511
 31
0.0
  0
LINE
  5
9B
100
AcDbEntity
  8
0
370
              -2
390
0
  6
Continuous
 62
               0
100
AcDbLine
 10
-827.48795689414078
 20
828.78240416038511
 30
0.0
 11
-827.48795689414078
 21
513.78240416038511
 31
0.0
  0
CIRCLE
  5
9C
102
{ACAD_REACTORS
330
9D
102
}
100
AcDbEntity
  8
0
370
              -2
390
0
  6
Continuous
 62
               0
100
AcDbCircle
 10
-827.48795689414078
 20
828.78240416038511
 30
0.0
 40
1.9998779296875
  0
HATCH
  5
9D
100
AcDbEntity
  8
0
370
              -2
390
0
  6
Continuous
 62
               0
100
AcDbHatch
 10
0.0
 20
0.0
 30
0.0
210
0.0
220
0.0
230
1.0
  2
SOLID
 70
               1
 71
               1
 91
        1
 92
        1
 93
        1
 72
               2
 10
-827.48795689414078
 20
828.78240416038511
 40
1.9998779296875
 50
0.0
 51
360.0
 73
               0
 97
        1
330
9C
 75
               0
 76
               1
 98
        1
 10
0.0
 20
0.0
  0
CIRCLE
  5
9E
102
{ACAD_REACTORS
330
9F
102
}
100
AcDbEntity
  8
0
370
              -2
390
0
  6
Continuous
 62
               0
100
AcDbCircle
 10
-827.48795689414078
 20
513.78240416038511
 30
0.0
 40
1.9998779296875
  0
HATCH
  5
9F
100
AcDbEntity
  8
0
370
              -2
390
0
  6
Continuous
 62
               0
100
AcDbHatch
 10
0.0
 20
0.0
 30
0.0
210
0.0
220
0.0
230
1.0
  2
SOLID
 70
               1
 71
               1
 91
        1
 92
        1
 93
        1
 72
               2
 10
-827.48795689414078
 20
513.78240416038511
 40
1.9998779296875
 50
0.0
 51
360.0
 73
               0
 97
        1
330
9E
 75
               0
 76
               1
 98
        1
 10
0.0
 20
0.0
  0
MTEXT
  5
A0
100
AcDbEntity
  8
0
390
0
 62
               0
100
AcDbMText
 10
-861.36557408164083
 20
647.46990247820963
 30
0.0
 40
24.432617187500004
 41
0.0
 71
               1
 72
               1
  1
315
  7
ＭＳ ゴシック
 11
0.0
 21
1.0
 31
0.0
 73
               1
 44
0.7828267384257843
  0
POINT
  5
A1
100
AcDbEntity
  8
Defpoints
370
               0
390
0
 62
               0
100
AcDbPoint
 10
-722.48795689414078
 20
513.78240416038511
 30
0.0
  0
POINT
  5
A2
100
AcDbEntity
  8
Defpoints
370
               0
390
0
 62
               0
100
AcDbPoint
 10
-725.79653335780893
 20
828.78240416038511
 30
0.0
  0
POINT
  5
A3
100
AcDbEntity
  8
Defpoints
370
               0
390
0
 62
               0
100
AcDbPoint
 10
-827.48795689414078
 20
828.78240416038511
 30
0.0
  0
ENDBLK
  5
A4
100
AcDbEntity
  8
notes
390
0
100
AcDbBlockEnd
  0
BLOCK
  5
A5
100
AcDbEntity
  8
notes
390
0
100
AcDbBlockBegin
  2
*D8
 70
               1
 10
0.0
 20
0.0
 30
0.0
  3
*D8
  1

  0
LINE
  5
A6
100
AcDbEntity
  8
0
370
              -2
390
0
  6
Continuous
 62
               0
100
AcDbLine
 10
-192.7251851652168
 20
-372.1397937231668
 30
0.0
 11
-107.48795689414109
 21
-372.1397937231668
 31
0.0
  0
LINE
  5
A7
100
AcDbEntity
  8
0
370
              -2
390
0
  6
Continuous
 62
               0
100
AcDbLine
 10
-404.98244474136345
 20
-532.1397937231668
 30
0.0
 11
-107.48795689414109
 21
-532.1397937231668
 31
0.0
  0
LINE
  5
A8
100
AcDbEntity
  8
0
370
              -2
390
0
  6
Continuous
 62
               0
100
AcDbLine
 10
-107.48795689414109
 20
-372.1397937231668
 30
0.0
 11
-107.48795689414109
 21
-532.1397937231668
 31
0.0
  0
CIRCLE
  5
A9
102
{ACAD_REACTORS
330
AA
102
}
100
AcDbEntity
  8
0
370
              -2
390
0
  6
Continuous
 62
               0
100
AcDbCircle
 10
-107.48795689414109
 20
-372.1397937231668
 30
0.0
 40
1.9998779296875
  0
HATCH
  5
AA
100
AcDbEntity
  8
0
370
              -2
390
0
  6
Continuous
 62
               0
100
AcDbHatch
 10
0.0
 20
0.0
 30
0.0
210
0.0
220
0.0
230
1.0
  2
SOLID
 70
               1
 71
               1
 91
        1
 92
        1
 93
        1
 72
               2
 10
-107.48795689414109
 20
-372.1397937231668
 40
1.9998779296875
 50
0.0
 51
360.0
 73
               0
 97
        1
330
A9
 75
               0
 76
               1
 98
        1
 10
0.0
 20
0.0
  0
CIRCLE
  5
AB
102
{ACAD_REACTORS
330
AC
102
}
100
AcDbEntity
  8
0
370
              -2
390
0
  6
Continuous
 62
               0
100
AcDbCircle
 10
-107.48795689414109
 20
-532.1397937231668
 30
0.0
 40
1.9998779296875
  0
HATCH
  5
AC
100
AcDbEntity
  8
0
370
              -2
390
0
  6
Continuous
 62
               0
100
AcDbHatch
 10
0.0
 20
0.0
 30
0.0
210
0.0
220
0.0
230
1.0
  2
SOLID
 70
               1
 71
               1
 91
        1
 92
        1
 93
        1
 72
               2
 10
-107.48795689414109
 20
-532.1397937231668
 40
1.9998779296875
 50
0.0
 51
360.0
 73
               0
 97
        1
330
AB
 75
               0
 76
               1
 98
        1
 10
0.0
 20
0.0
  0
MTEXT
  5
AD
100
AcDbEntity
  8
0
390
0
 62
               0
100
AcDbMText
 10
-141.36557408164109
 20
-475.95229540534234
 30
0.0
 40
24.432617187500004
 41
0.0
 71
               1
 72
               1
  1
160
  7
ＭＳ ゴシック
 11
0.0
 21
1.0
 31
0.0
 73
               1
 44
0.7828267384257843
  0
POINT
  5
AE
100
AcDbEntity
  8
Defpoints
370
               0
390
0
 62
               0
100
AcDbPoint
 10
-429.98244474136345
 20
-532.1397937231668
 30
0.0
  0
POINT
  5
AF
100
AcDbEntity
  8
Defpoints
370
               0
390
0
 62
               0
100
AcDbPoint
 10
-217.7251851652168
 20
-372.1397937231668
 30
0.0
  0
POINT
  5
B0
100
AcDbEntity
  8
Defpoints
370
               0
390
0
 62
               0
100
AcDbPoint
 10
-107.48795689414109
 20
-372.1397937231668
 30
0.0
  0
ENDBLK
  5
B1
100
AcDbEntity
  8
notes
390
0
100
AcDbBlockEnd
  0
BLOCK
  5
B2
100
AcDbEntity
  8
notes
390
0
100
AcDbBlockBegin
  2
*D9
 70
               1
 10
0.0
 20
0.0
 30
0.0
  3
*D9
  1

  0
LINE
  5
B3
100
AcDbEntity
  8
0
370
              -2
390
0
  6
Continuous
 62
               0
100
AcDbLine
 10
276.51453965147073
 20
-372.1397937231668
 30
0.0
 11
186.97080626361034
 21
-372.1397937231668
 31
0.0
  0
LINE
  5
B4
100
AcDbEntity
  8
0
370
              -2
390
0
  6
Continuous
 62
               0
100
AcDbLine
 10
276.51453965147073
 20
-407.1397937231668
 30
0.0
 11
186.97080626361034
 21
-407.1397937231668
 31
0.0
  0
LINE
  5
B5
100
AcDbEntity
  8
0
370
              -2
390
0
  6
Continuous
 62
               0
100
AcDbLine
 10
186.97080626361034
 20
-372.1397937231668
 30
0.0
 11
186.97080626361034
 21
-316.25
 31
0.0
  0
LINE
  5
B6
100
AcDbEntity
  8
0
370
              -2
390
0
  6
Continuous
 62
               0
100
AcDbLine
 10
186.97080626361034
 20
-372.1397937231668
 30
0.0
 11
186.97080626361034
 21
-407.1397937231668
 31
0.0
  0
CIRCLE
  5
B7
102
{ACAD_REACTORS
330
B8
102
}
100
AcDbEntity
  8
0
370
              -2
390
0
  6
Continuous
 62
               0
100
AcDbCircle
 10
186.97080626361034
 20
-372.1397937231668
 30
0.0
 40
1.9998779296875
  0
HATCH
  5
B8
100
AcDbEntity
  8
0
370
              -2
390
0
  6
Continuous
 62
               0
100
AcDbHatch
 10
0.0
 20
0.0
 30
0.0
210
0.0
220
0.0
230
1.0
  2
SOLID
 70
               1
 71
               1
 91
        1
 92
        1
 93
        1
 72
               2
 10
186.97080626361034
 20
-372.1397937231668
 40
1.9998779296875
 50
0.0
 51
360.0
 73
               0
 97
        1
330
B7
 75
               0
 76
               1
 98
        1
 10
0.0
 20
0.0
  0
CIRCLE
  5
B9
102
{ACAD_REACTORS
330
BA
102
}
100
AcDbEntity
  8
0
370
              -2
390
0
  6
Continuous
 62
               0
100
AcDbCircle
 10
186.97080626361034
 20
-407.1397937231668
 30
0.0
 40
1.9998779296875
  0
HATCH
  5
BA
100
AcDbEntity
  8
0
370
              -2
390
0
  6
Continuous
 62
               0
100
AcDbHatch
 10
0.0
 20
0.0
 30
0.0
210
0.0
220
0.0
230
1.0
  2
SOLID
 70
               1
 71
               1
 91
        1
 92
        1
 93
        1
 72
               2
 10
186.97080626361034
 20
-407.1397937231668
 40
1.9998779296875
 50
0.0
 51
360.0
 73
               0
 97
        1
330
B9
 75
               0
 76
               1
 98
        1
 10
0.0
 20
0.0
  0
MTEXT
  5
BB
100
AcDbEntity
  8
0
390
0
 62
               0
100
AcDbMText
 10
153.09318907611035
 20
-348.0
 30
0.0
 40
24.432617187500004
 41
0.0
 71
               1
 72
               1
  1
35
  7
ＭＳ ゴシック
 11
0.0
 21
1.0
 31
0.0
 73
               1
 44
0.7828267384257843
  0
POINT
  5
BC
100
AcDbEntity
  8
Defpoints
370
               0
390
0
 62
               0
100
AcDbPoint
 10
301.51453965147073
 20
-407.1397937231668
 30
0.0
  0
POINT
  5
BD
100
AcDbEntity
  8
Defpoints
370
               0
390
0
 62
               0
100
AcDbPoint
 10
301.51453965147073
 20
-372.1397937231668
 30
0.0
  0
POINT
  5
BE
100
AcDbEntity
  8
Defpoints
370
               0
390
0
 62
               0
100
AcDbPoint
 10
186.97080626361034
 20
-372.1397937231668
 30
0.0
  0
ENDBLK
  5
BF
100
AcDbEntity
  8
notes
390
0
100
AcDbBlockEnd
  0
BLOCK
  5
C0
100
AcDbEntity
  8
notes
390
0
100
AcDbBlockBegin
  2
*D10
 70
               1
 10
0.0
 20
0.0
 30
0.0
  3
*D10
  1

  0
LINE
  5
C1
100
AcDbEntity
  8
0
370
              -2
390
0
  6
Continuous
 62
               0
100
AcDbLine
 10
272.08365338979081
 20
-407.1397937231668
 30
0.0
 11
186.97080626361034
 21
-407.1397937231668
 31
0.0
  0
LINE
  5
C2
100
AcDbEntity
  8
0
370
              -2
390
0
  6
Continuous
 62
               0
100
AcDbLine
 10
494.58089731340351
 20
-532.1397937231668
 30
0.0
 11
186.97080626361034
 21
-532.1397937231668
 31
0.0
  0
LINE
  5
C3
100
AcDbEntity
  8
0
370
              -2
390
0
  6
Continuous
 62
               0
100
AcDbLine
 10
186.97080626361034
 20
-407.1397937231668
 30
0.0
 11
186.97080626361034
 21
-532.1397937231668
 31
0.0
  0
CIRCLE
  5
C4
102
{ACAD_REACTORS
330
C5
102
}
100
AcDbEntity
  8
0
370
              -2
390
0
  6
Continuous
 62
               0
100
AcDbCircle
 10
186.97080626361034
 20
-407.1397937231668
 30
0.0
 40
1.9998779296875
  0
HATCH
  5
C5
100
AcDbEntity
  8
0
370
              -2
390
0
  6
Continuous
 62
               0
100
AcDbHatch
 10
0.0
 20
0.0
 30
0.0
210
0.0
220
0.0
230
1.0
  2
SOLID
 70
               1
 71
               1
 91
        1
 92
        1
 93
        1
 72
               2
 10
186.97080626361034
 20
-407.1397937231668
 40
1.9998779296875
 50
0.0
 51
360.0
 73
               0
 97
        1
330
C4
 75
               0
 76
               1
 98
        1
 10
0.0
 20
0.0
  0
CIRCLE
  5
C6
102
{ACAD_REACTORS
330
C7
102
}
100
AcDbEntity
  8
0
370
              -2
390
0
  6
Continuous
 62
               0
100
AcDbCircle
 10
186.97080626361034
 20
-532.1397937231668
 30
0.0
 40
1.9998779296875
  0
HATCH
  5
C7
100
AcDbEntity
  8
0
370
              -2
390
0
  6
Continuous
 62
               0
100
AcDbHatch
 10
0.0
 20
0.0
 30
0.0
210
0.0
220
0.0
230
1.0
  2
SOLID
 70
               1
 71
               1
 91
        1
 92
        1
 93
        1
 72
               2
 10
186.97080626361034
 20
-532.1397937231668
 40
1.9998779296875
 50
0.0
 51
360.0
 73
               0
 97
        1
330
C6
 75
               0
 76
               1
 98
        1
 10
0.0
 20
0.0
  0
MTEXT
  5
C8
100
AcDbEntity
  8
0
390
0
 62
               0
100
AcDbMText
 10
153.09318907611035
 20
-493.45229540534234
 30
0.0
 40
24.432617187500004
 41
0.0
 71
               1
 72
               1
  1
125
  7
ＭＳ ゴシック
 11
0.0
 21
1.0
 31
0.0
 73
               1
 44
0.7828267384257843
  0
POINT
  5
C9
100
AcDbEntity
  8
Defpoints
370
               0
390
0
 62
               0
100
AcDbPoint
 10
519.58089731340351
 20
-532.1397937231668
 30
0.0
  0
POINT
  5
CA
100
AcDbEntity
  8
Defpoints
370
               0
390
0
 62
               0
100
AcDbPoint
 10
297.08365338979081
 20
-407.1397937231668
 30
0.0
  0
POINT
  5
CB
100
AcDbEntity
  8
Defpoints
370
               0
390
0
 62
               0
100
AcDbPoint
 10
186.97080626361034
 20
-407.1397937231668
 30
0.0
  0
ENDBLK
  5
CC
100
AcDbEntity
  8
notes
390
0
100
AcDbBlockEnd
  0
BLOCK
  5
CD
100
AcDbEntity
  8
notes
390
0
100
AcDbBlockBegin
  2
*D11
 70
               1
 10
0.0
 20
0.0
 30
0.0
  3
*D11
  1

  0
LINE
  5
CE
100
AcDbEntity
  8
0
370
              -2
390
0
  6
Continuous
 62
               0
100
AcDbLine
 10
529.23056323377546
 20
-482.13979372316686
 30
0.0
 11
554.10556323377546
 21
-482.13979372316686
 31
0.0
  0
LINE
  5
CF
100
AcDbEntity
  8
0
370
              -2
390
0
  6
Continuous
 62
               0
100
AcDbLine
 10
529.23056323377546
 20
-372.1397937231668
 30
0.0
 11
554.10556323377546
 21
-372.1397937231668
 31
0.0
  0
LINE
  5
D0
100
AcDbEntity
  8
0
370
              -2
390
0
  6
Continuous
 62
               0
100
AcDbLine
 10
554.10556323377546
 20
-372.1397937231668
 30
0.0
 11
554.10556323377546
 21
-201.87354372316685
 31
0.0
  0
LINE
  5
D1
100
AcDbEntity
  8
0
370
              -2
390
0
  6
Continuous
 62
               0
100
AcDbLine
 10
554.10556323377546
 20
-482.13979372316686
 30
0.0
 11
554.10556323377546
 21
-372.1397937231668
 31
0.0
  0
CIRCLE
  5
D2
102
{ACAD_REACTORS
330
D3
102
}
100
AcDbEntity
  8
0
370
              -2
390
0
  6
Continuous
 62
               0
100
AcDbCircle
 10
554.10556323377546
 20
-482.13979372316686
 30
0.0
 40
1.9998779296875
  0
HATCH
  5
D3
100
AcDbEntity
  8
0
370
              -2
390
0
  6
Continuous
 62
               0
100
AcDbHatch
 10
0.0
 20
0.0
 30
0.0
210
0.0
220
0.0
230
1.0
  2
SOLID
 70
               1
 71
               1
 91
        1
 92
        1
 93
        1
 72
               2
 10
554.10556323377546
 20
-482.13979372316686
 40
1.9998779296875
 50
0.0
 51
360.0
 73
               0
 97
        1
330
D2
 75
               0
 76
               1
 98
        1
 10
0.0
 20
0.0
  0
CIRCLE
  5
D4
102
{ACAD_REACTORS
330
D5
102
}
100
AcDbEntity
  8
0
370
              -2
390
0
  6
Continuous
 62
               0
100
AcDbCircle
 10
554.10556323377546
 20
-372.1397937231668
 30
0.0
 40
1.9998779296875
  0
HATCH
  5
D5
100
AcDbEntity
  8
0
370
              -2
390
0
  6
Continuous
 62
               0
100
AcDbHatch
 10
0.0
 20
0.0
 30
0.0
210
0.0
220
0.0
230
1.0
  2
SOLID
 70
               1
 71
               1
 91
        1
 92
        1
 93
        1
 72
               2
 10
554.10556323377546
 20
-372.1397937231668
 40
1.9998779296875
 50
0.0
 51
360.0
 73
               0
 97
        1
330
D4
 75
               0
 76
               1
 98
        1
 10
0.0
 20
0.0
  0
MTEXT
  5
D6
100
AcDbEntity
  8
0
390
0
 62
               0
100
AcDbMText
 10
520.22794604627541
 20
-360.62354372316685
 30
0.0
 40
24.432617187500004
 41
0.0
 71
               1
 72
               1
  1
110（深さ)
  7
ＭＳ ゴシック
 11
0.0
 21
1.0
 31
0.0
 73
               1
 44
0.7828267384257843
  0
POINT
  5
D7
100
AcDbEntity
  8
Defpoints
370
               0
390
0
 62
               0
100
AcDbPoint
 10
554.23056323377546
 20
-372.1397937231668
 30
0.0
  0
POINT
  5
D8
100
AcDbEntity
  8
Defpoints
370
               0
390
0
 62
               0
100
AcDbPoint
 10
554.23056323377546
 20
-482.13979372316686
 30
0.0
  0
POINT
  5
D9
100
AcDbEntity
  8
Defpoints
370
               0
390
0
 62
               0
100
AcDbPoint
 10
554.10556323377546
 20
-482.13979372316686
 30
0.0
  0
ENDBLK
  5
DA
100
AcDbEntity
  8
notes
390
0
100
AcDbBlockEnd
  0
BLOCK
  5
DB
100
AcDbEntity
  8
notes
390
0
100
AcDbBlockBegin
  2
*D12
 70
               1
 10
0.0
 20
0.0
 30
0.0
  3
*D12
  1

  0
LINE
  5
DC
100
AcDbEntity
  8
0
370
              -2
390
0
  6
Continuous
 62
               0
100
AcDbLine
 10
-212.48795689414104
 20
493.78240416038517
 30
0.0
 11
-107.30604719764008
 21
493.78240416038517
 31
0.0
  0
LINE
  5
DD
100
AcDbEntity
  8
0
370
              -2
390
0
  6
Continuous
 62
               0
100
AcDbLine
 10
-415.10604719764035
 20
478.80000000000001
 30
0.0
 11
-107.30604719764008
 21
478.80000000000001
 31
0.0
  0
LINE
  5
DE
100
AcDbEntity
  8
0
370
              -2
390
0
  6
Continuous
 62
               0
100
AcDbLine
 10
-107.30604719764008
 20
478.80000000000001
 30
0.0
 11
-107.30604719764008
 21
443.25
 31
0.0
  0
LINE
  5
DF
100
AcDbEntity
  8
0
370
              -2
390
0
  6
Continuous
 62
               0
100
AcDbLine
 10
-107.30604719764008
 20
493.78240416038517
 30
0.0
 11
-107.30604719764008
 21
478.80000000000001
 31
0.0
  0
CIRCLE
  5
E0
102
{ACAD_REACTORS
330
E1
102
}
100
AcDbEntity
  8
0
370
              -2
390
0
  6
Continuous
 62
               0
100
AcDbCircle
 10
-107.30604719764008
 20
493.78240416038517
 30
0.0
 40
1.9998779296875
  0
HATCH
  5
E1
100
AcDbEntity
  8
0
370
              -2
390
0
  6
Continuous
 62
               0
100
AcDbHatch
 10
0.0
 20
0.0
 30
0.0
210
0.0
220
0.0
230
1.0
  2
SOLID
 70
               1
 71
               1
 91
        1
 92
        1
 93
        1
 72
               2
 10
-107.30604719764008
 20
493.78240416038517
 40
1.9998779296875
 50
0.0
 51
360.0
 73
               0
 97
        1
330
E0
 75
               0
 76
               1
 98
        1
 10
0.0
 20
0.0
  0
CIRCLE
  5
E2
102
{ACAD_REACTORS
330
E3
102
}
100
AcDbEntity
  8
0
370
              -2
390
0
  6
Continuous
 62
               0
100
AcDbCircle
 10
-107.30604719764008
 20
478.80000000000001
 30
0.0
 40
1.9998779296875
  0
HATCH
  5
E3
100
AcDbEntity
  8
0
370
              -2
390
0
  6
Continuous
 62
               0
100
AcDbHatch
 10
0.0
 20
0.0
 30
0.0
210
0.0
220
0.0
230
1.0
  2
SOLID
 70
               1
 71
               1
 91
        1
 92
        1
 93
        1
 72
               2
 10
-107.30604719764008
 20
478.80000000000001
 40
1.9998779296875
 50
0.0
 51
360.0
 73
               0
 97
        1
330
E2
 75
               0
 76
               1
 98
        1
 10
0.0
 20
0.0
  0
MTEXT
  5
E4
100
AcDbEntity
  8
0
390
0
 62
               0
100
AcDbMText
 10
-141.18366438514008
 20
443.25
 30
0.0
 40
24.432617187500004
 41
0.0
 71
               1
 72
               1
  1
15
  7
ＭＳ ゴシック
 11
0.0
 21
1.0
 31
0.0
 73
               1
 44
0.7828267384257843
  0
POINT
  5
E5
100
AcDbEntity
  8
Defpoints
370
               0
390
0
 62
               0
100
AcDbPoint
 10
-440.10604719764035
 20
478.80000000000001
 30
0.0
  0
POINT
  5
E6
100
AcDbEntity
  8
Defpoints
370
               0
390
0
 62
               0
100
AcDbPoint
 10
-237.48795689414104
 20
493.78240416038517
 30
0.0
  0
POINT
  5
E7
100
AcDbEntity
  8
Defpoints
370
               0
390
0
 62
               0
100
AcDbPoint
 10
-107.30604719764008
 20
493.78240416038517
 30
0.0
  0
ENDBLK
  5
E8
100
AcDbEntity
  8
notes
390
0
100
AcDbBlockEnd
  0
BLOCK
  5
E9
100
AcDbEntity
  8
notes
390
0
100
AcDbBlockBegin
  2
*D13
 70
               1
 10
0.0
 20
0.0
 30
0.0
  3
*D13
  1

  0
LINE
  5
EA
100
AcDbEntity
  8
0
370
              -2
390
0
  6
Continuous
 62
               0
100
AcDbLine
 10
676.95646584891256
 20
817.79999999999995
 30
0.0
 11
806.95370977252344
 21
817.79999999999995
 31
0.0
  0
LINE
  5
EB
100
AcDbEntity
  8
0
370
              -2
390
0
  6
Continuous
 62
               0
100
AcDbLine
 10
676.95646584891256
 20
512.79999999999995
 30
0.0
 11
806.95370977252344
 21
512.79999999999995
 31
0.0
  0
LINE
  5
EC
100
AcDbEntity
  8
0
370
              -2
390
0
  6
Continuous
 62
               0
100
AcDbLine
 10
806.95370977252344
 20
817.79999999999995
 30
0.0
 11
806.95370977252344
 21
512.79999999999995
 31
0.0
  0
CIRCLE
  5
ED
102
{ACAD_REACTORS
330
EE
102
}
100
AcDbEntity
  8
0
370
              -2
390
0
  6
Continuous
 62
               0
100
AcDbCircle
 10
806.95370977252344
 20
817.79999999999995
 30
0.0
 40
1.9998779296875
  0
HATCH
  5
EE
100
AcDbEntity
  8
0
370
              -2
390
0
  6
Continuous
 62
               0
100
AcDbHatch
 10
0.0
 20
0.0
 30
0.0
210
0.0
220
0.0
230
1.0
  2
SOLID
 70
               1
 71
               1
 91
        1
 92
        1
 93
        1
 72
               2
 10
806.95370977252344
 20
817.79999999999995
 40
1.9998779296875
 50
0.0
 51
360.0
 73
               0
 97
        1
330
ED
 75
               0
 76
               1
 98
        1
 10
0.0
 20
0.0
  0
CIRCLE
  5
EF
102
{ACAD_REACTORS
330
F0
102
}
100
AcDbEntity
  8
0
370
              -2
390
0
  6
Continuous
 62
               0
100
AcDbCircle
 10
806.95370977252344
 20
512.79999999999995
 30
0.0
 40
1.9998779296875
  0
HATCH
  5
F0
100
AcDbEntity
  8
0
370
              -2
390
0
  6
Continuous
 62
               0
100
AcDbHatch
 10
0.0
 20
0.0
 30
0.0
210
0.0
220
0.0
230
1.0
  2
SOLID
 70
               1
 71
               1
 91
        1
 92
        1
 93
        1
 72
               2
 10
806.95370977252344
 20
512.79999999999995
 40
1.9998779296875
 50
0.0
 51
360.0
 73
               0
 97
        1
330
EF
 75
               0
 76
               1
 98
        1
 10
0.0
 20
0.0
  0
MTEXT
  5
F1
100
AcDbEntity
  8
0
390
0
 62
               0
100
AcDbMText
 10
773.07609258502339
 20
641.48749831782447
 30
0.0
 40
24.432617187500004
 41
0.0
 71
               1
 72
               1
  1
305
  7
ＭＳ ゴシック
 11
0.0
 21
1.0
 31
0.0
 73
               1
 44
0.7828267384257843
  0
POINT
  5
F2
100
AcDbEntity
  8
Defpoints
370
               0
390
0
 62
               0
100
AcDbPoint
 10
651.95646584891256
 20
512.79999999999995
 30
0.0
  0
POINT
  5
F3
100
AcDbEntity
  8
Defpoints
370
               0
390
0
 62
               0
100
AcDbPoint
 10
651.95646584891256
 20
817.79999999999995
 30
0.0
  0
POINT
  5
F4
100
AcDbEntity
  8
Defpoints
370
               0
390
0
 62
               0
100
AcDbPoint
 10
806.95370977252344
 20
817.79999999999995
 30
0.0
  0
ENDBLK
  5
F5
100
AcDbEntity
  8
notes
390
0
100
AcDbBlockEnd
  0
BLOCK
  5
F6
100
AcDbEntity
  8
notes
390
0
100
AcDbBlockBegin
  2
*D14
 70
               1
 10
0.0
 20
0.0
 30
0.0
  3
*D14
  1

  0
LINE
  5
F7
100
AcDbEntity
  8
0
370
              -2
390
0
  6
Continuous
 62
               0
100
AcDbLine
 10
681.95646584891256
 20
517.79999999999995
 30
0.0
 11
681.95646584891256
 21
378.80000000000001
 31
0.0
  0
LINE
  5
F8
100
AcDbEntity
  8
0
370
              -2
390
0
  6
Continuous
 62
               0
100
AcDbLine
 10
211.95646584891227
 20
517.79999999999995
 30
0.0
 11
211.95646584891227
 21
378.80000000000001
 31
0.0
  0
LINE
  5
F9
100
AcDbEntity
  8
0
370
              -2
390
0
  6
Continuous
 62
               0
100
AcDbLine
 10
681.95646584891256
 20
378.80000000000001
 30
0.0
 11
211.95646584891227
 21
378.80000000000001
 31
0.0
  0
CIRCLE
  5
FA
102
{ACAD_REACTORS
330
FB
102
}
100
AcDbEntity
  8
0
370
              -2
390
0
  6
Continuous
 62
               0
100
AcDbCircle
 10
681.95646584891256
 20
378.80000000000001
 30
0.0
 40
1.9998779296875
  0
HATCH
  5
FB
100
AcDbEntity
  8
0
370
              -2
390
0
  6
Continuous
 62
               0
100
AcDbHatch
 10
0.0
 20
0.0
 30
0.0
210
0.0
220
0.0
230
1.0
  2
SOLID
 70
               1
 71
               1
 91
        1
 92
        1
 93
        1
 72
               2
 10
681.95646584891256
 20
378.80000000000001
 40
1.9998779296875
 50
0.0
 51
360.0
 73
               0
 97
        1
330
FA
 75
               0
 76
               1
 98
        1
 10
0.0
 20
0.0
  0
CIRCLE
  5
FC
102
{ACAD_REACTORS
330
FD
102
}
100
AcDbEntity
  8
0
370
              -2
390
0
  6
Continuous
 62
               0
100
AcDbCircle
 10
211.95646584891227
 20
378.80000000000001
 30
0.0
 40
1.9998779296875
  0
HATCH
  5
FD
100
AcDbEntity
  8
0
370
              -2
390
0
  6
Continuous
 62
               0
100
AcDbHatch
 10
0.0
 20
0.0
 30
0.0
210
0.0
220
0.0
230
1.0
  2
SOLID
 70
               1
 71
               1
 91
        1
 92
        1
 93
        1
 72
               2
 10
211.95646584891227
 20
378.80000000000001
 40
1.9998779296875
 50
0.0
 51
360.0
 73
               0
 97
        1
330
FC
 75
               0
 76
               1
 98
        1
 10
0.0
 20
0.0
  0
MTEXT
  5
FE
100
AcDbEntity
  8
0
390
0
 62
               0
100
AcDbMText
 10
423.14396416673685
 20
412.6776171875
 30
0.0
 40
24.432617187500004
 41
0.0
 71
               1
 72
               1
  1
470
  7
ＭＳ ゴシック
 73
               1
 44
0.7828267384257843
  0
POINT
  5
FF
100
AcDbEntity
  8
Defpoints
370
               0
390
0
 62
               0
100
AcDbPoint
 10
211.95646584891227
 20
542.79999999999995
 30
0.0
  0
POINT
  5
100
100
AcDbEntity
  8
Defpoints
370
               0
390
0
 62
               0
100
AcDbPoint
 10
681.95646584891256
 20
542.79999999999995
 30
0.0
  0
POINT
  5
101
100
AcDbEntity
  8
Defpoints
370
               0
390
0
 62
               0
100
AcDbPoint
 10
681.95646584891256
 20
378.80000000000001
 30
0.0
  0
ENDBLK
  5
102
100
AcDbEntity
  8
notes
390
0
100
AcDbBlockEnd
  0
ENDSEC
  0
SECTION
  2
ENTITIES
  0
MTEXT
  5
103
100
AcDbEntity
  8
template
390
0
 62
               7
100
AcDbMText
 10
-967.99999999975921
 20
-1147.4176292337004
 30
0.0
 40
16.288411458333332
 41
0.0
 71
               1
 72
               1
  1
品名
  7
ＭＳ ゴシック
 73
               1
 44
0.7828267384257843
  0
MTEXT
  5
104
100
AcDbEntity
  8
template
390
0
 62
               7
100
AcDbMText
 10
-967.99999999975921
 20
-1232.4176292337004
 30
0.0
 40
16.288411458333332
 41
0.0
 71
               1
 72
               1
  1
仕様
  7
ＭＳ ゴシック
 73
               1
 44
0.7828267384257843
  0
LINE
  5
105
100
AcDbEntity
  8
template
370
               5
390
0
  6
Continuous
 62
               7
100
AcDbLine
 10
974.99999999975876
 20
-1224.0027073587005
 30
0.0
 11
-975.00000000024124
 21
-1224.0027073587005
 31
0.0
  0
LWPOLYLINE
  5
106
100
AcDbEntity
  8
template
370
               5
390
0
  6
Continuous
 62
               7
100
AcDbPolyline
 90
        5
 70
             128
 10
975.00000000024124
 20
1405.9972926412995
 10
-974.99999999975921
 20
1405.9972926412995
 10
-974.99999999975921
 20
-1394.0027073587005
 10
975.00000000024124
 20
-1394.0027073587005
 10
975.00000000024124
 20
1405.9972926412995
  0
LINE
  5
107
100
AcDbEntity
  8
template
370
               5
390
0
  6
Continuous
 62
               7
100
AcDbLine
 10
974.99999999975876
 20
-1139.0027073587005
 30
0.0
 11
-975.00000000024124
 21
-1139.0027073587005
 31
0.0
  0
LINE
  5
108
100
AcDbEntity
  8
template
370
               5
390
0
  6
Continuous
 62
               7
100
AcDbLine
 10
975.00000000024124
 20
-1309.0027073587005
 30
0.0
 11
222.00000000024124
 21
-1309.0027073587005
 31
0.0
  0
MTEXT
  5
109
100
AcDbEntity
  8
template
390
0
 62
               7
100
AcDbMText
 10
251.87140625250089
 20
-1338.9131018320081
 30
0.0
 40
24.432617187500004
 41
0.0
 71
               1
 72
               1
  1
大洋金物株式会社 ティーフォルム事業部
  7
ＭＳ ゴシック
 73
               1
 44
0.7828267384257843
  0
INSERT
  5
10A
100
AcDbEntity
  8
template
390
0
 62
               7
100
AcDbBlockReference
  2
グループ
 10
-0.0027560763887493
 20
68.66976547824305
 30
0.0
  0
MTEXT
  5
10B
100
AcDbEntity
  8
template
390
0
 62
               7
100
AcDbMText
 10
784.00000000049999
 20
-1261.0000901712006
 30
0.0
 40
24.432617187500004
 41
0.0
 71
               1
 72
               1
  1
1:10
  7
ＭＳ ゴシック
 73
               1
 44
0.7828267384257843
  0
MTEXT
  5
10C
100
AcDbEntity
  8
template
390
0
 62
               7
100
AcDbMText
 10
731.00000000049999
 20
-1232.4176292337004
 30
0.0
 40
16.288411458333332
 41
0.0
 71
               1
 72
               1
  1
縮尺
  7
ＭＳ ゴシック
 73
               1
 44
0.7828267384257843
  0
LINE
  5
10D
100
AcDbEntity
  8
template
370
               5
390
0
  6
Continuous
 62
               7
100
AcDbLine
 10
724.00000000049999
 20
-1309.0027073587005
 30
0.0
 11
724.00000000049999
 21
-1224.0027073587005
 31
0.0
  0
MTEXT
  5
10E
100
AcDbEntity
  8
template
390
0
 62
               7
100
AcDbMText
 10
480.00000000049999
 20
-1232.4176292337004
 30
0.0
 40
16.288411458333332
 41
0.0
 71
               1
 72
               1
  1
容量
  7
ＭＳ ゴシック
 73
               1
 44
0.7828267384257843
  0
MTEXT
  5
10F
100
AcDbEntity
  8
template
390
0
 62
               7
100
AcDbMText
 10
533.00000000049999
 20
-1261.0000901712006
 30
0.0
 40
24.432617187500004
 41
0.0
 71
               1
 72
               1
  1
7L
  7
ＭＳ ゴシック
 73
               1
 44
0.7828267384257843
  0
LINE
  5
110
100
AcDbEntity
  8
template
370
               5
390
0
  6
Continuous
 62
               7
100
AcDbLine
 10
473.00000000049999
 20
-1309.0027073587005
 30
0.0
 11
473.00000000049999
 21
-1224.0027073587005
 31
0.0
  0
MTEXT
  5
111
100
AcDbEntity
  8
template
390
0
 62
               7
100
AcDbMText
 10
229.00000000049999
 20
-1147.4176292337004
 30
0.0
 40
16.288411458333332
 41
0.0
 71
               1
 72
               1
  1
品番
  7
ＭＳ ゴシック
 73
               1
 44
0.7828267384257843
  0
MTEXT
  5
112
100
AcDbEntity
  8
template
390
0
 62
               7
100
AcDbMText
 10
229.00000000049999
 20
-1232.4176292337004
 30
0.0
 40
16.288411458333332
 41
0.0
 71
               1
 72
               1
  1
重量
  7
ＭＳ ゴシック
 73
               1
 44
0.7828267384257843
  0
MTEXT
  5
113
100
AcDbEntity
  8
template
390
0
 62
               7
100
AcDbMText
 10
282.00000000049999
 20
-1175.6808178080187
 30
0.0
 40
21.716872129346985
 41
0.0
 71
               1
 72
               1
  1
FAA70-0514
  7
ＭＳ ゴシック
 73
               1
 44
0.7828267384257844
  0
MTEXT
  5
114
100
AcDbEntity
  8
template
390
0
 62
               7
100
AcDbMText
 10
282.00000000049999
 20
-1261.0000901712006
 30
0.0
 40
24.432617187500004
 41
0.0
 71
               1
 72
               1
  1
8kg
  7
ＭＳ ゴシック
 73
               1
 44
0.7828267384257843
  0
LINE
  5
115
100
AcDbEntity
  8
template
370
               5
390
0
  6
Continuous
 62
               7
100
AcDbLine
 10
222.00000000049999
 20
-1394.0027073587005
 30
0.0
 11
222.00000000049999
 21
-1139.0027073587005
 31
0.0
  0
MTEXT
  5
116
100
AcDbEntity
  8
template
390
0
 62
               7
100
AcDbMText
 10
-915.00000000020327
 20
-1175.8723828124998
 30
0.0
 40
24.432617187500004
 41
0.0
 71
               1
 72
               1
  1
洗面器 -DURAVIT,Vero-
  7
ＭＳ ゴシック
 73
               1
 44
0.7828267384257843
  0
MTEXT
  5
117
100
AcDbEntity
  8
template
390
0
 62
               7
100
AcDbMText
 10
-914.99999999975921
 20
-1261.0000901712006
 30
0.0
 40
24.432617187500004
 41
0.0
 71
               1
 72
               1
  1
アンダーカウンター/オーバーフロー付き/カウンター固定金具,型 紙付属/\P陶器/ホワイト
  7
ＭＳ ゴシック
 73
               1
 44
1.1307497332816883
  0
MTEXT
  5
118
100
AcDbEntity
  8
template
390
0
 62
               7
100
AcDbMText
 10
-974.99999999955617
 20
-1405.8565294155574
 30
0.0
 40
21.717881944444446
 41
0.0
 71
               1
 72
               1
  1
100709SH
  7
ＭＳ ゴシック
 73
               1
 44
0.7828267384257843
  0
DIMENSION
  5
119
100
AcDbEntity
  8
notes
370
               5
390
0
  6
Continuous
 62
               7
100
AcDbDimension
  2
*D3
 10
652.01396954109475
 20
-632.1397937231668
 30
0.0
 11
606.99100986415897
 21
-632.1397937231668
 31
0.0
 71
               5
 72
               1
 41
1.0
 42
0.0
  3
tform線あり
100
AcDbAlignedDimension
 13
561.9680501872233
 23
-532.1397937231668
 33
0.0
 14
652.01396954109475
 24
-407.1397937231668
 34
0.0
100
AcDbRotatedDimension
1001
ACAD
1000
DSTYLE
1002
{
1070
             279
1070
               2
1070
             340
1005
30
1070
             147
1040
5.0
1002
}
  0
MTEXT
  5
11A
100
AcDbEntity
  8
notes
390
0
 62
               7
100
AcDbMText
 10
77.693952802359917
 20
226.5132839379105
 30
0.0
 40
24.432617187500004
 41
786.0
 71
               1
 72
               1
  1
※陶器製品には寸法公差があります。\P  洗面器の収め方をご確認の上、必ず現物を合わせて\P  カウンターの切込を行ってください。
  7
ＭＳ ゴシック
 73
               1
 44
1.0437689845677123
  0
MTEXT
  5
11B
100
AcDbEntity
  8
notes
390
0
 62
               7
100
AcDbMText
 10
292.23535332629422
 20
1092.5878112950002
 30
0.0
 40
24.432617187500004
 41
0.0
 71
               1
 72
               1
  1
カウンター切込寸法
  7
ＭＳ ゴシック
 73
               1
 44
0.7828267384257843
  0
DIMENSION
  5
11C
100
AcDbEntity
  8
notes
370
               5
390
0
  6
Continuous
 62
               7
100
AcDbDimension
  2
*D4
 10
-727.48795689414078
 20
943.78240416038511
 30
0.0
 11
-464.98795689414078
 21
948.78240416038511
 31
0.0
 70
             128
 71
               5
 72
               1
 41
1.0
 42
0.0
  3
tform線あり
100
AcDbAlignedDimension
 13
-202.48795689414075
 23
813.78240416038511
 33
0.0
 14
-727.48795689414078
 24
813.78240416038511
 34
0.0
100
AcDbRotatedDimension
1001
ACAD
1000
DSTYLE
1002
{
1070
             279
1070
               2
1070
             340
1005
30
1070
             147
1040
5.0
1002
}
  0
DIMENSION
  5
11D
100
AcDbEntity
  8
notes
370
               5
390
0
  6
Continuous
 62
               7
100
AcDbDimension
  2
*D5
 10
-107.48795689414086
 20
848.79999999999995
 30
0.0
 11
-107.48795689414086
 21
671.29120208019253
 31
0.0
 71
               5
 72
               1
 41
1.0
 42
0.0
  3
tform線あり
100
AcDbAlignedDimension
 13
-237.48795689414104
 23
493.78240416038517
 33
0.0
 14
-237.50604719764007
 24
848.79999999999995
 34
0.0
 50
90.0
100
AcDbRotatedDimension
1001
ACAD
1000
DSTYLE
1002
{
1070
             279
1070
               2
1070
             340
1005
30
1070
             147
1040
5.0
1002
}
  0
DIMENSION
  5
11E
100
AcDbEntity
  8
notes
370
               5
390
0
  6
Continuous
 62
               7
100
AcDbDimension
  2
*D6
 10
-707.48795689414078
 20
378.80000000000001
 30
0.0
 11
-464.98795689414078
 21
378.80000000000001
 31
0.0
 71
               5
 72
               1
 41
1.0
 42
0.0
  3
tform線あり
100
AcDbAlignedDimension
 13
-222.48795689414075
 23
498.78240416038517
 33
0.0
 14
-707.48795689414078
 24
495.49813291292327
 34
0.0
100
AcDbRotatedDimension
1001
ACAD
1000
DSTYLE
1002
{
1070
             279
1070
               2
1070
             340
1005
30
1070
             147
1040
5.0
1002
}
  0
DIMENSION
  5
11F
100
AcDbEntity
  8
notes
370
               5
390
0
  6
Continuous
 62
               7
100
AcDbDimension
  2
*D7
 10
-827.48795689414078
 20
828.78240416038511
 30
0.0
 11
-827.48795689414078
 21
671.28240416038511
 31
0.0
 71
               5
 72
               1
 41
1.0
 42
0.0
  3
tform線あり
100
AcDbAlignedDimension
 13
-722.48795689414078
 23
513.78240416038511
 33
0.0
 14
-725.79653335780893
 24
828.78240416038511
 34
0.0
 50
90.0
100
AcDbRotatedDimension
1001
ACAD
1000
DSTYLE
1002
{
1070
             279
1070
               2
1070
             340
1005
30
1070
             147
1040
5.0
1002
}
  0
DIMENSION
  5
120
100
AcDbEntity
  8
notes
370
               5
390
0
  6
Continuous
 62
               7
100
AcDbDimension
  2
*D8
 10
-107.48795689414109
 20
-372.1397937231668
 30
0.0
 11
-107.48795689414109
 21
-452.13979372316686
 31
0.0
 71
               5
 72
               1
 41
1.0
 42
0.0
  3
tform線あり
100
AcDbAlignedDimension
 13
-429.98244474136345
 23
-532.1397937231668
 33
0.0
 14
-217.7251851652168
 24
-372.1397937231668
 34
0.0
 50
90.0
100
AcDbRotatedDimension
1001
ACAD
1000
DSTYLE
1002
{
1070
             279
1070
               2
1070
             340
1005
30
1070
             147
1040
5.0
1002
}
  0
DIMENSION
  5
121
100
AcDbEntity
  8
notes
370
               5
390
0
  6
Continuous
 62
               7
100
AcDbDimension
  2
*D9
 10
186.97080626361034
 20
-372.1397937231668
 30
0.0
 11
181.97080626361034
 21
-348.0
 31
0.0
 70
             128
 71
               5
 72
               1
 41
1.0
 42
0.0
  3
tform線あり
100
AcDbAlignedDimension
 13
301.51453965147073
 23
-407.1397937231668
 33
0.0
 14
301.51453965147073
 24
-372.1397937231668
 34
0.0
 50
90.0
100
AcDbRotatedDimension
1001
ACAD
1000
DSTYLE
1002
{
1070
             279
1070
               2
1070
             340
1005
30
1070
             174
1070
               0
1070
             147
1040
5.0
1002
}
  0
DIMENSION
  5
122
100
AcDbEntity
  8
notes
370
               5
390
0
  6
Continuous
 62
               7
100
AcDbDimension
  2
*D10
 10
186.97080626361034
 20
-407.1397937231668
 30
0.0
 11
186.97080626361034
 21
-469.63979372316686
 31
0.0
 71
               5
 72
               1
 41
1.0
 42
0.0
  3
tform線あり
100
AcDbAlignedDimension
 13
519.58089731340351
 23
-532.1397937231668
 33
0.0
 14
297.08365338979081
 24
-407.1397937231668
 34
0.0
 50
90.0
100
AcDbRotatedDimension
1001
ACAD
1000
DSTYLE
1002
{
1070
             279
1070
               2
1070
             340
1005
30
1070
             147
1040
5.0
1002
}
  0
DIMENSION
  5
123
100
AcDbEntity
  8
notes
370
               5
390
0
  6
Continuous
 62
               7
100
AcDbDimension
  2
*D11
 10
554.10556323377546
 20
-482.13979372316686
 30
0.0
 11
549.10556323377546
 21
-360.62354372316685
 31
0.0
 70
             128
 71
               5
 72
               1
 41
1.0
 42
0.0
  3
tform線あり
100
AcDbAlignedDimension
 13
554.23056323377546
 23
-372.1397937231668
 33
0.0
 14
554.23056323377546
 24
-482.13979372316686
 34
0.0
 50
90.0
100
AcDbRotatedDimension
1001
ACAD
1000
DSTYLE
1002
{
1070
             279
1070
               2
1070
             340
1005
30
1070
               3
1000
<>（深さ)
1070
             174
1070
               0
1070
             147
1040
5.0
1002
}
  0
DIMENSION
  5
124
100
AcDbEntity
  8
notes
370
               5
390
0
  6
Continuous
 62
               7
100
AcDbDimension
  2
*D12
 10
-107.30604719764008
 20
493.78240416038517
 30
0.0
 11
-102.30604719764008
 21
475.0
 31
0.0
 70
             128
 71
               5
 72
               1
 41
1.0
 42
0.0
  3
tform線あり
100
AcDbAlignedDimension
 13
-440.10604719764035
 23
478.80000000000001
 33
0.0
 14
-237.48795689414104
 24
493.78240416038517
 34
0.0
 50
90.0
100
AcDbRotatedDimension
1001
ACAD
1000
DSTYLE
1002
{
1070
             279
1070
               2
1070
             340
1005
30
1070
             174
1070
               0
1070
             147
1040
5.0
1002
}
  0
DIMENSION
  5
125
100
AcDbEntity
  8
notes
370
               5
390
0
  6
Continuous
 62
               7
100
AcDbDimension
  2
*D13
 10
806.95370977252344
 20
817.79999999999995
 30
0.0
 11
806.95370977252344
 21
665.29999999999995
 31
0.0
 71
               5
 72
               1
 41
1.0
 42
0.0
  3
tform線あり
100
AcDbAlignedDimension
 13
651.95646584891256
 23
512.79999999999995
 33
0.0
 14
651.95646584891256
 24
817.79999999999995
 34
0.0
 50
90.0
100
AcDbRotatedDimension
1001
ACAD
1000
DSTYLE
1002
{
1070
             279
1070
               2
1070
             340
1005
30
1070
             147
1040
5.0
1002
}
  0
DIMENSION
  5
126
100
AcDbEntity
  8
notes
370
               5
390
0
  6
Continuous
 62
               7
100
AcDbDimension
  2
*D14
 10
681.95646584891256
 20
378.80000000000001
 30
0.0
 11
446.95646584891244
 21
378.80000000000001
 31
0.0
 71
               5
 72
               1
 41
1.0
 42
0.0
  3
tform線あり
100
AcDbAlignedDimension
 13
211.95646584891227
 23
542.79999999999995
 33
0.0
 14
681.95646584891256
 24
542.79999999999995
 34
0.0
100
AcDbRotatedDimension
1001
ACAD
1000
DSTYLE
1002
{
1070
             279
1070
               2
1070
             340
1005
30
1070
             147
1040
5.0
1002
}
  0
LINE
  5
127
100
AcDbEntity
  8
FAA70-0514
370
              15
390
0
  6
Continuous
 62
               7
100
AcDbLine
 10
-432.98244474136345
 20
-407.1397937231668
 30
0.0
 11
-227.96516951268134
 21
-407.1397937231668
 31
0.0
  0
LINE
  5
128
100
AcDbEntity
  8
FAA70-0514
370
              15
390
0
  6
Continuous
 62
               7
100
AcDbLine
 10
-712.85648973360458
 20
-407.1397937231668
 30
0.0
 11
-501.98244474136345
 21
-407.1397937231668
 31
0.0
  0
LINE
  5
129
100
AcDbEntity
  8
FAA70-0514
370
              15
390
0
  6
Continuous
 62
               7
100
AcDbLine
 10
-432.98244474136345
 20
-380.1397937231668
 30
0.0
 11
-432.98244474136345
 21
-524.13979372316726
 31
0.0
  0
LINE
  5
12A
100
AcDbEntity
  8
FAA70-0514
370
              15
390
0
  6
Continuous
 62
               7
100
AcDbLine
 10
-501.98244474136345
 20
-380.1397937231668
 30
0.0
 11
-501.98244474136345
 21
-524.13979372316726
 31
0.0
  0
LINE
  5
12B
100
AcDbEntity
  8
FAA70-0514
370
              15
390
0
  6
Continuous
 62
               7
100
AcDbLine
 10
-498.98244474136345
 20
-527.13979372316726
 30
0.0
 11
-435.98244474136345
 21
-527.13979372316726
 31
0.0
  0
ARC
  5
12C
100
AcDbEntity
  8
FAA70-0514
370
              15
390
0
  6
Continuous
 62
               7
100
AcDbCircle
 10
-498.98244474136345
 20
-524.13979372316726
 30
0.0
 40
3.0
100
AcDbArc
 50
180.0
 51
270.0
  0
ARC
  5
12D
100
AcDbEntity
  8
FAA70-0514
370
              15
390
0
  6
Continuous
 62
               7
100
AcDbCircle
 10
-435.98244474136345
 20
-524.13979372316726
 30
0.0
 40
3.0
100
AcDbArc
 50
270.0
 51
0.0
  0
LINE
  5
12E
100
AcDbEntity
  8
FAA70-0514
370
              15
390
0
  6
Continuous
 62
               7
100
AcDbLine
 10
-498.98244474136345
 20
-377.1397937231668
 30
0.0
 11
-435.98244474136345
 21
-377.1397937231668
 31
0.0
  0
ARC
  5
12F
100
AcDbEntity
  8
FAA70-0514
370
              15
390
0
  6
Continuous
 62
               7
100
AcDbCircle
 10
-498.98244474136345
 20
-380.1397937231668
 30
0.0
 40
3.0
100
AcDbArc
 50
90.0
 51
180.0
  0
ARC
  5
130
100
AcDbEntity
  8
FAA70-0514
370
              15
390
0
  6
Continuous
 62
               7
100
AcDbCircle
 10
-435.98244474136345
 20
-380.1397937231668
 30
0.0
 40
3.0
100
AcDbArc
 50
0.0
 51
90.0
  0
LWPOLYLINE
  5
131
100
AcDbEntity
  8
FAA70-0514
370
              15
390
0
  6
Continuous
 62
               7
100
AcDbPolyline
 90
       20
 70
             129
 10
-234.72665029670495
 20
-412.32806040744913
 42
-0.3394542588633773
 10
-227.96516951268134
 20
-407.1397937231668
 10
-207.48520081775226
 20
-407.1397937231668
 10
-207.48520081775226
 20
-379.1397937231668
 42
0.4142135623730761
 10
-214.4852008177518
 20
-372.1397937231668
 10
-720.48520081775177
 20
-372.1397937231668
 42
0.4142135623730927
 10
-727.48520081775177
 20
-379.1397937231668
 10
-727.48520081775177
 20
-407.1397937231668
 10
-712.85648973360458
 20
-407.1397937231668
 42
-0.3394542588633919
 10
-706.09500894958114
 20
-412.32806040744913
 10
-691.89158135252114
 20
-465.33597384130286
 42
0.3152987888789817
 10
-674.31617968169303
 20
-480.08348690108738
 10
-509.54666602762518
 20
-494.49895144049816
 42
-0.3888787318530064
 10
-504.98244474136345
 20
-499.47992493095677
 10
-504.98244474136345
 20
-532.1397937231668
 10
-429.98244474136345
 20
-532.1397937231668
 10
-429.98244474136345
 20
-498.96752397176391
 42
-0.3888787318529901
 10
-425.41822345510172
 20
-493.98655048130519
 10
-266.50547956459286
 20
-480.08348690108738
 42
0.3152987888789803
 10
-248.93007789376455
 20
-465.33597384130286
  0
CIRCLE
  5
132
100
AcDbEntity
  8
FAA70-0514
370
              15
390
0
  6
Continuous
 62
               7
100
AcDbCircle
 10
-467.48520081775223
 20
753.78240416038511
 30
0.0
 40
37.5
  0
CIRCLE
  5
133
100
AcDbEntity
  8
FAA70-0514
370
              15
390
0
  6
Continuous
 62
               7
100
AcDbCircle
 10
-467.48520081775223
 20
753.78240416038511
 30
0.0
 40
26.0
  0
LINE
  5
134
100
AcDbEntity
  8
FAA70-0514
370
              15
390
0
  6
Continuous
 62
               7
100
AcDbLine
 10
-697.48795689414078
 20
513.78240416038511
 30
0.0
 11
-237.48795689414104
 21
513.78240416038511
 31
0.0
  0
LINE
  5
135
100
AcDbEntity
  8
FAA70-0514
370
              15
390
0
  6
Continuous
 62
               7
100
AcDbLine
 10
-237.48795689414058
 20
828.78240416038511
 30
0.0
 11
-697.48795689414078
 21
828.78240416038511
 31
0.0
  0
LINE
  5
136
100
AcDbEntity
  8
FAA70-0514
370
              15
390
0
  6
Continuous
 62
               7
100
AcDbLine
 10
-707.48795689414078
 20
818.78240416038511
 30
0.0
 11
-707.48795689414078
 21
523.78240416038511
 31
0.0
  0
ARC
  5
137
100
AcDbEntity
  8
FAA70-0514
370
              15
390
0
  6
Continuous
 62
               7
100
AcDbCircle
 10
-697.48795689414078
 20
523.78240416038511
 30
0.0
 40
10.0
100
AcDbArc
 50
180.0
 51
270.0
  0
ARC
  5
138
100
AcDbEntity
  8
FAA70-0514
370
              15
390
0
  6
Continuous
 62
               7
100
AcDbCircle
 10
-697.48795689414078
 20
818.78240416038511
 30
0.0
 40
10.0
100
AcDbArc
 50
90.0
 51
180.0
  0
LINE
  5
139
100
AcDbEntity
  8
FAA70-0514
370
              15
390
0
  6
Continuous
 62
               7
100
AcDbLine
 10
-227.48795689414104
 20
523.78240416038511
 30
0.0
 11
-227.48795689414058
 21
818.78240416038511
 31
0.0
  0
ARC
  5
13A
100
AcDbEntity
  8
FAA70-0514
370
              15
390
0
  6
Continuous
 62
               7
100
AcDbCircle
 10
-237.48795689414104
 20
523.78240416038511
 30
0.0
 40
10.0
100
AcDbArc
 50
270.0
 51
0.0
  0
ARC
  5
13B
100
AcDbEntity
  8
FAA70-0514
370
              15
390
0
  6
Continuous
 62
               7
100
AcDbCircle
 10
-237.48795689414058
 20
818.78240416038511
 30
0.0
 40
10.0
100
AcDbArc
 50
0.0
 51
90.0
  0
LWPOLYLINE
  5
13C
100
AcDbEntity
  8
FAA70-0514
370
              15
390
0
  6
Continuous
 62
               7
100
AcDbPolyline
 90
       17
 70
             129
 10
-207.50604719764007
 20
818.79999999999995
 42
0.4142135623730967
 10
-237.50604719764007
 20
848.79999999999995
 10
-697.50604719763987
 20
848.79999999999995
 42
0.414213562373095
 10
-727.50604719763987
 20
818.79999999999995
 10
-727.48795689414055
 20
523.78240416038511
 42
0.4142135623730939
 10
-697.48795689414055
 20
493.78240416038517
 10
-498.34744882046152
 20
493.78240416038517
 10
-497.81141955539738
 20
489.41679613016987
 10
-497.58367556153109
 20
481.4988838131938
 42
0.4058162169161848
 10
-494.80604719764028
 20
478.80000000000001
 10
-440.10604719764035
 20
478.80000000000001
 42
0.3809534961151453
 10
-437.20802451687894
 20
481.38286323326497
 10
-437.20604719764026
 20
481.39999999999998
 10
-437.16432591431749
 20
489.41679613016987
 10
-436.62829664925334
 20
493.78240416038517
 10
-237.48795689414104
 20
493.78240416038517
 42
0.414213562373095
 10
-207.48795689414104
 20
523.78240416038511
  0
LINE
  5
13D
100
AcDbEntity
  8
FAA70-0514
370
              15
390
0
  6
Continuous
 62
               7
100
AcDbLine
 10
-498.34744882046152
 20
493.78240416038517
 30
0.0
 11
-436.62829664925334
 21
493.78240416038517
 31
0.0
  0
LINE
  5
13E
100
AcDbEntity
  8
FAA70-0514
370
              15
390
0
  6
Continuous
 62
               7
100
AcDbLine
 10
640.31396954109493
 20
-407.1397937231668
 30
0.0
 11
322.45077495853945
 21
-407.1397937231668
 31
0.0
  0
LINE
  5
13F
100
AcDbEntity
  8
FAA70-0514
370
              15
390
0
  6
Continuous
 62
               7
100
AcDbLine
 10
343.41568333962311
 20
-465.33597384130286
 30
0.0
 11
329.21225574256312
 21
-412.32806040744936
 31
0.0
  0
ARC
  5
140
100
AcDbEntity
  8
FAA70-0514
370
              15
390
0
  6
Continuous
 62
               7
100
AcDbCircle
 10
362.73419986540409
 20
-460.15959293925295
 30
0.0
 40
19.999999999999496
100
AcDbArc
 50
194.99999999999889
 51
265.00000000000011
  0
LINE
  5
141
100
AcDbEntity
  8
FAA70-0514
370
              15
390
0
  6
Continuous
 62
               7
100
AcDbLine
 10
519.90382890096134
 20
-493.98655048130519
 30
0.0
 11
360.991085010451
 21
-480.08348690108738
 31
0.0
  0
ARC
  5
142
100
AcDbEntity
  8
FAA70-0514
370
              15
390
0
  6
Continuous
 62
               7
100
AcDbCircle
 10
519.46805018722307
 20
-498.96752397176357
 30
0.0
 40
4.9999999999996589
100
AcDbArc
 50
359.99999999999488
 51
84.999999999999886
  0
LINE
  5
143
100
AcDbEntity
  8
FAA70-0514
370
              15
390
0
  6
Continuous
 62
               7
100
AcDbLine
 10
524.46805018722318
 20
-532.1397937231668
 30
0.0
 11
524.46805018722318
 21
-498.96752397176402
 31
0.0
  0
LINE
  5
144
100
AcDbEntity
  8
FAA70-0514
370
              15
390
0
  6
Continuous
 62
               7
100
AcDbLine
 10
599.46805018722341
 20
-532.1397937231668
 30
0.0
 11
524.46805018722318
 21
-532.1397937231668
 31
0.0
  0
LINE
  5
145
100
AcDbEntity
  8
FAA70-0514
370
              15
390
0
  6
Continuous
 62
               7
100
AcDbLine
 10
599.46805018722341
 20
-499.47992493095677
 30
0.0
 11
599.46805018722341
 21
-532.1397937231668
 31
0.0
  0
ARC
  5
146
100
AcDbEntity
  8
FAA70-0514
370
              15
390
0
  6
Continuous
 62
               7
100
AcDbCircle
 10
604.46805018722341
 20
-499.47992493095677
 30
0.0
 40
4.9999999999999938
100
AcDbArc
 50
94.999999999999801
 51
180.0
  0
LINE
  5
147
100
AcDbEntity
  8
FAA70-0514
370
              15
390
0
  6
Continuous
 62
               7
100
AcDbLine
 10
630.63611013182151
 20
-412.2575572433268
 30
0.0
 11
630.61396954109512
 21
-412.33979372316685
 31
0.0
  0
ARC
  5
148
100
AcDbEntity
  8
FAA70-0514
370
              15
390
0
  6
Continuous
 62
               7
100
AcDbCircle
 10
637.31396954109539
 20
-414.05544246889963
 30
0.0
 40
6.915648745733165
100
AcDbArc
 50
90.000000000003766
 51
164.93151184051507
  0
LINE
  5
149
100
AcDbEntity
  8
FAA70-0514
370
              15
390
0
  6
Continuous
 62
               7
100
AcDbLine
 10
652.01396954109475
 20
-407.1397937231668
 30
0.0
 11
637.31396954109493
 21
-407.1397937231668
 31
0.0
  0
LINE
  5
14A
100
AcDbEntity
  8
FAA70-0514
370
              15
390
0
  6
Continuous
 62
               7
100
AcDbLine
 10
652.01396954109475
 20
-379.1397937231668
 30
0.0
 11
652.01396954109475
 21
-407.1397937231668
 31
0.0
  0
ARC
  5
14B
100
AcDbEntity
  8
FAA70-0514
370
              15
390
0
  6
Continuous
 62
               7
100
AcDbCircle
 10
645.01396954109475
 20
-379.1397937231668
 30
0.0
 40
7.0
100
AcDbArc
 50
0.0
 51
90.0
  0
LINE
  5
14C
100
AcDbEntity
  8
FAA70-0514
370
              15
390
0
  6
Continuous
 62
               7
100
AcDbLine
 10
293.97080626361037
 20
-372.1397937231668
 30
0.0
 11
645.01396954109475
 21
-372.1397937231668
 31
0.0
  0
ARC
  5
14D
100
AcDbEntity
  8
FAA70-0514
370
              15
390
0
  6
Continuous
 62
               7
100
AcDbCircle
 10
308.97080626361037
 20
-379.1397937231668
 30
0.0
 40
7.0
100
AcDbArc
 50
90.0
 51
180.0
  0
LINE
  5
14E
100
AcDbEntity
  8
FAA70-0514
370
              15
390
0
  6
Continuous
 62
               7
100
AcDbLine
 10
301.97080626361037
 20
-407.1397937231668
 30
0.0
 11
301.97080626361037
 21
-379.1397937231668
 31
0.0
  0
LINE
  5
14F
100
AcDbEntity
  8
FAA70-0514
370
              15
390
0
  6
Continuous
 62
               7
100
AcDbLine
 10
322.45077495853945
 20
-407.1397937231668
 30
0.0
 11
301.97080626361037
 21
-407.1397937231668
 31
0.0
  0
ARC
  5
150
100
AcDbEntity
  8
FAA70-0514
370
              15
390
0
  6
Continuous
 62
               7
100
AcDbCircle
 10
322.45077495853945
 20
-414.13979372316726
 30
0.0
 40
7.0000000000004778
100
AcDbArc
 50
15.000000000001609
 51
90.0
  0
LINE
  5
151
100
AcDbEntity
  8
FAA70-0514
370
              15
390
0
  6
STYLE_25
 62
               7
100
AcDbLine
 10
-502.48795689414123
 20
-482.13979372316686
 30
0.0
 11
-432.48795689414123
 21
-482.13979372316686
 31
0.0
  0
LINE
  5
152
100
AcDbEntity
  8
FAA70-0514
370
              15
390
0
  6
STYLE_25
 62
               7
100
AcDbLine
 10
-432.98215658910226
 20
-482.1431834987323
 30
0.0
 11
-276.32590915707362
 21
-468.43753777791864
 31
0.0
  0
LINE
  5
153
100
AcDbEntity
  8
FAA70-0514
370
              15
390
0
  6
STYLE_25
 62
               7
100
AcDbLine
 10
-238.28938081675099
 20
-377.32806040744981
 30
0.0
 11
-258.75050748624471
 21
-453.69002471813229
 31
0.0
  0
ARC
  5
154
100
AcDbEntity
  8
FAA70-0514
370
              15
390
0
  6
STYLE_25
 62
               7
100
AcDbCircle
 10
-278.06902401202683
 20
-448.51364381608374
 30
0.0
 40
19.999999999999979
100
AcDbArc
 50
274.99999999999994
 51
345.00000000000557
  0
ARC
  5
155
100
AcDbEntity
  8
FAA70-0514
370
              15
390
0
  6
STYLE_25
 62
               7
100
AcDbCircle
 10
-231.52790003272733
 20
-379.1397937231668
 30
0.0
 40
7.0
100
AcDbArc
 50
90.0
 51
165.00000000000554
  0
LINE
  5
156
100
AcDbEntity
  8
FAA70-0514
370
              15
390
0
  6
STYLE_25
 62
               7
100
AcDbLine
 10
-501.99375719918021
 20
-482.1431834987323
 30
0.0
 11
-658.65000463120828
 21
-468.43753777791864
 31
0.0
  0
LINE
  5
157
100
AcDbEntity
  8
FAA70-0514
370
              15
390
0
  6
STYLE_25
 62
               7
100
AcDbLine
 10
-696.68653297153082
 20
-377.32806040744981
 30
0.0
 11
-676.22540630203707
 21
-453.69002471813229
 31
0.0
  0
ARC
  5
158
100
AcDbEntity
  8
FAA70-0514
370
              15
390
0
  6
STYLE_25
 62
               7
100
AcDbCircle
 10
-656.90688977625518
 20
-448.51364381608374
 30
0.0
 40
20.000000000000021
100
AcDbArc
 50
194.99999999999446
 51
265.00000000000023
  0
ARC
  5
159
100
AcDbEntity
  8
FAA70-0514
370
              15
390
0
  6
STYLE_25
 62
               7
100
AcDbCircle
 10
-703.44801375555448
 20
-379.1397937231668
 30
0.0
 40
7.000000000000008
100
AcDbArc
 50
14.999999999994452
 51
90.000000000000014
  0
LINE
  5
15A
100
AcDbEntity
  8
FAA70-0514
370
              15
390
0
  6
Continuous
 62
               7
100
AcDbLine
 10
630.61396954109512
 20
-412.33979372316685
 30
0.0
 11
624.59519127705187
 21
-479.53379058501838
 31
0.0
  0
LINE
  5
15B
100
AcDbEntity
  8
FAA70-0514
370
              15
390
0
  6
Continuous
 62
               7
100
AcDbLine
 10
604.03227147348514
 20
-494.49895144049816
 30
0.0
 11
612.39848676937697
 21
-492.94252766503342
 31
0.0
  0
ARC
  5
15C
100
AcDbEntity
  8
FAA70-0514
370
              15
390
0
  6
Continuous
 62
               7
100
AcDbCircle
 10
609.65500670177096
 20
-478.19555112342829
 30
0.0
 40
15.00000000000059
100
AcDbArc
 50
280.53864493973765
 51
354.88149630391644
  0
LINE
  5
15D
100
AcDbEntity
  8
FAA70-0514
370
              15
390
0
  6
Continuous
 62
               7
100
AcDbLine
 10
312.03805103715638
 20
-493.22782082149371
 30
0.0
 11
286.97080626361037
 21
-399.67558972081588
 31
0.0
  0
LINE
  5
15E
100
AcDbEntity
  8
FAA70-0514
370
              15
390
0
  6
Continuous
 62
               7
100
AcDbLine
 10
519.94974825483223
 20
-523.92769269094333
 30
0.0
 11
329.61345270798472
 21
-507.97533388128005
 31
0.0
  0
ARC
  5
15F
100
AcDbEntity
  8
FAA70-0514
370
              15
390
0
  6
Continuous
 62
               7
100
AcDbCircle
 10
519.51396954109396
 20
-528.90866618140171
 30
0.0
 40
4.9999999999996589
100
AcDbArc
 50
359.99999999999488
 51
84.999999999999886
  0
LINE
  5
160
100
AcDbEntity
  8
FAA70-0514
370
              15
390
0
  6
Continuous
 62
               7
100
AcDbLine
 10
286.97080626361037
 20
-379.1397937231668
 30
0.0
 11
286.97080626361037
 21
-399.67558972081588
 31
0.0
  0
ARC
  5
161
100
AcDbEntity
  8
FAA70-0514
370
              15
390
0
  6
Continuous
 62
               7
100
AcDbCircle
 10
293.97080626361037
 20
-379.1397937231668
 30
0.0
 40
7.0
100
AcDbArc
 50
90.0
 51
180.0
  0
ARC
  5
162
100
AcDbEntity
  8
FAA70-0514
370
              15
390
0
  6
Continuous
 62
               7
100
AcDbCircle
 10
331.35656756293827
 20
-488.05143991944516
 30
0.0
 40
20.000000000000021
100
AcDbArc
 50
194.99999999999446
 51
264.99999999999886
  0
LINE
  5
163
100
AcDbEntity
  8
FAA70-0514
370
              15
390
0
  6
STYLE_25
 62
               7
100
AcDbLine
 10
527.46776203496188
 20
-482.1431834987323
 30
0.0
 11
370.81151460293165
 21
-468.43753777791864
 31
0.0
  0
LINE
  5
164
100
AcDbEntity
  8
FAA70-0514
370
              15
390
0
  6
STYLE_25
 62
               7
100
AcDbLine
 10
332.7749862626091
 20
-377.32806040744981
 30
0.0
 11
353.23611293210286
 21
-453.69002471813229
 31
0.0
  0
ARC
  5
165
100
AcDbEntity
  8
FAA70-0514
370
              15
390
0
  6
STYLE_25
 62
               7
100
AcDbCircle
 10
372.55462945788474
 20
-448.51364381608374
 30
0.0
 40
20.000000000000021
100
AcDbArc
 50
194.99999999999446
 51
265.00000000000023
  0
ARC
  5
166
100
AcDbEntity
  8
FAA70-0514
370
              15
390
0
  6
STYLE_25
 62
               7
100
AcDbCircle
 10
326.01350547858544
 20
-379.1397937231668
 30
0.0
 40
7.000000000000008
100
AcDbArc
 50
14.999999999994452
 51
90.000000000000014
  0
ARC
  5
167
100
AcDbEntity
  8
FAA70-0514
370
              15
390
0
  6
STYLE_25
 62
               7
100
AcDbCircle
 10
629.21021523749266
 20
-379.1397937231668
 30
0.0
 40
7.0
100
AcDbArc
 50
90.0
 51
165.00000000000554
  0
LINE
  5
168
100
AcDbEntity
  8
FAA70-0514
370
              15
390
0
  6
STYLE_25
 62
               7
100
AcDbLine
 10
622.448734453469
 20
-377.32806040744981
 30
0.0
 11
614.69205285288797
 21
-463.92411300528698
 31
0.0
  0
LINE
  5
169
100
AcDbEntity
  8
FAA70-0514
370
              15
390
0
  6
STYLE_25
 62
               7
100
AcDbLine
 10
594.77180675251418
 20
-482.13979372316686
 30
0.0
 11
527.42901672295397
 21
-482.13979372316686
 31
0.0
  0
ARC
  5
16A
100
AcDbEntity
  8
FAA70-0514
370
              15
390
0
  6
STYLE_25
 62
               7
100
AcDbCircle
 10
594.77180675251464
 20
-462.13979372316686
 30
0.0
 40
19.999999999999659
100
AcDbArc
 50
269.99999999999869
 51
354.88149630391621
  0
CIRCLE
  5
16B
100
AcDbEntity
  8
FAA70-0514
370
               5
390
0
  6
STYLE_25
 62
               7
100
AcDbCircle
 10
446.95646584891199
 20
753.78240416038511
 30
0.0
 40
26.0
  0
LWPOLYLINE
  5
16C
100
AcDbEntity
  8
FAA70-0514
370
               5
390
0
  6
STYLE_25
 62
               7
100
AcDbPolyline
 90
       18
 70
             129
 10
706.95370977252389
 20
813.78240416038534
 42
0.414213562373095
 10
676.95370977252389
 20
843.78240416038511
 10
216.95370977252327
 20
843.78240416038511
 42
0.414213562373095
 10
186.95370977252327
 20
813.78240416038511
 10
186.9537097725235
 20
523.78240416038511
 42
0.414213562373095
 10
216.9537097725235
 20
493.78240416038517
 10
416.0942178462027
 20
493.78240416038517
 10
416.59395280235969
 20
481.39999999999998
 10
416.60259457970767
 20
481.3438284472382
 42
0.3701783109170675
 10
419.56770967265948
 20
478.80000000000001
 10
419.59395280235969
 20
478.80000000000001
 10
474.29395280235974
 20
478.80000000000001
 10
474.37670233669928
 20
478.80000000000001
 42
0.3809534961151658
 10
477.29395280235974
 20
481.39999999999998
 10
477.27734075234684
 20
489.41679613016987
 10
477.81337001741099
 20
493.78240416038517
 10
676.95370977252344
 20
493.78240416038517
 42
0.414213562373095
 10
706.95370977252344
 20
523.78240416038511
  0
LINE
  5
16D
100
AcDbEntity
  8
FAA70-0514
370
               5
390
0
  6
STYLE_25
 62
               7
100
AcDbLine
 10
416.0942178462027
 20
493.78240416038517
 30
0.0
 11
477.81337001741099
 21
493.78240416038517
 31
0.0
  0
LWPOLYLINE
  5
16E
100
AcDbEntity
  8
FAA70-0514
370
              15
390
0
  6
Continuous
 62
               7
100
AcDbPolyline
 90
        8
 70
             129
 10
211.95646584891227
 20
787.79999999999995
 42
-0.414213562373095
 10
241.95646584891227
 20
817.79999999999995
 10
651.95646584891256
 20
817.79999999999995
 42
-0.414213562373095
 10
681.95646584891256
 20
787.79999999999995
 10
681.95646584891256
 20
542.79999999999995
 42
-0.414213562373095
 10
651.95646584891256
 20
512.79999999999995
 10
241.95646584891227
 20
512.79999999999995
 42
-0.4142135623730954
 10
211.95646584891227
 20
542.79999999999995
  0
LINE
  5
16F
100
AcDbEntity
  8
FAA70-0514
370
              15
390
0
  6
STYLE_25
 62
               7
100
AcDbLine
 10
-493.48795689414135
 20
-482.13979372316686
 30
0.0
 11
-493.48795689414135
 21
-532.1397937231668
 31
0.0
  0
LINE
  5
170
100
AcDbEntity
  8
FAA70-0514
370
              15
390
0
  6
STYLE_25
 62
               7
100
AcDbLine
 10
-441.48795689414123
 20
-482.13979372316686
 30
0.0
 11
-441.48795689414123
 21
-532.1397937231668
 31
0.0
  0
LINE
  5
171
100
AcDbEntity
  8
FAA70-0514
370
              15
390
0
  6
STYLE_25
 62
               7
100
AcDbLine
 10
587.9680501872233
 20
-482.13979372316686
 30
0.0
 11
587.9680501872233
 21
-532.1397937231668
 31
0.0
  0
LINE
  5
172
100
AcDbEntity
  8
FAA70-0514
370
              15
390
0
  6
STYLE_25
 62
               7
100
AcDbLine
 10
535.9680501872233
 20
-482.13979372316686
 30
0.0
 11
535.9680501872233
 21
-532.1397937231668
 31
0.0
  0
ENDSEC
  0
SECTION
  2
OBJECTS
  0
DICTIONARY
  5
19
100
AcDbDictionary
280
               0
281
               1
  3
ACAD_GROUP
350
1A
  3
ACAD_MLINESTYLE
350
1B
  3
ACAD_LAYOUT
350
1E
  3
ACAD_PLOTSETTINGS
350
22
  3
ACAD_PLOTSTYLENAME
350
1F
  0
DICTIONARY
  5
1A
102
{ACAD_REACTORS
330
19
102
}
100
AcDbDictionary
280
               0
281
               1
  0
DICTIONARY
  5
1B
102
{ACAD_REACTORS
330
19
102
}
100
AcDbDictionary
280
               0
281
               1
  3
Standard
350
1C
  0
MLINESTYLE
  5
1C
102
{ACAD_REACTORS
330
1B
102
}
100
AcDbMlineStyle
  2
Standard
 70
               0
  3

 62
               0
 51
90.0
 52
90.0
 71
               2
 49
0.5
 62
             256
  6
ByLayer
 49
-0.5
 62
             256
  6
ByLayer
  0
ACDBDICTIONARYWDFLT
  5
1F
102
{ACAD_REACTORS
330
19
102
}
100
AcDbDictionary
281
               1
  3
Normal
350
1D
100
AcDbDictionaryWithDefault
340
1D
  0
ACDBPLACEHOLDER
  5
1D
102
{ACAD_REACTORS
330
1F
102
}
  0
LAYOUT
  5
20
102
{ACAD_REACTORS
330
1E
102
}
100
AcDbPlotSettings
  1

  2

  4

  6

 40
0.0
 41
0.0
 42
0.0
 43
0.0
 44
0.0
 45
0.0
 46
0.0
 47
0.0
 48
0.0
 49
0.0
140
0.0
141
0.0
142
1.0
143
1.0
 70
            1024
 72
               0
 73
               0
 74
               0
  7

 75
               0
147
1.0
148
0.0
149
0.0
100
AcDbLayout
  1
Model
 70
               0
 71
               0
 10
0.0
 20
0.0
 11
0.0
 21
0.0
 12
0.0
 22
0.0
 32
0.0
 14
0.0
 24
0.0
 34
0.0
 15
0.0
 25
0.0
 35
0.0
146
0.0
 13
0.0
 23
0.0
 33
0.0
 16
0.0
 26
0.0
 36
0.0
 17
0.0
 27
0.0
 37
0.0
 76
               0
330
A
331
0
345
0
346
0
  0
LAYOUT
  5
21
102
{ACAD_REACTORS
330
1E
102
}
100
AcDbPlotSettings
  1

  2

  4

  6

 40
0.0
 41
0.0
 42
0.0
 43
0.0
 44
0.0
 45
0.0
 46
0.0
 47
0.0
 48
0.0
 49
0.0
140
0.0
141
0.0
142
1.0
143
1.0
 70
               0
 72
               0
 73
               0
 74
               0
  7

 75
               0
147
1.0
148
0.0
149
0.0
100
AcDbLayout
  1
Layout1
 70
               0
 71
               0
 10
0.0
 20
0.0
 11
0.0
 21
0.0
 12
0.0
 22
0.0
 32
0.0
 14
0.0
 24
0.0
 34
0.0
 15
0.0
 25
0.0
 35
0.0
146
0.0
 13
0.0
 23
0.0
 33
0.0
 16
0.0
 26
0.0
 36
0.0
 17
0.0
 27
0.0
 37
0.0
 76
               0
330
B
331
0
345
0
346
0
  0
DICTIONARY
  5
1E
102
{ACAD_REACTORS
330
19
102
}
100
AcDbDictionary
280
               0
281
               1
  3
Layout1
350
21
  3
Model
350
20
  0
DICTIONARY
  5
22
102
{ACAD_REACTORS
330
19
102
}
100
AcDbDictionary
280
               0
281
               1
  0
ENDSEC
  0
EOF
