  0
SECTION
  2
HEADER
  9
$ACADVER
  1
AC1015
  9
$ACADMAINTVER
 70
               6
  9
$DWGCODEPAGE
  3
ANSI_932
  9
$INSBASE
 10
0.0
 20
0.0
 30
0.0
  9
$EXTMIN
 10
-975.00000000024124
 20
-1431.5255224711129
 30
-14.428611111111111
  9
$EXTMAX
 10
975.00000000024124
 20
1405.9972926412995
 30
14.428611111111111
  9
$LIMMIN
 10
0.0
 20
0.0
  9
$LIMMAX
 10
0.0
 20
0.0
  9
$ORTHOMODE
 70
               0
  9
$REGENMODE
 70
               1
  9
$FILLMODE
 70
               1
  9
$QTEXTMODE
 70
               0
  9
$MIRRTEXT
 70
               1
  9
$LTSCALE
 40
12.699999999999999
  9
$ATTMODE
 70
               1
  9
$TEXTSIZE
 40
0.2
  9
$TRACEWID
 40
1.0
  9
$TEXTSTYLE
  7
Standard
  9
$CLAYER
  8
FAA70-0515
  9
$CELTYPE
  6
Continuous
  9
$CECOLOR
 62
             256
  9
$CELTSCALE
 40
1.0
  9
$DISPSILH
 70
               0
  9
$DIMSCALE
 40
1.0
  9
$DIMASZ
 40
31.75
  9
$DIMEXO
 40
0.0
  9
$DIMDLI
 40
6.9999999999999396
  9
$DIMRND
 40
0.0
  9
$DIMDLE
 40
0.0
  9
$DIMEXE
 40
19.999999999996199
  9
$DIMTP
 40
0.0
  9
$DIMTM
 40
0.0
  9
$DIMTXT
 40
24.432617187500004
  9
$DIMCEN
 40
0.0
  9
$DIMTSZ
 40
0.0
  9
$DIMTOL
 70
               0
  9
$DIMLIM
 70
               0
  9
$DIMTIH
 70
               0
  9
$DIMTOH
 70
               0
  9
$DIMSE1
 70
               0
  9
$DIMSE2
 70
               0
  9
$DIMTAD
 70
               1
  9
$DIMZIN
 70
              11
  9
$DIMBLK
  1
VW_FILLEDARROW
  9
$DIMASO
 70
               1
  9
$DIMSHO
 70
               1
  9
$DIMPOST
  1
<>
  9
$DIMAPOST
  1
[]
  9
$DIMALT
 70
               0
  9
$DIMALTD
 70
               1
  9
$DIMALTF
 40
1.0
  9
$DIMLFAC
 40
1.0
  9
$DIMTOFL
 70
               0
  9
$DIMTVP
 40
0.0
  9
$DIMTIX
 70
               1
  9
$DIMSOXD
 70
               0
  9
$DIMSAH
 70
               0
  9
$DIMBLK1
  1

  9
$DIMBLK2
  1

  9
$DIMSTYLE
  2
JIS
  9
$DIMCLRD
 70
               0
  9
$DIMCLRE
 70
               0
  9
$DIMCLRT
 70
               0
  9
$DIMTFAC
 40
1.0
  9
$DIMGAP
 40
1.00000000000108
  9
$DIMJUST
 70
               0
  9
$DIMSD1
 70
               0
  9
$DIMSD2
 70
               0
  9
$DIMTOLJ
 70
               1
  9
$DIMTZIN
 70
              11
  9
$DIMALTZ
 70
              11
  9
$DIMALTTZ
 70
              11
  9
$DIMUPT
 70
               0
  9
$DIMDEC
 70
               1
  9
$DIMTDEC
 70
               1
  9
$DIMALTU
 70
               2
  9
$DIMALTTD
 70
               2
  9
$DIMTXSTY
  7
ＭＳ ゴシック
  9
$DIMAUNIT
 70
               0
  9
$DIMADEC
 70
               2
  9
$DIMALTRND
 40
0.0
  9
$DIMAZIN
 70
               0
  9
$DIMDSEP
 70
              46
  9
$DIMATFIT
 70
               0
  9
$DIMFRAC
 70
               2
  9
$DIMLDRBLK
  1

  9
$DIMLUNIT
 70
               2
  9
$DIMLWD
 70
              -2
  9
$DIMLWE
 70
              -2
  9
$DIMTMOVE
 70
               0
  9
$LUNITS
 70
               2
  9
$LUPREC
 70
               4
  9
$SKETCHINC
 40
0.1
  9
$FILLETRAD
 40
0.0
  9
$AUNITS
 70
               0
  9
$AUPREC
 70
               0
  9
$MENU
  1
acad
  9
$ELEVATION
 40
0.0
  9
$PELEVATION
 40
0.0
  9
$THICKNESS
 40
0.0
  9
$LIMCHECK
 70
               0
  9
$CHAMFERA
 40
0.0
  9
$CHAMFERB
 40
0.0
  9
$CHAMFERC
 40
0.0
  9
$CHAMFERD
 40
0.0
  9
$SKPOLY
 70
               0
  9
$TDCREATE
 40
2456003.669942129
  9
$TDUCREATE
 40
0.000000000
  9
$TDUPDATE
 40
2456003.669942129
  9
$TDUUPDATE
 40
0.000000000
  9
$TDINDWG
 40
0.0000000000
  9
$TDUSRTIMER
 40
0.0000000000
  9
$USRTIMER
 70
               1
  9
$ANGBASE
 50
0.0
  9
$ANGDIR
 70
               0
  9
$PDMODE
 70
               1
  9
$PDSIZE
 40
-2.0
  9
$PLINEWID
 40
0.0
  9
$SPLFRAME
 70
               0
  9
$SPLINETYPE
 70
               6
  9
$SPLINESEGS
 70
               8
  9
$HANDSEED
  5
1B6
  9
$SURFTAB1
 70
               6
  9
$SURFTAB2
 70
               6
  9
$SURFTYPE
 70
               6
  9
$SURFU
 70
               6
  9
$SURFV
 70
               6
  9
$UCSBASE
  2

  9
$UCSNAME
  2

  9
$UCSORG
 10
0.0
 20
0.0
 30
0.0
  9
$UCSXDIR
 10
1.0
 20
0.0
 30
0.0
  9
$UCSYDIR
 10
0.0
 20
1.0
 30
0.0
  9
$UCSORTHOREF
  2

  9
$UCSORTHOVIEW
 70
               0
  9
$UCSORGTOP
 10
0.0
 20
0.0
 30
0.0
  9
$UCSORGBOTTOM
 10
0.0
 20
0.0
 30
0.0
  9
$UCSORGLEFT
 10
0.0
 20
0.0
 30
0.0
  9
$UCSORGRIGHT
 10
0.0
 20
0.0
 30
0.0
  9
$UCSORGFRONT
 10
0.0
 20
0.0
 30
0.0
  9
$UCSORGBACK
 10
0.0
 20
0.0
 30
0.0
  9
$PUCSBASE
  2

  9
$PUCSNAME
  2

  9
$PUCSORG
 10
0.0
 20
0.0
 30
0.0
  9
$PUCSXDIR
 10
1.0
 20
0.0
 30
0.0
  9
$PUCSYDIR
 10
0.0
 20
1.0
 30
0.0
  9
$PUCSORTHOREF
  2

  9
$PUCSORTHOVIEW
 70
               0
  9
$PUCSORGTOP
 10
0.0
 20
0.0
 30
0.0
  9
$PUCSORGBOTTOM
 10
0.0
 20
0.0
 30
0.0
  9
$PUCSORGLEFT
 10
0.0
 20
0.0
 30
0.0
  9
$PUCSORGRIGHT
 10
0.0
 20
0.0
 30
0.0
  9
$PUCSORGFRONT
 10
0.0
 20
0.0
 30
0.0
  9
$PUCSORGBACK
 10
0.0
 20
0.0
 30
0.0
  9
$USERI1
 70
               0
  9
$USERI2
 70
               0
  9
$USERI3
 70
               0
  9
$USERI4
 70
               0
  9
$USERI5
 70
               0
  9
$USERR1
 40
0.0
  9
$USERR2
 40
0.0
  9
$USERR3
 40
0.0
  9
$USERR4
 40
0.0
  9
$USERR5
 40
0.0
  9
$WORLDVIEW
 70
               1
  9
$SHADEDGE
 70
               3
  9
$SHADEDIF
 70
              70
  9
$TILEMODE
 70
               1
  9
$MAXACTVP
 70
              64
  9
$PINSBASE
 10
0.0
 20
0.0
 30
0.0
  9
$PLIMCHECK
 70
               0
  9
$PEXTMIN
 10
1.0000000000000000E+20
 20
1.0000000000000000E+20
 30
1.0000000000000000E+20
  9
$PEXTMAX
 10
-1.0000000000000000E+20
 20
-1.0000000000000000E+20
 30
-1.0000000000000000E+20
  9
$PLIMMIN
 10
0.0
 20
0.0
  9
$PLIMMAX
 10
12.0
 20
9.0
  9
$UNITMODE
 70
               0
  9
$VISRETAIN
 70
               0
  9
$PLINEGEN
 70
               1
  9
$PSLTSCALE
 70
               0
  9
$TREEDEPTH
 70
            3020
  9
$CMLSTYLE
  2
Standard
  9
$CMLJUST
 70
               0
  9
$CMLSCALE
 40
1.0
  9
$PROXYGRAPHICS
 70
               0
  9
$MEASUREMENT
 70
               1
  9
$CELWEIGHT
370
               0
  9
$ENDCAPS
280
               0
  9
$JOINSTYLE
280
               0
  9
$LWDISPLAY
290
               1
  9
$INSUNITS
 70
               4
  9
$HYPERLINKBASE
  1

  9
$STYLESHEET
  1

  9
$XEDIT
290
               1
  9
$CEPSNTYPE
380
               0
  9
$PSTYLEMODE
290
               1
  9
$FINGERPRINTGUID
  2

  9
$VERSIONGUID
  2

  9
$EXTNAMES
290
               1
  9
$PSVPSCALE
 40
0.0
  0
ENDSEC
  0
SECTION
  2
CLASSES
  0
CLASS
  1
LWPOLYLINE
  2
AcDbPolyline
  3
AutoCAD 2000
 90
        0
280
               0
281
               1
  0
CLASS
  1
IMAGE
  2
AcDbRasterImage
  3
ISM
 90
      127
280
               0
281
               1
  0
CLASS
  1
OLE2FRAME
  2
AcDbOle2Frame
  3
AutoCAD 2000
 90
        0
280
               0
281
               1
  0
CLASS
  1
HATCH
  2
AcDbHatch
  3
AutoCAD 2000
 90
        0
280
               0
281
               1
  0
CLASS
  1
DICTIONARYVAR
  2
AcDbDictionaryVar
  3
AutoCAD 2000
 90
        0
280
               0
281
               0
  0
CLASS
  1
RASTERVARIABLES
  2
AcDbRasterVariables
  3
ISM
 90
        0
280
               0
281
               0
  0
CLASS
  1
IMAGEDEF
  2
AcDbRasterImageDef
  3
ISM
 90
        0
280
               0
281
               0
  0
CLASS
  1
IMAGEDEF_REACTOR
  2
AcDbRasterImageDefReactor
  3
ISM
 90
        1
280
               0
281
               0
  0
CLASS
  1
IDBUFFER
  2
AcDbIdBuffer
  3
AutoCAD 2000
 90
        0
280
               0
281
               0
  0
CLASS
  1
SPATIAL_FILTER
  2
AcDbSpatialFilter
  3
AutoCAD 2000
 90
        0
280
               0
281
               0
  0
CLASS
  1
XRECORD
  2
AcDbXrecord
  3
AutoCAD 2000
 90
        0
280
               0
281
               0
  0
CLASS
  1
SORTENTSTABLE
  2
AcDbSortentsTable
  3
AutoCAD 2000
 90
        0
280
               0
281
               0
  0
CLASS
  1
LAYER_INDEX
  2
AcDbLayerIndex
  3
AutoCAD 2000
 90
        0
280
               0
281
               0
  0
CLASS
  1
SPATIAL_INDEX
  2
AcDbSpatialIndex
  3
AutoCAD 2000
 90
        0
280
               0
281
               0
  0
CLASS
  1
OBJECT_PTR
  2
CAseDLPNTableRecord
  3
"ASE-LPNTableRecord"
 90
        1
280
               0
281
               0
  0
CLASS
  1
LAYOUT
  2
AcDbLayout
  3
AutoCAD 2000
 90
        0
280
               0
281
               0
  0
CLASS
  1
PLOTSETTINGS
  2
AcDbPlotSettings
  3
AutoCAD 2000
 90
        0
280
               0
281
               0
  0
CLASS
  1
ACDBDICTIONARYWDFLT
  2
AcDbDictionaryWithDefault
  3
AutoCAD 2000
 90
        0
280
               0
281
               0
  0
CLASS
  1
ACDBPLACEHOLDER
  2
AcDbPlaceHolder
  3
AutoCAD 2000
 90
        0
280
               0
281
               0
  0
ENDSEC
  0
SECTION
  2
TABLES
  0
TABLE
  2
VPORT
  5
7
100
AcDbSymbolTable
 70
               1
  0
VPORT
  5
15
100
AcDbSymbolTableRecord
100
AcDbViewportTableRecord
  2
*ACTIVE
 70
               0
 10
0.0
 20
0.0
 11
1.0
 21
1.0
 12
0.0
 22
-12.764114914906713
 13
0.0
 23
0.0
 14
1.0
 24
1.0
 15
0.0
 25
0.0
 16
0.0
 26
0.0
 36
1.0
 17
0.0
 27
0.0
 37
0.0
 40
2837.5228151124124
 41
0.688564
 42
50.0
 43
0.0
 44
0.0
 50
0.0
 51
0.0
 71
               0
 72
            2000
 73
               1
 74
               1
 75
               0
 76
               0
 77
               0
 78
               0
281
               0
 65
               0
110
0.0
120
0.0
130
0.0
111
1.0
121
0.0
131
0.0
112
0.0
122
1.0
132
0.0
345
0
346
0
 79
               0
146
0.0
  0
ENDTAB
  0
TABLE
  2
LTYPE
  5
4
100
AcDbSymbolTable
 70
              28
  0
LTYPE
  5
11
100
AcDbSymbolTableRecord
100
AcDbLinetypeTableRecord
  2
ByBlock
 70
              64
  3

 72
              65
 73
               0
 40
0.0
  0
LTYPE
  5
12
100
AcDbSymbolTableRecord
100
AcDbLinetypeTableRecord
  2
ByLayer
 70
              64
  3

 72
              65
 73
               0
 40
0.0
  0
LTYPE
  5
13
100
AcDbSymbolTableRecord
100
AcDbLinetypeTableRecord
  2
Continuous
 70
              64
  3
Solid line
 72
              65
 73
               0
 40
0.0
  0
LTYPE
  5
37
100
AcDbSymbolTableRecord
100
AcDbLinetypeTableRecord
  2
STYLE_01
 70
               0
  3

 72
              65
 73
               2
 40
0.157472
 49
0.078736
 74
               0
 49
-0.078736
 74
               0
  0
LTYPE
  5
38
100
AcDbSymbolTableRecord
100
AcDbLinetypeTableRecord
  2
STYLE_02
 70
               0
  3

 72
              65
 73
               2
 40
0.236206
 49
0.15747
 74
               0
 49
-0.078736
 74
               0
  0
LTYPE
  5
39
100
AcDbSymbolTableRecord
100
AcDbLinetypeTableRecord
  2
STYLE_03
 70
               0
  3

 72
              65
 73
               2
 40
0.314942
 49
0.236206
 74
               0
 49
-0.078736
 74
               0
  0
LTYPE
  5
3A
100
AcDbSymbolTableRecord
100
AcDbLinetypeTableRecord
  2
STYLE_04
 70
               0
  3

 72
              65
 73
               2
 40
0.4724119999999999
 49
0.393676
 74
               0
 49
-0.0787359999999999
 74
               0
  0
LTYPE
  5
3B
100
AcDbSymbolTableRecord
100
AcDbLinetypeTableRecord
  2
STYLE_05
 70
               0
  3

 72
              65
 73
               4
 40
0.4214800000000001
 49
0.236206
 74
               0
 49
-0.078736
 74
               0
 49
0.027802
 74
               0
 49
-0.0787360000000001
 74
               0
  0
LTYPE
  5
3C
100
AcDbSymbolTableRecord
100
AcDbLinetypeTableRecord
  2
STYLE_06
 70
               0
  3

 72
              65
 73
               6
 40
0.736422
 49
0.236206
 74
               0
 49
-0.078736
 74
               0
 49
0.2362059999999999
 74
               0
 49
-0.0787360000000001
 74
               0
 49
0.027802
 74
               0
 49
-0.0787360000000001
 74
               0
  0
LTYPE
  5
3D
100
AcDbSymbolTableRecord
100
AcDbLinetypeTableRecord
  2
STYLE_07
 70
               0
  3

 72
              65
 73
               6
 40
0.528018
 49
0.236206
 74
               0
 49
-0.078736
 74
               0
 49
0.027802
 74
               0
 49
-0.0787360000000001
 74
               0
 49
0.027802
 74
               0
 49
-0.0787359999999999
 74
               0
  0
LTYPE
  5
3E
100
AcDbSymbolTableRecord
100
AcDbLinetypeTableRecord
  2
STYLE_08
 70
               0
  3

 72
              65
 73
               4
 40
1.0235619999999999
 49
0.7873539999999996
 74
               0
 49
-0.0787360000000001
 74
               0
 49
0.0787360000000001
 74
               0
 49
-0.0787360000000001
 74
               0
  0
LTYPE
  5
3F
100
AcDbSymbolTableRecord
100
AcDbLinetypeTableRecord
  2
STYLE_09
 70
               0
  3

 72
              65
 73
               6
 40
1.1810339999999997
 49
0.7873539999999996
 74
               0
 49
-0.0787360000000001
 74
               0
 49
0.0787360000000001
 74
               0
 49
-0.0787360000000001
 74
               0
 49
0.0787359999999999
 74
               0
 49
-0.0787359999999999
 74
               0
  0
LTYPE
  5
40
100
AcDbSymbolTableRecord
100
AcDbLinetypeTableRecord
  2
STYLE_10
 70
               0
  3

 72
              65
 73
               4
 40
1.0826771653543308
 49
0.7677165354330708
 74
               0
 49
-0.1181102362204725
 74
               0
 49
0.078740157480315
 74
               0
 49
-0.1181102362204724
 74
               0
  0
LTYPE
  5
41
100
AcDbSymbolTableRecord
100
AcDbLinetypeTableRecord
  2
STYLE_11
 70
               0
  3

 72
              65
 73
               2
 40
0.4921259842519685
 49
0.374015748031496
 74
               0
 49
-0.1181102362204724
 74
               0
  0
LTYPE
  5
42
100
AcDbSymbolTableRecord
100
AcDbLinetypeTableRecord
  2
STYLE_12
 70
               0
  3

 72
              65
 73
               2
 40
3.8099999999999987
 49
2.5399999999999996
 74
               0
 49
-1.2699999999999996
 74
               0
  0
LTYPE
  5
43
100
AcDbSymbolTableRecord
100
AcDbLinetypeTableRecord
  2
STYLE_13
 70
               0
  3

 72
              65
 73
               6
 40
12.699999999999999
 49
6.3499999999999996
 74
               0
 49
-1.27
 74
               0
 49
1.27
 74
               0
 49
-1.27
 74
               0
 49
1.27
 74
               0
 49
-1.27
 74
               0
  0
LTYPE
  5
44
100
AcDbSymbolTableRecord
100
AcDbLinetypeTableRecord
  2
STYLE_14
 70
               0
  3

 72
              65
 73
               4
 40
20.32
 49
12.699999999999999
 74
               0
 49
-2.54
 74
               0
 49
2.54
 74
               0
 49
-2.54
 74
               0
  0
LTYPE
  5
45
100
AcDbSymbolTableRecord
100
AcDbLinetypeTableRecord
  2
STYLE_15
 70
               0
  3

 72
              65
 73
               2
 40
1.2020000000000004
 49
1.2000000000000002
 74
               0
 49
-0.0020000000000001
 74
               0
  0
LTYPE
  5
46
100
AcDbSymbolTableRecord
100
AcDbLinetypeTableRecord
  2
STYLE_16
 70
               0
  3

 72
              65
 73
               2
 40
0.3
 49
0.2
 74
               0
 49
-0.1
 74
               0
  0
LTYPE
  5
47
100
AcDbSymbolTableRecord
100
AcDbLinetypeTableRecord
  2
STYLE_17
 70
               0
  3

 72
              65
 73
               2
 40
3.0
 49
2.3999999999999999
 74
               0
 49
-0.6
 74
               0
  0
LTYPE
  5
48
100
AcDbSymbolTableRecord
100
AcDbLinetypeTableRecord
  2
STYLE_18
 70
               0
  3

 72
              65
 73
               4
 40
7.1999999999999993
 49
4.7999999999999998
 74
               0
 49
-0.6000000000000005
 74
               0
 49
1.2
 74
               0
 49
-0.5999999999999994
 74
               0
  0
LTYPE
  5
49
100
AcDbSymbolTableRecord
100
AcDbLinetypeTableRecord
  2
STYLE_19
 70
               0
  3

 72
              65
 73
               6
 40
9.0
 49
4.7999999999999998
 74
               0
 49
-0.6000000000000005
 74
               0
 49
1.2
 74
               0
 49
-0.5999999999999994
 74
               0
 49
1.2
 74
               0
 49
-0.5999999999999994
 74
               0
  0
LTYPE
  5
4A
100
AcDbSymbolTableRecord
100
AcDbLinetypeTableRecord
  2
STYLE_20
 70
               0
  3

 72
              65
 73
               4
 40
3.5999999999999996
 49
2.3999999999999999
 74
               0
 49
-0.3000000000000003
 74
               0
 49
0.6
 74
               0
 49
-0.2999999999999997
 74
               0
  0
LTYPE
  5
4B
100
AcDbSymbolTableRecord
100
AcDbLinetypeTableRecord
  2
STYLE_21
 70
               0
  3

 72
              65
 73
               2
 40
1.5
 49
1.2
 74
               0
 49
-0.3
 74
               0
  0
LTYPE
  5
4C
100
AcDbSymbolTableRecord
100
AcDbLinetypeTableRecord
  2
STYLE_22
 70
               0
  3

 72
              65
 73
               2
 40
4.4000399999999997
 49
0.002
 74
               0
 49
-4.3980399999999999
 74
               0
  0
LTYPE
  5
4D
100
AcDbSymbolTableRecord
100
AcDbLinetypeTableRecord
  2
STYLE_23
 70
               0
  3

 72
              65
 73
               2
 40
2.5
 49
1.8999999999999999
 74
               0
 49
-0.6
 74
               0
  0
LTYPE
  5
4E
100
AcDbSymbolTableRecord
100
AcDbLinetypeTableRecord
  2
STYLE_24
 70
               0
  3

 72
              65
 73
               4
 40
5.5
 49
3.9000000000000008
 74
               0
 49
-0.6
 74
               0
 49
0.3999999999999998
 74
               0
 49
-0.6
 74
               0
  0
LTYPE
  5
4F
100
AcDbSymbolTableRecord
100
AcDbLinetypeTableRecord
  2
STYLE_25
 70
               0
  3

 72
              65
 73
               2
 40
1.5748031496062991
 49
0.7874015748031495
 74
               0
 49
-0.7874015748031495
 74
               0
  0
ENDTAB
  0
TABLE
  2
LAYER
  5
2
100
AcDbSymbolTable
 70
               5
  0
LAYER
  5
14
100
AcDbSymbolTableRecord
100
AcDbLayerTableRecord
  2
0
 70
               0
 62
               7
  6
Continuous
290
               1
370
              -3
390
1D
  0
LAYER
  5
50
100
AcDbSymbolTableRecord
100
AcDbLayerTableRecord
  2
Defpoints
 70
               0
 62
               7
  6
Continuous
290
               0
370
              -3
390
1D
  0
LAYER
  5
51
100
AcDbSymbolTableRecord
100
AcDbLayerTableRecord
  2
template
 70
               0
 62
               7
  6
Continuous
290
               1
370
              -3
390
1D
  0
LAYER
  5
52
100
AcDbSymbolTableRecord
100
AcDbLayerTableRecord
  2
notes
 70
               0
 62
               7
  6
Continuous
290
               1
370
              -3
390
1D
  0
LAYER
  5
53
100
AcDbSymbolTableRecord
100
AcDbLayerTableRecord
  2
FAA70-0515
 70
               0
 62
               7
  6
Continuous
290
               1
370
              -3
390
1D
  0
ENDTAB
  0
TABLE
  2
STYLE
  5
3
100
AcDbSymbolTable
 70
               2
  0
STYLE
  5
17
100
AcDbSymbolTableRecord
100
AcDbTextStyleTableRecord
  2
Standard
 70
               0
 40
0.0
 41
1.0
 50
0.0
 71
               0
 42
0.0
  3
txt
  4
BIGFONT.SHX
  0
STYLE
  5
36
100
AcDbSymbolTableRecord
100
AcDbTextStyleTableRecord
  2
ＭＳ ゴシック
 70
               0
 40
0.0
 41
1.0
 50
0.0
 71
               0
 42
0.0
  3

  4
ＭＳ ゴシック
1001
ACAD
1000
ＭＳ ゴシック
1071
        0
  0
ENDTAB
  0
TABLE
  2
VIEW
  5
5
100
AcDbSymbolTable
 70
               0
  0
ENDTAB
  0
TABLE
  2
UCS
  5
6
100
AcDbSymbolTable
 70
               0
  0
ENDTAB
  0
TABLE
  2
APPID
  5
8
100
AcDbSymbolTable
 70
               1
  0
APPID
  5
16
100
AcDbSymbolTableRecord
100
AcDbRegAppTableRecord
  2
ACAD
 70
               0
  0
ENDTAB
  0
TABLE
  2
DIMSTYLE
  5
9
100
AcDbSymbolTable
 70
               3
100
AcDbDimStyleTable
 71
               0
  0
DIMSTYLE
105
18
100
AcDbSymbolTableRecord
100
AcDbDimStyleTableRecord
  2
Standard
 70
               0
  3

  4

 40
1.0
 41
0.18
 42
0.0625
 43
0.38
 44
0.18
 45
0.0
 46
0.0
 47
0.0
 48
0.0
 71
               0
 72
               0
 73
               1
 74
               1
 75
               0
 76
               0
 77
               0
 78
               0
 79
               0
140
0.18
141
0.09
142
0.0
143
25.399999999999999
144
1.0
145
0.0
146
1.0
147
0.09
148
0.0
170
               0
171
               2
172
               0
173
               0
174
               0
175
               0
176
               0
177
               0
178
               0
179
               0
271
               4
272
               4
273
               2
274
               2
275
               0
276
               0
277
               2
278
              46
279
               0
280
               0
281
               0
282
               0
283
               1
284
               0
285
               0
286
               0
288
               0
289
               3
340
17
341
0
342
0
343
0
344
0
371
              -2
372
              -2
  0
DIMSTYLE
105
5C
100
AcDbSymbolTableRecord
100
AcDbDimStyleTableRecord
  2
tform線あり
 70
               0
  3
<>
  4
[]
 40
1.0
 41
3.999755859375
 42
24.999999999999996
 43
0.9999999999999999
 44
0.0
 45
0.0
 46
0.0
 47
0.0
 48
0.0
 71
               0
 72
               0
 73
               0
 74
               0
 75
               0
 76
               0
 77
               1
 78
              11
 79
               0
140
24.432617187500004
141
0.0
142
0.0
143
1.0
144
1.0
145
0.0
146
1.0
147
0.4999999999999999
148
0.0
170
               0
171
               1
172
               0
173
               0
174
               1
175
               0
176
               0
177
               0
178
               0
179
               2
271
               1
272
               1
273
               2
274
               2
275
               0
276
               2
277
               2
278
              46
279
               0
280
               0
281
               0
282
               0
283
               1
284
              11
285
              11
286
              11
288
               0
289
               0
340
36
341
54
342
54
343
0
344
0
371
              -2
372
              -2
  0
DIMSTYLE
105
61
100
AcDbSymbolTableRecord
100
AcDbDimStyleTableRecord
  2
JIS
 70
               0
  3
<>
  4
[]
 40
1.0
 41
31.75
 42
0.0
 43
6.9999999999999396
 44
19.999999999996199
 45
0.0
 46
0.0
 47
0.0
 48
0.0
 71
               0
 72
               0
 73
               0
 74
               0
 75
               0
 76
               0
 77
               1
 78
              11
 79
               0
140
24.432617187500004
141
0.0
142
0.0
143
1.0
144
1.0
145
0.0
146
1.0
147
1.00000000000108
148
0.0
170
               0
171
               1
172
               0
173
               0
174
               1
175
               0
176
               0
177
               0
178
               0
179
               2
271
               1
272
               1
273
               2
274
               2
275
               0
276
               2
277
               2
278
              46
279
               0
280
               0
281
               0
282
               0
283
               1
284
              11
285
              11
286
              11
288
               0
289
               0
340
36
341
5D
342
5D
343
0
344
0
371
              -2
372
              -2
  0
ENDTAB
  0
TABLE
  2
BLOCK_RECORD
  5
1
100
AcDbSymbolTable
 70
              21
  0
BLOCK_RECORD
  5
A
100
AcDbSymbolTableRecord
100
AcDbBlockTableRecord
  2
*MODEL_SPACE
340
20
  0
BLOCK_RECORD
  5
B
100
AcDbSymbolTableRecord
100
AcDbBlockTableRecord
  2
*PAPER_SPACE
340
21
  0
BLOCK_RECORD
  5
54
100
AcDbSymbolTableRecord
100
AcDbBlockTableRecord
  2
_DOT
340
0
  0
BLOCK_RECORD
  5
5D
100
AcDbSymbolTableRecord
100
AcDbBlockTableRecord
  2
VW_FILLEDARROW
340
0
  0
BLOCK_RECORD
  5
23
100
AcDbSymbolTableRecord
100
AcDbBlockTableRecord
  2
グループ
340
0
102
{BLKREFS
331
14F
102
}
  0
BLOCK_RECORD
  5
24
100
AcDbSymbolTableRecord
100
AcDbBlockTableRecord
  2
*D3
340
0
  0
BLOCK_RECORD
  5
25
100
AcDbSymbolTableRecord
100
AcDbBlockTableRecord
  2
*D4
340
0
  0
BLOCK_RECORD
  5
26
100
AcDbSymbolTableRecord
100
AcDbBlockTableRecord
  2
*D5
340
0
  0
BLOCK_RECORD
  5
27
100
AcDbSymbolTableRecord
100
AcDbBlockTableRecord
  2
*D6
340
0
  0
BLOCK_RECORD
  5
28
100
AcDbSymbolTableRecord
100
AcDbBlockTableRecord
  2
*D7
340
0
  0
BLOCK_RECORD
  5
29
100
AcDbSymbolTableRecord
100
AcDbBlockTableRecord
  2
*D8
340
0
  0
BLOCK_RECORD
  5
2A
100
AcDbSymbolTableRecord
100
AcDbBlockTableRecord
  2
*D9
340
0
  0
BLOCK_RECORD
  5
2B
100
AcDbSymbolTableRecord
100
AcDbBlockTableRecord
  2
*D10
340
0
  0
BLOCK_RECORD
  5
2C
100
AcDbSymbolTableRecord
100
AcDbBlockTableRecord
  2
*D11
340
0
  0
BLOCK_RECORD
  5
2D
100
AcDbSymbolTableRecord
100
AcDbBlockTableRecord
  2
*D12
340
0
  0
BLOCK_RECORD
  5
2E
100
AcDbSymbolTableRecord
100
AcDbBlockTableRecord
  2
*D13
340
0
  0
BLOCK_RECORD
  5
2F
100
AcDbSymbolTableRecord
100
AcDbBlockTableRecord
  2
*D14
340
0
  0
BLOCK_RECORD
  5
30
100
AcDbSymbolTableRecord
100
AcDbBlockTableRecord
  2
*D15
340
0
  0
BLOCK_RECORD
  5
31
100
AcDbSymbolTableRecord
100
AcDbBlockTableRecord
  2
*D16
340
0
  0
BLOCK_RECORD
  5
32
100
AcDbSymbolTableRecord
100
AcDbBlockTableRecord
  2
*D17
340
0
  0
BLOCK_RECORD
  5
33
100
AcDbSymbolTableRecord
100
AcDbBlockTableRecord
  2
*D18
340
0
  0
BLOCK_RECORD
  5
34
100
AcDbSymbolTableRecord
100
AcDbBlockTableRecord
  2
*D19
340
0
  0
BLOCK_RECORD
  5
35
100
AcDbSymbolTableRecord
100
AcDbBlockTableRecord
  2
グループ-1
340
0
102
{BLKREFS
331
180
102
}
  0
ENDTAB
  0
ENDSEC
  0
SECTION
  2
BLOCKS
  0
BLOCK
  5
D
100
AcDbEntity
  8
0
390
0
100
AcDbBlockBegin
  2
*MODEL_SPACE
 70
               0
 10
0.0
 20
0.0
 30
0.0
  3
*MODEL_SPACE
  1

  0
ENDBLK
  5
E
100
AcDbEntity
  8
0
390
0
100
AcDbBlockEnd
  0
BLOCK
  5
F
100
AcDbEntity
 67
               1
  8
0
390
0
100
AcDbBlockBegin
  2
*PAPER_SPACE
 70
               0
 10
0.0
 20
0.0
 30
0.0
  3
*PAPER_SPACE
  1

  0
ENDBLK
  5
10
100
AcDbEntity
 67
               1
  8
0
390
0
100
AcDbBlockEnd
  0
BLOCK
  5
55
100
AcDbEntity
  8
0
390
0
100
AcDbBlockBegin
  2
_DOT
 70
               0
 10
0.0
 20
0.0
 30
0.0
  3
_DOT
  1

  0
POLYLINE
  5
56
100
AcDbEntity
  8
0
370
              -2
390
0
  6
ByBlock
 62
               0
100
AcDb2dPolyline
 66
               1
 10
0.0
 20
0.0
 30
0.0
 70
               1
 40
0.5
 41
0.5
  0
VERTEX
  5
57
100
AcDbEntity
  8
0
370
              -2
390
0
  6
ByBlock
 62
               0
100
AcDbVertex
100
AcDb2dVertex
 10
-0.25
 20
0.0
 30
0.0
 42
1.0
  0
VERTEX
  5
58
100
AcDbEntity
  8
0
370
              -2
390
0
  6
ByBlock
 62
               0
100
AcDbVertex
100
AcDb2dVertex
 10
0.25
 20
0.0
 30
0.0
 42
1.0
  0
SEQEND
  5
59
100
AcDbEntity
  8
0
390
0
  0
LINE
  5
5A
100
AcDbEntity
  8
0
370
              -2
390
0
  6
ByBlock
 62
               0
100
AcDbLine
 10
-0.5
 20
0.0
 30
0.0
 11
-1.0
 21
0.0
 31
0.0
  0
ENDBLK
  5
5B
100
AcDbEntity
  8
0
390
0
100
AcDbBlockEnd
  0
BLOCK
  5
5E
100
AcDbEntity
  8
0
370
              -2
390
0
  6
ByBlock
 62
               0
100
AcDbBlockBegin
  2
VW_FILLEDARROW
 70
               0
 10
0.0
 20
0.0
 30
0.0
  3
VW_FILLEDARROW
  1

  0
SOLID
  5
5F
100
AcDbEntity
  8
0
370
              -2
390
0
 62
               0
100
AcDbTrace
 10
0.0
 20
0.0
 30
0.0
 11
-0.9921874999999999
 21
-0.2658558393652545
 31
0.0
 12
-0.9921874999999999
 22
0.2658558393652548
 32
0.0
 13
-0.9921874999999999
 23
0.2658558393652548
 33
0.0
  0
ENDBLK
  5
60
100
AcDbEntity
  8
0
390
0
100
AcDbBlockEnd
  0
BLOCK
  5
62
100
AcDbEntity
  8
template
390
0
100
AcDbBlockBegin
  2
グループ
 70
               0
 10
0.0
 20
0.0
 30
0.0
  3
グループ
  1

  0
LWPOLYLINE
  5
63
100
AcDbEntity
  8
0
370
              15
390
0
  6
Continuous
 62
               7
100
AcDbPolyline
 90
        8
 70
             129
 10
884.72138324090406
 20
-1411.3663457688945
 10
884.72138324090406
 20
-1417.3637344624703
 10
875.22018632290064
 20
-1417.3637344624703
 10
875.22018632290064
 20
-1441.8146977259792
 10
866.86480906111797
 20
-1441.8146977259792
 10
866.86480906111797
 20
-1417.3637344624703
 10
857.53185211480854
 20
-1417.3637344624703
 10
857.53185211480854
 20
-1411.3663457688945
  0
LWPOLYLINE
  5
64
100
AcDbEntity
  8
0
370
              15
390
0
  6
Continuous
 62
               7
100
AcDbPolyline
 90
      101
 70
             128
 10
897.44967507146089
 20
-1412.0945942618309
 10
897.46502510024766
 20
-1412.0902335051453
 42
-0.0222221607811188
 10
897.75502967691705
 20
-1412.0216090399013
 10
897.77082344091036
 20
-1412.0186056168043
 42
-0.0146883565586357
 10
898.03352614613482
 20
-1411.9766024298549
 42
-0.0127458844184622
 10
898.2981651132892
 20
-1411.9490654617823
 10
898.36062019160067
 20
-1411.9441720391942
 42
-0.0198099018568248
 10
898.75146930106939
 20
-1411.9290868817975
 10
898.80328077052127
 20
-1411.9291406574625
 42
-0.0147617382761195
 10
899.2979042314995
 20
-1411.9442606827079
 10
899.37059568636744
 20
-1411.9486332895951
 42
-0.0162624549005459
 10
899.76074931583503
 20
-1411.9848661648675
 10
899.88228170710204
 20
-1412.0001527238651
 42
-0.0080020874665321
 10
900.02786073818572
 20
-1412.0208355711325
 10
900.06618020876817
 20
-1412.0269068489415
 42
-0.0053821929680123
 10
900.13466431409552
 20
-1412.0385143727651
 10
899.40825861489702
 20
-1414.219442828479
 42
0.0108667757397857
 10
899.34094154476736
 20
-1414.2062557132595
 10
899.30347352157662
 20
-1414.1997579706647
 42
0.0170663203314558
 10
899.16025673465765
 20
-1414.1799283733726
 10
899.09238140197817
 20
-1414.1728812027854
 42
0.0220162375275018
 10
898.81200199412285
 20
-1414.1561988420153
 10
898.73414642707189
 20
-1414.1549994747488
 42
0.0282606915786093
 10
898.39851010349287
 20
-1414.168802751718
 10
898.35459682971737
 20
-1414.173102741722
 42
0.0169677213690018
 10
898.10867233476154
 20
-1414.2056397912734
 42
0.0190576269866231
 10
897.86576437217809
 20
-1414.2557866633806
 10
897.8595051840706
 20
-1414.2573296374892
 42
0.021368564284583
 10
897.60912069959409
 20
-1414.3305299225935
 10
897.60363080467664
 20
-1414.3323929186531
 42
0.0237595297602983
 10
897.35013591977406
 20
-1414.4320774405505
 10
897.34503384574828
 20
-1414.4343692160269
 42
0.0261857468818362
 10
897.09286306951822
 20
-1414.5639055534014
 10
897.08243688043228
 20
-1414.5699710278693
 42
0.0272553062018833
 10
896.84600710519294
 20
-1414.7253432338139
 10
896.8112440916849
 20
-1414.751004381905
 42
0.0325996893175387
 10
896.66108874803194
 20
-1414.8777522548776
 10
896.63737931891046
 20
-1414.900570283389
 42
0.0138050960635025
 10
896.54549616269878
 20
-1414.994019944942
 42
0.0125280103807659
 10
896.45865362986376
 20
-1415.0921832715439
 10
896.4349731849569
 20
-1415.1203417697295
 42
0.0205218024739977
 10
896.30987310944249
 20
-1415.2821350839595
 10
896.28740676895609
 20
-1415.3137948137855
 42
0.0163110129582441
 10
896.1316963897076
 20
-1415.5491252488509
 10
896.12897249365381
 20
-1415.5535490108409
 42
0.0131897341897183
 10
895.98217197274835
 20
-1415.8066811032047
 10
895.98047187738143
 20
-1415.8097993423412
 42
0.0107895576065044
 10
895.84269517517112
 20
-1416.0760145519753
 10
895.84196228564554
 20
-1416.0775087846228
 42
0.0091371507222544
 10
895.71348233699757
 20
-1416.352033982379
 10
895.68373670558685
 20
-1416.4187404895411
 42
0.0135418326352078
 10
895.51202276651509
 20
-1416.8336782748104
 10
895.47841795808097
 20
-1416.9215444170909
 42
0.0092834542407679
 10
895.30718889816001
 20
-1417.3954429153964
 10
895.28157177044477
 20
-1417.4706839851826
 42
0.0054261043582605
 10
895.17393362214943
 20
-1417.7984479582551
 10
895.15640763597366
 20
-1417.8538361204799
 42
0.0008225090813303
 10
895.08773758414191
 20
-1418.0721048786343
 10
894.10304845220844
 20
-1421.0969961718909
 10
897.33567229228242
 20
-1421.0969961718909
 10
896.83147986242898
 20
-1423.0014744702432
 10
893.57542358044566
 20
-1423.0014744702432
 10
887.74627454809183
 20
-1441.8146975362481
 10
885.92117693778141
 20
-1441.8146975362481
 10
891.75585497328234
 20
-1423.0014744702432
 10
889.350738604242
 20
-1423.0014744702432
 10
889.85493103409544
 20
-1421.0969961718909
 10
892.28347984504558
 20
-1421.0969961718909
 10
893.1436347632341
 20
-1418.460583171192
 42
-0.000586356063476
 10
893.18036944141386
 20
-1418.3437567509754
 10
893.25645727509811
 20
-1418.1027644515148
 42
-0.0087522378929294
 10
893.45592541855353
 20
-1417.5074883643724
 10
893.54818969397036
 20
-1417.24734819585
 42
-0.0077400953831378
 10
893.80612335309957
 20
-1416.5543435183072
 10
893.82188832467716
 20
-1416.5139126349243
 42
-0.0082369946332051
 10
894.06897279529039
 20
-1415.9098335687254
 42
-0.0085725238367209
 10
894.3362188912912
 20
-1415.3144075294424
 10
894.43784849230133
 20
-1415.0979864274518
 42
-0.0168109410593077
 10
894.7247929210306
 20
-1414.5367789013487
 10
894.85063631147693
 20
-1414.3098148683741
 42
-0.0007817726866814
 10
894.90492066154627
 20
-1414.2122706233204
 10
894.90504896756829
 20
-1414.2120409145755
 42
-0.0036626142153296
 10
894.95993683158486
 20
-1414.1154430346153
 42
-0.0080221150674713
 10
895.01706108698693
 20
-1414.0201637998698
 10
895.04776103835275
 20
-1413.9707728507401
 42
-0.020213932557243
 10
895.17541677815734
 20
-1413.7827912500616
 10
895.22948424334709
 20
-1413.709712385818
 42
-0.0249323791800316
 10
895.48864703706806
 20
-1413.3936671436616
 10
895.51278685119325
 20
-1413.3670528707512
 42
-0.0242132121541018
 10
895.85246759273491
 20
-1413.0271693845475
 10
895.90037916548329
 20
-1412.9836602483635
 42
-0.025101752786073
 10
896.18436086612655
 20
-1412.7506675025961
 10
896.18580634293414
 20
-1412.7495982450216
 42
-0.0130868069038162
 10
896.48406699289762
 20
-1412.5408177764748
 10
896.48562881204043
 20
-1412.5397843361998
 42
-0.0290329526388257
 10
896.79673995343364
 20
-1412.3589588345703
 10
896.82658551542011
 20
-1412.3438564517305
 42
-0.0160250190048018
 10
897.09248992918435
 20
-1412.2198403415177
 42
-0.026760037478401
 10
897.36776600665223
 20
-1412.1190920209692
 10
897.39450192617392
 20
-1412.1108994621434
 42
-0.004998158766979
 10
897.44967507146089
 20
-1412.0945942618309
 42
-0.004998158766979
  0
LWPOLYLINE
  5
65
100
AcDbEntity
  8
0
370
              15
390
0
  6
Continuous
 62
               7
100
AcDbPolyline
 90
      118
 70
             128
 10
917.2640426359078
 20
-1421.1709794997182
 10
919.13916456040738
 20
-1421.1709794997182
 10
918.30112565480749
 20
-1423.8525460261183
 42
-0.0010587229275521
 10
918.33258147031631
 20
-1423.8156414928367
 10
918.39077556101131
 20
-1423.7476592365872
 42
-0.0071874740406315
 10
918.54115077911638
 20
-1423.5770185445506
 10
918.68287355237169
 20
-1423.4207824032451
 42
-0.0148118053514623
 10
919.13300284508432
 20
-1422.9531685572322
 10
919.22022517998107
 20
-1422.8677712363835
 42
-0.0086273358696741
 10
919.55577398099456
 20
-1422.550395602362
 10
919.59960769722181
 20
-1422.5103459580278
 42
-0.0103138323116244
 10
919.85763139945391
 20
-1422.2841828206906
 10
919.90340580577731
 20
-1422.2457007734336
 42
-0.0060206748571017
 10
920.07625386989321
 20
-1422.1039061226761
 10
920.07828500078483
 20
-1422.1022804170404
 42
-0.0067069027295942
 10
920.25057781544172
 20
-1421.9681297832499
 10
920.25312658137216
 20
-1421.9661996133711
 42
-0.0076184352047138
 10
920.42403184723912
 20
-1421.8408247381308
 42
-0.0089652861674862
 10
920.59899280997809
 20
-1421.7211914777952
 10
920.63534453011903
 20
-1421.6972802643147
 42
-0.0156916245935495
 10
920.83130402727863
 20
-1421.5770177778409
 42
-0.0023299011068412
 10
921.03156607125311
 20
-1421.4638398383029
 10
921.04695020363829
 20
-1421.4552398432352
 42
-0.0107669341486058
 10
921.28118702874303
 20
-1421.330839709884
 10
921.30345182981455
 20
-1421.3196229599357
 42
-0.0078058045896832
 10
921.58704194777147
 20
-1421.1822615042954
 10
921.59694903547643
 20
-1421.1776523764288
 42
-0.0181829330472759
 10
921.90725844008978
 20
-1421.046788635334
 10
921.96131388265883
 20
-1421.0262735153897
 42
-0.0208411536031566
 10
922.31039885010898
 20
-1420.9101830528966
 10
922.32475495023414
 20
-1420.9060646079438
 42
-0.0222799817143093
 10
922.65347474415375
 20
-1420.8274230418028
 10
922.66236370739171
 20
-1420.8257110312177
 42
-0.0215509523884645
 10
922.97883467567056
 20
-1420.7787953426832
 10
923.02131663671867
 20
-1420.7743578158925
 42
-0.0182545924870816
 10
923.25542541602476
 20
-1420.7585139905016
 10
923.29482643236167
 20
-1420.7572894454227
 42
-0.0072962856536579
 10
923.4507493120617
 20
-1420.7547201169002
 10
923.4798489826477
 20
-1420.7546652814965
 42
-0.0059227516313731
 10
923.57759848177864
 20
-1420.755638993287
 10
923.60684069924957
 20
-1420.7562767598902
 42
-0.0011833111909067
 10
923.64609198298308
 20
-1420.7572257642003
 10
922.85070538737591
 20
-1423.2959597092993
 42
0.0143932051570694
 10
922.82430400502471
 20
-1423.2857607392539
 10
922.81703203260793
 20
-1423.2831895203967
 42
0.0234388603491046
 10
922.77520116667961
 20
-1423.2705702846822
 10
922.76651950376311
 20
-1423.2683893226763
 42
0.0199162742981586
 10
922.70623066968244
 20
-1423.255772587341
 10
922.6854167318769
 20
-1423.2522753879127
 42
0.0293643550671618
 10
922.58234187311757
 20
-1423.2411253422597
 10
922.55765669239747
 20
-1423.239913725241
 42
0.0214606686871511
 10
922.40451577644228
 20
-1423.2389751648236
 10
922.39514386562712
 20
-1423.2393200763677
 42
0.0167564054170192
 10
922.22362367452058
 20
-1423.2513971187354
 10
922.21516388175962
 20
-1423.2522784591629
 42
0.013767755324238
 10
922.02781056848892
 20
-1423.2770277677073
 10
922.0204588289871
 20
-1423.2782056876745
 42
0.0118497261480813
 10
921.8199610648893
 20
-1423.3152230378628
 10
921.81381105763853
 20
-1423.3165099005837
 42
0.0106421143890507
 10
921.60293017034542
 20
-1423.3653422761604
 10
921.59802136196436
 20
-1423.3665896188436
 42
0.0099746379702675
 10
921.37956289280419
 20
-1423.4267641471577
 10
921.31801485263168
 20
-1423.445046025789
 42
0.019161367585809
 10
920.98203039011901
 20
-1423.5590234060749
 10
920.89397061736815
 20
-1423.5927103164008
 42
0.020527408014296
 10
920.50866384546998
 20
-1423.7585387242266
 10
920.451014563493
 20
-1423.7862066887965
 42
0.018125691219054
 10
920.19273762282103
 20
-1423.9218905077769
 10
920.13978223950676
 20
-1423.9522081209918
 42
0.0140709242411041
 10
919.99482730487864
 20
-1424.0407027944259
 10
919.96857843627026
 20
-1424.0577596131347
 42
0.0086667884394169
 10
919.87965227471761
 20
-1424.1177622810242
 42
0.003640819201629
 10
919.79221903665723
 20
-1424.1799431388358
 10
919.75699216221562
 20
-1424.2053840847293
 42
0.0052260781270383
 10
919.60076346484982
 20
-1424.3207164713447
 10
919.58455660856498
 20
-1424.3329445819818
 42
0.0050024435899495
 10
919.39855326549889
 20
-1424.4762271502498
 10
919.38323510899102
 20
-1424.4882731726898
 42
0.0136138710279581
 10
919.17279384066251
 20
-1424.6632396776058
 10
919.13912596487205
 20
-1424.6928186503173
 42
0.0172815186921749
 10
918.87472242320257
 20
-1424.9418153229478
 10
918.87216007736697
 20
-1424.9444011400878
 42
0.0189403857988047
 10
918.62157827879446
 20
-1425.2172064048843
 10
918.5889467852453
 20
-1425.2555503363969
 42
0.0185044199510093
 10
918.39699034627188
 20
-1425.498798917512
 42
0.0088565243897023
 10
918.21853023964729
 20
-1425.7523153376567
 10
918.20935225999494
 20
-1425.7658567174221
 42
0.0157195347232142
 10
918.02613165365972
 20
-1426.0553789267396
 10
917.98004871173589
 20
-1426.1335311237485
 42
0.0095451879778986
 10
917.81496316159235
 20
-1426.4261257661151
 10
917.80381524266136
 20
-1426.4467964382495
 42
0.0100351706252802
 10
917.67177149350334
 20
-1426.7038519987379
 42
0.0086935915417772
 10
917.54944034171058
 20
-1426.9656851441396
 10
917.54611960029479
 20
-1426.9731274671142
 42
0.007258017486513
 10
917.42577314835012
 20
-1427.2537194586964
 10
917.42251151504354
 20
-1427.261639484715
 42
0.0060005122619792
 10
917.30331084669399
 20
-1427.5612491553386
 10
917.30009986835933
 20
-1427.5696106832252
 42
0.0049017786976845
 10
917.18119970950295
 20
-1427.8885396638264
 10
917.17803390311144
 20
-1427.8972926010597
 42
0.0039415167600276
 10
917.05859762505634
 20
-1428.2358346634683
 10
917.05546652240253
 20
-1428.2449378643491
 42
0.0031035838768318
 10
916.93466173671436
 20
-1428.6033777261077
 10
916.93155169217903
 20
-1428.6127983474976
 42
0.0025070747153732
 10
916.80865034087049
 20
-1428.99144556442
 10
916.77135644443831
 20
-1429.1083372296944
 42
0.0029081910283141
 10
916.57933814662624
 20
-1429.7225008879902
 10
916.53853497811053
 20
-1429.8557241302619
 42
0.0009266453731591
 10
916.27011760379924
 20
-1430.737948590174
 10
916.24923013115915
 20
-1430.807060469408
 42
-0.0005809993665949
 10
915.97189345056393
 20
-1431.7208685760602
 10
915.90561165228473
 20
-1431.9383535082409
 42
-0.0012018708166011
 10
915.75862734286181
 20
-1432.4165161727406
 10
915.70630749134477
 20
-1432.5852753134502
 42
-0.0002691059610261
 10
915.66273801012767
 20
-1432.7255429339484
 10
912.82978211183854
 20
-1441.8146975362481
 10
911.01179321986001
 20
-1441.8146975362481
 10
917.2640426359078
 20
-1421.1709794997182
  0
SPLINE
  5
66
100
AcDbEntity
  8
0
370
              15
390
0
  6
Continuous
 62
               7
100
AcDbSpline
210
0.0
220
0.0
230
1.0
 70
              13
 71
               2
 72
             782
 73
             779
 74
               0
 42
0.000001
 43
0.000001
 40
0.0
 40
0.0
 40
0.0
 40
1.0
 40
1.0
 40
2.0
 40
2.0
 40
3.0
 40
3.0
 40
4.0
 40
4.0
 40
5.0
 40
5.0
 40
6.0
 40
6.0
 40
7.0
 40
7.0
 40
8.0
 40
8.0
 40
9.0
 40
9.0
 40
10.0
 40
10.0
 40
11.0
 40
11.0
 40
12.0
 40
12.0
 40
13.0
 40
13.0
 40
14.0
 40
14.0
 40
15.0
 40
15.0
 40
16.0
 40
16.0
 40
17.0
 40
17.0
 40
18.0
 40
18.0
 40
19.0
 40
19.0
 40
20.0
 40
20.0
 40
21.0
 40
21.0
 40
22.0
 40
22.0
 40
23.0
 40
23.0
 40
24.0
 40
24.0
 40
25.0
 40
25.0
 40
26.0
 40
26.0
 40
27.0
 40
27.0
 40
28.0
 40
28.0
 40
29.0
 40
29.0
 40
30.0
 40
30.0
 40
31.0
 40
31.0
 40
32.0
 40
32.0
 40
33.0
 40
33.0
 40
34.0
 40
34.0
 40
35.0
 40
35.0
 40
36.0
 40
36.0
 40
37.0
 40
37.0
 40
38.0
 40
38.0
 40
39.0
 40
39.0
 40
40.0
 40
40.0
 40
41.0
 40
41.0
 40
42.0
 40
42.0
 40
43.0
 40
43.0
 40
44.0
 40
44.0
 40
45.0
 40
45.0
 40
46.0
 40
46.0
 40
47.0
 40
47.0
 40
48.0
 40
48.0
 40
49.0
 40
49.0
 40
50.0
 40
50.0
 40
51.0
 40
51.0
 40
52.0
 40
52.0
 40
53.0
 40
53.0
 40
54.0
 40
54.0
 40
55.0
 40
55.0
 40
56.0
 40
56.0
 40
57.0
 40
57.0
 40
58.0
 40
58.0
 40
59.0
 40
59.0
 40
60.0
 40
60.0
 40
61.0
 40
61.0
 40
62.0
 40
62.0
 40
63.0
 40
63.0
 40
64.0
 40
64.0
 40
65.0
 40
65.0
 40
66.0
 40
66.0
 40
67.0
 40
67.0
 40
68.0
 40
68.0
 40
69.0
 40
69.0
 40
70.0
 40
70.0
 40
71.0
 40
71.0
 40
72.0
 40
72.0
 40
73.0
 40
73.0
 40
74.0
 40
74.0
 40
75.0
 40
75.0
 40
76.0
 40
76.0
 40
77.0
 40
77.0
 40
78.0
 40
78.0
 40
79.0
 40
79.0
 40
80.0
 40
80.0
 40
81.0
 40
81.0
 40
82.0
 40
82.0
 40
83.0
 40
83.0
 40
84.0
 40
84.0
 40
85.0
 40
85.0
 40
86.0
 40
86.0
 40
87.0
 40
87.0
 40
88.0
 40
88.0
 40
89.0
 40
89.0
 40
90.0
 40
90.0
 40
91.0
 40
91.0
 40
92.0
 40
92.0
 40
93.0
 40
93.0
 40
94.0
 40
94.0
 40
95.0
 40
95.0
 40
96.0
 40
96.0
 40
97.0
 40
97.0
 40
98.0
 40
98.0
 40
99.0
 40
99.0
 40
100.0
 40
100.0
 40
101.0
 40
101.0
 40
102.0
 40
102.0
 40
103.0
 40
103.0
 40
104.0
 40
104.0
 40
105.0
 40
105.0
 40
106.0
 40
106.0
 40
107.0
 40
107.0
 40
108.0
 40
108.0
 40
109.0
 40
109.0
 40
110.0
 40
110.0
 40
111.0
 40
111.0
 40
112.0
 40
112.0
 40
113.0
 40
113.0
 40
114.0
 40
114.0
 40
115.0
 40
115.0
 40
116.0
 40
116.0
 40
117.0
 40
117.0
 40
118.0
 40
118.0
 40
119.0
 40
119.0
 40
120.0
 40
120.0
 40
121.0
 40
121.0
 40
122.0
 40
122.0
 40
123.0
 40
123.0
 40
124.0
 40
124.0
 40
125.0
 40
125.0
 40
126.0
 40
126.0
 40
127.0
 40
127.0
 40
128.0
 40
128.0
 40
129.0
 40
129.0
 40
130.0
 40
130.0
 40
131.0
 40
131.0
 40
132.0
 40
132.0
 40
133.0
 40
133.0
 40
134.0
 40
134.0
 40
135.0
 40
135.0
 40
136.0
 40
136.0
 40
137.0
 40
137.0
 40
138.0
 40
138.0
 40
139.0
 40
139.0
 40
140.0
 40
140.0
 40
141.0
 40
141.0
 40
142.0
 40
142.0
 40
143.0
 40
143.0
 40
144.0
 40
144.0
 40
145.0
 40
145.0
 40
146.0
 40
146.0
 40
147.0
 40
147.0
 40
148.0
 40
148.0
 40
149.0
 40
149.0
 40
150.0
 40
150.0
 40
151.0
 40
151.0
 40
152.0
 40
152.0
 40
153.0
 40
153.0
 40
154.0
 40
154.0
 40
155.0
 40
155.0
 40
156.0
 40
156.0
 40
157.0
 40
157.0
 40
158.0
 40
158.0
 40
159.0
 40
159.0
 40
160.0
 40
160.0
 40
161.0
 40
161.0
 40
162.0
 40
162.0
 40
163.0
 40
163.0
 40
164.0
 40
164.0
 40
165.0
 40
165.0
 40
166.0
 40
166.0
 40
167.0
 40
167.0
 40
168.0
 40
168.0
 40
169.0
 40
169.0
 40
170.0
 40
170.0
 40
171.0
 40
171.0
 40
172.0
 40
172.0
 40
173.0
 40
173.0
 40
174.0
 40
174.0
 40
175.0
 40
175.0
 40
176.0
 40
176.0
 40
177.0
 40
177.0
 40
178.0
 40
178.0
 40
179.0
 40
179.0
 40
180.0
 40
180.0
 40
181.0
 40
181.0
 40
182.0
 40
182.0
 40
183.0
 40
183.0
 40
184.0
 40
184.0
 40
185.0
 40
185.0
 40
186.0
 40
186.0
 40
187.0
 40
187.0
 40
188.0
 40
188.0
 40
189.0
 40
189.0
 40
190.0
 40
190.0
 40
191.0
 40
191.0
 40
192.0
 40
192.0
 40
193.0
 40
193.0
 40
194.0
 40
194.0
 40
195.0
 40
195.0
 40
196.0
 40
196.0
 40
197.0
 40
197.0
 40
198.0
 40
198.0
 40
199.0
 40
199.0
 40
200.0
 40
200.0
 40
201.0
 40
201.0
 40
202.0
 40
202.0
 40
203.0
 40
203.0
 40
204.0
 40
204.0
 40
205.0
 40
205.0
 40
206.0
 40
206.0
 40
207.0
 40
207.0
 40
208.0
 40
208.0
 40
209.0
 40
209.0
 40
210.0
 40
210.0
 40
211.0
 40
211.0
 40
212.0
 40
212.0
 40
213.0
 40
213.0
 40
214.0
 40
214.0
 40
215.0
 40
215.0
 40
216.0
 40
216.0
 40
217.0
 40
217.0
 40
218.0
 40
218.0
 40
219.0
 40
219.0
 40
220.0
 40
220.0
 40
221.0
 40
221.0
 40
222.0
 40
222.0
 40
223.0
 40
223.0
 40
224.0
 40
224.0
 40
225.0
 40
225.0
 40
226.0
 40
226.0
 40
227.0
 40
227.0
 40
228.0
 40
228.0
 40
229.0
 40
229.0
 40
230.0
 40
230.0
 40
231.0
 40
231.0
 40
232.0
 40
232.0
 40
233.0
 40
233.0
 40
234.0
 40
234.0
 40
235.0
 40
235.0
 40
236.0
 40
236.0
 40
237.0
 40
237.0
 40
238.0
 40
238.0
 40
239.0
 40
239.0
 40
240.0
 40
240.0
 40
241.0
 40
241.0
 40
242.0
 40
242.0
 40
243.0
 40
243.0
 40
244.0
 40
244.0
 40
245.0
 40
245.0
 40
246.0
 40
246.0
 40
247.0
 40
247.0
 40
248.0
 40
248.0
 40
249.0
 40
249.0
 40
250.0
 40
250.0
 40
251.0
 40
251.0
 40
252.0
 40
252.0
 40
253.0
 40
253.0
 40
254.0
 40
254.0
 40
255.0
 40
255.0
 40
256.0
 40
256.0
 40
257.0
 40
257.0
 40
258.0
 40
258.0
 40
259.0
 40
259.0
 40
260.0
 40
260.0
 40
261.0
 40
261.0
 40
262.0
 40
262.0
 40
263.0
 40
263.0
 40
264.0
 40
264.0
 40
265.0
 40
265.0
 40
266.0
 40
266.0
 40
267.0
 40
267.0
 40
268.0
 40
268.0
 40
269.0
 40
269.0
 40
270.0
 40
270.0
 40
271.0
 40
271.0
 40
272.0
 40
272.0
 40
273.0
 40
273.0
 40
274.0
 40
274.0
 40
275.0
 40
275.0
 40
276.0
 40
276.0
 40
277.0
 40
277.0
 40
278.0
 40
278.0
 40
279.0
 40
279.0
 40
280.0
 40
280.0
 40
281.0
 40
281.0
 40
282.0
 40
282.0
 40
283.0
 40
283.0
 40
284.0
 40
284.0
 40
285.0
 40
285.0
 40
286.0
 40
286.0
 40
287.0
 40
287.0
 40
288.0
 40
288.0
 40
289.0
 40
289.0
 40
290.0
 40
290.0
 40
291.0
 40
291.0
 40
292.0
 40
292.0
 40
293.0
 40
293.0
 40
294.0
 40
294.0
 40
295.0
 40
295.0
 40
296.0
 40
296.0
 40
297.0
 40
297.0
 40
298.0
 40
298.0
 40
299.0
 40
299.0
 40
300.0
 40
300.0
 40
301.0
 40
301.0
 40
302.0
 40
302.0
 40
303.0
 40
303.0
 40
304.0
 40
304.0
 40
305.0
 40
305.0
 40
306.0
 40
306.0
 40
307.0
 40
307.0
 40
308.0
 40
308.0
 40
309.0
 40
309.0
 40
310.0
 40
310.0
 40
311.0
 40
311.0
 40
312.0
 40
312.0
 40
313.0
 40
313.0
 40
314.0
 40
314.0
 40
315.0
 40
315.0
 40
316.0
 40
316.0
 40
317.0
 40
317.0
 40
318.0
 40
318.0
 40
319.0
 40
319.0
 40
320.0
 40
320.0
 40
321.0
 40
321.0
 40
322.0
 40
322.0
 40
323.0
 40
323.0
 40
324.0
 40
324.0
 40
325.0
 40
325.0
 40
326.0
 40
326.0
 40
327.0
 40
327.0
 40
328.0
 40
328.0
 40
329.0
 40
329.0
 40
330.0
 40
330.0
 40
331.0
 40
331.0
 40
332.0
 40
332.0
 40
333.0
 40
333.0
 40
334.0
 40
334.0
 40
335.0
 40
335.0
 40
336.0
 40
336.0
 40
337.0
 40
337.0
 40
338.0
 40
338.0
 40
339.0
 40
339.0
 40
340.0
 40
340.0
 40
341.0
 40
341.0
 40
342.0
 40
342.0
 40
343.0
 40
343.0
 40
344.0
 40
344.0
 40
345.0
 40
345.0
 40
346.0
 40
346.0
 40
347.0
 40
347.0
 40
348.0
 40
348.0
 40
349.0
 40
349.0
 40
350.0
 40
350.0
 40
351.0
 40
351.0
 40
352.0
 40
352.0
 40
353.0
 40
353.0
 40
354.0
 40
354.0
 40
355.0
 40
355.0
 40
356.0
 40
356.0
 40
357.0
 40
357.0
 40
358.0
 40
358.0
 40
359.0
 40
359.0
 40
360.0
 40
360.0
 40
361.0
 40
361.0
 40
362.0
 40
362.0
 40
363.0
 40
363.0
 40
364.0
 40
364.0
 40
365.0
 40
365.0
 40
366.0
 40
366.0
 40
367.0
 40
367.0
 40
368.0
 40
368.0
 40
369.0
 40
369.0
 40
370.0
 40
370.0
 40
371.0
 40
371.0
 40
372.0
 40
372.0
 40
373.0
 40
373.0
 40
374.0
 40
374.0
 40
375.0
 40
375.0
 40
376.0
 40
376.0
 40
377.0
 40
377.0
 40
378.0
 40
378.0
 40
379.0
 40
379.0
 40
380.0
 40
380.0
 40
381.0
 40
381.0
 40
382.0
 40
382.0
 40
383.0
 40
383.0
 40
384.0
 40
384.0
 40
385.0
 40
385.0
 40
386.0
 40
386.0
 40
387.0
 40
387.0
 40
388.0
 40
388.0
 40
389.0
 40
389.0
 40
389.0
 10
927.59274708664043
 20
-1421.1600531363558
 30
0.0
 41
1.0
 10
928.41117119536091
 20
-1421.1600531363558
 30
0.0
 41
1.0
 10
929.22959530408139
 20
-1421.1600531363558
 30
0.0
 41
1.0
 10
928.81584156856468
 20
-1422.5026794006055
 30
0.0
 41
1.0
 10
928.40208783304797
 20
-1423.8453056648552
 30
0.0
 41
1.0
 10
928.42042732821119
 20
-1423.8166048919509
 30
0.0
 41
0.99999572643454
 10
928.43893432503842
 20
-1423.7880118418059
 30
0.0
 41
1.0
 10
928.46936364917974
 20
-1423.7409989634236
 30
0.0
 41
1.0
 10
928.49979297332118
 20
-1423.6939860850414
 30
0.0
 41
1.0
 10
928.57915861842707
 20
-1423.5713672781383
 30
0.0
 41
0.9995394069081679
 10
928.66581700997961
 20
-1423.4537892163958
 30
0.0
 41
1.0
 10
928.70157387223935
 20
-1423.4052743238026
 30
0.0
 41
1.0
 10
928.73733073449898
 20
-1423.3567594312092
 30
0.0
 41
1.0
 10
928.87105740231698
 20
-1423.1753191560827
 30
0.0
 41
0.9994460617143192
 10
929.01655788360495
 20
-1423.0031767584328
 30
0.0
 41
1.0
 10
929.02094606458013
 20
-1422.9979850780501
 30
0.0
 41
1.0
 10
929.02533424555543
 20
-1422.9927933976671
 30
0.0
 41
1.0
 10
929.16205836489314
 20
-1422.831034360783
 30
0.0
 41
0.9994359394934382
 10
929.3093325952442
 20
-1422.6788181596187
 30
0.0
 41
1.0
 10
929.31171594919783
 20
-1422.6763548292452
 30
0.0
 41
1.0
 10
929.31409930315135
 20
-1422.6738914988719
 30
0.0
 41
1.0
 10
929.45660682559628
 20
-1422.5266019584535
 30
0.0
 41
0.9995293688568204
 10
929.60787850657778
 20
-1422.38832874629
 30
0.0
 41
1.0
 10
929.62717226584255
 20
-1422.3706928606375
 30
0.0
 41
1.0
 10
929.64646602510743
 20
-1422.3530569749848
 30
0.0
 41
1.0
 10
929.7591501875612
 20
-1422.2500555341246
 30
0.0
 41
0.9997087614804131
 10
929.87667307651498
 20
-1422.1526112533279
 30
0.0
 41
1.0
 10
929.89583914968216
 20
-1422.136719674827
 30
0.0
 41
1.0
 10
929.91500522284923
 20
-1422.120828096326
 30
0.0
 41
1.0
 10
929.99419596545852
 20
-1422.0551669725392
 30
0.0
 41
0.9999595338696965
 10
930.07455523632518
 20
-1421.9909412418751
 30
0.0
 41
1.0
 10
930.15491450717741
 20
-1421.9267155112223
 30
0.0
 41
0.9999749417503485
 10
930.23617504152821
 20
-1421.8636339572702
 30
0.0
 41
1.0
 10
930.25716118770254
 20
-1421.8473426699593
 30
0.0
 41
1.0
 10
930.27814733387686
 20
-1421.8310513826486
 30
0.0
 41
1.0
 10
930.36271521916137
 20
-1421.7654023728212
 30
0.0
 41
0.9999792037128195
 10
930.44812281892621
 20
-1421.7008495911809
 30
0.0
 41
1.0
 10
930.46894764482954
 20
-1421.6851097689296
 30
0.0
 41
1.0
 10
930.48977247073276
 20
-1421.669369946678
 30
0.0
 41
1.0
 10
930.53353041868445
 20
-1421.6362968095459
 30
0.0
 41
0.9999993373847116
 10
930.57721210483896
 20
-1421.6031230141134
 30
0.0
 41
1.0
 10
930.62089379097574
 20
-1421.5699492186939
 30
0.0
 41
0.9999160953816366
 10
930.66542020188945
 20
-1421.5379181535002
 30
0.0
 41
1.0
 10
930.69824208931504
 20
-1421.5143069979108
 30
0.0
 41
1.0
 10
930.73106397674076
 20
-1421.4906958423212
 30
0.0
 41
1.0
 10
930.84123416249975
 20
-1421.4114424659531
 30
0.0
 41
0.9980964527232191
 10
930.96032315599996
 20
-1421.3463549930973
 30
0.0
 41
1.0
 10
930.99735576292755
 20
-1421.3261150135045
 30
0.0
 41
1.0
 10
931.03438836985526
 20
-1421.3058750339114
 30
0.0
 41
1.0
 10
931.21371538312883
 20
-1421.2078647832102
 30
0.0
 41
0.9984572810573119
 10
931.40280394948797
 20
-1421.1303425218634
 30
0.0
 41
1.0
 10
931.40645021888258
 20
-1421.128847629526
 30
0.0
 41
1.0
 10
931.41009648827708
 20
-1421.1273527371886
 30
0.0
 41
1.0
 10
931.5918925158453
 20
-1421.0528202605176
 30
0.0
 41
0.998783852803392
 10
931.78014517440613
 20
-1420.9965546203514
 30
0.0
 41
1.0
 10
931.78438312360754
 20
-1420.9952879666603
 30
0.0
 41
1.0
 10
931.78862107280884
 20
-1420.9940213129694
 30
0.0
 41
1.0
 10
931.96839783296787
 20
-1420.9402889801852
 30
0.0
 41
0.9990652816207518
 10
932.15214376468123
 20
-1420.9022853006436
 30
0.0
 41
1.0
 10
932.15733216571039
 20
-1420.9012121975375
 30
0.0
 41
1.0
 10
932.16252056673966
 20
-1420.9001390944316
 30
0.0
 41
1.0
 10
932.33588969639504
 20
-1420.8642816211018
 30
0.0
 41
0.9992909934269924
 10
932.51146546285543
 20
-1420.841571188635
 30
0.0
 41
1.0
 10
932.68704122931285
 20
-1420.8188607561685
 30
0.0
 41
0.9994553539448385
 10
932.86373266240537
 20
-1420.8077814519625
 30
0.0
 41
1.0
 10
932.89916707020336
 20
-1420.8055595639144
 30
0.0
 41
1.0
 10
932.93460147800135
 20
-1420.8033376758665
 30
0.0
 41
1.0
 10
933.10082724456936
 20
-1420.792914613455
 30
0.0
 41
0.9990928098292982
 10
933.26733703647017
 20
-1420.7966742546896
 30
0.0
 41
1.0
 10
933.30589887174426
 20
-1420.7975449462226
 30
0.0
 41
1.0
 10
933.34446070701836
 20
-1420.7984156377556
 30
0.0
 41
1.0
 10
933.43384682837507
 20
-1420.8004338959242
 30
0.0
 41
0.9998382089205637
 10
933.52310251115898
 20
-1420.805666022452
 30
0.0
 41
1.0
 10
933.52353241737944
 20
-1420.8056912233542
 30
0.0
 41
1.0
 10
933.5239623235999
 20
-1420.8057164242566
 30
0.0
 41
1.0
 10
933.61235819394574
 20
-1420.8108981489802
 30
0.0
 41
0.9997558016758823
 10
933.70043877114597
 20
-1420.8199806643465
 30
0.0
 41
1.0
 10
933.70091490957589
 20
-1420.8200297618291
 30
0.0
 41
1.0
 10
933.70139104800592
 20
-1420.8200788593117
 30
0.0
 41
1.0
 10
933.78851934834677
 20
-1420.8290631797131
 30
0.0
 41
0.999656514418159
 10
933.87505720168895
 20
-1420.8426004864023
 30
0.0
 41
1.0
 10
933.87552312706839
 20
-1420.842673372134
 30
0.0
 41
1.0
 10
933.87598905244784
 20
-1420.8427462578657
 30
0.0
 41
1.0
 10
933.96159505503306
 20
-1420.8561377930916
 30
0.0
 41
0.9995321806867413
 10
934.04622213535902
 20
-1420.8747382815204
 30
0.0
 41
1.0
 10
934.04661132992896
 20
-1420.8748238239859
 30
0.0
 41
1.0
 10
934.0470005244988
 20
-1420.8749093664512
 30
0.0
 41
1.0
 10
934.13084921568498
 20
-1420.8933387699492
 30
0.0
 41
0.9993819199219525
 10
934.2131957498832
 20
-1420.9176141532103
 30
0.0
 41
1.0
 10
934.21343418338051
 20
-1420.9176844423193
 30
0.0
 41
1.0
 10
934.21367261687772
 20
-1420.9177547314284
 30
0.0
 41
1.0
 10
934.29554228407869
 20
-1420.9418895364706
 30
0.0
 41
0.9992088568505828
 10
934.37523480306766
 20
-1420.9724547722653
 30
0.0
 41
1.0
 10
934.45491579394672
 20
-1421.0030143729987
 30
0.0
 41
0.999022610177347
 10
934.53158646385384
 20
-1421.0404918046133
 30
0.0
 41
1.0
 10
934.60824560565175
 20
-1421.0779636011664
 30
0.0
 41
0.9988424273972242
 10
934.6809492328623
 20
-1421.1226283764183
 30
0.0
 41
1.0
 10
934.68121694124261
 20
-1421.122792840491
 30
0.0
 41
1.0
 10
934.68148464962292
 20
-1421.1229573045639
 30
0.0
 41
1.0
 10
934.75472369359466
 20
-1421.1679510079618
 30
0.0
 41
0.9986928844491365
 10
934.82298656030378
 20
-1421.2201867422411
 30
0.0
 41
1.0
 10
934.82356785252637
 20
-1421.220631555469
 30
0.0
 41
1.0
 10
934.82414914474907
 20
-1421.2210763686967
 30
0.0
 41
1.0
 10
934.8935745959044
 20
-1421.2742017294322
 30
0.0
 41
0.9986007262279103
 10
934.95700076567118
 20
-1421.3343624991257
 30
0.0
 41
1.0
 10
934.95789518112838
 20
-1421.3352108669608
 30
0.0
 41
1.0
 10
934.95878959658546
 20
-1421.3360592347958
 30
0.0
 41
1.0
 10
935.02400459726744
 20
-1421.3979167401606
 30
0.0
 41
0.9985581491382558
 10
935.08221220896917
 20
-1421.466409230432
 30
0.0
 41
1.0
 10
935.09147066256457
 20
-1421.4773035881333
 30
0.0
 41
1.0
 10
935.10072911615998
 20
-1421.4881979458346
 30
0.0
 41
1.0
 10
935.1774536350531
 20
-1421.5784791515096
 30
0.0
 41
0.9970460233520668
 10
935.23944553621311
 20
-1421.6794462356922
 30
0.0
 41
1.0
 10
935.25391490129255
 20
-1421.7030126947734
 30
0.0
 41
1.0
 10
935.26838426637198
 20
-1421.7265791538543
 30
0.0
 41
1.0
 10
935.30812096638454
 20
-1421.7912988778867
 30
0.0
 41
0.9988468816636764
 10
935.34146733713555
 20
-1421.8595313303133
 30
0.0
 41
1.0
 10
935.3485033596271
 20
-1421.8739282514509
 30
0.0
 41
1.0
 10
935.35553938211865
 20
-1421.8883251725886
 30
0.0
 41
1.0
 10
935.37481370788794
 20
-1421.9277637827431
 30
0.0
 41
0.9998431189999189
 10
935.392679035382
 20
-1421.9678603371817
 30
0.0
 41
1.0
 10
935.4105443628581
 20
-1422.0079568915799
 30
0.0
 41
0.9999989989940417
 10
935.42852308629472
 20
-1422.0480027291967
 30
0.0
 41
1.0
 10
935.43469539789112
 20
-1422.0617509460139
 30
0.0
 41
1.0
 10
935.44086770948741
 20
-1422.0754991628314
 30
0.0
 41
1.0
 10
935.47119105609943
 20
-1422.1430414340443
 30
0.0
 41
0.9998790356321295
 10
935.4993989362365
 20
-1422.2114941859795
 30
0.0
 41
1.0
 10
935.50623411752133
 20
-1422.2280812874083
 30
0.0
 41
1.0
 10
935.51306929880616
 20
-1422.244668388837
 30
0.0
 41
1.0
 10
935.53662696118477
 20
-1422.3018363437177
 30
0.0
 41
0.9998227574560752
 10
935.55801570957408
 20
-1422.3598506519957
 30
0.0
 41
1.0
 10
935.57940445796442
 20
-1422.4178649602761
 30
0.0
 41
0.9996797971041653
 10
935.59783074292318
 20
-1422.476887079393
 30
0.0
 41
1.0
 10
935.60173454564847
 20
-1422.489391537561
 30
0.0
 41
1.0
 10
935.60563834837376
 20
-1422.501895995729
 30
0.0
 41
1.0
 10
935.63187223878379
 20
-1422.5859270311837
 30
0.0
 41
0.9979274938734608
 10
935.64709676226323
 20
-1422.6726313898446
 30
0.0
 41
1.0
 10
935.64932044952479
 20
-1422.6852953906678
 30
0.0
 41
1.0
 10
935.65154413678624
 20
-1422.6979593914909
 30
0.0
 41
1.0
 10
935.66247407648416
 20
-1422.7602058987793
 30
0.0
 41
0.9994985982137937
 10
935.66944224166082
 20
-1422.8230193999198
 30
0.0
 41
1.0
 10
935.67641040683748
 20
-1422.8858329010588
 30
0.0
 41
0.9996372611201856
 10
935.67998627260522
 20
-1422.9489304797394
 30
0.0
 41
1.0
 10
935.6801548500946
 20
-1422.9519050968238
 30
0.0
 41
1.0
 10
935.68032342758409
 20
-1422.9548797139084
 30
0.0
 41
1.0
 10
935.68423644833047
 20
-1423.023926526751
 30
0.0
 41
0.9997730630736283
 10
935.68520476181857
 20
-1423.0930773507866
 30
0.0
 41
1.0
 10
935.68526186823669
 20
-1423.0971555299295
 30
0.0
 41
1.0
 10
935.68531897465482
 20
-1423.1012337090724
 30
0.0
 41
1.0
 10
935.68640150097917
 20
-1423.1785408913929
 30
0.0
 41
0.9998772614069464
 10
935.68506141424723
 20
-1423.2558440379598
 30
0.0
 41
1.0
 10
935.68497215104856
 20
-1423.2609932017922
 30
0.0
 41
1.0
 10
935.68488288784988
 20
-1423.2661423656245
 30
0.0
 41
1.0
 10
935.68336427472036
 20
-1423.3537438398614
 30
0.0
 41
0.9999415567323797
 10
935.67995196447498
 20
-1423.4412920015284
 30
0.0
 41
1.0
 10
935.67971064379958
 20
-1423.4474834612683
 30
0.0
 41
1.0
 10
935.67946932312407
 20
-1423.4536749210085
 30
0.0
 41
1.0
 10
935.67557437152732
 20
-1423.5536060021623
 30
0.0
 41
0.9999716810420657
 10
935.67017578840864
 20
-1423.6534671403933
 30
0.0
 41
1.0
 10
935.66696298961938
 20
-1423.7128963900607
 30
0.0
 41
1.0
 10
935.66375019083
 20
-1423.772325639728
 30
0.0
 41
1.0
 10
935.65567628167855
 20
-1423.9216740409865
 30
0.0
 41
0.9999819129911256
 10
935.64580649006211
 20
-1424.0709145186941
 30
0.0
 41
1.0
 10
935.63593669844545
 20
-1424.2201549964054
 30
0.0
 41
1.0
 10
935.63349737788167
 20
-1424.2573480422548
 30
0.0
 41
1.0
 10
935.65619561171172
 20
-1424.2186070449266
 30
0.0
 41
0.9999982128099013
 10
935.67904017047476
 20
-1424.1799521509556
 30
0.0
 41
1.0
 10
935.70594973035622
 20
-1424.1344189369061
 30
0.0
 41
1.0
 10
935.73285929023768
 20
-1424.0888857228567
 30
0.0
 41
1.0
 10
935.8095229687633
 20
-1423.9591644007874
 30
0.0
 41
0.9998609190057608
 10
935.89047028162599
 20
-1423.8320720188567
 30
0.0
 41
1.0
 10
935.92011860310595
 20
-1423.7855222859021
 30
0.0
 41
1.0
 10
935.94976692458602
 20
-1423.7389725529476
 30
0.0
 41
1.0
 10
936.03203914482492
 20
-1423.6097999829494
 30
0.0
 41
0.9999067609732836
 10
936.11780815428995
 20
-1423.4829222935068
 30
0.0
 41
1.0
 10
936.12021285749097
 20
-1423.4793650274519
 30
0.0
 41
1.0
 10
936.12261756069199
 20
-1423.4758077613967
 30
0.0
 41
1.0
 10
936.20357716375179
 20
-1423.3560446040685
 30
0.0
 41
0.9998784952150149
 10
936.28823077343532
 20
-1423.238863387357
 30
0.0
 41
1.0
 10
936.37288438311077
 20
-1423.1216821706557
 30
0.0
 41
0.999853296828247
 10
936.46150200393083
 20
-1423.0074692621888
 30
0.0
 41
1.0
 10
936.48146379292814
 20
-1422.9817419411606
 30
0.0
 41
1.0
 10
936.50142558192545
 20
-1422.9560146201325
 30
0.0
 41
1.0
 10
936.61990963168262
 20
-1422.8033090091667
 30
0.0
 41
0.9991551975795763
 10
936.75053408130395
 20
-1422.6608494470854
 30
0.0
 41
1.0
 10
936.75404369728039
 20
-1422.6570218454644
 30
0.0
 41
1.0
 10
936.75755331325695
 20
-1422.6531942438437
 30
0.0
 41
1.0
 10
936.88115853092381
 20
-1422.5183898850055
 30
0.0
 41
0.9997418144181789
 10
937.01076067062809
 20
-1422.3893404743894
 30
0.0
 41
1.0
 10
937.14036281033009
 20
-1422.2602910637759
 30
0.0
 41
0.9989238204633248
 10
937.28136535858368
 20
-1422.1438061017348
 30
0.0
 41
1.0
 10
937.32661303672239
 20
-1422.1064261101267
 30
0.0
 41
1.0
 10
937.37186071486099
 20
-1422.0690461185186
 30
0.0
 41
1.0
 10
937.51210077208145
 20
-1421.9531910652288
 30
0.0
 41
0.9990825084097326
 10
937.66174070468423
 20
-1421.8497620673966
 30
0.0
 41
1.0
 10
937.67178606873563
 20
-1421.8428188543207
 30
0.0
 41
1.0
 10
937.68183143278713
 20
-1421.8358756412451
 30
0.0
 41
1.0
 10
937.8113806372827
 20
-1421.7463330695671
 30
0.0
 41
0.999816489982416
 10
937.94426484066446
 20
-1421.6618188280472
 30
0.0
 41
1.0
 10
937.95611040119252
 20
-1421.6542850615201
 30
0.0
 41
1.0
 10
937.96795596172069
 20
-1421.646751294993
 30
0.0
 41
1.0
 10
938.07714904404315
 20
-1421.5773045865296
 30
0.0
 41
0.9997473449131133
 10
938.1893530012901
 20
-1421.5128356287153
 30
0.0
 41
1.0
 10
938.30155695853296
 20
-1421.4483666709032
 30
0.0
 41
0.9999327861141014
 10
938.41522556929112
 20
-1421.3865166792245
 30
0.0
 41
1.0
 10
938.41577757185769
 20
-1421.3862163205422
 30
0.0
 41
1.0
 10
938.41632957442437
 20
-1421.3859159618598
 30
0.0
 41
1.0
 10
938.5311021903118
 20
-1421.3234652528188
 30
0.0
 41
0.9996956420484437
 10
938.64881551615258
 20
-1421.2667517858438
 30
0.0
 41
1.0
 10
938.67925592104632
 20
-1421.2520858091134
 30
0.0
 41
1.0
 10
938.70969632594006
 20
-1421.2374198323828
 30
0.0
 41
1.0
 10
938.81267343268144
 20
-1421.1878061739408
 30
0.0
 41
0.9998070570177514
 10
938.91751982161963
 20
-1421.1422755870408
 30
0.0
 41
1.0
 10
939.0223662105609
 20
-1421.0967450001397
 30
0.0
 41
0.9997827436147266
 10
939.12901914716883
 20
-1421.0556238288286
 30
0.0
 41
1.0
 10
939.14824199680106
 20
-1421.0482122551959
 30
0.0
 41
1.0
 10
939.16746484643329
 20
-1421.0408006815633
 30
0.0
 41
1.0
 10
939.3125634823067
 20
-1420.9848563629864
 30
0.0
 41
0.9988031841976449
 10
939.46243384491174
 20
-1420.9433562988188
 30
0.0
 41
1.0
 10
939.4873510932764
 20
-1420.9364565530113
 30
0.0
 41
1.0
 10
939.51226834164095
 20
-1420.9295568072041
 30
0.0
 41
1.0
 10
939.67953836728668
 20
-1420.8832386647978
 30
0.0
 41
0.9984748040550264
 10
939.85089527593334
 20
-1420.8556444325334
 30
0.0
 41
1.0
 10
939.85563441218062
 20
-1420.8548812720201
 30
0.0
 41
1.0
 10
939.8603735484279
 20
-1420.854118111507
 30
0.0
 41
1.0
 10
940.02225218458057
 20
-1420.8280502002685
 30
0.0
 41
0.9984436495479812
 10
940.186026928307
 20
-1420.8201722464498
 30
0.0
 41
1.0
 10
940.20772413643886
 20
-1420.8191285592502
 30
0.0
 41
1.0
 10
940.22942134457082
 20
-1420.8180848720503
 30
0.0
 41
1.0
 10
940.34980167203219
 20
-1420.8122942926311
 30
0.0
 41
0.9987954789335681
 10
940.47016991694147
 20
-1420.8183308203734
 30
0.0
 41
1.0
 10
940.49013470943601
 20
-1420.8193320647119
 30
0.0
 41
1.0
 10
940.51009950193054
 20
-1420.8203333090505
 30
0.0
 41
1.0
 10
940.59053816185155
 20
-1420.8243673481156
 30
0.0
 41
0.9997941595877328
 10
940.67074693994573
 20
-1420.8316614140367
 30
0.0
 41
1.0
 10
940.75095571804138
 20
-1420.838955479958
 30
0.0
 41
0.9998589466235421
 10
940.83087426489715
 20
-1420.8489393344082
 30
0.0
 41
1.0
 10
940.8632804667044
 20
-1420.8529876913271
 30
0.0
 41
1.0
 10
940.89568666851164
 20
-1420.8570360482463
 30
0.0
 41
1.0
 10
941.04041761898247
 20
-1420.8751166165348
 30
0.0
 41
0.9993495063249296
 10
941.18346886274719
 20
-1420.9035823262761
 30
0.0
 41
1.0
 10
941.2164025598978
 20
-1420.9101357894906
 30
0.0
 41
1.0
 10
941.24933625704841
 20
-1420.9166892527051
 30
0.0
 41
1.0
 10
941.35863008025467
 20
-1420.9384375868408
 30
0.0
 41
0.9996788715560975
 10
941.46668165221377
 20
-1420.9656953862045
 30
0.0
 41
1.0
 10
941.46874465475457
 20
-1420.966215812778
 30
0.0
 41
1.0
 10
941.4708076572955
 20
-1420.9667362393513
 30
0.0
 41
1.0
 10
941.57473322417218
 20
-1420.9929531855682
 30
0.0
 41
0.9995480654492855
 10
941.67689545939959
 20
-1421.0253681421918
 30
0.0
 41
1.0
 10
941.6785851015286
 20
-1421.0259042471057
 30
0.0
 41
1.0
 10
941.68027474365749
 20
-1421.0264403520196
 30
0.0
 41
1.0
 10
941.77905769462882
 20
-1421.0577830988163
 30
0.0
 41
0.9993867959456282
 10
941.87540485307159
 20
-1421.0959624681061
 30
0.0
 41
1.0
 10
941.87664780215732
 20
-1421.0964550100027
 30
0.0
 41
1.0
 10
941.87789075124306
 20
-1421.0969475518993
 30
0.0
 41
1.0
 10
941.97175201151413
 20
-1421.1341418373959
 30
0.0
 41
0.9992050256521786
 10
942.06235168654746
 20
-1421.1786957366346
 30
0.0
 41
1.0
 10
942.06308636926065
 20
-1421.1790570290959
 30
0.0
 41
1.0
 10
942.06382105197395
 20
-1421.179418321557
 30
0.0
 41
1.0
 10
942.15295136158181
 20
-1421.2232496358738
 30
0.0
 41
0.9990222350742184
 10
942.23786142297456
 20
-1421.2747829035716
 30
0.0
 41
1.0
 10
942.2380453082568
 20
-1421.2748945064761
 30
0.0
 41
1.0
 10
942.23822919353904
 20
-1421.2750061093807
 30
0.0
 41
1.0
 10
942.32277148436845
 20
-1421.32631617127
 30
0.0
 41
0.9988642743805146
 10
942.40204601898722
 20
-1421.3854403587952
 30
0.0
 41
1.0
 10
942.48132055360566
 20
-1421.4445645463202
 30
0.0
 41
0.998768123331091
 10
942.55434433788275
 20
-1421.5112552377218
 30
0.0
 41
1.0
 10
942.55467326584835
 20
-1421.5115556389358
 30
0.0
 41
1.0
 10
942.55500219381395
 20
-1421.5118560401497
 30
0.0
 41
1.0
 10
942.62868383402281
 20
-1421.5791475339799
 30
0.0
 41
0.9987496570898385
 10
942.6952776393498
 20
-1421.6534603480666
 30
0.0
 41
1.0
 10
942.69604980910981
 20
-1421.6543220214239
 30
0.0
 41
1.0
 10
942.69682197886982
 20
-1421.6551836947813
 30
0.0
 41
1.0
 10
942.76496012371729
 20
-1421.731219855583
 30
0.0
 41
0.9988147669827373
 10
942.8253823779429
 20
-1421.8135208624262
 30
0.0
 41
1.0
 10
942.82650170402053
 20
-1421.8150454937786
 30
0.0
 41
1.0
 10
942.82762103009827
 20
-1421.8165701251312
 30
0.0
 41
1.0
 10
942.89028193647914
 20
-1421.9019203946796
 30
0.0
 41
0.9989452636216633
 10
942.94484884943984
 20
-1421.9926590838361
 30
0.0
 41
1.0
 10
942.94619757552562
 20
-1421.9949018648626
 30
0.0
 41
1.0
 10
942.9475463016114
 20
-1421.997144645889
 30
0.0
 41
1.0
 10
943.00481066674445
 20
-1422.0923688970995
 30
0.0
 41
0.999104643607013
 10
943.05381988006627
 20
-1422.1920933301255
 30
0.0
 41
1.0
 10
943.05528374165601
 20
-1422.1950720101977
 30
0.0
 41
1.0
 10
943.05674760324575
 20
-1422.1980506902696
 30
0.0
 41
1.0
 10
943.10868453974774
 20
-1422.3037324834406
 30
0.0
 41
0.9992763831101191
 10
943.15243766830213
 20
-1422.4130565453947
 30
0.0
 41
1.0
 10
943.15391693796573
 20
-1422.4167527329289
 30
0.0
 41
1.0
 10
943.15539620762922
 20
-1422.4204489204631
 30
0.0
 41
1.0
 10
943.20210787551093
 20
-1422.5371653574857
 30
0.0
 41
0.9994163472883503
 10
943.24074090670138
 20
-1422.656798945952
 30
0.0
 41
1.0
 10
943.24197905894789
 20
-1422.6606330897339
 30
0.0
 41
1.0
 10
943.24321721119441
 20
-1422.664467233516
 30
0.0
 41
1.0
 10
943.28310077221158
 20
-1422.7879732949943
 30
0.0
 41
0.999726805588996
 10
943.31716882812361
 20
-1422.9132083269449
 30
0.0
 41
1.0
 10
943.31809900839357
 20
-1422.916627693055
 30
0.0
 41
1.0
 10
943.31902918866354
 20
-1422.9200470591652
 30
0.0
 41
1.0
 10
943.35123688403576
 20
-1423.0384433588963
 30
0.0
 41
0.9996701319000499
 10
943.37732250080603
 20
-1423.1583373121589
 30
0.0
 41
1.0
 10
943.40340811757642
 20
-1423.2782312654224
 30
0.0
 41
0.9995785451109441
 10
943.42249169491629
 20
-1423.3994370264541
 30
0.0
 41
1.0
 10
943.42671147708984
 20
-1423.4262381812175
 30
0.0
 41
1.0
 10
943.43093125926328
 20
-1423.453039335981
 30
0.0
 41
1.0
 10
943.45750623520223
 20
-1423.6218253096858
 30
0.0
 41
0.9979925101216712
 10
943.46253182112866
 20
-1423.7926166377788
 30
0.0
 41
1.0
 10
943.4633566335533
 20
-1423.8206473612581
 30
0.0
 41
1.0
 10
943.46418144597794
 20
-1423.8486780847375
 30
0.0
 41
1.0
 10
943.46755740705521
 20
-1423.9634079658681
 30
0.0
 41
0.9995314902263155
 10
943.4639072149165
 20
-1424.0781294496223
 30
0.0
 41
1.0
 10
943.46025702277836
 20
-1424.192850933372
 30
0.0
 41
0.9996245486943874
 10
943.45032792764744
 20
-1424.3072002044946
 30
0.0
 41
1.0
 10
943.45016487965302
 20
-1424.3090779606318
 30
0.0
 41
1.0
 10
943.4500018316586
 20
-1424.3109557167688
 30
0.0
 41
1.0
 10
943.43974664053871
 20
-1424.429060500167
 30
0.0
 41
0.9997286095000868
 10
943.42400131696763
 20
-1424.5465594090588
 30
0.0
 41
1.0
 10
943.42360782431729
 20
-1424.5494958337604
 30
0.0
 41
1.0
 10
943.42321433166705
 20
-1424.5524322584617
 30
0.0
 41
1.0
 10
943.40668202279494
 20
-1424.6758040167606
 30
0.0
 41
0.9998265533968629
 10
943.38556656406229
 20
-1424.7984744915493
 30
0.0
 41
1.0
 10
943.38489002192523
 20
-1424.8024048700565
 30
0.0
 41
1.0
 10
943.38421347978806
 20
-1424.8063352485638
 30
0.0
 41
1.0
 10
943.36174493678107
 20
-1424.9368664803678
 30
0.0
 41
0.9999022530853083
 10
943.33563547217136
 20
-1425.0667184490051
 30
0.0
 41
1.0
 10
943.33465683100599
 20
-1425.0715855913927
 30
0.0
 41
1.0
 10
943.3336781898405
 20
-1425.0764527337801
 30
0.0
 41
1.0
 10
943.30561144289902
 20
-1425.2160389871965
 30
0.0
 41
0.9999524761933221
 10
943.27482847406122
 20
-1425.3550514803749
 30
0.0
 41
1.0
 10
943.27355236688766
 20
-1425.3608142396688
 30
0.0
 41
1.0
 10
943.27227625971409
 20
-1425.3665769989625
 30
0.0
 41
1.0
 10
943.23894107652336
 20
-1425.5171150107533
 30
0.0
 41
0.9999813588732734
 10
943.20377007572608
 20
-1425.6672347234157
 30
0.0
 41
1.0
 10
943.20221615027276
 20
-1425.6738673138241
 30
0.0
 41
1.0
 10
943.20066222481955
 20
-1425.6804999042324
 30
0.0
 41
1.0
 10
943.16238337311438
 20
-1425.8438847977181
 30
0.0
 41
0.9999955237630831
 10
943.12312749513694
 20
-1426.0070377013112
 30
0.0
 41
1.0
 10
943.11084585949914
 20
-1426.0580818918484
 30
0.0
 41
1.0
 10
943.09856422386133
 20
-1426.1091260823857
 30
0.0
 41
1.0
 10
943.0347450746317
 20
-1426.3743673669567
 30
0.0
 41
0.9999993604786923
 10
942.97032612746227
 20
-1426.6394636176474
 30
0.0
 41
1.0
 10
942.96560729190617
 20
-1426.6588825257252
 30
0.0
 41
1.0
 10
942.96088845635006
 20
-1426.678301433803
 30
0.0
 41
1.0
 10
942.88703183808798
 20
-1426.9822355005683
 30
0.0
 41
0.9999659914728482
 10
942.808172242198
 20
-1427.2849100471453
 30
0.0
 41
1.0
 10
942.80321955327054
 20
-1427.3039191843159
 30
0.0
 41
1.0
 10
942.79826686434296
 20
-1427.3229283214862
 30
0.0
 41
1.0
 10
942.70950189059636
 20
-1427.6636211424095
 30
0.0
 41
0.9999441976026664
 10
942.61355885763396
 20
-1428.0023625677049
 30
0.0
 41
1.0
 10
942.59685833920844
 20
-1428.0613262802324
 30
0.0
 41
1.0
 10
942.58015782078303
 20
-1428.1202899927598
 30
0.0
 41
1.0
 10
942.45081375096947
 20
-1428.5769588431108
 30
0.0
 41
0.9999625120735591
 10
942.31358098364353
 20
-1429.0313193771151
 30
0.0
 41
1.0
 10
942.27779104056503
 20
-1429.1498154037272
 30
0.0
 41
1.0
 10
942.24200109748665
 20
-1429.2683114303393
 30
0.0
 41
1.0
 10
942.16748089343992
 20
-1429.5150385084605
 30
0.0
 41
0.9999793386301653
 10
942.08979487030047
 20
-1429.7607871477023
 30
0.0
 41
1.0
 10
942.01210884716284
 20
-1430.0065357869385
 30
0.0
 41
1.0
 10
942.00132928829225
 20
-1430.0405536913131
 30
0.0
 41
1.0
 10
940.15095623502305
 20
-1435.9276256137805
 30
0.0
 41
1.0
 10
938.30058318175384
 20
-1441.8146975362481
 30
0.0
 41
1.0
 10
937.33932649173028
 20
-1441.8146975362481
 30
0.0
 41
1.0
 10
936.37806980170672
 20
-1441.8146975362481
 30
0.0
 41
1.0
 10
937.99701458038521
 20
-1436.6666690344587
 30
0.0
 41
1.0
 10
939.61595935906371
 20
-1431.5186405326692
 30
0.0
 41
1.0
 10
939.66112518223963
 20
-1431.3746093103944
 30
0.0
 41
1.0
 10
939.70629100541544
 20
-1431.2305780881195
 30
0.0
 41
1.0
 10
939.87659542277333
 20
-1430.6874870589718
 30
0.0
 41
0.9999911657922351
 10
940.04232823445523
 20
-1430.1429835276033
 30
0.0
 41
1.0
 10
940.07202417795088
 20
-1430.0454195875689
 30
0.0
 41
1.0
 10
940.10172012144642
 20
-1429.9478556475344
 30
0.0
 41
1.0
 10
940.20806104613007
 20
-1429.598479996258
 30
0.0
 41
0.9999952428123435
 10
940.31224463546039
 20
-1429.2484549718902
 30
0.0
 41
1.0
 10
940.31730410578234
 20
-1429.2314566976506
 30
0.0
 41
1.0
 10
940.32236357610418
 20
-1429.2144584234109
 30
0.0
 41
1.0
 10
940.41642822478059
 20
-1428.8984299475562
 30
0.0
 41
0.9999931687536989
 10
940.50815406265895
 20
-1428.58171473427
 30
0.0
 41
1.0
 10
940.51308932711981
 20
-1428.5646740249945
 30
0.0
 41
1.0
 10
940.51802459158057
 20
-1428.5476333157189
 30
0.0
 41
1.0
 10
940.59987990053423
 20
-1428.264999520994
 30
0.0
 41
0.9999893840795215
 10
940.67912712698944
 20
-1427.9816233917529
 30
0.0
 41
1.0
 10
940.75837435344943
 20
-1427.6982472624954
 30
0.0
 41
0.9999833980082431
 10
940.83435059419185
 20
-1427.4139766794638
 30
0.0
 41
1.0
 10
940.84335453091103
 20
-1427.3802878009969
 30
0.0
 41
1.0
 10
940.85235846763021
 20
-1427.3465989225303
 30
0.0
 41
1.0
 10
940.92132301649929
 20
-1427.0885630902235
 30
0.0
 41
0.9999233658068631
 10
940.98387798771989
 20
-1426.8288989314999
 30
0.0
 41
1.0
 10
941.04643295894016
 20
-1426.5692347727775
 30
0.0
 41
1.0
 10
941.08591637779773
 20
-1426.4054281083513
 30
0.0
 41
1.0
 10
941.09089498177639
 20
-1426.3847731464753
 30
0.0
 41
1.0
 10
941.09587358575504
 20
-1426.3641181845992
 30
0.0
 41
1.0
 10
941.12539979665462
 20
-1426.2416214439281
 30
0.0
 41
0.9999868670863638
 10
941.15366888065148
 20
-1426.1188284982798
 30
0.0
 41
1.0
 10
941.15756636780918
 20
-1426.1018989108629
 30
0.0
 41
1.0
 10
941.16146385496688
 20
-1426.0849693234459
 30
0.0
 41
1.0
 10
941.18193796464891
 20
-1425.9960355526291
 30
0.0
 41
0.9999778173354594
 10
941.20122556276306
 20
-1425.9068369354038
 30
0.0
 41
1.0
 10
941.22051316087823
 20
-1425.8176383181742
 30
0.0
 41
0.9999602692860703
 10
941.23820751951246
 20
-1425.7281100297312
 30
0.0
 41
1.0
 10
941.24141135158845
 20
-1425.7118995748533
 30
0.0
 41
1.0
 10
941.24461518366445
 20
-1425.6956891199757
 30
0.0
 41
1.0
 10
941.26871720645079
 20
-1425.5737399217758
 30
0.0
 41
0.9995617985320986
 10
941.28556055366982
 20
-1425.4505781740684
 30
0.0
 41
1.0
 10
941.288025043576
 20
-1425.4325573567025
 30
0.0
 41
1.0
 10
941.29048953348229
 20
-1425.414536539337
 30
0.0
 41
1.0
 10
941.31077279453029
 20
-1425.2662214896382
 30
0.0
 41
0.9991121410639521
 10
941.31849814811835
 20
-1425.1167253908334
 30
0.0
 41
1.0
 10
941.31941693814292
 20
-1425.098945554256
 30
0.0
 41
1.0
 10
941.32033572816749
 20
-1425.0811657176787
 30
0.0
 41
1.0
 10
941.32622350170675
 20
-1424.9672292920259
 30
0.0
 41
0.9989792494905039
 10
941.32180440958928
 20
-1424.8532264561286
 30
0.0
 41
1.0
 10
941.32115643772067
 20
-1424.8365102102034
 30
0.0
 41
1.0
 10
941.32050846585219
 20
-1424.8197939642782
 30
0.0
 41
1.0
 10
941.3173853174718
 20
-1424.7392236202293
 30
0.0
 41
0.9997820295394303
 10
941.31090132009626
 20
-1424.6588538984863
 30
0.0
 41
1.0
 10
941.30441732272072
 20
-1424.5784841767436
 30
0.0
 41
0.9998335105972526
 10
941.29500512720915
 20
-1424.4984045602946
 30
0.0
 41
1.0
 10
941.29341020253264
 20
-1424.4848348298103
 30
0.0
 41
1.0
 10
941.29181527785613
 20
-1424.471265099326
 30
0.0
 41
1.0
 10
941.27921323299154
 20
-1424.3640460219092
 30
0.0
 41
0.9996876457879081
 10
941.26126932019315
 20
-1424.2575905941928
 30
0.0
 41
1.0
 10
941.25903765704766
 20
-1424.2443508589502
 30
0.0
 41
1.0
 10
941.25680599390216
 20
-1424.2311111237075
 30
0.0
 41
1.0
 10
941.24301017248172
 20
-1424.1492649797522
 30
0.0
 41
0.9995547496495026
 10
941.22435685058906
 20
-1424.0683874825609
 30
0.0
 41
1.0
 10
941.22398289371768
 20
-1424.0667660718548
 30
0.0
 41
1.0
 10
941.22360893684618
 20
-1424.0651446611487
 30
0.0
 41
1.0
 10
941.20570352869629
 20
-1423.9875099853691
 30
0.0
 41
0.9994899427175016
 10
941.18287862001716
 20
-1423.9111767025352
 30
0.0
 41
1.0
 10
941.18242009327651
 20
-1423.9096432527469
 30
0.0
 41
1.0
 10
941.18196156653585
 20
-1423.9081098029587
 30
0.0
 41
1.0
 10
941.16005371133815
 20
-1423.8348434197017
 30
0.0
 41
0.9993784877590914
 10
941.13303807623129
 20
-1423.7633027145419
 30
0.0
 41
1.0
 10
941.13250638525415
 20
-1423.7618947318208
 30
0.0
 41
1.0
 10
941.13197469427712
 20
-1423.7604867490998
 30
0.0
 41
1.0
 10
941.10602244112431
 20
-1423.691762009382
 30
0.0
 41
0.9992430832254848
 10
941.07480590596526
 20
-1423.6252628573145
 30
0.0
 41
1.0
 10
941.07422378990873
 20
-1423.6240228021975
 30
0.0
 41
1.0
 10
941.07364167385219
 20
-1423.6227827470802
 30
0.0
 41
1.0
 10
941.04358937080588
 20
-1423.5587637052465
 30
0.0
 41
0.999078963279926
 10
941.00815874402917
 20
-1423.4975570934967
 30
0.0
 41
1.0
 10
941.00756303784738
 20
-1423.4965280076376
 30
0.0
 41
1.0
 10
941.00696733166546
 20
-1423.4954989217788
 30
0.0
 41
1.0
 10
940.97272811725202
 20
-1423.4363504817463
 30
0.0
 41
0.9988874801120428
 10
940.93306884122046
 20
-1423.3806907693292
 30
0.0
 41
1.0
 10
940.93251331515648
 20
-1423.379911117655
 30
0.0
 41
1.0
 10
940.93195778909251
 20
-1423.3791314659807
 30
0.0
 41
1.0
 10
940.89340956518834
 20
-1423.3250310569108
 30
0.0
 41
0.9986762060691825
 10
940.84950709391228
 20
-1423.275177342472
 30
0.0
 41
1.0
 10
940.8490631335801
 20
-1423.2746732006553
 30
0.0
 41
1.0
 10
940.84861917324793
 20
-1423.2741690588389
 30
0.0
 41
1.0
 10
940.80560462263622
 20
-1423.2253236280333
 30
0.0
 41
0.9984621642488651
 10
940.75744706585829
 20
-1423.1815403275618
 30
0.0
 41
1.0
 10
940.75720043134186
 20
-1423.1813160953984
 30
0.0
 41
1.0
 10
940.75695379682543
 20
-1423.1810918632352
 30
0.0
 41
1.0
 10
940.7092895090808
 20
-1423.1377570270909
 30
0.0
 41
0.9982724693850283
 10
940.65687087723904
 20
-1423.1003126765731
 30
0.0
 41
1.0
 10
940.60445224539751
 20
-1423.0628683260554
 30
0.0
 41
0.9981399180158835
 10
940.5478661820041
 20
-1423.0320818066118
 30
0.0
 41
1.0
 10
940.54782051992572
 20
-1423.0320569634546
 30
0.0
 41
1.0
 10
940.54777485784734
 20
-1423.0320321202976
 30
0.0
 41
1.0
 10
940.49109747029718
 20
-1423.0011959145397
 30
0.0
 41
0.9980927086836949
 10
940.4310521192308
 20
-1422.9775791056873
 30
0.0
 41
1.0
 10
940.43061194951906
 20
-1422.9774059798124
 30
0.0
 41
1.0
 10
940.43017177980732
 20
-1422.9772328539373
 30
0.0
 41
1.0
 10
940.36924608931793
 20
-1422.953269793335
 30
0.0
 41
0.9981411356561917
 10
940.30585756791902
 20
-1422.9368971518295
 30
0.0
 41
1.0
 10
940.30497545121716
 20
-1422.936669309624
 30
0.0
 41
1.0
 10
940.3040933345153
 20
-1422.9364414674183
 30
0.0
 41
1.0
 10
940.23894057971199
 20
-1422.9196131415015
 30
0.0
 41
0.9983031812934691
 10
940.17227315071636
 20
-1422.9104737803252
 30
0.0
 41
1.0
 10
940.16340212531406
 20
-1422.909257661654
 30
0.0
 41
1.0
 10
940.15453109991176
 20
-1422.908041542983
 30
0.0
 41
1.0
 10
940.10018145740696
 20
-1422.9005908129918
 30
0.0
 41
0.9983887708264316
 10
940.04533760811353
 20
-1422.8993461393584
 30
0.0
 41
1.0
 10
940.03727420289908
 20
-1422.8991631414838
 30
0.0
 41
1.0
 10
940.02921079768464
 20
-1422.8989801436089
 30
0.0
 41
1.0
 10
939.99049375882373
 20
-1422.8981014657252
 30
0.0
 41
0.9998869563078566
 10
939.95176780561803
 20
-1422.8983873350849
 30
0.0
 41
1.0
 10
939.9130418523996
 20
-1422.8986732044448
 30
0.0
 41
0.999997232013938
 10
939.87431767317332
 20
-1422.8991413039739
 30
0.0
 41
1.0
 10
939.8549646566089
 20
-1422.8993752440631
 30
0.0
 41
1.0
 10
939.83561164004459
 20
-1422.8996091841523
 30
0.0
 41
1.0
 10
939.75818142767582
 20
-1422.9005451638602
 30
0.0
 41
0.9997304945087462
 10
939.68087812144017
 20
-1422.9050742576462
 30
0.0
 41
1.0
 10
939.6718284797339
 20
-1422.9056044636363
 30
0.0
 41
1.0
 10
939.66277883802775
 20
-1422.9061346696262
 30
0.0
 41
1.0
 10
939.56737624838422
 20
-1422.9117241753918
 30
0.0
 41
0.9997888306415984
 10
939.47228391254441
 20
-1422.9212291398806
 30
0.0
 41
1.0
 10
939.46356285096897
 20
-1422.9221008545128
 30
0.0
 41
1.0
 10
939.45484178939353
 20
-1422.9229725691453
 30
0.0
 41
1.0
 10
939.34230733040454
 20
-1422.9342209628987
 30
0.0
 41
0.9984170238191275
 10
939.23174818305279
 20
-1422.9580370448346
 30
0.0
 41
1.0
 10
939.1953670520677
 20
-1422.9658740806403
 30
0.0
 41
1.0
 10
939.15898592108272
 20
-1422.9737111164463
 30
0.0
 41
1.0
 10
939.04379485266054
 20
-1422.998524982956
 30
0.0
 41
0.9976592854199566
 10
938.93306668625462
 20
-1423.0388236601034
 30
0.0
 41
1.0
 10
938.82233851985006
 20
-1423.0791223372505
 30
0.0
 41
0.9993255074352341
 10
938.71486672105959
 20
-1423.1274392357427
 30
0.0
 41
1.0
 10
938.71024154213592
 20
-1423.1295186119426
 30
0.0
 41
1.0
 10
938.70561636321224
 20
-1423.1315979881424
 30
0.0
 41
1.0
 10
938.58889420657363
 20
-1423.184073639035
 30
0.0
 41
0.9976475078274717
 10
938.48044686226285
 20
-1423.2520216286939
 30
0.0
 41
1.0
 10
938.46210446812961
 20
-1423.2635141075075
 30
0.0
 41
1.0
 10
938.44376207399625
 20
-1423.2750065863211
 30
0.0
 41
1.0
 10
938.35955988244427
 20
-1423.3277637070894
 30
0.0
 41
0.9995131336406775
 10
938.2788121674854
 20
-1423.3856699190435
 30
0.0
 41
1.0
 10
938.19806445252823
 20
-1423.4435761309967
 30
0.0
 41
0.9995810107605752
 10
938.12080280479915
 20
-1423.5060578134628
 30
0.0
 41
1.0
 10
938.11783277358904
 20
-1423.5084596849274
 30
0.0
 41
1.0
 10
938.11486274237905
 20
-1423.5108615563918
 30
0.0
 41
1.0
 10
938.03166103222782
 20
-1423.5781469817884
 30
0.0
 41
0.9996617837954562
 10
937.95207034509008
 20
-1423.6496674373507
 30
0.0
 41
1.0
 10
937.93993959421641
 20
-1423.6605681703384
 30
0.0
 41
1.0
 10
937.92780884334263
 20
-1423.6714689033261
 30
0.0
 41
1.0
 10
937.85953331594385
 20
-1423.7328215188006
 30
0.0
 41
0.9997267750052667
 10
937.79419980765954
 20
-1423.7972980553263
 30
0.0
 41
1.0
 10
937.72886629938057
 20
-1423.8617745918471
 30
0.0
 41
0.9999667288957019
 10
937.66459335624495
 20
-1423.9273083987305
 30
0.0
 41
1.0
 10
937.595765908462
 20
-1423.9974860574966
 30
0.0
 41
1.0
 10
937.52693846067893
 20
-1424.0676637162628
 30
0.0
 41
1.0
 10
937.32501062198139
 20
-1424.273552840674
 30
0.0
 41
0.9988205335174899
 10
937.14400500500108
 20
-1424.4980570727359
 30
0.0
 41
1.0
 10
937.11336504009716
 20
-1424.536060323165
 30
0.0
 41
1.0
 10
937.08272507519325
 20
-1424.574063573594
 30
0.0
 41
1.0
 10
936.84043952840489
 20
-1424.874574306514
 30
0.0
 41
0.9997077826755082
 10
936.61296157730249
 20
-1425.1864441007262
 30
0.0
 41
1.0
 10
936.61123816217037
 20
-1425.1888068841081
 30
0.0
 41
1.0
 10
936.60951474703825
 20
-1425.1911696674899
 30
0.0
 41
1.0
 10
936.37858996567252
 20
-1425.5077650284647
 30
0.0
 41
0.9989147567078904
 10
936.17812646279015
 20
-1425.8444744896476
 30
0.0
 41
1.0
 10
936.15338531748125
 20
-1425.8860310702034
 30
0.0
 41
1.0
 10
936.12864417217236
 20
-1425.9275876507591
 30
0.0
 41
1.0
 10
935.97343287353488
 20
-1426.1882890352122
 30
0.0
 41
0.999747659818099
 10
935.83008788602774
 20
-1426.4556987837902
 30
0.0
 41
1.0
 10
935.68674289851924
 20
-1426.7231085323704
 30
0.0
 41
0.9996258967110169
 10
935.55823464658704
 20
-1426.9979564689954
 30
0.0
 41
1.0
 10
935.54503473713839
 20
-1427.026187869089
 30
0.0
 41
1.0
 10
935.53183482768975
 20
-1427.0544192691823
 30
0.0
 41
1.0
 10
935.39162610668996
 20
-1427.3542916671349
 30
0.0
 41
0.9998735413943848
 10
935.26102475996663
 20
-1427.658471266609
 30
0.0
 41
1.0
 10
935.25758193190688
 20
-1427.6664898520721
 30
0.0
 41
1.0
 10
935.25413910384714
 20
-1427.674508437535
 30
0.0
 41
1.0
 10
935.1304234132474
 20
-1427.962650866074
 30
0.0
 41
0.9999377418862003
 10
935.01316861107148
 20
-1428.2534823337519
 30
0.0
 41
1.0
 10
934.89591380889465
 20
-1428.5443138014316
 30
0.0
 41
0.9999508299500979
 10
934.78444986551347
 20
-1428.8374134782632
 30
0.0
 41
1.0
 10
934.78136909685372
 20
-1428.8455145042199
 30
0.0
 41
1.0
 10
934.77828832819398
 20
-1428.8536155301767
 30
0.0
 41
1.0
 10
934.66066284749002
 20
-1429.1629172589305
 30
0.0
 41
0.9999609228439799
 10
934.54852424461308
 20
-1429.4742502749541
 30
0.0
 41
1.0
 10
934.54556823426583
 20
-1429.4824571153572
 30
0.0
 41
1.0
 10
934.54261222391847
 20
-1429.4906639557603
 30
0.0
 41
1.0
 10
934.42456160034669
 20
-1429.818410652591
 30
0.0
 41
0.9999674607402618
 10
934.31181407427857
 20
-1430.1480192725855
 30
0.0
 41
1.0
 10
934.26041568371454
 20
-1430.298278468282
 30
0.0
 41
1.0
 10
934.20901729315051
 20
-1430.4485376639784
 30
0.0
 41
1.0
 10
934.09300668639185
 20
-1430.7876856464839
 30
0.0
 41
0.9999287532308711
 10
933.98512528242338
 20
-1431.1295063854527
 30
0.0
 41
1.0
 10
933.93864802628207
 20
-1431.2767689298307
 30
0.0
 41
1.0
 10
933.89217077014075
 20
-1431.424031474209
 30
0.0
 41
1.0
 10
933.87724387847118
 20
-1431.4713271243691
 30
0.0
 41
0.9999998224408288
 10
933.86237336972226
 20
-1431.5186405326692
 30
0.0
 41
1.0
 10
932.24171723292682
 20
-1436.6666690344587
 30
0.0
 41
1.0
 10
930.62106109613137
 20
-1441.8146975362481
 30
0.0
 41
1.0
 10
929.71575265224044
 20
-1441.8146975362481
 30
0.0
 41
1.0
 10
928.81044420834951
 20
-1441.8146975362481
 30
0.0
 41
1.0
 10
930.66252861973555
 20
-1435.9276256137805
 30
0.0
 41
1.0
 10
932.5146130311216
 20
-1430.0405536913131
 30
0.0
 41
1.0
 10
932.5247347894242
 20
-1430.0085104778634
 30
0.0
 41
1.0
 10
932.59734245827394
 20
-1429.7782109360376
 30
0.0
 41
1.0
 10
932.66995012712232
 20
-1429.547911394216
 30
0.0
 41
0.9999825681974661
 10
932.73983316633792
 20
-1429.3167704991379
 30
0.0
 41
1.0
 10
932.78812422849944
 20
-1429.1570459156396
 30
0.0
 41
1.0
 10
932.83641529066097
 20
-1428.9973213321412
 30
0.0
 41
1.0
 10
932.93356764397481
 20
-1428.6759861103765
 30
0.0
 41
0.9999672528969561
 10
933.02550644959604
 20
-1428.3531205647969
 30
0.0
 41
1.0
 10
933.02829533326769
 20
-1428.3433267194002
 30
0.0
 41
1.0
 10
933.03108421693935
 20
-1428.3335328740036
 30
0.0
 41
1.0
 10
933.11744525522181
 20
-1428.0302550192014
 30
0.0
 41
0.9999899749179747
 10
933.20108686475407
 20
-1427.7262159307579
 30
0.0
 41
1.0
 10
933.21119278377307
 20
-1427.6894806930741
 30
0.0
 41
1.0
 10
933.22129870279207
 20
-1427.6527454553902
 30
0.0
 41
1.0
 10
933.28472847428986
 20
-1427.4221768423022
 30
0.0
 41
0.999921420050284
 10
933.34235790266655
 20
-1427.1900905000962
 30
0.0
 41
1.0
 10
933.35512375484336
 20
-1427.1386796147153
 30
0.0
 41
1.0
 10
933.36788960702029
 20
-1427.0872687293343
 30
0.0
 41
1.0
 10
933.39998733104244
 20
-1426.9580041578943
 30
0.0
 41
0.9999828681669656
 10
933.43056958303976
 20
-1426.8283726834195
 30
0.0
 41
1.0
 10
933.46115183503684
 20
-1426.6987412089452
 30
0.0
 41
0.9999389844475175
 10
933.48886282382739
 20
-1426.568465753038
 30
0.0
 41
1.0
 10
933.49600056754616
 20
-1426.5349096492077
 30
0.0
 41
1.0
 10
933.50313831126482
 20
-1426.5013535453772
 30
0.0
 41
1.0
 10
933.54512478749382
 20
-1426.303965881805
 30
0.0
 41
0.9998933699441915
 10
933.58132905189564
 20
-1426.1054362740495
 30
0.0
 41
1.0
 10
933.58270187711253
 20
-1426.0979082533499
 30
0.0
 41
1.0
 10
933.58407470232942
 20
-1426.0903802326504
 30
0.0
 41
1.0
 10
933.62302461716524
 20
-1425.8767945834938
 30
0.0
 41
0.9996850305193238
 10
933.65120829342379
 20
-1425.6615235780569
 30
0.0
 41
1.0
 10
933.65320332679278
 20
-1425.6462852239372
 30
0.0
 41
1.0
 10
933.65519836016176
 20
-1425.6310468698175
 30
0.0
 41
1.0
 10
933.68260622262051
 20
-1425.4217016426644
 30
0.0
 41
0.9994697936707241
 10
933.69633078184029
 20
-1425.2110164473329
 30
0.0
 41
1.0
 10
933.69680785109017
 20
-1425.2036929751198
 30
0.0
 41
1.0
 10
933.69728492033994
 20
-1425.1963695029069
 30
0.0
 41
1.0
 10
933.71005534105996
 20
-1425.0003312520018
 30
0.0
 41
0.9991804893136815
 10
933.70692702478709
 20
-1424.8039024020286
 30
0.0
 41
1.0
 10
933.70684314596497
 20
-1424.7986356006177
 30
0.0
 41
1.0
 10
933.70675926714296
 20
-1424.7933687992065
 30
0.0
 41
1.0
 10
933.70379870851446
 20
-1424.6074735520581
 30
0.0
 41
0.9988448329321705
 10
933.68300716289059
 20
-1424.4227209622218
 30
0.0
 41
1.0
 10
933.6814130891878
 20
-1424.4085561064524
 30
0.0
 41
1.0
 10
933.6798190154849
 20
-1424.3943912506829
 30
0.0
 41
1.0
 10
933.66221561726718
 20
-1424.2379683723905
 30
0.0
 41
0.9985503209458477
 10
933.6278993449672
 20
-1424.0843441882992
 30
0.0
 41
1.0
 10
933.62031335289635
 20
-1424.0503838609002
 30
0.0
 41
1.0
 10
933.61272736082537
 20
-1424.0164235335014
 30
0.0
 41
1.0
 10
933.59358307266791
 20
-1423.9307200042113
 30
0.0
 41
0.999103678137121
 10
933.56725821101645
 20
-1423.8469429168849
 30
0.0
 41
1.0
 10
933.56327598556015
 20
-1423.8342697543735
 30
0.0
 41
1.0
 10
933.55929376010386
 20
-1423.8215965918619
 30
0.0
 41
1.0
 10
933.54093334936385
 20
-1423.7631658295552
 30
0.0
 41
0.9998874504366694
 10
933.52082814168682
 20
-1423.7053122273367
 30
0.0
 41
1.0
 10
933.50072293400842
 20
-1423.6474586251134
 30
0.0
 41
0.9994041637543526
 10
933.47667432107278
 20
-1423.5911299212205
 30
0.0
 41
1.0
 10
933.47247753684974
 20
-1423.5812998567408
 30
0.0
 41
1.0
 10
933.46828075262658
 20
-1423.571469792261
 30
0.0
 41
1.0
 10
933.44040192163141
 20
-1423.5061696262919
 30
0.0
 41
0.9991846840701196
 10
933.4073455649384
 20
-1423.4433315950123
 30
0.0
 41
1.0
 10
933.40620895854363
 20
-1423.4411709785581
 30
0.0
 41
1.0
 10
933.40507235214898
 20
-1423.4390103621042
 30
0.0
 41
1.0
 10
933.37428920824607
 20
-1423.3804935637336
 30
0.0
 41
0.9989253167924194
 10
933.33821978419041
 20
-1423.3250786353419
 30
0.0
 41
1.0
 10
933.33716565951659
 20
-1423.3234591405803
 30
0.0
 41
1.0
 10
933.33611153484276
 20
-1423.3218396458185
 30
0.0
 41
1.0
 10
933.30215036013658
 20
-1423.2696637069532
 30
0.0
 41
0.9986467172836411
 10
933.26295320749807
 20
-1423.2212976733222
 30
0.0
 41
1.0
 10
933.2620790787978
 20
-1423.2202190710445
 30
0.0
 41
1.0
 10
933.26120495009752
 20
-1423.2191404687667
 30
0.0
 41
1.0
 10
933.22375605486104
 20
-1423.1729316396929
 30
0.0
 41
0.9984001104267972
 10
933.18132932434344
 20
-1423.1312465323235
 30
0.0
 41
1.0
 10
933.18074218623383
 20
-1423.130669657442
 30
0.0
 41
1.0
 10
933.18015504812422
 20
-1423.1300927825605
 30
0.0
 41
1.0
 10
933.13890259382595
 20
-1423.0895614249546
 30
0.0
 41
0.9982442159083583
 10
933.09314649249075
 20
-1423.0541928636947
 30
0.0
 41
1.0
 10
933.09293169702892
 20
-1423.0540268310515
 30
0.0
 41
1.0
 10
933.0927169015672
 20
-1423.0538607984083
 30
0.0
 41
1.0
 10
933.0473903911552
 20
-1423.0188243024345
 30
0.0
 41
0.9982450060835223
 10
932.99823941208342
 20
-1422.989392519401
 30
0.0
 41
1.0
 10
932.9490884330113
 20
-1422.9599607363671
 30
0.0
 41
0.9983922639634165
 10
932.89692212684656
 20
-1422.9362811017131
 30
0.0
 41
1.0
 10
932.89669524952228
 20
-1422.9361781162318
 30
0.0
 41
1.0
 10
932.89646837219789
 20
-1422.9360751307504
 30
0.0
 41
1.0
 10
932.84384831138402
 20
-1422.9121895251335
 30
0.0
 41
0.9986517147149921
 10
932.78903533851656
 20
-1422.8938884060119
 30
0.0
 41
1.0
 10
932.78835741708849
 20
-1422.8936620595805
 30
0.0
 41
1.0
 10
932.78767949566043
 20
-1422.8934357131488
 30
0.0
 41
1.0
 10
932.73151067993581
 20
-1422.8746819011637
 30
0.0
 41
0.9989435598956021
 10
932.67385729278431
 20
-1422.8611641989294
 30
0.0
 41
1.0
 10
932.67277717320314
 20
-1422.8609109486765
 30
0.0
 41
1.0
 10
932.67169705362198
 20
-1422.8606576984237
 30
0.0
 41
1.0
 10
932.61188342730622
 20
-1422.8466334956829
 30
0.0
 41
0.9992249241239929
 10
932.5511519184081
 20
-1422.8373581529677
 30
0.0
 41
1.0
 10
932.54973823011801
 20
-1422.83714224456
 30
0.0
 41
1.0
 10
932.54832454182781
 20
-1422.8369263361524
 30
0.0
 41
1.0
 10
932.48476565634883
 20
-1422.8272191766214
 30
0.0
 41
0.9994396597833073
 10
932.42069971981323
 20
-1422.8217862542758
 30
0.0
 41
1.0
 10
932.40155905233451
 20
-1422.8201630865569
 30
0.0
 41
1.0
 10
932.38241838485578
 20
-1422.8185399188383
 30
0.0
 41
1.0
 10
932.28007111336399
 20
-1422.8098606610554
 30
0.0
 41
0.998769340312187
 10
932.17736748977757
 20
-1422.8113637245081
 30
0.0
 41
1.0
 10
932.16711315555028
 20
-1422.8115137962823
 30
0.0
 41
1.0
 10
932.156858821323
 20
-1422.8116638680565
 30
0.0
 41
1.0
 10
932.04730305514352
 20
-1422.8132672123438
 30
0.0
 41
0.9989753644966487
 10
931.93834105512622
 20
-1422.8247702192689
 30
0.0
 41
1.0
 10
931.82937905510971
 20
-1422.8362732261942
 30
0.0
 41
0.9983190067306301
 10
931.72248024414489
 20
-1422.8603082179809
 30
0.0
 41
1.0
 10
931.71357929253804
 20
-1422.8623094965437
 30
0.0
 41
1.0
 10
931.70467834093131
 20
-1422.8643107751063
 30
0.0
 41
1.0
 10
931.57997762675234
 20
-1422.8923483240185
 30
0.0
 41
0.9985539388302979
 10
931.45900787307369
 20
-1422.9336120000644
 30
0.0
 41
1.0
 10
931.45666244211407
 20
-1422.93441204388
 30
0.0
 41
1.0
 10
931.45431701115433
 20
-1422.9352120876956
 30
0.0
 41
1.0
 10
931.32865639555484
 20
-1422.9780758513734
 30
0.0
 41
0.998846874649353
 10
931.20768605325327
 20
-1423.0327939364365
 30
0.0
 41
1.0
 10
931.20450323126579
 20
-1423.0342336109959
 30
0.0
 41
1.0
 10
931.2013204092782
 20
-1423.0356732855553
 30
0.0
 41
1.0
 10
931.07398442300246
 20
-1423.0932707197367
 30
0.0
 41
0.9991322885919718
 10
930.95188383894595
 20
-1423.1612660519179
 30
0.0
 41
1.0
 10
930.93428182790365
 20
-1423.1710682539069
 30
0.0
 41
1.0
 10
930.91667981686135
 20
-1423.180870455896
 30
0.0
 41
1.0
 10
930.8145031358016
 20
-1423.2377705716781
 30
0.0
 41
0.9993860037850142
 10
930.71656213172525
 20
-1423.3016865872683
 30
0.0
 41
1.0
 10
930.71094381886724
 20
-1423.3053530819668
 30
0.0
 41
1.0
 10
930.70532550600933
 20
-1423.3090195766654
 30
0.0
 41
1.0
 10
930.61862112764618
 20
-1423.3656026028605
 30
0.0
 41
0.9998821494953258
 10
930.53369475183899
 20
-1423.4248208329336
 30
0.0
 41
1.0
 10
930.44876837602101
 20
-1423.4840390630138
 30
0.0
 41
0.9997976482743813
 10
930.36629274560948
 20
-1423.5466254710618
 30
0.0
 41
1.0
 10
930.35165648081102
 20
-1423.5577321608366
 30
0.0
 41
1.0
 10
930.33702021601266
 20
-1423.5688388506117
 30
0.0
 41
1.0
 10
930.22527205600488
 20
-1423.6536386382088
 30
0.0
 41
0.9998091630800355
 10
930.11692177798579
 20
-1423.7427389889028
 30
0.0
 41
1.0
 10
930.10391602550135
 20
-1423.7534340893549
 30
0.0
 41
1.0
 10
930.0909102730169
 20
-1423.7641291898067
 30
0.0
 41
1.0
 10
929.9565484900354
 20
-1423.8746197413996
 30
0.0
 41
0.9995035112317494
 10
929.82941261227268
 20
-1423.9933535584137
 30
0.0
 41
1.0
 10
929.81976530188285
 20
-1424.0023633045739
 30
0.0
 41
1.0
 10
929.81011799149314
 20
-1424.0113730507342
 30
0.0
 41
1.0
 10
929.68669492872903
 20
-1424.1266394224888
 30
0.0
 41
0.9994630424299086
 10
929.57108652294744
 20
-1424.2497421657217
 30
0.0
 41
1.0
 10
929.56740368417672
 20
-1424.253663745234
 30
0.0
 41
1.0
 10
929.56372084540601
 20
-1424.2575853247463
 30
0.0
 41
1.0
 10
929.45547811716449
 20
-1424.372844908956
 30
0.0
 41
0.9995160693750005
 10
929.35461208763161
 20
-1424.4946123268296
 30
0.0
 41
1.0
 10
929.35267836755179
 20
-1424.4969467510368
 30
0.0
 41
1.0
 10
929.35074464747186
 20
-1424.4992811752438
 30
0.0
 41
1.0
 10
929.25374605810111
 20
-1424.6163797447005
 30
0.0
 41
0.9996561470514339
 10
929.16301983943379
 20
-1424.7384025071512
 30
0.0
 41
1.0
 10
929.15686217353493
 20
-1424.7466842961894
 30
0.0
 41
1.0
 10
929.15070450763608
 20
-1424.7549660852276
 30
0.0
 41
1.0
 10
929.0722936207718
 20
-1424.860425269595
 30
0.0
 41
0.9998349055172241
 10
928.99776633883562
 20
-1424.9686638532639
 30
0.0
 41
1.0
 10
928.9232390569066
 20
-1425.0769024369224
 30
0.0
 41
0.9999728109560131
 10
928.85031616100844
 20
-1425.1862283624596
 30
0.0
 41
1.0
 10
928.84900094558907
 20
-1425.1882001319736
 30
0.0
 41
1.0
 10
928.8476857301697
 20
-1425.1901719014875
 30
0.0
 41
1.0
 10
928.77213240344668
 20
-1425.3034413660316
 30
0.0
 41
0.9999972147313849
 10
928.69711459306245
 20
-1425.4170662088829
 30
0.0
 41
1.0
 10
928.69214305043988
 20
-1425.4245962973555
 30
0.0
 41
1.0
 10
928.68717150781731
 20
-1425.4321263858283
 30
0.0
 41
1.0
 10
928.60221061219511
 20
-1425.5608114056138
 30
0.0
 41
0.9999371979004905
 10
928.52015526279354
 20
-1425.6913683193873
 30
0.0
 41
1.0
 10
928.51664637843191
 20
-1425.696951247452
 30
0.0
 41
1.0
 10
928.51313749407029
 20
-1425.7025341755168
 30
0.0
 41
1.0
 10
928.4240643759415
 20
-1425.8442569454257
 30
0.0
 41
0.9998272025610607
 10
928.34032098506168
 20
-1425.9891928221643
 30
0.0
 41
1.0
 10
928.32510581303666
 20
-1426.0155259366229
 30
0.0
 41
1.0
 10
928.30989064101163
 20
-1426.0418590510812
 30
0.0
 41
1.0
 10
928.19571690608245
 20
-1426.2394611567352
 30
0.0
 41
0.9995217214838277
 10
928.09397721652772
 20
-1426.4437434845952
 30
0.0
 41
1.0
 10
928.08633365389096
 20
-1426.4590909343015
 30
0.0
 41
1.0
 10
928.0786900912542
 20
-1426.474438384008
 30
0.0
 41
1.0
 10
927.9917847986668
 20
-1426.6489348420848
 30
0.0
 41
0.9998269762607409
 10
927.91143033239393
 20
-1426.8265431288098
 30
0.0
 41
1.0
 10
927.83107586612437
 20
-1427.004151415528
 30
0.0
 41
0.9998944747388352
 10
927.75591507156184
 20
-1427.1840191411516
 30
0.0
 41
1.0
 10
927.75096140196933
 20
-1427.1958737960722
 30
0.0
 41
1.0
 10
927.74600773237682
 20
-1427.2077284509928
 30
0.0
 41
1.0
 10
927.66536067182108
 20
-1427.4007253910186
 30
0.0
 41
0.9999506734410999
 10
927.58856314291825
 20
-1427.5952861958726
 30
0.0
 41
1.0
 10
927.57396317764665
 20
-1427.6322741176805
 30
0.0
 41
1.0
 10
927.55936321237493
 20
-1427.6692620394886
 30
0.0
 41
1.0
 10
927.51176561401599
 20
-1427.7898470007258
 30
0.0
 41
0.9999912393921615
 10
927.4651791699921
 20
-1427.9108262034247
 30
0.0
 41
1.0
 10
927.41859272596798
 20
-1428.0318054061245
 30
0.0
 41
0.9999927113962165
 10
927.37293143157308
 20
-1428.1531368136284
 30
0.0
 41
1.0
 10
927.35896300017657
 20
-1428.1902537956244
 30
0.0
 41
1.0
 10
927.34499456877995
 20
-1428.2273707776203
 30
0.0
 41
1.0
 10
927.27139641158988
 20
-1428.4229361491209
 30
0.0
 41
0.9999487550948711
 10
927.20177278661856
 20
-1428.6199515143032
 30
0.0
 41
1.0
 10
927.17817917667946
 20
-1428.6867148246019
 30
0.0
 41
1.0
 10
927.15458556674037
 20
-1428.7534781349009
 30
0.0
 41
1.0
 10
927.05989993236949
 20
-1429.0214119697264
 30
0.0
 41
0.9999808436942735
 10
926.96853834373292
 20
-1429.2904974009775
 30
0.0
 41
1.0
 10
926.87717675508657
 20
-1429.5595828322566
 30
0.0
 41
0.9999873932915088
 10
926.78852204636405
 20
-1429.8295721872837
 30
0.0
 41
1.0
 10
926.76842968949927
 20
-1429.8907615200224
 30
0.0
 41
1.0
 10
926.74833733263461
 20
-1429.9519508527612
 30
0.0
 41
1.0
 10
926.61949791017537
 20
-1430.3443188732881
 30
0.0
 41
0.999979488303224
 10
926.49569512521282
 20
-1430.73830507958
 30
0.0
 41
1.0
 10
926.48454286576907
 20
-1430.773795689837
 30
0.0
 41
1.0
 10
926.47339060632521
 20
-1430.8092863000941
 30
0.0
 41
1.0
 10
926.33083244244176
 20
-1431.2629590521365
 30
0.0
 41
0.9999982761782564
 10
926.18996000243214
 20
-1431.7171580742415
 30
0.0
 41
1.0
 10
924.60181966985954
 20
-1436.7659278052447
 30
0.0
 41
1.0
 10
923.01367933728693
 20
-1441.8146975362481
 30
0.0
 41
1.0
 10
922.06492872581055
 20
-1441.8146975362481
 30
0.0
 41
1.0
 10
921.11617811433416
 20
-1441.8146975362481
 30
0.0
 41
1.0
 10
924.3544626004873
 20
-1431.487375336302
 30
0.0
 41
1.0
 10
927.59274708664043
 20
-1421.1600531363558
 30
0.0
 41
1.0
  0
LWPOLYLINE
  5
67
100
AcDbEntity
  8
0
370
              15
390
0
  6
Continuous
 62
               7
100
AcDbPolyline
 90
      232
 70
             128
 10
901.88920131281338
 20
-1422.244395967871
 42
0.000437080070069
 10
901.83632413869952
 20
-1422.3130626071816
 10
901.79703990761391
 20
-1422.3641697200237
 42
0.0030481992174555
 10
901.66670119047615
 20
-1422.5358914123929
 10
901.62818951874431
 20
-1422.5872781961561
 42
0.0042058245752995
 10
901.42420446808353
 20
-1422.8642839412173
 10
901.37179934557378
 20
-1422.9367167880105
 42
0.0120948898742073
 10
901.07575542881648
 20
-1423.3674663925535
 10
900.97956292969184
 20
-1423.5149471277823
 42
0.0141601263947244
 10
900.67591888276843
 20
-1424.0106164645199
 10
900.63638161534084
 20
-1424.0794604319547
 42
0.0071131081303174
 10
900.43110929210411
 20
-1424.4489632307898
 42
0.0068458791001521
 10
900.23622976525837
 20
-1424.824054794271
 10
900.22941790280333
 20
-1424.8376165079894
 42
0.0064120880289526
 10
900.03127565276066
 20
-1425.2450409829048
 10
900.02374096724202
 20
-1425.2610528396297
 42
0.0058857236449368
 10
899.82098557537063
 20
-1425.7054289506639
 10
899.81281064907637
 20
-1425.7239191042986
 42
0.0053189741894513
 10
899.6041063364105
 20
-1426.2098825782127
 10
899.59535853072748
 20
-1426.2308644564127
 42
0.0047503650420333
 10
899.37938480457547
 20
-1426.7630638896258
 10
899.3701165562286
 20
-1426.7865402657303
 42
0.0042071762172743
 10
899.14556917250127
 20
-1427.3696338597988
 10
899.13581977015212
 20
-1427.3956000346698
 42
0.0036680086486888
 10
898.90136512683875
 20
-1428.0342354192046
 10
898.89115734699226
 20
-1428.0626839535453
 42
0.0032573142627402
 10
898.64552506102655
 20
-1428.7615366132959
 10
898.57687454018424
 20
-1428.9609996973536
 42
0.0026133366647625
 10
898.22842934142693
 20
-1429.9908629810236
 10
898.16517255394126
 20
-1430.1810938163715
 42
0.0020592950741384
 10
897.9513094849591
 20
-1430.8331974690298
 10
897.94825769379236
 20
-1430.8426339574505
 42
0.0025609928534713
 10
897.74643719231017
 20
-1431.4777791798053
 10
897.74384582516825
 20
-1431.4860815207944
 42
0.0031362356243327
 10
897.55435503950662
 20
-1432.1068443769254
 10
897.55222399658885
 20
-1432.1139856831041
 42
0.0037229918027495
 10
897.3754236096529
 20
-1432.7229709851108
 10
897.37374502045077
 20
-1432.7289178752699
 42
0.0043077623705478
 10
897.21000421838141
 20
-1433.328736607054
 42
0.0047654161822554
 10
897.05717549586723
 20
-1433.9314226959491
 10
897.02271088702628
 20
-1434.0729844731063
 42
0.0112969368446689
 10
896.82684652888247
 20
-1434.9646766337314
 10
896.79884013978597
 20
-1435.1075046798283
 42
0.0130056762572909
 10
896.59800289613941
 20
-1436.2944457514732
 10
896.57746314599171
 20
-1436.438523864955
 42
0.0138721532145707
 10
896.47376014145448
 20
-1437.3453533507759
 10
896.45446465354621
 20
-1437.5688510727059
 42
0.0071254697007726
 10
896.42111800762393
 20
-1438.0320380815483
 10
896.41615703345929
 20
-1438.118042076132
 42
0.0028881799202429
 10
896.4010187401708
 20
-1438.4097837859508
 42
0.0060297297140809
 10
896.39108654039524
 20
-1438.7017327220726
 10
896.3900242587282
 20
-1438.7501250939997
 42
0.0229523164157309
 10
896.39775528651398
 20
-1439.0728799402823
 10
896.40198106003447
 20
-1439.1332834742996
 42
0.0123673300665754
 10
896.42105970655268
 20
-1439.3344041994733
 42
0.0128577674470478
 10
896.45025509695904
 20
-1439.5343020494004
 10
896.45738097034598
 20
-1439.575630863997
 42
0.0285717853762996
 10
896.52187497204147
 20
-1439.8537470153096
 10
896.53554349570754
 20
-1439.9004017847858
 42
0.0316283099156285
 10
896.65135407562229
 20
-1440.2194162866135
 10
896.65440276737831
 20
-1440.2264026589401
 42
0.0338984824239932
 10
896.80383447834492
 20
-1440.5139686231282
 10
896.8061432077144
 20
-1440.5177596524036
 42
0.0350228718354866
 10
896.98850349838835
 20
-1440.774811637081
 10
896.98938875016358
 20
-1440.7758907148454
 42
0.0347476747529328
 10
897.20381343740348
 20
-1441.0030757620652
 42
0.0331337701909579
 10
897.44705676314982
 20
-1441.1992044241424
 10
897.44815686166601
 20
-1441.1999771273149
 42
0.0305233319082689
 10
897.7167015572403
 20
-1441.3651052974069
 10
897.71993160174065
 20
-1441.3668293092692
 42
0.0273744481154459
 10
898.01248531331692
 20
-1441.5029674531602
 10
898.01758984845253
 20
-1441.5050110376292
 42
0.0240964406195347
 10
898.33306692409678
 20
-1441.6139947639101
 10
898.33965025330815
 20
-1441.6159195035857
 42
0.020963617981188
 10
898.67705040596343
 20
-1441.6993876515182
 10
898.68468286640939
 20
-1441.7009395645191
 42
0.0181388704693276
 10
899.04300525840847
 20
-1441.760355657733
 10
899.05128610678605
 20
-1441.7614218415501
 42
0.0156086547585472
 10
899.42947347096992
 20
-1441.7981580281264
 10
899.4726687233084
 20
-1441.8009965306062
 42
0.0137148329023511
 10
899.80034186860087
 20
-1441.8135167858572
 10
899.84627805853495
 20
-1441.8140112189724
 42
0.0051057823883729
 10
900.08242364511909
 20
-1441.8141414733814
 42
0.005225669331879
 10
900.31852092890961
 20
-1441.8093926489169
 10
900.38874771264716
 20
-1441.8072456829032
 42
0.0161507179048926
 10
900.76448479074759
 20
-1441.7835953125766
 10
900.78449775112142
 20
-1441.781685117289
 42
0.0101216737834893
 10
901.19852497261672
 20
-1441.7336921869228
 10
901.23257826203883
 20
-1441.7290444901139
 42
0.0245291776397157
 10
901.70936791758993
 20
-1441.6399694120378
 10
901.79419123311413
 20
-1441.6197734916918
 42
0.0143509212555649
 10
902.15082233705368
 20
-1441.5239688579131
 42
0.015655785703711
 10
902.50103840178213
 20
-1441.4069576420939
 10
902.50853961627558
 20
-1441.4041874803402
 42
0.0170137333629047
 10
902.86513561195829
 20
-1441.2585298654683
 10
902.87223953436444
 20
-1441.2553420299053
 42
0.0183105364411794
 10
903.23158920252934
 20
-1441.0780069880816
 10
903.23853596716947
 20
-1441.0742565532087
 42
0.0194899958153935
 10
903.59701670815309
 20
-1440.8622775713181
 10
903.60403058749012
 20
-1440.8577522290229
 42
0.0204869852948765
 10
903.95804488958049
 20
-1440.6082322139398
 10
903.96531049817099
 20
-1440.6026521485887
 42
0.0212516938559868
 10
904.31130042928203
 20
-1440.3127481516915
 10
904.3578171233579
 20
-1440.2702808415975
 42
0.0215248918252363
 10
904.61784329224236
 20
-1440.0115165626062
 10
904.66287302662954
 20
-1439.9626724412492
 42
0.011457855496378
 10
904.81766518030031
 20
-1439.7868495077978
 10
904.82885971629582
 20
-1439.7735307442417
 42
0.0061531305144419
 10
904.95533436228129
 20
-1439.6192412109467
 42
0.0006325587117996
 10
905.07971284635926
 20
-1439.4632378353638
 10
905.10275298148463
 20
-1439.4342643146117
 42
0.0041897761560053
 10
905.2712083854708
 20
-1439.2187449385324
 10
905.32967050534955
 20
-1439.1426435915646
 42
0.0092993880039081
 10
905.60628243256986
 20
-1438.7683648276854
 10
905.68867692577305
 20
-1438.6524278241109
 42
0.0159321727086296
 10
906.03528340841444
 20
-1438.1302536033561
 10
906.07963954380705
 20
-1438.0585740391002
 42
0.0085547317026275
 10
906.31415130912933
 20
-1437.6646990898814
 42
0.0084601156889181
 10
906.53512748657215
 20
-1437.263072240848
 10
906.54324296040181
 20
-1437.2477125585763
 42
0.0081429654286365
 10
906.76649223084087
 20
-1436.8079910460322
 10
906.77535239502333
 20
-1436.789812204016
 42
0.0076574581325025
 10
907.00175990558682
 20
-1436.3066293287704
 10
907.01123954631373
 20
-1436.2855648504601
 42
0.0070682724200482
 10
907.24168445412249
 20
-1435.7535275456739
 10
907.25167473810222
 20
-1435.729538356667
 42
0.0064559514448328
 10
907.48700794628223
 20
-1435.1432260901524
 10
907.49741730444885
 20
-1435.1162911647061
 42
0.0058311413907327
 10
907.73846404121434
 20
-1434.4702590703143
 10
907.74921911859906
 20
-1434.4403747291617
 42
0.0052312425818938
 10
907.9968003966419
 20
-1433.7291723153216
 10
908.0078442330198
 20
-1433.6963456032577
 42
0.004668054479485
 10
908.26277266074851
 20
-1432.914519287521
 10
908.30476481080564
 20
-1432.7815360501861
 42
0.0041666856447389
 10
908.50805082319278
 20
-1432.1185672752051
 10
908.54571326385178
 20
-1431.9919861675678
 42
0.0015170975151603
 10
908.66689984226957
 20
-1431.5801178160577
 42
-0.0004887993109646
 10
908.78723961544881
 20
-1431.1679994038245
 10
908.86371687288784
 20
-1430.9070420180747
 42
0.0002583378928656
 10
909.13693144303329
 20
-1429.9729853146177
 10
909.21870429250089
 20
-1429.6928860554078
 42
0.0006636169671838
 10
909.4125720525401
 20
-1429.0255331317255
 10
909.41766870685717
 20
-1429.0079015489489
 42
0.0010589131320969
 10
909.59911740780376
 20
-1428.3751702057966
 10
909.60409947829601
 20
-1428.3576572987351
 42
0.0015655524465251
 10
909.77236968546697
 20
-1427.7590406195757
 10
909.77719988587864
 20
-1427.741648460652
 42
0.00216404404761
 10
909.93148985786797
 20
-1427.1766214426216
 10
909.93612407730245
 20
-1427.1593567126108
 42
0.0028763871856465
 10
910.07563979535087
 20
-1426.6273887617808
 10
910.0800256595121
 20
-1426.6102647836497
 42
0.0037310511944301
 10
910.20398235135497
 20
-1426.1108171896026
 10
910.2080575716426
 20
-1426.0938569183627
 42
0.0047652197773153
 10
910.31568147215251
 20
-1425.6263791500519
 10
910.31937207147496
 20
-1425.6096195949058
 42
0.0060276699305718
 10
910.40990217062949
 20
-1425.1735437997577
 10
910.4131208609208
 20
-1425.1570425854375
 42
0.0075824337757228
 10
910.48581017033405
 20
-1424.7517754210223
 10
910.48845554771628
 20
-1424.7356204735599
 42
0.0095130624609252
 10
910.54257078334558
 20
-1424.3605311205001
 10
910.54955700722724
 20
-1424.3045975623918
 42
0.0121054653218357
 10
910.5761483378061
 20
-1424.0397017339096
 10
910.57701482756681
 20
-1424.0282982909653
 42
0.0069050827386801
 10
910.59210364560329
 20
-1423.7853570641364
 10
910.59323894527165
 20
-1423.7618308070944
 42
0.0169063976694033
 10
910.59606622425213
 20
-1423.5656380797909
 10
910.59489557272116
 20
-1423.5053023184537
 42
0.0052007732898024
 10
910.59264212412791
 20
-1423.4297089282895
 42
0.0054038123300192
 10
910.57267861228843
 20
-1423.3096906322762
 10
910.56759275641855
 20
-1423.2810321456984
 42
0.0112050460468562
 10
910.5322083943604
 20
-1423.1047057073608
 10
910.51438343231939
 20
-1423.0251641206387
 42
0.0240764468012232
 10
910.42348606617247
 20
-1422.6949270851351
 10
910.40492730335973
 20
-1422.6383069201431
 42
0.0256812331835248
 10
910.26156438317025
 20
-1422.2665827138862
 10
910.25615495734849
 20
-1422.2544513788957
 42
0.0268360501217753
 10
910.0867277164989
 20
-1421.9234582448755
 10
910.08119130886371
 20
-1421.913938574563
 42
0.0274670231729476
 10
909.88899033245059
 20
-1421.6216511996458
 10
909.88360903248793
 20
-1421.6143720521043
 42
0.0275035967098281
 10
909.67203615292613
 20
-1421.3588561618005
 10
909.66696665196014
 20
-1421.3533770741708
 42
0.0269557673527674
 10
909.43956310852002
 20
-1421.1327347882079
 10
909.43482005073702
 20
-1421.1286048337467
 42
0.025912480220884
 10
909.19526521930663
 20
-1420.9409143065945
 10
909.19073437412465
 20
-1420.9377288042642
 42
0.0245162153005459
 10
908.94281802102989
 20
-1420.780995795154
 10
908.93829147470501
 20
-1420.7784355979527
 42
0.0229282588841517
 10
908.68587191787833
 20
-1420.6505674054542
 10
908.68109142404148
 20
-1420.6484151056923
 42
0.0212984135701235
 10
908.42805347157991
 20
-1420.54721618845
 10
908.42274918661087
 20
-1420.5453526256902
 42
0.0197555462347904
 10
908.17297084888742
 20
-1420.4685372077251
 42
0.0183511896787207
 10
907.91804212342481
 20
-1420.4109543007596
 10
907.83167692670384
 20
-1420.394751510375
 42
0.0338057877143063
 10
907.54616957744099
 20
-1420.3609431052341
 10
907.45516417240322
 20
-1420.3563634499728
 42
0.0091990524483073
 10
907.34931706376506
 20
-1420.3529875940508
 42
0.0028333980790364
 10
907.24340314776691
 20
-1420.3521594865342
 10
907.24248769472274
 20
-1420.3521575167101
 42
-0.0023619827800104
 10
907.13474167959055
 20
-1420.3514166756311
 10
907.09833650944097
 20
-1420.3509943691683
 42
0.000882459847311
 10
906.917780519546
 20
-1420.3492185909297
 10
906.87391908718519
 20
-1420.3488646294045
 42
0.0038132665768292
 10
906.60563619130323
 20
-1420.3487456933381
 10
906.58910253651288
 20
-1420.3488644594815
 42
0.0060665569338451
 10
906.28782204491233
 20
-1420.3546847589027
 10
906.27357171289623
 20
-1420.3551330668699
 42
0.008035695333623
 10
905.94411299656178
 20
-1420.3708007889365
 10
905.93204298146975
 20
-1420.3715693718773
 42
0.0098996399107824
 10
905.57927989681832
 20
-1420.4010546010757
 10
905.56923418744418
 20
-1420.4020948972736
 42
0.0117740981367462
 10
905.19807732910249
 20
-1420.4493871448026
 10
905.18985463261288
 20
-1420.4506322613743
 42
0.0137435215139653
 10
904.80526581312063
 20
-1420.5197292349376
 10
904.79860877400438
 20
-1420.5211151311696
 42
0.0158359869388151
 10
904.4056116802019
 20
-1420.6160072196503
 10
904.40019849333476
 20
-1420.6174971605208
 42
0.0180554124031297
 10
904.00388344871874
 20
-1420.7421351767609
 10
903.99932666063899
 20
-1420.7437512130259
 42
0.0203657431285771
 10
903.60484914282449
 20
-1420.9020115545429
 10
903.6007056038203
 20
-1420.9038731759833
 42
0.0226819684656093
 10
903.21326954761605
 20
-1421.0995157546549
 10
903.20906975659852
 20
-1421.1018813465744
 42
0.024863498460466
 10
902.83388781541862
 20
-1421.3385079925204
 10
902.78569288663687
 20
-1421.3723650343445
 42
0.0267044190882149
 10
902.51140018971682
 20
-1421.5878054102154
 42
0.0139303002199365
 10
902.25523302377781
 20
-1421.8250442511276
 10
902.2503796380571
 20
-1421.8297969139874
 42
0.0283460963445657
 10
902.00630704383002
 20
-1422.0975275744322
 10
901.96663853867335
 20
-1422.1463291519055
 42
0.007069536481906
 10
901.88920131281338
 20
-1422.244395967871
 42
0.007069536481906
  0
LWPOLYLINE
  5
68
100
AcDbEntity
  8
0
370
              15
390
0
  6
Continuous
 62
               7
100
AcDbPolyline
 90
      226
 70
             128
 10
898.36038087556699
 20
-1437.965984774055
 42
-0.0026277636653269
 10
898.36030299176684
 20
-1437.8992128483299
 10
898.36052034999898
 20
-1437.8460576308689
 42
-0.0088680296724619
 10
898.36429696629227
 20
-1437.673041848461
 10
898.36664332540454
 20
-1437.6137618230123
 42
-0.0077381705616285
 10
898.38268943616754
 20
-1437.322501327217
 10
898.3835573473408
 20
-1437.310213093529
 42
-0.0068872530530423
 10
898.41018942708808
 20
-1436.9949913414687
 10
898.41139365127503
 20
-1436.982750362441
 42
-0.0062130021486292
 10
898.44898736810137
 20
-1436.643880671214
 10
898.45049127163793
 20
-1436.6317067992861
 42
-0.0056726929670476
 10
898.49941313113959
 20
-1436.2695115771767
 10
898.50118657678456
 20
-1436.2574177769275
 42
-0.0052341884491812
 10
898.56179716304609
 20
-1435.8722245214003
 10
898.56381515182125
 20
-1435.860219591417
 42
-0.0049768450167169
 10
898.63655383324885
 20
-1435.452375023978
 10
898.66080284796942
 20
-1435.3238270409784
 42
-0.0089029805625102
 10
898.79788369976575
 20
-1434.6620515935488
 10
898.8306290750827
 20
-1434.5170201630326
 42
-0.0080318257100491
 10
899.06017768942195
 20
-1433.5713105311845
 10
899.07216261587166
 20
-1433.5251798959889
 42
-0.0074265721319029
 10
899.35617415472313
 20
-1432.4951153176028
 10
899.37605369783637
 20
-1432.4269812570251
 42
-0.0069711922701887
 10
899.70335827634483
 20
-1431.3607135166908
 10
899.76331022344971
 20
-1431.1746921583222
 42
-0.0052070422894357
 10
899.99273544870971
 20
-1430.487420081289
 10
900.01001664085447
 20
-1430.4373928007515
 42
-0.0009167004449831
 10
900.21310852817135
 20
-1429.8529369525177
 42
-0.0025162726943297
 10
900.42020615843558
 20
-1429.2698956883505
 10
900.45743077024179
 20
-1429.1667461424429
 42
-0.0028212681457066
 10
900.70560668920245
 20
-1428.4910155102789
 10
900.71543745195845
 20
-1428.464708065588
 42
-0.0031964916822066
 10
900.95172970961551
 20
-1427.844503303475
 10
900.96136416361219
 20
-1427.8196933133374
 42
-0.0036281836452061
 10
901.1864701247157
 20
-1427.2522526324387
 10
901.19590853486659
 20
-1427.228955200952
 42
-0.0041269166832026
 10
901.41052623153234
 20
-1426.7115143049575
 10
901.44315918795996
 20
-1426.6346358585806
 42
-0.0047472213056184
 10
901.60020399350674
 20
-1426.274214390713
 10
901.60709807471517
 20
-1426.2587937933806
 42
-0.0025651659996478
 10
901.75545610856511
 20
-1425.9314657376326
 42
-0.0057144634993518
 10
901.90920580233887
 20
-1425.6066560642651
 10
901.93723650773427
 20
-1425.5491476818827
 42
-0.0065388068375527
 10
902.12070353547733
 20
-1425.1849151852109
 10
902.12916199125175
 20
-1425.1686556058492
 42
-0.0074510843020894
 10
902.30534423713368
 20
-1424.8419673247186
 10
902.31352390766574
 20
-1424.8273265474479
 42
-0.0084648979854992
 10
902.48315776076481
 20
-1424.5354175364887
 10
902.49101388725046
 20
-1424.5224105448417
 42
-0.0095638542801319
 10
902.6548493348472
 20
-1424.2625216728593
 10
902.66232427851901
 20
-1424.2511523114038
 42
-0.0107191626806779
 10
902.8211258589065
 20
-1424.0205410768599
 10
902.82814259263569
 20
-1424.0108049844978
 42
-0.0118458573904994
 10
902.98269069115008
 20
-1423.8067327891845
 42
-0.0129184518188345
 10
903.147143314755
 20
-1423.6105722730101
 10
903.17728808711558
 20
-1423.5764461941135
 42
-0.0217742579638823
 10
903.35390040945003
 20
-1423.3932394238645
 10
903.36464595391362
 20
-1423.3830225906586
 42
-0.0097266568646416
 10
903.53070357276613
 20
-1423.2311750162241
 42
-0.018772090572517
 10
903.70505114865068
 20
-1423.0891061628388
 10
903.73575713933292
 20
-1423.0659470804364
 42
-0.0179428207515787
 10
903.96817785932603
 20
-1422.9033949033271
 10
903.97183018624014
 20
-1422.9010309684404
 42
-0.0170047877696716
 10
904.20759382377219
 20
-1422.7595704542878
 10
904.21137681251878
 20
-1422.7574721492515
 42
-0.0160190788363337
 10
904.44828536015405
 20
-1422.6358208472634
 42
-0.0151102861485567
 10
904.69231714260297
 20
-1422.5291380712079
 10
904.74470364481249
 20
-1422.5080979383142
 42
-0.0271945441885508
 10
905.10336620387147
 20
-1422.386233127608
 10
905.17243100435496
 20
-1422.366883586343
 42
-0.0237596594024635
 10
905.58822785138125
 20
-1422.2714328743605
 10
905.65629070510988
 20
-1422.2591781862341
 42
-0.0213715440557764
 10
905.94216563655698
 20
-1422.2202311547237
 10
906.00231280276967
 20
-1422.2146414400233
 42
-0.0101465655827229
 10
906.16980533476919
 20
-1422.2024978967588
 10
906.17914572096458
 20
-1422.2020109817618
 42
-0.0100375910887773
 10
906.32829982152998
 20
-1422.1972351638362
 10
906.33855909120689
 20
-1422.1971127248219
 42
-0.0103625633384248
 10
906.46726708586516
 20
-1422.1982441583484
 10
906.48953273713687
 20
-1422.1989015168135
 42
-0.0115689250238015
 10
906.57358347465993
 20
-1422.2033310230586
 42
-0.0072438037444828
 10
906.65742175409457
 20
-1422.2109202228073
 10
906.67422226357189
 20
-1422.212686765532
 42
-0.0217917313134314
 10
906.79079202688592
 20
-1422.2301066582531
 10
906.85639211745604
 20
-1422.2428532666681
 42
-0.0332943556751983
 10
907.06078428248065
 20
-1422.2968935579747
 10
907.09095685102977
 20
-1422.3070616350929
 42
-0.0184824084804731
 10
907.2294619074961
 20
-1422.3595126504797
 42
-0.0198002050696422
 10
907.36353624799699
 20
-1422.4223967106798
 10
907.36542288537237
 20
-1422.4233744975588
 42
-0.0212242342976923
 10
907.49756182777367
 20
-1422.4991372363513
 10
907.4993771233178
 20
-1422.5002830385602
 42
-0.0226090605783906
 10
907.62788102453931
 20
-1422.5897626821245
 10
907.62972546627691
 20
-1422.5911749351121
 42
-0.0238457052221107
 10
907.75290754757032
 20
-1422.6951708309748
 10
907.75486027612885
 20
-1422.6969857087406
 42
-0.0248160564158774
 10
907.87106178342799
 20
-1422.8162603099477
 10
907.87316541683163
 20
-1422.8186456436538
 42
-0.0254109591448849
 10
907.98077063469714
 20
-1422.9539340296174
 10
907.98301865661165
 20
-1422.9570755780187
 42
-0.0255528488287874
 10
908.08046533540801
 20
-1423.109102632252
 10
908.08279643532489
 20
-1423.1131842438608
 42
-0.0252146793223864
 10
908.16857746133451
 20
-1423.2826864898584
 10
908.1708797004917
 20
-1423.2878685717706
 42
-0.0244265635939708
 10
908.24353439425352
 20
-1423.475615143818
 10
908.25278079572172
 20
-1423.5034805621556
 42
-0.0231319612898697
 10
908.29870357471361
 20
-1423.6667816089566
 42
-0.0112130424356432
 10
908.33333959725155
 20
-1423.8329852091433
 10
908.33454212236427
 20
-1423.8394817960325
 42
-0.0210527881237815
 10
908.36022859773493
 20
-1424.0205374414722
 10
908.36373919255698
 20
-1424.0559429900211
 42
-0.0190029892429015
 10
908.37918066610166
 20
-1424.3094788362951
 10
908.37999064254564
 20
-1424.3449544506625
 42
-0.0137974553662983
 10
908.37844178971011
 20
-1424.6699858573952
 10
908.37759633475468
 20
-1424.6961046019833
 42
-0.0081336634215243
 10
908.36273699953199
 20
-1425.0014520695879
 42
-0.0073526923570035
 10
908.33842846615755
 20
-1425.3062003138714
 10
908.33716704237463
 20
-1425.3195369885391
 42
-0.0066886138690303
 10
908.30143145632758
 20
-1425.6501230320407
 10
908.29977436685817
 20
-1425.6637446510276
 42
-0.0061359187357066
 10
908.2519237648097
 20
-1426.0205086311114
 10
908.24988626373442
 20
-1426.0344034339569
 42
-0.0056698610067488
 10
908.1892359329679
 20
-1426.4176820027917
 10
908.18683049964432
 20
-1426.4318411220256
 42
-0.0052721077275417
 10
908.11269829884384
 20
-1426.8419684617079
 10
908.10993515000291
 20
-1426.8563850970895
 42
-0.0049289272175771
 10
908.0216410319008
 20
-1427.2936936082224
 10
908.01852853722039
 20
-1427.3083624610279
 42
-0.0047415956712566
 10
907.91529054568946
 20
-1427.7731592184325
 10
907.88052233532835
 20
-1427.9229663138217
 42
-0.0084404470902902
 10
907.69050589175686
 20
-1428.6831903383516
 10
907.68437920377085
 20
-1428.7060544625062
 42
-0.0039635940257117
 10
907.46292551948477
 20
-1429.507043326761
 10
907.44954872430731
 20
-1429.5539749433456
 42
-0.0072475040836696
 10
907.18210183644135
 20
-1430.4431946597447
 10
907.11188950961593
 20
-1430.6649350097107
 42
-0.0051345458826464
 10
906.82513013755795
 20
-1431.5392601975188
 10
906.80360387080043
 20
-1431.6026864646194
 42
-0.0019150016603265
 10
906.54807046392375
 20
-1432.3462355848749
 10
906.54160285951718
 20
-1432.3648230498259
 42
-0.002152436275085
 10
906.29312480846363
 20
-1433.0691488715042
 10
906.28391438776805
 20
-1433.0949024498034
 42
-0.0024331286818531
 10
906.0476591287312
 20
-1433.7455017579241
 10
906.03861117618533
 20
-1433.7700450642658
 42
-0.0027449721787388
 10
905.81399660534532
 20
-1434.3691749432028
 10
905.80510659796755
 20
-1434.3924975330171
 42
-0.0031083229770387
 10
905.59156411134313
 20
-1434.9424215706347
 10
905.58282797965398
 20
-1434.9645112865267
 42
-0.0035311343280223
 10
905.3797867940757
 20
-1435.4674944122225
 10
905.37120145493475
 20
-1435.4883371357164
 42
-0.004024564095205
 10
905.17808965113352
 20
-1435.9466464583252
 10
905.16965353753096
 20
-1435.9662258263961
 42
-0.0046015135851191
 10
904.9858972443667
 20
-1436.3821308560396
 10
904.97761106653309
 20
-1436.4004279955034
 42
-0.0052768638269302
 10
904.8026335475829
 20
-1436.776200879762
 10
904.79450133695923
 20
-1436.7931942182986
 42
-0.0060672675643415
 10
904.62772172419
 20
-1437.1311098414194
 10
904.61975224370724
 20
-1437.1467751004191
 42
-0.0069904648870124
 10
904.46058384970695
 20
-1437.4491109070805
 10
904.45279245009283
 20
-1437.4634214563139
 42
-0.0080637022760872
 10
904.30064058975029
 20
-1437.7324567594608
 10
904.29305155712063
 20
-1437.7453846250589
 42
-0.0093006455664095
 10
904.1473108805875
 20
-1437.9833990235647
 10
904.13996021384526
 20
-1437.9949169927356
 42
-0.0107060778053442
 10
904.00001167040546
 20
-1438.2041873101168
 10
903.9929499021265
 20
-1438.2142728526817
 42
-0.0122723111418956
 10
903.85815618392769
 20
-1438.3970661821718
 10
903.8578299603779
 20
-1438.3974865699759
 42
-0.0141836319624005
 10
903.71424835739958
 20
-1438.572056327811
 10
903.70730060175356
 20
-1438.5800313280688
 42
-0.017595747721524
 10
903.56739443371293
 20
-1438.7296522164804
 42
-0.0080466359669202
 10
903.41993066867803
 20
-1438.871974744636
 10
903.37389612416519
 20
-1438.9149951827228
 42
-0.0269600260394064
 10
903.12061587818221
 20
-1439.1273184412321
 10
903.05404874188537
 20
-1439.1772698558559
 42
-0.01783628397521
 10
902.81410425222953
 20
-1439.3442877821083
 10
902.80685928123171
 20
-1439.3489562943114
 42
-0.0174650732653637
 10
902.57052308378775
 20
-1439.4898172592723
 42
-0.016924013016082
 10
902.32505683792772
 20
-1439.6141095190508
 10
902.27907068237221
 20
-1439.6354714746169
 42
-0.0318883036840024
 10
901.92871982675103
 20
-1439.7718097841275
 10
901.86035429158949
 20
-1439.7935104046019
 42
-0.0284435909901566
 10
901.48430416529652
 20
-1439.8897278400773
 10
901.44914600480115
 20
-1439.8966214359052
 42
-0.024390934101274
 10
901.13570254387901
 20
-1439.9423424669358
 10
901.08542181710368
 20
-1439.9471880138378
 42
-0.0196639292926911
 10
900.86982623958056
 20
-1439.959436299351
 10
900.81800216842635
 20
-1439.9603395600875
 42
-0.0100501510693623
 10
900.70557888675285
 20
-1439.9600391617346
 10
900.67391902535906
 20
-1439.959318089848
 42
-0.0019752031127201
 10
900.62482668872747
 20
-1439.9580059296395
 10
900.62206638549321
 20
-1439.9579212378128
 42
0.006537875199427
 10
900.57848981075051
 20
-1439.9571543465984
 42
-0.0167974694631354
 10
900.53495898782012
 20
-1439.9554944480726
 10
900.53087964855661
 20
-1439.9552014371775
 42
-0.0081283276258569
 10
900.47931985082244
 20
-1439.9506544435401
 10
900.46758027693954
 20
-1439.9494265259611
 42
-0.0126703440190542
 10
900.39286198115087
 20
-1439.9396917348904
 10
900.37007411346929
 20
-1439.9361334789744
 42
-0.0117852088436199
 10
900.25053512763577
 20
-1439.914570483817
 10
900.19515467587394
 20
-1439.9032269435827
 42
-0.0251774592298732
 10
899.96831063686682
 20
-1439.8447289341498
 10
899.92359144701607
 20
-1439.8307621148147
 42
-0.0146525199894894
 10
899.73719845947653
 20
-1439.7664955876162
 42
-0.0166929435866765
 10
899.55522080335288
 20
-1439.6906884545631
 10
899.55056417207663
 20
-1439.6885635539477
 42
-0.0191684358429644
 10
899.36538054082655
 20
-1439.5953274701574
 10
899.36204795507047
 20
-1439.5934862226045
 42
-0.0221181781807462
 10
899.17873765116724
 20
-1439.4813527242329
 10
899.17638784715984
 20
-1439.4797684262426
 42
-0.0254984685385947
 10
899.00009769677513
 20
-1439.3473572762734
 10
898.97761554907254
 20
-1439.3286049673368
 42
-0.0292492648801011
 10
898.85284661022956
 20
-1439.2115121676936
 42
-0.0159048957502071
 10
898.73900661277958
 20
-1439.0834921760945
 10
898.73768782220009
 20
-1439.0819105630744
 42
-0.0343813379570255
 10
898.6350505605742
 20
-1438.9400392373057
 10
898.6035590292131
 20
-1438.889535845211
 42
-0.0369117275706312
 10
898.51766652731567
 20
-1438.7260586042626
 42
-0.0191751379908654
 10
898.45047314175872
 20
-1438.5536539982568
 10
898.4487098179992
 20
-1438.5485606535817
 42
-0.0378178042225234
 10
898.39891509921472
 20
-1438.359619877499
 10
898.39291980348457
 20
-1438.3270592593026
 42
-0.0184846046476765
 10
898.37220260419031
 20
-1438.1853064387585
 42
-0.0179866351308155
 10
898.36186959911663
 20
-1438.0424156256768
 10
898.36181315667091
 20
-1438.0408579390648
 42
-0.0085497186108815
 10
898.36038087556699
 20
-1437.965984774055
 42
-0.0085497186108815
  0
ENDBLK
  5
69
100
AcDbEntity
  8
template
390
0
100
AcDbBlockEnd
  0
BLOCK
  5
6A
100
AcDbEntity
  8
notes
390
0
100
AcDbBlockBegin
  2
*D3
 70
               1
 10
0.0
 20
0.0
 30
0.0
  3
*D3
  1

  0
LINE
  5
6B
100
AcDbEntity
  8
0
370
              -2
390
0
  6
Continuous
 62
               0
100
AcDbLine
 10
-770.79053118838988
 20
866.98926342735058
 30
0.0
 11
-770.79053118838988
 21
986.75
 31
0.0
  0
LINE
  5
6C
100
AcDbEntity
  8
0
370
              -2
390
0
  6
Continuous
 62
               0
100
AcDbLine
 10
-175.79053118839002
 20
866.98926342735058
 30
0.0
 11
-175.79053118839002
 21
986.75
 31
0.0
  0
LINE
  5
6D
100
AcDbEntity
  8
0
370
              -2
390
0
  6
Continuous
 62
               0
100
AcDbLine
 10
-770.79053118838988
 20
986.75
 30
0.0
 11
-175.79053118839002
 21
986.75
 31
0.0
  0
CIRCLE
  5
6E
102
{ACAD_REACTORS
330
6F
102
}
100
AcDbEntity
  8
0
370
              -2
390
0
  6
Continuous
 62
               0
100
AcDbCircle
 10
-770.79053118838988
 20
986.75
 30
0.0
 40
1.9998779296875
  0
HATCH
  5
6F
100
AcDbEntity
  8
0
370
              -2
390
0
  6
Continuous
 62
               0
100
AcDbHatch
 10
0.0
 20
0.0
 30
0.0
210
0.0
220
0.0
230
1.0
  2
SOLID
 70
               1
 71
               1
 91
        1
 92
        1
 93
        1
 72
               2
 10
-770.79053118838988
 20
986.75
 40
1.9998779296875
 50
0.0
 51
360.0
 73
               0
 97
        1
330
6E
 75
               0
 76
               1
 98
        1
 10
0.0
 20
0.0
  0
CIRCLE
  5
70
102
{ACAD_REACTORS
330
71
102
}
100
AcDbEntity
  8
0
370
              -2
390
0
  6
Continuous
 62
               0
100
AcDbCircle
 10
-175.79053118839002
 20
986.75
 30
0.0
 40
1.9998779296875
  0
HATCH
  5
71
100
AcDbEntity
  8
0
370
              -2
390
0
  6
Continuous
 62
               0
100
AcDbHatch
 10
0.0
 20
0.0
 30
0.0
210
0.0
220
0.0
230
1.0
  2
SOLID
 70
               1
 71
               1
 91
        1
 92
        1
 93
        1
 72
               2
 10
-175.79053118839002
 20
986.75
 40
1.9998779296875
 50
0.0
 51
360.0
 73
               0
 97
        1
330
70
 75
               0
 76
               1
 98
        1
 10
0.0
 20
0.0
  0
MTEXT
  5
72
100
AcDbEntity
  8
0
390
0
 62
               0
100
AcDbMText
 10
-497.10303287056547
 20
1020.6276171874999
 30
0.0
 40
24.432617187500004
 41
0.0
 71
               1
 72
               1
  1
595
  7
ＭＳ ゴシック
 73
               1
 44
0.7828267384257843
  0
POINT
  5
73
100
AcDbEntity
  8
Defpoints
370
               0
390
0
 62
               0
100
AcDbPoint
 10
-175.79053118839002
 20
841.98926342735058
 30
0.0
  0
POINT
  5
74
100
AcDbEntity
  8
Defpoints
370
               0
390
0
 62
               0
100
AcDbPoint
 10
-770.79053118838988
 20
841.98926342735058
 30
0.0
  0
POINT
  5
75
100
AcDbEntity
  8
Defpoints
370
               0
390
0
 62
               0
100
AcDbPoint
 10
-770.79053118838988
 20
986.75
 30
0.0
  0
ENDBLK
  5
76
100
AcDbEntity
  8
notes
390
0
100
AcDbBlockEnd
  0
BLOCK
  5
77
100
AcDbEntity
  8
notes
390
0
100
AcDbBlockBegin
  2
*D4
 70
               1
 10
0.0
 20
0.0
 30
0.0
  3
*D4
  1

  0
LINE
  5
78
100
AcDbEntity
  8
0
370
              -2
390
0
  6
Continuous
 62
               0
100
AcDbLine
 10
-160.79053118839002
 20
851.98926342735058
 30
0.0
 11
-75.79053118839002
 21
851.98926342735058
 31
0.0
  0
LINE
  5
79
100
AcDbEntity
  8
0
370
              -2
390
0
  6
Continuous
 62
               0
100
AcDbLine
 10
-160.79053118839025
 20
386.98926342735075
 30
0.0
 11
-75.79053118839002
 21
386.98926342735075
 31
0.0
  0
LINE
  5
7A
100
AcDbEntity
  8
0
370
              -2
390
0
  6
Continuous
 62
               0
100
AcDbLine
 10
-75.79053118839002
 20
851.98926342735058
 30
0.0
 11
-75.79053118839002
 21
386.98926342735075
 31
0.0
  0
CIRCLE
  5
7B
102
{ACAD_REACTORS
330
7C
102
}
100
AcDbEntity
  8
0
370
              -2
390
0
  6
Continuous
 62
               0
100
AcDbCircle
 10
-75.79053118839002
 20
851.98926342735058
 30
0.0
 40
1.9998779296875
  0
HATCH
  5
7C
100
AcDbEntity
  8
0
370
              -2
390
0
  6
Continuous
 62
               0
100
AcDbHatch
 10
0.0
 20
0.0
 30
0.0
210
0.0
220
0.0
230
1.0
  2
SOLID
 70
               1
 71
               1
 91
        1
 92
        1
 93
        1
 72
               2
 10
-75.79053118839002
 20
851.98926342735058
 40
1.9998779296875
 50
0.0
 51
360.0
 73
               0
 97
        1
330
7B
 75
               0
 76
               1
 98
        1
 10
0.0
 20
0.0
  0
CIRCLE
  5
7D
102
{ACAD_REACTORS
330
7E
102
}
100
AcDbEntity
  8
0
370
              -2
390
0
  6
Continuous
 62
               0
100
AcDbCircle
 10
-75.79053118839002
 20
386.98926342735075
 30
0.0
 40
1.9998779296875
  0
HATCH
  5
7E
100
AcDbEntity
  8
0
370
              -2
390
0
  6
Continuous
 62
               0
100
AcDbHatch
 10
0.0
 20
0.0
 30
0.0
210
0.0
220
0.0
230
1.0
  2
SOLID
 70
               1
 71
               1
 91
        1
 92
        1
 93
        1
 72
               2
 10
-75.79053118839002
 20
386.98926342735075
 40
1.9998779296875
 50
0.0
 51
360.0
 73
               0
 97
        1
330
7D
 75
               0
 76
               1
 98
        1
 10
0.0
 20
0.0
  0
MTEXT
  5
7F
100
AcDbEntity
  8
0
390
0
 62
               0
100
AcDbMText
 10
-109.66814837589003
 20
595.67676174517533
 30
0.0
 40
24.432617187500004
 41
0.0
 71
               1
 72
               1
  1
465
  7
ＭＳ ゴシック
 11
0.0
 21
1.0
 31
0.0
 73
               1
 44
0.7828267384257843
  0
POINT
  5
80
100
AcDbEntity
  8
Defpoints
370
               0
390
0
 62
               0
100
AcDbPoint
 10
-185.79053118839025
 20
386.98926342735075
 30
0.0
  0
POINT
  5
81
100
AcDbEntity
  8
Defpoints
370
               0
390
0
 62
               0
100
AcDbPoint
 10
-185.79053118839002
 20
851.98926342735058
 30
0.0
  0
POINT
  5
82
100
AcDbEntity
  8
Defpoints
370
               0
390
0
 62
               0
100
AcDbPoint
 10
-75.79053118839002
 20
851.98926342735058
 30
0.0
  0
ENDBLK
  5
83
100
AcDbEntity
  8
notes
390
0
100
AcDbBlockEnd
  0
BLOCK
  5
84
100
AcDbEntity
  8
notes
390
0
100
AcDbBlockBegin
  2
*D5
 70
               1
 10
0.0
 20
0.0
 30
0.0
  3
*D5
  1

  0
LINE
  5
85
100
AcDbEntity
  8
0
370
              -2
390
0
  6
Continuous
 62
               0
100
AcDbLine
 10
-785.79053118838988
 20
851.98926342735058
 30
0.0
 11
-870.79053118838988
 21
851.98926342735058
 31
0.0
  0
LINE
  5
86
100
AcDbEntity
  8
0
370
              -2
390
0
  6
Continuous
 62
               0
100
AcDbLine
 10
-795.79053118838988
 20
731.98926342735058
 30
0.0
 11
-870.79053118838988
 21
731.98926342735058
 31
0.0
  0
LINE
  5
87
100
AcDbEntity
  8
0
370
              -2
390
0
  6
Continuous
 62
               0
100
AcDbLine
 10
-870.79053118838988
 20
851.98926342735058
 30
0.0
 11
-870.79053118838988
 21
731.98926342735058
 31
0.0
  0
CIRCLE
  5
88
102
{ACAD_REACTORS
330
89
102
}
100
AcDbEntity
  8
0
370
              -2
390
0
  6
Continuous
 62
               0
100
AcDbCircle
 10
-870.79053118838988
 20
851.98926342735058
 30
0.0
 40
1.9998779296875
  0
HATCH
  5
89
100
AcDbEntity
  8
0
370
              -2
390
0
  6
Continuous
 62
               0
100
AcDbHatch
 10
0.0
 20
0.0
 30
0.0
210
0.0
220
0.0
230
1.0
  2
SOLID
 70
               1
 71
               1
 91
        1
 92
        1
 93
        1
 72
               2
 10
-870.79053118838988
 20
851.98926342735058
 40
1.9998779296875
 50
0.0
 51
360.0
 73
               0
 97
        1
330
88
 75
               0
 76
               1
 98
        1
 10
0.0
 20
0.0
  0
CIRCLE
  5
8A
102
{ACAD_REACTORS
330
8B
102
}
100
AcDbEntity
  8
0
370
              -2
390
0
  6
Continuous
 62
               0
100
AcDbCircle
 10
-870.79053118838988
 20
731.98926342735058
 30
0.0
 40
1.9998779296875
  0
HATCH
  5
8B
100
AcDbEntity
  8
0
370
              -2
390
0
  6
Continuous
 62
               0
100
AcDbHatch
 10
0.0
 20
0.0
 30
0.0
210
0.0
220
0.0
230
1.0
  2
SOLID
 70
               1
 71
               1
 91
        1
 92
        1
 93
        1
 72
               2
 10
-870.79053118838988
 20
731.98926342735058
 40
1.9998779296875
 50
0.0
 51
360.0
 73
               0
 97
        1
330
8A
 75
               0
 76
               1
 98
        1
 10
0.0
 20
0.0
  0
MTEXT
  5
8C
100
AcDbEntity
  8
0
390
0
 62
               0
100
AcDbMText
 10
-904.66814837588981
 20
768.1767617451751
 30
0.0
 40
24.432617187500004
 41
0.0
 71
               1
 72
               1
  1
120
  7
ＭＳ ゴシック
 11
0.0
 21
1.0
 31
0.0
 73
               1
 44
0.7828267384257843
  0
POINT
  5
8D
100
AcDbEntity
  8
Defpoints
370
               0
390
0
 62
               0
100
AcDbPoint
 10
-770.79053118838988
 20
731.98926342735058
 30
0.0
  0
POINT
  5
8E
100
AcDbEntity
  8
Defpoints
370
               0
390
0
 62
               0
100
AcDbPoint
 10
-760.79053118838988
 20
851.98926342735058
 30
0.0
  0
POINT
  5
8F
100
AcDbEntity
  8
Defpoints
370
               0
390
0
 62
               0
100
AcDbPoint
 10
-870.79053118838988
 20
851.98926342735058
 30
0.0
  0
ENDBLK
  5
90
100
AcDbEntity
  8
notes
390
0
100
AcDbBlockEnd
  0
BLOCK
  5
91
100
AcDbEntity
  8
notes
390
0
100
AcDbBlockBegin
  2
*D6
 70
               1
 10
0.0
 20
0.0
 30
0.0
  3
*D6
  1

  0
LINE
  5
92
100
AcDbEntity
  8
0
370
              -2
390
0
  6
Continuous
 62
               0
100
AcDbLine
 10
-795.79053118838988
 20
731.98926342735058
 30
0.0
 11
-870.79053118838988
 21
731.98926342735058
 31
0.0
  0
LINE
  5
93
100
AcDbEntity
  8
0
370
              -2
390
0
  6
Continuous
 62
               0
100
AcDbLine
 10
-795.79053118838988
 20
421.98926342735069
 30
0.0
 11
-870.79053118838988
 21
421.98926342735069
 31
0.0
  0
LINE
  5
94
100
AcDbEntity
  8
0
370
              -2
390
0
  6
Continuous
 62
               0
100
AcDbLine
 10
-870.79053118838988
 20
731.98926342735058
 30
0.0
 11
-870.79053118838988
 21
421.98926342735069
 31
0.0
  0
CIRCLE
  5
95
102
{ACAD_REACTORS
330
96
102
}
100
AcDbEntity
  8
0
370
              -2
390
0
  6
Continuous
 62
               0
100
AcDbCircle
 10
-870.79053118838988
 20
731.98926342735058
 30
0.0
 40
1.9998779296875
  0
HATCH
  5
96
100
AcDbEntity
  8
0
370
              -2
390
0
  6
Continuous
 62
               0
100
AcDbHatch
 10
0.0
 20
0.0
 30
0.0
210
0.0
220
0.0
230
1.0
  2
SOLID
 70
               1
 71
               1
 91
        1
 92
        1
 93
        1
 72
               2
 10
-870.79053118838988
 20
731.98926342735058
 40
1.9998779296875
 50
0.0
 51
360.0
 73
               0
 97
        1
330
95
 75
               0
 76
               1
 98
        1
 10
0.0
 20
0.0
  0
CIRCLE
  5
97
102
{ACAD_REACTORS
330
98
102
}
100
AcDbEntity
  8
0
370
              -2
390
0
  6
Continuous
 62
               0
100
AcDbCircle
 10
-870.79053118838988
 20
421.98926342735069
 30
0.0
 40
1.9998779296875
  0
HATCH
  5
98
100
AcDbEntity
  8
0
370
              -2
390
0
  6
Continuous
 62
               0
100
AcDbHatch
 10
0.0
 20
0.0
 30
0.0
210
0.0
220
0.0
230
1.0
  2
SOLID
 70
               1
 71
               1
 91
        1
 92
        1
 93
        1
 72
               2
 10
-870.79053118838988
 20
421.98926342735069
 40
1.9998779296875
 50
0.0
 51
360.0
 73
               0
 97
        1
330
97
 75
               0
 76
               1
 98
        1
 10
0.0
 20
0.0
  0
MTEXT
  5
99
100
AcDbEntity
  8
0
390
0
 62
               0
100
AcDbMText
 10
-904.66814837588981
 20
553.1767617451751
 30
0.0
 40
24.432617187500004
 41
0.0
 71
               1
 72
               1
  1
310
  7
ＭＳ ゴシック
 11
0.0
 21
1.0
 31
0.0
 73
               1
 44
0.7828267384257843
  0
POINT
  5
9A
100
AcDbEntity
  8
Defpoints
370
               0
390
0
 62
               0
100
AcDbPoint
 10
-770.79053118838988
 20
421.98926342735069
 30
0.0
  0
POINT
  5
9B
100
AcDbEntity
  8
Defpoints
370
               0
390
0
 62
               0
100
AcDbPoint
 10
-770.79053118838988
 20
731.98926342735058
 30
0.0
  0
POINT
  5
9C
100
AcDbEntity
  8
Defpoints
370
               0
390
0
 62
               0
100
AcDbPoint
 10
-870.79053118838988
 20
731.98926342735058
 30
0.0
  0
ENDBLK
  5
9D
100
AcDbEntity
  8
notes
390
0
100
AcDbBlockEnd
  0
BLOCK
  5
9E
100
AcDbEntity
  8
notes
390
0
100
AcDbBlockBegin
  2
*D7
 70
               1
 10
0.0
 20
0.0
 30
0.0
  3
*D7
  1

  0
LINE
  5
9F
100
AcDbEntity
  8
0
370
              -2
390
0
  6
Continuous
 62
               0
100
AcDbLine
 10
-735.79053118838988
 20
361.98926342735075
 30
0.0
 11
-735.79053118838988
 21
286.98926342735075
 31
0.0
  0
LINE
  5
A0
100
AcDbEntity
  8
0
370
              -2
390
0
  6
Continuous
 62
               0
100
AcDbLine
 10
-210.79053118839013
 20
361.98926342735075
 30
0.0
 11
-210.79053118839013
 21
286.98926342735075
 31
0.0
  0
LINE
  5
A1
100
AcDbEntity
  8
0
370
              -2
390
0
  6
Continuous
 62
               0
100
AcDbLine
 10
-735.79053118838988
 20
286.98926342735075
 30
0.0
 11
-210.79053118839013
 21
286.98926342735075
 31
0.0
  0
CIRCLE
  5
A2
102
{ACAD_REACTORS
330
A3
102
}
100
AcDbEntity
  8
0
370
              -2
390
0
  6
Continuous
 62
               0
100
AcDbCircle
 10
-735.79053118838988
 20
286.98926342735075
 30
0.0
 40
1.9998779296875
  0
HATCH
  5
A3
100
AcDbEntity
  8
0
370
              -2
390
0
  6
Continuous
 62
               0
100
AcDbHatch
 10
0.0
 20
0.0
 30
0.0
210
0.0
220
0.0
230
1.0
  2
SOLID
 70
               1
 71
               1
 91
        1
 92
        1
 93
        1
 72
               2
 10
-735.79053118838988
 20
286.98926342735075
 40
1.9998779296875
 50
0.0
 51
360.0
 73
               0
 97
        1
330
A2
 75
               0
 76
               1
 98
        1
 10
0.0
 20
0.0
  0
CIRCLE
  5
A4
102
{ACAD_REACTORS
330
A5
102
}
100
AcDbEntity
  8
0
370
              -2
390
0
  6
Continuous
 62
               0
100
AcDbCircle
 10
-210.79053118839013
 20
286.98926342735075
 30
0.0
 40
1.9998779296875
  0
HATCH
  5
A5
100
AcDbEntity
  8
0
370
              -2
390
0
  6
Continuous
 62
               0
100
AcDbHatch
 10
0.0
 20
0.0
 30
0.0
210
0.0
220
0.0
230
1.0
  2
SOLID
 70
               1
 71
               1
 91
        1
 92
        1
 93
        1
 72
               2
 10
-210.79053118839013
 20
286.98926342735075
 40
1.9998779296875
 50
0.0
 51
360.0
 73
               0
 97
        1
330
A4
 75
               0
 76
               1
 98
        1
 10
0.0
 20
0.0
  0
MTEXT
  5
A6
100
AcDbEntity
  8
0
390
0
 62
               0
100
AcDbMText
 10
-497.10303287056553
 20
320.86688061485074
 30
0.0
 40
24.432617187500004
 41
0.0
 71
               1
 72
               1
  1
525
  7
ＭＳ ゴシック
 73
               1
 44
0.7828267384257843
  0
POINT
  5
A7
100
AcDbEntity
  8
Defpoints
370
               0
390
0
 62
               0
100
AcDbPoint
 10
-210.79053118839013
 20
386.98926342735075
 30
0.0
  0
POINT
  5
A8
100
AcDbEntity
  8
Defpoints
370
               0
390
0
 62
               0
100
AcDbPoint
 10
-735.79053118838988
 20
386.98926342735075
 30
0.0
  0
POINT
  5
A9
100
AcDbEntity
  8
Defpoints
370
               0
390
0
 62
               0
100
AcDbPoint
 10
-735.79053118838988
 20
286.98926342735075
 30
0.0
  0
ENDBLK
  5
AA
100
AcDbEntity
  8
notes
390
0
100
AcDbBlockEnd
  0
BLOCK
  5
AB
100
AcDbEntity
  8
notes
390
0
100
AcDbBlockBegin
  2
*D8
 70
               1
 10
0.0
 20
0.0
 30
0.0
  3
*D8
  1

  0
LINE
  5
AC
100
AcDbEntity
  8
0
370
              -2
390
0
  6
Continuous
 62
               0
100
AcDbLine
 10
-160.79053118839019
 20
-363.93293445620134
 30
0.0
 11
-75.790531188390247
 21
-363.93293445620134
 31
0.0
  0
LINE
  5
AD
100
AcDbEntity
  8
0
370
              -2
390
0
  6
Continuous
 62
               0
100
AcDbLine
 10
-409.52646312069857
 20
-533.93293445620134
 30
0.0
 11
-75.790531188390275
 21
-533.93293445620134
 31
0.0
  0
LINE
  5
AE
100
AcDbEntity
  8
0
370
              -2
390
0
  6
Continuous
 62
               0
100
AcDbLine
 10
-75.790531188390247
 20
-363.93293445620134
 30
0.0
 11
-75.790531188390275
 21
-533.93293445620134
 31
0.0
  0
CIRCLE
  5
AF
102
{ACAD_REACTORS
330
B0
102
}
100
AcDbEntity
  8
0
370
              -2
390
0
  6
Continuous
 62
               0
100
AcDbCircle
 10
-75.790531188390247
 20
-363.93293445620134
 30
0.0
 40
1.9998779296875
  0
HATCH
  5
B0
100
AcDbEntity
  8
0
370
              -2
390
0
  6
Continuous
 62
               0
100
AcDbHatch
 10
0.0
 20
0.0
 30
0.0
210
0.0
220
0.0
230
1.0
  2
SOLID
 70
               1
 71
               1
 91
        1
 92
        1
 93
        1
 72
               2
 10
-75.790531188390247
 20
-363.93293445620134
 40
1.9998779296875
 50
0.0
 51
360.0
 73
               0
 97
        1
330
AF
 75
               0
 76
               1
 98
        1
 10
0.0
 20
0.0
  0
CIRCLE
  5
B1
102
{ACAD_REACTORS
330
B2
102
}
100
AcDbEntity
  8
0
370
              -2
390
0
  6
Continuous
 62
               0
100
AcDbCircle
 10
-75.790531188390275
 20
-533.93293445620134
 30
0.0
 40
1.9998779296875
  0
HATCH
  5
B2
100
AcDbEntity
  8
0
370
              -2
390
0
  6
Continuous
 62
               0
100
AcDbHatch
 10
0.0
 20
0.0
 30
0.0
210
0.0
220
0.0
230
1.0
  2
SOLID
 70
               1
 71
               1
 91
        1
 92
        1
 93
        1
 72
               2
 10
-75.790531188390275
 20
-533.93293445620134
 40
1.9998779296875
 50
0.0
 51
360.0
 73
               0
 97
        1
330
B1
 75
               0
 76
               1
 98
        1
 10
0.0
 20
0.0
  0
MTEXT
  5
B3
100
AcDbEntity
  8
0
390
0
 62
               0
100
AcDbMText
 10
-109.66814837589025
 20
-472.74543613837687
 30
0.0
 40
24.432617187500004
 41
0.0
 71
               1
 72
               1
  1
170
  7
ＭＳ ゴシック
 11
0.0
 21
1.0
 31
0.0
 73
               1
 44
0.7828267384257843
  0
POINT
  5
B4
100
AcDbEntity
  8
Defpoints
370
               0
390
0
 62
               0
100
AcDbPoint
 10
-434.52646312069857
 20
-533.93293445620134
 30
0.0
  0
POINT
  5
B5
100
AcDbEntity
  8
Defpoints
370
               0
390
0
 62
               0
100
AcDbPoint
 10
-185.79053118839019
 20
-363.93293445620134
 30
0.0
  0
POINT
  5
B6
100
AcDbEntity
  8
Defpoints
370
               0
390
0
 62
               0
100
AcDbPoint
 10
-75.790531188390247
 20
-363.93293445620134
 30
0.0
  0
ENDBLK
  5
B7
100
AcDbEntity
  8
notes
390
0
100
AcDbBlockEnd
  0
BLOCK
  5
B8
100
AcDbEntity
  8
notes
390
0
100
AcDbBlockBegin
  2
*D9
 70
               1
 10
0.0
 20
0.0
 30
0.0
  3
*D9
  1

  0
LINE
  5
B9
100
AcDbEntity
  8
0
370
              -2
390
0
  6
Continuous
 62
               0
100
AcDbLine
 10
278.17057144548022
 20
-363.93293445620134
 30
0.0
 11
193.17057144548022
 21
-363.93293445620134
 31
0.0
  0
LINE
  5
BA
100
AcDbEntity
  8
0
370
              -2
390
0
  6
Continuous
 62
               0
100
AcDbLine
 10
278.87069918011372
 20
-493.93293445620139
 30
0.0
 11
193.17057144548022
 21
-493.93293445620139
 31
0.0
  0
LINE
  5
BB
100
AcDbEntity
  8
0
370
              -2
390
0
  6
Continuous
 62
               0
100
AcDbLine
 10
193.17057144548022
 20
-363.93293445620134
 30
0.0
 11
193.17057144548022
 21
-493.93293445620139
 31
0.0
  0
CIRCLE
  5
BC
102
{ACAD_REACTORS
330
BD
102
}
100
AcDbEntity
  8
0
370
              -2
390
0
  6
Continuous
 62
               0
100
AcDbCircle
 10
193.17057144548022
 20
-363.93293445620134
 30
0.0
 40
1.9998779296875
  0
HATCH
  5
BD
100
AcDbEntity
  8
0
370
              -2
390
0
  6
Continuous
 62
               0
100
AcDbHatch
 10
0.0
 20
0.0
 30
0.0
210
0.0
220
0.0
230
1.0
  2
SOLID
 70
               1
 71
               1
 91
        1
 92
        1
 93
        1
 72
               2
 10
193.17057144548022
 20
-363.93293445620134
 40
1.9998779296875
 50
0.0
 51
360.0
 73
               0
 97
        1
330
BC
 75
               0
 76
               1
 98
        1
 10
0.0
 20
0.0
  0
CIRCLE
  5
BE
102
{ACAD_REACTORS
330
BF
102
}
100
AcDbEntity
  8
0
370
              -2
390
0
  6
Continuous
 62
               0
100
AcDbCircle
 10
193.17057144548022
 20
-493.93293445620139
 30
0.0
 40
1.9998779296875
  0
HATCH
  5
BF
100
AcDbEntity
  8
0
370
              -2
390
0
  6
Continuous
 62
               0
100
AcDbHatch
 10
0.0
 20
0.0
 30
0.0
210
0.0
220
0.0
230
1.0
  2
SOLID
 70
               1
 71
               1
 91
        1
 92
        1
 93
        1
 72
               2
 10
193.17057144548022
 20
-493.93293445620139
 40
1.9998779296875
 50
0.0
 51
360.0
 73
               0
 97
        1
330
BE
 75
               0
 76
               1
 98
        1
 10
0.0
 20
0.0
  0
MTEXT
  5
C0
100
AcDbEntity
  8
0
390
0
 62
               0
100
AcDbMText
 10
159.29295425798023
 20
-452.74543613837687
 30
0.0
 40
24.432617187500004
 41
0.0
 71
               1
 72
               1
  1
130
  7
ＭＳ ゴシック
 11
0.0
 21
1.0
 31
0.0
 73
               1
 44
0.7828267384257843
  0
POINT
  5
C1
100
AcDbEntity
  8
Defpoints
370
               0
390
0
 62
               0
100
AcDbPoint
 10
303.87069918011372
 20
-493.93293445620139
 30
0.0
  0
POINT
  5
C2
100
AcDbEntity
  8
Defpoints
370
               0
390
0
 62
               0
100
AcDbPoint
 10
303.17057144548022
 20
-363.93293445620134
 30
0.0
  0
POINT
  5
C3
100
AcDbEntity
  8
Defpoints
370
               0
390
0
 62
               0
100
AcDbPoint
 10
193.17057144548022
 20
-363.93293445620134
 30
0.0
  0
ENDBLK
  5
C4
100
AcDbEntity
  8
notes
390
0
100
AcDbBlockEnd
  0
BLOCK
  5
C5
100
AcDbEntity
  8
notes
390
0
100
AcDbBlockBegin
  2
*D10
 70
               1
 10
0.0
 20
0.0
 30
0.0
  3
*D10
  1

  0
LINE
  5
C6
100
AcDbEntity
  8
0
370
              -2
390
0
  6
Continuous
 62
               0
100
AcDbLine
 10
278.87069918011372
 20
-493.93293445620139
 30
0.0
 11
193.17057144548022
 21
-493.93293445620139
 31
0.0
  0
LINE
  5
C7
100
AcDbEntity
  8
0
370
              -2
390
0
  6
Continuous
 62
               0
100
AcDbLine
 10
499.38710790381373
 20
-533.93293445620134
 30
0.0
 11
193.17057144548022
 21
-533.93293445620134
 31
0.0
  0
LINE
  5
C8
100
AcDbEntity
  8
0
370
              -2
390
0
  6
Continuous
 62
               0
100
AcDbLine
 10
193.17057144548022
 20
-493.93293445620139
 30
0.0
 11
193.17057144548022
 21
-533.93293445620134
 31
0.0
  0
CIRCLE
  5
C9
102
{ACAD_REACTORS
330
CA
102
}
100
AcDbEntity
  8
0
370
              -2
390
0
  6
Continuous
 62
               0
100
AcDbCircle
 10
193.17057144548022
 20
-493.93293445620139
 30
0.0
 40
1.9998779296875
  0
HATCH
  5
CA
100
AcDbEntity
  8
0
370
              -2
390
0
  6
Continuous
 62
               0
100
AcDbHatch
 10
0.0
 20
0.0
 30
0.0
210
0.0
220
0.0
230
1.0
  2
SOLID
 70
               1
 71
               1
 91
        1
 92
        1
 93
        1
 72
               2
 10
193.17057144548022
 20
-493.93293445620139
 40
1.9998779296875
 50
0.0
 51
360.0
 73
               0
 97
        1
330
C9
 75
               0
 76
               1
 98
        1
 10
0.0
 20
0.0
  0
CIRCLE
  5
CB
102
{ACAD_REACTORS
330
CC
102
}
100
AcDbEntity
  8
0
370
              -2
390
0
  6
Continuous
 62
               0
100
AcDbCircle
 10
193.17057144548022
 20
-533.93293445620134
 30
0.0
 40
1.9998779296875
  0
HATCH
  5
CC
100
AcDbEntity
  8
0
370
              -2
390
0
  6
Continuous
 62
               0
100
AcDbHatch
 10
0.0
 20
0.0
 30
0.0
210
0.0
220
0.0
230
1.0
  2
SOLID
 70
               1
 71
               1
 91
        1
 92
        1
 93
        1
 72
               2
 10
193.17057144548022
 20
-533.93293445620134
 40
1.9998779296875
 50
0.0
 51
360.0
 73
               0
 97
        1
330
CB
 75
               0
 76
               1
 98
        1
 10
0.0
 20
0.0
  0
MTEXT
  5
CD
100
AcDbEntity
  8
0
390
0
 62
               0
100
AcDbMText
 10
159.29295425798023
 20
-529.80793445620134
 30
0.0
 40
24.432617187500004
 41
0.0
 71
               1
 72
               1
  1
40
  7
ＭＳ ゴシック
 11
0.0
 21
1.0
 31
0.0
 73
               1
 44
0.7828267384257843
  0
POINT
  5
CE
100
AcDbEntity
  8
Defpoints
370
               0
390
0
 62
               0
100
AcDbPoint
 10
524.38710790381379
 20
-533.93293445620134
 30
0.0
  0
POINT
  5
CF
100
AcDbEntity
  8
Defpoints
370
               0
390
0
 62
               0
100
AcDbPoint
 10
303.87069918011372
 20
-493.93293445620139
 30
0.0
  0
POINT
  5
D0
100
AcDbEntity
  8
Defpoints
370
               0
390
0
 62
               0
100
AcDbPoint
 10
193.17057144548022
 20
-493.93293445620139
 30
0.0
  0
ENDBLK
  5
D1
100
AcDbEntity
  8
notes
390
0
100
AcDbBlockEnd
  0
BLOCK
  5
D2
100
AcDbEntity
  8
notes
390
0
100
AcDbBlockBegin
  2
*D11
 70
               1
 10
0.0
 20
0.0
 30
0.0
  3
*D11
  1

  0
LINE
  5
D3
100
AcDbEntity
  8
0
370
              -2
390
0
  6
Continuous
 62
               0
100
AcDbLine
 10
571.38753532071382
 20
-363.93293445620134
 30
0.0
 11
550.9750901343823
 21
-363.93293445620134
 31
0.0
  0
LINE
  5
D4
100
AcDbEntity
  8
0
370
              -2
390
0
  6
Continuous
 62
               0
100
AcDbLine
 10
571.38753532071382
 20
-493.93293445620139
 30
0.0
 11
550.9750901343823
 21
-493.93293445620139
 31
0.0
  0
LINE
  5
D5
100
AcDbEntity
  8
0
370
              -2
390
0
  6
Continuous
 62
               0
100
AcDbLine
 10
550.9750901343823
 20
-363.93293445620134
 30
0.0
 11
550.9750901343823
 21
-215.125
 31
0.0
  0
LINE
  5
D6
100
AcDbEntity
  8
0
370
              -2
390
0
  6
Continuous
 62
               0
100
AcDbLine
 10
550.9750901343823
 20
-363.93293445620134
 30
0.0
 11
550.9750901343823
 21
-493.93293445620139
 31
0.0
  0
CIRCLE
  5
D7
102
{ACAD_REACTORS
330
D8
102
}
100
AcDbEntity
  8
0
370
              -2
390
0
  6
Continuous
 62
               0
100
AcDbCircle
 10
550.9750901343823
 20
-363.93293445620134
 30
0.0
 40
1.9998779296875
  0
HATCH
  5
D8
100
AcDbEntity
  8
0
370
              -2
390
0
  6
Continuous
 62
               0
100
AcDbHatch
 10
0.0
 20
0.0
 30
0.0
210
0.0
220
0.0
230
1.0
  2
SOLID
 70
               1
 71
               1
 91
        1
 92
        1
 93
        1
 72
               2
 10
550.9750901343823
 20
-363.93293445620134
 40
1.9998779296875
 50
0.0
 51
360.0
 73
               0
 97
        1
330
D7
 75
               0
 76
               1
 98
        1
 10
0.0
 20
0.0
  0
CIRCLE
  5
D9
102
{ACAD_REACTORS
330
DA
102
}
100
AcDbEntity
  8
0
370
              -2
390
0
  6
Continuous
 62
               0
100
AcDbCircle
 10
550.9750901343823
 20
-493.93293445620139
 30
0.0
 40
1.9998779296875
  0
HATCH
  5
DA
100
AcDbEntity
  8
0
370
              -2
390
0
  6
Continuous
 62
               0
100
AcDbHatch
 10
0.0
 20
0.0
 30
0.0
210
0.0
220
0.0
230
1.0
  2
SOLID
 70
               1
 71
               1
 91
        1
 92
        1
 93
        1
 72
               2
 10
550.9750901343823
 20
-493.93293445620139
 40
1.9998779296875
 50
0.0
 51
360.0
 73
               0
 97
        1
330
D9
 75
               0
 76
               1
 98
        1
 10
0.0
 20
0.0
  0
MTEXT
  5
DB
100
AcDbEntity
  8
0
390
0
 62
               0
100
AcDbMText
 10
517.09747294688236
 20
-358.0
 30
0.0
 40
24.432617187500004
 41
0.0
 71
               1
 72
               1
  1
130(深さ)
  7
ＭＳ ゴシック
 11
0.0
 21
1.0
 31
0.0
 73
               1
 44
0.7828267384257843
  0
POINT
  5
DC
100
AcDbEntity
  8
Defpoints
370
               0
390
0
 62
               0
100
AcDbPoint
 10
546.38753532071382
 20
-493.93293445620139
 30
0.0
  0
POINT
  5
DD
100
AcDbEntity
  8
Defpoints
370
               0
390
0
 62
               0
100
AcDbPoint
 10
546.38753532071382
 20
-363.93293445620134
 30
0.0
  0
POINT
  5
DE
100
AcDbEntity
  8
Defpoints
370
               0
390
0
 62
               0
100
AcDbPoint
 10
550.9750901343823
 20
-363.93293445620134
 30
0.0
  0
ENDBLK
  5
DF
100
AcDbEntity
  8
notes
390
0
100
AcDbBlockEnd
  0
BLOCK
  5
E0
100
AcDbEntity
  8
notes
390
0
100
AcDbBlockBegin
  2
*D12
 70
               1
 10
0.0
 20
0.0
 30
0.0
  3
*D12
  1

  0
LINE
  5
E1
100
AcDbEntity
  8
0
370
              -2
390
0
  6
Continuous
 62
               0
100
AcDbLine
 10
240.94197166671626
 20
411.98926342735064
 30
0.0
 11
180.94197166671626
 21
411.98926342735064
 31
0.0
  0
LINE
  5
E2
100
AcDbEntity
  8
0
370
              -2
390
0
  6
Continuous
 62
               0
100
AcDbLine
 10
240.94197166671626
 20
851.98926342735058
 30
0.0
 11
180.94197166671626
 21
851.98926342735058
 31
0.0
  0
LINE
  5
E3
100
AcDbEntity
  8
0
370
              -2
390
0
  6
Continuous
 62
               0
100
AcDbLine
 10
180.94197166671626
 20
411.98926342735064
 30
0.0
 11
180.94197166671626
 21
851.98926342735058
 31
0.0
  0
CIRCLE
  5
E4
102
{ACAD_REACTORS
330
E5
102
}
100
AcDbEntity
  8
0
370
              -2
390
0
  6
Continuous
 62
               0
100
AcDbCircle
 10
180.94197166671626
 20
411.98926342735064
 30
0.0
 40
1.9998779296875
  0
HATCH
  5
E5
100
AcDbEntity
  8
0
370
              -2
390
0
  6
Continuous
 62
               0
100
AcDbHatch
 10
0.0
 20
0.0
 30
0.0
210
0.0
220
0.0
230
1.0
  2
SOLID
 70
               1
 71
               1
 91
        1
 92
        1
 93
        1
 72
               2
 10
180.94197166671626
 20
411.98926342735064
 40
1.9998779296875
 50
0.0
 51
360.0
 73
               0
 97
        1
330
E4
 75
               0
 76
               1
 98
        1
 10
0.0
 20
0.0
  0
CIRCLE
  5
E6
102
{ACAD_REACTORS
330
E7
102
}
100
AcDbEntity
  8
0
370
              -2
390
0
  6
Continuous
 62
               0
100
AcDbCircle
 10
180.94197166671626
 20
851.98926342735058
 30
0.0
 40
1.9998779296875
  0
HATCH
  5
E7
100
AcDbEntity
  8
0
370
              -2
390
0
  6
Continuous
 62
               0
100
AcDbHatch
 10
0.0
 20
0.0
 30
0.0
210
0.0
220
0.0
230
1.0
  2
SOLID
 70
               1
 71
               1
 91
        1
 92
        1
 93
        1
 72
               2
 10
180.94197166671626
 20
851.98926342735058
 40
1.9998779296875
 50
0.0
 51
360.0
 73
               0
 97
        1
330
E6
 75
               0
 76
               1
 98
        1
 10
0.0
 20
0.0
  0
MTEXT
  5
E8
100
AcDbEntity
  8
0
390
0
 62
               0
100
AcDbMText
 10
147.06435447921626
 20
608.1767617451751
 30
0.0
 40
24.432617187500004
 41
0.0
 71
               1
 72
               1
  1
440
  7
ＭＳ ゴシック
 11
0.0
 21
1.0
 31
0.0
 73
               1
 44
0.7828267384257843
  0
POINT
  5
E9
100
AcDbEntity
  8
Defpoints
370
               0
390
0
 62
               0
100
AcDbPoint
 10
265.94197166671626
 20
851.98926342735058
 30
0.0
  0
POINT
  5
EA
100
AcDbEntity
  8
Defpoints
370
               0
390
0
 62
               0
100
AcDbPoint
 10
265.94197166671626
 20
411.98926342735064
 30
0.0
  0
POINT
  5
EB
100
AcDbEntity
  8
Defpoints
370
               0
390
0
 62
               0
100
AcDbPoint
 10
180.94197166671626
 20
411.98926342735064
 30
0.0
  0
ENDBLK
  5
EC
100
AcDbEntity
  8
notes
390
0
100
AcDbBlockEnd
  0
BLOCK
  5
ED
100
AcDbEntity
  8
notes
390
0
100
AcDbBlockBegin
  2
*D13
 70
               1
 10
0.0
 20
0.0
 30
0.0
  3
*D13
  1

  0
LINE
  5
EE
100
AcDbEntity
  8
0
370
              -2
390
0
  6
Continuous
 62
               0
100
AcDbLine
 10
268.97288546719011
 20
407.3933196136224
 30
0.0
 11
177.97509013438207
 21
195.00000000000003
 31
0.0
  0
CIRCLE
  5
EF
102
{ACAD_REACTORS
330
F0
102
}
100
AcDbEntity
  8
0
370
              -2
390
0
  6
Continuous
 62
               0
100
AcDbCircle
 10
268.97288546719011
 20
407.3933196136224
 30
0.0
 40
1.9998779296875
  0
HATCH
  5
F0
100
AcDbEntity
  8
0
370
              -2
390
0
  6
Continuous
 62
               0
100
AcDbHatch
 10
0.0
 20
0.0
 30
0.0
210
0.0
220
0.0
230
1.0
  2
SOLID
 70
               1
 71
               1
 91
        1
 92
        1
 93
        1
 72
               2
 10
268.97288546719011
 20
407.3933196136224
 40
1.9998779296875
 50
0.0
 51
360.0
 73
               0
 97
        1
330
EF
 75
               0
 76
               1
 98
        1
 10
0.0
 20
0.0
  0
LINE
  5
F1
100
AcDbEntity
  8
0
370
              -2
390
0
  6
Continuous
 62
               0
100
AcDbLine
 10
177.97509013438207
 20
195.00000000000003
 30
0.0
 11
571.35009013438207
 21
195.00000000000003
 31
0.0
  0
MTEXT
  5
F2
100
AcDbEntity
  8
0
390
0
 62
               0
100
AcDbMText
 10
237.97509013438207
 20
228.87761718750005
 30
0.0
 40
24.432617187500004
 41
0.0
 71
               1
 72
               1
  1
φ10(固定金具用2ヶ所)
  7
ＭＳ ゴシック
 73
               1
 44
0.7828267384257843
  0
POINT
  5
F3
100
AcDbEntity
  8
Defpoints
370
               0
390
0
 62
               0
100
AcDbPoint
 10
272.91105786624252
 20
416.5852072410791
 30
0.0
  0
POINT
  5
F4
100
AcDbEntity
  8
Defpoints
370
               0
390
0
 62
               0
100
AcDbPoint
 10
268.97288546719011
 20
407.3933196136224
 30
0.0
  0
ENDBLK
  5
F5
100
AcDbEntity
  8
notes
390
0
100
AcDbBlockEnd
  0
BLOCK
  5
F6
100
AcDbEntity
  8
notes
390
0
100
AcDbBlockBegin
  2
*D14
 70
               1
 10
0.0
 20
0.0
 30
0.0
  3
*D14
  1

  0
LINE
  5
F7
100
AcDbEntity
  8
0
370
              -2
390
0
  6
Continuous
 62
               0
100
AcDbLine
 10
758.18710790381374
 20
-508.93293445620128
 30
0.0
 11
758.18710790381374
 21
-633.89999999999986
 31
0.0
  0
LINE
  5
F8
100
AcDbEntity
  8
0
370
              -2
390
0
  6
Continuous
 62
               0
100
AcDbLine
 10
563.18710790381374
 20
-558.89999999999986
 30
0.0
 11
563.18710790381374
 21
-633.89999999999986
 31
0.0
  0
LINE
  5
F9
100
AcDbEntity
  8
0
370
              -2
390
0
  6
Continuous
 62
               0
100
AcDbLine
 10
758.18710790381374
 20
-633.89999999999986
 30
0.0
 11
563.18710790381374
 21
-633.89999999999986
 31
0.0
  0
CIRCLE
  5
FA
102
{ACAD_REACTORS
330
FB
102
}
100
AcDbEntity
  8
0
370
              -2
390
0
  6
Continuous
 62
               0
100
AcDbCircle
 10
758.18710790381374
 20
-633.89999999999986
 30
0.0
 40
1.9998779296875
  0
HATCH
  5
FB
100
AcDbEntity
  8
0
370
              -2
390
0
  6
Continuous
 62
               0
100
AcDbHatch
 10
0.0
 20
0.0
 30
0.0
210
0.0
220
0.0
230
1.0
  2
SOLID
 70
               1
 71
               1
 91
        1
 92
        1
 93
        1
 72
               2
 10
758.18710790381374
 20
-633.89999999999986
 40
1.9998779296875
 50
0.0
 51
360.0
 73
               0
 97
        1
330
FA
 75
               0
 76
               1
 98
        1
 10
0.0
 20
0.0
  0
CIRCLE
  5
FC
102
{ACAD_REACTORS
330
FD
102
}
100
AcDbEntity
  8
0
370
              -2
390
0
  6
Continuous
 62
               0
100
AcDbCircle
 10
563.18710790381374
 20
-633.89999999999986
 30
0.0
 40
1.9998779296875
  0
HATCH
  5
FD
100
AcDbEntity
  8
0
370
              -2
390
0
  6
Continuous
 62
               0
100
AcDbHatch
 10
0.0
 20
0.0
 30
0.0
210
0.0
220
0.0
230
1.0
  2
SOLID
 70
               1
 71
               1
 91
        1
 92
        1
 93
        1
 72
               2
 10
563.18710790381374
 20
-633.89999999999986
 40
1.9998779296875
 50
0.0
 51
360.0
 73
               0
 97
        1
330
FC
 75
               0
 76
               1
 98
        1
 10
0.0
 20
0.0
  0
MTEXT
  5
FE
100
AcDbEntity
  8
0
390
0
 62
               0
100
AcDbMText
 10
636.87460622163826
 20
-600.02238281249993
 30
0.0
 40
24.432617187500004
 41
0.0
 71
               1
 72
               1
  1
195
  7
ＭＳ ゴシック
 73
               1
 44
0.7828267384257843
  0
POINT
  5
FF
100
AcDbEntity
  8
Defpoints
370
               0
390
0
 62
               0
100
AcDbPoint
 10
563.18710790381374
 20
-533.89999999999986
 30
0.0
  0
POINT
  5
100
100
AcDbEntity
  8
Defpoints
370
               0
390
0
 62
               0
100
AcDbPoint
 10
758.18710790381374
 20
-483.93293445620128
 30
0.0
  0
POINT
  5
101
100
AcDbEntity
  8
Defpoints
370
               0
390
0
 62
               0
100
AcDbPoint
 10
758.18710790381374
 20
-633.89999999999986
 30
0.0
  0
ENDBLK
  5
102
100
AcDbEntity
  8
notes
390
0
100
AcDbBlockEnd
  0
BLOCK
  5
103
100
AcDbEntity
  8
notes
390
0
100
AcDbBlockBegin
  2
*D15
 70
               1
 10
0.0
 20
0.0
 30
0.0
  3
*D15
  1

  0
LINE
  5
104
100
AcDbEntity
  8
0
370
              -2
390
0
  6
Continuous
 62
               0
100
AcDbLine
 10
758.18710790381374
 20
-348.93293445620128
 30
0.0
 11
758.18710790381374
 21
-263.93293445620134
 31
0.0
  0
LINE
  5
105
100
AcDbEntity
  8
0
370
              -2
390
0
  6
Continuous
 62
               0
100
AcDbLine
 10
698.18710790381374
 20
-338.93293445620134
 30
0.0
 11
698.18710790381374
 21
-263.93293445620134
 31
0.0
  0
LINE
  5
106
100
AcDbEntity
  8
0
370
              -2
390
0
  6
Continuous
 62
               0
100
AcDbLine
 10
758.18710790381374
 20
-263.93293445620134
 30
0.0
 11
698.18710790381374
 21
-263.93293445620134
 31
0.0
  0
CIRCLE
  5
107
102
{ACAD_REACTORS
330
108
102
}
100
AcDbEntity
  8
0
370
              -2
390
0
  6
Continuous
 62
               0
100
AcDbCircle
 10
758.18710790381374
 20
-263.93293445620134
 30
0.0
 40
1.9998779296875
  0
HATCH
  5
108
100
AcDbEntity
  8
0
370
              -2
390
0
  6
Continuous
 62
               0
100
AcDbHatch
 10
0.0
 20
0.0
 30
0.0
210
0.0
220
0.0
230
1.0
  2
SOLID
 70
               1
 71
               1
 91
        1
 92
        1
 93
        1
 72
               2
 10
758.18710790381374
 20
-263.93293445620134
 40
1.9998779296875
 50
0.0
 51
360.0
 73
               0
 97
        1
330
107
 75
               0
 76
               1
 98
        1
 10
0.0
 20
0.0
  0
CIRCLE
  5
109
102
{ACAD_REACTORS
330
10A
102
}
100
AcDbEntity
  8
0
370
              -2
390
0
  6
Continuous
 62
               0
100
AcDbCircle
 10
698.18710790381374
 20
-263.93293445620134
 30
0.0
 40
1.9998779296875
  0
HATCH
  5
10A
100
AcDbEntity
  8
0
370
              -2
390
0
  6
Continuous
 62
               0
100
AcDbHatch
 10
0.0
 20
0.0
 30
0.0
210
0.0
220
0.0
230
1.0
  2
SOLID
 70
               1
 71
               1
 91
        1
 92
        1
 93
        1
 72
               2
 10
698.18710790381374
 20
-263.93293445620134
 40
1.9998779296875
 50
0.0
 51
360.0
 73
               0
 97
        1
330
109
 75
               0
 76
               1
 98
        1
 10
0.0
 20
0.0
  0
MTEXT
  5
10B
100
AcDbEntity
  8
0
390
0
 62
               0
100
AcDbMText
 10
712.31210790381374
 20
-230.05531726870134
 30
0.0
 40
24.432617187500004
 41
0.0
 71
               1
 72
               1
  1
60
  7
ＭＳ ゴシック
 73
               1
 44
0.7828267384257843
  0
POINT
  5
10C
100
AcDbEntity
  8
Defpoints
370
               0
390
0
 62
               0
100
AcDbPoint
 10
698.18710790381374
 20
-363.93293445620134
 30
0.0
  0
POINT
  5
10D
100
AcDbEntity
  8
Defpoints
370
               0
390
0
 62
               0
100
AcDbPoint
 10
758.18710790381374
 20
-373.93293445620128
 30
0.0
  0
POINT
  5
10E
100
AcDbEntity
  8
Defpoints
370
               0
390
0
 62
               0
100
AcDbPoint
 10
758.18710790381374
 20
-263.93293445620134
 30
0.0
  0
ENDBLK
  5
10F
100
AcDbEntity
  8
notes
390
0
100
AcDbBlockEnd
  0
BLOCK
  5
110
100
AcDbEntity
  8
notes
390
0
100
AcDbBlockBegin
  2
*D16
 70
               1
 10
0.0
 20
0.0
 30
0.0
  3
*D16
  1

  0
LINE
  5
111
100
AcDbEntity
  8
0
370
              -2
390
0
  6
Continuous
 62
               0
100
AcDbLine
 10
280.94197166671626
 20
486.98926342735064
 30
0.0
 11
280.94197166671626
 21
411.98926342735064
 31
0.0
  0
LINE
  5
112
100
AcDbEntity
  8
0
370
              -2
390
0
  6
Continuous
 62
               0
100
AcDbLine
 10
660.94197166671643
 20
486.98926342735064
 30
0.0
 11
660.94197166671643
 21
411.98926342735064
 31
0.0
  0
LINE
  5
113
100
AcDbEntity
  8
0
370
              -2
390
0
  6
Continuous
 62
               0
100
AcDbLine
 10
280.94197166671626
 20
411.98926342735064
 30
0.0
 11
660.94197166671643
 21
411.98926342735064
 31
0.0
  0
CIRCLE
  5
114
102
{ACAD_REACTORS
330
115
102
}
100
AcDbEntity
  8
0
370
              -2
390
0
  6
Continuous
 62
               0
100
AcDbCircle
 10
280.94197166671626
 20
411.98926342735064
 30
0.0
 40
1.9998779296875
  0
HATCH
  5
115
100
AcDbEntity
  8
0
370
              -2
390
0
  6
Continuous
 62
               0
100
AcDbHatch
 10
0.0
 20
0.0
 30
0.0
210
0.0
220
0.0
230
1.0
  2
SOLID
 70
               1
 71
               1
 91
        1
 92
        1
 93
        1
 72
               2
 10
280.94197166671626
 20
411.98926342735064
 40
1.9998779296875
 50
0.0
 51
360.0
 73
               0
 97
        1
330
114
 75
               0
 76
               1
 98
        1
 10
0.0
 20
0.0
  0
CIRCLE
  5
116
102
{ACAD_REACTORS
330
117
102
}
100
AcDbEntity
  8
0
370
              -2
390
0
  6
Continuous
 62
               0
100
AcDbCircle
 10
660.94197166671643
 20
411.98926342735064
 30
0.0
 40
1.9998779296875
  0
HATCH
  5
117
100
AcDbEntity
  8
0
370
              -2
390
0
  6
Continuous
 62
               0
100
AcDbHatch
 10
0.0
 20
0.0
 30
0.0
210
0.0
220
0.0
230
1.0
  2
SOLID
 70
               1
 71
               1
 91
        1
 92
        1
 93
        1
 72
               2
 10
660.94197166671643
 20
411.98926342735064
 40
1.9998779296875
 50
0.0
 51
360.0
 73
               0
 97
        1
330
116
 75
               0
 76
               1
 98
        1
 10
0.0
 20
0.0
  0
MTEXT
  5
118
100
AcDbEntity
  8
0
390
0
 62
               0
100
AcDbMText
 10
447.12946998454083
 20
445.86688061485063
 30
0.0
 40
24.432617187500004
 41
0.0
 71
               1
 72
               1
  1
380
  7
ＭＳ ゴシック
 73
               1
 44
0.7828267384257843
  0
POINT
  5
119
100
AcDbEntity
  8
Defpoints
370
               0
390
0
 62
               0
100
AcDbPoint
 10
660.94197166671643
 20
511.98926342735064
 30
0.0
  0
POINT
  5
11A
100
AcDbEntity
  8
Defpoints
370
               0
390
0
 62
               0
100
AcDbPoint
 10
280.94197166671626
 20
511.98926342735064
 30
0.0
  0
POINT
  5
11B
100
AcDbEntity
  8
Defpoints
370
               0
390
0
 62
               0
100
AcDbPoint
 10
280.94197166671626
 20
411.98926342735064
 30
0.0
  0
ENDBLK
  5
11C
100
AcDbEntity
  8
notes
390
0
100
AcDbBlockEnd
  0
BLOCK
  5
11D
100
AcDbEntity
  8
notes
390
0
100
AcDbBlockBegin
  2
*D17
 70
               1
 10
0.0
 20
0.0
 30
0.0
  3
*D17
  1

  0
LINE
  5
11E
100
AcDbEntity
  8
0
370
              -2
390
0
  6
Continuous
 62
               0
100
AcDbLine
 10
685.94197166671643
 20
511.98926342735064
 30
0.0
 11
760.94197166671643
 21
511.98926342735064
 31
0.0
  0
LINE
  5
11F
100
AcDbEntity
  8
0
370
              -2
390
0
  6
Continuous
 62
               0
100
AcDbLine
 10
685.94197166671643
 20
821.98926342735058
 30
0.0
 11
760.94197166671643
 21
821.98926342735058
 31
0.0
  0
LINE
  5
120
100
AcDbEntity
  8
0
370
              -2
390
0
  6
Continuous
 62
               0
100
AcDbLine
 10
760.94197166671643
 20
511.98926342735064
 30
0.0
 11
760.94197166671643
 21
821.98926342735058
 31
0.0
  0
CIRCLE
  5
121
102
{ACAD_REACTORS
330
122
102
}
100
AcDbEntity
  8
0
370
              -2
390
0
  6
Continuous
 62
               0
100
AcDbCircle
 10
760.94197166671643
 20
511.98926342735064
 30
0.0
 40
1.9998779296875
  0
HATCH
  5
122
100
AcDbEntity
  8
0
370
              -2
390
0
  6
Continuous
 62
               0
100
AcDbHatch
 10
0.0
 20
0.0
 30
0.0
210
0.0
220
0.0
230
1.0
  2
SOLID
 70
               1
 71
               1
 91
        1
 92
        1
 93
        1
 72
               2
 10
760.94197166671643
 20
511.98926342735064
 40
1.9998779296875
 50
0.0
 51
360.0
 73
               0
 97
        1
330
121
 75
               0
 76
               1
 98
        1
 10
0.0
 20
0.0
  0
CIRCLE
  5
123
102
{ACAD_REACTORS
330
124
102
}
100
AcDbEntity
  8
0
370
              -2
390
0
  6
Continuous
 62
               0
100
AcDbCircle
 10
760.94197166671643
 20
821.98926342735058
 30
0.0
 40
1.9998779296875
  0
HATCH
  5
124
100
AcDbEntity
  8
0
370
              -2
390
0
  6
Continuous
 62
               0
100
AcDbHatch
 10
0.0
 20
0.0
 30
0.0
210
0.0
220
0.0
230
1.0
  2
SOLID
 70
               1
 71
               1
 91
        1
 92
        1
 93
        1
 72
               2
 10
760.94197166671643
 20
821.98926342735058
 40
1.9998779296875
 50
0.0
 51
360.0
 73
               0
 97
        1
330
123
 75
               0
 76
               1
 98
        1
 10
0.0
 20
0.0
  0
MTEXT
  5
125
100
AcDbEntity
  8
0
390
0
 62
               0
100
AcDbMText
 10
727.06435447921649
 20
643.1767617451751
 30
0.0
 40
24.432617187500004
 41
0.0
 71
               1
 72
               1
  1
310
  7
ＭＳ ゴシック
 11
0.0
 21
1.0
 31
0.0
 73
               1
 44
0.7828267384257843
  0
POINT
  5
126
100
AcDbEntity
  8
Defpoints
370
               0
390
0
 62
               0
100
AcDbPoint
 10
660.94197166671643
 20
821.98926342735058
 30
0.0
  0
POINT
  5
127
100
AcDbEntity
  8
Defpoints
370
               0
390
0
 62
               0
100
AcDbPoint
 10
660.94197166671643
 20
511.98926342735064
 30
0.0
  0
POINT
  5
128
100
AcDbEntity
  8
Defpoints
370
               0
390
0
 62
               0
100
AcDbPoint
 10
760.94197166671643
 20
511.98926342735064
 30
0.0
  0
ENDBLK
  5
129
100
AcDbEntity
  8
notes
390
0
100
AcDbBlockEnd
  0
BLOCK
  5
12A
100
AcDbEntity
  8
notes
390
0
100
AcDbBlockBegin
  2
*D18
 70
               1
 10
0.0
 20
0.0
 30
0.0
  3
*D18
  1

  0
LINE
  5
12B
100
AcDbEntity
  8
0
370
              -2
390
0
  6
Continuous
 62
               0
100
AcDbLine
 10
685.94197166671643
 20
821.98926342735058
 30
0.0
 11
760.94197166671643
 21
821.98926342735058
 31
0.0
  0
LINE
  5
12C
100
AcDbEntity
  8
0
370
              -2
390
0
  6
Continuous
 62
               0
100
AcDbLine
 10
685.94197166671643
 20
851.98926342735058
 30
0.0
 11
760.94197166671643
 21
851.98926342735058
 31
0.0
  0
LINE
  5
12D
100
AcDbEntity
  8
0
370
              -2
390
0
  6
Continuous
 62
               0
100
AcDbLine
 10
760.94197166671643
 20
821.98926342735058
 30
0.0
 11
760.94197166671643
 21
851.98926342735058
 31
0.0
  0
CIRCLE
  5
12E
102
{ACAD_REACTORS
330
12F
102
}
100
AcDbEntity
  8
0
370
              -2
390
0
  6
Continuous
 62
               0
100
AcDbCircle
 10
760.94197166671643
 20
821.98926342735058
 30
0.0
 40
1.9998779296875
  0
HATCH
  5
12F
100
AcDbEntity
  8
0
370
              -2
390
0
  6
Continuous
 62
               0
100
AcDbHatch
 10
0.0
 20
0.0
 30
0.0
210
0.0
220
0.0
230
1.0
  2
SOLID
 70
               1
 71
               1
 91
        1
 92
        1
 93
        1
 72
               2
 10
760.94197166671643
 20
821.98926342735058
 40
1.9998779296875
 50
0.0
 51
360.0
 73
               0
 97
        1
330
12E
 75
               0
 76
               1
 98
        1
 10
0.0
 20
0.0
  0
CIRCLE
  5
130
102
{ACAD_REACTORS
330
131
102
}
100
AcDbEntity
  8
0
370
              -2
390
0
  6
Continuous
 62
               0
100
AcDbCircle
 10
760.94197166671643
 20
851.98926342735058
 30
0.0
 40
1.9998779296875
  0
HATCH
  5
131
100
AcDbEntity
  8
0
370
              -2
390
0
  6
Continuous
 62
               0
100
AcDbHatch
 10
0.0
 20
0.0
 30
0.0
210
0.0
220
0.0
230
1.0
  2
SOLID
 70
               1
 71
               1
 91
        1
 92
        1
 93
        1
 72
               2
 10
760.94197166671643
 20
851.98926342735058
 40
1.9998779296875
 50
0.0
 51
360.0
 73
               0
 97
        1
330
130
 75
               0
 76
               1
 98
        1
 10
0.0
 20
0.0
  0
MTEXT
  5
132
100
AcDbEntity
  8
0
390
0
 62
               0
100
AcDbMText
 10
727.06435447921649
 20
821.11426342735058
 30
0.0
 40
24.432617187500004
 41
0.0
 71
               1
 72
               1
  1
30
  7
ＭＳ ゴシック
 11
0.0
 21
1.0
 31
0.0
 73
               1
 44
0.7828267384257843
  0
POINT
  5
133
100
AcDbEntity
  8
Defpoints
370
               0
390
0
 62
               0
100
AcDbPoint
 10
660.94197166671643
 20
851.98926342735058
 30
0.0
  0
POINT
  5
134
100
AcDbEntity
  8
Defpoints
370
               0
390
0
 62
               0
100
AcDbPoint
 10
660.94197166671643
 20
821.98926342735058
 30
0.0
  0
POINT
  5
135
100
AcDbEntity
  8
Defpoints
370
               0
390
0
 62
               0
100
AcDbPoint
 10
760.94197166671643
 20
821.98926342735058
 30
0.0
  0
ENDBLK
  5
136
100
AcDbEntity
  8
notes
390
0
100
AcDbBlockEnd
  0
BLOCK
  5
137
100
AcDbEntity
  8
notes
390
0
100
AcDbBlockBegin
  2
*D19
 70
               1
 10
0.0
 20
0.0
 30
0.0
  3
*D19
  1

  0
LINE
  5
138
100
AcDbEntity
  8
0
370
              -2
390
0
  6
Continuous
 62
               0
100
AcDbLine
 10
670.94197166671643
 20
381.98926342735064
 30
0.0
 11
670.94197166671643
 21
286.0
 31
0.0
  0
LINE
  5
139
100
AcDbEntity
  8
0
370
              -2
390
0
  6
Continuous
 62
               0
100
AcDbLine
 10
270.94197166671626
 20
381.98926342735064
 30
0.0
 11
270.94197166671626
 21
286.0
 31
0.0
  0
LINE
  5
13A
100
AcDbEntity
  8
0
370
              -2
390
0
  6
Continuous
 62
               0
100
AcDbLine
 10
670.94197166671643
 20
286.0
 30
0.0
 11
270.94197166671626
 21
286.0
 31
0.0
  0
CIRCLE
  5
13B
102
{ACAD_REACTORS
330
13C
102
}
100
AcDbEntity
  8
0
370
              -2
390
0
  6
Continuous
 62
               0
100
AcDbCircle
 10
670.94197166671643
 20
286.0
 30
0.0
 40
1.9998779296875
  0
HATCH
  5
13C
100
AcDbEntity
  8
0
370
              -2
390
0
  6
Continuous
 62
               0
100
AcDbHatch
 10
0.0
 20
0.0
 30
0.0
210
0.0
220
0.0
230
1.0
  2
SOLID
 70
               1
 71
               1
 91
        1
 92
        1
 93
        1
 72
               2
 10
670.94197166671643
 20
286.0
 40
1.9998779296875
 50
0.0
 51
360.0
 73
               0
 97
        1
330
13B
 75
               0
 76
               1
 98
        1
 10
0.0
 20
0.0
  0
CIRCLE
  5
13D
102
{ACAD_REACTORS
330
13E
102
}
100
AcDbEntity
  8
0
370
              -2
390
0
  6
Continuous
 62
               0
100
AcDbCircle
 10
270.94197166671626
 20
286.0
 30
0.0
 40
1.9998779296875
  0
HATCH
  5
13E
100
AcDbEntity
  8
0
370
              -2
390
0
  6
Continuous
 62
               0
100
AcDbHatch
 10
0.0
 20
0.0
 30
0.0
210
0.0
220
0.0
230
1.0
  2
SOLID
 70
               1
 71
               1
 91
        1
 92
        1
 93
        1
 72
               2
 10
270.94197166671626
 20
286.0
 40
1.9998779296875
 50
0.0
 51
360.0
 73
               0
 97
        1
330
13D
 75
               0
 76
               1
 98
        1
 10
0.0
 20
0.0
  0
MTEXT
  5
13F
100
AcDbEntity
  8
0
390
0
 62
               0
100
AcDbMText
 10
447.12946998454083
 20
319.87761718749999
 30
0.0
 40
24.432617187500004
 41
0.0
 71
               1
 72
               1
  1
400
  7
ＭＳ ゴシック
 73
               1
 44
0.7828267384257843
  0
POINT
  5
140
100
AcDbEntity
  8
Defpoints
370
               0
390
0
 62
               0
100
AcDbPoint
 10
270.94197166671626
 20
406.98926342735064
 30
0.0
  0
POINT
  5
141
100
AcDbEntity
  8
Defpoints
370
               0
390
0
 62
               0
100
AcDbPoint
 10
670.94197166671643
 20
406.98926342735064
 30
0.0
  0
POINT
  5
142
100
AcDbEntity
  8
Defpoints
370
               0
390
0
 62
               0
100
AcDbPoint
 10
670.94197166671643
 20
286.0
 30
0.0
  0
ENDBLK
  5
143
100
AcDbEntity
  8
notes
390
0
100
AcDbBlockEnd
  0
BLOCK
  5
144
100
AcDbEntity
  8
FAA70-0515
390
0
100
AcDbBlockBegin
  2
グループ-1
 70
               0
 10
0.0
 20
0.0
 30
0.0
  3
グループ-1
  1

  0
LINE
  5
145
100
AcDbEntity
  8
0
370
              15
390
0
  6
Continuous
 62
               7
100
AcDbLine
 10
-213.49765575056099
 20
645.11263868214212
 30
0.0
 11
-213.49765575056099
 21
355.11263868214218
 31
0.0
  0
LINE
  5
146
100
AcDbEntity
  8
0
370
              15
390
0
  6
Continuous
 62
               7
100
AcDbLine
 10
-738.49765575056063
 20
645.11263868214212
 30
0.0
 11
-738.49765575056063
 21
355.11263868214218
 31
0.0
  0
ENDBLK
  5
147
100
AcDbEntity
  8
FAA70-0515
390
0
100
AcDbBlockEnd
  0
ENDSEC
  0
SECTION
  2
ENTITIES
  0
MTEXT
  5
148
100
AcDbEntity
  8
template
390
0
 62
               7
100
AcDbMText
 10
-967.99999999975921
 20
-1147.4176292337004
 30
0.0
 40
16.288411458333332
 41
0.0
 71
               1
 72
               1
  1
品名
  7
ＭＳ ゴシック
 73
               1
 44
0.7828267384257843
  0
MTEXT
  5
149
100
AcDbEntity
  8
template
390
0
 62
               7
100
AcDbMText
 10
-967.99999999975921
 20
-1232.4176292337004
 30
0.0
 40
16.288411458333332
 41
0.0
 71
               1
 72
               1
  1
仕様
  7
ＭＳ ゴシック
 73
               1
 44
0.7828267384257843
  0
LINE
  5
14A
100
AcDbEntity
  8
template
370
               5
390
0
  6
Continuous
 62
               7
100
AcDbLine
 10
974.99999999975876
 20
-1224.0027073587005
 30
0.0
 11
-975.00000000024124
 21
-1224.0027073587005
 31
0.0
  0
LWPOLYLINE
  5
14B
100
AcDbEntity
  8
template
370
               5
390
0
  6
Continuous
 62
               7
100
AcDbPolyline
 90
        5
 70
             128
 10
975.00000000024124
 20
1405.9972926412995
 10
-974.99999999975921
 20
1405.9972926412995
 10
-974.99999999975921
 20
-1394.0027073587005
 10
975.00000000024124
 20
-1394.0027073587005
 10
975.00000000024124
 20
1405.9972926412995
  0
LINE
  5
14C
100
AcDbEntity
  8
template
370
               5
390
0
  6
Continuous
 62
               7
100
AcDbLine
 10
974.99999999975876
 20
-1139.0027073587005
 30
0.0
 11
-975.00000000024124
 21
-1139.0027073587005
 31
0.0
  0
LINE
  5
14D
100
AcDbEntity
  8
template
370
               5
390
0
  6
Continuous
 62
               7
100
AcDbLine
 10
975.00000000024124
 20
-1309.0027073587005
 30
0.0
 11
222.00000000024124
 21
-1309.0027073587005
 31
0.0
  0
MTEXT
  5
14E
100
AcDbEntity
  8
template
390
0
 62
               7
100
AcDbMText
 10
251.87140625250089
 20
-1338.9131018320081
 30
0.0
 40
24.432617187500004
 41
0.0
 71
               1
 72
               1
  1
大洋金物株式会社 ティーフォルム事業部
  7
ＭＳ ゴシック
 73
               1
 44
0.7828267384257843
  0
INSERT
  5
14F
100
AcDbEntity
  8
template
390
0
 62
               7
100
AcDbBlockReference
  2
グループ
 10
2.7071245621708044
 20
76.876624745208517
 30
0.0
  0
MTEXT
  5
150
100
AcDbEntity
  8
template
390
0
 62
               7
100
AcDbMText
 10
784.00000000049999
 20
-1261.0000901712006
 30
0.0
 40
24.432617187500004
 41
0.0
 71
               1
 72
               1
  1
1:10
  7
ＭＳ ゴシック
 73
               1
 44
0.7828267384257843
  0
MTEXT
  5
151
100
AcDbEntity
  8
template
390
0
 62
               7
100
AcDbMText
 10
731.00000000049999
 20
-1232.4176292337004
 30
0.0
 40
16.288411458333332
 41
0.0
 71
               1
 72
               1
  1
縮尺
  7
ＭＳ ゴシック
 73
               1
 44
0.7828267384257843
  0
LINE
  5
152
100
AcDbEntity
  8
template
370
               5
390
0
  6
Continuous
 62
               7
100
AcDbLine
 10
724.00000000049999
 20
-1309.0027073587005
 30
0.0
 11
724.00000000049999
 21
-1224.0027073587005
 31
0.0
  0
MTEXT
  5
153
100
AcDbEntity
  8
template
390
0
 62
               7
100
AcDbMText
 10
480.00000000049999
 20
-1232.4176292337004
 30
0.0
 40
16.288411458333332
 41
0.0
 71
               1
 72
               1
  1
容量
  7
ＭＳ ゴシック
 73
               1
 44
0.7828267384257843
  0
MTEXT
  5
154
100
AcDbEntity
  8
template
390
0
 62
               7
100
AcDbMText
 10
533.00000000049999
 20
-1261.0000901712006
 30
0.0
 40
24.432617187500004
 41
0.0
 71
               1
 72
               1
  1
11.8L
  7
ＭＳ ゴシック
 73
               1
 44
0.7828267384257843
  0
LINE
  5
155
100
AcDbEntity
  8
template
370
               5
390
0
  6
Continuous
 62
               7
100
AcDbLine
 10
473.00000000049999
 20
-1309.0027073587005
 30
0.0
 11
473.00000000049999
 21
-1224.0027073587005
 31
0.0
  0
MTEXT
  5
156
100
AcDbEntity
  8
template
390
0
 62
               7
100
AcDbMText
 10
229.00000000049999
 20
-1147.4176292337004
 30
0.0
 40
16.288411458333332
 41
0.0
 71
               1
 72
               1
  1
品番
  7
ＭＳ ゴシック
 73
               1
 44
0.7828267384257843
  0
MTEXT
  5
157
100
AcDbEntity
  8
template
390
0
 62
               7
100
AcDbMText
 10
229.00000000049999
 20
-1232.4176292337004
 30
0.0
 40
16.288411458333332
 41
0.0
 71
               1
 72
               1
  1
重量
  7
ＭＳ ゴシック
 73
               1
 44
0.7828267384257843
  0
MTEXT
  5
158
100
AcDbEntity
  8
template
390
0
 62
               7
100
AcDbMText
 10
282.00000000049999
 20
-1176.0000901712006
 30
0.0
 40
24.432617187500004
 41
0.0
 71
               1
 72
               1
  1
FAA70-0515
  7
ＭＳ ゴシック
 73
               1
 44
0.7828267384257843
  0
MTEXT
  5
159
100
AcDbEntity
  8
template
390
0
 62
               7
100
AcDbMText
 10
282.00000000049999
 20
-1261.0000901712006
 30
0.0
 40
24.432617187500004
 41
0.0
 71
               1
 72
               1
  1
19kg
  7
ＭＳ ゴシック
 73
               1
 44
0.7828267384257843
  0
LINE
  5
15A
100
AcDbEntity
  8
template
370
               5
390
0
  6
Continuous
 62
               7
100
AcDbLine
 10
222.00000000049999
 20
-1394.0027073587005
 30
0.0
 11
222.00000000049999
 21
-1139.0027073587005
 31
0.0
  0
MTEXT
  5
15B
100
AcDbEntity
  8
template
390
0
 62
               7
100
AcDbMText
 10
-915.00000000020327
 20
-1175.8723828124998
 30
0.0
 40
24.432617187500004
 41
0.0
 71
               1
 72
               1
  1
洗面器 -DURAVIT,Vero-
  7
ＭＳ ゴシック
 73
               1
 44
0.7828267384257843
  0
MTEXT
  5
15C
100
AcDbEntity
  8
template
390
0
 62
               7
100
AcDbMText
 10
-914.99999999975921
 20
-1261.0000901712006
 30
0.0
 40
24.432617187500004
 41
0.0
 71
               1
 72
               1
  1
カウンタートップ/オーバーフローあり/カウンター固定金具,型 紙付属/\P陶器/ホワイト
  7
ＭＳ ゴシック
 73
               1
 44
1.1307497332816883
  0
MTEXT
  5
15D
100
AcDbEntity
  8
template
390
0
 62
               7
100
AcDbMText
 10
-974.99999999955617
 20
-1405.8565294155574
 30
0.0
 40
21.717881944444446
 41
0.0
 71
               1
 72
               1
  1
100709SH
  7
ＭＳ ゴシック
 73
               1
 44
0.7828267384257843
  0
DIMENSION
  5
15E
100
AcDbEntity
  8
notes
370
               5
390
0
  6
Continuous
 62
               7
100
AcDbDimension
  2
*D3
 10
-770.79053118838988
 20
986.75
 30
0.0
 11
-473.29053118838993
 21
986.75
 31
0.0
 71
               5
 72
               1
 41
1.0
 42
0.0
  3
tform線あり
100
AcDbAlignedDimension
 13
-175.79053118839002
 23
841.98926342735058
 33
0.0
 14
-770.79053118838988
 24
841.98926342735058
 34
0.0
100
AcDbRotatedDimension
1001
ACAD
1000
DSTYLE
1002
{
1070
             279
1070
               2
1070
             340
1005
36
1070
             147
1040
5.0
1002
}
  0
DIMENSION
  5
15F
100
AcDbEntity
  8
notes
370
               5
390
0
  6
Continuous
 62
               7
100
AcDbDimension
  2
*D4
 10
-75.79053118839002
 20
851.98926342735058
 30
0.0
 11
-75.79053118839002
 21
619.48926342735081
 31
0.0
 71
               5
 72
               1
 41
1.0
 42
0.0
  3
tform線あり
100
AcDbAlignedDimension
 13
-185.79053118839025
 23
386.98926342735075
 33
0.0
 14
-185.79053118839002
 24
851.98926342735058
 34
0.0
 50
90.0
100
AcDbRotatedDimension
1001
ACAD
1000
DSTYLE
1002
{
1070
             279
1070
               2
1070
             340
1005
36
1070
             147
1040
5.0
1002
}
  0
DIMENSION
  5
160
100
AcDbEntity
  8
notes
370
               5
390
0
  6
Continuous
 62
               7
100
AcDbDimension
  2
*D5
 10
-870.79053118838988
 20
851.98926342735058
 30
0.0
 11
-870.79053118838988
 21
791.98926342735058
 31
0.0
 71
               5
 72
               1
 41
1.0
 42
0.0
  3
tform線あり
100
AcDbAlignedDimension
 13
-770.79053118838988
 23
731.98926342735058
 33
0.0
 14
-760.79053118838988
 24
851.98926342735058
 34
0.0
 50
90.0
100
AcDbRotatedDimension
1001
ACAD
1000
DSTYLE
1002
{
1070
             279
1070
               2
1070
             340
1005
36
1070
             147
1040
5.0
1002
}
  0
DIMENSION
  5
161
100
AcDbEntity
  8
notes
370
               5
390
0
  6
Continuous
 62
               7
100
AcDbDimension
  2
*D6
 10
-870.79053118838988
 20
731.98926342735058
 30
0.0
 11
-870.79053118838988
 21
576.98926342735058
 31
0.0
 71
               5
 72
               1
 41
1.0
 42
0.0
  3
tform線あり
100
AcDbAlignedDimension
 13
-770.79053118838988
 23
421.98926342735069
 33
0.0
 14
-770.79053118838988
 24
731.98926342735058
 34
0.0
 50
90.0
100
AcDbRotatedDimension
1001
ACAD
1000
DSTYLE
1002
{
1070
             279
1070
               2
1070
             340
1005
36
1070
             147
1040
5.0
1002
}
  0
DIMENSION
  5
162
100
AcDbEntity
  8
notes
370
               5
390
0
  6
Continuous
 62
               7
100
AcDbDimension
  2
*D7
 10
-735.79053118838988
 20
286.98926342735075
 30
0.0
 11
-473.29053118838999
 21
286.98926342735075
 31
0.0
 71
               5
 72
               1
 41
1.0
 42
0.0
  3
tform線あり
100
AcDbAlignedDimension
 13
-210.79053118839013
 23
386.98926342735075
 33
0.0
 14
-735.79053118838988
 24
386.98926342735075
 34
0.0
100
AcDbRotatedDimension
1001
ACAD
1000
DSTYLE
1002
{
1070
             279
1070
               2
1070
             340
1005
36
1070
             147
1040
5.0
1002
}
  0
DIMENSION
  5
163
100
AcDbEntity
  8
notes
370
               5
390
0
  6
Continuous
 62
               7
100
AcDbDimension
  2
*D8
 10
-75.790531188390247
 20
-363.93293445620134
 30
0.0
 11
-75.790531188390247
 21
-448.93293445620139
 31
0.0
 71
               5
 72
               1
 41
1.0
 42
0.0
  3
tform線あり
100
AcDbAlignedDimension
 13
-434.52646312069857
 23
-533.93293445620134
 33
0.0
 14
-185.79053118839019
 24
-363.93293445620134
 34
0.0
 50
90.0
100
AcDbRotatedDimension
1001
ACAD
1000
DSTYLE
1002
{
1070
             279
1070
               2
1070
             340
1005
36
1070
             147
1040
5.0
1002
}
  0
DIMENSION
  5
164
100
AcDbEntity
  8
notes
370
               5
390
0
  6
Continuous
 62
               7
100
AcDbDimension
  2
*D9
 10
193.17057144548022
 20
-363.93293445620134
 30
0.0
 11
193.17057144548022
 21
-428.93293445620139
 31
0.0
 71
               5
 72
               1
 41
1.0
 42
0.0
  3
tform線あり
100
AcDbAlignedDimension
 13
303.87069918011372
 23
-493.93293445620139
 33
0.0
 14
303.17057144548022
 24
-363.93293445620134
 34
0.0
 50
90.0
100
AcDbRotatedDimension
1001
ACAD
1000
DSTYLE
1002
{
1070
             279
1070
               2
1070
             340
1005
36
1070
             147
1040
5.0
1002
}
  0
DIMENSION
  5
165
100
AcDbEntity
  8
notes
370
               5
390
0
  6
Continuous
 62
               7
100
AcDbDimension
  2
*D10
 10
193.17057144548022
 20
-493.93293445620139
 30
0.0
 11
193.17057144548022
 21
-513.93293445620134
 31
0.0
 71
               5
 72
               1
 41
1.0
 42
0.0
  3
tform線あり
100
AcDbAlignedDimension
 13
524.38710790381379
 23
-533.93293445620134
 33
0.0
 14
303.87069918011372
 24
-493.93293445620139
 34
0.0
 50
90.0
100
AcDbRotatedDimension
1001
ACAD
1000
DSTYLE
1002
{
1070
             279
1070
               2
1070
             340
1005
36
1070
             147
1040
5.0
1002
}
  0
DIMENSION
  5
166
100
AcDbEntity
  8
notes
370
               5
390
0
  6
Continuous
 62
               7
100
AcDbDimension
  2
*D11
 10
550.9750901343823
 20
-363.93293445620134
 30
0.0
 11
555.9750901343823
 21
-358.0
 31
0.0
 70
             128
 71
               5
 72
               1
 41
1.0
 42
0.0
  3
tform線あり
100
AcDbAlignedDimension
 13
546.38753532071382
 23
-493.93293445620139
 33
0.0
 14
546.38753532071382
 24
-363.93293445620134
 34
0.0
 50
90.0
100
AcDbRotatedDimension
1001
ACAD
1000
DSTYLE
1002
{
1070
             279
1070
               2
1070
             340
1005
36
1070
               3
1000
<>(深さ)
1070
             174
1070
               0
1070
             147
1040
5.0
1002
}
  0
MTEXT
  5
167
100
AcDbEntity
  8
notes
390
0
 62
               7
100
AcDbMText
 10
80.0
 20
120.85279093657918
 30
0.0
 40
24.432617187500004
 41
860.00000000000011
 71
               1
 72
               1
  1
※陶器製品には寸法公差があります。\P  洗面器の収め方をご確認の上、必ず現物を合わせて\P  固定金具の穴あけ、カウンターの切込を行ってください。
  7
ＭＳ ゴシック
 73
               1
 44
1.0437689845677123
  0
MTEXT
  5
168
100
AcDbEntity
  8
notes
390
0
 62
               7
100
AcDbMText
 10
316.22637129687621
 20
1100.7946705619656
 30
0.0
 40
24.432617187500004
 41
0.0
 71
               1
 72
               1
  1
カウンター切込寸法
  7
ＭＳ ゴシック
 73
               1
 44
0.7828267384257843
  0
DIMENSION
  5
169
100
AcDbEntity
  8
notes
370
               5
390
0
  6
Continuous
 62
               7
100
AcDbDimension
  2
*D12
 10
180.94197166671626
 20
411.98926342735064
 30
0.0
 11
180.94197166671626
 21
631.98926342735058
 31
0.0
 71
               5
 72
               1
 41
1.0
 42
0.0
  3
tform線あり
100
AcDbAlignedDimension
 13
265.94197166671626
 23
851.98926342735058
 33
0.0
 14
265.94197166671626
 24
411.98926342735064
 34
0.0
 50
90.0
100
AcDbRotatedDimension
1001
ACAD
1000
DSTYLE
1002
{
1070
             279
1070
               2
1070
             340
1005
36
1070
             147
1040
5.0
1002
}
  0
DIMENSION
  5
16A
100
AcDbEntity
  8
notes
370
               5
390
0
  6
Continuous
 62
               7
100
AcDbDimension
  2
*D13
 10
272.91105786624252
 20
416.5852072410791
 30
0.0
 11
237.97509013438139
 21
195.00000000000028
 31
0.0
 70
               3
 71
               5
 72
               1
 41
1.0
 42
0.0
  3
tform線あり
100
AcDbDiametricDimension
 15
268.97288546719011
 25
407.3933196136224
 35
0.0
 40
231.06605326600004
1001
ACAD
1000
DSTYLE
1002
{
1070
             289
1070
               0
1070
             342
1005
54
1070
             340
1005
36
1070
              73
1070
               1
1070
              74
1070
               1
1070
              75
1070
               1
1070
              76
1070
               1
1070
               3
1000
(固定金具用2ヶ所)
1070
             174
1070
               0
1070
             147
1040
5.0
1002
}
  0
DIMENSION
  5
16B
100
AcDbEntity
  8
notes
370
               5
390
0
  6
Continuous
 62
               7
100
AcDbDimension
  2
*D14
 10
758.18710790381374
 20
-633.89999999999986
 30
0.0
 11
660.68710790381374
 21
-633.89999999999986
 31
0.0
 71
               5
 72
               1
 41
1.0
 42
0.0
  3
tform線あり
100
AcDbAlignedDimension
 13
563.18710790381374
 23
-533.89999999999986
 33
0.0
 14
758.18710790381374
 24
-483.93293445620128
 34
0.0
100
AcDbRotatedDimension
1001
ACAD
1000
DSTYLE
1002
{
1070
             279
1070
               2
1070
             340
1005
36
1070
             147
1040
5.0
1002
}
  0
DIMENSION
  5
16C
100
AcDbEntity
  8
notes
370
               5
390
0
  6
Continuous
 62
               7
100
AcDbDimension
  2
*D15
 10
758.18710790381374
 20
-263.93293445620134
 30
0.0
 11
728.18710790381374
 21
-263.93293445620134
 31
0.0
 71
               5
 72
               1
 41
1.0
 42
0.0
  3
tform線あり
100
AcDbAlignedDimension
 13
698.18710790381374
 23
-363.93293445620134
 33
0.0
 14
758.18710790381374
 24
-373.93293445620128
 34
0.0
100
AcDbRotatedDimension
1001
ACAD
1000
DSTYLE
1002
{
1070
             279
1070
               2
1070
             340
1005
36
1070
             147
1040
5.0
1002
}
  0
DIMENSION
  5
16D
100
AcDbEntity
  8
notes
370
               5
390
0
  6
Continuous
 62
               7
100
AcDbDimension
  2
*D16
 10
280.94197166671626
 20
411.98926342735064
 30
0.0
 11
470.94197166671637
 21
411.98926342735064
 31
0.0
 71
               5
 72
               1
 41
1.0
 42
0.0
  3
tform線あり
100
AcDbAlignedDimension
 13
660.94197166671643
 23
511.98926342735064
 33
0.0
 14
280.94197166671626
 24
511.98926342735064
 34
0.0
100
AcDbRotatedDimension
1001
ACAD
1000
DSTYLE
1002
{
1070
             279
1070
               2
1070
             340
1005
36
1070
             147
1040
5.0
1002
}
  0
DIMENSION
  5
16E
100
AcDbEntity
  8
notes
370
               5
390
0
  6
Continuous
 62
               7
100
AcDbDimension
  2
*D17
 10
760.94197166671643
 20
511.98926342735064
 30
0.0
 11
760.94197166671643
 21
666.98926342735058
 31
0.0
 71
               5
 72
               1
 41
1.0
 42
0.0
  3
tform線あり
100
AcDbAlignedDimension
 13
660.94197166671643
 23
821.98926342735058
 33
0.0
 14
660.94197166671643
 24
511.98926342735064
 34
0.0
 50
90.0
100
AcDbRotatedDimension
1001
ACAD
1000
DSTYLE
1002
{
1070
             279
1070
               2
1070
             340
1005
36
1070
             147
1040
5.0
1002
}
  0
DIMENSION
  5
16F
100
AcDbEntity
  8
notes
370
               5
390
0
  6
Continuous
 62
               7
100
AcDbDimension
  2
*D18
 10
760.94197166671643
 20
821.98926342735058
 30
0.0
 11
760.94197166671643
 21
836.98926342735058
 31
0.0
 71
               5
 72
               1
 41
1.0
 42
0.0
  3
tform線あり
100
AcDbAlignedDimension
 13
660.94197166671643
 23
851.98926342735058
 33
0.0
 14
660.94197166671643
 24
821.98926342735058
 34
0.0
 50
90.0
100
AcDbRotatedDimension
1001
ACAD
1000
DSTYLE
1002
{
1070
             279
1070
               2
1070
             340
1005
36
1070
             147
1040
5.0
1002
}
  0
DIMENSION
  5
170
100
AcDbEntity
  8
notes
370
               5
390
0
  6
Continuous
 62
               7
100
AcDbDimension
  2
*D19
 10
670.94197166671643
 20
286.0
 30
0.0
 11
470.94197166671637
 21
286.0
 31
0.0
 71
               5
 72
               1
 41
1.0
 42
0.0
  3
tform線あり
100
AcDbAlignedDimension
 13
270.94197166671626
 23
406.98926342735064
 33
0.0
 14
670.94197166671643
 24
406.98926342735064
 34
0.0
100
AcDbRotatedDimension
1001
ACAD
1000
DSTYLE
1002
{
1070
             279
1070
               2
1070
             340
1005
36
1070
             147
1040
5.0
1002
}
  0
LWPOLYLINE
  5
171
100
AcDbEntity
  8
FAA70-0515
370
              15
390
0
  6
Continuous
 62
               7
100
AcDbPolyline
 90
        8
 70
             129
 10
-175.79053118839002
 20
841.98926342735058
 42
0.4142135623730942
 10
-185.79053118839002
 20
851.98926342735058
 10
-760.79053118838988
 20
851.98926342735058
 42
0.414213562373095
 10
-770.79053118838988
 20
841.98926342735058
 10
-770.79053118838988
 20
396.98926342735064
 42
0.414213562373095
 10
-760.79053118838988
 20
386.98926342735075
 10
-185.79053118839025
 20
386.98926342735075
 42
0.4142135623730934
 10
-175.79053118839025
 20
396.98926342735075
  0
CIRCLE
  5
172
100
AcDbEntity
  8
FAA70-0515
370
              15
390
0
  6
Continuous
 62
               7
100
AcDbCircle
 10
-473.28777511200167
 20
656.98926342735058
 30
0.0
 40
26.0
  0
CIRCLE
  5
173
100
AcDbEntity
  8
FAA70-0515
370
              15
390
0
  6
Continuous
 62
               7
100
AcDbCircle
 10
-473.28777511200167
 20
656.98926342735058
 30
0.0
 40
37.5
  0
LINE
  5
174
100
AcDbEntity
  8
FAA70-0515
370
              15
390
0
  6
Continuous
 62
               7
100
AcDbLine
 10
-725.79765575056058
 20
421.98926342735069
 30
0.0
 11
-220.79765575056089
 21
421.98926342735069
 31
0.0
  0
LINE
  5
175
100
AcDbEntity
  8
FAA70-0515
370
              15
390
0
  6
Continuous
 62
               7
100
AcDbLine
 10
-725.79765575056058
 20
731.98926342735058
 30
0.0
 11
-220.79765575056089
 21
731.98926342735058
 31
0.0
  0
ARC
  5
176
100
AcDbEntity
  8
FAA70-0515
370
              15
390
0
  6
STYLE_25
 62
               7
100
AcDbCircle
 10
-743.35620027831419
 20
-370.31617682224987
 30
0.0
 40
6.4672253379808389
100
AcDbArc
 50
9.2436895812628634
 51
99.24368958126388
  0
ARC
  5
177
100
AcDbEntity
  8
FAA70-0515
370
              15
390
0
  6
STYLE_25
 62
               7
100
AcDbCircle
 10
-718.1170215514926
 20
-468.3718120769534
 30
0.0
 40
9.9999999999999876
100
AcDbArc
 50
184.9999999999998
 51
266.99999999999966
  0
LINE
  5
178
100
AcDbEntity
  8
FAA70-0515
370
              15
390
0
  6
STYLE_25
 62
               7
100
AcDbLine
 10
-517.44014716921038
 20
-489.00000000000006
 30
0.0
 11
-718.6403811139221
 21
-478.35810742449911
 31
0.0
  0
LINE
  5
179
100
AcDbEntity
  8
FAA70-0515
370
              15
390
0
  6
STYLE_25
 62
               7
100
AcDbLine
 10
-507.07430370205827
 20
-493.93293445620139
 30
0.0
 11
-499.29053118839056
 21
-501.71670696986922
 31
0.0
  0
LINE
  5
17A
100
AcDbEntity
  8
FAA70-0515
370
              15
390
0
  6
STYLE_25
 62
               7
100
AcDbLine
 10
-499.29053118839056
 20
-501.71670696986922
 30
0.0
 11
-447.29053118839056
 21
-501.71670696986922
 31
0.0
  0
LWPOLYLINE
  5
17B
100
AcDbEntity
  8
FAA70-0515
370
              15
390
0
  6
Continuous
 62
               7
100
AcDbPolyline
 90
       14
 70
             129
 10
-175.79053118839019
 20
-373.93293445620117
 42
0.4142135623730934
 10
-185.79053118839019
 20
-363.93293445620134
 10
-760.7905311883901
 20
-363.93293445620134
 42
0.41421356237309
 10
-770.79053118838988
 20
-373.93293445620134
 10
-770.79053118838988
 20
-483.93293445620139
 42
0.414213562373095
 10
-760.79053118838988
 20
-493.93293445620139
 10
-523.2624691693884
 20
-493.93293445620139
 42
-0.3729018752331852
 10
-518.31355915438189
 20
-498.21999009415896
 10
-512.11850213044931
 20
-533.89999999999986
 10
-434.51850213044929
 20
-533.89999999999986
 10
-428.30057613906581
 20
-498.21999009415885
 42
-0.3729018752331553
 10
-423.35166612405925
 20
-493.93293445620139
 10
-186.49065892302391
 20
-493.93293445620139
 42
0.394544270620193
 10
-175.7905311883903
 20
-483.93293445620139
  0
ARC
  5
17C
100
AcDbEntity
  8
FAA70-0515
370
              15
390
0
  6
Continuous
 62
               7
100
AcDbCircle
 10
-725.79765575056058
 20
721.98926342735058
 30
0.0
 40
10.0
100
AcDbArc
 50
90.0
 51
180.0
  0
ARC
  5
17D
100
AcDbEntity
  8
FAA70-0515
370
              15
390
0
  6
Continuous
 62
               7
100
AcDbCircle
 10
-725.79765575056058
 20
431.98926342735069
 30
0.0
 40
10.0
100
AcDbArc
 50
180.0
 51
270.0
  0
ARC
  5
17E
100
AcDbEntity
  8
FAA70-0515
370
              15
390
0
  6
Continuous
 62
               7
100
AcDbCircle
 10
-220.79765575056095
 20
431.98926342735069
 30
0.0
 40
10.0
100
AcDbArc
 50
270.0
 51
0.0
  0
ARC
  5
17F
100
AcDbEntity
  8
FAA70-0515
370
              15
390
0
  6
Continuous
 62
               7
100
AcDbCircle
 10
-220.79765575056095
 20
721.98926342735058
 30
0.0
 40
10.0
100
AcDbArc
 50
0.0
 51
90.0
  0
INSERT
  5
180
100
AcDbEntity
  8
FAA70-0515
390
0
 62
               7
100
AcDbBlockReference
  2
グループ-1
 10
2.7071245621708044
 20
76.876624745208517
 30
0.0
  0
LINE
  5
181
100
AcDbEntity
  8
FAA70-0515
370
              15
390
0
  6
STYLE_25
 62
               7
100
AcDbLine
 10
-439.50675867472285
 20
-493.93293445620139
 30
0.0
 11
-447.29053118839056
 21
-501.71670696986922
 31
0.0
  0
ARC
  5
182
100
AcDbEntity
  8
FAA70-0515
370
              15
390
0
  6
STYLE_25
 62
               7
100
AcDbCircle
 10
637.05691955804036
 20
-370.31617682224987
 30
0.0
 40
6.4672253379808762
100
AcDbArc
 50
80.756310418735154
 51
170.75631041873714
  0
LWPOLYLINE
  5
183
100
AcDbEntity
  8
FAA70-0515
370
              15
390
0
  6
Continuous
 62
               7
100
AcDbPolyline
 90
       17
 70
             129
 10
293.17057144548022
 20
-373.93293445620117
 42
-0.414213562373095
 10
303.17057144548022
 20
-363.93293445620134
 10
748.18710790381374
 20
-363.93293445620128
 42
-0.414213562373095
 10
758.18710790381374
 20
-373.93293445620128
 10
758.18710790381374
 20
-483.93293445620128
 42
-0.414213562373095
 10
748.18710790381374
 20
-493.93293445620128
 10
640.64250942647845
 20
-493.93293445620139
 10
613.18710790381374
 20
-493.93293445620128
 10
613.12876657303241
 20
-493.93293445620128
 42
0.3741658354231952
 10
608.18710790381374
 20
-498.23293445620135
 10
601.94020905420302
 20
-533.89999999999986
 10
524.34020905420311
 20
-533.89999999999986
 10
518.18710790381374
 20
-498.23293445620135
 42
0.3741658354232025
 10
513.2454492345953
 20
-493.93293445620128
 10
513.18710790381374
 20
-493.93293445620128
 10
303.87069918011395
 20
-493.93293445620139
 42
-0.3945442706201916
 10
293.17057144548022
 20
-483.93293445620139
  0
ARC
  5
184
100
AcDbEntity
  8
FAA70-0515
370
              15
390
0
  6
STYLE_25
 62
               7
100
AcDbCircle
 10
320.60490235555591
 20
-370.31617682224987
 30
0.0
 40
6.4672253379808389
100
AcDbArc
 50
9.2436895812628634
 51
99.243689581262885
  0
ARC
  5
185
100
AcDbEntity
  8
FAA70-0515
370
              15
390
0
  6
STYLE_25
 62
               7
100
AcDbCircle
 10
345.8440810823775
 20
-466.89493812234076
 30
0.0
 40
10.000000000000101
100
AcDbArc
 50
184.99999999999974
 51
267.00000000000097
  0
LINE
  5
186
100
AcDbEntity
  8
FAA70-0515
370
              15
390
0
  6
STYLE_25
 62
               7
100
AcDbLine
 10
518.9750901343823
 20
-489.00000000000006
 30
0.0
 11
345.32072151994822
 21
-476.88123346988658
 31
0.0
  0
LINE
  5
187
100
AcDbEntity
  8
FAA70-0515
370
              15
390
0
  6
STYLE_25
 62
               7
100
AcDbLine
 10
596.95434395914799
 20
-493.93293445620139
 30
0.0
 11
563.17057144548016
 21
-493.93293445620139
 31
0.0
  0
LINE
  5
188
100
AcDbEntity
  8
FAA70-0515
370
              15
390
0
  6
STYLE_25
 62
               7
100
AcDbLine
 10
589.17057144548016
 20
-501.71670696986922
 30
0.0
 11
589.17057144548016
 21
-533.89999999999986
 31
0.0
  0
LINE
  5
189
100
AcDbEntity
  8
FAA70-0515
370
              15
390
0
  6
STYLE_25
 62
               7
100
AcDbLine
 10
596.95434395914799
 20
-493.93293445620139
 30
0.0
 11
589.17057144548016
 21
-501.71670696986922
 31
0.0
  0
LINE
  5
18A
100
AcDbEntity
  8
FAA70-0515
370
              15
390
0
  6
Continuous
 62
               7
100
AcDbLine
 10
613.14250942647823
 20
-493.93293445620139
 30
0.0
 11
513.2317063811488
 21
-493.93293445620117
 31
0.0
  0
LINE
  5
18B
100
AcDbEntity
  8
FAA70-0515
370
              15
390
0
  6
STYLE_25
 62
               7
100
AcDbLine
 10
589.17057144548016
 20
-501.71670696986922
 30
0.0
 11
563.17057144548016
 21
-501.71670696986922
 31
0.0
  0
LINE
  5
18C
100
AcDbEntity
  8
FAA70-0515
370
              15
390
0
  6
STYLE_25
 62
               7
100
AcDbLine
 10
529.38679893181256
 20
-493.93293445620139
 30
0.0
 11
563.17057144548016
 21
-493.93293445620139
 31
0.0
  0
LINE
  5
18D
100
AcDbEntity
  8
FAA70-0515
370
              15
390
0
  6
STYLE_25
 62
               7
100
AcDbLine
 10
537.17057144548016
 20
-501.71670696986922
 30
0.0
 11
537.17057144548016
 21
-533.89999999999986
 31
0.0
  0
LINE
  5
18E
100
AcDbEntity
  8
FAA70-0515
370
              15
390
0
  6
STYLE_25
 62
               7
100
AcDbLine
 10
529.38679893181256
 20
-493.93293445620139
 30
0.0
 11
537.17057144548016
 21
-501.71670696986922
 31
0.0
  0
LINE
  5
18F
100
AcDbEntity
  8
FAA70-0515
370
              15
390
0
  6
STYLE_25
 62
               7
100
AcDbLine
 10
537.17057144548016
 20
-501.71670696986922
 30
0.0
 11
563.17057144548016
 21
-501.71670696986922
 31
0.0
  0
LINE
  5
190
100
AcDbEntity
  8
FAA70-0515
370
              15
390
0
  6
STYLE_25
 62
               7
100
AcDbLine
 10
326.98814472160444
 20
-369.27732145767573
 30
0.0
 11
335.88213410145994
 21
-467.76649554981731
 31
0.0
  0
LINE
  5
191
100
AcDbEntity
  8
FAA70-0515
370
              15
390
0
  6
STYLE_25
 62
               7
100
AcDbLine
 10
630.67367719199183
 20
-369.27732145767573
 30
0.0
 11
621.22680545366984
 21
-469.00000000000006
 31
0.0
  0
LINE
  5
192
100
AcDbEntity
  8
FAA70-0515
370
              15
390
0
  6
STYLE_25
 62
               7
100
AcDbLine
 10
-499.29053118839056
 20
-501.71670696986922
 30
0.0
 11
-499.29053118839056
 21
-533.89999999999986
 31
0.0
  0
LINE
  5
193
100
AcDbEntity
  8
FAA70-0515
370
              15
390
0
  6
STYLE_25
 62
               7
100
AcDbLine
 10
-736.97295791226566
 20
-369.27732145767573
 30
0.0
 11
-728.07896853241004
 21
-469.24336950442995
 31
0.0
  0
POLYLINE
  5
194
100
AcDbEntity
  8
FAA70-0515
370
              15
390
0
  6
Continuous
 62
               7
100
AcDb2dPolyline
 66
               1
 10
0.0
 20
0.0
 30
0.0
 70
               1
 75
               5
  0
VERTEX
  5
195
100
AcDbEntity
  8
FAA70-0515
370
              15
390
0
  6
Continuous
 62
               7
100
AcDbVertex
100
AcDb2dVertex
 10
280.94197166671626
 20
821.98926342735058
 30
0.0
  0
VERTEX
  5
196
100
AcDbEntity
  8
FAA70-0515
370
              15
390
0
  6
Continuous
 62
               7
100
AcDbVertex
100
AcDb2dVertex
 10
660.94197166671643
 20
821.98926342735058
 30
0.0
  0
VERTEX
  5
197
100
AcDbEntity
  8
FAA70-0515
370
              15
390
0
  6
Continuous
 62
               7
100
AcDbVertex
100
AcDb2dVertex
 10
660.94197166671643
 20
511.98926342735064
 30
0.0
  0
VERTEX
  5
198
100
AcDbEntity
  8
FAA70-0515
370
              15
390
0
  6
Continuous
 62
               7
100
AcDbVertex
100
AcDb2dVertex
 10
280.94197166671626
 20
511.98926342735064
 30
0.0
  0
SEQEND
  5
199
100
AcDbEntity
  8
FAA70-0515
370
              15
390
0
  6
Continuous
 62
               7
  0
LWPOLYLINE
  5
19A
100
AcDbEntity
  8
FAA70-0515
370
               5
390
0
  6
STYLE_25
 62
               7
100
AcDbPolyline
 90
        8
 70
             129
 10
768.44197166671665
 20
841.98926342735058
 42
0.414213562373095
 10
758.44197166671665
 20
851.98926342735058
 10
183.44197166671637
 20
851.98926342735058
 42
0.414213562373095
 10
173.44197166671637
 20
841.98926342735058
 10
173.44197166671637
 20
396.98926342735064
 42
0.4142135623730967
 10
183.44197166671637
 20
386.98926342735075
 10
758.4419716667162
 20
386.98926342735075
 42
0.4142135623730934
 10
768.4419716667162
 20
396.98926342735075
  0
CIRCLE
  5
19B
100
AcDbEntity
  8
FAA70-0515
370
               5
390
0
  6
STYLE_25
 62
               7
100
AcDbCircle
 10
470.94472774310498
 20
656.98926342735058
 30
0.0
 40
26.0
  0
ARC
  5
19C
100
AcDbEntity
  8
FAA70-0515
370
              15
390
0
  6
STYLE_25
 62
               7
100
AcDbCircle
 10
-518.10451595660925
 20
-503.75369682451122
 30
0.0
 40
14.768647733467619
100
AcDbArc
 50
41.680307973825521
 51
87.42167471603878
  0
ARC
  5
19D
100
AcDbEntity
  8
FAA70-0515
370
              15
390
0
  6
STYLE_25
 62
               7
100
AcDbCircle
 10
-203.22486209846593
 20
-370.31617682224987
 30
0.0
 40
6.4672253379808575
100
AcDbArc
 50
80.756310418736149
 51
170.75631041873714
  0
ARC
  5
19E
100
AcDbEntity
  8
FAA70-0515
370
              15
390
0
  6
STYLE_25
 62
               7
100
AcDbCircle
 10
-228.46404082528753
 20
-468.3718120769534
 30
0.0
 40
9.9999999999999716
100
AcDbArc
 50
273.0000000000004
 51
355.00000000000028
  0
LINE
  5
19F
100
AcDbEntity
  8
FAA70-0515
370
              15
390
0
  6
STYLE_25
 62
               7
100
AcDbLine
 10
-429.14091520757063
 20
-489.00000000000006
 30
0.0
 11
-227.94068126285802
 21
-478.35810742449911
 31
0.0
  0
LINE
  5
1A0
100
AcDbEntity
  8
FAA70-0515
370
              15
390
0
  6
STYLE_25
 62
               7
100
AcDbLine
 10
-439.50675867472285
 20
-493.93293445620139
 30
0.0
 11
-447.29053118839056
 21
-501.71670696986922
 31
0.0
  0
LINE
  5
1A1
100
AcDbEntity
  8
FAA70-0515
370
              15
390
0
  6
STYLE_25
 62
               7
100
AcDbLine
 10
-209.60810446451447
 20
-369.27732145767573
 30
0.0
 11
-218.50209384437008
 21
-469.24336950442995
 31
0.0
  0
ARC
  5
1A2
100
AcDbEntity
  8
FAA70-0515
370
              15
390
0
  6
STYLE_25
 62
               7
100
AcDbCircle
 10
-428.47654642017176
 20
-503.75369682451122
 30
0.0
 40
14.768647733467704
100
AcDbArc
 50
92.578325283961249
 51
138.31969202617466
  0
LINE
  5
1A3
100
AcDbEntity
  8
FAA70-0515
370
              15
390
0
  6
STYLE_25
 62
               7
100
AcDbLine
 10
-447.29053118839056
 20
-501.71670696986922
 30
0.0
 11
-447.29053118839056
 21
-533.89999999999986
 31
0.0
  0
ARC
  5
1A4
100
AcDbEntity
  8
FAA70-0515
370
              15
390
0
  6
STYLE_25
 62
               7
100
AcDbCircle
 10
518.37317831189421
 20
-503.72464158569863
 30
0.0
 40
14.73693888395205
100
AcDbArc
 50
41.638834192823182
 51
87.659174462909832
  0
ARC
  5
1A5
100
AcDbEntity
  8
FAA70-0515
370
              15
390
0
  6
STYLE_25
 62
               7
100
AcDbCircle
 10
607.96796457906612
 20
-503.72464158569863
 30
0.0
 40
14.736938883952064
100
AcDbArc
 50
109.80377859110395
 51
138.3611658071768
  0
ARC
  5
1A6
100
AcDbEntity
  8
FAA70-0515
370
              15
390
0
  6
Continuous
 62
               7
100
AcDbCircle
 10
597.82739624759029
 20
-466.94037554090772
 30
0.0
 40
23.489878758862439
100
AcDbArc
 50
282.65883072048933
 51
354.96976875261691
  0
LINE
  5
1A7
100
AcDbEntity
  8
FAA70-0515
370
              15
390
0
  6
Continuous
 62
               7
100
AcDbLine
 10
715.68710790381374
 20
-363.93293445620134
 30
0.0
 11
715.68710790381374
 21
-378.93293445620134
 31
0.0
  0
LINE
  5
1A8
100
AcDbEntity
  8
FAA70-0515
370
              15
390
0
  6
Continuous
 62
               7
100
AcDbLine
 10
680.68710790381374
 20
-363.93293445620134
 30
0.0
 11
680.68710790381374
 21
-378.93293445620134
 31
0.0
  0
CIRCLE
  5
1A9
100
AcDbEntity
  8
FAA70-0515
370
              15
390
0
  6
Continuous
 62
               7
100
AcDbCircle
 10
270.94197166671626
 20
411.98926342735064
 30
0.0
 40
5.0
  0
CIRCLE
  5
1AA
100
AcDbEntity
  8
FAA70-0515
370
              15
390
0
  6
Continuous
 62
               7
100
AcDbCircle
 10
670.94197166671643
 20
411.98926342735064
 30
0.0
 40
5.0
  0
LINE
  5
1AB
100
AcDbEntity
  8
FAA70-0515
370
              15
390
0
  6
Continuous
 62
               7
100
AcDbLine
 10
680.68710790381374
 20
-363.93293445620134
 30
0.0
 11
680.68710790381374
 21
-378.93293445620134
 31
0.0
  0
LINE
  5
1AC
100
AcDbEntity
  8
FAA70-0515
370
              15
390
0
  6
Continuous
 62
               7
100
AcDbLine
 10
715.68710790381374
 20
-363.93293445620134
 30
0.0
 11
715.68710790381374
 21
-378.93293445620134
 31
0.0
  0
ARC
  5
1AD
100
AcDbEntity
  8
FAA70-0515
370
              15
390
0
  6
STYLE_25
 62
               7
100
AcDbCircle
 10
516.86982359389526
 20
-506.89770047833616
 30
0.0
 40
18.021094018364426
100
AcDbArc
 50
46.006755207114509
 51
83.291253448618647
  0
ARC
  5
1AE
100
AcDbEntity
  8
FAA70-0515
370
              15
390
0
  6
STYLE_25
 62
               7
100
AcDbCircle
 10
609.47131929706507
 20
-506.89770047833616
 30
0.0
 40
18.021094018364344
100
AcDbArc
 50
96.708746551381367
 51
133.99324479288552
  0
ARC
  5
1AF
100
AcDbEntity
  8
FAA70-0515
370
              15
390
0
  6
STYLE_25
 62
               7
100
AcDbCircle
 10
602.20689567429372
 20
-470.82957501197319
 30
0.0
 40
18.771534030106647
100
AcDbArc
 50
281.58022532261498
 51
352.81980619843193
  0
LINE
  5
1B0
100
AcDbEntity
  8
FAA70-0515
370
              15
390
0
  6
Continuous
 62
               7
100
AcDbLine
 10
-523.26246916938817
 20
-493.93293445620139
 30
0.0
 11
-423.35166612405919
 21
-493.93293445620139
 31
0.0
  0
ARC
  5
1B1
100
AcDbEntity
  8
FAA70-0515
370
              15
390
0
  6
STYLE_25
 62
               7
100
AcDbCircle
 10
-519.54541370969741
 20
-506.89770047833616
 30
0.0
 40
18.021094018364309
100
AcDbArc
 50
46.0067552071149
 51
83.291253448619003
  0
ARC
  5
1B2
100
AcDbEntity
  8
FAA70-0515
370
              15
390
0
  6
STYLE_25
 62
               7
100
AcDbCircle
 10
-427.03564866708348
 20
-506.89770047833616
 30
0.0
 40
18.021094018364344
100
AcDbArc
 50
96.708746551381367
 51
133.99324479288552
  0
ARC
  5
1B3
100
AcDbEntity
  8
FAA70-0515
370
              15
390
0
  6
STYLE_25
 62
               7
100
AcDbCircle
 10
-228.46404082528753
 20
-468.3718120769534
 30
0.0
 40
9.9999999999999716
100
AcDbArc
 50
273.0000000000004
 51
355.00000000000028
  0
LINE
  5
1B4
100
AcDbEntity
  8
FAA70-0515
370
              15
390
0
  6
STYLE_25
 62
               7
100
AcDbLine
 10
-429.14091520757063
 20
-489.00000000000006
 30
0.0
 11
-227.94068126285802
 21
-478.35810742449911
 31
0.0
  0
LINE
  5
1B5
100
AcDbEntity
  8
FAA70-0515
370
              15
390
0
  6
STYLE_25
 62
               7
100
AcDbLine
 10
-447.29053118839056
 20
-501.71670696986922
 30
0.0
 11
-447.29053118839056
 21
-533.89999999999986
 31
0.0
  0
ENDSEC
  0
SECTION
  2
OBJECTS
  0
DICTIONARY
  5
19
100
AcDbDictionary
280
               0
281
               1
  3
ACAD_GROUP
350
1A
  3
ACAD_MLINESTYLE
350
1B
  3
ACAD_LAYOUT
350
1E
  3
ACAD_PLOTSETTINGS
350
22
  3
ACAD_PLOTSTYLENAME
350
1F
  0
DICTIONARY
  5
1A
102
{ACAD_REACTORS
330
19
102
}
100
AcDbDictionary
280
               0
281
               1
  0
DICTIONARY
  5
1B
102
{ACAD_REACTORS
330
19
102
}
100
AcDbDictionary
280
               0
281
               1
  3
Standard
350
1C
  0
MLINESTYLE
  5
1C
102
{ACAD_REACTORS
330
1B
102
}
100
AcDbMlineStyle
  2
Standard
 70
               0
  3

 62
               0
 51
90.0
 52
90.0
 71
               2
 49
0.5
 62
             256
  6
ByLayer
 49
-0.5
 62
             256
  6
ByLayer
  0
ACDBDICTIONARYWDFLT
  5
1F
102
{ACAD_REACTORS
330
19
102
}
100
AcDbDictionary
281
               1
  3
Normal
350
1D
100
AcDbDictionaryWithDefault
340
1D
  0
ACDBPLACEHOLDER
  5
1D
102
{ACAD_REACTORS
330
1F
102
}
  0
LAYOUT
  5
20
102
{ACAD_REACTORS
330
1E
102
}
100
AcDbPlotSettings
  1

  2

  4

  6

 40
0.0
 41
0.0
 42
0.0
 43
0.0
 44
0.0
 45
0.0
 46
0.0
 47
0.0
 48
0.0
 49
0.0
140
0.0
141
0.0
142
1.0
143
1.0
 70
            1024
 72
               0
 73
               0
 74
               0
  7

 75
               0
147
1.0
148
0.0
149
0.0
100
AcDbLayout
  1
Model
 70
               0
 71
               0
 10
0.0
 20
0.0
 11
0.0
 21
0.0
 12
0.0
 22
0.0
 32
0.0
 14
0.0
 24
0.0
 34
0.0
 15
0.0
 25
0.0
 35
0.0
146
0.0
 13
0.0
 23
0.0
 33
0.0
 16
0.0
 26
0.0
 36
0.0
 17
0.0
 27
0.0
 37
0.0
 76
               0
330
A
331
0
345
0
346
0
  0
LAYOUT
  5
21
102
{ACAD_REACTORS
330
1E
102
}
100
AcDbPlotSettings
  1

  2

  4

  6

 40
0.0
 41
0.0
 42
0.0
 43
0.0
 44
0.0
 45
0.0
 46
0.0
 47
0.0
 48
0.0
 49
0.0
140
0.0
141
0.0
142
1.0
143
1.0
 70
               0
 72
               0
 73
               0
 74
               0
  7

 75
               0
147
1.0
148
0.0
149
0.0
100
AcDbLayout
  1
Layout1
 70
               0
 71
               0
 10
0.0
 20
0.0
 11
0.0
 21
0.0
 12
0.0
 22
0.0
 32
0.0
 14
0.0
 24
0.0
 34
0.0
 15
0.0
 25
0.0
 35
0.0
146
0.0
 13
0.0
 23
0.0
 33
0.0
 16
0.0
 26
0.0
 36
0.0
 17
0.0
 27
0.0
 37
0.0
 76
               0
330
B
331
0
345
0
346
0
  0
DICTIONARY
  5
1E
102
{ACAD_REACTORS
330
19
102
}
100
AcDbDictionary
280
               0
281
               1
  3
Layout1
350
21
  3
Model
350
20
  0
DICTIONARY
  5
22
102
{ACAD_REACTORS
330
19
102
}
100
AcDbDictionary
280
               0
281
               1
  0
ENDSEC
  0
EOF
