  0
SECTION
  2
HEADER
  9
$ACADVER
  1
AC1015
  9
$ACADMAINTVER
 70
               6
  9
$DWGCODEPAGE
  3
ANSI_932
  9
$INSBASE
 10
0.0
 20
0.0
 30
0.0
  9
$EXTMIN
 10
-975.00000000024124
 20
-1431.5255224711129
 30
-14.428611111111111
  9
$EXTMAX
 10
975.00000000024124
 20
1405.9972926412995
 30
14.428611111111111
  9
$LIMMIN
 10
0.0
 20
0.0
  9
$LIMMAX
 10
0.0
 20
0.0
  9
$ORTHOMODE
 70
               0
  9
$REGENMODE
 70
               1
  9
$FILLMODE
 70
               1
  9
$QTEXTMODE
 70
               0
  9
$MIRRTEXT
 70
               1
  9
$LTSCALE
 40
50.799999999999997
  9
$ATTMODE
 70
               1
  9
$TEXTSIZE
 40
0.2
  9
$TRACEWID
 40
1.0
  9
$TEXTSTYLE
  7
Standard
  9
$CLAYER
  8
FAA70-2201
  9
$CELTYPE
  6
Continuous
  9
$CECOLOR
 62
             256
  9
$CELTSCALE
 40
1.0
  9
$DISPSILH
 70
               0
  9
$DIMSCALE
 40
1.0
  9
$DIMASZ
 40
31.75
  9
$DIMEXO
 40
0.0
  9
$DIMDLI
 40
6.9999999999999396
  9
$DIMRND
 40
0.0
  9
$DIMDLE
 40
0.0
  9
$DIMEXE
 40
19.999999999996199
  9
$DIMTP
 40
0.0
  9
$DIMTM
 40
0.0
  9
$DIMTXT
 40
0.18
  9
$DIMCEN
 40
0.0
  9
$DIMTSZ
 40
0.0
  9
$DIMTOL
 70
               0
  9
$DIMLIM
 70
               0
  9
$DIMTIH
 70
               0
  9
$DIMTOH
 70
               0
  9
$DIMSE1
 70
               0
  9
$DIMSE2
 70
               0
  9
$DIMTAD
 70
               1
  9
$DIMZIN
 70
              11
  9
$DIMBLK
  1
VW_FILLEDARROW
  9
$DIMASO
 70
               1
  9
$DIMSHO
 70
               1
  9
$DIMPOST
  1
<>
  9
$DIMAPOST
  1
[]
  9
$DIMALT
 70
               0
  9
$DIMALTD
 70
               1
  9
$DIMALTF
 40
1.0
  9
$DIMLFAC
 40
1.0
  9
$DIMTOFL
 70
               0
  9
$DIMTVP
 40
0.0
  9
$DIMTIX
 70
               1
  9
$DIMSOXD
 70
               0
  9
$DIMSAH
 70
               0
  9
$DIMBLK1
  1

  9
$DIMBLK2
  1

  9
$DIMSTYLE
  2
JIS
  9
$DIMCLRD
 70
               0
  9
$DIMCLRE
 70
               0
  9
$DIMCLRT
 70
               0
  9
$DIMTFAC
 40
1.0
  9
$DIMGAP
 40
1.00000000000108
  9
$DIMJUST
 70
               0
  9
$DIMSD1
 70
               0
  9
$DIMSD2
 70
               0
  9
$DIMTOLJ
 70
               1
  9
$DIMTZIN
 70
              11
  9
$DIMALTZ
 70
              11
  9
$DIMALTTZ
 70
              11
  9
$DIMUPT
 70
               0
  9
$DIMDEC
 70
               1
  9
$DIMTDEC
 70
               1
  9
$DIMALTU
 70
               2
  9
$DIMALTTD
 70
               2
  9
$DIMTXSTY
  7
Standard
  9
$DIMAUNIT
 70
               0
  9
$DIMADEC
 70
               2
  9
$DIMALTRND
 40
0.0
  9
$DIMAZIN
 70
               0
  9
$DIMDSEP
 70
              46
  9
$DIMATFIT
 70
               0
  9
$DIMFRAC
 70
               2
  9
$DIMLDRBLK
  1

  9
$DIMLUNIT
 70
               2
  9
$DIMLWD
 70
              -2
  9
$DIMLWE
 70
              -2
  9
$DIMTMOVE
 70
               0
  9
$LUNITS
 70
               2
  9
$LUPREC
 70
               4
  9
$SKETCHINC
 40
0.1
  9
$FILLETRAD
 40
0.0
  9
$AUNITS
 70
               0
  9
$AUPREC
 70
               0
  9
$MENU
  1
acad
  9
$ELEVATION
 40
0.0
  9
$PELEVATION
 40
0.0
  9
$THICKNESS
 40
0.0
  9
$LIMCHECK
 70
               0
  9
$CHAMFERA
 40
0.0
  9
$CHAMFERB
 40
0.0
  9
$CHAMFERC
 40
0.0
  9
$CHAMFERD
 40
0.0
  9
$SKPOLY
 70
               0
  9
$TDCREATE
 40
2455982.604780092
  9
$TDUCREATE
 40
0.000000000
  9
$TDUPDATE
 40
2455982.604780092
  9
$TDUUPDATE
 40
0.000000000
  9
$TDINDWG
 40
0.0000000000
  9
$TDUSRTIMER
 40
0.0000000000
  9
$USRTIMER
 70
               1
  9
$ANGBASE
 50
0.0
  9
$ANGDIR
 70
               0
  9
$PDMODE
 70
               1
  9
$PDSIZE
 40
-2.0
  9
$PLINEWID
 40
0.0
  9
$SPLFRAME
 70
               0
  9
$SPLINETYPE
 70
               6
  9
$SPLINESEGS
 70
               8
  9
$HANDSEED
  5
1DF
  9
$SURFTAB1
 70
               6
  9
$SURFTAB2
 70
               6
  9
$SURFTYPE
 70
               6
  9
$SURFU
 70
               6
  9
$SURFV
 70
               6
  9
$UCSBASE
  2

  9
$UCSNAME
  2

  9
$UCSORG
 10
0.0
 20
0.0
 30
0.0
  9
$UCSXDIR
 10
1.0
 20
0.0
 30
0.0
  9
$UCSYDIR
 10
0.0
 20
1.0
 30
0.0
  9
$UCSORTHOREF
  2

  9
$UCSORTHOVIEW
 70
               0
  9
$UCSORGTOP
 10
0.0
 20
0.0
 30
0.0
  9
$UCSORGBOTTOM
 10
0.0
 20
0.0
 30
0.0
  9
$UCSORGLEFT
 10
0.0
 20
0.0
 30
0.0
  9
$UCSORGRIGHT
 10
0.0
 20
0.0
 30
0.0
  9
$UCSORGFRONT
 10
0.0
 20
0.0
 30
0.0
  9
$UCSORGBACK
 10
0.0
 20
0.0
 30
0.0
  9
$PUCSBASE
  2

  9
$PUCSNAME
  2

  9
$PUCSORG
 10
0.0
 20
0.0
 30
0.0
  9
$PUCSXDIR
 10
1.0
 20
0.0
 30
0.0
  9
$PUCSYDIR
 10
0.0
 20
1.0
 30
0.0
  9
$PUCSORTHOREF
  2

  9
$PUCSORTHOVIEW
 70
               0
  9
$PUCSORGTOP
 10
0.0
 20
0.0
 30
0.0
  9
$PUCSORGBOTTOM
 10
0.0
 20
0.0
 30
0.0
  9
$PUCSORGLEFT
 10
0.0
 20
0.0
 30
0.0
  9
$PUCSORGRIGHT
 10
0.0
 20
0.0
 30
0.0
  9
$PUCSORGFRONT
 10
0.0
 20
0.0
 30
0.0
  9
$PUCSORGBACK
 10
0.0
 20
0.0
 30
0.0
  9
$USERI1
 70
               0
  9
$USERI2
 70
               0
  9
$USERI3
 70
               0
  9
$USERI4
 70
               0
  9
$USERI5
 70
               0
  9
$USERR1
 40
0.0
  9
$USERR2
 40
0.0
  9
$USERR3
 40
0.0
  9
$USERR4
 40
0.0
  9
$USERR5
 40
0.0
  9
$WORLDVIEW
 70
               1
  9
$SHADEDGE
 70
               3
  9
$SHADEDIF
 70
              70
  9
$TILEMODE
 70
               1
  9
$MAXACTVP
 70
              64
  9
$PINSBASE
 10
0.0
 20
0.0
 30
0.0
  9
$PLIMCHECK
 70
               0
  9
$PEXTMIN
 10
1.0000000000000000E+20
 20
1.0000000000000000E+20
 30
1.0000000000000000E+20
  9
$PEXTMAX
 10
-1.0000000000000000E+20
 20
-1.0000000000000000E+20
 30
-1.0000000000000000E+20
  9
$PLIMMIN
 10
0.0
 20
0.0
  9
$PLIMMAX
 10
12.0
 20
9.0
  9
$UNITMODE
 70
               0
  9
$VISRETAIN
 70
               0
  9
$PLINEGEN
 70
               1
  9
$PSLTSCALE
 70
               0
  9
$TREEDEPTH
 70
            3020
  9
$CMLSTYLE
  2
Standard
  9
$CMLJUST
 70
               0
  9
$CMLSCALE
 40
1.0
  9
$PROXYGRAPHICS
 70
               0
  9
$MEASUREMENT
 70
               1
  9
$CELWEIGHT
370
               0
  9
$ENDCAPS
280
               0
  9
$JOINSTYLE
280
               0
  9
$LWDISPLAY
290
               1
  9
$INSUNITS
 70
               4
  9
$HYPERLINKBASE
  1

  9
$STYLESHEET
  1

  9
$XEDIT
290
               1
  9
$CEPSNTYPE
380
               0
  9
$PSTYLEMODE
290
               1
  9
$FINGERPRINTGUID
  2

  9
$VERSIONGUID
  2

  9
$EXTNAMES
290
               1
  9
$PSVPSCALE
 40
0.0
  0
ENDSEC
  0
SECTION
  2
CLASSES
  0
CLASS
  1
LWPOLYLINE
  2
AcDbPolyline
  3
AutoCAD 2000
 90
        0
280
               0
281
               1
  0
CLASS
  1
IMAGE
  2
AcDbRasterImage
  3
ISM
 90
      127
280
               0
281
               1
  0
CLASS
  1
OLE2FRAME
  2
AcDbOle2Frame
  3
AutoCAD 2000
 90
        0
280
               0
281
               1
  0
CLASS
  1
HATCH
  2
AcDbHatch
  3
AutoCAD 2000
 90
        0
280
               0
281
               1
  0
CLASS
  1
DICTIONARYVAR
  2
AcDbDictionaryVar
  3
AutoCAD 2000
 90
        0
280
               0
281
               0
  0
CLASS
  1
RASTERVARIABLES
  2
AcDbRasterVariables
  3
ISM
 90
        0
280
               0
281
               0
  0
CLASS
  1
IMAGEDEF
  2
AcDbRasterImageDef
  3
ISM
 90
        0
280
               0
281
               0
  0
CLASS
  1
IMAGEDEF_REACTOR
  2
AcDbRasterImageDefReactor
  3
ISM
 90
        1
280
               0
281
               0
  0
CLASS
  1
IDBUFFER
  2
AcDbIdBuffer
  3
AutoCAD 2000
 90
        0
280
               0
281
               0
  0
CLASS
  1
SPATIAL_FILTER
  2
AcDbSpatialFilter
  3
AutoCAD 2000
 90
        0
280
               0
281
               0
  0
CLASS
  1
XRECORD
  2
AcDbXrecord
  3
AutoCAD 2000
 90
        0
280
               0
281
               0
  0
CLASS
  1
SORTENTSTABLE
  2
AcDbSortentsTable
  3
AutoCAD 2000
 90
        0
280
               0
281
               0
  0
CLASS
  1
LAYER_INDEX
  2
AcDbLayerIndex
  3
AutoCAD 2000
 90
        0
280
               0
281
               0
  0
CLASS
  1
SPATIAL_INDEX
  2
AcDbSpatialIndex
  3
AutoCAD 2000
 90
        0
280
               0
281
               0
  0
CLASS
  1
OBJECT_PTR
  2
CAseDLPNTableRecord
  3
"ASE-LPNTableRecord"
 90
        1
280
               0
281
               0
  0
CLASS
  1
LAYOUT
  2
AcDbLayout
  3
AutoCAD 2000
 90
        0
280
               0
281
               0
  0
CLASS
  1
PLOTSETTINGS
  2
AcDbPlotSettings
  3
AutoCAD 2000
 90
        0
280
               0
281
               0
  0
CLASS
  1
ACDBDICTIONARYWDFLT
  2
AcDbDictionaryWithDefault
  3
AutoCAD 2000
 90
        0
280
               0
281
               0
  0
CLASS
  1
ACDBPLACEHOLDER
  2
AcDbPlaceHolder
  3
AutoCAD 2000
 90
        0
280
               0
281
               0
  0
ENDSEC
  0
SECTION
  2
TABLES
  0
TABLE
  2
VPORT
  5
7
100
AcDbSymbolTable
 70
               1
  0
VPORT
  5
15
100
AcDbSymbolTableRecord
100
AcDbViewportTableRecord
  2
*ACTIVE
 70
               0
 10
0.0
 20
0.0
 11
1.0
 21
1.0
 12
0.0
 22
-12.764114914906713
 13
0.0
 23
0.0
 14
1.0
 24
1.0
 15
0.0
 25
0.0
 16
0.0
 26
0.0
 36
1.0
 17
0.0
 27
0.0
 37
0.0
 40
2837.5228151124124
 41
0.688564
 42
50.0
 43
0.0
 44
0.0
 50
0.0
 51
0.0
 71
               0
 72
            2000
 73
               1
 74
               1
 75
               0
 76
               0
 77
               0
 78
               0
281
               0
 65
               0
110
0.0
120
0.0
130
0.0
111
1.0
121
0.0
131
0.0
112
0.0
122
1.0
132
0.0
345
0
346
0
 79
               0
146
0.0
  0
ENDTAB
  0
TABLE
  2
LTYPE
  5
4
100
AcDbSymbolTable
 70
              17
  0
LTYPE
  5
11
100
AcDbSymbolTableRecord
100
AcDbLinetypeTableRecord
  2
ByBlock
 70
              64
  3

 72
              65
 73
               0
 40
0.0
  0
LTYPE
  5
12
100
AcDbSymbolTableRecord
100
AcDbLinetypeTableRecord
  2
ByLayer
 70
              64
  3

 72
              65
 73
               0
 40
0.0
  0
LTYPE
  5
13
100
AcDbSymbolTableRecord
100
AcDbLinetypeTableRecord
  2
Continuous
 70
              64
  3
Solid line
 72
              65
 73
               0
 40
0.0
  0
LTYPE
  5
39
100
AcDbSymbolTableRecord
100
AcDbLinetypeTableRecord
  2
STYLE_01
 70
               0
  3

 72
              65
 73
               2
 40
0.2460629921259843
 49
0.187007874015748
 74
               0
 49
-0.0590551181102362
 74
               0
  0
LTYPE
  5
3A
100
AcDbSymbolTableRecord
100
AcDbLinetypeTableRecord
  2
STYLE_02
 70
               0
  3

 72
              65
 73
               4
 40
0.0442913385826772
 49
0.0295275590551181
 74
               0
 49
-0.0049212598425197
 74
               0
 49
0.0049212598425197
 74
               0
 49
-0.0049212598425197
 74
               0
  0
LTYPE
  5
3B
100
AcDbSymbolTableRecord
100
AcDbLinetypeTableRecord
  2
STYLE_03
 70
               0
  3

 72
              65
 73
               2
 40
1.25
 49
1.0416400000000001
 74
               0
 49
-0.2083599999999999
 74
               0
  0
LTYPE
  5
3C
100
AcDbSymbolTableRecord
100
AcDbLinetypeTableRecord
  2
STYLE_04
 70
               0
  3

 72
              65
 73
               2
 40
1.5277099999999999
 49
1.3194249999999998
 74
               0
 49
-0.208285
 74
               0
  0
LTYPE
  5
3D
100
AcDbSymbolTableRecord
100
AcDbLinetypeTableRecord
  2
STYLE_05
 70
               0
  3

 72
              65
 73
               2
 40
0.20828
 49
0.069425
 74
               0
 49
-0.138855
 74
               0
  0
LTYPE
  5
3E
100
AcDbSymbolTableRecord
100
AcDbLinetypeTableRecord
  2
STYLE_06
 70
               0
  3

 72
              65
 73
               4
 40
1.0416400000000001
 49
0.625
 74
               0
 49
-0.20828
 74
               0
 49
0.06943
 74
               0
 49
-0.13893
 74
               0
  0
LTYPE
  5
3F
100
AcDbSymbolTableRecord
100
AcDbLinetypeTableRecord
  2
STYLE_07
 70
               0
  3

 72
              65
 73
               6
 40
1.875
 49
0.625
 74
               0
 49
-0.20828
 74
               0
 49
0.6250000000000001
 74
               0
 49
-0.2083599999999999
 74
               0
 49
0.06943
 74
               0
 49
-0.1389299999999999
 74
               0
  0
LTYPE
  5
40
100
AcDbSymbolTableRecord
100
AcDbLinetypeTableRecord
  2
STYLE_08
 70
               0
  3

 72
              65
 73
               6
 40
1.25
 49
0.625
 74
               0
 49
-0.20828
 74
               0
 49
0.06943
 74
               0
 49
-0.13893
 74
               0
 49
0.0694299999999999
 74
               0
 49
-0.13893
 74
               0
  0
LTYPE
  5
41
100
AcDbSymbolTableRecord
100
AcDbLinetypeTableRecord
  2
STYLE_09
 70
               0
  3

 72
              65
 73
               4
 40
5.0
 49
3.75
 74
               0
 49
-0.2777849999999998
 74
               0
 49
0.6944300000000003
 74
               0
 49
-0.2777849999999998
 74
               0
  0
LTYPE
  5
42
100
AcDbSymbolTableRecord
100
AcDbLinetypeTableRecord
  2
STYLE_10
 70
               0
  3

 72
              65
 73
               6
 40
5.9375
 49
3.75
 74
               0
 49
-0.2777849999999998
 74
               0
 49
0.6944300000000003
 74
               0
 49
-0.2777849999999998
 74
               0
 49
0.625
 74
               0
 49
-0.3125
 74
               0
  0
LTYPE
  5
43
100
AcDbSymbolTableRecord
100
AcDbLinetypeTableRecord
  2
STYLE_11
 70
               0
  3

 72
              65
 73
               2
 40
0.0694444881889764
 49
0.0347222440944882
 74
               0
 49
-0.0347222440944882
 74
               0
  0
LTYPE
  5
44
100
AcDbSymbolTableRecord
100
AcDbLinetypeTableRecord
  2
STYLE_12
 70
               0
  3

 72
              65
 73
               2
 40
0.3937007874015748
 49
0.1968503937007874
 74
               0
 49
-0.1968503937007874
 74
               0
  0
LTYPE
  5
45
100
AcDbSymbolTableRecord
100
AcDbLinetypeTableRecord
  2
STYLE_13
 70
               0
  3

 72
              65
 73
               2
 40
0.5905511811023622
 49
0.2952755905511811
 74
               0
 49
-0.2952755905511811
 74
               0
  0
LTYPE
  5
46
100
AcDbSymbolTableRecord
100
AcDbLinetypeTableRecord
  2
STYLE_14
 70
               0
  3

 72
              65
 73
               2
 40
1.9685039370078738
 49
0.9842519685039369
 74
               0
 49
-0.9842519685039369
 74
               0
  0
ENDTAB
  0
TABLE
  2
LAYER
  5
2
100
AcDbSymbolTable
 70
               5
  0
LAYER
  5
14
100
AcDbSymbolTableRecord
100
AcDbLayerTableRecord
  2
0
 70
               0
 62
               7
  6
Continuous
290
               1
370
              -3
390
1D
  0
LAYER
  5
47
100
AcDbSymbolTableRecord
100
AcDbLayerTableRecord
  2
Defpoints
 70
               0
 62
               7
  6
Continuous
290
               0
370
              -3
390
1D
  0
LAYER
  5
48
100
AcDbSymbolTableRecord
100
AcDbLayerTableRecord
  2
template
 70
               0
 62
               7
  6
Continuous
290
               1
370
              -3
390
1D
  0
LAYER
  5
49
100
AcDbSymbolTableRecord
100
AcDbLayerTableRecord
  2
notes
 70
               0
 62
               7
  6
Continuous
290
               1
370
              -3
390
1D
  0
LAYER
  5
4A
100
AcDbSymbolTableRecord
100
AcDbLayerTableRecord
  2
FAA70-2201
 70
               0
 62
               7
  6
Continuous
290
               1
370
              -3
390
1D
  0
ENDTAB
  0
TABLE
  2
STYLE
  5
3
100
AcDbSymbolTable
 70
               2
  0
STYLE
  5
17
100
AcDbSymbolTableRecord
100
AcDbTextStyleTableRecord
  2
Standard
 70
               0
 40
0.0
 41
1.0
 50
0.0
 71
               0
 42
0.0
  3
txt
  4
BIGFONT.SHX
  0
STYLE
  5
38
100
AcDbSymbolTableRecord
100
AcDbTextStyleTableRecord
  2
ＭＳ ゴシック
 70
               0
 40
0.0
 41
1.0
 50
0.0
 71
               0
 42
0.0
  3

  4
ＭＳ ゴシック
1001
ACAD
1000
ＭＳ ゴシック
1071
        0
  0
ENDTAB
  0
TABLE
  2
VIEW
  5
5
100
AcDbSymbolTable
 70
               0
  0
ENDTAB
  0
TABLE
  2
UCS
  5
6
100
AcDbSymbolTable
 70
               0
  0
ENDTAB
  0
TABLE
  2
APPID
  5
8
100
AcDbSymbolTable
 70
               1
  0
APPID
  5
16
100
AcDbSymbolTableRecord
100
AcDbRegAppTableRecord
  2
ACAD
 70
               0
  0
ENDTAB
  0
TABLE
  2
DIMSTYLE
  5
9
100
AcDbSymbolTable
 70
               3
100
AcDbDimStyleTable
 71
               0
  0
DIMSTYLE
105
18
100
AcDbSymbolTableRecord
100
AcDbDimStyleTableRecord
  2
Standard
 70
               0
  3

  4

 40
1.0
 41
0.18
 42
0.0625
 43
0.38
 44
0.18
 45
0.0
 46
0.0
 47
0.0
 48
0.0
 71
               0
 72
               0
 73
               1
 74
               1
 75
               0
 76
               0
 77
               0
 78
               0
 79
               0
140
0.18
141
0.09
142
0.0
143
25.399999999999999
144
1.0
145
0.0
146
1.0
147
0.09
148
0.0
170
               0
171
               2
172
               0
173
               0
174
               0
175
               0
176
               0
177
               0
178
               0
179
               0
271
               4
272
               4
273
               2
274
               2
275
               0
276
               0
277
               2
278
              46
279
               0
280
               0
281
               0
282
               0
283
               1
284
               0
285
               0
286
               0
288
               0
289
               3
340
17
341
0
342
0
343
0
344
0
371
              -2
372
              -2
  0
DIMSTYLE
105
53
100
AcDbSymbolTableRecord
100
AcDbDimStyleTableRecord
  2
tfrom線あり
 70
               0
  3
<>
  4
[]
 40
1.0
 41
3.999755859375
 42
24.999999999999996
 43
0.9999999999999999
 44
0.0
 45
0.0
 46
0.0
 47
0.0
 48
0.0
 71
               0
 72
               0
 73
               0
 74
               0
 75
               0
 76
               0
 77
               1
 78
              11
 79
               0
140
0.18
141
0.0
142
0.0
143
1.0
144
1.0
145
0.0
146
1.0
147
0.4999999999999999
148
0.0
170
               0
171
               1
172
               0
173
               0
174
               1
175
               0
176
               0
177
               0
178
               0
179
               2
271
               1
272
               1
273
               2
274
               2
275
               0
276
               2
277
               2
278
              46
279
               0
280
               0
281
               0
282
               0
283
               1
284
              11
285
              11
286
              11
288
               0
289
               0
340
17
341
4B
342
4B
343
0
344
0
371
              -2
372
              -2
  0
DIMSTYLE
105
58
100
AcDbSymbolTableRecord
100
AcDbDimStyleTableRecord
  2
JIS
 70
               0
  3
<>
  4
[]
 40
1.0
 41
31.75
 42
0.0
 43
6.9999999999999396
 44
19.999999999996199
 45
0.0
 46
0.0
 47
0.0
 48
0.0
 71
               0
 72
               0
 73
               0
 74
               0
 75
               0
 76
               0
 77
               1
 78
              11
 79
               0
140
0.18
141
0.0
142
0.0
143
1.0
144
1.0
145
0.0
146
1.0
147
1.00000000000108
148
0.0
170
               0
171
               1
172
               0
173
               0
174
               1
175
               0
176
               0
177
               0
178
               0
179
               2
271
               1
272
               1
273
               2
274
               2
275
               0
276
               2
277
               2
278
              46
279
               0
280
               0
281
               0
282
               0
283
               1
284
              11
285
              11
286
              11
288
               0
289
               0
340
17
341
54
342
54
343
0
344
0
371
              -2
372
              -2
  0
ENDTAB
  0
TABLE
  2
BLOCK_RECORD
  5
1
100
AcDbSymbolTable
 70
              23
  0
BLOCK_RECORD
  5
A
100
AcDbSymbolTableRecord
100
AcDbBlockTableRecord
  2
*MODEL_SPACE
340
20
  0
BLOCK_RECORD
  5
B
100
AcDbSymbolTableRecord
100
AcDbBlockTableRecord
  2
*PAPER_SPACE
340
21
  0
BLOCK_RECORD
  5
4B
100
AcDbSymbolTableRecord
100
AcDbBlockTableRecord
  2
_DOT
340
0
  0
BLOCK_RECORD
  5
54
100
AcDbSymbolTableRecord
100
AcDbBlockTableRecord
  2
VW_FILLEDARROW
340
0
  0
BLOCK_RECORD
  5
23
100
AcDbSymbolTableRecord
100
AcDbBlockTableRecord
  2
グループ
340
0
102
{BLKREFS
331
162
102
}
  0
BLOCK_RECORD
  5
24
100
AcDbSymbolTableRecord
100
AcDbBlockTableRecord
  2
*D3
340
0
  0
BLOCK_RECORD
  5
25
100
AcDbSymbolTableRecord
100
AcDbBlockTableRecord
  2
*D4
340
0
  0
BLOCK_RECORD
  5
26
100
AcDbSymbolTableRecord
100
AcDbBlockTableRecord
  2
*D5
340
0
  0
BLOCK_RECORD
  5
27
100
AcDbSymbolTableRecord
100
AcDbBlockTableRecord
  2
*D6
340
0
  0
BLOCK_RECORD
  5
28
100
AcDbSymbolTableRecord
100
AcDbBlockTableRecord
  2
*D7
340
0
  0
BLOCK_RECORD
  5
29
100
AcDbSymbolTableRecord
100
AcDbBlockTableRecord
  2
*D8
340
0
  0
BLOCK_RECORD
  5
2A
100
AcDbSymbolTableRecord
100
AcDbBlockTableRecord
  2
*D9
340
0
  0
BLOCK_RECORD
  5
2B
100
AcDbSymbolTableRecord
100
AcDbBlockTableRecord
  2
*D10
340
0
  0
BLOCK_RECORD
  5
2C
100
AcDbSymbolTableRecord
100
AcDbBlockTableRecord
  2
*D11
340
0
  0
BLOCK_RECORD
  5
2D
100
AcDbSymbolTableRecord
100
AcDbBlockTableRecord
  2
*D12
340
0
  0
BLOCK_RECORD
  5
2E
100
AcDbSymbolTableRecord
100
AcDbBlockTableRecord
  2
*D13
340
0
  0
BLOCK_RECORD
  5
2F
100
AcDbSymbolTableRecord
100
AcDbBlockTableRecord
  2
*D14
340
0
  0
BLOCK_RECORD
  5
30
100
AcDbSymbolTableRecord
100
AcDbBlockTableRecord
  2
*D15
340
0
  0
BLOCK_RECORD
  5
31
100
AcDbSymbolTableRecord
100
AcDbBlockTableRecord
  2
*D16
340
0
  0
BLOCK_RECORD
  5
32
100
AcDbSymbolTableRecord
100
AcDbBlockTableRecord
  2
*D17
340
0
  0
BLOCK_RECORD
  5
33
100
AcDbSymbolTableRecord
100
AcDbBlockTableRecord
  2
グループ-1
340
0
102
{BLKREFS
331
1D2
102
}
  0
BLOCK_RECORD
  5
34
100
AcDbSymbolTableRecord
100
AcDbBlockTableRecord
  2
グループ-2
340
0
102
{BLKREFS
331
1D3
102
}
  0
BLOCK_RECORD
  5
35
100
AcDbSymbolTableRecord
100
AcDbBlockTableRecord
  2
*D20
340
0
  0
BLOCK_RECORD
  5
36
100
AcDbSymbolTableRecord
100
AcDbBlockTableRecord
  2
*D21
340
0
  0
BLOCK_RECORD
  5
37
100
AcDbSymbolTableRecord
100
AcDbBlockTableRecord
  2
*D22
340
0
  0
ENDTAB
  0
ENDSEC
  0
SECTION
  2
BLOCKS
  0
BLOCK
  5
D
100
AcDbEntity
  8
0
390
0
100
AcDbBlockBegin
  2
*MODEL_SPACE
 70
               0
 10
0.0
 20
0.0
 30
0.0
  3
*MODEL_SPACE
  1

  0
ENDBLK
  5
E
100
AcDbEntity
  8
0
390
0
100
AcDbBlockEnd
  0
BLOCK
  5
F
100
AcDbEntity
 67
               1
  8
0
390
0
100
AcDbBlockBegin
  2
*PAPER_SPACE
 70
               0
 10
0.0
 20
0.0
 30
0.0
  3
*PAPER_SPACE
  1

  0
ENDBLK
  5
10
100
AcDbEntity
 67
               1
  8
0
390
0
100
AcDbBlockEnd
  0
BLOCK
  5
4C
100
AcDbEntity
  8
0
390
0
100
AcDbBlockBegin
  2
_DOT
 70
               0
 10
0.0
 20
0.0
 30
0.0
  3
_DOT
  1

  0
POLYLINE
  5
4D
100
AcDbEntity
  8
0
370
              -2
390
0
  6
ByBlock
 62
               0
100
AcDb2dPolyline
 66
               1
 10
0.0
 20
0.0
 30
0.0
 70
               1
 40
0.5
 41
0.5
  0
VERTEX
  5
4E
100
AcDbEntity
  8
0
370
              -2
390
0
  6
ByBlock
 62
               0
100
AcDbVertex
100
AcDb2dVertex
 10
-0.25
 20
0.0
 30
0.0
 42
1.0
  0
VERTEX
  5
4F
100
AcDbEntity
  8
0
370
              -2
390
0
  6
ByBlock
 62
               0
100
AcDbVertex
100
AcDb2dVertex
 10
0.25
 20
0.0
 30
0.0
 42
1.0
  0
SEQEND
  5
50
100
AcDbEntity
  8
0
390
0
  0
LINE
  5
51
100
AcDbEntity
  8
0
370
              -2
390
0
  6
ByBlock
 62
               0
100
AcDbLine
 10
-0.5
 20
0.0
 30
0.0
 11
-1.0
 21
0.0
 31
0.0
  0
ENDBLK
  5
52
100
AcDbEntity
  8
0
390
0
100
AcDbBlockEnd
  0
BLOCK
  5
55
100
AcDbEntity
  8
0
370
              -2
390
0
  6
ByBlock
 62
               0
100
AcDbBlockBegin
  2
VW_FILLEDARROW
 70
               0
 10
0.0
 20
0.0
 30
0.0
  3
VW_FILLEDARROW
  1

  0
SOLID
  5
56
100
AcDbEntity
  8
0
370
              -2
390
0
 62
               0
100
AcDbTrace
 10
0.0
 20
0.0
 30
0.0
 11
-0.9921874999999999
 21
-0.2658558393652545
 31
0.0
 12
-0.9921874999999999
 22
0.2658558393652548
 32
0.0
 13
-0.9921874999999999
 23
0.2658558393652548
 33
0.0
  0
ENDBLK
  5
57
100
AcDbEntity
  8
0
390
0
100
AcDbBlockEnd
  0
BLOCK
  5
59
100
AcDbEntity
  8
template
390
0
100
AcDbBlockBegin
  2
グループ
 70
               0
 10
0.0
 20
0.0
 30
0.0
  3
グループ
  1

  0
LWPOLYLINE
  5
5A
100
AcDbEntity
  8
0
370
              15
390
0
  6
Continuous
 62
               7
100
AcDbPolyline
 90
        8
 70
             129
 10
887.42850780307378
 20
-1301.9897210236863
 10
887.42850780307378
 20
-1307.9871097172622
 10
877.92731088507048
 20
-1307.9871097172622
 10
877.92731088507048
 20
-1332.438072980771
 10
869.57193362328769
 20
-1332.438072980771
 10
869.57193362328769
 20
-1307.9871097172622
 10
860.23897667697827
 20
-1307.9871097172622
 10
860.23897667697827
 20
-1301.9897210236863
  0
LWPOLYLINE
  5
5B
100
AcDbEntity
  8
0
370
              15
390
0
  6
Continuous
 62
               7
100
AcDbPolyline
 90
      101
 70
             128
 10
900.15679963363073
 20
-1302.7179695166228
 10
900.17214966241647
 20
-1302.7136087599374
 42
-0.0222221607810403
 10
900.46215423908689
 20
-1302.6449842946931
 10
900.47794800307702
 20
-1302.6419808715968
 42
-0.0146883565589624
 10
900.74065070830466
 20
-1302.5999776846468
 42
-0.0127458844182471
 10
901.00528967545984
 20
-1302.572440716574
 10
901.0677447537704
 20
-1302.5675472939861
 42
-0.0198099018566567
 10
901.45859386324275
 20
-1302.5524621365894
 10
901.51040533269111
 20
-1302.5525159122544
 42
-0.0147617382763458
 10
902.00502879366138
 20
-1302.5676359374993
 10
902.07772024853807
 20
-1302.572008544387
 42
-0.0162624549004477
 10
902.46787387800475
 20
-1302.6082414196594
 10
902.58940626927608
 20
-1302.6235279786574
 42
-0.0080020874659944
 10
902.73498530035545
 20
-1302.6442108259243
 10
902.7733047709537
 20
-1302.6502821037359
 42
-0.0053821929668995
 10
902.84178887626535
 20
-1302.661889627557
 10
902.11538317706675
 20
-1304.8428180832709
 42
0.0108667757393775
 10
902.04806610693981
 20
-1304.8296309680518
 10
902.01059808374634
 20
-1304.8231332254566
 42
0.0170663203304414
 10
901.86738129683283
 20
-1304.8033036281649
 10
901.7995059641479
 20
-1304.7962564575773
 42
0.0220162375274522
 10
901.51912655629349
 20
-1304.7795740968072
 10
901.4412709892423
 20
-1304.7783747295407
 42
0.0282606915785935
 10
901.10563466566259
 20
-1304.7921780065099
 10
901.06172139188232
 20
-1304.7964779965143
 42
0.0169677213693703
 10
900.81579689693126
 20
-1304.8290150460653
 42
0.019057626986474
 10
900.57288893434782
 20
-1304.8791619181725
 10
900.56662974624044
 20
-1304.8807048922811
 42
0.02136856428465
 10
900.31624526176324
 20
-1304.9539051773856
 10
900.31075536684648
 20
-1304.955768173445
 42
0.0237595297598785
 10
900.05726048194708
 20
-1305.0554526953408
 10
900.05215840791811
 20
-1305.0577444708188
 42
0.0261857468816904
 10
899.79998763168965
 20
-1305.1872808081923
 10
899.78956144259996
 20
-1305.1933462826623
 42
0.0272553062020636
 10
899.55313166736278
 20
-1305.3487184886058
 10
899.51836865385212
 20
-1305.3743796366989
 42
0.032599689317835
 10
899.36821331020178
 20
-1305.5011275096695
 10
899.34450388107916
 20
-1305.5239455381818
 42
0.0138050960625186
 10
899.25262072486851
 20
-1305.6173951997339
 42
0.0125280103804572
 10
899.1657781920328
 20
-1305.7155585263367
 10
899.14209774712663
 20
-1305.7437170245214
 42
0.0205218024738714
 10
899.01699767161267
 20
-1305.9055103387507
 10
898.99453133112581
 20
-1305.9371700685774
 42
0.0163110129581096
 10
898.8388209518763
 20
-1306.1725005036444
 10
898.83609705582353
 20
-1306.1769242656328
 42
0.0131897341896451
 10
898.68929653491682
 20
-1306.4300563579989
 10
898.68759643955116
 20
-1306.4331745971331
 42
0.0107895576065643
 10
898.54981973733993
 20
-1306.699389806769
 10
898.54908684781526
 20
-1306.7008840394146
 42
0.0091371507216345
 10
898.42060689916468
 20
-1306.9754092371768
 10
898.39086126775669
 20
-1307.0421157443329
 42
0.0135418326356129
 10
898.21914732868356
 20
-1307.4570535296054
 10
898.1855425202524
 20
-1307.5449196718782
 42
0.0092834542407514
 10
898.01431346032973
 20
-1308.0188181701883
 10
897.98869633261518
 20
-1308.0940592399727
 42
0.005426104358625
 10
897.88105818431927
 20
-1308.421823213047
 10
897.86353219808427
 20
-1308.4772113754591
 42
0.0008225090828572
 10
897.79486214631174
 20
-1308.6954801334261
 10
896.81017301437828
 20
-1311.7203714266827
 10
900.04279685445215
 20
-1311.7203714266827
 10
899.5386044245987
 20
-1313.6248497250351
 10
896.28254814261538
 20
-1313.6248497250351
 10
890.45339911026156
 20
-1332.43807279104
 10
888.62830149995125
 20
-1332.43807279104
 10
894.46297953545218
 20
-1313.6248497250351
 10
892.05786316641183
 20
-1313.6248497250351
 10
892.56205559626528
 20
-1311.7203714266827
 10
894.9906044072153
 20
-1311.7203714266827
 10
895.85075932540394
 20
-1309.0839584259838
 42
-0.0005863560663398
 10
895.88749400353208
 20
-1308.967132005931
 10
895.96358183726784
 20
-1308.7261397063066
 42
-0.0087522378926931
 10
896.16304998072394
 20
-1308.1308636191623
 10
896.25531425613508
 20
-1307.8707234506558
 42
-0.0077400953830903
 10
896.51324791526929
 20
-1307.1777187730991
 10
896.5290128868462
 20
-1307.137287889718
 42
-0.0082369946330889
 10
896.77609735746012
 20
-1306.5332088235173
 42
-0.0085725238365485
 10
897.0433434534599
 20
-1305.9377827842366
 10
897.14497305447105
 20
-1305.7213616822437
 42
-0.0168109410592986
 10
897.43191748320032
 20
-1305.1601541561406
 10
897.55776087368781
 20
-1304.9331901230919
 42
-0.0007817726863264
 10
897.612045223716
 20
-1304.8356458781122
 10
897.61217352974074
 20
-1304.8354161693624
 42
-0.0036626142148636
 10
897.66706139375458
 20
-1304.7388182894072
 42
-0.0080221150688954
 10
897.72418564915847
 20
-1304.6435390546587
 10
897.75488560052247
 20
-1304.594148105532
 42
-0.0202139325570436
 10
897.88254134032934
 20
-1304.4061665048505
 10
897.93660880551681
 20
-1304.3330876406098
 42
-0.0249323791800199
 10
898.1957715992354
 20
-1304.0170423984562
 10
898.21991141336298
 20
-1303.9904281255431
 42
-0.0242132121542739
 10
898.55959215490338
 20
-1303.6505446393405
 10
898.6075037276579
 20
-1303.6070355031509
 42
-0.0251017527859882
 10
898.89148542829639
 20
-1303.374042757388
 10
898.89293090511342
 20
-1303.3729734998067
 42
-0.0130868069036692
 10
899.19119155506746
 20
-1303.1641930312667
 10
899.19275337420913
 20
-1303.1631595909923
 42
-0.0290329526391257
 10
899.50386451560348
 20
-1302.9823340893622
 10
899.53371007759517
 20
-1302.9672317065199
 42
-0.0160250190047021
 10
899.79961449135408
 20
-1302.8432155963096
 42
-0.0267600374781805
 10
900.07489056882275
 20
-1302.7424672757609
 10
900.10162648834375
 20
-1302.7342747169353
 42
-0.0049981587669651
 10
900.15679963363073
 20
-1302.7179695166228
 42
-0.0049981587669651
  0
LWPOLYLINE
  5
5C
100
AcDbEntity
  8
0
370
              15
390
0
  6
Continuous
 62
               7
100
AcDbPolyline
 90
      118
 70
             128
 10
919.97116719807764
 20
-1311.7943547545101
 10
921.8462891225771
 20
-1311.7943547545101
 10
921.00825021697722
 20
-1314.4759212809101
 42
-0.0010587229200936
 10
921.03970603256585
 20
-1314.4390167475349
 10
921.09790012318103
 20
-1314.3710344913791
 42
-0.0071874740408478
 10
921.24827534128178
 20
-1314.2003937993472
 10
921.38999811454141
 20
-1314.044157658037
 42
-0.0148118053516133
 10
921.84012740724484
 20
-1313.5765438120332
 10
921.92734974216171
 20
-1313.4911464911647
 42
-0.0086273358693909
 10
922.26289854316428
 20
-1313.1737708571538
 10
922.30673225938892
 20
-1313.1337212128219
 42
-0.0103138323115046
 10
922.56475596162375
 20
-1312.9075580754825
 10
922.61053036796147
 20
-1312.8690760282132
 42
-0.0060206748561899
 10
922.78337843206305
 20
-1312.727281377468
 10
922.78540956295217
 20
-1312.7256556718341
 42
-0.0067069027296822
 10
922.95770237761144
 20
-1312.5915050380418
 10
922.96025114352653
 20
-1312.5895748681746
 42
-0.0076184352055237
 10
923.13115640940885
 20
-1312.4641999929227
 42
-0.0089652861674211
 10
923.30611737214417
 20
-1312.3445667325893
 10
923.34246909228625
 20
-1312.3206555191082
 42
-0.0156916245933982
 10
923.53842858944836
 20
-1312.2003930326327
 42
-0.0023299011066328
 10
923.73869063340408
 20
-1312.0872150931052
 10
923.75407476580813
 20
-1312.0786150980271
 42
-0.0107669341481493
 10
923.98831159091992
 20
-1311.9542149646722
 10
924.01057639198439
 20
-1311.9429982147276
 42
-0.0078058045902496
 10
924.29416650992323
 20
-1311.8056367590957
 10
924.30407359764627
 20
-1311.8010276312207
 42
-0.0181829330472106
 10
924.61438300226268
 20
-1311.6701638901247
 10
924.66843844482719
 20
-1311.649648770182
 42
-0.0208411536031719
 10
925.01752341227882
 20
-1311.5335583076885
 10
925.03187951240693
 20
-1311.5294398627348
 42
-0.0222799817140097
 10
925.36059930632359
 20
-1311.4507982965947
 10
925.36948826955802
 20
-1311.44908628601
 42
-0.0215509523883539
 10
925.68595923784028
 20
-1311.4021705974751
 10
925.72844119889191
 20
-1311.3977330706839
 42
-0.0182545924866046
 10
925.9625499781946
 20
-1311.3818892452935
 10
926.00195099453958
 20
-1311.3806647002143
 42
-0.0072962856533744
 10
926.15787387423143
 20
-1311.3780953716921
 10
926.18697354481299
 20
-1311.3780405362884
 42
-0.0059227516316074
 10
926.28472304394847
 20
-1311.3790142480789
 10
926.31396526146136
 20
-1311.379652014683
 42
-0.0011833111896107
 10
926.3532165451528
 20
-1311.3806010189921
 10
925.55782994954563
 20
-1313.9193349640911
 42
0.0143932051615904
 10
925.53142856719307
 20
-1313.9091359940453
 10
925.52415659477776
 20
-1313.9065647751886
 42
0.023438860351239
 10
925.48232572884581
 20
-1313.8939455394732
 10
925.47364406593294
 20
-1313.8917645774682
 42
0.0199162742998939
 10
925.41335523185342
 20
-1313.8791478421333
 10
925.39254129404674
 20
-1313.8756506427046
 42
0.0293643550668927
 10
925.28946643528604
 20
-1313.8645005970513
 10
925.2647812545672
 20
-1313.8632889800328
 42
0.0214606686862648
 10
925.1116403386186
 20
-1313.8623504196153
 10
925.10226842779684
 20
-1313.8626953311596
 42
0.0167564054178238
 10
924.93074823668462
 20
-1313.874772373528
 10
924.92228844392935
 20
-1313.8756537139548
 42
0.013767755324126
 10
924.73493513066182
 20
-1313.9004030224987
 10
924.72758339115694
 20
-1313.9015809424664
 42
0.0118497261488564
 10
924.52708562704981
 20
-1313.9385982926567
 10
924.52093561980837
 20
-1313.9398851553756
 42
0.0106421143889457
 10
924.31005473251798
 20
-1313.9887175309516
 10
924.30514592413419
 20
-1313.9899648736355
 42
0.0099746379700907
 10
924.08668745497539
 20
-1314.0501394019491
 10
924.02513941480152
 20
-1314.0684212805809
 42
0.0191613675857945
 10
923.68915495228805
 20
-1314.182398660867
 10
923.60109517954061
 20
-1314.2160855711918
 42
0.0205274080144121
 10
923.21578840763982
 20
-1314.3819139790185
 10
923.15813912566307
 20
-1314.4095819435884
 42
0.0181256912195332
 10
922.89986218499075
 20
-1314.5452657625688
 10
922.84690680168092
 20
-1314.5755833757812
 42
0.0140709242405913
 10
922.70195186704836
 20
-1314.6640780492178
 10
922.67570299843283
 20
-1314.6811348679314
 42
0.008666788439706
 10
922.58677683688734
 20
-1314.7411375358161
 42
0.0036408192015566
 10
922.49934359885367
 20
-1314.8033183936086
 10
922.46411672438535
 20
-1314.8287593395212
 42
0.0052260781280169
 10
922.30788802698908
 20
-1314.9440917261595
 10
922.29168117073482
 20
-1314.9563198367737
 42
0.0050024435902617
 10
922.1056778276635
 20
-1315.0996024050455
 10
922.09035967116074
 20
-1315.1116484274817
 42
0.0136138710280065
 10
921.87991840283462
 20
-1315.2866149323957
 10
921.84625052704178
 20
-1315.3161939051092
 42
0.0172815186916032
 10
921.58184698538219
 20
-1315.5651905777299
 10
921.57928463953681
 20
-1315.5677763948797
 42
0.018940385799497
 10
921.32870284095998
 20
-1315.8405816596812
 10
921.296071347424
 20
-1315.8789255911784
 42
0.0185044199504348
 10
921.1041149084416
 20
-1316.1221741723039
 42
0.0088565243898528
 10
920.92565480181611
 20
-1316.3756905924497
 10
920.91647682216467
 20
-1316.389231972214
 42
0.0157195347232937
 10
920.73325621582921
 20
-1316.678754181532
 10
920.6871732738972
 20
-1316.7569063785547
 42
0.0095451879781117
 10
920.52208772376207
 20
-1317.049501020907
 10
920.51093980482892
 20
-1317.0701716930455
 42
0.0100351706260363
 10
920.37889605567307
 20
-1317.3272272535298
 42
0.0086935915418738
 10
920.25656490387962
 20
-1317.589060398933
 10
920.25324416246463
 20
-1317.5965027219061
 42
0.0072580174859736
 10
920.13289771052166
 20
-1317.8770947134838
 10
920.12963607721326
 20
-1317.8850147395069
 42
0.0060005122618901
 10
920.0104354088686
 20
-1318.1846244101177
 10
920.00722443052905
 20
-1318.192985938017
 42
0.0049017786978488
 10
919.88832427167301
 20
-1318.5119149186173
 10
919.88515846528117
 20
-1318.5206678558516
 42
0.0039415167598005
 10
919.7657221872264
 20
-1318.859209918259
 10
919.76259108457225
 20
-1318.868313119141
 42
0.0031035838764942
 10
919.64178629887431
 20
-1319.2267529809299
 10
919.63867625434887
 20
-1319.2361736022895
 42
0.0025070747150521
 10
919.51577490304146
 20
-1319.6148208192083
 10
919.47848100660804
 20
-1319.7317124844863
 42
0.0029081910283189
 10
919.28646270878585
 20
-1320.3458761428149
 10
919.24565954028026
 20
-1320.4790993850538
 42
0.000926645373279
 10
918.97724216593883
 20
-1321.3613238450653
 10
918.95635469331978
 20
-1321.4304357242299
 42
-0.0005809993667024
 10
918.67901801273376
 20
-1322.3442438308521
 10
918.61273621445082
 20
-1322.5617287630446
 42
-0.0012018708170457
 10
918.46575190503154
 20
-1323.0398914275324
 10
918.41343205343276
 20
-1323.2086505685058
 42
-0.00026910595935
 10
918.36986257229751
 20
-1323.3489181887403
 10
915.53690667400826
 20
-1332.43807279104
 10
913.71891778202973
 20
-1332.43807279104
 10
919.97116719807764
 20
-1311.7943547545101
  0
SPLINE
  5
5D
100
AcDbEntity
  8
0
370
              15
390
0
  6
Continuous
 62
               7
100
AcDbSpline
210
0.0
220
0.0
230
1.0
 70
              13
 71
               2
 72
             782
 73
             779
 74
               0
 42
0.000001
 43
0.000001
 40
0.0
 40
0.0
 40
0.0
 40
1.0
 40
1.0
 40
2.0
 40
2.0
 40
3.0
 40
3.0
 40
4.0
 40
4.0
 40
5.0
 40
5.0
 40
6.0
 40
6.0
 40
7.0
 40
7.0
 40
8.0
 40
8.0
 40
9.0
 40
9.0
 40
10.0
 40
10.0
 40
11.0
 40
11.0
 40
12.0
 40
12.0
 40
13.0
 40
13.0
 40
14.0
 40
14.0
 40
15.0
 40
15.0
 40
16.0
 40
16.0
 40
17.0
 40
17.0
 40
18.0
 40
18.0
 40
19.0
 40
19.0
 40
20.0
 40
20.0
 40
21.0
 40
21.0
 40
22.0
 40
22.0
 40
23.0
 40
23.0
 40
24.0
 40
24.0
 40
25.0
 40
25.0
 40
26.0
 40
26.0
 40
27.0
 40
27.0
 40
28.0
 40
28.0
 40
29.0
 40
29.0
 40
30.0
 40
30.0
 40
31.0
 40
31.0
 40
32.0
 40
32.0
 40
33.0
 40
33.0
 40
34.0
 40
34.0
 40
35.0
 40
35.0
 40
36.0
 40
36.0
 40
37.0
 40
37.0
 40
38.0
 40
38.0
 40
39.0
 40
39.0
 40
40.0
 40
40.0
 40
41.0
 40
41.0
 40
42.0
 40
42.0
 40
43.0
 40
43.0
 40
44.0
 40
44.0
 40
45.0
 40
45.0
 40
46.0
 40
46.0
 40
47.0
 40
47.0
 40
48.0
 40
48.0
 40
49.0
 40
49.0
 40
50.0
 40
50.0
 40
51.0
 40
51.0
 40
52.0
 40
52.0
 40
53.0
 40
53.0
 40
54.0
 40
54.0
 40
55.0
 40
55.0
 40
56.0
 40
56.0
 40
57.0
 40
57.0
 40
58.0
 40
58.0
 40
59.0
 40
59.0
 40
60.0
 40
60.0
 40
61.0
 40
61.0
 40
62.0
 40
62.0
 40
63.0
 40
63.0
 40
64.0
 40
64.0
 40
65.0
 40
65.0
 40
66.0
 40
66.0
 40
67.0
 40
67.0
 40
68.0
 40
68.0
 40
69.0
 40
69.0
 40
70.0
 40
70.0
 40
71.0
 40
71.0
 40
72.0
 40
72.0
 40
73.0
 40
73.0
 40
74.0
 40
74.0
 40
75.0
 40
75.0
 40
76.0
 40
76.0
 40
77.0
 40
77.0
 40
78.0
 40
78.0
 40
79.0
 40
79.0
 40
80.0
 40
80.0
 40
81.0
 40
81.0
 40
82.0
 40
82.0
 40
83.0
 40
83.0
 40
84.0
 40
84.0
 40
85.0
 40
85.0
 40
86.0
 40
86.0
 40
87.0
 40
87.0
 40
88.0
 40
88.0
 40
89.0
 40
89.0
 40
90.0
 40
90.0
 40
91.0
 40
91.0
 40
92.0
 40
92.0
 40
93.0
 40
93.0
 40
94.0
 40
94.0
 40
95.0
 40
95.0
 40
96.0
 40
96.0
 40
97.0
 40
97.0
 40
98.0
 40
98.0
 40
99.0
 40
99.0
 40
100.0
 40
100.0
 40
101.0
 40
101.0
 40
102.0
 40
102.0
 40
103.0
 40
103.0
 40
104.0
 40
104.0
 40
105.0
 40
105.0
 40
106.0
 40
106.0
 40
107.0
 40
107.0
 40
108.0
 40
108.0
 40
109.0
 40
109.0
 40
110.0
 40
110.0
 40
111.0
 40
111.0
 40
112.0
 40
112.0
 40
113.0
 40
113.0
 40
114.0
 40
114.0
 40
115.0
 40
115.0
 40
116.0
 40
116.0
 40
117.0
 40
117.0
 40
118.0
 40
118.0
 40
119.0
 40
119.0
 40
120.0
 40
120.0
 40
121.0
 40
121.0
 40
122.0
 40
122.0
 40
123.0
 40
123.0
 40
124.0
 40
124.0
 40
125.0
 40
125.0
 40
126.0
 40
126.0
 40
127.0
 40
127.0
 40
128.0
 40
128.0
 40
129.0
 40
129.0
 40
130.0
 40
130.0
 40
131.0
 40
131.0
 40
132.0
 40
132.0
 40
133.0
 40
133.0
 40
134.0
 40
134.0
 40
135.0
 40
135.0
 40
136.0
 40
136.0
 40
137.0
 40
137.0
 40
138.0
 40
138.0
 40
139.0
 40
139.0
 40
140.0
 40
140.0
 40
141.0
 40
141.0
 40
142.0
 40
142.0
 40
143.0
 40
143.0
 40
144.0
 40
144.0
 40
145.0
 40
145.0
 40
146.0
 40
146.0
 40
147.0
 40
147.0
 40
148.0
 40
148.0
 40
149.0
 40
149.0
 40
150.0
 40
150.0
 40
151.0
 40
151.0
 40
152.0
 40
152.0
 40
153.0
 40
153.0
 40
154.0
 40
154.0
 40
155.0
 40
155.0
 40
156.0
 40
156.0
 40
157.0
 40
157.0
 40
158.0
 40
158.0
 40
159.0
 40
159.0
 40
160.0
 40
160.0
 40
161.0
 40
161.0
 40
162.0
 40
162.0
 40
163.0
 40
163.0
 40
164.0
 40
164.0
 40
165.0
 40
165.0
 40
166.0
 40
166.0
 40
167.0
 40
167.0
 40
168.0
 40
168.0
 40
169.0
 40
169.0
 40
170.0
 40
170.0
 40
171.0
 40
171.0
 40
172.0
 40
172.0
 40
173.0
 40
173.0
 40
174.0
 40
174.0
 40
175.0
 40
175.0
 40
176.0
 40
176.0
 40
177.0
 40
177.0
 40
178.0
 40
178.0
 40
179.0
 40
179.0
 40
180.0
 40
180.0
 40
181.0
 40
181.0
 40
182.0
 40
182.0
 40
183.0
 40
183.0
 40
184.0
 40
184.0
 40
185.0
 40
185.0
 40
186.0
 40
186.0
 40
187.0
 40
187.0
 40
188.0
 40
188.0
 40
189.0
 40
189.0
 40
190.0
 40
190.0
 40
191.0
 40
191.0
 40
192.0
 40
192.0
 40
193.0
 40
193.0
 40
194.0
 40
194.0
 40
195.0
 40
195.0
 40
196.0
 40
196.0
 40
197.0
 40
197.0
 40
198.0
 40
198.0
 40
199.0
 40
199.0
 40
200.0
 40
200.0
 40
201.0
 40
201.0
 40
202.0
 40
202.0
 40
203.0
 40
203.0
 40
204.0
 40
204.0
 40
205.0
 40
205.0
 40
206.0
 40
206.0
 40
207.0
 40
207.0
 40
208.0
 40
208.0
 40
209.0
 40
209.0
 40
210.0
 40
210.0
 40
211.0
 40
211.0
 40
212.0
 40
212.0
 40
213.0
 40
213.0
 40
214.0
 40
214.0
 40
215.0
 40
215.0
 40
216.0
 40
216.0
 40
217.0
 40
217.0
 40
218.0
 40
218.0
 40
219.0
 40
219.0
 40
220.0
 40
220.0
 40
221.0
 40
221.0
 40
222.0
 40
222.0
 40
223.0
 40
223.0
 40
224.0
 40
224.0
 40
225.0
 40
225.0
 40
226.0
 40
226.0
 40
227.0
 40
227.0
 40
228.0
 40
228.0
 40
229.0
 40
229.0
 40
230.0
 40
230.0
 40
231.0
 40
231.0
 40
232.0
 40
232.0
 40
233.0
 40
233.0
 40
234.0
 40
234.0
 40
235.0
 40
235.0
 40
236.0
 40
236.0
 40
237.0
 40
237.0
 40
238.0
 40
238.0
 40
239.0
 40
239.0
 40
240.0
 40
240.0
 40
241.0
 40
241.0
 40
242.0
 40
242.0
 40
243.0
 40
243.0
 40
244.0
 40
244.0
 40
245.0
 40
245.0
 40
246.0
 40
246.0
 40
247.0
 40
247.0
 40
248.0
 40
248.0
 40
249.0
 40
249.0
 40
250.0
 40
250.0
 40
251.0
 40
251.0
 40
252.0
 40
252.0
 40
253.0
 40
253.0
 40
254.0
 40
254.0
 40
255.0
 40
255.0
 40
256.0
 40
256.0
 40
257.0
 40
257.0
 40
258.0
 40
258.0
 40
259.0
 40
259.0
 40
260.0
 40
260.0
 40
261.0
 40
261.0
 40
262.0
 40
262.0
 40
263.0
 40
263.0
 40
264.0
 40
264.0
 40
265.0
 40
265.0
 40
266.0
 40
266.0
 40
267.0
 40
267.0
 40
268.0
 40
268.0
 40
269.0
 40
269.0
 40
270.0
 40
270.0
 40
271.0
 40
271.0
 40
272.0
 40
272.0
 40
273.0
 40
273.0
 40
274.0
 40
274.0
 40
275.0
 40
275.0
 40
276.0
 40
276.0
 40
277.0
 40
277.0
 40
278.0
 40
278.0
 40
279.0
 40
279.0
 40
280.0
 40
280.0
 40
281.0
 40
281.0
 40
282.0
 40
282.0
 40
283.0
 40
283.0
 40
284.0
 40
284.0
 40
285.0
 40
285.0
 40
286.0
 40
286.0
 40
287.0
 40
287.0
 40
288.0
 40
288.0
 40
289.0
 40
289.0
 40
290.0
 40
290.0
 40
291.0
 40
291.0
 40
292.0
 40
292.0
 40
293.0
 40
293.0
 40
294.0
 40
294.0
 40
295.0
 40
295.0
 40
296.0
 40
296.0
 40
297.0
 40
297.0
 40
298.0
 40
298.0
 40
299.0
 40
299.0
 40
300.0
 40
300.0
 40
301.0
 40
301.0
 40
302.0
 40
302.0
 40
303.0
 40
303.0
 40
304.0
 40
304.0
 40
305.0
 40
305.0
 40
306.0
 40
306.0
 40
307.0
 40
307.0
 40
308.0
 40
308.0
 40
309.0
 40
309.0
 40
310.0
 40
310.0
 40
311.0
 40
311.0
 40
312.0
 40
312.0
 40
313.0
 40
313.0
 40
314.0
 40
314.0
 40
315.0
 40
315.0
 40
316.0
 40
316.0
 40
317.0
 40
317.0
 40
318.0
 40
318.0
 40
319.0
 40
319.0
 40
320.0
 40
320.0
 40
321.0
 40
321.0
 40
322.0
 40
322.0
 40
323.0
 40
323.0
 40
324.0
 40
324.0
 40
325.0
 40
325.0
 40
326.0
 40
326.0
 40
327.0
 40
327.0
 40
328.0
 40
328.0
 40
329.0
 40
329.0
 40
330.0
 40
330.0
 40
331.0
 40
331.0
 40
332.0
 40
332.0
 40
333.0
 40
333.0
 40
334.0
 40
334.0
 40
335.0
 40
335.0
 40
336.0
 40
336.0
 40
337.0
 40
337.0
 40
338.0
 40
338.0
 40
339.0
 40
339.0
 40
340.0
 40
340.0
 40
341.0
 40
341.0
 40
342.0
 40
342.0
 40
343.0
 40
343.0
 40
344.0
 40
344.0
 40
345.0
 40
345.0
 40
346.0
 40
346.0
 40
347.0
 40
347.0
 40
348.0
 40
348.0
 40
349.0
 40
349.0
 40
350.0
 40
350.0
 40
351.0
 40
351.0
 40
352.0
 40
352.0
 40
353.0
 40
353.0
 40
354.0
 40
354.0
 40
355.0
 40
355.0
 40
356.0
 40
356.0
 40
357.0
 40
357.0
 40
358.0
 40
358.0
 40
359.0
 40
359.0
 40
360.0
 40
360.0
 40
361.0
 40
361.0
 40
362.0
 40
362.0
 40
363.0
 40
363.0
 40
364.0
 40
364.0
 40
365.0
 40
365.0
 40
366.0
 40
366.0
 40
367.0
 40
367.0
 40
368.0
 40
368.0
 40
369.0
 40
369.0
 40
370.0
 40
370.0
 40
371.0
 40
371.0
 40
372.0
 40
372.0
 40
373.0
 40
373.0
 40
374.0
 40
374.0
 40
375.0
 40
375.0
 40
376.0
 40
376.0
 40
377.0
 40
377.0
 40
378.0
 40
378.0
 40
379.0
 40
379.0
 40
380.0
 40
380.0
 40
381.0
 40
381.0
 40
382.0
 40
382.0
 40
383.0
 40
383.0
 40
384.0
 40
384.0
 40
385.0
 40
385.0
 40
386.0
 40
386.0
 40
387.0
 40
387.0
 40
388.0
 40
388.0
 40
389.0
 40
389.0
 40
389.0
 10
930.29987164881027
 20
-1311.7834283911477
 30
0.0
 41
1.0
 10
931.11829575753075
 20
-1311.7834283911477
 30
0.0
 41
1.0
 10
931.93671986625122
 20
-1311.7834283911477
 30
0.0
 41
1.0
 10
931.5229661307344
 20
-1313.1260546553974
 30
0.0
 41
1.0
 10
931.1092123952177
 20
-1314.4686809196471
 30
0.0
 41
1.0
 10
931.12755189037534
 20
-1314.4399801467512
 30
0.0
 41
0.9999957264422621
 10
931.14605888721462
 20
-1314.4113870965873
 30
0.0
 41
1.0
 10
931.17648821135276
 20
-1314.3643742182103
 30
0.0
 41
1.0
 10
931.2069175354909
 20
-1314.3173613398333
 30
0.0
 41
1.0
 10
931.28628318059657
 20
-1314.1947425329306
 30
0.0
 41
0.9995394069080895
 10
931.37294157214671
 20
-1314.0771644711913
 30
0.0
 41
1.0
 10
931.40869843440851
 20
-1314.0286495785949
 30
0.0
 41
1.0
 10
931.44445529667041
 20
-1313.9801346859988
 30
0.0
 41
1.0
 10
931.57818196448841
 20
-1313.7986944108725
 30
0.0
 41
0.9994460617143447
 10
931.72368244577467
 20
-1313.6265520132247
 30
0.0
 41
1.0
 10
931.72807062674985
 20
-1313.621360332842
 30
0.0
 41
1.0
 10
931.73245880772504
 20
-1313.616168652459
 30
0.0
 41
1.0
 10
931.86918292706378
 20
-1313.4544096155739
 30
0.0
 41
0.9994359394934154
 10
932.01645715741392
 20
-1313.3021934144106
 30
0.0
 41
1.0
 10
932.01884051136835
 20
-1313.2997300840361
 30
0.0
 41
1.0
 10
932.0212238653229
 20
-1313.2972667536619
 30
0.0
 41
1.0
 10
932.16373138776612
 20
-1313.1499772132454
 30
0.0
 41
0.9995293688568016
 10
932.31500306874761
 20
-1313.0117040010819
 30
0.0
 41
1.0
 10
932.33429682801136
 20
-1312.9940681154303
 30
0.0
 41
1.0
 10
932.35359058727511
 20
-1312.9764322297788
 30
0.0
 41
1.0
 10
932.46627474973218
 20
-1312.8734307889156
 30
0.0
 41
0.9997087614803336
 10
932.5837976386847
 20
-1312.7759865081198
 30
0.0
 41
1.0
 10
932.60296371185632
 20
-1312.7600949296152
 30
0.0
 41
1.0
 10
932.62212978502782
 20
-1312.7442033511104
 30
0.0
 41
1.0
 10
932.70132052763893
 20
-1312.6785422273224
 30
0.0
 41
0.9999595338702408
 10
932.78167979849491
 20
-1312.614316496667
 30
0.0
 41
1.0
 10
932.86203906933747
 20
-1312.5500907660219
 30
0.0
 41
0.9999749417507952
 10
932.94329960367747
 20
-1312.4870092120782
 30
0.0
 41
1.0
 10
932.96428574985578
 20
-1312.4707179247644
 30
0.0
 41
1.0
 10
932.98527189603408
 20
-1312.4544266374503
 30
0.0
 41
1.0
 10
933.06983978133349
 20
-1312.3887776276113
 30
0.0
 41
0.9999792037122447
 10
933.15524738109593
 20
-1312.3242248459728
 30
0.0
 41
1.0
 10
933.17607220705656
 20
-1312.308485023678
 30
0.0
 41
1.0
 10
933.19689703301719
 20
-1312.2927452013832
 30
0.0
 41
1.0
 10
933.24065498093455
 20
-1312.2596720642773
 30
0.0
 41
0.9999993373780438
 10
933.28433666700869
 20
-1312.2264982689053
 30
0.0
 41
1.0
 10
933.32801835315649
 20
-1312.193324473478
 30
0.0
 41
0.9999160953816526
 10
933.37254476408077
 20
-1312.1612934082764
 30
0.0
 41
1.0
 10
933.40536665149557
 20
-1312.1376822526947
 30
0.0
 41
1.0
 10
933.43818853891048
 20
-1312.1140710971131
 30
0.0
 41
1.0
 10
933.54835872466822
 20
-1312.0348177207457
 30
0.0
 41
0.9980964527232241
 10
933.66744771816855
 20
-1311.9697302478896
 30
0.0
 41
1.0
 10
933.70448032509762
 20
-1311.9494902682959
 30
0.0
 41
1.0
 10
933.74151293202658
 20
-1311.9292502887024
 30
0.0
 41
1.0
 10
933.92083994529924
 20
-1311.8312400380016
 30
0.0
 41
0.9984572810573241
 10
934.1099285116577
 20
-1311.7537177766553
 30
0.0
 41
1.0
 10
934.11357478105242
 20
-1311.7522228843177
 30
0.0
 41
1.0
 10
934.11722105044703
 20
-1311.7507279919803
 30
0.0
 41
1.0
 10
934.29901707801582
 20
-1311.6761955153092
 30
0.0
 41
0.9987838528034321
 10
934.48726973657585
 20
-1311.6199298751433
 30
0.0
 41
1.0
 10
934.49150768577397
 20
-1311.6186632214533
 30
0.0
 41
1.0
 10
934.49574563497208
 20
-1311.6173965677633
 30
0.0
 41
1.0
 10
934.67552239513452
 20
-1311.5636642349778
 30
0.0
 41
0.999065281620721
 10
934.85926832685095
 20
-1311.5256605554355
 30
0.0
 41
1.0
 10
934.86445672788409
 20
-1311.5245874523287
 30
0.0
 41
1.0
 10
934.86964512891723
 20
-1311.5235143492218
 30
0.0
 41
1.0
 10
935.04301425856863
 20
-1311.4876568758932
 30
0.0
 41
0.9992909934270214
 10
935.21859002502515
 20
-1311.4649464434269
 30
0.0
 41
1.0
 10
935.39416579148474
 20
-1311.4422360109604
 30
0.0
 41
0.9994553539448856
 10
935.57085722457975
 20
-1311.4311567067539
 30
0.0
 41
1.0
 10
935.60629163237365
 20
-1311.4289348187062
 30
0.0
 41
1.0
 10
935.64172604016755
 20
-1311.4267129306586
 30
0.0
 41
1.0
 10
935.80795180673692
 20
-1311.4162898682468
 30
0.0
 41
0.9990928098292629
 10
935.97446159863989
 20
-1311.4200495094815
 30
0.0
 41
1.0
 10
936.0130234339108
 20
-1311.4209202010143
 30
0.0
 41
1.0
 10
936.0515852691816
 20
-1311.4217908925473
 30
0.0
 41
1.0
 10
936.14097139054172
 20
-1311.4238091507159
 30
0.0
 41
0.9998382089203898
 10
936.23022707332882
 20
-1311.4290412772439
 30
0.0
 41
1.0
 10
936.23065697954735
 20
-1311.4290664781461
 30
0.0
 41
1.0
 10
936.23108688576588
 20
-1311.4290916790483
 30
0.0
 41
1.0
 10
936.31948275611364
 20
-1311.4342734037718
 30
0.0
 41
0.9997558016758242
 10
936.40756333331581
 20
-1311.4433559191384
 30
0.0
 41
1.0
 10
936.40803947174527
 20
-1311.443405016621
 30
0.0
 41
1.0
 10
936.40851561017485
 20
-1311.4434541141036
 30
0.0
 41
1.0
 10
936.49564391051638
 20
-1311.452438434505
 30
0.0
 41
0.9996565144182069
 10
936.58218176385867
 20
-1311.4659757411941
 30
0.0
 41
1.0
 10
936.58264768923425
 20
-1311.4660486269252
 30
0.0
 41
1.0
 10
936.58311361460983
 20
-1311.4661215126562
 30
0.0
 41
1.0
 10
936.66871961719892
 20
-1311.4795130478826
 30
0.0
 41
0.9995321806866945
 10
936.75334669752874
 20
-1311.4981135363123
 30
0.0
 41
1.0
 10
936.75373589210335
 20
-1311.4981990787787
 30
0.0
 41
1.0
 10
936.75412508667807
 20
-1311.4982846212454
 30
0.0
 41
1.0
 10
936.83797377785947
 20
-1311.5167140247424
 30
0.0
 41
0.9993819199219973
 10
936.92032031205292
 20
-1311.5409894080021
 30
0.0
 41
1.0
 10
936.92055874555149
 20
-1311.5410596971117
 30
0.0
 41
1.0
 10
936.92079717904994
 20
-1311.5411299862212
 30
0.0
 41
1.0
 10
937.00266684624955
 20
-1311.565264791263
 30
0.0
 41
0.9992088568505905
 10
937.08235936523738
 20
-1311.5958300270572
 30
0.0
 41
1.0
 10
937.16204035611645
 20
-1311.6263896277906
 30
0.0
 41
0.999022610177347
 10
937.23871102602357
 20
-1311.6638670594052
 30
0.0
 41
1.0
 10
937.3153701678217
 20
-1311.7013388559585
 30
0.0
 41
0.998842427397188
 10
937.38807379503351
 20
-1311.7460036312111
 30
0.0
 41
1.0
 10
937.38834150341313
 20
-1311.7461680952833
 30
0.0
 41
1.0
 10
937.38860921179264
 20
-1311.7463325593558
 30
0.0
 41
1.0
 10
937.46184825576324
 20
-1311.791326262753
 30
0.0
 41
0.9986928844491808
 10
937.53011112247418
 20
-1311.8435619970335
 30
0.0
 41
1.0
 10
937.53069241469655
 20
-1311.8440068102609
 30
0.0
 41
1.0
 10
937.53127370691891
 20
-1311.8444516234886
 30
0.0
 41
1.0
 10
937.60069915807367
 20
-1311.8975769842236
 30
0.0
 41
0.9986007262278484
 10
937.66412532783988
 20
-1311.9577377539167
 30
0.0
 41
1.0
 10
937.66501974329753
 20
-1311.9585861217522
 30
0.0
 41
1.0
 10
937.6659141587553
 20
-1311.9594344895877
 30
0.0
 41
1.0
 10
937.73112915943716
 20
-1312.0212919949524
 30
0.0
 41
0.998558149138257
 10
937.78933677113901
 20
-1312.0897844852238
 30
0.0
 41
1.0
 10
937.79859522473441
 20
-1312.1006788429252
 30
0.0
 41
1.0
 10
937.80785367832982
 20
-1312.1115732006265
 30
0.0
 41
1.0
 10
937.88457819722282
 20
-1312.2018544063012
 30
0.0
 41
0.9970460233520123
 10
937.94657009838249
 20
-1312.3028214904837
 30
0.0
 41
1.0
 10
937.96103946346216
 20
-1312.3263879495653
 30
0.0
 41
1.0
 10
937.97550882854193
 20
-1312.3499544086467
 30
0.0
 41
1.0
 10
938.01524552855358
 20
-1312.4146741326772
 30
0.0
 41
0.998846881663598
 10
938.04859189930528
 20
-1312.4829065851052
 30
0.0
 41
1.0
 10
938.05562792179603
 20
-1312.4973035062412
 30
0.0
 41
1.0
 10
938.06266394428678
 20
-1312.511700427377
 30
0.0
 41
1.0
 10
938.08193827005459
 20
-1312.5511390375282
 30
0.0
 41
0.9998431189997834
 10
938.09980359755173
 20
-1312.5912355919736
 30
0.0
 41
1.0
 10
938.11766892507251
 20
-1312.631332146472
 30
0.0
 41
0.9999989989919825
 10
938.13564764849468
 20
-1312.6713779840559
 30
0.0
 41
1.0
 10
938.14181996007596
 20
-1312.6851262008395
 30
0.0
 41
1.0
 10
938.14799227165724
 20
-1312.6988744176233
 30
0.0
 41
1.0
 10
938.17831561826722
 20
-1312.7664166888314
 30
0.0
 41
0.9998790356323624
 10
938.20652349840748
 20
-1312.8348694407741
 30
0.0
 41
1.0
 10
938.21335867969151
 20
-1312.851456542201
 30
0.0
 41
1.0
 10
938.22019386097566
 20
-1312.868043643628
 30
0.0
 41
1.0
 10
938.24375152335529
 20
-1312.9252115985116
 30
0.0
 41
0.9998227574561068
 10
938.26514027174392
 20
-1312.9832259067875
 30
0.0
 41
1.0
 10
938.286529020133
 20
-1313.0412402150646
 30
0.0
 41
0.9996797971042127
 10
938.30495530509222
 20
-1313.1002623341822
 30
0.0
 41
1.0
 10
938.30885910781785
 20
-1313.1127667923515
 30
0.0
 41
1.0
 10
938.3127629105436
 20
-1313.1252712505209
 30
0.0
 41
1.0
 10
938.33899680095374
 20
-1313.2093022859763
 30
0.0
 41
0.9979274938734414
 10
938.35422132443307
 20
-1313.2960066446374
 30
0.0
 41
1.0
 10
938.35644501169452
 20
-1313.3086706454601
 30
0.0
 41
1.0
 10
938.35866869895597
 20
-1313.3213346462828
 30
0.0
 41
1.0
 10
938.36959863865354
 20
-1313.3835811535696
 30
0.0
 41
0.9994985982138127
 10
938.37656680383066
 20
-1313.4463946547116
 30
0.0
 41
1.0
 10
938.3835349690072
 20
-1313.5092081558503
 30
0.0
 41
0.9996372611202176
 10
938.38711083477517
 20
-1313.572305734534
 30
0.0
 41
1.0
 10
938.38727941226455
 20
-1313.575280351617
 30
0.0
 41
1.0
 10
938.38744798975392
 20
-1313.5782549687003
 30
0.0
 41
1.0
 10
938.39136101050042
 20
-1313.6473017815499
 30
0.0
 41
0.9997730630736568
 10
938.39232932398852
 20
-1313.7164526055867
 30
0.0
 41
1.0
 10
938.39238643040653
 20
-1313.7205307847255
 30
0.0
 41
1.0
 10
938.39244353682466
 20
-1313.7246089638643
 30
0.0
 41
1.0
 10
938.3935260631489
 20
-1313.8019161461852
 30
0.0
 41
0.999877261407179
 10
938.39218597641707
 20
-1313.8792192927526
 30
0.0
 41
1.0
 10
938.39209671321839
 20
-1313.8843684565845
 30
0.0
 41
1.0
 10
938.39200745001972
 20
-1313.8895176204164
 30
0.0
 41
1.0
 10
938.39048883689054
 20
-1313.9771190946485
 30
0.0
 41
0.9999415567326675
 10
938.38707652664471
 20
-1314.0646672563212
 30
0.0
 41
1.0
 10
938.38683520596931
 20
-1314.0708587160607
 30
0.0
 41
1.0
 10
938.38659388529391
 20
-1314.0770501758004
 30
0.0
 41
1.0
 10
938.38269893369772
 20
-1314.1769812569401
 30
0.0
 41
0.9999716810425527
 10
938.37730035057984
 20
-1314.276842395157
 30
0.0
 41
1.0
 10
938.37408755179013
 20
-1314.3362716448335
 30
0.0
 41
1.0
 10
938.37087475300029
 20
-1314.3957008945099
 30
0.0
 41
1.0
 10
938.36280084384873
 20
-1314.545049295773
 30
0.0
 41
0.9999819129907885
 10
938.35293105223195
 20
-1314.6942897734859
 30
0.0
 41
1.0
 10
938.34306126061529
 20
-1314.8435302511973
 30
0.0
 41
1.0
 10
938.34062194005139
 20
-1314.8807232970466
 30
0.0
 41
1.0
 10
938.36332017385212
 20
-1314.841982299768
 30
0.0
 41
0.9999982128085835
 10
938.38616473258605
 20
-1314.8033274058469
 30
0.0
 41
1.0
 10
938.41307429249673
 20
-1314.7577941917477
 30
0.0
 41
1.0
 10
938.43998385240752
 20
-1314.7122609776486
 30
0.0
 41
1.0
 10
938.51664753093746
 20
-1314.5825396555726
 30
0.0
 41
0.9998609190057608
 10
938.59759484380447
 20
-1314.4554472736349
 30
0.0
 41
1.0
 10
938.62724316528397
 20
-1314.4088975406812
 30
0.0
 41
1.0
 10
938.65689148676336
 20
-1314.3623478077277
 30
0.0
 41
1.0
 10
938.73916370700044
 20
-1314.2331752377327
 30
0.0
 41
0.9999067609731119
 10
938.82493271645967
 20
-1314.1062975482987
 30
0.0
 41
1.0
 10
938.82733741965853
 20
-1314.1027402822469
 30
0.0
 41
1.0
 10
938.82974212285728
 20
-1314.0991830161954
 30
0.0
 41
1.0
 10
938.91070172591913
 20
-1313.9794198588638
 30
0.0
 41
0.9998784952147521
 10
938.99535533560515
 20
-1313.8622386421489
 30
0.0
 41
1.0
 10
939.08000894528925
 20
-1313.7450574254365
 30
0.0
 41
0.9998532968283527
 10
939.16862656611488
 20
-1313.6308445169625
 30
0.0
 41
1.0
 10
939.188588355104
 20
-1313.605117195945
 30
0.0
 41
1.0
 10
939.20855014409301
 20
-1313.5793898749275
 30
0.0
 41
1.0
 10
939.32703419385177
 20
-1313.4266842639593
 30
0.0
 41
0.9991551975795854
 10
939.45765864347368
 20
-1313.2842247018773
 30
0.0
 41
1.0
 10
939.46116825945614
 20
-1313.28039710025
 30
0.0
 41
1.0
 10
939.46467787543861
 20
-1313.2765694986228
 30
0.0
 41
1.0
 10
939.58828309309979
 20
-1313.1417651397912
 30
0.0
 41
0.9997418144180517
 10
939.71788523279793
 20
-1313.0127157291813
 30
0.0
 41
1.0
 10
939.84748737249856
 20
-1312.8836663185689
 30
0.0
 41
0.9989238204633339
 10
939.98848992074932
 20
-1312.76718135653
 30
0.0
 41
1.0
 10
940.03373759888791
 20
-1312.729801364922
 30
0.0
 41
1.0
 10
940.0789852770265
 20
-1312.6924213733139
 30
0.0
 41
1.0
 10
940.21922533424947
 20
-1312.5765663200218
 30
0.0
 41
0.9990825084096781
 10
940.36886526685396
 20
-1312.4731373221884
 30
0.0
 41
1.0
 10
940.37891063091251
 20
-1312.4661941091076
 30
0.0
 41
1.0
 10
940.38895599497118
 20
-1312.459250896027
 30
0.0
 41
1.0
 10
940.51850519945981
 20
-1312.3697083243544
 30
0.0
 41
0.999816489982682
 10
940.65138940283418
 20
-1312.2851940828391
 30
0.0
 41
1.0
 10
940.66323496335849
 20
-1312.2776603163143
 30
0.0
 41
1.0
 10
940.67508052388291
 20
-1312.2701265497897
 30
0.0
 41
1.0
 10
940.78427360621026
 20
-1312.2006798413231
 30
0.0
 41
0.9997473449130638
 10
940.89647756345994
 20
-1312.1362108835071
 30
0.0
 41
1.0
 10
941.00868152071303
 20
-1312.0717419256894
 30
0.0
 41
0.9999327861146597
 10
941.12235013147745
 20
-1312.0098919340076
 30
0.0
 41
1.0
 10
941.12290213403583
 20
-1312.0095915753295
 30
0.0
 41
1.0
 10
941.12345413659421
 20
-1312.0092912166517
 30
0.0
 41
1.0
 10
941.23822675247777
 20
-1311.9468405076127
 30
0.0
 41
0.9996956420482848
 10
941.35594007831446
 20
-1311.8901270406395
 30
0.0
 41
1.0
 10
941.38638048320945
 20
-1311.8754610639085
 30
0.0
 41
1.0
 10
941.41682088810455
 20
-1311.8607950871772
 30
0.0
 41
1.0
 10
941.51979799484729
 20
-1311.8111814287342
 30
0.0
 41
0.9998070570177171
 10
941.62464438378947
 20
-1311.7656508418327
 30
0.0
 41
1.0
 10
941.72949077272858
 20
-1311.7201202549325
 30
0.0
 41
0.9997827436148385
 10
941.83614370933651
 20
-1311.6789990836214
 30
0.0
 41
1.0
 10
941.85536655896976
 20
-1311.6715875099883
 30
0.0
 41
1.0
 10
941.87458940860301
 20
-1311.6641759363552
 30
0.0
 41
1.0
 10
942.01968804447449
 20
-1311.6082316177788
 30
0.0
 41
0.9988031841976124
 10
942.16955840707726
 20
-1311.5667315536118
 30
0.0
 41
1.0
 10
942.19447565544215
 20
-1311.5598318078046
 30
0.0
 41
1.0
 10
942.21939290380703
 20
-1311.5529320619971
 30
0.0
 41
1.0
 10
942.38666292945391
 20
-1311.5066139195901
 30
0.0
 41
0.9984748040549661
 10
942.55801983810306
 20
-1311.4790196873253
 30
0.0
 41
1.0
 10
942.56275897435012
 20
-1311.4782565268119
 30
0.0
 41
1.0
 10
942.56749811059728
 20
-1311.4774933662989
 30
0.0
 41
1.0
 10
942.72937674675006
 20
-1311.4514254550604
 30
0.0
 41
0.9984436495479673
 10
942.89315149047684
 20
-1311.4435475012417
 30
0.0
 41
1.0
 10
942.91484869860801
 20
-1311.4425038140421
 30
0.0
 41
1.0
 10
942.93654590673907
 20
-1311.4414601268425
 30
0.0
 41
1.0
 10
943.05692623420123
 20
-1311.435669547423
 30
0.0
 41
0.9987954789335091
 10
943.17729447911131
 20
-1311.4417060751653
 30
0.0
 41
1.0
 10
943.19725927160812
 20
-1311.4427073195038
 30
0.0
 41
1.0
 10
943.21722406410504
 20
-1311.4437085638426
 30
0.0
 41
1.0
 10
943.29766272402367
 20
-1311.4477426029077
 30
0.0
 41
0.9997941595877977
 10
943.37787150211557
 20
-1311.4550366688286
 30
0.0
 41
1.0
 10
943.45808028020781
 20
-1311.4623307347495
 30
0.0
 41
0.9998589466236653
 10
943.53799882706085
 20
-1311.4723145891992
 30
0.0
 41
1.0
 10
943.57040502887116
 20
-1311.4763629461186
 30
0.0
 41
1.0
 10
943.60281123068148
 20
-1311.4804113030382
 30
0.0
 41
1.0
 10
943.74754218115299
 20
-1311.4984918713267
 30
0.0
 41
0.9993495063249656
 10
943.89059342491896
 20
-1311.5269575810682
 30
0.0
 41
1.0
 10
943.92352712207276
 20
-1311.5335110442834
 30
0.0
 41
1.0
 10
943.95646081922644
 20
-1311.5400645074988
 30
0.0
 41
1.0
 10
944.06575464242871
 20
-1311.5618128416338
 30
0.0
 41
0.9996788715560557
 10
944.1738062143836
 20
-1311.5890706409964
 30
0.0
 41
1.0
 10
944.17586921692237
 20
-1311.5895910675692
 30
0.0
 41
1.0
 10
944.17793221946124
 20
-1311.5901114941421
 30
0.0
 41
1.0
 10
944.28185778633986
 20
-1311.6163284403594
 30
0.0
 41
0.9995480654492498
 10
944.38402002156943
 20
-1311.6487433969837
 30
0.0
 41
1.0
 10
944.38570966369957
 20
-1311.649279501898
 30
0.0
 41
1.0
 10
944.3873993058296
 20
-1311.6498156068121
 30
0.0
 41
1.0
 10
944.48618225679979
 20
-1311.6811583536087
 30
0.0
 41
0.9993867959456559
 10
944.58252941524142
 20
-1311.719337722898
 30
0.0
 41
1.0
 10
944.58377236432545
 20
-1311.7198302647939
 30
0.0
 41
1.0
 10
944.58501531340949
 20
-1311.7203228066899
 30
0.0
 41
1.0
 10
944.67887657368237
 20
-1311.7575170921868
 30
0.0
 41
0.9992050256521414
 10
944.7694762487173
 20
-1311.8020709914265
 30
0.0
 41
1.0
 10
944.77021093143037
 20
-1311.8024322838876
 30
0.0
 41
1.0
 10
944.77094561414344
 20
-1311.8027935763487
 30
0.0
 41
1.0
 10
944.8600759237504
 20
-1311.846624890665
 30
0.0
 41
0.9990222350742081
 10
944.94498598514429
 20
-1311.8981581583635
 30
0.0
 41
1.0
 10
944.94516987042664
 20
-1311.8982697612682
 30
0.0
 41
1.0
 10
944.94535375570899
 20
-1311.8983813641728
 30
0.0
 41
1.0
 10
945.02989604653783
 20
-1311.9496914260617
 30
0.0
 41
0.9988642743804804
 10
945.10917058115706
 20
-1312.0088156135871
 30
0.0
 41
1.0
 10
945.18844511577618
 20
-1312.0679398011125
 30
0.0
 41
0.9987681233310622
 10
945.26146890005248
 20
-1312.1346304925137
 30
0.0
 41
1.0
 10
945.26179782801808
 20
-1312.1349308937276
 30
0.0
 41
1.0
 10
945.26212675598367
 20
-1312.1352312949416
 30
0.0
 41
1.0
 10
945.33580839619094
 20
-1312.20252278877
 30
0.0
 41
0.9987496570897659
 10
945.40240220151804
 20
-1312.2768356028566
 30
0.0
 41
1.0
 10
945.40317437127885
 20
-1312.2776972762149
 30
0.0
 41
1.0
 10
945.40394654103966
 20
-1312.2785589495732
 30
0.0
 41
1.0
 10
945.47208468588656
 20
-1312.3545951103742
 30
0.0
 41
0.9988147669827241
 10
945.5325069401116
 20
-1312.4368961172165
 30
0.0
 41
1.0
 10
945.53362626618991
 20
-1312.4384207485698
 30
0.0
 41
1.0
 10
945.53474559226811
 20
-1312.4399453799231
 30
0.0
 41
1.0
 10
945.59740649864898
 20
-1312.5252956494712
 30
0.0
 41
0.9989452636216009
 10
945.6519734116107
 20
-1312.6160343386298
 30
0.0
 41
1.0
 10
945.65332213769602
 20
-1312.6182771196554
 30
0.0
 41
1.0
 10
945.65467086378123
 20
-1312.6205199006808
 30
0.0
 41
1.0
 10
945.71193522891383
 20
-1312.7157441518905
 30
0.0
 41
0.9991046436070094
 10
945.7609444422352
 20
-1312.8154685849156
 30
0.0
 41
1.0
 10
945.7624083038254
 20
-1312.8184472649887
 30
0.0
 41
1.0
 10
945.76387216541559
 20
-1312.8214259450615
 30
0.0
 41
1.0
 10
945.81580910191735
 20
-1312.9271077382321
 30
0.0
 41
0.9992763831100858
 10
945.85956223047356
 20
-1313.0364318001909
 30
0.0
 41
1.0
 10
945.86104150013625
 20
-1313.0401279877228
 30
0.0
 41
1.0
 10
945.86252076979895
 20
-1313.0438241752549
 30
0.0
 41
1.0
 10
945.90923243768088
 20
-1313.1605406122783
 30
0.0
 41
0.9994163472882675
 10
945.94786546887053
 20
-1313.2801742007421
 30
0.0
 41
1.0
 10
945.94910362111727
 20
-1313.2840083445246
 30
0.0
 41
1.0
 10
945.9503417733639
 20
-1313.2878424883072
 30
0.0
 41
1.0
 10
945.99022533438131
 20
-1313.411348549786
 30
0.0
 41
0.9997268055891624
 10
946.02429339029334
 20
-1313.5365835817367
 30
0.0
 41
1.0
 10
946.0252235705633
 20
-1313.5400029478471
 30
0.0
 41
1.0
 10
946.02615375083326
 20
-1313.5434223139575
 30
0.0
 41
1.0
 10
946.05836144620503
 20
-1313.6618186136864
 30
0.0
 41
0.9996701319000735
 10
946.08444706297587
 20
-1313.7817125669508
 30
0.0
 41
1.0
 10
946.11053267974637
 20
-1313.9016065202152
 30
0.0
 41
0.9995785451109353
 10
946.12961625708635
 20
-1314.0228122812478
 30
0.0
 41
1.0
 10
946.1338360392599
 20
-1314.0496134360117
 30
0.0
 41
1.0
 10
946.13805582143345
 20
-1314.0764145907756
 30
0.0
 41
1.0
 10
946.16463079737196
 20
-1314.2452005644791
 30
0.0
 41
0.9979925101217073
 10
946.16965638329839
 20
-1314.4159918925707
 30
0.0
 41
1.0
 10
946.17048119572303
 20
-1314.4440226160505
 30
0.0
 41
1.0
 10
946.17130600814767
 20
-1314.4720533395302
 30
0.0
 41
1.0
 10
946.17468196922493
 20
-1314.5867832206604
 30
0.0
 41
0.9995314902262976
 10
946.17103177708623
 20
-1314.7015047044142
 30
0.0
 41
1.0
 10
946.16738158494786
 20
-1314.8162261881662
 30
0.0
 41
0.999624548694328
 10
946.15745248981671
 20
-1314.930575459291
 30
0.0
 41
1.0
 10
946.15728944182251
 20
-1314.932453215426
 30
0.0
 41
1.0
 10
946.15712639382832
 20
-1314.9343309715607
 30
0.0
 41
1.0
 10
946.14687120270867
 20
-1315.0524357549573
 30
0.0
 41
0.9997286095000997
 10
946.13112587913781
 20
-1315.1699346638479
 30
0.0
 41
1.0
 10
946.13073238648735
 20
-1315.1728710885509
 30
0.0
 41
1.0
 10
946.13033889383689
 20
-1315.1758075132536
 30
0.0
 41
1.0
 10
946.11380658496353
 20
-1315.2991792715595
 30
0.0
 41
0.999826553396965
 10
946.09269112623065
 20
-1315.4218497463494
 30
0.0
 41
1.0
 10
946.09201458409427
 20
-1315.4257801248525
 30
0.0
 41
1.0
 10
946.0913380419579
 20
-1315.4297105033556
 30
0.0
 41
1.0
 10
946.06886949895147
 20
-1315.5602417351565
 30
0.0
 41
0.9999022530852821
 10
946.04276003434234
 20
-1315.6900937037906
 30
0.0
 41
1.0
 10
946.04178139317628
 20
-1315.6949608461814
 30
0.0
 41
1.0
 10
946.04080275201022
 20
-1315.699827988572
 30
0.0
 41
1.0
 10
946.01273600506977
 20
-1315.8394142419838
 30
0.0
 41
0.9999524761940607
 10
945.981953036238
 20
-1315.9784267351349
 30
0.0
 41
1.0
 10
945.98067692906091
 20
-1315.9841894944448
 30
0.0
 41
1.0
 10
945.97940082188381
 20
-1315.9899522537544
 30
0.0
 41
1.0
 10
945.94606563869593
 20
-1316.1404902655329
 30
0.0
 41
0.9999813588718149
 10
945.91089463790172
 20
-1316.2906099781821
 30
0.0
 41
1.0
 10
945.90934071244556
 20
-1316.2972425686032
 30
0.0
 41
1.0
 10
945.90778678698928
 20
-1316.3038751590243
 30
0.0
 41
1.0
 10
945.86950793528126
 20
-1316.4672600525209
 30
0.0
 41
0.9999955237693824
 10
945.83025205730053
 20
-1316.6304129561286
 30
0.0
 41
1.0
 10
945.81797042166579
 20
-1316.681457146653
 30
0.0
 41
1.0
 10
945.80568878603106
 20
-1316.7325013371776
 30
0.0
 41
1.0
 10
945.74186963680961
 20
-1316.9977426217151
 30
0.0
 41
0.9999993604247923
 10
945.67745068963291
 20
-1317.2628388724356
 30
0.0
 41
1.0
 10
945.67273185407635
 20
-1317.2822577805152
 30
0.0
 41
1.0
 10
945.66801301851979
 20
-1317.3016766885949
 30
0.0
 41
1.0
 10
945.59415640025668
 20
-1317.6056107553641
 30
0.0
 41
0.9999659914722716
 10
945.5152968043725
 20
-1317.908285301919
 30
0.0
 41
1.0
 10
945.51034411544265
 20
-1317.9272944390987
 30
0.0
 41
1.0
 10
945.50539142651269
 20
-1317.9463035762781
 30
0.0
 41
1.0
 10
945.41662645276699
 20
-1318.2869963971993
 30
0.0
 41
0.9999441976024436
 10
945.32068341980505
 20
-1318.6257378224923
 30
0.0
 41
1.0
 10
945.30398290137896
 20
-1318.684701535022
 30
0.0
 41
1.0
 10
945.28728238295275
 20
-1318.7436652475517
 30
0.0
 41
1.0
 10
945.15793831314159
 20
-1319.2003340978945
 30
0.0
 41
0.9999625120731799
 10
945.02070554582531
 20
-1319.654694631867
 30
0.0
 41
1.0
 10
944.98491560273942
 20
-1319.7731906585041
 30
0.0
 41
1.0
 10
944.94912565965342
 20
-1319.8916866851412
 30
0.0
 41
1.0
 10
944.87460545561055
 20
-1320.138413763249
 30
0.0
 41
0.9999793386309793
 10
944.7969194324703
 20
-1320.3841624024942
 30
0.0
 41
1.0
 10
944.71923340933267
 20
-1320.6299110417303
 30
0.0
 41
1.0
 10
944.70845385046198
 20
-1320.663928946105
 30
0.0
 41
1.0
 10
942.85808079719277
 20
-1326.5510008685724
 30
0.0
 41
1.0
 10
941.00770774392367
 20
-1332.43807279104
 30
0.0
 41
1.0
 10
940.04645105390011
 20
-1332.43807279104
 30
0.0
 41
1.0
 10
939.08519436387655
 20
-1332.43807279104
 30
0.0
 41
1.0
 10
940.70413914255505
 20
-1327.2900442892505
 30
0.0
 41
1.0
 10
942.32308392123343
 20
-1322.1420157874611
 30
0.0
 41
1.0
 10
942.36824974440219
 20
-1321.997984565209
 30
0.0
 41
1.0
 10
942.41341556757095
 20
-1321.8539533429569
 30
0.0
 41
1.0
 10
942.58371998494454
 20
-1321.3108623137596
 30
0.0
 41
0.9999911657883203
 10
942.74945279662506
 20
-1320.7663587823952
 30
0.0
 41
1.0
 10
942.77914874013277
 20
-1320.6687948423207
 30
0.0
 41
1.0
 10
942.80884468364047
 20
-1320.5712309022463
 30
0.0
 41
1.0
 10
942.91518560831219
 20
-1320.2218552510085
 30
0.0
 41
0.9999952428152467
 10
943.01936919763011
 20
-1319.8718302266821
 30
0.0
 41
1.0
 10
943.02442866795946
 20
-1319.8548319524175
 30
0.0
 41
1.0
 10
943.0294881382888
 20
-1319.8378336781527
 30
0.0
 41
1.0
 10
943.12355278694849
 20
-1319.5218052023542
 30
0.0
 41
0.9999931687519356
 10
943.21527862482878
 20
-1319.2050899890619
 30
0.0
 41
1.0
 10
943.2202138892892
 20
-1319.1880492797877
 30
0.0
 41
1.0
 10
943.22514915374961
 20
-1319.1710085705138
 30
0.0
 41
1.0
 10
943.3070044627068
 20
-1318.8883747757759
 30
0.0
 41
0.9999893840802204
 10
943.38625168915928
 20
-1318.6049986465448
 30
0.0
 41
1.0
 10
943.46549891561995
 20
-1318.321622517285
 30
0.0
 41
0.9999833980058825
 10
943.54147515636305
 20
-1318.0373519342502
 30
0.0
 41
1.0
 10
943.55047909308257
 20
-1318.003663055782
 30
0.0
 41
1.0
 10
943.5594830298021
 20
-1317.969974177314
 30
0.0
 41
1.0
 10
943.62844757866878
 20
-1317.7119383450158
 30
0.0
 41
0.9999233658064241
 10
943.69100254988962
 20
-1317.4522741862918
 30
0.0
 41
1.0
 10
943.75355752110988
 20
-1317.1926100275693
 30
0.0
 41
1.0
 10
943.79304093996745
 20
-1317.0288033631432
 30
0.0
 41
1.0
 10
943.7980195439427
 20
-1317.0081484012808
 30
0.0
 41
1.0
 10
943.80299814791806
 20
-1316.9874934394184
 30
0.0
 41
1.0
 10
943.83252435882378
 20
-1316.8649966987227
 30
0.0
 41
0.9999868670843337
 10
943.8607934428212
 20
-1316.7422037530716
 30
0.0
 41
1.0
 10
943.86469092998129
 20
-1316.7252741656444
 30
0.0
 41
1.0
 10
943.86858841714138
 20
-1316.7083445782171
 30
0.0
 41
1.0
 10
943.8890625268192
 20
-1316.6194108074187
 30
0.0
 41
0.9999778173359377
 10
943.90835012493289
 20
-1316.5302121901957
 30
0.0
 41
1.0
 10
943.92763772304602
 20
-1316.4410135729759
 30
0.0
 41
0.9999602692865862
 10
943.94533208167582
 20
-1316.3514852845549
 30
0.0
 41
1.0
 10
943.94853591375499
 20
-1316.3352748296611
 30
0.0
 41
1.0
 10
943.95173974583429
 20
-1316.3190643747675
 30
0.0
 41
1.0
 10
943.97584176861994
 20
-1316.1971151765711
 30
0.0
 41
0.999561798532118
 10
943.99268511583875
 20
-1316.0739534288666
 30
0.0
 41
1.0
 10
943.99514960574493
 20
-1316.0559326115017
 30
0.0
 41
1.0
 10
943.99761409565099
 20
-1316.037911794137
 30
0.0
 41
1.0
 10
944.01789735669934
 20
-1315.8895967444355
 30
0.0
 41
0.9991121410639935
 10
944.02562271028808
 20
-1315.7401006456253
 30
0.0
 41
1.0
 10
944.02654150031265
 20
-1315.7223208090484
 30
0.0
 41
1.0
 10
944.02746029033722
 20
-1315.7045409724715
 30
0.0
 41
1.0
 10
944.03334806387636
 20
-1315.5906045468182
 30
0.0
 41
0.9989792494905265
 10
944.028928971759
 20
-1315.4766017109205
 30
0.0
 41
1.0
 10
944.02828099989028
 20
-1315.4598854649939
 30
0.0
 41
1.0
 10
944.02763302802168
 20
-1315.4431692190674
 30
0.0
 41
1.0
 10
944.02450987964187
 20
-1315.3625988750255
 30
0.0
 41
0.9997820295393715
 10
944.01802588226599
 20
-1315.2822291532782
 30
0.0
 41
1.0
 10
944.01154188489033
 20
-1315.2018594315336
 30
0.0
 41
0.9998335105973718
 10
944.00212968937922
 20
-1315.1217798150892
 30
0.0
 41
1.0
 10
944.00053476470259
 20
-1315.1082100846036
 30
0.0
 41
1.0
 10
943.99893984002597
 20
-1315.0946403541179
 30
0.0
 41
1.0
 10
943.9863377951616
 20
-1314.9874212767033
 30
0.0
 41
0.9996876457879281
 10
943.96839388236367
 20
-1314.8809658489893
 30
0.0
 41
1.0
 10
943.96616221921818
 20
-1314.8677261137461
 30
0.0
 41
1.0
 10
943.96393055607268
 20
-1314.854486378503
 30
0.0
 41
1.0
 10
943.95013473465121
 20
-1314.7726402345425
 30
0.0
 41
0.9995547496494579
 10
943.9314814127589
 20
-1314.6917627373527
 30
0.0
 41
1.0
 10
943.93110745588729
 20
-1314.6901413266462
 30
0.0
 41
1.0
 10
943.93073349901579
 20
-1314.6885199159397
 30
0.0
 41
1.0
 10
943.91282809086601
 20
-1314.6108852401605
 30
0.0
 41
0.9994899427174968
 10
943.890003182187
 20
-1314.534551957327
 30
0.0
 41
1.0
 10
943.88954465544612
 20
-1314.5330185075381
 30
0.0
 41
1.0
 10
943.88908612870534
 20
-1314.5314850577495
 30
0.0
 41
1.0
 10
943.86717827350776
 20
-1314.4582186744931
 30
0.0
 41
0.9993784877591292
 10
943.84016263840101
 20
-1314.3866779693337
 30
0.0
 41
1.0
 10
943.83963094742421
 20
-1314.3852699866136
 30
0.0
 41
1.0
 10
943.83909925644753
 20
-1314.3838620038935
 30
0.0
 41
1.0
 10
943.81314700329449
 20
-1314.3151372641746
 30
0.0
 41
0.999243083225414
 10
943.78193046813499
 20
-1314.2486381121064
 30
0.0
 41
1.0
 10
943.78134835207811
 20
-1314.2473980569885
 30
0.0
 41
1.0
 10
943.78076623602135
 20
-1314.2461580018708
 30
0.0
 41
1.0
 10
943.7507139329756
 20
-1314.1821389600377
 30
0.0
 41
0.9990789632797715
 10
943.71528330619901
 20
-1314.1209323482885
 30
0.0
 41
1.0
 10
943.71468760001721
 20
-1314.1199032624295
 30
0.0
 41
1.0
 10
943.7140918938353
 20
-1314.1188741765707
 30
0.0
 41
1.0
 10
943.67985267942231
 20
-1314.0597257365389
 30
0.0
 41
0.9988874801120453
 10
943.64019340339019
 20
-1314.0040660241211
 30
0.0
 41
1.0
 10
943.63963787732632
 20
-1314.0032863724468
 30
0.0
 41
1.0
 10
943.63908235126246
 20
-1314.0025067207728
 30
0.0
 41
1.0
 10
943.60053412735851
 20
-1313.9484063117036
 30
0.0
 41
0.9986762060692617
 10
943.55663165608212
 20
-1313.8985525972639
 30
0.0
 41
1.0
 10
943.5561876957504
 20
-1313.8980484554479
 30
0.0
 41
1.0
 10
943.55574373541879
 20
-1313.8975443136319
 30
0.0
 41
1.0
 10
943.51272918480674
 20
-1313.8486988828258
 30
0.0
 41
0.998462164249001
 10
943.46457162802812
 20
-1313.8049155823537
 30
0.0
 41
1.0
 10
943.46432499351158
 20
-1313.8046913501903
 30
0.0
 41
1.0
 10
943.46407835899504
 20
-1313.8044671180267
 30
0.0
 41
1.0
 10
943.4164140712503
 20
-1313.7611322818827
 30
0.0
 41
0.9982724693852555
 10
943.36399543940888
 20
-1313.723687931365
 30
0.0
 41
1.0
 10
943.31157680756746
 20
-1313.6862435808473
 30
0.0
 41
0.9981399180159021
 10
943.25499074417394
 20
-1313.6554570614037
 30
0.0
 41
1.0
 10
943.25494508209556
 20
-1313.6554322182465
 30
0.0
 41
1.0
 10
943.25489942001718
 20
-1313.6554073750895
 30
0.0
 41
1.0
 10
943.19822203246656
 20
-1313.6245711693314
 30
0.0
 41
0.9980927086836041
 10
943.13817668139973
 20
-1313.6009543604789
 30
0.0
 41
1.0
 10
943.13773651168844
 20
-1313.600781234604
 30
0.0
 41
1.0
 10
943.13729634197716
 20
-1313.6006081087291
 30
0.0
 41
1.0
 10
943.07637065148742
 20
-1313.5766450481267
 30
0.0
 41
0.9981411356561567
 10
943.01298213008772
 20
-1313.5602724066212
 30
0.0
 41
1.0
 10
943.01210001338643
 20
-1313.5600445644156
 30
0.0
 41
1.0
 10
943.01121789668514
 20
-1313.5598167222101
 30
0.0
 41
1.0
 10
942.94606514188308
 20
-1313.5429883962938
 30
0.0
 41
0.9983031812935364
 10
942.8793977128887
 20
-1313.5338490351176
 30
0.0
 41
1.0
 10
942.87052668748447
 20
-1313.5326329164461
 30
0.0
 41
1.0
 10
942.86165566208035
 20
-1313.5314167977747
 30
0.0
 41
1.0
 10
942.80730601957623
 20
-1313.5239660677837
 30
0.0
 41
0.998388770826445
 10
942.75246217028325
 20
-1313.5227213941503
 30
0.0
 41
1.0
 10
942.74439876506119
 20
-1313.5225383962752
 30
0.0
 41
1.0
 10
942.73633535983913
 20
-1313.5223553984004
 30
0.0
 41
1.0
 10
942.69761832098584
 20
-1313.5214767205171
 30
0.0
 41
0.9998869563078374
 10
942.65889236778776
 20
-1313.5217625898767
 30
0.0
 41
1.0
 10
942.62016641462913
 20
-1313.5220484592362
 30
0.0
 41
0.9999972320133562
 10
942.58144223546196
 20
-1313.5225165587644
 30
0.0
 41
1.0
 10
942.56208921883808
 20
-1313.5227504988543
 30
0.0
 41
1.0
 10
942.54273620221431
 20
-1313.5229844389441
 30
0.0
 41
1.0
 10
942.46530598984339
 20
-1313.5239204186521
 30
0.0
 41
0.9997304945087696
 10
942.38800268360558
 20
-1313.5284495124383
 30
0.0
 41
1.0
 10
942.37895304190147
 20
-1313.5289797184282
 30
0.0
 41
1.0
 10
942.36990340019747
 20
-1313.5295099244181
 30
0.0
 41
1.0
 10
942.27450081055338
 20
-1313.5350994301839
 30
0.0
 41
0.9997888306415398
 10
942.17940847471323
 20
-1313.5446043946724
 30
0.0
 41
1.0
 10
942.17068741313824
 20
-1313.5454761093047
 30
0.0
 41
1.0
 10
942.16196635156325
 20
-1313.5463478239371
 30
0.0
 41
1.0
 10
942.04943189257574
 20
-1313.5575962176906
 30
0.0
 41
0.9984170238191107
 10
941.93887274522569
 20
-1313.581412299626
 30
0.0
 41
1.0
 10
941.90249161423844
 20
-1313.5892493354322
 30
0.0
 41
1.0
 10
941.86611048325108
 20
-1313.5970863712384
 30
0.0
 41
1.0
 10
941.75091941482924
 20
-1313.6219002377482
 30
0.0
 41
0.997659285419957
 10
941.64019124842446
 20
-1313.6621989148953
 30
0.0
 41
1.0
 10
941.52946308202138
 20
-1313.7024975920417
 30
0.0
 41
0.9993255074352812
 10
941.42199128323136
 20
-1313.7508144905337
 30
0.0
 41
1.0
 10
941.41736610430667
 20
-1313.752893866734
 30
0.0
 41
1.0
 10
941.41274092538208
 20
-1313.7549732429343
 30
0.0
 41
1.0
 10
941.29601876874585
 20
-1313.8074488938257
 30
0.0
 41
0.9976475078275884
 10
941.18757142443621
 20
-1313.8753968834835
 30
0.0
 41
1.0
 10
941.16922903030058
 20
-1313.8868893622985
 30
0.0
 41
1.0
 10
941.15088663616496
 20
-1313.8983818411136
 30
0.0
 41
1.0
 10
941.06668444461422
 20
-1313.951138961881
 30
0.0
 41
0.9995131336406681
 10
940.98593672965512
 20
-1314.0090451738354
 30
0.0
 41
1.0
 10
940.90518901469852
 20
-1314.0669513857881
 30
0.0
 41
0.9995810107606319
 10
940.82792736696808
 20
-1314.1294330682554
 30
0.0
 41
1.0
 10
940.82495733575843
 20
-1314.1318349397195
 30
0.0
 41
1.0
 10
940.82198730454877
 20
-1314.1342368111837
 30
0.0
 41
1.0
 10
940.73878559439663
 20
-1314.201522236581
 30
0.0
 41
0.9996617837953967
 10
940.65919490725992
 20
-1314.2730426921426
 30
0.0
 41
1.0
 10
940.64706415638648
 20
-1314.28394342513
 30
0.0
 41
1.0
 10
940.63493340551292
 20
-1314.2948441581177
 30
0.0
 41
1.0
 10
940.56665787811255
 20
-1314.3561967735934
 30
0.0
 41
0.9997267750052014
 10
940.50132436982926
 20
-1314.4206733101182
 30
0.0
 41
1.0
 10
940.43599086154427
 20
-1314.4851498466448
 30
0.0
 41
0.9999667288959017
 10
940.37171791839592
 20
-1314.5506836535412
 30
0.0
 41
1.0
 10
940.30289047062229
 20
-1314.6208613122981
 30
0.0
 41
1.0
 10
940.23406302284866
 20
-1314.6910389710547
 30
0.0
 41
1.0
 10
940.0321351841518
 20
-1314.8969280954657
 30
0.0
 41
0.9988205335175101
 10
939.85112956717319
 20
-1315.1214323275251
 30
0.0
 41
1.0
 10
939.82048960226803
 20
-1315.1594355779555
 30
0.0
 41
1.0
 10
939.78984963736298
 20
-1315.1974388283859
 30
0.0
 41
1.0
 10
939.54756409057381
 20
-1315.497949561307
 30
0.0
 41
0.999707782675477
 10
939.32008613947062
 20
-1315.8098193555204
 30
0.0
 41
1.0
 10
939.31836272433929
 20
-1315.8121821389011
 30
0.0
 41
1.0
 10
939.31663930920797
 20
-1315.8145449222818
 30
0.0
 41
1.0
 10
939.08571452784292
 20
-1316.1311402832557
 30
0.0
 41
0.9989147567079155
 10
938.88525102495873
 20
-1316.4678497444413
 30
0.0
 41
1.0
 10
938.86050987965132
 20
-1316.5094063249946
 30
0.0
 41
1.0
 10
938.83576873434379
 20
-1316.550962905548
 30
0.0
 41
1.0
 10
938.68055743570653
 20
-1316.8116642900006
 30
0.0
 41
0.9997476598182322
 10
938.53721244819747
 20
-1317.0790740385821
 30
0.0
 41
1.0
 10
938.39386746068726
 20
-1317.3464837871657
 30
0.0
 41
0.9996258967110142
 10
938.26535920875506
 20
-1317.6213317237909
 30
0.0
 41
1.0
 10
938.25215929930482
 20
-1317.6495631238877
 30
0.0
 41
1.0
 10
938.23895938985447
 20
-1317.6777945239846
 30
0.0
 41
1.0
 10
938.09875066885456
 20
-1317.9776669219377
 30
0.0
 41
0.9998735413946184
 10
937.96814932213636
 20
-1318.2818465214009
 30
0.0
 41
1.0
 10
937.96470649407684
 20
-1318.2898651068633
 30
0.0
 41
1.0
 10
937.96126366601732
 20
-1318.2978836923257
 30
0.0
 41
1.0
 10
937.83754797541928
 20
-1318.5860261208611
 30
0.0
 41
0.9999377418861721
 10
937.72029317324132
 20
-1318.8768575885438
 30
0.0
 41
1.0
 10
937.60303837106517
 20
-1319.1676890562217
 30
0.0
 41
0.9999508299501912
 10
937.49157442768421
 20
-1319.4607887330524
 30
0.0
 41
1.0
 10
937.48849365902402
 20
-1319.4688897590104
 30
0.0
 41
1.0
 10
937.4854128903637
 20
-1319.4769907849686
 30
0.0
 41
1.0
 10
937.36778740965929
 20
-1319.7862925137238
 30
0.0
 41
0.9999609228434334
 10
937.25564880678189
 20
-1320.0976255297487
 30
0.0
 41
1.0
 10
937.25269279643499
 20
-1320.1058323701504
 30
0.0
 41
1.0
 10
937.24973678608819
 20
-1320.1140392105522
 30
0.0
 41
1.0
 10
937.13168616251744
 20
-1320.4417859073799
 30
0.0
 41
0.9999674607407316
 10
937.01893863644614
 20
-1320.7713945273836
 30
0.0
 41
1.0
 10
936.9675402458854
 20
-1320.92165372307
 30
0.0
 41
1.0
 10
936.91614185532478
 20
-1321.0719129187567
 30
0.0
 41
1.0
 10
936.80013124856384
 20
-1321.4110609012689
 30
0.0
 41
0.9999287532307746
 10
936.69224984459311
 20
-1321.7528816402446
 30
0.0
 41
1.0
 10
936.64577258841575
 20
-1321.9001441847367
 30
0.0
 41
1.0
 10
936.5992953322384
 20
-1322.0474067292291
 30
0.0
 41
1.0
 10
936.58436844055359
 20
-1322.0947023794381
 30
0.0
 41
0.9999998223993252
 10
936.56949793189199
 20
-1322.1420157874611
 30
0.0
 41
1.0
 10
934.94884179509654
 20
-1327.2900442892505
 30
0.0
 41
1.0
 10
933.32818565830109
 20
-1332.43807279104
 30
0.0
 41
1.0
 10
932.42287721441016
 20
-1332.43807279104
 30
0.0
 41
1.0
 10
931.51756877051923
 20
-1332.43807279104
 30
0.0
 41
1.0
 10
933.36965318190528
 20
-1326.5510008685724
 30
0.0
 41
1.0
 10
935.22173759329132
 20
-1320.663928946105
 30
0.0
 41
1.0
 10
935.23185935159404
 20
-1320.6318857326553
 30
0.0
 41
1.0
 10
935.30446702044378
 20
-1320.4015861908294
 30
0.0
 41
1.0
 10
935.3770746892925
 20
-1320.171286649007
 30
0.0
 41
0.9999825681976442
 10
935.44695772850332
 20
-1319.9401457539443
 30
0.0
 41
1.0
 10
935.4952487906661
 20
-1319.7804211704417
 30
0.0
 41
1.0
 10
935.54353985282887
 20
-1319.6206965869392
 30
0.0
 41
1.0
 10
935.64069220614147
 20
-1319.2993613651781
 30
0.0
 41
0.999967252896698
 10
935.73263101176587
 20
-1318.9764958195888
 30
0.0
 41
1.0
 10
935.7354198954348
 20
-1318.9667019742017
 30
0.0
 41
1.0
 10
935.73820877910373
 20
-1318.9569081288146
 30
0.0
 41
1.0
 10
935.82456981738892
 20
-1318.6536302740028
 30
0.0
 41
0.9999899749144261
 10
935.90821142692391
 20
-1318.3495911855498
 30
0.0
 41
1.0
 10
935.9183173459403
 20
-1318.3128559478755
 30
0.0
 41
1.0
 10
935.92842326495668
 20
-1318.2761207102012
 30
0.0
 41
1.0
 10
935.99185303645572
 20
-1318.0455520971077
 30
0.0
 41
0.9999214200504681
 10
936.04948246483627
 20
-1317.8134657548881
 30
0.0
 41
1.0
 10
936.06224831701184
 20
-1317.7620548695122
 30
0.0
 41
1.0
 10
936.07501416918751
 20
-1317.7106439841361
 30
0.0
 41
1.0
 10
936.10711189320614
 20
-1317.5813794127105
 30
0.0
 41
0.9999828681665094
 10
936.13769414520948
 20
-1317.4517479382114
 30
0.0
 41
1.0
 10
936.16827639720577
 20
-1317.3221164637407
 30
0.0
 41
0.9999389844481658
 10
936.19598738599552
 20
-1317.1918410078372
 30
0.0
 41
1.0
 10
936.20312512971509
 20
-1317.1582849040033
 30
0.0
 41
1.0
 10
936.21026287343454
 20
-1317.1247288001691
 30
0.0
 41
1.0
 10
936.25224934966502
 20
-1316.9273411365903
 30
0.0
 41
0.9998933699439431
 10
936.28845361406661
 20
-1316.7288115288347
 30
0.0
 41
1.0
 10
936.28982643928293
 20
-1316.7212835081386
 30
0.0
 41
1.0
 10
936.29119926449914
 20
-1316.7137554874423
 30
0.0
 41
1.0
 10
936.33014917933315
 20
-1316.500169838296
 30
0.0
 41
0.9996850305193018
 10
936.35833285559193
 20
-1316.2848988328606
 30
0.0
 41
1.0
 10
936.36032788896182
 20
-1316.2696604787336
 30
0.0
 41
1.0
 10
936.36232292233183
 20
-1316.2544221246067
 30
0.0
 41
1.0
 10
936.38973078479091
 20
-1316.0450768974517
 30
0.0
 41
0.9994697936706642
 10
936.40345534401013
 20
-1315.8343917021248
 30
0.0
 41
1.0
 10
936.40393241325989
 20
-1315.8270682299121
 30
0.0
 41
1.0
 10
936.40440948250966
 20
-1315.8197447576997
 30
0.0
 41
1.0
 10
936.41717990322979
 20
-1315.6237065067926
 30
0.0
 41
0.99918048931367
 10
936.41405158695693
 20
-1315.4272776568205
 30
0.0
 41
1.0
 10
936.41396770813481
 20
-1315.4220108554073
 30
0.0
 41
1.0
 10
936.41388382931268
 20
-1315.4167440539941
 30
0.0
 41
1.0
 10
936.41092327068395
 20
-1315.2308488068479
 30
0.0
 41
0.9988448329321913
 10
936.39013172506031
 20
-1315.0460962170137
 30
0.0
 41
1.0
 10
936.38853765135718
 20
-1315.0319313612415
 30
0.0
 41
1.0
 10
936.38694357765405
 20
-1315.0177665054694
 30
0.0
 41
1.0
 10
936.36934017943634
 20
-1314.8613436271785
 30
0.0
 41
0.998550320945802
 10
936.33502390713693
 20
-1314.707719443091
 30
0.0
 41
1.0
 10
936.32743791506573
 20
-1314.6737591156907
 30
0.0
 41
1.0
 10
936.31985192299453
 20
-1314.6397987882906
 30
0.0
 41
1.0
 10
936.30070763483741
 20
-1314.5540952590018
 30
0.0
 41
0.9991036781370645
 10
936.27438277318629
 20
-1314.4703181716768
 30
0.0
 41
1.0
 10
936.27040054773079
 20
-1314.4576450091677
 30
0.0
 41
1.0
 10
936.26641832227517
 20
-1314.4449718466583
 30
0.0
 41
1.0
 10
936.24805791153642
 20
-1314.3865410843562
 30
0.0
 41
0.9998874504369222
 10
936.22795270385654
 20
-1314.3286874821285
 30
0.0
 41
1.0
 10
936.20784749617849
 20
-1314.2708338799064
 30
0.0
 41
0.999404163754399
 10
936.18379888324341
 20
-1314.2145051760142
 30
0.0
 41
1.0
 10
936.17960209901992
 20
-1314.2046751115336
 30
0.0
 41
1.0
 10
936.17540531479642
 20
-1314.1948450470529
 30
0.0
 41
1.0
 10
936.14752648380113
 20
-1314.1295448810838
 30
0.0
 41
0.9991846840701362
 10
936.11447012710823
 20
-1314.0667068498042
 30
0.0
 41
1.0
 10
936.11333352071324
 20
-1314.0645462333496
 30
0.0
 41
1.0
 10
936.11219691431836
 20
-1314.0623856168952
 30
0.0
 41
1.0
 10
936.08141377041557
 20
-1314.003868818525
 30
0.0
 41
0.9989253167924066
 10
936.04534434636025
 20
-1313.9484538901338
 30
0.0
 41
1.0
 10
936.04429022168597
 20
-1313.9468343953713
 30
0.0
 41
1.0
 10
936.04323609701169
 20
-1313.945214900609
 30
0.0
 41
1.0
 10
936.00927492230505
 20
-1313.8930389617433
 30
0.0
 41
0.9986467172836551
 10
935.9700777696678
 20
-1313.8446729281141
 30
0.0
 41
1.0
 10
935.96920364096741
 20
-1313.8435943258362
 30
0.0
 41
1.0
 10
935.96832951226691
 20
-1313.8425157235583
 30
0.0
 41
1.0
 10
935.93088061703065
 20
-1313.7963068944848
 30
0.0
 41
0.9984001104268456
 10
935.88845388651328
 20
-1313.7546217871154
 30
0.0
 41
1.0
 10
935.88786674840389
 20
-1313.7540449122341
 30
0.0
 41
1.0
 10
935.88727961029451
 20
-1313.7534680373528
 30
0.0
 41
1.0
 10
935.84602715599647
 20
-1313.7129366797471
 30
0.0
 41
0.9982442159083955
 10
935.80027105466047
 20
-1313.6775681184865
 30
0.0
 41
1.0
 10
935.80005625919875
 20
-1313.6774020858434
 30
0.0
 41
1.0
 10
935.79984146373693
 20
-1313.6772360532002
 30
0.0
 41
1.0
 10
935.75451495332493
 20
-1313.6421995572264
 30
0.0
 41
0.998245006083515
 10
935.70536397425315
 20
-1313.6127677741929
 30
0.0
 41
1.0
 10
935.65621299518136
 20
-1313.5833359911592
 30
0.0
 41
0.9983922639634372
 10
935.60404668901538
 20
-1313.5596563565045
 30
0.0
 41
1.0
 10
935.60381981169144
 20
-1313.5595533710234
 30
0.0
 41
1.0
 10
935.60359293436761
 20
-1313.5594503855423
 30
0.0
 41
1.0
 10
935.55097287355329
 20
-1313.5355647799252
 30
0.0
 41
0.9986517147149374
 10
935.49615990068537
 20
-1313.5172636608036
 30
0.0
 41
1.0
 10
935.49548197925776
 20
-1313.5170373143721
 30
0.0
 41
1.0
 10
935.49480405783015
 20
-1313.5168109679407
 30
0.0
 41
1.0
 10
935.43863524210644
 20
-1313.4980571559561
 30
0.0
 41
0.9989435598956562
 10
935.38098185495505
 20
-1313.4845394537215
 30
0.0
 41
1.0
 10
935.37990173537344
 20
-1313.4842862034684
 30
0.0
 41
1.0
 10
935.37882161579182
 20
-1313.4840329532155
 30
0.0
 41
1.0
 10
935.31900798947845
 20
-1313.4700087504755
 30
0.0
 41
0.9992249241240537
 10
935.25827648058305
 20
-1313.4607334077605
 30
0.0
 41
1.0
 10
935.25686279229035
 20
-1313.4605174993524
 30
0.0
 41
1.0
 10
935.25544910399753
 20
-1313.4603015909443
 30
0.0
 41
1.0
 10
935.19189021851719
 20
-1313.450594431413
 30
0.0
 41
0.999439659783366
 10
935.12782428197909
 20
-1313.4451615090672
 30
0.0
 41
1.0
 10
935.1086836145023
 20
-1313.4435383413488
 30
0.0
 41
1.0
 10
935.08954294702551
 20
-1313.4419151736302
 30
0.0
 41
1.0
 10
934.98719567553417
 20
-1313.4332359158473
 30
0.0
 41
0.998769340312192
 10
934.88449205194865
 20
-1313.4347389792999
 30
0.0
 41
1.0
 10
934.87423771772023
 20
-1313.4348890510742
 30
0.0
 41
1.0
 10
934.86398338349193
 20
-1313.4350391228484
 30
0.0
 41
1.0
 10
934.75442761731279
 20
-1313.4366424671357
 30
0.0
 41
0.9989753644966212
 10
934.64546561729605
 20
-1313.4481454740608
 30
0.0
 41
1.0
 10
934.53650361727898
 20
-1313.4596484809861
 30
0.0
 41
0.9983190067306402
 10
934.42960480631348
 20
-1313.483683472773
 30
0.0
 41
1.0
 10
934.42070385470731
 20
-1313.4856847513356
 30
0.0
 41
1.0
 10
934.41180290310115
 20
-1313.4876860298982
 30
0.0
 41
1.0
 10
934.28710218892365
 20
-1313.5157235788101
 30
0.0
 41
0.9985539388303319
 10
934.16613243524625
 20
-1313.5569872548554
 30
0.0
 41
1.0
 10
934.16378700428515
 20
-1313.5577872986714
 30
0.0
 41
1.0
 10
934.16144157332405
 20
-1313.5585873424875
 30
0.0
 41
1.0
 10
934.03578095772502
 20
-1313.6014511061651
 30
0.0
 41
0.9988468746493456
 10
933.91481061542413
 20
-1313.6561691912279
 30
0.0
 41
1.0
 10
933.91162779343608
 20
-1313.6576088657876
 30
0.0
 41
1.0
 10
933.90844497144792
 20
-1313.6590485403472
 30
0.0
 41
1.0
 10
933.78110898517002
 20
-1313.7166459745295
 30
0.0
 41
0.9991322885919038
 10
933.65900840111237
 20
-1313.7846413067118
 30
0.0
 41
1.0
 10
933.641406390067
 20
-1313.7944435087024
 30
0.0
 41
1.0
 10
933.62380437902164
 20
-1313.8042457106931
 30
0.0
 41
1.0
 10
933.52162769796735
 20
-1313.8611458264722
 30
0.0
 41
0.9993860037849387
 10
933.42368669389498
 20
-1313.9250618420601
 30
0.0
 41
1.0
 10
933.41806838103992
 20
-1313.9287283367566
 30
0.0
 41
1.0
 10
933.41245006818485
 20
-1313.9323948314534
 30
0.0
 41
1.0
 10
933.32574568981886
 20
-1313.9889778576503
 30
0.0
 41
0.999882149495409
 10
933.24081931400883
 20
-1314.0481960877255
 30
0.0
 41
1.0
 10
933.15589293819664
 20
-1314.1074143178016
 30
0.0
 41
0.9997976482743158
 10
933.07341730779353
 20
-1314.170000725843
 30
0.0
 41
1.0
 10
933.05878104298802
 20
-1314.1811074156233
 30
0.0
 41
1.0
 10
933.0441447781825
 20
-1314.1922141054035
 30
0.0
 41
1.0
 10
932.93239661816938
 20
-1314.2770138930046
 30
0.0
 41
0.9998091630801234
 10
932.82404634014256
 20
-1314.3661142437054
 30
0.0
 41
1.0
 10
932.81104058766459
 20
-1314.376809344152
 30
0.0
 41
1.0
 10
932.79803483518674
 20
-1314.3875044445986
 30
0.0
 41
1.0
 10
932.66367305220433
 20
-1314.4979949961921
 30
0.0
 41
0.9995035112316877
 10
932.53653717443899
 20
-1314.616728813209
 30
0.0
 41
1.0
 10
932.52688986405019
 20
-1314.6257385593683
 30
0.0
 41
1.0
 10
932.51724255366128
 20
-1314.6347483055276
 30
0.0
 41
1.0
 10
932.39381949089773
 20
-1314.7500146772816
 30
0.0
 41
0.9994630424298856
 10
932.27821108511716
 20
-1314.8731174205136
 30
0.0
 41
1.0
 10
932.27452824634702
 20
-1314.8770390000254
 30
0.0
 41
1.0
 10
932.27084540757687
 20
-1314.880960579537
 30
0.0
 41
1.0
 10
932.16260267933478
 20
-1314.9962201637472
 30
0.0
 41
0.9995160693749945
 10
932.06173664980133
 20
-1315.1179875816215
 30
0.0
 41
1.0
 10
932.05980292972254
 20
-1315.1203220058273
 30
0.0
 41
1.0
 10
932.05786920964374
 20
-1315.122656430033
 30
0.0
 41
1.0
 10
931.96087062027073
 20
-1315.2397549994923
 30
0.0
 41
0.9996561470514929
 10
931.87014440160351
 20
-1315.3617777619431
 30
0.0
 41
1.0
 10
931.86398673570056
 20
-1315.3700595509868
 30
0.0
 41
1.0
 10
931.85782906979773
 20
-1315.3783413400304
 30
0.0
 41
1.0
 10
931.77941818293766
 20
-1315.4838005243923
 30
0.0
 41
0.999834905517392
 10
931.70489090100546
 20
-1315.5920391080558
 30
0.0
 41
1.0
 10
931.63036361907189
 20
-1315.7002776917211
 30
0.0
 41
0.999972810956517
 10
931.55744072316224
 20
-1315.8096036172756
 30
0.0
 41
1.0
 10
931.55612550775095
 20
-1315.8115753867773
 30
0.0
 41
1.0
 10
931.55481029233954
 20
-1315.8135471562794
 30
0.0
 41
1.0
 10
931.47925696562925
 20
-1315.9268166208044
 30
0.0
 41
0.9999972147399772
 10
931.40423915527924
 20
-1316.0404414636037
 30
0.0
 41
1.0
 10
931.39926761263314
 20
-1316.0479715521119
 30
0.0
 41
1.0
 10
931.39429606998715
 20
-1316.0555016406202
 30
0.0
 41
1.0
 10
931.30933517436495
 20
-1316.1841866604057
 30
0.0
 41
0.9999371979004752
 10
931.22727982496338
 20
-1316.3147435741789
 30
0.0
 41
1.0
 10
931.22377094060175
 20
-1316.3203265022439
 30
0.0
 41
1.0
 10
931.22026205624002
 20
-1316.3259094303087
 30
0.0
 41
1.0
 10
931.13118893811145
 20
-1316.4676322002172
 30
0.0
 41
0.999827202561034
 10
931.04744554722924
 20
-1316.6125680769601
 30
0.0
 41
1.0
 10
931.03223037520536
 20
-1316.6389011914166
 30
0.0
 41
1.0
 10
931.01701520318147
 20
-1316.6652343058731
 30
0.0
 41
1.0
 10
930.90284146824945
 20
-1316.8628364115318
 30
0.0
 41
0.9995217214838419
 10
930.80110177869255
 20
-1317.0671187393971
 30
0.0
 41
1.0
 10
930.79345821605966
 20
-1317.0824661890956
 30
0.0
 41
1.0
 10
930.78581465342688
 20
-1317.0978136387942
 30
0.0
 41
1.0
 10
930.69890936083664
 20
-1317.2723100968765
 30
0.0
 41
0.9998269762607872
 10
930.61855489456377
 20
-1317.4499183836017
 30
0.0
 41
1.0
 10
930.5382004282958
 20
-1317.6275266703165
 30
0.0
 41
0.9998944747387173
 10
930.46303963373157
 20
-1317.8073943959437
 30
0.0
 41
1.0
 10
930.45808596413895
 20
-1317.8192490508648
 30
0.0
 41
1.0
 10
930.45313229454621
 20
-1317.8311037057858
 30
0.0
 41
1.0
 10
930.37248523399262
 20
-1318.0241006458059
 30
0.0
 41
0.9999506734412598
 10
930.29568770508797
 20
-1318.2186614506645
 30
0.0
 41
1.0
 10
930.2810877398199
 20
-1318.2556493724635
 30
0.0
 41
1.0
 10
930.26648777455171
 20
-1318.2926372942625
 30
0.0
 41
1.0
 10
930.2188901761848
 20
-1318.4132222555199
 30
0.0
 41
0.9999912393959471
 10
930.17230373216194
 20
-1318.5342014582166
 30
0.0
 41
1.0
 10
930.12571728813998
 20
-1318.6551806609109
 30
0.0
 41
0.9999927113983063
 10
930.08005599374701
 20
-1318.7765120684094
 30
0.0
 41
1.0
 10
930.06608756234834
 20
-1318.8136290504108
 30
0.0
 41
1.0
 10
930.05211913094968
 20
-1318.8507460324122
 30
0.0
 41
1.0
 10
929.97852097375903
 20
-1319.0463114039146
 30
0.0
 41
0.9999487550947231
 10
929.90889734878692
 20
-1319.2433267690988
 30
0.0
 41
1.0
 10
929.88530373884646
 20
-1319.3100900794016
 30
0.0
 41
1.0
 10
929.861710128906
 20
-1319.3768533897046
 30
0.0
 41
1.0
 10
929.76702449453728
 20
-1319.6447872245235
 30
0.0
 41
0.9999808436929112
 10
929.67566290590264
 20
-1319.9138726557694
 30
0.0
 41
1.0
 10
929.58430131726595
 20
-1320.1829580870199
 30
0.0
 41
0.9999873932896898
 10
929.49564660854617
 20
-1320.4529474420383
 30
0.0
 41
1.0
 10
929.47555425167525
 20
-1320.5141367747956
 30
0.0
 41
1.0
 10
929.45546189480433
 20
-1320.5753261075531
 30
0.0
 41
1.0
 10
929.32662247234737
 20
-1320.9676941280727
 30
0.0
 41
0.999979488303467
 10
929.20281968738266
 20
-1321.3616803343718
 30
0.0
 41
1.0
 10
929.19166742794368
 20
-1321.3971709446137
 30
0.0
 41
1.0
 10
929.18051516850483
 20
-1321.4326615548553
 30
0.0
 41
1.0
 10
929.03795700460682
 20
-1321.8863343069438
 30
0.0
 41
0.9999982761741646
 10
928.89708456460187
 20
-1322.3405333290334
 30
0.0
 41
1.0
 10
927.30894423202926
 20
-1327.3893030600366
 30
0.0
 41
1.0
 10
925.72080389945666
 20
-1332.43807279104
 30
0.0
 41
1.0
 10
924.77205328798027
 20
-1332.43807279104
 30
0.0
 41
1.0
 10
923.82330267650389
 20
-1332.43807279104
 30
0.0
 41
1.0
 10
927.06158716265713
 20
-1322.1107505910938
 30
0.0
 41
1.0
 10
930.29987164881027
 20
-1311.7834283911477
 30
0.0
 41
1.0
  0
LWPOLYLINE
  5
5E
100
AcDbEntity
  8
0
370
              15
390
0
  6
Continuous
 62
               7
100
AcDbPolyline
 90
      232
 70
             128
 10
904.59632587498322
 20
-1312.8677712226629
 42
0.000437080068418
 10
904.54344870090904
 20
-1312.9364378619216
 10
904.50416446978375
 20
-1312.9875449748156
 42
0.0030481992171095
 10
904.37382575265667
 20
-1313.1592666671704
 10
904.33531408091415
 20
-1313.210653450948
 42
0.0042058245755338
 10
904.13132903024587
 20
-1313.4876591960196
 10
904.07892390774362
 20
-1313.5600920428024
 42
0.0120948898744214
 10
903.78287999098018
 20
-1313.9908416473547
 10
903.68668749185747
 20
-1314.1383223825808
 42
0.0141601263952334
 10
903.38304344493827
 20
-1314.6339917193118
 10
903.3435061775134
 20
-1314.7028356867415
 42
0.0071131081298422
 10
903.13823385427395
 20
-1315.0723384855817
 42
0.0068458791008081
 10
902.9433543274298
 20
-1315.4474300490597
 10
902.93654246497306
 20
-1315.4609917627813
 42
0.0064120880289429
 10
902.73840021493027
 20
-1315.8684162376971
 10
902.73086552941174
 20
-1315.8844280944215
 42
0.0058857236450335
 10
902.52811013753569
 20
-1316.3288042054664
 10
902.51993521124609
 20
-1316.3472943590905
 42
0.0053189741891082
 10
902.31123089858318
 20
-1316.8332578329973
 10
902.30248309289721
 20
-1316.8542397112046
 42
0.0047503650419617
 10
902.08650936674485
 20
-1317.3864391444185
 10
902.07724111839843
 20
-1317.4099155205222
 42
0.004207176217492
 10
901.85269373466463
 20
-1317.993009114608
 10
901.84294433232196
 20
-1318.0189752894617
 42
0.0036680086486888
 10
901.60848968900859
 20
-1318.6576106739965
 10
901.5982819091621
 20
-1318.6860592083372
 42
0.003257314262638
 10
901.35264962320355
 20
-1319.3849118680666
 10
901.28399910235237
 20
-1319.58437495215
 42
0.0026133366648607
 10
900.93555390359666
 20
-1320.6142382358155
 10
900.87229711610598
 20
-1320.8044690711788
 42
0.0020592950739699
 10
900.65843404712894
 20
-1321.4565727238216
 10
900.65538225597288
 20
-1321.4660092122097
 42
0.0025609928534036
 10
900.45356175448001
 20
-1322.1011544345972
 10
900.4509703873606
 20
-1322.1094567755144
 42
0.0031362356241978
 10
900.26147960167646
 20
-1322.7302196317173
 10
900.25934855874061
 20
-1322.7373609379567
 42
0.003722991803413
 10
900.08254817182262
 20
-1323.3463462399027
 10
900.08086958261595
 20
-1323.3522931300781
 42
0.0043077623707234
 10
899.91712878055114
 20
-1323.9521118618459
 42
0.0047654161824884
 10
899.76430005803184
 20
-1324.5547979507619
 10
899.72983544919612
 20
-1324.6963597278982
 42
0.0112969368446671
 10
899.53397109105219
 20
-1325.5880518885233
 10
899.5059647019558
 20
-1325.7308799346201
 42
0.0130056762572935
 10
899.30512745830924
 20
-1326.9178210062651
 10
899.28458770816189
 20
-1327.0618991197441
 42
0.0138721532145611
 10
899.1808847036242
 20
-1327.9687286055678
 10
899.16158921571605
 20
-1328.1922263274951
 42
0.0071254697009674
 10
899.12824256979366
 20
-1328.6554133363402
 10
899.12328159563026
 20
-1328.741417330903
 42
0.0028881799199161
 10
899.10814330234052
 20
-1329.0331590407427
 42
0.0060297297141384
 10
899.09821110256496
 20
-1329.3251079768654
 10
899.09714882089793
 20
-1329.3735003487925
 42
0.0229523164158281
 10
899.10487984868371
 20
-1329.6962551950742
 10
899.10910562220374
 20
-1329.7566587290851
 42
0.0123673300661572
 10
899.12818426872241
 20
-1329.9577794542652
 42
0.0128577674470403
 10
899.15737965912876
 20
-1330.1576773041922
 10
899.1645055325157
 20
-1330.1990061187889
 42
0.0285717853763356
 10
899.2289995342112
 20
-1330.4771222701015
 10
899.24266805787784
 20
-1330.5237770395795
 42
0.0316283099163579
 10
899.35847863779213
 20
-1330.8427915414054
 10
899.36152732954747
 20
-1330.8497779137306
 42
0.0338984824237609
 10
899.51095904051476
 20
-1331.1373438779201
 10
899.51326776988401
 20
-1331.141134907195
 42
0.0350228718351987
 10
899.69562806055819
 20
-1331.3981868918729
 10
899.69651331233354
 20
-1331.3992659696373
 42
0.0347476747529176
 10
899.91093799957332
 20
-1331.6264510168571
 42
0.0331337701910465
 10
900.15418132532056
 20
-1331.822579678935
 10
900.15528142383585
 20
-1331.8233523821068
 42
0.0305233319082536
 10
900.42382611941014
 20
-1331.9884805521988
 10
900.42705616391049
 20
-1331.9902045640611
 42
0.0273744481150058
 10
900.71960987548516
 20
-1332.1263427079516
 10
900.72471441062225
 20
-1332.1283862924211
 42
0.0240964406194446
 10
901.04019148626753
 20
-1332.2373700187024
 10
901.04677481547787
 20
-1332.2392947583776
 42
0.0209636179811983
 10
901.38417496813042
 20
-1332.3227629063094
 10
901.39180742857923
 20
-1332.324314819311
 42
0.0181388704691215
 10
901.75012982057876
 20
-1332.3837309125252
 10
901.75841066895578
 20
-1332.384797096342
 42
0.0156086547588266
 10
902.13659803314647
 20
-1332.4215332829187
 10
902.1797932854704
 20
-1332.4243717853976
 42
0.0137148329019364
 10
902.50746643077059
 20
-1332.4368920406491
 10
902.55340262071013
 20
-1332.4373864737643
 42
0.0051057823886162
 10
902.78954820728882
 20
-1332.4375167281733
 42
0.0052256693315682
 10
903.02564549107547
 20
-1332.432767903709
 10
903.09587227481688
 20
-1332.430620937695
 42
0.0161507179047954
 10
903.47160935291504
 20
-1332.4069705673687
 10
903.49162231329115
 20
-1332.4050603720809
 42
0.0101216737832006
 10
903.90564953477349
 20
-1332.3570674417165
 10
903.93970282420867
 20
-1332.3524197449058
 42
0.0245291776397695
 10
904.41649247976193
 20
-1332.2633446668292
 10
904.5013157952809
 20
-1332.2431487464846
 42
0.0143509212552552
 10
904.85794689922341
 20
-1332.147344112705
 42
0.015655785703711
 10
905.2081629639539
 20
-1332.0303328968851
 10
905.21566417844531
 20
-1332.0275627351321
 42
0.0170137333628668
 10
905.57226017412643
 20
-1331.8819051202609
 10
905.57936409653416
 20
-1331.8787172846971
 42
0.0183105364414454
 10
905.93871376470042
 20
-1331.7013822428726
 10
905.94566052933919
 20
-1331.6976318080006
 42
0.0194899958153425
 10
906.30414127032202
 20
-1331.4856528261105
 10
906.31115514965995
 20
-1331.4811274838148
 42
0.0204869852952246
 10
906.66516945175306
 20
-1331.2316074687294
 10
906.67243506034083
 20
-1331.2260274033806
 42
0.0212516938555387
 10
907.01842499144584
 20
-1330.9361234064888
 10
907.06494168552683
 20
-1330.8936560963903
 42
0.0215248918250896
 10
907.32496785441208
 20
-1330.6348918173981
 10
907.36999758879335
 20
-1330.5860476960474
 42
0.0114578554956448
 10
907.52478974247015
 20
-1330.4102247625897
 10
907.53598427845168
 20
-1330.3969059990504
 42
0.0061531305132407
 10
907.66245892445113
 20
-1330.2426164657386
 42
0.0006325587115583
 10
907.78683740851363
 20
-1330.0866130901752
 10
907.80987754365447
 20
-1330.0576395694036
 42
0.0041897761559026
 10
907.97833294762484
 20
-1329.8421201933447
 10
908.03679506751928
 20
-1329.7660188463565
 42
0.009299388003938
 10
908.31340699474526
 20
-1329.3917400824696
 10
908.39580148794073
 20
-1329.2758030789059
 42
0.0159321727086959
 10
908.74240797058428
 20
-1328.753628858148
 10
908.78676410597325
 20
-1328.681949293898
 42
0.0085547317024855
 10
909.02127587129917
 20
-1328.2880743446733
 42
0.0084601156893028
 10
909.24225204874983
 20
-1327.8864474956251
 10
909.25036752257154
 20
-1327.8710878133681
 42
0.00814296542842
 10
909.47361679300229
 20
-1327.4313663008411
 10
909.48247695719306
 20
-1327.4131874588079
 42
0.0076574581327626
 10
909.70888446775859
 20
-1326.9300045835578
 10
909.71836410848346
 20
-1326.908940105252
 42
0.0070682724199098
 10
909.94880901629119
 20
-1326.3769028004683
 10
909.95879930027195
 20
-1326.3529136114589
 42
0.0064559514445985
 10
910.19413250845207
 20
-1325.7666013449445
 10
910.20454186661868
 20
-1325.739666419498
 42
0.005831141390578
 10
910.44558860338486
 20
-1325.0936343251044
 10
910.4563436807689
 20
-1325.0637499839536
 42
0.0052312425817664
 10
910.70392495880719
 20
-1324.3525475701272
 10
910.71496879518963
 20
-1324.3197208580495
 42
0.0046680544797139
 10
910.96989722292085
 20
-1323.5378945423047
 10
911.01188937296718
 20
-1323.4049113050041
 42
0.0041666856443691
 10
911.2151753853625
 20
-1322.741942529997
 10
911.2528378260231
 20
-1322.6153614223542
 42
0.0015170975157229
 10
911.37402440443941
 20
-1322.2034930708496
 42
-0.0004887993111349
 10
911.49436417759807
 20
-1321.7913746586864
 10
911.57084143505767
 20
-1321.5304172728665
 42
0.0002583378926239
 10
911.84405600512173
 20
-1320.5963605696879
 10
911.92582885470119
 20
-1320.3162613100951
 42
0.000663616967508
 10
912.11969661470982
 20
-1319.6489083865174
 10
912.12479326907237
 20
-1319.6312768035837
 42
0.0010589131324769
 10
912.30624196997348
 20
-1318.9985454605885
 10
912.31122404045391
 20
-1318.9810325535686
 42
0.0015655524460464
 10
912.47949424763669
 20
-1318.3824158743676
 10
912.4843244480536
 20
-1318.3650237154247
 42
0.0021640440479338
 10
912.63861442003781
 20
-1317.7999966974135
 10
912.64324863947252
 20
-1317.7827319674018
 42
0.0028763871852605
 10
912.78276435752059
 20
-1317.2507640165727
 10
912.78715022168706
 20
-1317.2336400384215
 42
0.0037310511946942
 10
912.91110691352469
 20
-1316.7341924443945
 10
912.91518213381437
 20
-1316.7172321731464
 42
0.0047652197768551
 10
913.02280603432223
 20
-1316.2497544048438
 10
913.02649663364491
 20
-1316.232994849697
 42
0.0060276699302472
 10
913.11702673279933
 20
-1315.7969190545496
 10
913.12024542308791
 20
-1315.780417840243
 42
0.0075824337755462
 10
913.19293473250389
 20
-1315.3751506758142
 10
913.19558010988362
 20
-1315.3589957283671
 42
0.0095130624605516
 10
913.24969534551542
 20
-1314.983906375292
 10
913.25668156939867
 20
-1314.92797281717
 42
0.0121054653226811
 10
913.28327289997583
 20
-1314.6630769887015
 10
913.28413938973449
 20
-1314.6516735457835
 42
0.0069050827389605
 10
913.29922820777301
 20
-1314.4087323189283
 10
913.30036350744172
 20
-1314.3852060618799
 42
0.0169063976701544
 10
913.30319078642196
 20
-1314.1890133345828
 10
913.30202013489065
 20
-1314.1286775732319
 42
0.0052007732889831
 10
913.29976668629763
 20
-1314.0530841830814
 42
0.0054038123300154
 10
913.27980317445815
 20
-1313.9330658870681
 10
913.27471731858827
 20
-1313.9044074004903
 42
0.0112050460464733
 10
913.23933295653001
 20
-1313.728080962152
 10
913.22150799448923
 20
-1313.6485393754306
 42
0.0240764468006027
 10
913.13061062834299
 20
-1313.3183023399295
 10
913.11205186552945
 20
-1313.261682174935
 42
0.025681233183239
 10
912.96868894534009
 20
-1312.8899579686781
 10
912.96327951951832
 20
-1312.8778266336876
 42
0.0268360501217953
 10
912.79385227866874
 20
-1312.5468334996674
 10
912.78831587103411
 20
-1312.5373138293558
 42
0.0274670231729661
 10
912.59611489462031
 20
-1312.2450264544377
 10
912.59073359465799
 20
-1312.2377473068966
 42
0.0275035967101634
 10
912.37916071509585
 20
-1311.9822314165924
 10
912.37409121412952
 20
-1311.9767523289622
 42
0.0269557673528841
 10
912.14668767068974
 20
-1311.7561100429998
 10
912.14194461290788
 20
-1311.7519800885398
 42
0.0259124802209689
 10
911.90238978147636
 20
-1311.5642895613864
 10
911.89785893629517
 20
-1311.5611040590566
 42
0.0245162153000034
 10
911.64994258319973
 20
-1311.4043710499459
 10
911.64541603687621
 20
-1311.4018108527455
 42
0.0229282588842032
 10
911.39299648004817
 20
-1311.2739426602461
 10
911.38821598621337
 20
-1311.2717903604851
 42
0.0212984135697641
 10
911.13517803374975
 20
-1311.1705914432418
 10
911.12987374877969
 20
-1311.1687278804816
 42
0.0197555462344977
 10
910.88009541105725
 20
-1311.091912462517
 42
0.0183511896789116
 10
910.62516668559419
 20
-1311.0343295555515
 10
910.5388014888722
 20
-1311.0181267651667
 42
0.0338057877146014
 10
910.25329413961072
 20
-1310.984318360026
 10
910.16228873457271
 20
-1310.9797387047647
 42
0.0091990524483315
 10
910.05644162593478
 20
-1310.9763628488427
 42
0.0028333980786054
 10
909.95052770994823
 20
-1310.9755347413261
 10
909.94961225689258
 20
-1310.975532771502
 42
-0.0023619827794228
 10
909.84186624176652
 20
-1310.9747919304232
 10
909.80546107161081
 20
-1310.9743696239602
 42
0.0008824598473503
 10
909.62490508185294
 20
-1310.9725938457229
 10
909.58104364935491
 20
-1310.9722398841964
 42
0.0038132665763906
 10
909.31276075348615
 20
-1310.9721209481297
 10
909.29622709868261
 20
-1310.9722397142734
 42
0.0060665569337753
 10
908.99494660707978
 20
-1310.9780600136946
 10
908.98069627506595
 20
-1310.9785083216618
 42
0.0080356953338346
 10
908.65123755872492
 20
-1310.9941760437289
 10
908.63916754363947
 20
-1310.9949446266692
 42
0.0098996399102446
 10
908.28640445899975
 20
-1311.0244298558662
 10
908.27635874961391
 20
-1311.0254701520655
 42
0.0117740981368824
 10
907.9052018912588
 20
-1311.0727623995963
 10
907.8969791947826
 20
-1311.0740075161661
 42
0.013743521513412
 10
907.51239037530297
 20
-1311.1431044897267
 10
907.50573333617422
 20
-1311.1444903859615
 42
0.0158359869387638
 10
907.11273624237162
 20
-1311.2393824744422
 10
907.10732305550459
 20
-1311.2408724153127
 42
0.018055412402571
 10
906.71100801089449
 20
-1311.3655104315505
 10
906.70645122280871
 20
-1311.3671264678178
 42
0.0203657431283484
 10
906.31197370499763
 20
-1311.5253868093332
 10
906.30783016599003
 20
-1311.5272484307752
 42
0.0226819684655026
 10
905.92039410978646
 20
-1311.7228910094464
 10
905.91619431876825
 20
-1311.7252566013663
 42
0.0248634984606909
 10
905.54101237758573
 20
-1311.9618832473141
 10
905.49281744880204
 20
-1311.9957402891398
 42
0.0267044190887601
 10
905.21852475188655
 20
-1312.2111806650073
 42
0.0139303002198971
 10
904.96235758594787
 20
-1312.448419505919
 10
904.95750420022682
 20
-1312.4531721687792
 42
0.0283460963442322
 10
904.71343160600065
 20
-1312.720902829223
 10
904.67376310084308
 20
-1312.7697044066974
 42
0.0070695364819089
 10
904.59632587498322
 20
-1312.8677712226629
 42
0.0070695364819089
  0
LWPOLYLINE
  5
5F
100
AcDbEntity
  8
0
370
              15
390
0
  6
Continuous
 62
               7
100
AcDbPolyline
 90
      226
 70
             128
 10
901.06750543773683
 20
-1328.5893600288468
 42
-0.0026277636606397
 10
901.0674275539368
 20
-1328.522588103079
 10
901.06764491216882
 20
-1328.4694328856608
 42
-0.008868029672638
 10
901.071421528462
 20
-1328.2964171032538
 10
901.07376788757438
 20
-1328.2371370778042
 42
-0.0077381705614706
 10
901.08981399833772
 20
-1327.9458765820025
 10
901.09068190951052
 20
-1327.9335883483209
 42
-0.0068872530536318
 10
901.11731398925804
 20
-1327.6183665962578
 10
901.11851821344476
 20
-1327.6061256172329
 42
-0.0062130021486337
 10
901.15611193027246
 20
-1327.2672559259959
 10
901.15761583380777
 20
-1327.255082054078
 42
-0.0056726929669143
 10
901.20653769331034
 20
-1326.8928868319622
 10
901.2083111389544
 20
-1326.8807930317193
 42
-0.0052341884495962
 10
901.26892172521673
 20
-1326.4955997761876
 10
901.27093971399108
 20
-1326.4835948462089
 42
-0.0049768450166025
 10
901.34367839541733
 20
-1326.0757502787762
 10
901.36792741013915
 20
-1325.9472022957702
 42
-0.0089029805627753
 10
901.50500826193229
 20
-1325.2854268483552
 10
901.53775363725242
 20
-1325.1403954178245
 42
-0.008031825709929
 10
901.76730225159406
 20
-1324.1946857859673
 10
901.77928717804139
 20
-1324.1485551507808
 42
-0.0074265721318983
 10
902.06329871688843
 20
-1323.1184905724101
 10
902.08317826000371
 20
-1323.0503565118252
 42
-0.0069711922702932
 10
902.41048283851467
 20
-1321.9840887714827
 10
902.47043478561477
 20
-1321.7980674131286
 42
-0.0052070422894877
 10
902.69986001087955
 20
-1321.1107953360809
 10
902.71714120302613
 20
-1321.0607680555379
 42
-0.0009167004450891
 10
902.92023309034107
 20
-1320.4763122073095
 42
-0.0025162726943517
 10
903.12733072060178
 20
-1319.8932709431524
 10
903.16455533240742
 20
-1319.7901213972466
 42
-0.0028212681458664
 10
903.41273125137218
 20
-1319.1143907650708
 10
903.42256201412511
 20
-1319.088083320388
 42
-0.0031964916823195
 10
903.65885427178523
 20
-1318.4678785582669
 10
903.66848872578373
 20
-1318.4430685681248
 42
-0.0036281836452156
 10
903.89359468688542
 20
-1317.8756278872306
 10
903.90303309703529
 20
-1317.8523304557466
 42
-0.0041269166833825
 10
904.11765079370207
 20
-1317.3348895597494
 10
904.15028375012378
 20
-1317.2580111133861
 42
-0.004747221305655
 10
904.30732855567646
 20
-1316.8975896455049
 10
904.31422263688853
 20
-1316.8821690481641
 42
-0.0025651659994287
 10
904.46258067073484
 20
-1316.5548409924245
 42
-0.0057144634994951
 10
904.61633036450723
 20
-1316.2300313190599
 10
904.64436106990547
 20
-1316.1725229366718
 42
-0.006538806837542
 10
904.82782809764717
 20
-1315.8082904400028
 10
904.8362865534209
 20
-1315.7920308606424
 42
-0.007451084302407
 10
905.01246879930352
 20
-1315.4653425795104
 10
905.02064846983524
 20
-1315.4507018022405
 42
-0.0084648979860043
 10
905.19028232293454
 20
-1315.1587927912806
 10
905.1981384494245
 20
-1315.1457857996268
 42
-0.0095638542801486
 10
905.36197389701692
 20
-1314.8858969276512
 10
905.36944884069317
 20
-1314.874527566189
 42
-0.0107191626806986
 10
905.52825042107622
 20
-1314.6439163316518
 10
905.53526715480928
 20
-1314.6341802392844
 42
-0.0118458573903558
 10
905.68981525331981
 20
-1314.4301080439764
 42
-0.0129184518190307
 10
905.85426787692063
 20
-1314.2339475278065
 10
905.88441264928895
 20
-1314.1998214489013
 42
-0.0217742579634327
 10
906.06102497161987
 20
-1314.0166146786564
 10
906.07177051607164
 20
-1314.0063978454616
 42
-0.0097266568651869
 10
906.23782813493585
 20
-1313.854550271016
 42
-0.0187720905715346
 10
906.41217571082541
 20
-1313.7124814176268
 10
906.44288170149559
 20
-1313.6893223352336
 42
-0.0179428207520317
 10
906.67530242149576
 20
-1313.526770158119
 10
906.67895474841293
 20
-1313.5244062232302
 42
-0.0170047877692451
 10
906.91471838594191
 20
-1313.3829457090796
 10
906.91850137468577
 20
-1313.3808474040447
 42
-0.0160190788362761
 10
907.15540992232377
 20
-1313.2591961020553
 42
-0.0151102861485416
 10
907.3994417047727
 20
-1313.1525133259997
 10
907.45182820698221
 20
-1313.1314731931061
 42
-0.0271945441889418
 10
907.81049076603904
 20
-1313.0096083824005
 10
907.87955556652889
 20
-1312.9902588411337
 42
-0.0237596594022405
 10
908.29535241355097
 20
-1312.8948081291524
 10
908.3634152672787
 20
-1312.8825534410259
 42
-0.0213715440555338
 10
908.6492901987267
 20
-1312.8436064095156
 10
908.70943736494166
 20
-1312.838016694815
 42
-0.0101465655825135
 10
908.87692989693892
 20
-1312.8258731515507
 10
908.88627028313886
 20
-1312.8253862365534
 42
-0.0100375910884405
 10
909.03542438369971
 20
-1312.8206104186281
 10
909.04568365338446
 20
-1312.8204879796135
 42
-0.0103625633372552
 10
909.174391648035
 20
-1312.8216194131403
 10
909.19665729931125
 20
-1312.8222767716054
 42
-0.0115689250223396
 10
909.28070803682976
 20
-1312.8267062778505
 42
-0.0072438037451583
 10
909.36454631625782
 20
-1312.8342954775985
 10
909.38134682574173
 20
-1312.8360620203239
 42
-0.021791731313253
 10
909.4979165890569
 20
-1312.8534819130452
 10
909.56351667962542
 20
-1312.86622852146
 42
-0.0332943556751943
 10
909.76790884465049
 20
-1312.9202688127666
 10
909.7980814132012
 20
-1312.9304368898852
 42
-0.0184824084803175
 10
909.93658646966583
 20
-1312.9828879052716
 42
-0.0198002050700595
 10
910.07066081016308
 20
-1313.0457719654696
 10
910.07254744754209
 20
-1313.0467497523507
 42
-0.0212242342977133
 10
910.20468638994271
 20
-1313.1225124911427
 10
910.20650168548764
 20
-1313.123658293352
 42
-0.0226090605796718
 10
910.33500558670858
 20
-1313.2131379369162
 10
910.33685002844663
 20
-1313.214550189904
 42
-0.0238457052230324
 10
910.46003210974027
 20
-1313.3185460857669
 10
910.46198483829869
 20
-1313.3203609635325
 42
-0.0248160564154786
 10
910.57818634559874
 20
-1313.4396355647405
 10
910.58028997900146
 20
-1313.4420208984457
 42
-0.0254109591449528
 10
910.68789519686698
 20
-1313.5773092844092
 10
910.69014321878149
 20
-1313.5804508328106
 42
-0.025552848827975
 10
910.78758989757864
 20
-1313.7324778870454
 10
910.78992099749462
 20
-1313.7365594986527
 42
-0.0252146793227216
 10
910.87570202350457
 20
-1313.9060617446512
 10
910.87800426266142
 20
-1313.9112438265624
 42
-0.0244265635948754
 10
910.95065895642335
 20
-1314.0989903986103
 10
910.95990535789144
 20
-1314.1268558169475
 42
-0.0231319612899009
 10
911.00582813688334
 20
-1314.2901568637485
 42
-0.0112130424355961
 10
911.04046415942173
 20
-1314.4563604639379
 10
911.04166668453399
 20
-1314.4628570508244
 42
-0.0210527881237855
 10
911.06735315990477
 20
-1314.6439126962641
 10
911.07086375472682
 20
-1314.679318244813
 42
-0.019002989242482
 10
911.08630522827139
 20
-1314.932854091086
 10
911.08711520471536
 20
-1314.9683297054544
 42
-0.0137974553662142
 10
911.08556635187983
 20
-1315.293361112188
 10
911.08472089692418
 20
-1315.3194798567833
 42
-0.0081336634216173
 10
911.06986156170171
 20
-1315.6248273243798
 42
-0.0073526923574905
 10
911.0455530283275
 20
-1315.9295755686605
 10
911.04429160454436
 20
-1315.942912243331
 42
-0.0066886138692949
 10
911.0085560184981
 20
-1316.2734982868262
 10
911.00689892902801
 20
-1316.2871199058195
 42
-0.0061359187353684
 10
910.95904832697693
 20
-1316.6438838859206
 10
910.95701082590426
 20
-1316.6577786887487
 42
-0.0056698610068761
 10
910.89636049513967
 20
-1317.0410572575718
 10
910.89395506181404
 20
-1317.0552163768175
 42
-0.0052721077277892
 10
910.8198228610155
 20
-1317.4653437164898
 10
910.81705971217275
 20
-1317.4797603518814
 42
-0.0049289272181276
 10
910.72876559407189
 20
-1317.9170688630079
 10
910.72565309939023
 20
-1317.9317377158197
 42
-0.0047415956711586
 10
910.6224151078552
 20
-1318.3965344732417
 10
910.58764689749808
 20
-1318.5463415686136
 42
-0.0084404470903552
 10
910.39763045392601
 20
-1319.3065655931455
 10
910.39150376594057
 20
-1319.3294297172981
 42
-0.00396359402585
 10
910.17005008165165
 20
-1320.1304185815629
 10
910.15667328647703
 20
-1320.1773501981374
 42
-0.0072475040836686
 10
909.88922639861278
 20
-1321.0665699145311
 10
909.81901407178532
 20
-1321.2883102645037
 42
-0.0051345458826883
 10
909.53225469972767
 20
-1322.1626354523107
 10
909.51072843297004
 20
-1322.2260617194115
 42
-0.001915001660283
 10
909.25519502609347
 20
-1322.9696108396668
 10
909.24872742169384
 20
-1322.9881983045977
 42
-0.0021524362752397
 10
909.00024937063336
 20
-1323.6925241262961
 10
908.99103894993971
 20
-1323.7182777045896
 42
-0.0024331286821697
 10
908.75478369090092
 20
-1324.368877012716
 10
908.74573573834766
 20
-1324.3934203190777
 42
-0.002744972178577
 10
908.52112116751505
 20
-1324.9925501979947
 10
908.51223116011499
 20
-1325.0158727878672
 42
-0.0031083229767842
 10
908.29868867351286
 20
-1325.5657968254266
 10
908.28995254185043
 20
-1325.587886541251
 42
-0.0035311343281991
 10
908.08691135624554
 20
-1326.0908696670144
 10
908.07832601710766
 20
-1326.111712390501
 42
-0.0040245640950964
 10
907.88521421330336
 20
-1326.5700217131171
 10
907.87677809970353
 20
-1326.5896010811816
 42
-0.004601513585205
 10
907.69302180653654
 20
-1327.0055061108314
 10
907.68473562870895
 20
-1327.0238032502821
 42
-0.0052768638269329
 10
907.50975810975274
 20
-1327.3995761345539
 10
907.50162589912611
 20
-1327.4165694730966
 42
-0.0060672675642454
 10
907.33484628635983
 20
-1327.7544850962113
 10
907.32687680588037
 20
-1327.7701503552046
 42
-0.006990464886936
 10
907.16770841187667
 20
-1328.0724861618723
 10
907.15991701226937
 20
-1328.0867967110933
 42
-0.0080637022767689
 10
907.00776515192001
 20
-1328.3558320142527
 10
907.00017611929513
 20
-1328.3687598798426
 42
-0.0093006455667715
 10
906.85443544275734
 20
-1328.6067742783566
 10
906.84708477601623
 20
-1328.6182922475257
 42
-0.010706077805105
 10
906.70713623257529
 20
-1328.8275625649087
 10
906.70007446429213
 20
-1328.8376481074797
 42
-0.0122723111411131
 10
906.56528074609741
 20
-1329.0204414369637
 10
906.5649545225408
 20
-1329.0208618247766
 42
-0.0141836319620005
 10
906.42137291956942
 20
-1329.1954315826029
 10
906.4144251639201
 20
-1329.2034065828645
 42
-0.0175957477211477
 10
906.27451899588277
 20
-1329.3530274712723
 42
-0.0080466359677181
 10
906.12705523085492
 20
-1329.495349999421
 10
906.08102068633502
 20
-1329.5383704375147
 42
-0.026960026039377
 10
905.82774044035273
 20
-1329.7506936960235
 10
905.76117330405509
 20
-1329.8006451106478
 42
-0.0178362839752302
 10
905.52122881439925
 20
-1329.9676630369001
 10
905.51398384340121
 20
-1329.9723315491035
 42
-0.0174650732652341
 10
905.27764764595759
 20
-1330.1131925140642
 42
-0.0169240130165938
 10
905.03218140010313
 20
-1330.2374847738402
 10
904.98619524454193
 20
-1330.2588467294088
 42
-0.0318883036842193
 10
904.63584438892269
 20
-1330.3951850389187
 10
904.56747885375808
 20
-1330.416885659394
 42
-0.0284435909902182
 10
904.19142872746625
 20
-1330.5131030948692
 10
904.15627056696678
 20
-1330.5199966906978
 42
-0.0243909341011494
 10
903.84282710604873
 20
-1330.5657177217277
 10
903.79254637927761
 20
-1330.5705632686293
 42
-0.0196639292931471
 10
903.5769508017504
 20
-1330.5828115541428
 10
903.52512673058732
 20
-1330.5837148148796
 42
-0.0100501510682309
 10
903.41270344892268
 20
-1330.5834144165265
 10
903.38104358753378
 20
-1330.5826933446401
 42
-0.0019752031117891
 10
903.33195125089719
 20
-1330.5813811844314
 10
903.32919094767294
 20
-1330.5812964926051
 42
0.0065378751996127
 10
903.28561437292024
 20
-1330.5805296013903
 42
-0.0167974694653347
 10
903.24208354999212
 20
-1330.5788697028645
 10
903.23800421072633
 20
-1330.5785766919694
 42
-0.0081283276291982
 10
903.18644441299693
 20
-1330.5740296983322
 10
903.17470483910938
 20
-1330.572801780753
 42
-0.012670344017414
 10
903.09998654331434
 20
-1330.5630669896814
 10
903.07719867563901
 20
-1330.5595087337663
 42
-0.0117852088423651
 10
902.95765968979924
 20
-1330.5379457386077
 10
902.90227923804366
 20
-1330.5266021983746
 42
-0.0251774592300895
 10
902.67543519903927
 20
-1330.4681041889426
 10
902.63071600918067
 20
-1330.454137369605
 42
-0.0146525199889491
 10
902.44432302164626
 20
-1330.3898708424081
 42
-0.0166929435857547
 10
902.26234536551965
 20
-1330.3140637093536
 10
902.25768873424636
 20
-1330.3119388087396
 42
-0.0191684358433436
 10
902.07250510299809
 20
-1330.2187027249502
 10
902.0691725172403
 20
-1330.2168614773964
 42
-0.0221181781807883
 10
901.88586221333674
 20
-1330.1047279790246
 10
901.88351240932957
 20
-1330.1031436810345
 42
-0.0254984685386089
 10
901.70722225894519
 20
-1329.9707325310658
 10
901.68474011124272
 20
-1329.9519802221291
 42
-0.0292492648804334
 10
901.55997117239929
 20
-1329.8348874224855
 42
-0.0159048957504692
 10
901.44613117494896
 20
-1329.7068674308859
 10
901.44481238436992
 20
-1329.7052858178663
 42
-0.0343813379575296
 10
901.34217512274461
 20
-1329.5634144920984
 10
901.31068359138226
 20
-1329.5129111000019
 42
-0.036911727570153
 10
901.22479108948551
 20
-1329.3494338590544
 42
-0.0191751379905095
 10
901.15759770392788
 20
-1329.1770292530468
 10
901.15583438016893
 20
-1329.1719359083736
 42
-0.0378178042232398
 10
901.1060396613849
 20
-1328.9829951322927
 10
901.10004436565475
 20
-1328.9504345140963
 42
-0.0184846046483531
 10
901.07932716636014
 20
-1328.8086816935504
 42
-0.0179866351324294
 10
901.06899416128647
 20
-1328.6657908804714
 10
901.06893771884063
 20
-1328.6642331938567
 42
-0.0085497186138617
 10
901.06750543773683
 20
-1328.5893600288468
 42
-0.0085497186138617
  0
ENDBLK
  5
60
100
AcDbEntity
  8
template
390
0
100
AcDbBlockEnd
  0
BLOCK
  5
61
100
AcDbEntity
  8
notes
390
0
100
AcDbBlockBegin
  2
*D3
 70
               1
 10
0.0
 20
0.0
 30
0.0
  3
*D3
  1

  0
LINE
  5
62
100
AcDbEntity
  8
0
370
              -2
390
0
  6
Continuous
 62
               0
100
AcDbLine
 10
-560.54756732546764
 20
-379.87142397257645
 30
0.0
 11
-560.54756732546764
 21
-225.37142397257645
 31
0.0
  0
LINE
  5
63
100
AcDbEntity
  8
0
370
              -2
390
0
  6
Continuous
 62
               0
100
AcDbLine
 10
-280.54756732546764
 20
-379.87142397257645
 30
0.0
 11
-280.54756732546764
 21
-225.37142397257645
 31
0.0
  0
LINE
  5
64
100
AcDbEntity
  8
0
370
              -2
390
0
  6
Continuous
 62
               0
100
AcDbLine
 10
-560.54756732546764
 20
-225.37142397257645
 30
0.0
 11
-280.54756732546764
 21
-225.37142397257645
 31
0.0
  0
CIRCLE
  5
65
102
{ACAD_REACTORS
330
66
102
}
100
AcDbEntity
  8
0
370
              -2
390
0
  6
Continuous
 62
               0
100
AcDbCircle
 10
-560.54756732546764
 20
-225.37142397257645
 30
0.0
 40
1.9998779296875
  0
HATCH
  5
66
100
AcDbEntity
  8
0
370
              -2
390
0
  6
Continuous
 62
               0
100
AcDbHatch
 10
0.0
 20
0.0
 30
0.0
210
0.0
220
0.0
230
1.0
  2
SOLID
 70
               1
 71
               1
 91
        1
 92
        1
 93
        1
 72
               2
 10
-560.54756732546764
 20
-225.37142397257645
 40
1.9998779296875
 50
0.0
 51
360.0
 73
               0
 97
        1
330
65
 75
               0
 76
               1
 98
        1
 10
0.0
 20
0.0
  0
CIRCLE
  5
67
102
{ACAD_REACTORS
330
68
102
}
100
AcDbEntity
  8
0
370
              -2
390
0
  6
Continuous
 62
               0
100
AcDbCircle
 10
-280.54756732546764
 20
-225.37142397257645
 30
0.0
 40
1.9998779296875
  0
HATCH
  5
68
100
AcDbEntity
  8
0
370
              -2
390
0
  6
Continuous
 62
               0
100
AcDbHatch
 10
0.0
 20
0.0
 30
0.0
210
0.0
220
0.0
230
1.0
  2
SOLID
 70
               1
 71
               1
 91
        1
 92
        1
 93
        1
 72
               2
 10
-280.54756732546764
 20
-225.37142397257645
 40
1.9998779296875
 50
0.0
 51
360.0
 73
               0
 97
        1
330
67
 75
               0
 76
               1
 98
        1
 10
0.0
 20
0.0
  0
MTEXT
  5
69
100
AcDbEntity
  8
0
390
0
 62
               0
100
AcDbMText
 10
-444.36006900764312
 20
-191.49380678507646
 30
0.0
 40
27.78125
 41
0.0
 71
               1
 72
               1
  1
{\H0.8795x;\l280}
 73
               1
 44
0.7828267384257843
  0
POINT
  5
6A
100
AcDbEntity
  8
Defpoints
370
               0
390
0
 62
               0
100
AcDbPoint
 10
-280.54756732546764
 20
-404.87142397257645
 30
0.0
  0
POINT
  5
6B
100
AcDbEntity
  8
Defpoints
370
               0
390
0
 62
               0
100
AcDbPoint
 10
-560.54756732546764
 20
-404.87142397257645
 30
0.0
  0
POINT
  5
6C
100
AcDbEntity
  8
Defpoints
370
               0
390
0
 62
               0
100
AcDbPoint
 10
-560.54756732546764
 20
-225.37142397257645
 30
0.0
  0
ENDBLK
  5
6D
100
AcDbEntity
  8
notes
390
0
100
AcDbBlockEnd
  0
BLOCK
  5
6E
100
AcDbEntity
  8
notes
390
0
100
AcDbBlockBegin
  2
*D4
 70
               1
 10
0.0
 20
0.0
 30
0.0
  3
*D4
  1

  0
LINE
  5
6F
100
AcDbEntity
  8
0
370
              -2
390
0
  6
Continuous
 62
               0
100
AcDbLine
 10
-606.04756732546764
 20
-425.37142397257645
 30
0.0
 11
-845.54756732546753
 21
-425.37142397257645
 31
0.0
  0
LINE
  5
70
100
AcDbEntity
  8
0
370
              -2
390
0
  6
Continuous
 62
               0
100
AcDbLine
 10
-763.54756732546753
 20
-325.37142397257651
 30
0.0
 11
-845.54756732546753
 21
-325.37142397257651
 31
0.0
  0
LINE
  5
71
100
AcDbEntity
  8
0
370
              -2
390
0
  6
Continuous
 62
               0
100
AcDbLine
 10
-845.54756732546753
 20
-425.37142397257645
 30
0.0
 11
-845.54756732546753
 21
-325.37142397257651
 31
0.0
  0
CIRCLE
  5
72
102
{ACAD_REACTORS
330
73
102
}
100
AcDbEntity
  8
0
370
              -2
390
0
  6
Continuous
 62
               0
100
AcDbCircle
 10
-845.54756732546753
 20
-425.37142397257645
 30
0.0
 40
1.9998779296875
  0
HATCH
  5
73
100
AcDbEntity
  8
0
370
              -2
390
0
  6
Continuous
 62
               0
100
AcDbHatch
 10
0.0
 20
0.0
 30
0.0
210
0.0
220
0.0
230
1.0
  2
SOLID
 70
               1
 71
               1
 91
        1
 92
        1
 93
        1
 72
               2
 10
-845.54756732546753
 20
-425.37142397257645
 40
1.9998779296875
 50
0.0
 51
360.0
 73
               0
 97
        1
330
72
 75
               0
 76
               1
 98
        1
 10
0.0
 20
0.0
  0
CIRCLE
  5
74
102
{ACAD_REACTORS
330
75
102
}
100
AcDbEntity
  8
0
370
              -2
390
0
  6
Continuous
 62
               0
100
AcDbCircle
 10
-845.54756732546753
 20
-325.37142397257651
 30
0.0
 40
1.9998779296875
  0
HATCH
  5
75
100
AcDbEntity
  8
0
370
              -2
390
0
  6
Continuous
 62
               0
100
AcDbHatch
 10
0.0
 20
0.0
 30
0.0
210
0.0
220
0.0
230
1.0
  2
SOLID
 70
               1
 71
               1
 91
        1
 92
        1
 93
        1
 72
               2
 10
-845.54756732546753
 20
-325.37142397257651
 40
1.9998779296875
 50
0.0
 51
360.0
 73
               0
 97
        1
330
74
 75
               0
 76
               1
 98
        1
 10
0.0
 20
0.0
  0
MTEXT
  5
76
100
AcDbEntity
  8
0
390
0
 62
               0
100
AcDbMText
 10
-879.42518451296758
 20
-399.18392565475204
 30
0.0
 40
27.78125
 41
0.0
 71
               1
 72
               1
  1
{\H0.8795x;\l100}
 11
0.0
 21
1.0
 31
0.0
 73
               1
 44
0.7828267384257843
  0
POINT
  5
77
100
AcDbEntity
  8
Defpoints
370
               0
390
0
 62
               0
100
AcDbPoint
 10
-738.54756732546753
 20
-325.37142397257651
 30
0.0
  0
POINT
  5
78
100
AcDbEntity
  8
Defpoints
370
               0
390
0
 62
               0
100
AcDbPoint
 10
-581.04756732546764
 20
-425.37142397257645
 30
0.0
  0
POINT
  5
79
100
AcDbEntity
  8
Defpoints
370
               0
390
0
 62
               0
100
AcDbPoint
 10
-845.54756732546753
 20
-425.37142397257645
 30
0.0
  0
ENDBLK
  5
7A
100
AcDbEntity
  8
notes
390
0
100
AcDbBlockEnd
  0
BLOCK
  5
7B
100
AcDbEntity
  8
notes
390
0
100
AcDbBlockBegin
  2
*D5
 70
               1
 10
0.0
 20
0.0
 30
0.0
  3
*D5
  1

  0
LINE
  5
7C
100
AcDbEntity
  8
0
370
              -2
390
0
  6
Continuous
 62
               0
100
AcDbLine
 10
-77.547567325467725
 20
-325.37142397257651
 30
0.0
 11
4.4524326745322753
 21
-325.37142397257651
 31
0.0
  0
LINE
  5
7D
100
AcDbEntity
  8
0
370
              -2
390
0
  6
Continuous
 62
               0
100
AcDbLine
 10
-358.04756732546764
 20
-560.37142397257639
 30
0.0
 11
4.4524326745322753
 21
-560.37142397257639
 31
0.0
  0
LINE
  5
7E
100
AcDbEntity
  8
0
370
              -2
390
0
  6
Continuous
 62
               0
100
AcDbLine
 10
4.4524326745322753
 20
-325.37142397257651
 30
0.0
 11
4.4524326745322753
 21
-560.37142397257639
 31
0.0
  0
CIRCLE
  5
7F
102
{ACAD_REACTORS
330
80
102
}
100
AcDbEntity
  8
0
370
              -2
390
0
  6
Continuous
 62
               0
100
AcDbCircle
 10
4.4524326745322753
 20
-325.37142397257651
 30
0.0
 40
1.9998779296875
  0
HATCH
  5
80
100
AcDbEntity
  8
0
370
              -2
390
0
  6
Continuous
 62
               0
100
AcDbHatch
 10
0.0
 20
0.0
 30
0.0
210
0.0
220
0.0
230
1.0
  2
SOLID
 70
               1
 71
               1
 91
        1
 92
        1
 93
        1
 72
               2
 10
4.4524326745322753
 20
-325.37142397257651
 40
1.9998779296875
 50
0.0
 51
360.0
 73
               0
 97
        1
330
7F
 75
               0
 76
               1
 98
        1
 10
0.0
 20
0.0
  0
CIRCLE
  5
81
102
{ACAD_REACTORS
330
82
102
}
100
AcDbEntity
  8
0
370
              -2
390
0
  6
Continuous
 62
               0
100
AcDbCircle
 10
4.4524326745322753
 20
-560.37142397257639
 30
0.0
 40
1.9998779296875
  0
HATCH
  5
82
100
AcDbEntity
  8
0
370
              -2
390
0
  6
Continuous
 62
               0
100
AcDbHatch
 10
0.0
 20
0.0
 30
0.0
210
0.0
220
0.0
230
1.0
  2
SOLID
 70
               1
 71
               1
 91
        1
 92
        1
 93
        1
 72
               2
 10
4.4524326745322753
 20
-560.37142397257639
 40
1.9998779296875
 50
0.0
 51
360.0
 73
               0
 97
        1
330
81
 75
               0
 76
               1
 98
        1
 10
0.0
 20
0.0
  0
MTEXT
  5
83
100
AcDbEntity
  8
0
390
0
 62
               0
100
AcDbMText
 10
-29.425184512967732
 20
-466.68392565475199
 30
0.0
 40
27.78125
 41
0.0
 71
               1
 72
               1
  1
{\H0.8795x;\l235}
 11
0.0
 21
1.0
 31
0.0
 73
               1
 44
0.7828267384257843
  0
POINT
  5
84
100
AcDbEntity
  8
Defpoints
370
               0
390
0
 62
               0
100
AcDbPoint
 10
-383.04756732546764
 20
-560.37142397257639
 30
0.0
  0
POINT
  5
85
100
AcDbEntity
  8
Defpoints
370
               0
390
0
 62
               0
100
AcDbPoint
 10
-102.54756732546772
 20
-325.37142397257651
 30
0.0
  0
POINT
  5
86
100
AcDbEntity
  8
Defpoints
370
               0
390
0
 62
               0
100
AcDbPoint
 10
4.4524326745322753
 20
-325.37142397257651
 30
0.0
  0
ENDBLK
  5
87
100
AcDbEntity
  8
notes
390
0
100
AcDbBlockEnd
  0
BLOCK
  5
88
100
AcDbEntity
  8
notes
390
0
100
AcDbBlockBegin
  2
*D6
 70
               1
 10
0.0
 20
0.0
 30
0.0
  3
*D6
  1

  0
LINE
  5
89
100
AcDbEntity
  8
0
370
              -2
390
0
  6
Continuous
 62
               0
100
AcDbLine
 10
639.99994288202299
 20
-581.77809523122551
 30
0.0
 11
639.99994288202299
 21
-660.37142397257639
 31
0.0
  0
LINE
  5
8A
100
AcDbEntity
  8
0
370
              -2
390
0
  6
Continuous
 62
               0
100
AcDbLine
 10
850.00000000000011
 20
-545.37142397257617
 30
0.0
 11
850.00000000000011
 21
-660.37142397257639
 31
0.0
  0
LINE
  5
8B
100
AcDbEntity
  8
0
370
              -2
390
0
  6
Continuous
 62
               0
100
AcDbLine
 10
639.99994288202299
 20
-660.37142397257639
 30
0.0
 11
850.00000000000011
 21
-660.37142397257639
 31
0.0
  0
CIRCLE
  5
8C
102
{ACAD_REACTORS
330
8D
102
}
100
AcDbEntity
  8
0
370
              -2
390
0
  6
Continuous
 62
               0
100
AcDbCircle
 10
639.99994288202299
 20
-660.37142397257639
 30
0.0
 40
1.9998779296875
  0
HATCH
  5
8D
100
AcDbEntity
  8
0
370
              -2
390
0
  6
Continuous
 62
               0
100
AcDbHatch
 10
0.0
 20
0.0
 30
0.0
210
0.0
220
0.0
230
1.0
  2
SOLID
 70
               1
 71
               1
 91
        1
 92
        1
 93
        1
 72
               2
 10
639.99994288202299
 20
-660.37142397257639
 40
1.9998779296875
 50
0.0
 51
360.0
 73
               0
 97
        1
330
8C
 75
               0
 76
               1
 98
        1
 10
0.0
 20
0.0
  0
CIRCLE
  5
8E
102
{ACAD_REACTORS
330
8F
102
}
100
AcDbEntity
  8
0
370
              -2
390
0
  6
Continuous
 62
               0
100
AcDbCircle
 10
850.00000000000011
 20
-660.37142397257639
 30
0.0
 40
1.9998779296875
  0
HATCH
  5
8F
100
AcDbEntity
  8
0
370
              -2
390
0
  6
Continuous
 62
               0
100
AcDbHatch
 10
0.0
 20
0.0
 30
0.0
210
0.0
220
0.0
230
1.0
  2
SOLID
 70
               1
 71
               1
 91
        1
 92
        1
 93
        1
 72
               2
 10
850.00000000000011
 20
-660.37142397257639
 40
1.9998779296875
 50
0.0
 51
360.0
 73
               0
 97
        1
330
8E
 75
               0
 76
               1
 98
        1
 10
0.0
 20
0.0
  0
MTEXT
  5
90
100
AcDbEntity
  8
0
390
0
 62
               0
100
AcDbMText
 10
721.18746975883607
 20
-626.49380678507634
 30
0.0
 40
27.78125
 41
0.0
 71
               1
 72
               1
  1
{\H0.8795x;\l210}
 73
               1
 44
0.7828267384257843
  0
POINT
  5
91
100
AcDbEntity
  8
Defpoints
370
               0
390
0
 62
               0
100
AcDbPoint
 10
850.00000000000011
 20
-520.37142397257617
 30
0.0
  0
POINT
  5
92
100
AcDbEntity
  8
Defpoints
370
               0
390
0
 62
               0
100
AcDbPoint
 10
639.99994288202299
 20
-556.77809523122551
 30
0.0
  0
POINT
  5
93
100
AcDbEntity
  8
Defpoints
370
               0
390
0
 62
               0
100
AcDbPoint
 10
639.99994288202299
 20
-660.37142397257639
 30
0.0
  0
ENDBLK
  5
94
100
AcDbEntity
  8
notes
390
0
100
AcDbBlockEnd
  0
BLOCK
  5
95
100
AcDbEntity
  8
notes
390
0
100
AcDbBlockBegin
  2
*D7
 70
               1
 10
0.0
 20
0.0
 30
0.0
  3
*D7
  1

  0
LINE
  5
96
100
AcDbEntity
  8
0
370
              -2
390
0
  6
Continuous
 62
               0
100
AcDbLine
 10
-95.547567325467327
 20
910.55077391097552
 30
0.0
 11
-95.547567325467327
 21
1040.5507739109755
 31
0.0
  0
LINE
  5
97
100
AcDbEntity
  8
0
370
              -2
390
0
  6
Continuous
 62
               0
100
AcDbLine
 10
-745.54756732546775
 20
910.55077391097552
 30
0.0
 11
-745.54756732546775
 21
1040.5507739109755
 31
0.0
  0
LINE
  5
98
100
AcDbEntity
  8
0
370
              -2
390
0
  6
Continuous
 62
               0
100
AcDbLine
 10
-95.547567325467327
 20
1040.5507739109755
 30
0.0
 11
-745.54756732546775
 21
1040.5507739109755
 31
0.0
  0
CIRCLE
  5
99
102
{ACAD_REACTORS
330
9A
102
}
100
AcDbEntity
  8
0
370
              -2
390
0
  6
Continuous
 62
               0
100
AcDbCircle
 10
-95.547567325467327
 20
1040.5507739109755
 30
0.0
 40
1.9998779296875
  0
HATCH
  5
9A
100
AcDbEntity
  8
0
370
              -2
390
0
  6
Continuous
 62
               0
100
AcDbHatch
 10
0.0
 20
0.0
 30
0.0
210
0.0
220
0.0
230
1.0
  2
SOLID
 70
               1
 71
               1
 91
        1
 92
        1
 93
        1
 72
               2
 10
-95.547567325467327
 20
1040.5507739109755
 40
1.9998779296875
 50
0.0
 51
360.0
 73
               0
 97
        1
330
99
 75
               0
 76
               1
 98
        1
 10
0.0
 20
0.0
  0
CIRCLE
  5
9B
102
{ACAD_REACTORS
330
9C
102
}
100
AcDbEntity
  8
0
370
              -2
390
0
  6
Continuous
 62
               0
100
AcDbCircle
 10
-745.54756732546775
 20
1040.5507739109755
 30
0.0
 40
1.9998779296875
  0
HATCH
  5
9C
100
AcDbEntity
  8
0
370
              -2
390
0
  6
Continuous
 62
               0
100
AcDbHatch
 10
0.0
 20
0.0
 30
0.0
210
0.0
220
0.0
230
1.0
  2
SOLID
 70
               1
 71
               1
 91
        1
 92
        1
 93
        1
 72
               2
 10
-745.54756732546775
 20
1040.5507739109755
 40
1.9998779296875
 50
0.0
 51
360.0
 73
               0
 97
        1
330
9B
 75
               0
 76
               1
 98
        1
 10
0.0
 20
0.0
  0
MTEXT
  5
9D
100
AcDbEntity
  8
0
390
0
 62
               0
100
AcDbMText
 10
-444.36006900764301
 20
1074.4283910984755
 30
0.0
 40
27.78125
 41
0.0
 71
               1
 72
               1
  1
{\H0.8795x;\l650}
 73
               1
 44
0.7828267384257843
  0
POINT
  5
9E
100
AcDbEntity
  8
Defpoints
370
               0
390
0
 62
               0
100
AcDbPoint
 10
-745.54756732546775
 20
885.55077391097552
 30
0.0
  0
POINT
  5
9F
100
AcDbEntity
  8
Defpoints
370
               0
390
0
 62
               0
100
AcDbPoint
 10
-95.547567325467327
 20
885.55077391097552
 30
0.0
  0
POINT
  5
A0
100
AcDbEntity
  8
Defpoints
370
               0
390
0
 62
               0
100
AcDbPoint
 10
-95.547567325467327
 20
1040.5507739109755
 30
0.0
  0
ENDBLK
  5
A1
100
AcDbEntity
  8
notes
390
0
100
AcDbBlockEnd
  0
BLOCK
  5
A2
100
AcDbEntity
  8
notes
390
0
100
AcDbBlockBegin
  2
*D8
 70
               1
 10
0.0
 20
0.0
 30
0.0
  3
*D8
  1

  0
LINE
  5
A3
100
AcDbEntity
  8
0
370
              -2
390
0
  6
Continuous
 62
               0
100
AcDbLine
 10
-75.547567325467327
 20
890.55077391097552
 30
0.0
 11
4.4524326745324458
 21
890.55077391097552
 31
0.0
  0
LINE
  5
A4
100
AcDbEntity
  8
0
370
              -2
390
0
  6
Continuous
 62
               0
100
AcDbLine
 10
-170.54756732546758
 20
405.55077391097626
 30
0.0
 11
4.4524326745324458
 21
405.55077391097626
 31
0.0
  0
LINE
  5
A5
100
AcDbEntity
  8
0
370
              -2
390
0
  6
Continuous
 62
               0
100
AcDbLine
 10
4.4524326745324458
 20
890.55077391097552
 30
0.0
 11
4.4524326745324458
 21
405.55077391097626
 31
0.0
  0
CIRCLE
  5
A6
102
{ACAD_REACTORS
330
A7
102
}
100
AcDbEntity
  8
0
370
              -2
390
0
  6
Continuous
 62
               0
100
AcDbCircle
 10
4.4524326745324458
 20
890.55077391097552
 30
0.0
 40
1.9998779296875
  0
HATCH
  5
A7
100
AcDbEntity
  8
0
370
              -2
390
0
  6
Continuous
 62
               0
100
AcDbHatch
 10
0.0
 20
0.0
 30
0.0
210
0.0
220
0.0
230
1.0
  2
SOLID
 70
               1
 71
               1
 91
        1
 92
        1
 93
        1
 72
               2
 10
4.4524326745324458
 20
890.55077391097552
 40
1.9998779296875
 50
0.0
 51
360.0
 73
               0
 97
        1
330
A6
 75
               0
 76
               1
 98
        1
 10
0.0
 20
0.0
  0
CIRCLE
  5
A8
102
{ACAD_REACTORS
330
A9
102
}
100
AcDbEntity
  8
0
370
              -2
390
0
  6
Continuous
 62
               0
100
AcDbCircle
 10
4.4524326745324458
 20
405.55077391097626
 30
0.0
 40
1.9998779296875
  0
HATCH
  5
A9
100
AcDbEntity
  8
0
370
              -2
390
0
  6
Continuous
 62
               0
100
AcDbHatch
 10
0.0
 20
0.0
 30
0.0
210
0.0
220
0.0
230
1.0
  2
SOLID
 70
               1
 71
               1
 91
        1
 92
        1
 93
        1
 72
               2
 10
4.4524326745324458
 20
405.55077391097626
 40
1.9998779296875
 50
0.0
 51
360.0
 73
               0
 97
        1
330
A8
 75
               0
 76
               1
 98
        1
 10
0.0
 20
0.0
  0
MTEXT
  5
AA
100
AcDbEntity
  8
0
390
0
 62
               0
100
AcDbMText
 10
-29.425184512967562
 20
624.23827222880038
 30
0.0
 40
27.78125
 41
0.0
 71
               1
 72
               1
  1
{\H0.8795x;\l485}
 11
0.0
 21
1.0
 31
0.0
 73
               1
 44
0.7828267384257843
  0
POINT
  5
AB
100
AcDbEntity
  8
Defpoints
370
               0
390
0
 62
               0
100
AcDbPoint
 10
-195.54756732546758
 20
405.55077391097626
 30
0.0
  0
POINT
  5
AC
100
AcDbEntity
  8
Defpoints
370
               0
390
0
 62
               0
100
AcDbPoint
 10
-100.54756732546733
 20
890.55077391097552
 30
0.0
  0
POINT
  5
AD
100
AcDbEntity
  8
Defpoints
370
               0
390
0
 62
               0
100
AcDbPoint
 10
4.4524326745324458
 20
890.55077391097552
 30
0.0
  0
ENDBLK
  5
AE
100
AcDbEntity
  8
notes
390
0
100
AcDbBlockEnd
  0
BLOCK
  5
AF
100
AcDbEntity
  8
notes
390
0
100
AcDbBlockBegin
  2
*D9
 70
               1
 10
0.0
 20
0.0
 30
0.0
  3
*D9
  1

  0
LINE
  5
B0
100
AcDbEntity
  8
0
370
              -2
390
0
  6
Continuous
 62
               0
100
AcDbLine
 10
-710.54756732546764
 20
387.76549647693389
 30
0.0
 11
-710.54756732546764
 21
305.6044714037717
 31
0.0
  0
LINE
  5
B1
100
AcDbEntity
  8
0
370
              -2
390
0
  6
Continuous
 62
               0
100
AcDbLine
 10
-130.54756732546761
 20
387.5334569401204
 30
0.0
 11
-130.54756732546761
 21
305.6044714037717
 31
0.0
  0
LINE
  5
B2
100
AcDbEntity
  8
0
370
              -2
390
0
  6
Continuous
 62
               0
100
AcDbLine
 10
-710.54756732546764
 20
305.6044714037717
 30
0.0
 11
-130.54756732546761
 21
305.6044714037717
 31
0.0
  0
CIRCLE
  5
B3
102
{ACAD_REACTORS
330
B4
102
}
100
AcDbEntity
  8
0
370
              -2
390
0
  6
Continuous
 62
               0
100
AcDbCircle
 10
-710.54756732546764
 20
305.6044714037717
 30
0.0
 40
1.9998779296875
  0
HATCH
  5
B4
100
AcDbEntity
  8
0
370
              -2
390
0
  6
Continuous
 62
               0
100
AcDbHatch
 10
0.0
 20
0.0
 30
0.0
210
0.0
220
0.0
230
1.0
  2
SOLID
 70
               1
 71
               1
 91
        1
 92
        1
 93
        1
 72
               2
 10
-710.54756732546764
 20
305.6044714037717
 40
1.9998779296875
 50
0.0
 51
360.0
 73
               0
 97
        1
330
B3
 75
               0
 76
               1
 98
        1
 10
0.0
 20
0.0
  0
CIRCLE
  5
B5
102
{ACAD_REACTORS
330
B6
102
}
100
AcDbEntity
  8
0
370
              -2
390
0
  6
Continuous
 62
               0
100
AcDbCircle
 10
-130.54756732546761
 20
305.6044714037717
 30
0.0
 40
1.9998779296875
  0
HATCH
  5
B6
100
AcDbEntity
  8
0
370
              -2
390
0
  6
Continuous
 62
               0
100
AcDbHatch
 10
0.0
 20
0.0
 30
0.0
210
0.0
220
0.0
230
1.0
  2
SOLID
 70
               1
 71
               1
 91
        1
 92
        1
 93
        1
 72
               2
 10
-130.54756732546761
 20
305.6044714037717
 40
1.9998779296875
 50
0.0
 51
360.0
 73
               0
 97
        1
330
B5
 75
               0
 76
               1
 98
        1
 10
0.0
 20
0.0
  0
MTEXT
  5
B7
100
AcDbEntity
  8
0
390
0
 62
               0
100
AcDbMText
 10
-444.36006900764312
 20
339.48208859127169
 30
0.0
 40
27.78125
 41
0.0
 71
               1
 72
               1
  1
{\H0.8795x;\l580}
 73
               1
 44
0.7828267384257843
  0
POINT
  5
B8
100
AcDbEntity
  8
Defpoints
370
               0
390
0
 62
               0
100
AcDbPoint
 10
-130.54756732546761
 20
412.5334569401204
 30
0.0
  0
POINT
  5
B9
100
AcDbEntity
  8
Defpoints
370
               0
390
0
 62
               0
100
AcDbPoint
 10
-710.54756732546764
 20
412.76549647693389
 30
0.0
  0
POINT
  5
BA
100
AcDbEntity
  8
Defpoints
370
               0
390
0
 62
               0
100
AcDbPoint
 10
-710.54756732546764
 20
305.6044714037717
 30
0.0
  0
ENDBLK
  5
BB
100
AcDbEntity
  8
notes
390
0
100
AcDbBlockEnd
  0
BLOCK
  5
BC
100
AcDbEntity
  8
notes
390
0
100
AcDbBlockBegin
  2
*D10
 70
               1
 10
0.0
 20
0.0
 30
0.0
  3
*D10
  1

  0
LINE
  5
BD
100
AcDbEntity
  8
0
370
              -2
390
0
  6
Continuous
 62
               0
100
AcDbLine
 10
-770.54756732546775
 20
750.55077391097598
 30
0.0
 11
-845.54756732546764
 21
750.55077391097598
 31
0.0
  0
LINE
  5
BE
100
AcDbEntity
  8
0
370
              -2
390
0
  6
Continuous
 62
               0
100
AcDbLine
 10
-768.50943547661404
 20
440.55077391097592
 30
0.0
 11
-845.54756732546764
 21
440.55077391097592
 31
0.0
  0
LINE
  5
BF
100
AcDbEntity
  8
0
370
              -2
390
0
  6
Continuous
 62
               0
100
AcDbLine
 10
-845.54756732546764
 20
750.55077391097598
 30
0.0
 11
-845.54756732546764
 21
440.55077391097592
 31
0.0
  0
CIRCLE
  5
C0
102
{ACAD_REACTORS
330
C1
102
}
100
AcDbEntity
  8
0
370
              -2
390
0
  6
Continuous
 62
               0
100
AcDbCircle
 10
-845.54756732546764
 20
750.55077391097598
 30
0.0
 40
1.9998779296875
  0
HATCH
  5
C1
100
AcDbEntity
  8
0
370
              -2
390
0
  6
Continuous
 62
               0
100
AcDbHatch
 10
0.0
 20
0.0
 30
0.0
210
0.0
220
0.0
230
1.0
  2
SOLID
 70
               1
 71
               1
 91
        1
 92
        1
 93
        1
 72
               2
 10
-845.54756732546764
 20
750.55077391097598
 40
1.9998779296875
 50
0.0
 51
360.0
 73
               0
 97
        1
330
C0
 75
               0
 76
               1
 98
        1
 10
0.0
 20
0.0
  0
CIRCLE
  5
C2
102
{ACAD_REACTORS
330
C3
102
}
100
AcDbEntity
  8
0
370
              -2
390
0
  6
Continuous
 62
               0
100
AcDbCircle
 10
-845.54756732546764
 20
440.55077391097592
 30
0.0
 40
1.9998779296875
  0
HATCH
  5
C3
100
AcDbEntity
  8
0
370
              -2
390
0
  6
Continuous
 62
               0
100
AcDbHatch
 10
0.0
 20
0.0
 30
0.0
210
0.0
220
0.0
230
1.0
  2
SOLID
 70
               1
 71
               1
 91
        1
 92
        1
 93
        1
 72
               2
 10
-845.54756732546764
 20
440.55077391097592
 40
1.9998779296875
 50
0.0
 51
360.0
 73
               0
 97
        1
330
C2
 75
               0
 76
               1
 98
        1
 10
0.0
 20
0.0
  0
MTEXT
  5
C4
100
AcDbEntity
  8
0
390
0
 62
               0
100
AcDbMText
 10
-879.42518451296769
 20
571.7382722288005
 30
0.0
 40
27.78125
 41
0.0
 71
               1
 72
               1
  1
{\H0.8795x;\l310}
 11
0.0
 21
1.0
 31
0.0
 73
               1
 44
0.7828267384257843
  0
POINT
  5
C5
100
AcDbEntity
  8
Defpoints
370
               0
390
0
 62
               0
100
AcDbPoint
 10
-743.50943547661404
 20
440.55077391097592
 30
0.0
  0
POINT
  5
C6
100
AcDbEntity
  8
Defpoints
370
               0
390
0
 62
               0
100
AcDbPoint
 10
-745.54756732546775
 20
750.55077391097598
 30
0.0
  0
POINT
  5
C7
100
AcDbEntity
  8
Defpoints
370
               0
390
0
 62
               0
100
AcDbPoint
 10
-845.54756732546764
 20
750.55077391097598
 30
0.0
  0
ENDBLK
  5
C8
100
AcDbEntity
  8
notes
390
0
100
AcDbBlockEnd
  0
BLOCK
  5
C9
100
AcDbEntity
  8
notes
390
0
100
AcDbBlockBegin
  2
*D11
 70
               1
 10
0.0
 20
0.0
 30
0.0
  3
*D11
  1

  0
LINE
  5
CA
100
AcDbEntity
  8
0
370
              -2
390
0
  6
Continuous
 62
               0
100
AcDbLine
 10
-420.54756732546764
 20
853.79110232626795
 30
0.0
 11
-420.54756732546764
 21
990.55077391097564
 31
0.0
  0
LINE
  5
CB
100
AcDbEntity
  8
0
370
              -2
390
0
  6
Continuous
 62
               0
100
AcDbLine
 10
-520.54756732546764
 20
853.79110232626795
 30
0.0
 11
-520.54756732546764
 21
990.55077391097564
 31
0.0
  0
LINE
  5
CC
100
AcDbEntity
  8
0
370
              -2
390
0
  6
Continuous
 62
               0
100
AcDbLine
 10
-420.54756732546764
 20
990.55077391097564
 30
0.0
 11
-520.54756732546764
 21
990.55077391097564
 31
0.0
  0
CIRCLE
  5
CD
102
{ACAD_REACTORS
330
CE
102
}
100
AcDbEntity
  8
0
370
              -2
390
0
  6
Continuous
 62
               0
100
AcDbCircle
 10
-420.54756732546764
 20
990.55077391097564
 30
0.0
 40
1.9998779296875
  0
HATCH
  5
CE
100
AcDbEntity
  8
0
370
              -2
390
0
  6
Continuous
 62
               0
100
AcDbHatch
 10
0.0
 20
0.0
 30
0.0
210
0.0
220
0.0
230
1.0
  2
SOLID
 70
               1
 71
               1
 91
        1
 92
        1
 93
        1
 72
               2
 10
-420.54756732546764
 20
990.55077391097564
 40
1.9998779296875
 50
0.0
 51
360.0
 73
               0
 97
        1
330
CD
 75
               0
 76
               1
 98
        1
 10
0.0
 20
0.0
  0
CIRCLE
  5
CF
102
{ACAD_REACTORS
330
D0
102
}
100
AcDbEntity
  8
0
370
              -2
390
0
  6
Continuous
 62
               0
100
AcDbCircle
 10
-520.54756732546764
 20
990.55077391097564
 30
0.0
 40
1.9998779296875
  0
HATCH
  5
D0
100
AcDbEntity
  8
0
370
              -2
390
0
  6
Continuous
 62
               0
100
AcDbHatch
 10
0.0
 20
0.0
 30
0.0
210
0.0
220
0.0
230
1.0
  2
SOLID
 70
               1
 71
               1
 91
        1
 92
        1
 93
        1
 72
               2
 10
-520.54756732546764
 20
990.55077391097564
 40
1.9998779296875
 50
0.0
 51
360.0
 73
               0
 97
        1
330
CF
 75
               0
 76
               1
 98
        1
 10
0.0
 20
0.0
  0
MTEXT
  5
D1
100
AcDbEntity
  8
0
390
0
 62
               0
100
AcDbMText
 10
-494.36006900764312
 20
1024.4283910984757
 30
0.0
 40
27.78125
 41
0.0
 71
               1
 72
               1
  1
{\H0.8795x;\l100}
 73
               1
 44
0.7828267384257843
  0
POINT
  5
D2
100
AcDbEntity
  8
Defpoints
370
               0
390
0
 62
               0
100
AcDbPoint
 10
-520.54756732546764
 20
828.79110232626795
 30
0.0
  0
POINT
  5
D3
100
AcDbEntity
  8
Defpoints
370
               0
390
0
 62
               0
100
AcDbPoint
 10
-420.54756732546764
 20
828.79110232626795
 30
0.0
  0
POINT
  5
D4
100
AcDbEntity
  8
Defpoints
370
               0
390
0
 62
               0
100
AcDbPoint
 10
-420.54756732546764
 20
990.55077391097564
 30
0.0
  0
ENDBLK
  5
D5
100
AcDbEntity
  8
notes
390
0
100
AcDbBlockEnd
  0
BLOCK
  5
D6
100
AcDbEntity
  8
notes
390
0
100
AcDbBlockBegin
  2
*D12
 70
               1
 10
0.0
 20
0.0
 30
0.0
  3
*D12
  1

  0
LINE
  5
D7
100
AcDbEntity
  8
0
370
              -2
390
0
  6
Continuous
 62
               0
100
AcDbLine
 10
-420.54756732546764
 20
853.79110232626795
 30
0.0
 11
-420.54756732546764
 21
990.55077391097564
 31
0.0
  0
LINE
  5
D8
100
AcDbEntity
  8
0
370
              -2
390
0
  6
Continuous
 62
               0
100
AcDbLine
 10
-320.54756732546764
 20
853.79110232626795
 30
0.0
 11
-320.54756732546764
 21
990.55077391097564
 31
0.0
  0
LINE
  5
D9
100
AcDbEntity
  8
0
370
              -2
390
0
  6
Continuous
 62
               0
100
AcDbLine
 10
-420.54756732546764
 20
990.55077391097564
 30
0.0
 11
-320.54756732546764
 21
990.55077391097564
 31
0.0
  0
CIRCLE
  5
DA
102
{ACAD_REACTORS
330
DB
102
}
100
AcDbEntity
  8
0
370
              -2
390
0
  6
Continuous
 62
               0
100
AcDbCircle
 10
-420.54756732546764
 20
990.55077391097564
 30
0.0
 40
1.9998779296875
  0
HATCH
  5
DB
100
AcDbEntity
  8
0
370
              -2
390
0
  6
Continuous
 62
               0
100
AcDbHatch
 10
0.0
 20
0.0
 30
0.0
210
0.0
220
0.0
230
1.0
  2
SOLID
 70
               1
 71
               1
 91
        1
 92
        1
 93
        1
 72
               2
 10
-420.54756732546764
 20
990.55077391097564
 40
1.9998779296875
 50
0.0
 51
360.0
 73
               0
 97
        1
330
DA
 75
               0
 76
               1
 98
        1
 10
0.0
 20
0.0
  0
CIRCLE
  5
DC
102
{ACAD_REACTORS
330
DD
102
}
100
AcDbEntity
  8
0
370
              -2
390
0
  6
Continuous
 62
               0
100
AcDbCircle
 10
-320.54756732546764
 20
990.55077391097564
 30
0.0
 40
1.9998779296875
  0
HATCH
  5
DD
100
AcDbEntity
  8
0
370
              -2
390
0
  6
Continuous
 62
               0
100
AcDbHatch
 10
0.0
 20
0.0
 30
0.0
210
0.0
220
0.0
230
1.0
  2
SOLID
 70
               1
 71
               1
 91
        1
 92
        1
 93
        1
 72
               2
 10
-320.54756732546764
 20
990.55077391097564
 40
1.9998779296875
 50
0.0
 51
360.0
 73
               0
 97
        1
330
DC
 75
               0
 76
               1
 98
        1
 10
0.0
 20
0.0
  0
MTEXT
  5
DE
100
AcDbEntity
  8
0
390
0
 62
               0
100
AcDbMText
 10
-394.36006900764312
 20
1024.4283910984757
 30
0.0
 40
27.78125
 41
0.0
 71
               1
 72
               1
  1
{\H0.8795x;\l100}
 73
               1
 44
0.7828267384257843
  0
POINT
  5
DF
100
AcDbEntity
  8
Defpoints
370
               0
390
0
 62
               0
100
AcDbPoint
 10
-320.54756732546764
 20
828.79110232626795
 30
0.0
  0
POINT
  5
E0
100
AcDbEntity
  8
Defpoints
370
               0
390
0
 62
               0
100
AcDbPoint
 10
-420.54756732546764
 20
828.79110232626795
 30
0.0
  0
POINT
  5
E1
100
AcDbEntity
  8
Defpoints
370
               0
390
0
 62
               0
100
AcDbPoint
 10
-420.54756732546764
 20
990.55077391097564
 30
0.0
  0
ENDBLK
  5
E2
100
AcDbEntity
  8
notes
390
0
100
AcDbBlockEnd
  0
BLOCK
  5
E3
100
AcDbEntity
  8
notes
390
0
100
AcDbBlockBegin
  2
*D13
 70
               1
 10
0.0
 20
0.0
 30
0.0
  3
*D13
  1

  0
LINE
  5
E4
100
AcDbEntity
  8
0
370
              -2
390
0
  6
Continuous
 62
               0
100
AcDbLine
 10
-408.64204125337119
 20
824.11718703465408
 30
0.0
 11
-298.0
 21
943.3142880137118
 31
0.0
  0
CIRCLE
  5
E5
102
{ACAD_REACTORS
330
E6
102
}
100
AcDbEntity
  8
0
370
              -2
390
0
  6
Continuous
 62
               0
100
AcDbCircle
 10
-408.64204125337119
 20
824.11718703465408
 30
0.0
 40
1.9998779296875
  0
HATCH
  5
E6
100
AcDbEntity
  8
0
370
              -2
390
0
  6
Continuous
 62
               0
100
AcDbHatch
 10
0.0
 20
0.0
 30
0.0
210
0.0
220
0.0
230
1.0
  2
SOLID
 70
               1
 71
               1
 91
        1
 92
        1
 93
        1
 72
               2
 10
-408.64204125337119
 20
824.11718703465408
 40
1.9998779296875
 50
0.0
 51
360.0
 73
               0
 97
        1
330
E5
 75
               0
 76
               1
 98
        1
 10
0.0
 20
0.0
  0
LINE
  5
E7
100
AcDbEntity
  8
0
370
              -2
390
0
  6
Continuous
 62
               0
100
AcDbLine
 10
-298.0
 20
943.3142880137118
 30
0.0
 11
-174.49999999999997
 21
943.3142880137118
 31
0.0
  0
MTEXT
  5
E8
100
AcDbEntity
  8
0
390
0
 62
               0
100
AcDbMText
 10
-237.99999999999997
 20
977.19190520121185
 30
0.0
 40
27.78125
 41
0.0
 71
               1
 72
               1
  1
{\H0.8795x;\lφ35}
 73
               1
 44
0.7828267384257843
  0
POINT
  5
E9
100
AcDbEntity
  8
Defpoints
370
               0
390
0
 62
               0
100
AcDbPoint
 10
-432.4530933975642
 20
798.46501761788159
 30
0.0
  0
POINT
  5
EA
100
AcDbEntity
  8
Defpoints
370
               0
390
0
 62
               0
100
AcDbPoint
 10
-408.64204125337119
 20
824.11718703465408
 30
0.0
  0
ENDBLK
  5
EB
100
AcDbEntity
  8
notes
390
0
100
AcDbBlockEnd
  0
BLOCK
  5
EC
100
AcDbEntity
  8
notes
390
0
100
AcDbBlockBegin
  2
*D14
 70
               1
 10
0.0
 20
0.0
 30
0.0
  3
*D14
  1

  0
LINE
  5
ED
100
AcDbEntity
  8
0
370
              -2
390
0
  6
Continuous
 62
               0
100
AcDbLine
 10
-770.54756732546775
 20
750.55077391097598
 30
0.0
 11
-845.54756732546764
 21
750.55077391097598
 31
0.0
  0
LINE
  5
EE
100
AcDbEntity
  8
0
370
              -2
390
0
  6
Continuous
 62
               0
100
AcDbLine
 10
-765.54756732546764
 20
890.55077391097598
 30
0.0
 11
-845.54756732546764
 21
890.55077391097598
 31
0.0
  0
LINE
  5
EF
100
AcDbEntity
  8
0
370
              -2
390
0
  6
Continuous
 62
               0
100
AcDbLine
 10
-845.54756732546764
 20
750.55077391097598
 30
0.0
 11
-845.54756732546764
 21
890.55077391097598
 31
0.0
  0
CIRCLE
  5
F0
102
{ACAD_REACTORS
330
F1
102
}
100
AcDbEntity
  8
0
370
              -2
390
0
  6
Continuous
 62
               0
100
AcDbCircle
 10
-845.54756732546764
 20
750.55077391097598
 30
0.0
 40
1.9998779296875
  0
HATCH
  5
F1
100
AcDbEntity
  8
0
370
              -2
390
0
  6
Continuous
 62
               0
100
AcDbHatch
 10
0.0
 20
0.0
 30
0.0
210
0.0
220
0.0
230
1.0
  2
SOLID
 70
               1
 71
               1
 91
        1
 92
        1
 93
        1
 72
               2
 10
-845.54756732546764
 20
750.55077391097598
 40
1.9998779296875
 50
0.0
 51
360.0
 73
               0
 97
        1
330
F0
 75
               0
 76
               1
 98
        1
 10
0.0
 20
0.0
  0
CIRCLE
  5
F2
102
{ACAD_REACTORS
330
F3
102
}
100
AcDbEntity
  8
0
370
              -2
390
0
  6
Continuous
 62
               0
100
AcDbCircle
 10
-845.54756732546764
 20
890.55077391097598
 30
0.0
 40
1.9998779296875
  0
HATCH
  5
F3
100
AcDbEntity
  8
0
370
              -2
390
0
  6
Continuous
 62
               0
100
AcDbHatch
 10
0.0
 20
0.0
 30
0.0
210
0.0
220
0.0
230
1.0
  2
SOLID
 70
               1
 71
               1
 91
        1
 92
        1
 93
        1
 72
               2
 10
-845.54756732546764
 20
890.55077391097598
 40
1.9998779296875
 50
0.0
 51
360.0
 73
               0
 97
        1
330
F2
 75
               0
 76
               1
 98
        1
 10
0.0
 20
0.0
  0
MTEXT
  5
F4
100
AcDbEntity
  8
0
390
0
 62
               0
100
AcDbMText
 10
-879.42518451296769
 20
796.7382722288005
 30
0.0
 40
27.78125
 41
0.0
 71
               1
 72
               1
  1
{\H0.8795x;\l140}
 11
0.0
 21
1.0
 31
0.0
 73
               1
 44
0.7828267384257843
  0
POINT
  5
F5
100
AcDbEntity
  8
Defpoints
370
               0
390
0
 62
               0
100
AcDbPoint
 10
-740.54756732546764
 20
890.55077391097598
 30
0.0
  0
POINT
  5
F6
100
AcDbEntity
  8
Defpoints
370
               0
390
0
 62
               0
100
AcDbPoint
 10
-745.54756732546775
 20
750.55077391097598
 30
0.0
  0
POINT
  5
F7
100
AcDbEntity
  8
Defpoints
370
               0
390
0
 62
               0
100
AcDbPoint
 10
-845.54756732546764
 20
750.55077391097598
 30
0.0
  0
ENDBLK
  5
F8
100
AcDbEntity
  8
notes
390
0
100
AcDbBlockEnd
  0
BLOCK
  5
F9
100
AcDbEntity
  8
notes
390
0
100
AcDbBlockBegin
  2
*D15
 70
               1
 10
0.0
 20
0.0
 30
0.0
  3
*D15
  1

  0
LINE
  5
FA
100
AcDbEntity
  8
0
370
              -2
390
0
  6
Continuous
 62
               0
100
AcDbLine
 10
346.99994288202299
 20
-360.37142397257651
 30
0.0
 11
284.45538331373177
 21
-360.37142397257651
 31
0.0
  0
LINE
  5
FB
100
AcDbEntity
  8
0
370
              -2
390
0
  6
Continuous
 62
               0
100
AcDbLine
 10
477.23597819506278
 20
-520.37142397257617
 30
0.0
 11
284.45538331373177
 21
-520.37142397257617
 31
0.0
  0
LINE
  5
FC
100
AcDbEntity
  8
0
370
              -2
390
0
  6
Continuous
 62
               0
100
AcDbLine
 10
284.45538331373177
 20
-360.37142397257651
 30
0.0
 11
284.45538331373177
 21
-520.37142397257617
 31
0.0
  0
CIRCLE
  5
FD
102
{ACAD_REACTORS
330
FE
102
}
100
AcDbEntity
  8
0
370
              -2
390
0
  6
Continuous
 62
               0
100
AcDbCircle
 10
284.45538331373177
 20
-360.37142397257651
 30
0.0
 40
1.9998779296875
  0
HATCH
  5
FE
100
AcDbEntity
  8
0
370
              -2
390
0
  6
Continuous
 62
               0
100
AcDbHatch
 10
0.0
 20
0.0
 30
0.0
210
0.0
220
0.0
230
1.0
  2
SOLID
 70
               1
 71
               1
 91
        1
 92
        1
 93
        1
 72
               2
 10
284.45538331373177
 20
-360.37142397257651
 40
1.9998779296875
 50
0.0
 51
360.0
 73
               0
 97
        1
330
FD
 75
               0
 76
               1
 98
        1
 10
0.0
 20
0.0
  0
CIRCLE
  5
FF
102
{ACAD_REACTORS
330
100
102
}
100
AcDbEntity
  8
0
370
              -2
390
0
  6
Continuous
 62
               0
100
AcDbCircle
 10
284.45538331373177
 20
-520.37142397257617
 30
0.0
 40
1.9998779296875
  0
HATCH
  5
100
100
AcDbEntity
  8
0
370
              -2
390
0
  6
Continuous
 62
               0
100
AcDbHatch
 10
0.0
 20
0.0
 30
0.0
210
0.0
220
0.0
230
1.0
  2
SOLID
 70
               1
 71
               1
 91
        1
 92
        1
 93
        1
 72
               2
 10
284.45538331373177
 20
-520.37142397257617
 40
1.9998779296875
 50
0.0
 51
360.0
 73
               0
 97
        1
330
FF
 75
               0
 76
               1
 98
        1
 10
0.0
 20
0.0
  0
MTEXT
  5
101
100
AcDbEntity
  8
0
390
0
 62
               0
100
AcDbMText
 10
250.57776612623181
 20
-464.18392565475193
 30
0.0
 40
27.78125
 41
0.0
 71
               1
 72
               1
  1
{\H0.8795x;\l160}
 11
0.0
 21
1.0
 31
0.0
 73
               1
 44
0.7828267384257843
  0
POINT
  5
102
100
AcDbEntity
  8
Defpoints
370
               0
390
0
 62
               0
100
AcDbPoint
 10
502.23597819506278
 20
-520.37142397257617
 30
0.0
  0
POINT
  5
103
100
AcDbEntity
  8
Defpoints
370
               0
390
0
 62
               0
100
AcDbPoint
 10
371.99994288202299
 20
-360.37142397257651
 30
0.0
  0
POINT
  5
104
100
AcDbEntity
  8
Defpoints
370
               0
390
0
 62
               0
100
AcDbPoint
 10
284.45538331373177
 20
-360.37142397257651
 30
0.0
  0
ENDBLK
  5
105
100
AcDbEntity
  8
notes
390
0
100
AcDbBlockEnd
  0
BLOCK
  5
106
100
AcDbEntity
  8
notes
390
0
100
AcDbBlockBegin
  2
*D16
 70
               1
 10
0.0
 20
0.0
 30
0.0
  3
*D16
  1

  0
LINE
  5
107
100
AcDbEntity
  8
0
370
              -2
390
0
  6
Continuous
 62
               0
100
AcDbLine
 10
346.99994288202299
 20
-360.37142397257651
 30
0.0
 11
284.45538331373177
 21
-360.37142397257651
 31
0.0
  0
LINE
  5
108
100
AcDbEntity
  8
0
370
              -2
390
0
  6
Continuous
 62
               0
100
AcDbLine
 10
346.99994288202299
 20
-325.37142397257651
 30
0.0
 11
284.45538331373177
 21
-325.37142397257651
 31
0.0
  0
LINE
  5
109
100
AcDbEntity
  8
0
370
              -2
390
0
  6
Continuous
 62
               0
100
AcDbLine
 10
284.45538331373177
 20
-360.37142397257651
 30
0.0
 11
284.45538331373177
 21
-325.37142397257651
 31
0.0
  0
CIRCLE
  5
10A
102
{ACAD_REACTORS
330
10B
102
}
100
AcDbEntity
  8
0
370
              -2
390
0
  6
Continuous
 62
               0
100
AcDbCircle
 10
284.45538331373177
 20
-360.37142397257651
 30
0.0
 40
1.9998779296875
  0
HATCH
  5
10B
100
AcDbEntity
  8
0
370
              -2
390
0
  6
Continuous
 62
               0
100
AcDbHatch
 10
0.0
 20
0.0
 30
0.0
210
0.0
220
0.0
230
1.0
  2
SOLID
 70
               1
 71
               1
 91
        1
 92
        1
 93
        1
 72
               2
 10
284.45538331373177
 20
-360.37142397257651
 40
1.9998779296875
 50
0.0
 51
360.0
 73
               0
 97
        1
330
10A
 75
               0
 76
               1
 98
        1
 10
0.0
 20
0.0
  0
CIRCLE
  5
10C
102
{ACAD_REACTORS
330
10D
102
}
100
AcDbEntity
  8
0
370
              -2
390
0
  6
Continuous
 62
               0
100
AcDbCircle
 10
284.45538331373177
 20
-325.37142397257651
 30
0.0
 40
1.9998779296875
  0
HATCH
  5
10D
100
AcDbEntity
  8
0
370
              -2
390
0
  6
Continuous
 62
               0
100
AcDbHatch
 10
0.0
 20
0.0
 30
0.0
210
0.0
220
0.0
230
1.0
  2
SOLID
 70
               1
 71
               1
 91
        1
 92
        1
 93
        1
 72
               2
 10
284.45538331373177
 20
-325.37142397257651
 40
1.9998779296875
 50
0.0
 51
360.0
 73
               0
 97
        1
330
10C
 75
               0
 76
               1
 98
        1
 10
0.0
 20
0.0
  0
MTEXT
  5
10E
100
AcDbEntity
  8
0
390
0
 62
               0
100
AcDbMText
 10
250.57776612623181
 20
-358.74642397257651
 30
0.0
 40
27.78125
 41
0.0
 71
               1
 72
               1
  1
{\H0.8795x;\l35}
 11
0.0
 21
1.0
 31
0.0
 73
               1
 44
0.7828267384257843
  0
POINT
  5
10F
100
AcDbEntity
  8
Defpoints
370
               0
390
0
 62
               0
100
AcDbPoint
 10
371.99994288202299
 20
-325.37142397257651
 30
0.0
  0
POINT
  5
110
100
AcDbEntity
  8
Defpoints
370
               0
390
0
 62
               0
100
AcDbPoint
 10
371.99994288202299
 20
-360.37142397257651
 30
0.0
  0
POINT
  5
111
100
AcDbEntity
  8
Defpoints
370
               0
390
0
 62
               0
100
AcDbPoint
 10
284.45538331373177
 20
-360.37142397257651
 30
0.0
  0
ENDBLK
  5
112
100
AcDbEntity
  8
notes
390
0
100
AcDbBlockEnd
  0
BLOCK
  5
113
100
AcDbEntity
  8
notes
390
0
100
AcDbBlockBegin
  2
*D17
 70
               1
 10
0.0
 20
0.0
 30
0.0
  3
*D17
  1

  0
LINE
  5
114
100
AcDbEntity
  8
0
370
              -2
390
0
  6
Continuous
 62
               0
100
AcDbLine
 10
570.49994288202299
 20
-520.37142397257639
 30
0.0
 11
377.71934800069198
 21
-520.37142397257639
 31
0.0
  0
LINE
  5
115
100
AcDbEntity
  8
0
370
              -2
390
0
  6
Continuous
 62
               0
100
AcDbLine
 10
577.49994288202299
 20
-560.37142397257639
 30
0.0
 11
377.71934800069198
 21
-560.37142397257639
 31
0.0
  0
LINE
  5
116
100
AcDbEntity
  8
0
370
              -2
390
0
  6
Continuous
 62
               0
100
AcDbLine
 10
377.71934800069198
 20
-520.37142397257639
 30
0.0
 11
377.71934800069198
 21
-560.37142397257639
 31
0.0
  0
CIRCLE
  5
117
102
{ACAD_REACTORS
330
118
102
}
100
AcDbEntity
  8
0
370
              -2
390
0
  6
Continuous
 62
               0
100
AcDbCircle
 10
377.71934800069198
 20
-520.37142397257639
 30
0.0
 40
1.9998779296875
  0
HATCH
  5
118
100
AcDbEntity
  8
0
370
              -2
390
0
  6
Continuous
 62
               0
100
AcDbHatch
 10
0.0
 20
0.0
 30
0.0
210
0.0
220
0.0
230
1.0
  2
SOLID
 70
               1
 71
               1
 91
        1
 92
        1
 93
        1
 72
               2
 10
377.71934800069198
 20
-520.37142397257639
 40
1.9998779296875
 50
0.0
 51
360.0
 73
               0
 97
        1
330
117
 75
               0
 76
               1
 98
        1
 10
0.0
 20
0.0
  0
CIRCLE
  5
119
102
{ACAD_REACTORS
330
11A
102
}
100
AcDbEntity
  8
0
370
              -2
390
0
  6
Continuous
 62
               0
100
AcDbCircle
 10
377.71934800069198
 20
-560.37142397257639
 30
0.0
 40
1.9998779296875
  0
HATCH
  5
11A
100
AcDbEntity
  8
0
370
              -2
390
0
  6
Continuous
 62
               0
100
AcDbHatch
 10
0.0
 20
0.0
 30
0.0
210
0.0
220
0.0
230
1.0
  2
SOLID
 70
               1
 71
               1
 91
        1
 92
        1
 93
        1
 72
               2
 10
377.71934800069198
 20
-560.37142397257639
 40
1.9998779296875
 50
0.0
 51
360.0
 73
               0
 97
        1
330
119
 75
               0
 76
               1
 98
        1
 10
0.0
 20
0.0
  0
MTEXT
  5
11B
100
AcDbEntity
  8
0
390
0
 62
               0
100
AcDbMText
 10
343.84173081319204
 20
-556.24642397257639
 30
0.0
 40
27.78125
 41
0.0
 71
               1
 72
               1
  1
{\H0.8795x;\l40}
 11
0.0
 21
1.0
 31
0.0
 73
               1
 44
0.7828267384257843
  0
POINT
  5
11C
100
AcDbEntity
  8
Defpoints
370
               0
390
0
 62
               0
100
AcDbPoint
 10
602.49994288202299
 20
-560.37142397257639
 30
0.0
  0
POINT
  5
11D
100
AcDbEntity
  8
Defpoints
370
               0
390
0
 62
               0
100
AcDbPoint
 10
595.49994288202299
 20
-520.37142397257639
 30
0.0
  0
POINT
  5
11E
100
AcDbEntity
  8
Defpoints
370
               0
390
0
 62
               0
100
AcDbPoint
 10
377.71934800069198
 20
-520.37142397257639
 30
0.0
  0
ENDBLK
  5
11F
100
AcDbEntity
  8
notes
390
0
100
AcDbBlockEnd
  0
BLOCK
  5
120
100
AcDbEntity
  8
FAA70-2201
390
0
100
AcDbBlockBegin
  2
グループ-1
 70
               0
 10
0.0
 20
0.0
 30
0.0
  3
グループ-1
  1

  0
LINE
  5
121
100
AcDbEntity
  8
0
370
              15
390
0
  6
STYLE_12
 62
               7
100
AcDbLine
 10
607.87862253846151
 20
-476.48513967185744
 30
0.0
 11
613.12126322558152
 21
-481.72778035897653
 31
0.0
  0
ARC
  5
122
100
AcDbEntity
  8
0
370
              15
390
0
  6
STYLE_12
 62
               7
100
AcDbCircle
 10
605.73166180485032
 20
-478.66836139282049
 30
0.0
 40
3.0620087319524694
100
AcDbArc
 50
45.479784165404773
 51
89.520215834528912
  0
ARC
  5
123
100
AcDbEntity
  8
0
370
              15
390
0
  6
STYLE_12
 62
               7
100
AcDbCircle
 10
611.15729836635114
 20
-483.78392192681321
 30
0.0
 40
2.8433916570318205
100
AcDbArc
 50
358.68649966573531
 51
46.313500334266855
  0
LINE
  5
124
100
AcDbEntity
  8
0
370
              15
390
0
  6
STYLE_12
 62
               7
100
AcDbLine
 10
672.12126322558197
 20
-476.48513967185744
 30
0.0
 11
666.87862253846197
 21
-481.72778035897653
 31
0.0
  0
ARC
  5
125
100
AcDbEntity
  8
0
370
              15
390
0
  6
STYLE_12
 62
               7
100
AcDbCircle
 10
674.26822395919316
 20
-478.66836139282049
 30
0.0
 40
3.0620087319524538
100
AcDbArc
 50
90.479784165471102
 51
134.52021583459523
  0
ARC
  5
126
100
AcDbEntity
  8
0
370
              15
390
0
  6
STYLE_12
 62
               7
100
AcDbCircle
 10
668.84258739769257
 20
-483.78392192681321
 30
0.0
 40
2.8433916570318862
100
AcDbArc
 50
133.68649966573648
 51
181.3135003342648
  0
ENDBLK
  5
127
100
AcDbEntity
  8
FAA70-2201
390
0
100
AcDbBlockEnd
  0
BLOCK
  5
128
100
AcDbEntity
  8
FAA70-2201
390
0
100
AcDbBlockBegin
  2
グループ-2
 70
               0
 10
0.0
 20
0.0
 30
0.0
  3
グループ-2
  1

  0
LINE
  5
129
100
AcDbEntity
  8
0
370
              15
390
0
  6
STYLE_13
 62
               7
100
AcDbLine
 10
-388.42624698190843
 20
-475.52175095561012
 30
0.0
 11
-393.66888766902844
 21
-480.76439164272921
 31
0.0
  0
ARC
  5
12A
100
AcDbEntity
  8
0
370
              15
390
0
  6
STYLE_13
 62
               7
100
AcDbCircle
 10
-386.27928624829724
 20
-477.70497267657316
 30
0.0
 40
3.0620087319524538
100
AcDbArc
 50
90.479784165471102
 51
134.52021583459523
  0
ARC
  5
12B
100
AcDbEntity
  8
0
370
              15
390
0
  6
STYLE_13
 62
               7
100
AcDbCircle
 10
-391.70492280979795
 20
-482.82053321056588
 30
0.0
 40
2.8433916570318076
100
AcDbArc
 50
133.68649966573483
 51
181.31350033426475
  0
LINE
  5
12C
100
AcDbEntity
  8
0
370
              15
390
0
  6
STYLE_13
 62
               7
100
AcDbLine
 10
-452.66888766902889
 20
-475.52175095561012
 30
0.0
 11
-447.42624698190889
 21
-480.76439164272921
 31
0.0
  0
ARC
  5
12D
100
AcDbEntity
  8
0
370
              15
390
0
  6
STYLE_13
 62
               7
100
AcDbCircle
 10
-454.81584840264009
 20
-477.70497267657316
 30
0.0
 40
3.0620087319524694
100
AcDbArc
 50
45.479784165404773
 51
89.520215834528912
  0
ARC
  5
12E
100
AcDbEntity
  8
0
370
              15
390
0
  6
STYLE_13
 62
               7
100
AcDbCircle
 10
-449.39021184113938
 20
-482.82053321056588
 30
0.0
 40
2.8433916570317068
100
AcDbArc
 50
358.68649966573531
 51
46.3135003342652
  0
ENDBLK
  5
12F
100
AcDbEntity
  8
FAA70-2201
390
0
100
AcDbBlockEnd
  0
BLOCK
  5
130
100
AcDbEntity
  8
FAA70-2201
390
0
100
AcDbBlockBegin
  2
*D20
 70
               1
 10
0.0
 20
0.0
 30
0.0
  3
*D20
  1

  0
LINE
  5
131
100
AcDbEntity
  8
0
370
              -2
390
0
  6
Continuous
 62
               0
100
AcDbLine
 10
849.99994288202186
 20
-354.0
 30
0.0
 11
849.99994288202186
 21
-223.0
 31
0.0
  0
LINE
  5
132
100
AcDbEntity
  8
0
370
              -2
390
0
  6
Continuous
 62
               0
100
AcDbLine
 10
775.0
 20
-354.0
 30
0.0
 11
775.0
 21
-223.0
 31
0.0
  0
LINE
  5
133
100
AcDbEntity
  8
0
370
              -2
390
0
  6
Continuous
 62
               0
100
AcDbLine
 10
849.99994288202186
 20
-223.0
 30
0.0
 11
775.0
 21
-223.0
 31
0.0
  0
CIRCLE
  5
134
102
{ACAD_REACTORS
330
135
102
}
100
AcDbEntity
  8
0
370
              -2
390
0
  6
Continuous
 62
               0
100
AcDbCircle
 10
849.99994288202186
 20
-223.0
 30
0.0
 40
1.9998779296875
  0
HATCH
  5
135
100
AcDbEntity
  8
0
370
              -2
390
0
  6
Continuous
 62
               0
100
AcDbHatch
 10
0.0
 20
0.0
 30
0.0
210
0.0
220
0.0
230
1.0
  2
SOLID
 70
               1
 71
               1
 91
        1
 92
        1
 93
        1
 72
               2
 10
849.99994288202186
 20
-223.0
 40
1.9998779296875
 50
0.0
 51
360.0
 73
               0
 97
        1
330
134
 75
               0
 76
               1
 98
        1
 10
0.0
 20
0.0
  0
CIRCLE
  5
136
102
{ACAD_REACTORS
330
137
102
}
100
AcDbEntity
  8
0
370
              -2
390
0
  6
Continuous
 62
               0
100
AcDbCircle
 10
775.0
 20
-223.0
 30
0.0
 40
1.9998779296875
  0
HATCH
  5
137
100
AcDbEntity
  8
0
370
              -2
390
0
  6
Continuous
 62
               0
100
AcDbHatch
 10
0.0
 20
0.0
 30
0.0
210
0.0
220
0.0
230
1.0
  2
SOLID
 70
               1
 71
               1
 91
        1
 92
        1
 93
        1
 72
               2
 10
775.0
 20
-223.0
 40
1.9998779296875
 50
0.0
 51
360.0
 73
               0
 97
        1
330
136
 75
               0
 76
               1
 98
        1
 10
0.0
 20
0.0
  0
MTEXT
  5
138
100
AcDbEntity
  8
0
390
0
 62
               0
100
AcDbMText
 10
796.62497144101087
 20
-189.12238281250001
 30
0.0
 40
27.78125
 41
0.0
 71
               1
 72
               1
  1
{\H0.8795x;\l75}
 73
               1
 44
0.7828267384257843
  0
POINT
  5
139
100
AcDbEntity
  8
Defpoints
370
               0
390
0
 62
               0
100
AcDbPoint
 10
775.0
 20
-379.0
 30
0.0
  0
POINT
  5
13A
100
AcDbEntity
  8
Defpoints
370
               0
390
0
 62
               0
100
AcDbPoint
 10
849.99994288202186
 20
-379.0
 30
0.0
  0
POINT
  5
13B
100
AcDbEntity
  8
Defpoints
370
               0
390
0
 62
               0
100
AcDbPoint
 10
849.99994288202186
 20
-223.0
 30
0.0
  0
ENDBLK
  5
13C
100
AcDbEntity
  8
FAA70-2201
390
0
100
AcDbBlockEnd
  0
BLOCK
  5
13D
100
AcDbEntity
  8
FAA70-2201
390
0
100
AcDbBlockBegin
  2
*D21
 70
               1
 10
0.0
 20
0.0
 30
0.0
  3
*D21
  1

  0
LINE
  5
13E
100
AcDbEntity
  8
0
370
              -2
390
0
  6
Continuous
 62
               0
100
AcDbLine
 10
630.7573021949039
 20
-508.0
 30
0.0
 11
646.0
 21
-508.0
 31
0.0
  0
LINE
  5
13F
100
AcDbEntity
  8
0
370
              -2
390
0
  6
Continuous
 62
               0
100
AcDbLine
 10
630.7573021949039
 20
-360.37142397257651
 30
0.0
 11
646.0
 21
-360.37142397257651
 31
0.0
  0
LINE
  5
140
100
AcDbEntity
  8
0
370
              -2
390
0
  6
Continuous
 62
               0
100
AcDbLine
 10
646.0
 20
-360.37142397257651
 30
0.0
 11
646.0
 21
-201.125
 31
0.0
  0
LINE
  5
141
100
AcDbEntity
  8
0
370
              -2
390
0
  6
Continuous
 62
               0
100
AcDbLine
 10
646.0
 20
-508.0
 30
0.0
 11
646.0
 21
-360.37142397257651
 31
0.0
  0
CIRCLE
  5
142
102
{ACAD_REACTORS
330
143
102
}
100
AcDbEntity
  8
0
370
              -2
390
0
  6
Continuous
 62
               0
100
AcDbCircle
 10
646.0
 20
-508.0
 30
0.0
 40
1.9998779296875
  0
HATCH
  5
143
100
AcDbEntity
  8
0
370
              -2
390
0
  6
Continuous
 62
               0
100
AcDbHatch
 10
0.0
 20
0.0
 30
0.0
210
0.0
220
0.0
230
1.0
  2
SOLID
 70
               1
 71
               1
 91
        1
 92
        1
 93
        1
 72
               2
 10
646.0
 20
-508.0
 40
1.9998779296875
 50
0.0
 51
360.0
 73
               0
 97
        1
330
142
 75
               0
 76
               1
 98
        1
 10
0.0
 20
0.0
  0
CIRCLE
  5
144
102
{ACAD_REACTORS
330
145
102
}
100
AcDbEntity
  8
0
370
              -2
390
0
  6
Continuous
 62
               0
100
AcDbCircle
 10
646.0
 20
-360.37142397257651
 30
0.0
 40
1.9998779296875
  0
HATCH
  5
145
100
AcDbEntity
  8
0
370
              -2
390
0
  6
Continuous
 62
               0
100
AcDbHatch
 10
0.0
 20
0.0
 30
0.0
210
0.0
220
0.0
230
1.0
  2
SOLID
 70
               1
 71
               1
 91
        1
 92
        1
 93
        1
 72
               2
 10
646.0
 20
-360.37142397257651
 40
1.9998779296875
 50
0.0
 51
360.0
 73
               0
 97
        1
330
144
 75
               0
 76
               1
 98
        1
 10
0.0
 20
0.0
  0
MTEXT
  5
146
100
AcDbEntity
  8
0
390
0
 62
               0
100
AcDbMText
 10
612.12238281249995
 20
-344.0
 30
0.0
 40
27.78125
 41
0.0
 71
               1
 72
               1
  1
{\H0.8795x;\l150(深さ)}
 11
0.0
 21
1.0
 31
0.0
 73
               1
 44
0.7828267384257843
  0
POINT
  5
147
100
AcDbEntity
  8
Defpoints
370
               0
390
0
 62
               0
100
AcDbPoint
 10
605.7573021949039
 20
-360.37142397257651
 30
0.0
  0
POINT
  5
148
100
AcDbEntity
  8
Defpoints
370
               0
390
0
 62
               0
100
AcDbPoint
 10
605.7573021949039
 20
-508.0
 30
0.0
  0
POINT
  5
149
100
AcDbEntity
  8
Defpoints
370
               0
390
0
 62
               0
100
AcDbPoint
 10
646.0
 20
-508.0
 30
0.0
  0
ENDBLK
  5
14A
100
AcDbEntity
  8
FAA70-2201
390
0
100
AcDbBlockEnd
  0
BLOCK
  5
14B
100
AcDbEntity
  8
FAA70-2201
390
0
100
AcDbBlockBegin
  2
*D22
 70
               1
 10
0.0
 20
0.0
 30
0.0
  3
*D22
  1

  0
LINE
  5
14C
100
AcDbEntity
  8
0
370
              -2
390
0
  6
Continuous
 62
               0
100
AcDbLine
 10
748.0
 20
-360.37142397257651
 30
0.0
 11
749.37142397257639
 21
-360.37142397257651
 31
0.0
  0
LINE
  5
14D
100
AcDbEntity
  8
0
370
              -2
390
0
  6
Continuous
 62
               0
100
AcDbLine
 10
748.0
 20
-373.15481312774011
 30
0.0
 11
749.37142397257639
 21
-373.15481312774011
 31
0.0
  0
LINE
  5
14E
100
AcDbEntity
  8
0
370
              -2
390
0
  6
Continuous
 62
               0
100
AcDbLine
 10
749.37142397257639
 20
-360.37142397257651
 30
0.0
 11
749.37142397257639
 21
-313.25
 31
0.0
  0
LINE
  5
14F
100
AcDbEntity
  8
0
370
              -2
390
0
  6
Continuous
 62
               0
100
AcDbLine
 10
749.37142397257639
 20
-360.37142397257651
 30
0.0
 11
749.37142397257639
 21
-373.15481312774011
 31
0.0
  0
CIRCLE
  5
150
102
{ACAD_REACTORS
330
151
102
}
100
AcDbEntity
  8
0
370
              -2
390
0
  6
Continuous
 62
               0
100
AcDbCircle
 10
749.37142397257639
 20
-360.37142397257651
 30
0.0
 40
1.9998779296875
  0
HATCH
  5
151
100
AcDbEntity
  8
0
370
              -2
390
0
  6
Continuous
 62
               0
100
AcDbHatch
 10
0.0
 20
0.0
 30
0.0
210
0.0
220
0.0
230
1.0
  2
SOLID
 70
               1
 71
               1
 91
        1
 92
        1
 93
        1
 72
               2
 10
749.37142397257639
 20
-360.37142397257651
 40
1.9998779296875
 50
0.0
 51
360.0
 73
               0
 97
        1
330
150
 75
               0
 76
               1
 98
        1
 10
0.0
 20
0.0
  0
CIRCLE
  5
152
102
{ACAD_REACTORS
330
153
102
}
100
AcDbEntity
  8
0
370
              -2
390
0
  6
Continuous
 62
               0
100
AcDbCircle
 10
749.37142397257639
 20
-373.15481312774011
 30
0.0
 40
1.9998779296875
  0
HATCH
  5
153
100
AcDbEntity
  8
0
370
              -2
390
0
  6
Continuous
 62
               0
100
AcDbHatch
 10
0.0
 20
0.0
 30
0.0
210
0.0
220
0.0
230
1.0
  2
SOLID
 70
               1
 71
               1
 91
        1
 92
        1
 93
        1
 72
               2
 10
749.37142397257639
 20
-373.15481312774011
 40
1.9998779296875
 50
0.0
 51
360.0
 73
               0
 97
        1
330
152
 75
               0
 76
               1
 98
        1
 10
0.0
 20
0.0
  0
MTEXT
  5
154
100
AcDbEntity
  8
0
390
0
 62
               0
100
AcDbMText
 10
715.49380678507634
 20
-345.0
 30
0.0
 40
27.78125
 41
0.0
 71
               1
 72
               1
  1
{\H0.8795x;\l15}
 11
0.0
 21
1.0
 31
0.0
 73
               1
 44
0.7828267384257843
  0
POINT
  5
155
100
AcDbEntity
  8
Defpoints
370
               0
390
0
 62
               0
100
AcDbPoint
 10
723.0
 20
-373.15481312774011
 30
0.0
  0
POINT
  5
156
100
AcDbEntity
  8
Defpoints
370
               0
390
0
 62
               0
100
AcDbPoint
 10
723.0
 20
-360.37142397257651
 30
0.0
  0
POINT
  5
157
100
AcDbEntity
  8
Defpoints
370
               0
390
0
 62
               0
100
AcDbPoint
 10
749.37142397257639
 20
-360.37142397257651
 30
0.0
  0
ENDBLK
  5
158
100
AcDbEntity
  8
FAA70-2201
390
0
100
AcDbBlockEnd
  0
ENDSEC
  0
SECTION
  2
ENTITIES
  0
MTEXT
  5
159
100
AcDbEntity
  8
template
390
0
 62
               7
100
AcDbMText
 10
-967.99999999975921
 20
-1147.4176292337004
 30
0.0
 40
16.288411458333332
 41
0.0
 71
               1
 72
               1
  1
品名
  7
ＭＳ ゴシック
 73
               1
 44
0.7828267384257843
  0
MTEXT
  5
15A
100
AcDbEntity
  8
template
390
0
 62
               7
100
AcDbMText
 10
-967.99999999975921
 20
-1232.4176292337004
 30
0.0
 40
16.288411458333332
 41
0.0
 71
               1
 72
               1
  1
仕様
  7
ＭＳ ゴシック
 73
               1
 44
0.7828267384257843
  0
LINE
  5
15B
100
AcDbEntity
  8
template
370
               5
390
0
  6
Continuous
 62
               7
100
AcDbLine
 10
974.99999999975876
 20
-1224.0027073587005
 30
0.0
 11
-975.00000000024124
 21
-1224.0027073587005
 31
0.0
  0
LWPOLYLINE
  5
15C
100
AcDbEntity
  8
template
370
               5
390
0
  6
Continuous
 62
               7
100
AcDbPolyline
 90
        5
 70
             128
 10
975.00000000024124
 20
1405.9972926412995
 10
-974.99999999975921
 20
1405.9972926412995
 10
-974.99999999975921
 20
-1394.0027073587005
 10
975.00000000024124
 20
-1394.0027073587005
 10
975.00000000024124
 20
1405.9972926412995
  0
LINE
  5
15D
100
AcDbEntity
  8
template
370
               5
390
0
  6
Continuous
 62
               7
100
AcDbLine
 10
974.99999999975876
 20
-1139.0027073587005
 30
0.0
 11
-975.00000000024124
 21
-1139.0027073587005
 31
0.0
  0
LINE
  5
15E
100
AcDbEntity
  8
template
370
               5
390
0
  6
Continuous
 62
               7
100
AcDbLine
 10
975.00000000024124
 20
-1309.0027073587005
 30
0.0
 11
222.00000000024124
 21
-1309.0027073587005
 31
0.0
  0
MTEXT
  5
15F
100
AcDbEntity
  8
template
390
0
 62
               7
100
AcDbMText
 10
-914.99999999975921
 20
-1261.0000901712006
 30
0.0
 40
24.432617187500004
 41
0.0
 71
               1
 72
               1
  1
壁掛け/オーバーフロー付き/壁取付ボルト付属/陶器/ホワイト
  7
ＭＳ ゴシック
 73
               1
 44
1.1307497332816883
  0
MTEXT
  5
160
100
AcDbEntity
  8
template
390
0
 62
               7
100
AcDbMText
 10
-974.99999999955594
 20
-1405.8565294155574
 30
0.0
 40
21.717881944444446
 41
0.0
 71
               1
 72
               1
  1
120224SH
  7
ＭＳ ゴシック
 73
               1
 44
0.7828267384257843
  0
MTEXT
  5
161
100
AcDbEntity
  8
template
390
0
 62
               7
100
AcDbMText
 10
251.87140625250089
 20
-1338.9131018320081
 30
0.0
 40
24.432617187500004
 41
0.0
 71
               1
 72
               1
  1
大洋金物株式会社 ティーフォルム事業部
  7
ＭＳ ゴシック
 73
               1
 44
0.7828267384257843
  0
INSERT
  5
162
100
AcDbEntity
  8
template
390
0
 62
               7
100
AcDbBlockReference
  2
グループ
 10
0.0000000000010516
 20
-32.499999999999531
 30
0.0
  0
MTEXT
  5
163
100
AcDbEntity
  8
template
390
0
 62
               7
100
AcDbMText
 10
784.00000000049999
 20
-1261.0000901712006
 30
0.0
 40
24.432617187500004
 41
0.0
 71
               1
 72
               1
  1
1:10
  7
ＭＳ ゴシック
 73
               1
 44
0.7828267384257843
  0
MTEXT
  5
164
100
AcDbEntity
  8
template
390
0
 62
               7
100
AcDbMText
 10
731.00000000049999
 20
-1232.4176292337004
 30
0.0
 40
16.288411458333332
 41
0.0
 71
               1
 72
               1
  1
縮尺
  7
ＭＳ ゴシック
 73
               1
 44
0.7828267384257843
  0
LINE
  5
165
100
AcDbEntity
  8
template
370
               5
390
0
  6
Continuous
 62
               7
100
AcDbLine
 10
724.00000000049999
 20
-1309.0027073587005
 30
0.0
 11
724.00000000049999
 21
-1224.0027073587005
 31
0.0
  0
MTEXT
  5
166
100
AcDbEntity
  8
template
390
0
 62
               7
100
AcDbMText
 10
480.00000000049999
 20
-1232.4176292337004
 30
0.0
 40
16.288411458333332
 41
0.0
 71
               1
 72
               1
  1
容量
  7
ＭＳ ゴシック
 73
               1
 44
0.7828267384257843
  0
MTEXT
  5
167
100
AcDbEntity
  8
template
390
0
 62
               7
100
AcDbMText
 10
533.00000000049999
 20
-1261.0000901712006
 30
0.0
 40
24.432617187500004
 41
0.0
 71
               1
 72
               1
  1
9.3L
  7
ＭＳ ゴシック
 73
               1
 44
0.7828267384257843
  0
LINE
  5
168
100
AcDbEntity
  8
template
370
               5
390
0
  6
Continuous
 62
               7
100
AcDbLine
 10
473.00000000049999
 20
-1309.0027073587005
 30
0.0
 11
473.00000000049999
 21
-1224.0027073587005
 31
0.0
  0
MTEXT
  5
169
100
AcDbEntity
  8
template
390
0
 62
               7
100
AcDbMText
 10
229.00000000049999
 20
-1147.4176292337004
 30
0.0
 40
16.288411458333332
 41
0.0
 71
               1
 72
               1
  1
品番
  7
ＭＳ ゴシック
 73
               1
 44
0.7828267384257843
  0
MTEXT
  5
16A
100
AcDbEntity
  8
template
390
0
 62
               7
100
AcDbMText
 10
229.00000000049999
 20
-1232.4176292337004
 30
0.0
 40
16.288411458333332
 41
0.0
 71
               1
 72
               1
  1
重量
  7
ＭＳ ゴシック
 73
               1
 44
0.7828267384257843
  0
MTEXT
  5
16B
100
AcDbEntity
  8
template
390
0
 62
               7
100
AcDbMText
 10
282.00000000049999
 20
-1176.0000901712006
 30
0.0
 40
24.432617187500004
 41
0.0
 71
               1
 72
               1
  1
FAA70-2201
  7
ＭＳ ゴシック
 73
               1
 44
0.7828267384257843
  0
MTEXT
  5
16C
100
AcDbEntity
  8
template
390
0
 62
               7
100
AcDbMText
 10
282.00000000049999
 20
-1261.0000901712006
 30
0.0
 40
24.432617187500004
 41
0.0
 71
               1
 72
               1
  1
22kg
  7
ＭＳ ゴシック
 73
               1
 44
0.7828267384257843
  0
LINE
  5
16D
100
AcDbEntity
  8
template
370
               5
390
0
  6
Continuous
 62
               7
100
AcDbLine
 10
222.00000000049999
 20
-1394.0027073587005
 30
0.0
 11
222.00000000049999
 21
-1139.0027073587005
 31
0.0
  0
MTEXT
  5
16E
100
AcDbEntity
  8
template
390
0
 62
               7
100
AcDbMText
 10
-914.99999999975898
 20
-1176.0000901712006
 30
0.0
 40
24.432617187500004
 41
0.0
 71
               1
 72
               1
  1
洗面器 -DURAVIT,Philippe Starck E3-
  7
ＭＳ ゴシック
 73
               1
 44
0.7828267384257843
  0
MTEXT
  5
16F
100
AcDbEntity
  8
notes
390
0
 62
               7
100
AcDbMText
 10
-791.0387070578189
 20
220.80425150537286
 30
0.0
 40
27.78125
 41
966.0387070578189
 71
               1
 72
               1
  1
{\H0.8795x;\l＝φ30もしくはφ35の水栓取付用穴あけ加工を承ります。\P   必要な場合、ご注文の際にご指示ください。}
 73
               1
 44
1.0437689845677123
  0
MTEXT
  5
170
100
AcDbEntity
  8
notes
390
0
 62
               7
100
AcDbMText
 10
-222.02978611443072
 20
-240.02260538689319
 30
0.0
 40
24.432617187500004
 41
0.0
 71
               1
 72
               1
  1
壁取付ボルト穴(2ヶ所)
  7
ＭＳ ゴシック
 73
               1
 44
0.7828267384257843
  0
LINE
  5
171
100
AcDbEntity
  8
notes
370
               5
390
0
  6
Continuous
 62
               7
100
AcDbLine
 10
-280.54756732546764
 20
-425.37142397257645
 30
0.0
 11
-190.30675023806029
 21
-283.33484049270658
 31
0.0
  0
DIMENSION
  5
172
100
AcDbEntity
  8
notes
370
               5
390
0
  6
Continuous
 62
               7
100
AcDbDimension
  2
*D3
 10
-560.54756732546764
 20
-225.37142397257645
 30
0.0
 11
-420.54756732546764
 21
-225.37142397257645
 31
0.0
 71
               5
 72
               1
 41
1.0
 42
0.0
  3
tfrom線あり
100
AcDbAlignedDimension
 13
-280.54756732546764
 23
-404.87142397257645
 33
0.0
 14
-560.54756732546764
 24
-404.87142397257645
 34
0.0
100
AcDbRotatedDimension
1001
ACAD
1000
DSTYLE
1002
{
1070
             279
1070
               2
1070
             340
1005
38
1070
             140
1040
24.432617187500004
1070
             147
1040
5.0
1002
}
  0
DIMENSION
  5
173
100
AcDbEntity
  8
notes
370
               5
390
0
  6
Continuous
 62
               7
100
AcDbDimension
  2
*D4
 10
-845.54756732546753
 20
-425.37142397257645
 30
0.0
 11
-845.54756732546753
 21
-375.37142397257651
 31
0.0
 71
               5
 72
               1
 41
1.0
 42
0.0
  3
tfrom線あり
100
AcDbAlignedDimension
 13
-738.54756732546753
 23
-325.37142397257651
 33
0.0
 14
-581.04756732546764
 24
-425.37142397257645
 34
0.0
 50
90.0
100
AcDbRotatedDimension
1001
ACAD
1000
DSTYLE
1002
{
1070
             279
1070
               2
1070
             340
1005
38
1070
             140
1040
24.432617187500004
1070
             147
1040
5.0
1002
}
  0
DIMENSION
  5
174
100
AcDbEntity
  8
notes
370
               5
390
0
  6
Continuous
 62
               7
100
AcDbDimension
  2
*D5
 10
4.4524326745322753
 20
-325.37142397257651
 30
0.0
 11
4.4524326745322753
 21
-442.87142397257645
 31
0.0
 71
               5
 72
               1
 41
1.0
 42
0.0
  3
tfrom線あり
100
AcDbAlignedDimension
 13
-383.04756732546764
 23
-560.37142397257639
 33
0.0
 14
-102.54756732546772
 24
-325.37142397257651
 34
0.0
 50
90.0
100
AcDbRotatedDimension
1001
ACAD
1000
DSTYLE
1002
{
1070
             279
1070
               2
1070
             340
1005
38
1070
             140
1040
24.432617187500004
1070
             147
1040
5.0
1002
}
  0
DIMENSION
  5
175
100
AcDbEntity
  8
notes
370
               5
390
0
  6
Continuous
 62
               7
100
AcDbDimension
  2
*D6
 10
639.99994288202299
 20
-660.37142397257639
 30
0.0
 11
744.99997144101155
 21
-660.37142397257639
 31
0.0
 71
               5
 72
               1
 41
1.0
 42
0.0
  3
tfrom線あり
100
AcDbAlignedDimension
 13
850.00000000000011
 23
-520.37142397257617
 33
0.0
 14
639.99994288202299
 24
-556.77809523122551
 34
0.0
100
AcDbRotatedDimension
1001
ACAD
1000
DSTYLE
1002
{
1070
             279
1070
               2
1070
             340
1005
38
1070
             140
1040
24.432617187500004
1070
             147
1040
5.0
1002
}
  0
DIMENSION
  5
176
100
AcDbEntity
  8
notes
370
               5
390
0
  6
Continuous
 62
               7
100
AcDbDimension
  2
*D7
 10
-95.547567325467327
 20
1040.5507739109755
 30
0.0
 11
-420.54756732546753
 21
1040.5507739109755
 31
0.0
 71
               5
 72
               1
 41
1.0
 42
0.0
  3
tfrom線あり
100
AcDbAlignedDimension
 13
-745.54756732546775
 23
885.55077391097552
 33
0.0
 14
-95.547567325467327
 24
885.55077391097552
 34
0.0
100
AcDbRotatedDimension
1001
ACAD
1000
DSTYLE
1002
{
1070
             279
1070
               2
1070
             340
1005
38
1070
             140
1040
24.432617187500004
1070
             147
1040
5.0
1002
}
  0
DIMENSION
  5
177
100
AcDbEntity
  8
notes
370
               5
390
0
  6
Continuous
 62
               7
100
AcDbDimension
  2
*D8
 10
4.4524326745324458
 20
890.55077391097552
 30
0.0
 11
4.4524326745324458
 21
648.05077391097586
 31
0.0
 71
               5
 72
               1
 41
1.0
 42
0.0
  3
tfrom線あり
100
AcDbAlignedDimension
 13
-195.54756732546758
 23
405.55077391097626
 33
0.0
 14
-100.54756732546733
 24
890.55077391097552
 34
0.0
 50
90.0
100
AcDbRotatedDimension
1001
ACAD
1000
DSTYLE
1002
{
1070
             279
1070
               2
1070
             340
1005
38
1070
             140
1040
24.432617187500004
1070
             147
1040
5.0
1002
}
  0
DIMENSION
  5
178
100
AcDbEntity
  8
notes
370
               5
390
0
  6
Continuous
 62
               7
100
AcDbDimension
  2
*D9
 10
-710.54756732546764
 20
305.6044714037717
 30
0.0
 11
-420.54756732546764
 21
310.6044714037717
 31
0.0
 70
             128
 71
               5
 72
               1
 41
1.0
 42
0.0
  3
tfrom線あり
100
AcDbAlignedDimension
 13
-130.54756732546761
 23
412.5334569401204
 33
0.0
 14
-710.54756732546764
 24
412.76549647693389
 34
0.0
100
AcDbRotatedDimension
1001
ACAD
1000
DSTYLE
1002
{
1070
             279
1070
               2
1070
             340
1005
38
1070
             140
1040
24.432617187500004
1070
             147
1040
5.0
1002
}
  0
DIMENSION
  5
179
100
AcDbEntity
  8
notes
370
               5
390
0
  6
Continuous
 62
               7
100
AcDbDimension
  2
*D10
 10
-845.54756732546764
 20
750.55077391097598
 30
0.0
 11
-850.54756732546764
 21
595.55077391097598
 31
0.0
 70
             128
 71
               5
 72
               1
 41
1.0
 42
0.0
  3
tfrom線あり
100
AcDbAlignedDimension
 13
-743.50943547661404
 23
440.55077391097592
 33
0.0
 14
-745.54756732546775
 24
750.55077391097598
 34
0.0
 50
90.0
100
AcDbRotatedDimension
1001
ACAD
1000
DSTYLE
1002
{
1070
             279
1070
               2
1070
             340
1005
38
1070
             140
1040
24.432617187500004
1070
             147
1040
5.0
1002
}
  0
DIMENSION
  5
17A
100
AcDbEntity
  8
notes
370
               5
390
0
  6
Continuous
 62
               7
100
AcDbDimension
  2
*D11
 10
-420.54756732546764
 20
990.55077391097564
 30
0.0
 11
-470.54756732546764
 21
990.55077391097564
 31
0.0
 71
               5
 72
               1
 41
1.0
 42
0.0
  3
tfrom線あり
100
AcDbAlignedDimension
 13
-520.54756732546764
 23
828.79110232626795
 33
0.0
 14
-420.54756732546764
 24
828.79110232626795
 34
0.0
100
AcDbRotatedDimension
1001
ACAD
1000
DSTYLE
1002
{
1070
             279
1070
               2
1070
             340
1005
38
1070
             140
1040
24.432617187500004
1070
             147
1040
5.0
1002
}
  0
DIMENSION
  5
17B
100
AcDbEntity
  8
notes
370
               5
390
0
  6
Continuous
 62
               7
100
AcDbDimension
  2
*D12
 10
-420.54756732546764
 20
990.55077391097564
 30
0.0
 11
-370.54756732546764
 21
990.55077391097564
 31
0.0
 71
               5
 72
               1
 41
1.0
 42
0.0
  3
tfrom線あり
100
AcDbAlignedDimension
 13
-320.54756732546764
 23
828.79110232626795
 33
0.0
 14
-420.54756732546764
 24
828.79110232626795
 34
0.0
100
AcDbRotatedDimension
1001
ACAD
1000
DSTYLE
1002
{
1070
             279
1070
               2
1070
             340
1005
38
1070
             140
1040
24.432617187500004
1070
             147
1040
5.0
1002
}
  0
DIMENSION
  5
17C
100
AcDbEntity
  8
notes
370
               5
390
0
  6
Continuous
 62
               7
100
AcDbDimension
  2
*D13
 10
-432.4530933975642
 20
798.46501761788159
 30
0.0
 11
-238.00000000000054
 21
943.31428801371226
 31
0.0
 70
               3
 71
               5
 72
               1
 41
1.0
 42
0.0
  3
tfrom線あり
100
AcDbDiametricDimension
 15
-408.64204125337119
 25
824.11718703465408
 35
0.0
 40
162.63336119789315
1001
ACAD
1000
DSTYLE
1002
{
1070
             289
1070
               0
1070
             342
1005
4B
1070
             340
1005
38
1070
             140
1040
24.432617187500004
1070
              73
1070
               1
1070
              74
1070
               1
1070
              75
1070
               1
1070
              76
1070
               1
1070
               3
1000

1070
             174
1070
               0
1070
             147
1040
5.0
1002
}
  0
DIMENSION
  5
17D
100
AcDbEntity
  8
notes
370
               5
390
0
  6
Continuous
 62
               7
100
AcDbDimension
  2
*D14
 10
-845.54756732546764
 20
750.55077391097598
 30
0.0
 11
-845.54756732546764
 21
820.55077391097598
 31
0.0
 71
               5
 72
               1
 41
1.0
 42
0.0
  3
tfrom線あり
100
AcDbAlignedDimension
 13
-740.54756732546764
 23
890.55077391097598
 33
0.0
 14
-745.54756732546775
 24
750.55077391097598
 34
0.0
 50
90.0
100
AcDbRotatedDimension
1001
ACAD
1000
DSTYLE
1002
{
1070
             279
1070
               2
1070
             340
1005
38
1070
             140
1040
24.432617187500004
1070
             147
1040
5.0
1002
}
  0
DIMENSION
  5
17E
100
AcDbEntity
  8
notes
370
               5
390
0
  6
Continuous
 62
               7
100
AcDbDimension
  2
*D15
 10
284.45538331373177
 20
-360.37142397257651
 30
0.0
 11
284.45538331373177
 21
-440.37142397257639
 31
0.0
 71
               5
 72
               1
 41
1.0
 42
0.0
  3
tfrom線あり
100
AcDbAlignedDimension
 13
502.23597819506278
 23
-520.37142397257617
 33
0.0
 14
371.99994288202299
 24
-360.37142397257651
 34
0.0
 50
90.0
100
AcDbRotatedDimension
1001
ACAD
1000
DSTYLE
1002
{
1070
             279
1070
               2
1070
             340
1005
38
1070
             140
1040
24.432617187500004
1070
             147
1040
5.0
1002
}
  0
DIMENSION
  5
17F
100
AcDbEntity
  8
notes
370
               5
390
0
  6
Continuous
 62
               7
100
AcDbDimension
  2
*D16
 10
284.45538331373177
 20
-360.37142397257651
 30
0.0
 11
284.45538331373177
 21
-342.87142397257651
 31
0.0
 71
               5
 72
               1
 41
1.0
 42
0.0
  3
tfrom線あり
100
AcDbAlignedDimension
 13
371.99994288202299
 23
-325.37142397257651
 33
0.0
 14
371.99994288202299
 24
-360.37142397257651
 34
0.0
 50
90.0
100
AcDbRotatedDimension
1001
ACAD
1000
DSTYLE
1002
{
1070
             279
1070
               2
1070
             340
1005
38
1070
             140
1040
24.432617187500004
1070
             147
1040
5.0
1002
}
  0
DIMENSION
  5
180
100
AcDbEntity
  8
notes
370
               5
390
0
  6
Continuous
 62
               7
100
AcDbDimension
  2
*D17
 10
377.71934800069198
 20
-520.37142397257639
 30
0.0
 11
377.71934800069198
 21
-540.37142397257639
 31
0.0
 71
               5
 72
               1
 41
1.0
 42
0.0
  3
tfrom線あり
100
AcDbAlignedDimension
 13
602.49994288202299
 23
-560.37142397257639
 33
0.0
 14
595.49994288202299
 24
-520.37142397257639
 34
0.0
 50
90.0
100
AcDbRotatedDimension
1001
ACAD
1000
DSTYLE
1002
{
1070
             279
1070
               2
1070
             340
1005
38
1070
             140
1040
24.432617187500004
1070
             147
1040
5.0
1002
}
  0
CIRCLE
  5
181
100
AcDbEntity
  8
notes
370
               5
390
0
  6
STYLE_12
 62
               7
100
AcDbCircle
 10
-811.10890841597995
 20
206.02841450757131
 30
0.0
 40
17.500000000000227
  0
LINE
  5
182
100
AcDbEntity
  8
FAA70-2201
370
              15
390
0
  6
Continuous
 62
               7
100
AcDbLine
 10
-95.547567325467725
 20
-332.37142397257651
 30
0.0
 11
-95.547567325467725
 21
-385.37053357720652
 31
0.0
  0
ARC
  5
183
100
AcDbEntity
  8
FAA70-2201
370
              15
390
0
  6
Continuous
 62
               7
100
AcDbCircle
 10
-102.54756732546772
 20
-367.37142397257662
 30
0.0
 40
7.0
100
AcDbArc
 50
0.0
 51
90.0
  0
ARC
  5
184
100
AcDbEntity
  8
FAA70-2201
370
              15
390
0
  6
Continuous
 62
               7
100
AcDbCircle
 10
-100.54756732546772
 20
-385.37053357720652
 30
0.0
 40
5.0
100
AcDbArc
 50
270.0
 51
0.0
  0
ARC
  5
185
100
AcDbEntity
  8
FAA70-2201
370
              15
390
0
  6
Continuous
 62
               7
100
AcDbCircle
 10
-102.54756732546772
 20
-332.37142397257651
 30
0.0
 40
7.0
100
AcDbArc
 50
0.0
 51
90.0
  0
ARC
  5
186
100
AcDbEntity
  8
FAA70-2201
370
              15
390
0
  6
STYLE_12
 62
               7
100
AcDbCircle
 10
-131.97124215821191
 20
-365.32812708473841
 30
0.0
 40
4.9567995746117841
100
AcDbArc
 50
89.642548767429531
 51
161.42832207979137
  0
LINE
  5
187
100
AcDbEntity
  8
FAA70-2201
370
              15
390
0
  6
STYLE_13
 62
               7
100
AcDbLine
 10
-394.54756732546764
 20
-515.38571198628824
 30
0.0
 11
-394.54756732546764
 21
-560.37142397257639
 31
0.0
  0
LINE
  5
188
100
AcDbEntity
  8
FAA70-2201
370
              15
390
0
  6
Continuous
 62
               7
100
AcDbLine
 10
-383.04756732546764
 20
-527.37142397257639
 30
0.0
 11
-383.04756732546764
 21
-560.37142397257639
 31
0.0
  0
LINE
  5
189
100
AcDbEntity
  8
FAA70-2201
370
              15
390
0
  6
Continuous
 62
               7
100
AcDbLine
 10
-420.54756732546764
 20
-560.37142397257639
 30
0.0
 11
-383.04756732546764
 21
-560.37142397257639
 31
0.0
  0
ARC
  5
18A
100
AcDbEntity
  8
FAA70-2201
370
              15
390
0
  6
Continuous
 62
               7
100
AcDbCircle
 10
-376.13974403407371
 20
-527.27924726397032
 30
0.0
 40
6.9084382584440762
100
AcDbArc
 50
89.235501152395713
 51
180.76449884760521
  0
LINE
  5
18B
100
AcDbEntity
  8
FAA70-2201
370
              15
390
0
  6
Continuous
 62
               7
100
AcDbLine
 10
-238.0
 20
-520.37142397257685
 30
0.0
 11
-598.0
 21
-520.37142397257685
 31
0.0
  0
LINE
  5
18C
100
AcDbEntity
  8
FAA70-2201
370
              15
390
0
  6
Continuous
 62
               7
100
AcDbLine
 10
-740.54756732546753
 20
-390.37053357720652
 30
0.0
 11
-100.54756732546772
 21
-390.37053357720652
 31
0.0
  0
LINE
  5
18D
100
AcDbEntity
  8
FAA70-2201
370
              15
390
0
  6
Continuous
 62
               7
100
AcDbLine
 10
-745.54756732546753
 20
-332.37142397257651
 30
0.0
 11
-745.54756732546753
 21
-385.37053357720652
 31
0.0
  0
LINE
  5
18E
100
AcDbEntity
  8
FAA70-2201
370
              15
390
0
  6
Continuous
 62
               7
100
AcDbLine
 10
-738.54756732546753
 20
-360.37142397257662
 30
0.0
 11
-105.97664174517465
 21
-360.37142397257662
 31
0.0
  0
ARC
  5
18F
100
AcDbEntity
  8
FAA70-2201
370
              15
390
0
  6
Continuous
 62
               7
100
AcDbCircle
 10
-738.54756732546753
 20
-367.37142397257662
 30
0.0
 40
7.0
100
AcDbArc
 50
90.0
 51
180.0
  0
ARC
  5
190
100
AcDbEntity
  8
FAA70-2201
370
              15
390
0
  6
Continuous
 62
               7
100
AcDbCircle
 10
-740.54756732546753
 20
-385.37053357720652
 30
0.0
 40
5.0
100
AcDbArc
 50
180.0
 51
270.0
  0
LINE
  5
191
100
AcDbEntity
  8
FAA70-2201
370
              15
390
0
  6
Continuous
 62
               7
100
AcDbLine
 10
-738.54756732546753
 20
-325.37142397257651
 30
0.0
 11
-102.54756732546772
 21
-325.37142397257651
 31
0.0
  0
ARC
  5
192
100
AcDbEntity
  8
FAA70-2201
370
              15
390
0
  6
Continuous
 62
               7
100
AcDbCircle
 10
-738.54756732546753
 20
-332.37142397257651
 30
0.0
 40
7.0
100
AcDbArc
 50
90.0
 51
180.0
  0
ARC
  5
193
100
AcDbEntity
  8
FAA70-2201
370
              15
390
0
  6
STYLE_12
 62
               7
100
AcDbCircle
 10
-709.12389249272337
 20
-365.32812708473841
 30
0.0
 40
4.9567995746117335
100
AcDbArc
 50
18.571677920208622
 51
90.357451232570497
  0
LINE
  5
194
100
AcDbEntity
  8
FAA70-2201
370
              15
390
0
  6
STYLE_13
 62
               7
100
AcDbLine
 10
-446.54756732546764
 20
-515.25535443486183
 30
0.0
 11
-446.54756732546764
 21
-560.37142397257639
 31
0.0
  0
LINE
  5
195
100
AcDbEntity
  8
FAA70-2201
370
              15
390
0
  6
Continuous
 62
               7
100
AcDbLine
 10
-458.04756732546764
 20
-527.37142397257639
 30
0.0
 11
-458.04756732546764
 21
-560.37142397257639
 31
0.0
  0
LINE
  5
196
100
AcDbEntity
  8
FAA70-2201
370
              15
390
0
  6
Continuous
 62
               7
100
AcDbLine
 10
-420.54756732546764
 20
-560.37142397257639
 30
0.0
 11
-458.04756732546764
 21
-560.37142397257639
 31
0.0
  0
ARC
  5
197
100
AcDbEntity
  8
FAA70-2201
370
              15
390
0
  6
Continuous
 62
               7
100
AcDbCircle
 10
-464.95539061686156
 20
-527.27924726397032
 30
0.0
 40
6.9084382584440771
100
AcDbArc
 50
359.23550115239482
 51
90.76449884760433
  0
LINE
  5
198
100
AcDbEntity
  8
FAA70-2201
370
              15
390
0
  6
STYLE_12
 62
               7
100
AcDbLine
 10
-529.00915555761753
 20
-507.15572741486534
 30
0.0
 11
-309.0
 21
-506.92089323103613
 31
0.0
  0
LINE
  5
199
100
AcDbEntity
  8
FAA70-2201
370
              15
390
0
  6
STYLE_12
 62
               7
100
AcDbLine
 10
-560.54756732546764
 20
-404.87142397257645
 30
0.0
 11
-560.54756732546764
 21
-445.87142397257645
 31
0.0
  0
LINE
  5
19A
100
AcDbEntity
  8
FAA70-2201
370
              15
390
0
  6
STYLE_12
 62
               7
100
AcDbLine
 10
-581.04756732546764
 20
-425.37142397257645
 30
0.0
 11
-540.04756732546764
 21
-425.37142397257645
 31
0.0
  0
LINE
  5
19B
100
AcDbEntity
  8
FAA70-2201
370
              15
390
0
  6
STYLE_12
 62
               7
100
AcDbLine
 10
-280.54756732546764
 20
-404.87142397257645
 30
0.0
 11
-280.54756732546764
 21
-445.87142397257645
 31
0.0
  0
LINE
  5
19C
100
AcDbEntity
  8
FAA70-2201
370
              15
390
0
  6
STYLE_12
 62
               7
100
AcDbLine
 10
-301.04756732546764
 20
-425.37142397257645
 30
0.0
 11
-260.04756732546764
 21
-425.37142397257645
 31
0.0
  0
LINE
  5
19D
100
AcDbEntity
  8
FAA70-2201
370
              15
390
0
  6
Continuous
 62
               7
100
AcDbLine
 10
371.99994288202299
 20
-360.37142397257651
 30
0.0
 11
815.94365109249009
 21
-360.37142397257651
 31
0.0
  0
LINE
  5
19E
100
AcDbEntity
  8
FAA70-2201
370
              15
390
0
  6
Continuous
 62
               7
100
AcDbLine
 10
818.13863711261558
 20
-342.80881082713654
 30
0.0
 11
819.5249327912494
 21
-331.51833856873657
 31
0.0
  0
LINE
  5
19F
100
AcDbEntity
  8
FAA70-2201
370
              15
390
0
  6
Continuous
 62
               7
100
AcDbLine
 10
849.99994288202186
 20
-390.37053357720652
 30
0.0
 11
369.99994288202299
 21
-390.37053357720652
 31
0.0
  0
LINE
  5
1A0
100
AcDbEntity
  8
FAA70-2201
370
              15
390
0
  6
Continuous
 62
               7
100
AcDbLine
 10
364.99994288202299
 20
-367.37142397257651
 30
0.0
 11
364.99994288202299
 21
-385.37053357720652
 31
0.0
  0
ARC
  5
1A1
100
AcDbEntity
  8
FAA70-2201
370
              15
390
0
  6
Continuous
 62
               7
100
AcDbCircle
 10
369.99994288202299
 20
-385.37053357720652
 30
0.0
 40
5.0
100
AcDbArc
 50
180.0
 51
270.0
  0
ARC
  5
1A2
100
AcDbEntity
  8
FAA70-2201
370
              15
390
0
  6
Continuous
 62
               7
100
AcDbCircle
 10
371.99994288202299
 20
-367.37142397257651
 30
0.0
 40
7.0
100
AcDbArc
 50
90.0
 51
180.0
  0
LINE
  5
1A3
100
AcDbEntity
  8
FAA70-2201
370
              15
390
0
  6
STYLE_12
 62
               7
100
AcDbLine
 10
694.99994288202299
 20
-507.14868917360224
 30
0.0
 11
607.87862253846254
 21
-508.02175095560966
 31
0.0
  0
ARC
  5
1A4
100
AcDbEntity
  8
FAA70-2201
370
              15
390
0
  6
Continuous
 62
               7
100
AcDbCircle
 10
502.03837068695668
 20
-492.11228031565639
 30
0.0
 40
28.259834552765589
100
AcDbArc
 50
256.64731440752769
 51
270.40064525012116
  0
LINE
  5
1A5
100
AcDbEntity
  8
FAA70-2201
370
              15
390
0
  6
Continuous
 62
               7
100
AcDbLine
 10
380.4999428820239
 20
-390.37053357720652
 30
0.0
 11
375.4999428820239
 21
-390.37053357720652
 31
0.0
  0
LINE
  5
1A6
100
AcDbEntity
  8
FAA70-2201
370
              15
390
0
  6
Continuous
 62
               7
100
AcDbLine
 10
595.49994288202299
 20
-520.37142397257639
 30
0.0
 11
850.00000000000011
 21
-520.37142397257617
 31
0.0
  0
ARC
  5
1A7
100
AcDbEntity
  8
FAA70-2201
370
              15
390
0
  6
STYLE_12
 62
               7
100
AcDbCircle
 10
812.29744790272719
 20
-369.8562822524861
 30
0.0
 40
3.0317202005527615
100
AcDbArc
 50
269.52479767174134
 51
350.09112165726117
  0
LINE
  5
1A8
100
AcDbEntity
  8
FAA70-2201
370
              15
390
0
  6
STYLE_12
 62
               7
100
AcDbLine
 10
812.34576708835391
 20
-373.15481312774011
 30
0.0
 11
716.49994288202299
 21
-373.15481312774011
 31
0.0
  0
LINE
  5
1A9
100
AcDbEntity
  8
FAA70-2201
370
              15
390
0
  6
STYLE_12
 62
               7
100
AcDbLine
 10
709.99994288202299
 20
-379.6399751733278
 30
0.0
 11
709.99994288202299
 21
-492.04838408533584
 31
0.0
  0
ARC
  5
1AA
100
AcDbEntity
  8
FAA70-2201
370
              15
390
0
  6
STYLE_12
 62
               7
100
AcDbCircle
 10
694.99994288202299
 20
-492.04838408533584
 30
0.0
 40
15.0
100
AcDbArc
 50
270.0
 51
0.0
  0
ARC
  5
1AB
100
AcDbEntity
  8
FAA70-2201
370
              15
390
0
  6
STYLE_12
 62
               7
100
AcDbCircle
 10
716.49994288202299
 20
-379.6399751733278
 30
0.0
 40
6.5
100
AcDbArc
 50
90.0
 51
180.0
  0
LINE
  5
1AC
100
AcDbEntity
  8
FAA70-2201
370
              15
390
0
  6
Continuous
 62
               7
100
AcDbLine
 10
815.28394294115571
 20
-370.37798596138731
 30
0.0
 11
819.52606813838054
 21
-331.50919148942296
 31
0.0
  0
LINE
  5
1AD
100
AcDbEntity
  8
FAA70-2201
370
              15
390
0
  6
Continuous
 62
               7
100
AcDbLine
 10
826.47276196674204
 20
-325.37142397257651
 30
0.0
 11
849.99994288202186
 21
-325.37142397257651
 31
0.0
  0
LINE
  5
1AE
100
AcDbEntity
  8
FAA70-2201
370
              15
390
0
  6
Continuous
 62
               7
100
AcDbLine
 10
849.99994288202186
 20
-325.37142397257651
 30
0.0
 11
849.99994288202186
 21
-520.37142397257685
 31
0.0
  0
ARC
  5
1AF
100
AcDbEntity
  8
FAA70-2201
370
              15
390
0
  6
Continuous
 62
               7
100
AcDbCircle
 10
826.47276196674181
 20
-332.37142397257651
 30
0.0
 40
7.0
100
AcDbArc
 50
89.999999999998138
 51
172.92456175796406
  0
LINE
  5
1B0
100
AcDbEntity
  8
FAA70-2201
370
              15
390
0
  6
STYLE_12
 62
               7
100
AcDbLine
 10
613.99994288202299
 20
-515.38571198628824
 30
0.0
 11
613.99994288202299
 21
-560.37142397257639
 31
0.0
  0
LINE
  5
1B1
100
AcDbEntity
  8
FAA70-2201
370
              15
390
0
  6
Continuous
 62
               7
100
AcDbLine
 10
602.49994288202299
 20
-527.37142397257639
 30
0.0
 11
602.49994288202299
 21
-560.37142397257639
 31
0.0
  0
LINE
  5
1B2
100
AcDbEntity
  8
FAA70-2201
370
              15
390
0
  6
Continuous
 62
               7
100
AcDbLine
 10
639.99994288202299
 20
-560.37142397257639
 30
0.0
 11
602.49994288202299
 21
-560.37142397257639
 31
0.0
  0
ARC
  5
1B3
100
AcDbEntity
  8
FAA70-2201
370
              15
390
0
  6
Continuous
 62
               7
100
AcDbCircle
 10
595.59211959062907
 20
-527.27924726397032
 30
0.0
 40
6.9084382584440771
100
AcDbArc
 50
359.23550115239482
 51
90.764498847605253
  0
LINE
  5
1B4
100
AcDbEntity
  8
FAA70-2201
370
              15
390
0
  6
STYLE_12
 62
               7
100
AcDbLine
 10
665.99994288202299
 20
-515.38571198628824
 30
0.0
 11
665.99994288202299
 21
-560.37142397257639
 31
0.0
  0
LINE
  5
1B5
100
AcDbEntity
  8
FAA70-2201
370
              15
390
0
  6
Continuous
 62
               7
100
AcDbLine
 10
677.49994288202299
 20
-527.37142397257639
 30
0.0
 11
677.49994288202299
 21
-560.37142397257639
 31
0.0
  0
LINE
  5
1B6
100
AcDbEntity
  8
FAA70-2201
370
              15
390
0
  6
Continuous
 62
               7
100
AcDbLine
 10
639.99994288202299
 20
-560.37142397257639
 30
0.0
 11
677.49994288202299
 21
-560.37142397257639
 31
0.0
  0
ARC
  5
1B7
100
AcDbEntity
  8
FAA70-2201
370
              15
390
0
  6
Continuous
 62
               7
100
AcDbCircle
 10
684.40776617341692
 20
-527.27924726397032
 30
0.0
 40
6.9084382584440744
100
AcDbArc
 50
89.235501152396651
 51
180.76449884760521
  0
ARC
  5
1B8
100
AcDbEntity
  8
FAA70-2201
370
              15
390
0
  6
Continuous
 62
               7
100
AcDbCircle
 10
-420.54756732546241
 20
6239.9579924102973
 30
0.0
 40
5794.4072184993192
100
AcDbArc
 50
267.220800986109
 51
272.77919901389083
  0
LINE
  5
1B9
100
AcDbEntity
  8
FAA70-2201
370
              15
390
0
  6
Continuous
 62
               7
100
AcDbLine
 10
-143.04756732546761
 20
750.55077391097598
 30
0.0
 11
-698.04756732546764
 21
750.55077391097598
 31
0.0
  0
LINE
  5
1BA
100
AcDbEntity
  8
FAA70-2201
370
              15
390
0
  6
Continuous
 62
               7
100
AcDbLine
 10
-701.04756732546764
 20
855.55077391097598
 30
0.0
 11
-140.04756732546761
 21
855.55077391097598
 31
0.0
  0
LINE
  5
1BB
100
AcDbEntity
  8
FAA70-2201
370
              15
390
0
  6
Continuous
 62
               7
100
AcDbLine
 10
-731.86769928172805
 20
862.55077391097598
 30
0.0
 11
-109.2274353692072
 21
862.55077391097598
 31
0.0
  0
ARC
  5
1BC
100
AcDbEntity
  8
FAA70-2201
370
              15
390
0
  6
Continuous
 62
               7
100
AcDbCircle
 10
-701.04756732546764
 20
848.55077391097598
 30
0.0
 40
7.0
100
AcDbArc
 50
90.0
 51
180.0
  0
LINE
  5
1BD
100
AcDbEntity
  8
FAA70-2201
370
              15
390
0
  6
Continuous
 62
               7
100
AcDbLine
 10
-708.04756732546764
 20
848.55077391097598
 30
0.0
 11
-708.04756732546764
 21
459.23044002811258
 31
0.0
  0
ARC
  5
1BE
100
AcDbEntity
  8
FAA70-2201
370
              15
390
0
  6
Continuous
 62
               7
100
AcDbCircle
 10
-701.04756732546764
 20
459.23044002811258
 30
0.0
 40
7.0
100
AcDbArc
 50
180.0
 51
266.23075230221991
  0
ARC
  5
1BF
100
AcDbEntity
  8
FAA70-2201
370
              15
390
0
  6
Continuous
 62
               7
100
AcDbCircle
 10
-698.04756732546764
 20
740.55077391097598
 30
0.0
 40
10.0
100
AcDbArc
 50
90.0
 51
180.0
  0
LINE
  5
1C0
100
AcDbEntity
  8
FAA70-2201
370
              15
390
0
  6
Continuous
 62
               7
100
AcDbLine
 10
-715.28567556756332
 20
855.55077391097598
 30
0.0
 11
-733.91855947525698
 21
855.55077391097598
 31
0.0
  0
CIRCLE
  5
1C1
100
AcDbEntity
  8
FAA70-2201
370
              15
390
0
  6
Continuous
 62
               7
100
AcDbCircle
 10
-420.54756732546764
 20
680.55077391097598
 30
0.0
 40
37.5
  0
CIRCLE
  5
1C2
100
AcDbEntity
  8
FAA70-2201
370
              15
390
0
  6
Continuous
 62
               7
100
AcDbCircle
 10
-420.54756732546764
 20
680.55077391097598
 30
0.0
 40
26.0
  0
ARC
  5
1C3
100
AcDbEntity
  8
FAA70-2201
370
              15
390
0
  6
Continuous
 62
               7
100
AcDbCircle
 10
-733.01385028420862
 20
852.98996172009765
 30
0.0
 40
9.6292674627790245
100
AcDbArc
 50
83.163999630341138
 51
149.80269476476386
  0
LINE
  5
1C4
100
AcDbEntity
  8
FAA70-2201
370
              15
390
0
  6
Continuous
 62
               7
100
AcDbLine
 10
-740.54756732546764
 20
890.55077391097598
 30
0.0
 11
-740.54756732546764
 21
862.55077391097598
 31
0.0
  0
ARC
  5
1C5
100
AcDbEntity
  8
FAA70-2201
370
              15
390
0
  6
Continuous
 62
               7
100
AcDbCircle
 10
-140.04756732546755
 20
848.55077391097598
 30
0.0
 40
7.0
100
AcDbArc
 50
0.0
 51
90.0
  0
LINE
  5
1C6
100
AcDbEntity
  8
FAA70-2201
370
              15
390
0
  6
Continuous
 62
               7
100
AcDbLine
 10
-133.04756732546755
 20
848.55077391097598
 30
0.0
 11
-133.04756732546755
 21
459.23044002811258
 31
0.0
  0
ARC
  5
1C7
100
AcDbEntity
  8
FAA70-2201
370
              15
390
0
  6
Continuous
 62
               7
100
AcDbCircle
 10
-140.04756732546755
 20
459.23044002811258
 30
0.0
 40
7.0000000000000151
100
AcDbArc
 50
273.76924769777071
 51
0.0
  0
ARC
  5
1C8
100
AcDbEntity
  8
FAA70-2201
370
              15
390
0
  6
Continuous
 62
               7
100
AcDbCircle
 10
-143.04756732546755
 20
740.55077391097598
 30
0.0
 40
10.0
100
AcDbArc
 50
0.0
 51
90.0
  0
LINE
  5
1C9
100
AcDbEntity
  8
FAA70-2201
370
              15
390
0
  6
Continuous
 62
               7
100
AcDbLine
 10
-125.80945908337188
 20
855.55077391097598
 30
0.0
 11
-107.17657517567821
 21
855.55077391097598
 31
0.0
  0
ARC
  5
1CA
100
AcDbEntity
  8
FAA70-2201
370
              15
390
0
  6
Continuous
 62
               7
100
AcDbCircle
 10
-108.08128436672658
 20
852.98996172009765
 30
0.0
 40
9.6292674627790067
100
AcDbArc
 50
30.197305235235984
 51
96.836000369658535
  0
LINE
  5
1CB
100
AcDbEntity
  8
FAA70-2201
370
              15
390
0
  6
Continuous
 62
               7
100
AcDbLine
 10
-100.54756732546755
 20
890.55077391097598
 30
0.0
 11
-100.54756732546755
 21
862.55077391097598
 31
0.0
  0
LWPOLYLINE
  5
1CC
100
AcDbEntity
  8
FAA70-2201
370
              15
390
0
  6
Continuous
 62
               7
100
AcDbPolyline
 90
        8
 70
             129
 10
-95.547567325467327
 20
885.55077391097552
 42
0.4142135623730917
 10
-100.54756732546733
 20
890.55077391097552
 10
-740.54756732546775
 20
890.55077391097552
 42
0.414213562373095
 10
-745.54756732546775
 20
885.55077391097552
 10
-745.54756732546764
 20
459.24129663142304
 42
0.3950431318699746
 10
-701.64228026740727
 20
412.34329292330108
 42
0.0241645207098858
 10
-139.45285438352781
 20
412.34329292330165
 42
0.3950431318699749
 10
-95.547567325467554
 20
459.24129663142321
  0
CIRCLE
  5
1CD
100
AcDbEntity
  8
FAA70-2201
370
              15
390
0
  6
Continuous
 62
               7
100
AcDbCircle
 10
-420.54756732546764
 20
811.29110232626795
 30
0.0
 40
17.5
  0
CIRCLE
  5
1CE
100
AcDbEntity
  8
FAA70-2201
370
              15
390
0
  6
STYLE_12
 62
               7
100
AcDbCircle
 10
-320.54756732546764
 20
811.29110232626795
 30
0.0
 40
17.5
  0
CIRCLE
  5
1CF
100
AcDbEntity
  8
FAA70-2201
370
              15
390
0
  6
STYLE_12
 62
               7
100
AcDbCircle
 10
-520.54756732546764
 20
811.3142880137118
 30
0.0
 40
17.500000000000114
  0
CIRCLE
  5
1D0
100
AcDbEntity
  8
FAA70-2201
370
              15
390
0
  6
STYLE_12
 62
               7
100
AcDbCircle
 10
-560.54756732546764
 20
-425.37142397257645
 30
0.0
 40
10.0
  0
CIRCLE
  5
1D1
100
AcDbEntity
  8
FAA70-2201
370
              15
390
0
  6
STYLE_12
 62
               7
100
AcDbCircle
 10
-280.54756732546764
 20
-425.37142397257645
 30
0.0
 40
10.0
  0
INSERT
  5
1D2
100
AcDbEntity
  8
FAA70-2201
390
0
 62
               7
100
AcDbBlockReference
  2
グループ-1
 10
0.0000000000010516
 20
-32.499999999999531
 30
0.0
  0
INSERT
  5
1D3
100
AcDbEntity
  8
FAA70-2201
390
0
 62
               7
100
AcDbBlockReference
  2
グループ-2
 10
0.0000000000010516
 20
-32.499999999999531
 30
0.0
  0
ARC
  5
1D4
100
AcDbEntity
  8
FAA70-2201
370
              15
390
0
  6
STYLE_12
 62
               7
100
AcDbCircle
 10
-322.23361949748301
 20
-315.69275211999758
 30
0.0
 40
191.68549928929792
100
AcDbArc
 50
272.76104475414769
 51
345.48071409474477
  0
ARC
  5
1D5
100
AcDbEntity
  8
FAA70-2201
370
              15
390
0
  6
STYLE_12
 62
               7
100
AcDbCircle
 10
-518.86151515345216
 20
-315.69275211999758
 30
0.0
 40
191.68549928929809
100
AcDbArc
 50
194.51928590525523
 51
267.23895524585237
  0
LINE
  5
1D6
100
AcDbEntity
  8
FAA70-2201
370
              15
390
0
  6
Continuous
 62
               7
100
AcDbLine
 10
792.49994288202186
 20
-373.18834508238058
 30
0.0
 11
792.49994288202186
 21
-388.18834508238058
 31
0.0
  0
LINE
  5
1D7
100
AcDbEntity
  8
FAA70-2201
370
              15
390
0
  6
Continuous
 62
               7
100
AcDbLine
 10
757.49994288202186
 20
-373.18834508238058
 30
0.0
 11
757.49994288202186
 21
-388.18834508238058
 31
0.0
  0
DIMENSION
  5
1D8
100
AcDbEntity
  8
FAA70-2201
370
               5
390
0
  6
Continuous
 62
               7
100
AcDbDimension
  2
*D20
 10
849.99994288202186
 20
-223.0
 30
0.0
 11
812.49997144101087
 21
-223.0
 31
0.0
 71
               5
 72
               1
 41
1.0
 42
0.0
  3
tfrom線あり
100
AcDbAlignedDimension
 13
775.0
 23
-379.0
 33
0.0
 14
849.99994288202186
 24
-379.0
 34
0.0
100
AcDbRotatedDimension
1001
ACAD
1000
DSTYLE
1002
{
1070
             279
1070
               2
1070
             340
1005
38
1070
             140
1040
24.432617187500004
1070
             147
1040
5.0
1002
}
  0
SPLINE
  5
1D9
100
AcDbEntity
  8
FAA70-2201
370
               5
390
0
  6
STYLE_12
 62
               7
100
AcDbSpline
210
0.0
220
0.0
230
1.0
 70
               8
 71
               2
 72
               6
 73
               3
 74
               0
 42
0.000001
 43
0.000001
 40
0.0
 40
0.0
 40
0.0
 40
1.0
 40
1.0
 40
1.0
 10
395.0
 20
-360.37142397257651
 30
0.0
 10
442.17217496474257
 20
-501.77590221515732
 30
0.0
 10
605.7573021949039
 20
-508.0
 30
0.0
  0
SPLINE
  5
1DA
100
AcDbEntity
  8
FAA70-2201
370
               5
390
0
  6
Continuous
 62
               7
100
AcDbSpline
210
0.0
220
0.0
230
1.0
 70
               8
 71
               2
 72
               6
 73
               3
 74
               0
 42
0.000001
 43
0.000001
 40
0.0
 40
0.0
 40
0.0
 40
1.0
 40
1.0
 40
1.0
 10
378.54242977145293
 20
-390.37053357720652
 30
0.0
 10
427.38377493323821
 20
-515.07037051403995
 30
0.0
 10
596.7573021949039
 20
-520.55919228612913
 30
0.0
  0
DIMENSION
  5
1DB
100
AcDbEntity
  8
FAA70-2201
370
               5
390
0
  6
Continuous
 62
               7
100
AcDbDimension
  2
*D21
 10
646.0
 20
-508.0
 30
0.0
 11
651.0
 21
-344.0
 31
0.0
 70
             128
 71
               5
 72
               1
 41
1.0
 42
0.0
  1
150(深さ)
  3
tfrom線あり
100
AcDbAlignedDimension
 13
605.7573021949039
 23
-360.37142397257651
 33
0.0
 14
605.7573021949039
 24
-508.0
 34
0.0
 50
90.0
100
AcDbRotatedDimension
1001
ACAD
1000
DSTYLE
1002
{
1070
             279
1070
               2
1070
             340
1005
38
1070
             140
1040
24.432617187500004
1070
             174
1070
               0
1070
             147
1040
5.0
1002
}
  0
DIMENSION
  5
1DC
100
AcDbEntity
  8
FAA70-2201
370
               5
390
0
  6
Continuous
 62
               7
100
AcDbDimension
  2
*D22
 10
749.37142397257639
 20
-360.37142397257651
 30
0.0
 11
754.37142397257639
 21
-345.0
 31
0.0
 70
             128
 71
               5
 72
               1
 41
1.0
 42
0.0
  1
15
  3
tfrom線あり
100
AcDbAlignedDimension
 13
723.0
 23
-373.15481312774011
 33
0.0
 14
723.0
 24
-360.37142397257651
 34
0.0
 50
90.0
100
AcDbRotatedDimension
1001
ACAD
1000
DSTYLE
1002
{
1070
             279
1070
               2
1070
             340
1005
38
1070
             140
1040
24.432617187500004
1070
             174
1070
               0
1070
             147
1040
5.0
1002
}
  0
SPLINE
  5
1DD
100
AcDbEntity
  8
FAA70-2201
370
               5
390
0
  6
Continuous
 62
               7
100
AcDbSpline
210
0.0
220
0.0
230
1.0
 70
               8
 71
               2
 72
               6
 73
               3
 74
               0
 42
0.000001
 43
0.000001
 40
0.0
 40
0.0
 40
0.0
 40
1.0
 40
1.0
 40
1.0
 10
-723.0
 20
-390.37053357720652
 30
0.0
 10
-674.0
 20
-515.0
 30
0.0
 10
-598.0
 20
-520.37142397257685
 30
0.0
  0
SPLINE
  5
1DE
100
AcDbEntity
  8
FAA70-2201
370
               5
390
0
  6
Continuous
 62
               7
100
AcDbSpline
210
0.0
220
0.0
230
1.0
 70
               8
 71
               2
 72
               6
 73
               3
 74
               0
 42
0.000001
 43
0.000001
 40
0.0
 40
0.0
 40
0.0
 40
1.0
 40
1.0
 40
1.0
 10
-115.01564561373573
 20
-390.37053357720652
 30
0.0
 10
-164.01564561373615
 20
-515.0
 30
0.0
 10
-240.01564561373644
 20
-520.37142397257685
 30
0.0
  0
ENDSEC
  0
SECTION
  2
OBJECTS
  0
DICTIONARY
  5
19
100
AcDbDictionary
280
               0
281
               1
  3
ACAD_GROUP
350
1A
  3
ACAD_MLINESTYLE
350
1B
  3
ACAD_LAYOUT
350
1E
  3
ACAD_PLOTSETTINGS
350
22
  3
ACAD_PLOTSTYLENAME
350
1F
  0
DICTIONARY
  5
1A
102
{ACAD_REACTORS
330
19
102
}
100
AcDbDictionary
280
               0
281
               1
  0
DICTIONARY
  5
1B
102
{ACAD_REACTORS
330
19
102
}
100
AcDbDictionary
280
               0
281
               1
  3
Standard
350
1C
  0
MLINESTYLE
  5
1C
102
{ACAD_REACTORS
330
1B
102
}
100
AcDbMlineStyle
  2
Standard
 70
               0
  3

 62
               0
 51
90.0
 52
90.0
 71
               2
 49
0.5
 62
             256
  6
ByLayer
 49
-0.5
 62
             256
  6
ByLayer
  0
ACDBDICTIONARYWDFLT
  5
1F
102
{ACAD_REACTORS
330
19
102
}
100
AcDbDictionary
281
               1
  3
Normal
350
1D
100
AcDbDictionaryWithDefault
340
1D
  0
ACDBPLACEHOLDER
  5
1D
102
{ACAD_REACTORS
330
1F
102
}
  0
LAYOUT
  5
20
102
{ACAD_REACTORS
330
1E
102
}
100
AcDbPlotSettings
  1

  2

  4

  6

 40
0.0
 41
0.0
 42
0.0
 43
0.0
 44
0.0
 45
0.0
 46
0.0
 47
0.0
 48
0.0
 49
0.0
140
0.0
141
0.0
142
1.0
143
1.0
 70
            1024
 72
               0
 73
               0
 74
               0
  7

 75
               0
147
1.0
148
0.0
149
0.0
100
AcDbLayout
  1
Model
 70
               0
 71
               0
 10
0.0
 20
0.0
 11
0.0
 21
0.0
 12
0.0
 22
0.0
 32
0.0
 14
0.0
 24
0.0
 34
0.0
 15
0.0
 25
0.0
 35
0.0
146
0.0
 13
0.0
 23
0.0
 33
0.0
 16
0.0
 26
0.0
 36
0.0
 17
0.0
 27
0.0
 37
0.0
 76
               0
330
A
331
0
345
0
346
0
  0
LAYOUT
  5
21
102
{ACAD_REACTORS
330
1E
102
}
100
AcDbPlotSettings
  1

  2

  4

  6

 40
0.0
 41
0.0
 42
0.0
 43
0.0
 44
0.0
 45
0.0
 46
0.0
 47
0.0
 48
0.0
 49
0.0
140
0.0
141
0.0
142
1.0
143
1.0
 70
               0
 72
               0
 73
               0
 74
               0
  7

 75
               0
147
1.0
148
0.0
149
0.0
100
AcDbLayout
  1
Layout1
 70
               0
 71
               0
 10
0.0
 20
0.0
 11
0.0
 21
0.0
 12
0.0
 22
0.0
 32
0.0
 14
0.0
 24
0.0
 34
0.0
 15
0.0
 25
0.0
 35
0.0
146
0.0
 13
0.0
 23
0.0
 33
0.0
 16
0.0
 26
0.0
 36
0.0
 17
0.0
 27
0.0
 37
0.0
 76
               0
330
B
331
0
345
0
346
0
  0
DICTIONARY
  5
1E
102
{ACAD_REACTORS
330
19
102
}
100
AcDbDictionary
280
               0
281
               1
  3
Layout1
350
21
  3
Model
350
20
  0
DICTIONARY
  5
22
102
{ACAD_REACTORS
330
19
102
}
100
AcDbDictionary
280
               0
281
               1
  0
ENDSEC
  0
EOF
