  0
SECTION
  2
HEADER
  9
$ACADVER
  1
AC1015
  9
$ACADMAINTVER
 70
               6
  9
$DWGCODEPAGE
  3
ANSI_932
  9
$INSBASE
 10
0.0
 20
0.0
 30
0.0
  9
$EXTMIN
 10
-975.00000000024124
 20
-1431.5255224711129
 30
-14.428611111111111
  9
$EXTMAX
 10
975.00000000024124
 20
1405.9972926412995
 30
14.428611111111111
  9
$LIMMIN
 10
0.0
 20
0.0
  9
$LIMMAX
 10
0.0
 20
0.0
  9
$ORTHOMODE
 70
               0
  9
$REGENMODE
 70
               1
  9
$FILLMODE
 70
               1
  9
$QTEXTMODE
 70
               0
  9
$MIRRTEXT
 70
               1
  9
$LTSCALE
 40
50.799999999999997
  9
$ATTMODE
 70
               1
  9
$TEXTSIZE
 40
0.2
  9
$TRACEWID
 40
1.0
  9
$TEXTSTYLE
  7
Standard
  9
$CLAYER
  8
FAA70-2202
  9
$CELTYPE
  6
Continuous
  9
$CECOLOR
 62
             256
  9
$CELTSCALE
 40
1.0
  9
$DISPSILH
 70
               0
  9
$DIMSCALE
 40
1.0
  9
$DIMASZ
 40
31.75
  9
$DIMEXO
 40
0.0
  9
$DIMDLI
 40
6.9999999999999396
  9
$DIMRND
 40
0.0
  9
$DIMDLE
 40
0.0
  9
$DIMEXE
 40
19.999999999996199
  9
$DIMTP
 40
0.0
  9
$DIMTM
 40
0.0
  9
$DIMTXT
 40
24.432617187500004
  9
$DIMCEN
 40
0.0
  9
$DIMTSZ
 40
0.0
  9
$DIMTOL
 70
               0
  9
$DIMLIM
 70
               0
  9
$DIMTIH
 70
               0
  9
$DIMTOH
 70
               0
  9
$DIMSE1
 70
               0
  9
$DIMSE2
 70
               0
  9
$DIMTAD
 70
               1
  9
$DIMZIN
 70
              11
  9
$DIMBLK
  1
VW_FILLEDARROW
  9
$DIMASO
 70
               1
  9
$DIMSHO
 70
               1
  9
$DIMPOST
  1
<>
  9
$DIMAPOST
  1
[]
  9
$DIMALT
 70
               0
  9
$DIMALTD
 70
               1
  9
$DIMALTF
 40
1.0
  9
$DIMLFAC
 40
1.0
  9
$DIMTOFL
 70
               0
  9
$DIMTVP
 40
0.0
  9
$DIMTIX
 70
               1
  9
$DIMSOXD
 70
               0
  9
$DIMSAH
 70
               0
  9
$DIMBLK1
  1

  9
$DIMBLK2
  1

  9
$DIMSTYLE
  2
JIS
  9
$DIMCLRD
 70
               0
  9
$DIMCLRE
 70
               0
  9
$DIMCLRT
 70
               0
  9
$DIMTFAC
 40
1.0
  9
$DIMGAP
 40
1.00000000000108
  9
$DIMJUST
 70
               0
  9
$DIMSD1
 70
               0
  9
$DIMSD2
 70
               0
  9
$DIMTOLJ
 70
               1
  9
$DIMTZIN
 70
              11
  9
$DIMALTZ
 70
              11
  9
$DIMALTTZ
 70
              11
  9
$DIMUPT
 70
               0
  9
$DIMDEC
 70
               1
  9
$DIMTDEC
 70
               1
  9
$DIMALTU
 70
               2
  9
$DIMALTTD
 70
               2
  9
$DIMTXSTY
  7
ＭＳ ゴシック
  9
$DIMAUNIT
 70
               0
  9
$DIMADEC
 70
               2
  9
$DIMALTRND
 40
0.0
  9
$DIMAZIN
 70
               0
  9
$DIMDSEP
 70
              46
  9
$DIMATFIT
 70
               0
  9
$DIMFRAC
 70
               2
  9
$DIMLDRBLK
  1

  9
$DIMLUNIT
 70
               2
  9
$DIMLWD
 70
              -2
  9
$DIMLWE
 70
              -2
  9
$DIMTMOVE
 70
               0
  9
$LUNITS
 70
               2
  9
$LUPREC
 70
               4
  9
$SKETCHINC
 40
0.1
  9
$FILLETRAD
 40
0.0
  9
$AUNITS
 70
               0
  9
$AUPREC
 70
               0
  9
$MENU
  1
acad
  9
$ELEVATION
 40
0.0
  9
$PELEVATION
 40
0.0
  9
$THICKNESS
 40
0.0
  9
$LIMCHECK
 70
               0
  9
$CHAMFERA
 40
0.0
  9
$CHAMFERB
 40
0.0
  9
$CHAMFERC
 40
0.0
  9
$CHAMFERD
 40
0.0
  9
$SKPOLY
 70
               0
  9
$TDCREATE
 40
2455982.615092593
  9
$TDUCREATE
 40
0.000000000
  9
$TDUPDATE
 40
2455982.615092593
  9
$TDUUPDATE
 40
0.000000000
  9
$TDINDWG
 40
0.0000000000
  9
$TDUSRTIMER
 40
0.0000000000
  9
$USRTIMER
 70
               1
  9
$ANGBASE
 50
0.0
  9
$ANGDIR
 70
               0
  9
$PDMODE
 70
               1
  9
$PDSIZE
 40
-2.0
  9
$PLINEWID
 40
0.0
  9
$SPLFRAME
 70
               0
  9
$SPLINETYPE
 70
               6
  9
$SPLINESEGS
 70
               8
  9
$HANDSEED
  5
1DE
  9
$SURFTAB1
 70
               6
  9
$SURFTAB2
 70
               6
  9
$SURFTYPE
 70
               6
  9
$SURFU
 70
               6
  9
$SURFV
 70
               6
  9
$UCSBASE
  2

  9
$UCSNAME
  2

  9
$UCSORG
 10
0.0
 20
0.0
 30
0.0
  9
$UCSXDIR
 10
1.0
 20
0.0
 30
0.0
  9
$UCSYDIR
 10
0.0
 20
1.0
 30
0.0
  9
$UCSORTHOREF
  2

  9
$UCSORTHOVIEW
 70
               0
  9
$UCSORGTOP
 10
0.0
 20
0.0
 30
0.0
  9
$UCSORGBOTTOM
 10
0.0
 20
0.0
 30
0.0
  9
$UCSORGLEFT
 10
0.0
 20
0.0
 30
0.0
  9
$UCSORGRIGHT
 10
0.0
 20
0.0
 30
0.0
  9
$UCSORGFRONT
 10
0.0
 20
0.0
 30
0.0
  9
$UCSORGBACK
 10
0.0
 20
0.0
 30
0.0
  9
$PUCSBASE
  2

  9
$PUCSNAME
  2

  9
$PUCSORG
 10
0.0
 20
0.0
 30
0.0
  9
$PUCSXDIR
 10
1.0
 20
0.0
 30
0.0
  9
$PUCSYDIR
 10
0.0
 20
1.0
 30
0.0
  9
$PUCSORTHOREF
  2

  9
$PUCSORTHOVIEW
 70
               0
  9
$PUCSORGTOP
 10
0.0
 20
0.0
 30
0.0
  9
$PUCSORGBOTTOM
 10
0.0
 20
0.0
 30
0.0
  9
$PUCSORGLEFT
 10
0.0
 20
0.0
 30
0.0
  9
$PUCSORGRIGHT
 10
0.0
 20
0.0
 30
0.0
  9
$PUCSORGFRONT
 10
0.0
 20
0.0
 30
0.0
  9
$PUCSORGBACK
 10
0.0
 20
0.0
 30
0.0
  9
$USERI1
 70
               0
  9
$USERI2
 70
               0
  9
$USERI3
 70
               0
  9
$USERI4
 70
               0
  9
$USERI5
 70
               0
  9
$USERR1
 40
0.0
  9
$USERR2
 40
0.0
  9
$USERR3
 40
0.0
  9
$USERR4
 40
0.0
  9
$USERR5
 40
0.0
  9
$WORLDVIEW
 70
               1
  9
$SHADEDGE
 70
               3
  9
$SHADEDIF
 70
              70
  9
$TILEMODE
 70
               1
  9
$MAXACTVP
 70
              64
  9
$PINSBASE
 10
0.0
 20
0.0
 30
0.0
  9
$PLIMCHECK
 70
               0
  9
$PEXTMIN
 10
1.0000000000000000E+20
 20
1.0000000000000000E+20
 30
1.0000000000000000E+20
  9
$PEXTMAX
 10
-1.0000000000000000E+20
 20
-1.0000000000000000E+20
 30
-1.0000000000000000E+20
  9
$PLIMMIN
 10
0.0
 20
0.0
  9
$PLIMMAX
 10
12.0
 20
9.0
  9
$UNITMODE
 70
               0
  9
$VISRETAIN
 70
               0
  9
$PLINEGEN
 70
               1
  9
$PSLTSCALE
 70
               0
  9
$TREEDEPTH
 70
            3020
  9
$CMLSTYLE
  2
Standard
  9
$CMLJUST
 70
               0
  9
$CMLSCALE
 40
1.0
  9
$PROXYGRAPHICS
 70
               0
  9
$MEASUREMENT
 70
               1
  9
$CELWEIGHT
370
               0
  9
$ENDCAPS
280
               0
  9
$JOINSTYLE
280
               0
  9
$LWDISPLAY
290
               1
  9
$INSUNITS
 70
               4
  9
$HYPERLINKBASE
  1

  9
$STYLESHEET
  1

  9
$XEDIT
290
               1
  9
$CEPSNTYPE
380
               0
  9
$PSTYLEMODE
290
               1
  9
$FINGERPRINTGUID
  2

  9
$VERSIONGUID
  2

  9
$EXTNAMES
290
               1
  9
$PSVPSCALE
 40
0.0
  0
ENDSEC
  0
SECTION
  2
CLASSES
  0
CLASS
  1
LWPOLYLINE
  2
AcDbPolyline
  3
AutoCAD 2000
 90
        0
280
               0
281
               1
  0
CLASS
  1
IMAGE
  2
AcDbRasterImage
  3
ISM
 90
      127
280
               0
281
               1
  0
CLASS
  1
OLE2FRAME
  2
AcDbOle2Frame
  3
AutoCAD 2000
 90
        0
280
               0
281
               1
  0
CLASS
  1
HATCH
  2
AcDbHatch
  3
AutoCAD 2000
 90
        0
280
               0
281
               1
  0
CLASS
  1
DICTIONARYVAR
  2
AcDbDictionaryVar
  3
AutoCAD 2000
 90
        0
280
               0
281
               0
  0
CLASS
  1
RASTERVARIABLES
  2
AcDbRasterVariables
  3
ISM
 90
        0
280
               0
281
               0
  0
CLASS
  1
IMAGEDEF
  2
AcDbRasterImageDef
  3
ISM
 90
        0
280
               0
281
               0
  0
CLASS
  1
IMAGEDEF_REACTOR
  2
AcDbRasterImageDefReactor
  3
ISM
 90
        1
280
               0
281
               0
  0
CLASS
  1
IDBUFFER
  2
AcDbIdBuffer
  3
AutoCAD 2000
 90
        0
280
               0
281
               0
  0
CLASS
  1
SPATIAL_FILTER
  2
AcDbSpatialFilter
  3
AutoCAD 2000
 90
        0
280
               0
281
               0
  0
CLASS
  1
XRECORD
  2
AcDbXrecord
  3
AutoCAD 2000
 90
        0
280
               0
281
               0
  0
CLASS
  1
SORTENTSTABLE
  2
AcDbSortentsTable
  3
AutoCAD 2000
 90
        0
280
               0
281
               0
  0
CLASS
  1
LAYER_INDEX
  2
AcDbLayerIndex
  3
AutoCAD 2000
 90
        0
280
               0
281
               0
  0
CLASS
  1
SPATIAL_INDEX
  2
AcDbSpatialIndex
  3
AutoCAD 2000
 90
        0
280
               0
281
               0
  0
CLASS
  1
OBJECT_PTR
  2
CAseDLPNTableRecord
  3
"ASE-LPNTableRecord"
 90
        1
280
               0
281
               0
  0
CLASS
  1
LAYOUT
  2
AcDbLayout
  3
AutoCAD 2000
 90
        0
280
               0
281
               0
  0
CLASS
  1
PLOTSETTINGS
  2
AcDbPlotSettings
  3
AutoCAD 2000
 90
        0
280
               0
281
               0
  0
CLASS
  1
ACDBDICTIONARYWDFLT
  2
AcDbDictionaryWithDefault
  3
AutoCAD 2000
 90
        0
280
               0
281
               0
  0
CLASS
  1
ACDBPLACEHOLDER
  2
AcDbPlaceHolder
  3
AutoCAD 2000
 90
        0
280
               0
281
               0
  0
ENDSEC
  0
SECTION
  2
TABLES
  0
TABLE
  2
VPORT
  5
7
100
AcDbSymbolTable
 70
               1
  0
VPORT
  5
15
100
AcDbSymbolTableRecord
100
AcDbViewportTableRecord
  2
*ACTIVE
 70
               0
 10
0.0
 20
0.0
 11
1.0
 21
1.0
 12
0.0
 22
-12.764114914906713
 13
0.0
 23
0.0
 14
1.0
 24
1.0
 15
0.0
 25
0.0
 16
0.0
 26
0.0
 36
1.0
 17
0.0
 27
0.0
 37
0.0
 40
2837.5228151124124
 41
0.688564
 42
50.0
 43
0.0
 44
0.0
 50
0.0
 51
0.0
 71
               0
 72
            2000
 73
               1
 74
               1
 75
               0
 76
               0
 77
               0
 78
               0
281
               0
 65
               0
110
0.0
120
0.0
130
0.0
111
1.0
121
0.0
131
0.0
112
0.0
122
1.0
132
0.0
345
0
346
0
 79
               0
146
0.0
  0
ENDTAB
  0
TABLE
  2
LTYPE
  5
4
100
AcDbSymbolTable
 70
              18
  0
LTYPE
  5
11
100
AcDbSymbolTableRecord
100
AcDbLinetypeTableRecord
  2
ByBlock
 70
              64
  3

 72
              65
 73
               0
 40
0.0
  0
LTYPE
  5
12
100
AcDbSymbolTableRecord
100
AcDbLinetypeTableRecord
  2
ByLayer
 70
              64
  3

 72
              65
 73
               0
 40
0.0
  0
LTYPE
  5
13
100
AcDbSymbolTableRecord
100
AcDbLinetypeTableRecord
  2
Continuous
 70
              64
  3
Solid line
 72
              65
 73
               0
 40
0.0
  0
LTYPE
  5
37
100
AcDbSymbolTableRecord
100
AcDbLinetypeTableRecord
  2
STYLE_01
 70
               0
  3

 72
              65
 73
               4
 40
0.2214566929133858
 49
0.1476377952755905
 74
               0
 49
-0.0246062992125984
 74
               0
 49
0.0246062992125984
 74
               0
 49
-0.0246062992125984
 74
               0
  0
LTYPE
  5
38
100
AcDbSymbolTableRecord
100
AcDbLinetypeTableRecord
  2
STYLE_02
 70
               0
  3

 72
              65
 73
               4
 40
0.0442913385826772
 49
0.0295275590551181
 74
               0
 49
-0.0049212598425197
 74
               0
 49
0.0049212598425197
 74
               0
 49
-0.0049212598425197
 74
               0
  0
LTYPE
  5
39
100
AcDbSymbolTableRecord
100
AcDbLinetypeTableRecord
  2
STYLE_03
 70
               0
  3

 72
              65
 73
               2
 40
1.25
 49
1.0416400000000001
 74
               0
 49
-0.2083599999999999
 74
               0
  0
LTYPE
  5
3A
100
AcDbSymbolTableRecord
100
AcDbLinetypeTableRecord
  2
STYLE_04
 70
               0
  3

 72
              65
 73
               2
 40
1.5277099999999999
 49
1.3194249999999998
 74
               0
 49
-0.208285
 74
               0
  0
LTYPE
  5
3B
100
AcDbSymbolTableRecord
100
AcDbLinetypeTableRecord
  2
STYLE_05
 70
               0
  3

 72
              65
 73
               2
 40
0.20828
 49
0.069425
 74
               0
 49
-0.138855
 74
               0
  0
LTYPE
  5
3C
100
AcDbSymbolTableRecord
100
AcDbLinetypeTableRecord
  2
STYLE_06
 70
               0
  3

 72
              65
 73
               4
 40
1.0416400000000001
 49
0.625
 74
               0
 49
-0.20828
 74
               0
 49
0.06943
 74
               0
 49
-0.13893
 74
               0
  0
LTYPE
  5
3D
100
AcDbSymbolTableRecord
100
AcDbLinetypeTableRecord
  2
STYLE_07
 70
               0
  3

 72
              65
 73
               6
 40
1.875
 49
0.625
 74
               0
 49
-0.20828
 74
               0
 49
0.6250000000000001
 74
               0
 49
-0.2083599999999999
 74
               0
 49
0.06943
 74
               0
 49
-0.1389299999999999
 74
               0
  0
LTYPE
  5
3E
100
AcDbSymbolTableRecord
100
AcDbLinetypeTableRecord
  2
STYLE_08
 70
               0
  3

 72
              65
 73
               6
 40
1.25
 49
0.625
 74
               0
 49
-0.20828
 74
               0
 49
0.06943
 74
               0
 49
-0.13893
 74
               0
 49
0.0694299999999999
 74
               0
 49
-0.13893
 74
               0
  0
LTYPE
  5
3F
100
AcDbSymbolTableRecord
100
AcDbLinetypeTableRecord
  2
STYLE_09
 70
               0
  3

 72
              65
 73
               4
 40
5.0
 49
3.75
 74
               0
 49
-0.2777849999999998
 74
               0
 49
0.6944300000000003
 74
               0
 49
-0.2777849999999998
 74
               0
  0
LTYPE
  5
40
100
AcDbSymbolTableRecord
100
AcDbLinetypeTableRecord
  2
STYLE_10
 70
               0
  3

 72
              65
 73
               6
 40
5.9375
 49
3.75
 74
               0
 49
-0.2777849999999998
 74
               0
 49
0.6944300000000003
 74
               0
 49
-0.2777849999999998
 74
               0
 49
0.625
 74
               0
 49
-0.3125
 74
               0
  0
LTYPE
  5
41
100
AcDbSymbolTableRecord
100
AcDbLinetypeTableRecord
  2
STYLE_11
 70
               0
  3

 72
              65
 73
               2
 40
0.0694444881889764
 49
0.0347222440944882
 74
               0
 49
-0.0347222440944882
 74
               0
  0
LTYPE
  5
42
100
AcDbSymbolTableRecord
100
AcDbLinetypeTableRecord
  2
STYLE_12
 70
               0
  3

 72
              65
 73
               2
 40
0.3937007874015748
 49
0.1968503937007874
 74
               0
 49
-0.1968503937007874
 74
               0
  0
LTYPE
  5
43
100
AcDbSymbolTableRecord
100
AcDbLinetypeTableRecord
  2
STYLE_13
 70
               0
  3

 72
              65
 73
               2
 40
0.5905511811023622
 49
0.2952755905511811
 74
               0
 49
-0.2952755905511811
 74
               0
  0
LTYPE
  5
44
100
AcDbSymbolTableRecord
100
AcDbLinetypeTableRecord
  2
STYLE_14
 70
               0
  3

 72
              65
 73
               2
 40
1.9685039370078738
 49
0.9842519685039369
 74
               0
 49
-0.9842519685039369
 74
               0
  0
LTYPE
  5
45
100
AcDbSymbolTableRecord
100
AcDbLinetypeTableRecord
  2
STYLE_15
 70
               0
  3

 72
              65
 73
               2
 40
0.2460629921259843
 49
0.187007874015748
 74
               0
 49
-0.0590551181102362
 74
               0
  0
ENDTAB
  0
TABLE
  2
LAYER
  5
2
100
AcDbSymbolTable
 70
               5
  0
LAYER
  5
14
100
AcDbSymbolTableRecord
100
AcDbLayerTableRecord
  2
0
 70
               0
 62
               7
  6
Continuous
290
               1
370
              -3
390
1D
  0
LAYER
  5
46
100
AcDbSymbolTableRecord
100
AcDbLayerTableRecord
  2
Defpoints
 70
               0
 62
               7
  6
Continuous
290
               0
370
              -3
390
1D
  0
LAYER
  5
47
100
AcDbSymbolTableRecord
100
AcDbLayerTableRecord
  2
template
 70
               0
 62
               7
  6
Continuous
290
               1
370
              -3
390
1D
  0
LAYER
  5
48
100
AcDbSymbolTableRecord
100
AcDbLayerTableRecord
  2
notes
 70
               0
 62
               7
  6
Continuous
290
               1
370
              -3
390
1D
  0
LAYER
  5
49
100
AcDbSymbolTableRecord
100
AcDbLayerTableRecord
  2
FAA70-2202
 70
               0
 62
               7
  6
Continuous
290
               1
370
              -3
390
1D
  0
ENDTAB
  0
TABLE
  2
STYLE
  5
3
100
AcDbSymbolTable
 70
               2
  0
STYLE
  5
17
100
AcDbSymbolTableRecord
100
AcDbTextStyleTableRecord
  2
Standard
 70
               0
 40
0.0
 41
1.0
 50
0.0
 71
               0
 42
0.0
  3
txt
  4
BIGFONT.SHX
  0
STYLE
  5
36
100
AcDbSymbolTableRecord
100
AcDbTextStyleTableRecord
  2
ＭＳ ゴシック
 70
               0
 40
0.0
 41
1.0
 50
0.0
 71
               0
 42
0.0
  3

  4
ＭＳ ゴシック
1001
ACAD
1000
ＭＳ ゴシック
1071
        0
  0
ENDTAB
  0
TABLE
  2
VIEW
  5
5
100
AcDbSymbolTable
 70
               0
  0
ENDTAB
  0
TABLE
  2
UCS
  5
6
100
AcDbSymbolTable
 70
               0
  0
ENDTAB
  0
TABLE
  2
APPID
  5
8
100
AcDbSymbolTable
 70
               1
  0
APPID
  5
16
100
AcDbSymbolTableRecord
100
AcDbRegAppTableRecord
  2
ACAD
 70
               0
  0
ENDTAB
  0
TABLE
  2
DIMSTYLE
  5
9
100
AcDbSymbolTable
 70
               3
100
AcDbDimStyleTable
 71
               0
  0
DIMSTYLE
105
18
100
AcDbSymbolTableRecord
100
AcDbDimStyleTableRecord
  2
Standard
 70
               0
  3

  4

 40
1.0
 41
0.18
 42
0.0625
 43
0.38
 44
0.18
 45
0.0
 46
0.0
 47
0.0
 48
0.0
 71
               0
 72
               0
 73
               1
 74
               1
 75
               0
 76
               0
 77
               0
 78
               0
 79
               0
140
0.18
141
0.09
142
0.0
143
25.399999999999999
144
1.0
145
0.0
146
1.0
147
0.09
148
0.0
170
               0
171
               2
172
               0
173
               0
174
               0
175
               0
176
               0
177
               0
178
               0
179
               0
271
               4
272
               4
273
               2
274
               2
275
               0
276
               0
277
               2
278
              46
279
               0
280
               0
281
               0
282
               0
283
               1
284
               0
285
               0
286
               0
288
               0
289
               3
340
17
341
0
342
0
343
0
344
0
371
              -2
372
              -2
  0
DIMSTYLE
105
52
100
AcDbSymbolTableRecord
100
AcDbDimStyleTableRecord
  2
tfrom線あり
 70
               0
  3
<>
  4
[]
 40
1.0
 41
3.999755859375
 42
24.999999999999996
 43
0.9999999999999999
 44
0.0
 45
0.0
 46
0.0
 47
0.0
 48
0.0
 71
               0
 72
               0
 73
               0
 74
               0
 75
               0
 76
               0
 77
               1
 78
              11
 79
               0
140
24.432617187500004
141
0.0
142
0.0
143
1.0
144
1.0
145
0.0
146
1.0
147
0.4999999999999999
148
0.0
170
               0
171
               1
172
               0
173
               0
174
               1
175
               0
176
               0
177
               0
178
               0
179
               2
271
               1
272
               1
273
               2
274
               2
275
               0
276
               2
277
               2
278
              46
279
               0
280
               0
281
               0
282
               0
283
               1
284
              11
285
              11
286
              11
288
               0
289
               0
340
36
341
4A
342
4A
343
0
344
0
371
              -2
372
              -2
  0
DIMSTYLE
105
57
100
AcDbSymbolTableRecord
100
AcDbDimStyleTableRecord
  2
JIS
 70
               0
  3
<>
  4
[]
 40
1.0
 41
31.75
 42
0.0
 43
6.9999999999999396
 44
19.999999999996199
 45
0.0
 46
0.0
 47
0.0
 48
0.0
 71
               0
 72
               0
 73
               0
 74
               0
 75
               0
 76
               0
 77
               1
 78
              11
 79
               0
140
24.432617187500004
141
0.0
142
0.0
143
1.0
144
1.0
145
0.0
146
1.0
147
1.00000000000108
148
0.0
170
               0
171
               1
172
               0
173
               0
174
               1
175
               0
176
               0
177
               0
178
               0
179
               2
271
               1
272
               1
273
               2
274
               2
275
               0
276
               2
277
               2
278
              46
279
               0
280
               0
281
               0
282
               0
283
               1
284
              11
285
              11
286
              11
288
               0
289
               0
340
36
341
53
342
53
343
0
344
0
371
              -2
372
              -2
  0
ENDTAB
  0
TABLE
  2
BLOCK_RECORD
  5
1
100
AcDbSymbolTable
 70
              21
  0
BLOCK_RECORD
  5
A
100
AcDbSymbolTableRecord
100
AcDbBlockTableRecord
  2
*MODEL_SPACE
340
20
  0
BLOCK_RECORD
  5
B
100
AcDbSymbolTableRecord
100
AcDbBlockTableRecord
  2
*PAPER_SPACE
340
21
  0
BLOCK_RECORD
  5
4A
100
AcDbSymbolTableRecord
100
AcDbBlockTableRecord
  2
_DOT
340
0
  0
BLOCK_RECORD
  5
53
100
AcDbSymbolTableRecord
100
AcDbBlockTableRecord
  2
VW_FILLEDARROW
340
0
  0
BLOCK_RECORD
  5
23
100
AcDbSymbolTableRecord
100
AcDbBlockTableRecord
  2
グループ
340
0
102
{BLKREFS
331
150
102
}
  0
BLOCK_RECORD
  5
24
100
AcDbSymbolTableRecord
100
AcDbBlockTableRecord
  2
*D3
340
0
  0
BLOCK_RECORD
  5
25
100
AcDbSymbolTableRecord
100
AcDbBlockTableRecord
  2
*D4
340
0
  0
BLOCK_RECORD
  5
26
100
AcDbSymbolTableRecord
100
AcDbBlockTableRecord
  2
*D5
340
0
  0
BLOCK_RECORD
  5
27
100
AcDbSymbolTableRecord
100
AcDbBlockTableRecord
  2
*D6
340
0
  0
BLOCK_RECORD
  5
28
100
AcDbSymbolTableRecord
100
AcDbBlockTableRecord
  2
*D7
340
0
  0
BLOCK_RECORD
  5
29
100
AcDbSymbolTableRecord
100
AcDbBlockTableRecord
  2
*D8
340
0
  0
BLOCK_RECORD
  5
2A
100
AcDbSymbolTableRecord
100
AcDbBlockTableRecord
  2
*D9
340
0
  0
BLOCK_RECORD
  5
2B
100
AcDbSymbolTableRecord
100
AcDbBlockTableRecord
  2
*D10
340
0
  0
BLOCK_RECORD
  5
2C
100
AcDbSymbolTableRecord
100
AcDbBlockTableRecord
  2
*D11
340
0
  0
BLOCK_RECORD
  5
2D
100
AcDbSymbolTableRecord
100
AcDbBlockTableRecord
  2
*D12
340
0
  0
BLOCK_RECORD
  5
2E
100
AcDbSymbolTableRecord
100
AcDbBlockTableRecord
  2
*D13
340
0
  0
BLOCK_RECORD
  5
2F
100
AcDbSymbolTableRecord
100
AcDbBlockTableRecord
  2
*D14
340
0
  0
BLOCK_RECORD
  5
30
100
AcDbSymbolTableRecord
100
AcDbBlockTableRecord
  2
*D15
340
0
  0
BLOCK_RECORD
  5
31
100
AcDbSymbolTableRecord
100
AcDbBlockTableRecord
  2
*D16
340
0
  0
BLOCK_RECORD
  5
32
100
AcDbSymbolTableRecord
100
AcDbBlockTableRecord
  2
*D17
340
0
  0
BLOCK_RECORD
  5
33
100
AcDbSymbolTableRecord
100
AcDbBlockTableRecord
  2
*D18
340
0
  0
BLOCK_RECORD
  5
34
100
AcDbSymbolTableRecord
100
AcDbBlockTableRecord
  2
*D19
340
0
  0
BLOCK_RECORD
  5
35
100
AcDbSymbolTableRecord
100
AcDbBlockTableRecord
  2
*D20
340
0
  0
ENDTAB
  0
ENDSEC
  0
SECTION
  2
BLOCKS
  0
BLOCK
  5
D
100
AcDbEntity
  8
0
390
0
100
AcDbBlockBegin
  2
*MODEL_SPACE
 70
               0
 10
0.0
 20
0.0
 30
0.0
  3
*MODEL_SPACE
  1

  0
ENDBLK
  5
E
100
AcDbEntity
  8
0
390
0
100
AcDbBlockEnd
  0
BLOCK
  5
F
100
AcDbEntity
 67
               1
  8
0
390
0
100
AcDbBlockBegin
  2
*PAPER_SPACE
 70
               0
 10
0.0
 20
0.0
 30
0.0
  3
*PAPER_SPACE
  1

  0
ENDBLK
  5
10
100
AcDbEntity
 67
               1
  8
0
390
0
100
AcDbBlockEnd
  0
BLOCK
  5
4B
100
AcDbEntity
  8
0
390
0
100
AcDbBlockBegin
  2
_DOT
 70
               0
 10
0.0
 20
0.0
 30
0.0
  3
_DOT
  1

  0
POLYLINE
  5
4C
100
AcDbEntity
  8
0
370
              -2
390
0
  6
ByBlock
 62
               0
100
AcDb2dPolyline
 66
               1
 10
0.0
 20
0.0
 30
0.0
 70
               1
 40
0.5
 41
0.5
  0
VERTEX
  5
4D
100
AcDbEntity
  8
0
370
              -2
390
0
  6
ByBlock
 62
               0
100
AcDbVertex
100
AcDb2dVertex
 10
-0.25
 20
0.0
 30
0.0
 42
1.0
  0
VERTEX
  5
4E
100
AcDbEntity
  8
0
370
              -2
390
0
  6
ByBlock
 62
               0
100
AcDbVertex
100
AcDb2dVertex
 10
0.25
 20
0.0
 30
0.0
 42
1.0
  0
SEQEND
  5
4F
100
AcDbEntity
  8
0
390
0
  0
LINE
  5
50
100
AcDbEntity
  8
0
370
              -2
390
0
  6
ByBlock
 62
               0
100
AcDbLine
 10
-0.5
 20
0.0
 30
0.0
 11
-1.0
 21
0.0
 31
0.0
  0
ENDBLK
  5
51
100
AcDbEntity
  8
0
390
0
100
AcDbBlockEnd
  0
BLOCK
  5
54
100
AcDbEntity
  8
0
370
              -2
390
0
  6
ByBlock
 62
               0
100
AcDbBlockBegin
  2
VW_FILLEDARROW
 70
               0
 10
0.0
 20
0.0
 30
0.0
  3
VW_FILLEDARROW
  1

  0
SOLID
  5
55
100
AcDbEntity
  8
0
370
              -2
390
0
 62
               0
100
AcDbTrace
 10
0.0
 20
0.0
 30
0.0
 11
-0.9921874999999999
 21
-0.2658558393652545
 31
0.0
 12
-0.9921874999999999
 22
0.2658558393652548
 32
0.0
 13
-0.9921874999999999
 23
0.2658558393652548
 33
0.0
  0
ENDBLK
  5
56
100
AcDbEntity
  8
0
390
0
100
AcDbBlockEnd
  0
BLOCK
  5
58
100
AcDbEntity
  8
template
390
0
100
AcDbBlockBegin
  2
グループ
 70
               0
 10
0.0
 20
0.0
 30
0.0
  3
グループ
  1

  0
LWPOLYLINE
  5
59
100
AcDbEntity
  8
0
370
              15
390
0
  6
Continuous
 62
               7
100
AcDbPolyline
 90
        8
 70
             129
 10
887.42850780307367
 20
-1319.4897210236863
 10
887.42850780307367
 20
-1325.4871097172622
 10
877.92731088507037
 20
-1325.4871097172622
 10
877.92731088507037
 20
-1349.938072980771
 10
869.57193362328758
 20
-1349.938072980771
 10
869.57193362328758
 20
-1325.4871097172622
 10
860.23897667697815
 20
-1325.4871097172622
 10
860.23897667697815
 20
-1319.4897210236863
  0
LWPOLYLINE
  5
5A
100
AcDbEntity
  8
0
370
              15
390
0
  6
Continuous
 62
               7
100
AcDbPolyline
 90
      101
 70
             128
 10
900.15679963363061
 20
-1320.2179695166228
 10
900.17214966241318
 20
-1320.2136087599383
 42
-0.0222221607813829
 10
900.46215423908666
 20
-1320.1449842946931
 10
900.47794800308236
 20
-1320.1419808715957
 42
-0.014688356558422
 10
900.74065070830443
 20
-1320.0999776846468
 42
-0.0127458844181523
 10
901.00528967546359
 20
-1320.0724407165737
 10
901.06774475377028
 20
-1320.0675472939861
 42
-0.0198099018566034
 10
901.45859386324332
 20
-1320.0524621365894
 10
901.51040533269088
 20
-1320.0525159122544
 42
-0.0147617382761195
 10
902.00502879366411
 20
-1320.0676359374993
 10
902.07772024854023
 20
-1320.072008544387
 42
-0.0162624549001756
 10
902.46787387800464
 20
-1320.1082414196594
 10
902.58940626927131
 20
-1320.123527978657
 42
-0.008002087466507
 10
902.73498530035545
 20
-1320.1442108259243
 10
902.77330477094972
 20
-1320.1502821037352
 42
-0.0053821929667332
 10
902.84178887626524
 20
-1320.161889627557
 10
902.11538317706663
 20
-1322.3428180832709
 42
0.0108667757388032
 10
902.04806610693413
 20
-1322.3296309680507
 10
902.01059808374634
 20
-1322.3231332254566
 42
0.0170663203312722
 10
901.86738129682783
 20
-1322.3033036281645
 10
901.79950596414778
 20
-1322.2962564575773
 42
0.0220162375274592
 10
901.5191265562936
 20
-1322.2795740968072
 10
901.44127098924241
 20
-1322.2783747295407
 42
0.0282606915785428
 10
901.10563466566248
 20
-1322.2921780065099
 10
901.06172139188527
 20
-1322.2964779965139
 42
0.0169677213688786
 10
900.81579689693126
 20
-1322.3290150460653
 42
0.0190576269870293
 10
900.57288893434566
 20
-1322.3791619181732
 10
900.56662974624032
 20
-1322.3807048922811
 42
0.0213685642846689
 10
900.31624526176336
 20
-1322.4539051773856
 10
900.31075536684637
 20
-1322.455768173445
 42
0.0237595297595109
 10
900.05726048195118
 20
-1322.555452695339
 10
900.052158407918
 20
-1322.5577444708188
 42
0.02618574688154
 10
899.79998763169112
 20
-1322.6872808081914
 10
899.78956144259996
 20
-1322.6933462826623
 42
0.0272553062022556
 10
899.55313166736255
 20
-1322.8487184886058
 10
899.51836865385565
 20
-1322.8743796366962
 42
0.0325996893166666
 10
899.36821331020155
 20
-1323.0011275096695
 10
899.34450388107166
 20
-1323.0239455381889
 42
0.0138050960643546
 10
899.25262072486839
 20
-1323.1173951997339
 42
0.0125280103805192
 10
899.1657781920328
 20
-1323.2155585263365
 10
899.14209774712651
 20
-1323.2437170245214
 42
0.0205218024743161
 10
899.01699767161267
 20
-1323.4055103387507
 10
898.9945313311257
 20
-1323.4371700685774
 42
0.0163110129586308
 10
898.83882095187266
 20
-1323.6725005036501
 10
898.83609705582342
 20
-1323.6769242656328
 42
0.0131897341895314
 10
898.68929653491716
 20
-1323.930056357998
 10
898.68759643955104
 20
-1323.9331745971331
 42
0.0107895576064098
 10
898.54981973734255
 20
-1324.1993898067635
 10
898.54908684781526
 20
-1324.2008840394146
 42
0.0091371507220964
 10
898.4206068991657
 20
-1324.4754092371741
 10
898.39086126775646
 20
-1324.5421157443329
 42
0.0135418326349006
 10
898.21914732868538
 20
-1324.9570535296004
 10
898.18554252024751
 20
-1325.044919671891
 42
0.009283454241301
 10
898.01431346032973
 20
-1325.5188181701883
 10
897.9886963326145
 20
-1325.5940592399745
 42
0.0054261043582617
 10
897.88105818431904
 20
-1325.921823213047
 10
897.86353219814725
 20
-1325.9772113752592
 42
0.0008225090820727
 10
897.79486214631163
 20
-1326.1954801334261
 10
896.81017301437817
 20
-1329.2203714266827
 10
900.04279685445204
 20
-1329.2203714266827
 10
899.53860442459859
 20
-1331.1248497250351
 10
896.28254814261527
 20
-1331.1248497250351
 10
890.45339911026144
 20
-1349.93807279104
 10
888.62830149995114
 20
-1349.93807279104
 10
894.46297953545206
 20
-1331.1248497250351
 10
892.05786316641172
 20
-1331.1248497250351
 10
892.56205559626517
 20
-1329.2203714266827
 10
894.99060440721519
 20
-1329.2203714266827
 10
895.85075932540383
 20
-1326.5839584259838
 42
-0.0005863560654286
 10
895.88749400353208
 20
-1326.467132005931
 10
895.96358183726772
 20
-1326.2261397063066
 42
-0.00875223789259
 10
896.16304998072701
 20
-1325.6308636191534
 10
896.2553142561386
 20
-1325.3707234506455
 42
-0.0077400953831289
 10
896.51324791526918
 20
-1324.6777187730991
 10
896.5290128868503
 20
-1324.6372878897071
 42
-0.0082369946329844
 10
896.77609735746
 20
-1324.0332088235173
 42
-0.0085725238365347
 10
897.04334345346467
 20
-1323.4377827842263
 10
897.14497305446901
 20
-1323.2213616822478
 42
-0.0168109410598036
 10
897.43191748320032
 20
-1322.6601541561406
 10
897.5577608736935
 20
-1322.4331901230814
 42
-0.0007817726857938
 10
897.612045223716
 20
-1322.3356458781122
 10
897.61217352973131
 20
-1322.3354161693794
 42
-0.0036626142163016
 10
897.66706139375447
 20
-1322.2388182894072
 42
-0.0080221150680112
 10
897.72418564915847
 20
-1322.1435390546587
 10
897.75488560052236
 20
-1322.094148105532
 42
-0.0202139325578454
 10
897.88254134032934
 20
-1321.9061665048505
 10
897.9366088055167
 20
-1321.8330876406098
 42
-0.0249323791804331
 10
898.1957715992354
 20
-1321.5170423984562
 10
898.21991141336287
 20
-1321.4904281255431
 42
-0.0242132121541021
 10
898.55959215490338
 20
-1321.1505446393405
 10
898.6075037276546
 20
-1321.1070355031536
 42
-0.0251017527857155
 10
898.89148542829616
 20
-1320.874042757388
 10
898.89293090510591
 20
-1320.8729734998119
 42
-0.0130868069034798
 10
899.19119155506723
 20
-1320.6641930312667
 10
899.19275337421027
 20
-1320.6631595909914
 42
-0.0290329526386914
 10
899.50386451560325
 20
-1320.4823340893622
 10
899.53371007758972
 20
-1320.4672317065224
 42
-0.0160250190048027
 10
899.79961449135408
 20
-1320.3432155963096
 42
-0.0267600374784353
 10
900.07489056882252
 20
-1320.2424672757609
 10
900.10162648834364
 20
-1320.2342747169353
 42
-0.0049981587669873
 10
900.15679963363061
 20
-1320.2179695166228
 42
-0.0049981587669873
  0
LWPOLYLINE
  5
5B
100
AcDbEntity
  8
0
370
              15
390
0
  6
Continuous
 62
               7
100
AcDbPolyline
 90
      118
 70
             128
 10
919.97116719807752
 20
-1329.2943547545101
 10
921.84628912257699
 20
-1329.2943547545101
 10
921.0082502169771
 20
-1331.9759212809101
 42
-0.0010587229238949
 10
921.03970603257721
 20
-1331.9390167475217
 10
921.09790012318103
 20
-1331.8710344913791
 42
-0.0071874740408652
 10
921.24827534127542
 20
-1331.7003937993541
 10
921.3899981145413
 20
-1331.544157658037
 42
-0.0148118053512719
 10
921.84012740725268
 20
-1331.0765438120252
 10
921.9273497421583
 20
-1330.9911464911681
 42
-0.0086273358693635
 10
922.26289854316428
 20
-1330.6737708571538
 10
922.30673225938062
 20
-1330.6337212128294
 42
-0.0103138323118694
 10
922.56475596162363
 20
-1330.4075580754825
 10
922.61053036796159
 20
-1330.3690760282132
 42
-0.0060206748565103
 10
922.78337843206293
 20
-1330.227281377468
 10
922.78540956294569
 20
-1330.2256556718394
 42
-0.0067069027298446
 10
922.95770237761144
 20
-1330.0915050380418
 10
922.96025114353745
 20
-1330.0895748681664
 42
-0.0076184352051784
 10
923.13115640940873
 20
-1329.9641999929227
 42
-0.0089652861677022
 10
923.30611737213576
 20
-1329.8445667325948
 10
923.34246909228943
 20
-1329.8206555191061
 42
-0.0156916245937062
 10
923.53842858944836
 20
-1329.7003930326327
 42
-0.0023299011069693
 10
923.73869063340692
 20
-1329.5872150931036
 10
923.75407476580801
 20
-1329.5786150980271
 42
-0.0107669341487122
 10
923.98831159091003
 20
-1329.4542149646772
 10
924.01057639198416
 20
-1329.4429982147276
 42
-0.0078058045897268
 10
924.29416650993824
 20
-1329.3056367590884
 10
924.30407359764604
 20
-1329.3010276312207
 42
-0.0181829330469079
 10
924.61438300226519
 20
-1329.1701638901236
 10
924.66843844482742
 20
-1329.149648770182
 42
-0.0208411536032673
 10
925.01752341227871
 20
-1329.0335583076885
 10
925.03187951240898
 20
-1329.0294398627343
 42
-0.0222799817140194
 10
925.36059930632337
 20
-1328.9507982965947
 10
925.36948826956291
 20
-1328.9490862860091
 42
-0.0215509523881036
 10
925.68595923784028
 20
-1328.9021705974751
 10
925.72844119889157
 20
-1328.8977330706841
 42
-0.0182545924870385
 10
925.96254997819437
 20
-1328.8818892452935
 10
926.0019509945314
 20
-1328.8806647002145
 42
-0.0072962856536579
 10
926.15787387423143
 20
-1328.8780953716921
 10
926.18697354480969
 20
-1328.8780405362884
 42
-0.0059227516317679
 10
926.28472304394836
 20
-1328.8790142480789
 10
926.31396526146148
 20
-1328.879652014683
 42
-0.0011833111894524
 10
926.35321654515269
 20
-1328.8806010189921
 10
925.55782994954552
 20
-1331.4193349640911
 42
0.0143932051599075
 10
925.53142856719319
 20
-1331.4091359940453
 10
925.52415659477765
 20
-1331.4065647751886
 42
0.0234388603528818
 10
925.48232572884592
 20
-1331.3939455394734
 10
925.47364406593283
 20
-1331.3917645774682
 42
0.0199162742996043
 10
925.41335523185353
 20
-1331.3791478421333
 10
925.39254129404662
 20
-1331.3756506427046
 42
0.0293643550674285
 10
925.28946643528479
 20
-1331.3645005970513
 10
925.2647812545672
 20
-1331.3632889800328
 42
0.0214606686863212
 10
925.11164033861633
 20
-1331.3623504196153
 10
925.10226842779673
 20
-1331.3626953311596
 42
0.0167564054178118
 10
924.9307482366811
 20
-1331.3747723735282
 10
924.92228844392935
 20
-1331.3756537139548
 42
0.0137677553245164
 10
924.73493513065773
 20
-1331.4004030224994
 10
924.72758339115671
 20
-1331.4015809424664
 42
0.0118497261480566
 10
924.52708562705641
 20
-1331.4385982926551
 10
924.52093561980814
 20
-1331.4398851553756
 42
0.0106421143889183
 10
924.31005473251616
 20
-1331.488717530952
 10
924.30514592413408
 20
-1331.4899648736355
 42
0.0099746379700288
 10
924.08668745497187
 20
-1331.55013940195
 10
924.02513941480129
 20
-1331.5684212805809
 42
0.0191613675861691
 10
923.68915495228271
 20
-1331.682398660869
 10
923.60109517953856
 20
-1331.7160855711925
 42
0.0205274080142872
 10
923.21578840763959
 20
-1331.8819139790185
 10
923.15813912565932
 20
-1331.90958194359
 42
0.0181256912195546
 10
922.89986218499064
 20
-1332.0452657625688
 10
922.84690680167364
 20
-1332.0755833757853
 42
0.0140709242417827
 10
922.70195186704836
 20
-1332.1640780492178
 10
922.67570299842441
 20
-1332.1811348679369
 42
0.0086667884404837
 10
922.58677683688734
 20
-1332.2411375358161
 42
0.0036408192018177
 10
922.49934359886026
 20
-1332.3033183936038
 10
922.46411672438535
 20
-1332.3287593395212
 42
0.0052260781275761
 10
922.3078880269976
 20
-1332.4440917261529
 10
922.29168117073459
 20
-1332.4563198367737
 42
0.0050024435897137
 10
922.10567782768089
 20
-1332.5996024050319
 10
922.09035967116063
 20
-1332.6116484274817
 42
0.0136138710280999
 10
921.87991840283394
 20
-1332.7866149323961
 10
921.84625052704178
 20
-1332.8161939051092
 42
0.0172815186911461
 10
921.58184698538582
 20
-1333.0651905777258
 10
921.57928463953658
 20
-1333.0677763948797
 42
0.0189403857998206
 10
921.3287028409535
 20
-1333.3405816596887
 10
921.29607134742446
 20
-1333.3789255911777
 42
0.0185044199502076
 10
921.10411490844149
 20
-1333.6221741723039
 42
0.0088565243899374
 10
920.92565480180781
 20
-1333.8756905924618
 10
920.91647682216455
 20
-1333.889231972214
 42
0.0157195347231382
 10
920.73325621582956
 20
-1334.1787541815311
 10
920.6871732738972
 20
-1334.2569063785545
 42
0.0095451879785196
 10
920.52208772376196
 20
-1334.549501020907
 10
920.51093980483074
 20
-1334.5701716930419
 42
0.0100351706256738
 10
920.37889605567307
 20
-1334.8272272535298
 42
0.0086935915421069
 10
920.25656490387701
 20
-1335.0890603989387
 10
920.25324416246451
 20
-1335.0965027219061
 42
0.007258017486666
 10
920.13289771051905
 20
-1335.3770947134901
 10
920.12963607721326
 20
-1335.3850147395069
 42
0.0060005122612598
 10
920.01043540887201
 20
-1335.6846244101087
 10
920.00722443052894
 20
-1335.692985938017
 42
0.0049017786976944
 10
919.88832427167324
 20
-1336.0119149186164
 10
919.88515846528105
 20
-1336.0206678558516
 42
0.0039415167600892
 10
919.76572218721981
 20
-1336.3592099182783
 10
919.76259108457225
 20
-1336.368313119141
 42
0.0031035838767446
 10
919.64178629887658
 20
-1336.7267529809224
 10
919.63867625434875
 20
-1336.7361736022895
 42
0.0025070747149968
 10
919.51577490305624
 20
-1337.1148208191619
 10
919.47848100660804
 20
-1337.2317124844863
 42
0.00290819102861
 10
919.28646270879506
 20
-1337.8458761427848
 10
919.24565954028014
 20
-1337.9790993850538
 42
0.0009266453733089
 10
918.97724216592837
 20
-1338.8613238450998
 10
918.95635469334809
 20
-1338.9304357241363
 42
-0.0005809993665711
 10
918.67901801273365
 20
-1339.8442438308521
 10
918.61273621446344
 20
-1340.0617287630027
 42
-0.0012018708167339
 10
918.46575190503154
 20
-1340.5398914275324
 10
918.41343205345333
 20
-1340.7086505684385
 42
-0.0002691059607424
 10
918.36986257229739
 20
-1340.8489181887403
 10
915.53690667400815
 20
-1349.93807279104
 10
913.71891778202962
 20
-1349.93807279104
 10
919.97116719807752
 20
-1329.2943547545101
  0
SPLINE
  5
5C
100
AcDbEntity
  8
0
370
              15
390
0
  6
Continuous
 62
               7
100
AcDbSpline
210
0.0
220
0.0
230
1.0
 70
              13
 71
               2
 72
             782
 73
             779
 74
               0
 42
0.000001
 43
0.000001
 40
0.0
 40
0.0
 40
0.0
 40
1.0
 40
1.0
 40
2.0
 40
2.0
 40
3.0
 40
3.0
 40
4.0
 40
4.0
 40
5.0
 40
5.0
 40
6.0
 40
6.0
 40
7.0
 40
7.0
 40
8.0
 40
8.0
 40
9.0
 40
9.0
 40
10.0
 40
10.0
 40
11.0
 40
11.0
 40
12.0
 40
12.0
 40
13.0
 40
13.0
 40
14.0
 40
14.0
 40
15.0
 40
15.0
 40
16.0
 40
16.0
 40
17.0
 40
17.0
 40
18.0
 40
18.0
 40
19.0
 40
19.0
 40
20.0
 40
20.0
 40
21.0
 40
21.0
 40
22.0
 40
22.0
 40
23.0
 40
23.0
 40
24.0
 40
24.0
 40
25.0
 40
25.0
 40
26.0
 40
26.0
 40
27.0
 40
27.0
 40
28.0
 40
28.0
 40
29.0
 40
29.0
 40
30.0
 40
30.0
 40
31.0
 40
31.0
 40
32.0
 40
32.0
 40
33.0
 40
33.0
 40
34.0
 40
34.0
 40
35.0
 40
35.0
 40
36.0
 40
36.0
 40
37.0
 40
37.0
 40
38.0
 40
38.0
 40
39.0
 40
39.0
 40
40.0
 40
40.0
 40
41.0
 40
41.0
 40
42.0
 40
42.0
 40
43.0
 40
43.0
 40
44.0
 40
44.0
 40
45.0
 40
45.0
 40
46.0
 40
46.0
 40
47.0
 40
47.0
 40
48.0
 40
48.0
 40
49.0
 40
49.0
 40
50.0
 40
50.0
 40
51.0
 40
51.0
 40
52.0
 40
52.0
 40
53.0
 40
53.0
 40
54.0
 40
54.0
 40
55.0
 40
55.0
 40
56.0
 40
56.0
 40
57.0
 40
57.0
 40
58.0
 40
58.0
 40
59.0
 40
59.0
 40
60.0
 40
60.0
 40
61.0
 40
61.0
 40
62.0
 40
62.0
 40
63.0
 40
63.0
 40
64.0
 40
64.0
 40
65.0
 40
65.0
 40
66.0
 40
66.0
 40
67.0
 40
67.0
 40
68.0
 40
68.0
 40
69.0
 40
69.0
 40
70.0
 40
70.0
 40
71.0
 40
71.0
 40
72.0
 40
72.0
 40
73.0
 40
73.0
 40
74.0
 40
74.0
 40
75.0
 40
75.0
 40
76.0
 40
76.0
 40
77.0
 40
77.0
 40
78.0
 40
78.0
 40
79.0
 40
79.0
 40
80.0
 40
80.0
 40
81.0
 40
81.0
 40
82.0
 40
82.0
 40
83.0
 40
83.0
 40
84.0
 40
84.0
 40
85.0
 40
85.0
 40
86.0
 40
86.0
 40
87.0
 40
87.0
 40
88.0
 40
88.0
 40
89.0
 40
89.0
 40
90.0
 40
90.0
 40
91.0
 40
91.0
 40
92.0
 40
92.0
 40
93.0
 40
93.0
 40
94.0
 40
94.0
 40
95.0
 40
95.0
 40
96.0
 40
96.0
 40
97.0
 40
97.0
 40
98.0
 40
98.0
 40
99.0
 40
99.0
 40
100.0
 40
100.0
 40
101.0
 40
101.0
 40
102.0
 40
102.0
 40
103.0
 40
103.0
 40
104.0
 40
104.0
 40
105.0
 40
105.0
 40
106.0
 40
106.0
 40
107.0
 40
107.0
 40
108.0
 40
108.0
 40
109.0
 40
109.0
 40
110.0
 40
110.0
 40
111.0
 40
111.0
 40
112.0
 40
112.0
 40
113.0
 40
113.0
 40
114.0
 40
114.0
 40
115.0
 40
115.0
 40
116.0
 40
116.0
 40
117.0
 40
117.0
 40
118.0
 40
118.0
 40
119.0
 40
119.0
 40
120.0
 40
120.0
 40
121.0
 40
121.0
 40
122.0
 40
122.0
 40
123.0
 40
123.0
 40
124.0
 40
124.0
 40
125.0
 40
125.0
 40
126.0
 40
126.0
 40
127.0
 40
127.0
 40
128.0
 40
128.0
 40
129.0
 40
129.0
 40
130.0
 40
130.0
 40
131.0
 40
131.0
 40
132.0
 40
132.0
 40
133.0
 40
133.0
 40
134.0
 40
134.0
 40
135.0
 40
135.0
 40
136.0
 40
136.0
 40
137.0
 40
137.0
 40
138.0
 40
138.0
 40
139.0
 40
139.0
 40
140.0
 40
140.0
 40
141.0
 40
141.0
 40
142.0
 40
142.0
 40
143.0
 40
143.0
 40
144.0
 40
144.0
 40
145.0
 40
145.0
 40
146.0
 40
146.0
 40
147.0
 40
147.0
 40
148.0
 40
148.0
 40
149.0
 40
149.0
 40
150.0
 40
150.0
 40
151.0
 40
151.0
 40
152.0
 40
152.0
 40
153.0
 40
153.0
 40
154.0
 40
154.0
 40
155.0
 40
155.0
 40
156.0
 40
156.0
 40
157.0
 40
157.0
 40
158.0
 40
158.0
 40
159.0
 40
159.0
 40
160.0
 40
160.0
 40
161.0
 40
161.0
 40
162.0
 40
162.0
 40
163.0
 40
163.0
 40
164.0
 40
164.0
 40
165.0
 40
165.0
 40
166.0
 40
166.0
 40
167.0
 40
167.0
 40
168.0
 40
168.0
 40
169.0
 40
169.0
 40
170.0
 40
170.0
 40
171.0
 40
171.0
 40
172.0
 40
172.0
 40
173.0
 40
173.0
 40
174.0
 40
174.0
 40
175.0
 40
175.0
 40
176.0
 40
176.0
 40
177.0
 40
177.0
 40
178.0
 40
178.0
 40
179.0
 40
179.0
 40
180.0
 40
180.0
 40
181.0
 40
181.0
 40
182.0
 40
182.0
 40
183.0
 40
183.0
 40
184.0
 40
184.0
 40
185.0
 40
185.0
 40
186.0
 40
186.0
 40
187.0
 40
187.0
 40
188.0
 40
188.0
 40
189.0
 40
189.0
 40
190.0
 40
190.0
 40
191.0
 40
191.0
 40
192.0
 40
192.0
 40
193.0
 40
193.0
 40
194.0
 40
194.0
 40
195.0
 40
195.0
 40
196.0
 40
196.0
 40
197.0
 40
197.0
 40
198.0
 40
198.0
 40
199.0
 40
199.0
 40
200.0
 40
200.0
 40
201.0
 40
201.0
 40
202.0
 40
202.0
 40
203.0
 40
203.0
 40
204.0
 40
204.0
 40
205.0
 40
205.0
 40
206.0
 40
206.0
 40
207.0
 40
207.0
 40
208.0
 40
208.0
 40
209.0
 40
209.0
 40
210.0
 40
210.0
 40
211.0
 40
211.0
 40
212.0
 40
212.0
 40
213.0
 40
213.0
 40
214.0
 40
214.0
 40
215.0
 40
215.0
 40
216.0
 40
216.0
 40
217.0
 40
217.0
 40
218.0
 40
218.0
 40
219.0
 40
219.0
 40
220.0
 40
220.0
 40
221.0
 40
221.0
 40
222.0
 40
222.0
 40
223.0
 40
223.0
 40
224.0
 40
224.0
 40
225.0
 40
225.0
 40
226.0
 40
226.0
 40
227.0
 40
227.0
 40
228.0
 40
228.0
 40
229.0
 40
229.0
 40
230.0
 40
230.0
 40
231.0
 40
231.0
 40
232.0
 40
232.0
 40
233.0
 40
233.0
 40
234.0
 40
234.0
 40
235.0
 40
235.0
 40
236.0
 40
236.0
 40
237.0
 40
237.0
 40
238.0
 40
238.0
 40
239.0
 40
239.0
 40
240.0
 40
240.0
 40
241.0
 40
241.0
 40
242.0
 40
242.0
 40
243.0
 40
243.0
 40
244.0
 40
244.0
 40
245.0
 40
245.0
 40
246.0
 40
246.0
 40
247.0
 40
247.0
 40
248.0
 40
248.0
 40
249.0
 40
249.0
 40
250.0
 40
250.0
 40
251.0
 40
251.0
 40
252.0
 40
252.0
 40
253.0
 40
253.0
 40
254.0
 40
254.0
 40
255.0
 40
255.0
 40
256.0
 40
256.0
 40
257.0
 40
257.0
 40
258.0
 40
258.0
 40
259.0
 40
259.0
 40
260.0
 40
260.0
 40
261.0
 40
261.0
 40
262.0
 40
262.0
 40
263.0
 40
263.0
 40
264.0
 40
264.0
 40
265.0
 40
265.0
 40
266.0
 40
266.0
 40
267.0
 40
267.0
 40
268.0
 40
268.0
 40
269.0
 40
269.0
 40
270.0
 40
270.0
 40
271.0
 40
271.0
 40
272.0
 40
272.0
 40
273.0
 40
273.0
 40
274.0
 40
274.0
 40
275.0
 40
275.0
 40
276.0
 40
276.0
 40
277.0
 40
277.0
 40
278.0
 40
278.0
 40
279.0
 40
279.0
 40
280.0
 40
280.0
 40
281.0
 40
281.0
 40
282.0
 40
282.0
 40
283.0
 40
283.0
 40
284.0
 40
284.0
 40
285.0
 40
285.0
 40
286.0
 40
286.0
 40
287.0
 40
287.0
 40
288.0
 40
288.0
 40
289.0
 40
289.0
 40
290.0
 40
290.0
 40
291.0
 40
291.0
 40
292.0
 40
292.0
 40
293.0
 40
293.0
 40
294.0
 40
294.0
 40
295.0
 40
295.0
 40
296.0
 40
296.0
 40
297.0
 40
297.0
 40
298.0
 40
298.0
 40
299.0
 40
299.0
 40
300.0
 40
300.0
 40
301.0
 40
301.0
 40
302.0
 40
302.0
 40
303.0
 40
303.0
 40
304.0
 40
304.0
 40
305.0
 40
305.0
 40
306.0
 40
306.0
 40
307.0
 40
307.0
 40
308.0
 40
308.0
 40
309.0
 40
309.0
 40
310.0
 40
310.0
 40
311.0
 40
311.0
 40
312.0
 40
312.0
 40
313.0
 40
313.0
 40
314.0
 40
314.0
 40
315.0
 40
315.0
 40
316.0
 40
316.0
 40
317.0
 40
317.0
 40
318.0
 40
318.0
 40
319.0
 40
319.0
 40
320.0
 40
320.0
 40
321.0
 40
321.0
 40
322.0
 40
322.0
 40
323.0
 40
323.0
 40
324.0
 40
324.0
 40
325.0
 40
325.0
 40
326.0
 40
326.0
 40
327.0
 40
327.0
 40
328.0
 40
328.0
 40
329.0
 40
329.0
 40
330.0
 40
330.0
 40
331.0
 40
331.0
 40
332.0
 40
332.0
 40
333.0
 40
333.0
 40
334.0
 40
334.0
 40
335.0
 40
335.0
 40
336.0
 40
336.0
 40
337.0
 40
337.0
 40
338.0
 40
338.0
 40
339.0
 40
339.0
 40
340.0
 40
340.0
 40
341.0
 40
341.0
 40
342.0
 40
342.0
 40
343.0
 40
343.0
 40
344.0
 40
344.0
 40
345.0
 40
345.0
 40
346.0
 40
346.0
 40
347.0
 40
347.0
 40
348.0
 40
348.0
 40
349.0
 40
349.0
 40
350.0
 40
350.0
 40
351.0
 40
351.0
 40
352.0
 40
352.0
 40
353.0
 40
353.0
 40
354.0
 40
354.0
 40
355.0
 40
355.0
 40
356.0
 40
356.0
 40
357.0
 40
357.0
 40
358.0
 40
358.0
 40
359.0
 40
359.0
 40
360.0
 40
360.0
 40
361.0
 40
361.0
 40
362.0
 40
362.0
 40
363.0
 40
363.0
 40
364.0
 40
364.0
 40
365.0
 40
365.0
 40
366.0
 40
366.0
 40
367.0
 40
367.0
 40
368.0
 40
368.0
 40
369.0
 40
369.0
 40
370.0
 40
370.0
 40
371.0
 40
371.0
 40
372.0
 40
372.0
 40
373.0
 40
373.0
 40
374.0
 40
374.0
 40
375.0
 40
375.0
 40
376.0
 40
376.0
 40
377.0
 40
377.0
 40
378.0
 40
378.0
 40
379.0
 40
379.0
 40
380.0
 40
380.0
 40
381.0
 40
381.0
 40
382.0
 40
382.0
 40
383.0
 40
383.0
 40
384.0
 40
384.0
 40
385.0
 40
385.0
 40
386.0
 40
386.0
 40
387.0
 40
387.0
 40
388.0
 40
388.0
 40
389.0
 40
389.0
 40
389.0
 10
930.29987164881015
 20
-1329.2834283911477
 30
0.0
 41
1.0
 10
931.11829575753063
 20
-1329.2834283911477
 30
0.0
 41
1.0
 10
931.93671986625111
 20
-1329.2834283911477
 30
0.0
 41
1.0
 10
931.5229661307344
 20
-1330.6260546553974
 30
0.0
 41
1.0
 10
931.10921239521758
 20
-1331.9686809196471
 30
0.0
 41
1.0
 10
931.12755189039535
 20
-1331.9399801467202
 30
0.0
 41
0.9999957264402263
 10
931.1460588872369
 20
-1331.911387096553
 30
0.0
 41
1.0
 10
931.1764882113639
 20
-1331.864374218193
 30
0.0
 41
1.0
 10
931.2069175354909
 20
-1331.8173613398333
 30
0.0
 41
1.0
 10
931.2862831805935
 20
-1331.6947425329345
 30
0.0
 41
0.9995394069080146
 10
931.37294157214274
 20
-1331.5771644711967
 30
0.0
 41
1.0
 10
931.40869843440453
 20
-1331.5286495786004
 30
0.0
 41
1.0
 10
931.44445529666632
 20
-1331.480134686004
 30
0.0
 41
1.0
 10
931.57818196448522
 20
-1331.2986944108761
 30
0.0
 41
0.9994460617143182
 10
931.72368244577456
 20
-1331.1265520132247
 30
0.0
 41
1.0
 10
931.72807062674997
 20
-1331.1213603328415
 30
0.0
 41
1.0
 10
931.73245880772549
 20
-1331.1161686524586
 30
0.0
 41
1.0
 10
931.8691829270623
 20
-1330.9544096155755
 30
0.0
 41
0.9994359394934226
 10
932.01645715741392
 20
-1330.8021934144106
 30
0.0
 41
1.0
 10
932.01884051136699
 20
-1330.7997300840375
 30
0.0
 41
1.0
 10
932.02122386532017
 20
-1330.7972667536646
 30
0.0
 41
1.0
 10
932.16373138776544
 20
-1330.6499772132458
 30
0.0
 41
0.999529368856773
 10
932.3150030687475
 20
-1330.5117040010819
 30
0.0
 41
1.0
 10
932.33429682800738
 20
-1330.4940681154339
 30
0.0
 41
1.0
 10
932.35359058726726
 20
-1330.4764322297858
 30
0.0
 41
1.0
 10
932.46627474972684
 20
-1330.3734307889199
 30
0.0
 41
0.9997087614804117
 10
932.5837976386847
 20
-1330.2759865081198
 30
0.0
 41
1.0
 10
932.60296371185314
 20
-1330.2600949296177
 30
0.0
 41
1.0
 10
932.62212978502157
 20
-1330.2442033511156
 30
0.0
 41
1.0
 10
932.70132052763256
 20
-1330.1785422273276
 30
0.0
 41
0.9999595338693983
 10
932.78167979849491
 20
-1330.114316496667
 30
0.0
 41
1.0
 10
932.8620390693485
 20
-1330.0500907660132
 30
0.0
 41
0.9999749417502747
 10
932.94329960369214
 20
-1329.9870092120666
 30
0.0
 41
1.0
 10
932.96428574986703
 20
-1329.9707179247553
 30
0.0
 41
1.0
 10
932.98527189604204
 20
-1329.9544266374439
 30
0.0
 41
1.0
 10
933.06983978132871
 20
-1329.8887776276151
 30
0.0
 41
0.9999792037131637
 10
933.15524738109593
 20
-1329.8242248459728
 30
0.0
 41
1.0
 10
933.17607220701962
 20
-1329.808485023706
 30
0.0
 41
1.0
 10
933.19689703294318
 20
-1329.7927452014389
 30
0.0
 41
1.0
 10
933.24065498084951
 20
-1329.7596720643414
 30
0.0
 41
0.999999337404218
 10
933.28433666700857
 20
-1329.7264982689053
 30
0.0
 41
1.0
 10
933.32801835315445
 20
-1329.6933244734794
 30
0.0
 41
0.9999160953815635
 10
933.372544764081
 20
-1329.6612934082762
 30
0.0
 41
1.0
 10
933.40536665149568
 20
-1329.6376822526945
 30
0.0
 41
1.0
 10
933.43818853891037
 20
-1329.6140710971131
 30
0.0
 41
1.0
 10
933.54835872466901
 20
-1329.5348177207452
 30
0.0
 41
0.9980964527232379
 10
933.66744771816866
 20
-1329.4697302478896
 30
0.0
 41
1.0
 10
933.70448032509705
 20
-1329.4494902682964
 30
0.0
 41
1.0
 10
933.74151293202544
 20
-1329.4292502887031
 30
0.0
 41
1.0
 10
933.92083994529855
 20
-1329.3312400380019
 30
0.0
 41
0.998457281057279
 10
934.1099285116577
 20
-1329.2537177766553
 30
0.0
 41
1.0
 10
934.1135747810539
 20
-1329.2522228843172
 30
0.0
 41
1.0
 10
934.1172210504501
 20
-1329.2507279919791
 30
0.0
 41
1.0
 10
934.29901707801696
 20
-1329.1761955153088
 30
0.0
 41
0.9987838528034158
 10
934.48726973657585
 20
-1329.1199298751433
 30
0.0
 41
1.0
 10
934.4915076857742
 20
-1329.1186632214531
 30
0.0
 41
1.0
 10
934.49574563497254
 20
-1329.1173965677631
 30
0.0
 41
1.0
 10
934.67552239513486
 20
-1329.0636642349775
 30
0.0
 41
0.9990652816207238
 10
934.85926832685095
 20
-1329.0256605554355
 30
0.0
 41
1.0
 10
934.86445672788182
 20
-1329.0245874523291
 30
0.0
 41
1.0
 10
934.86964512891279
 20
-1329.0235143492228
 30
0.0
 41
1.0
 10
935.04301425856613
 20
-1328.9876568758934
 30
0.0
 41
0.9992909934270127
 10
935.21859002502515
 20
-1328.9649464434269
 30
0.0
 41
1.0
 10
935.39416579148315
 20
-1328.9422360109604
 30
0.0
 41
0.9994553539448221
 10
935.57085722457566
 20
-1328.9311567067541
 30
0.0
 41
1.0
 10
935.60629163237036
 20
-1328.9289348187065
 30
0.0
 41
1.0
 10
935.64172604016505
 20
-1328.9267129306588
 30
0.0
 41
1.0
 10
935.80795180673613
 20
-1328.9162898682468
 30
0.0
 41
0.9990928098292825
 10
935.97446159863989
 20
-1328.9200495094815
 30
0.0
 41
1.0
 10
936.01302343390751
 20
-1328.9209202010143
 30
0.0
 41
1.0
 10
936.05158526917512
 20
-1328.9217908925471
 30
0.0
 41
1.0
 10
936.14097139053831
 20
-1328.9238091507157
 30
0.0
 41
0.999838208920383
 10
936.23022707332871
 20
-1328.9290412772439
 30
0.0
 41
1.0
 10
936.23065697954735
 20
-1328.9290664781461
 30
0.0
 41
1.0
 10
936.23108688576599
 20
-1328.9290916790483
 30
0.0
 41
1.0
 10
936.31948275611364
 20
-1328.9342734037718
 30
0.0
 41
0.9997558016759088
 10
936.40756333331569
 20
-1328.9433559191384
 30
0.0
 41
1.0
 10
936.40803947174697
 20
-1328.943405016621
 30
0.0
 41
1.0
 10
936.40851561017826
 20
-1328.9434541141038
 30
0.0
 41
1.0
 10
936.49564391051808
 20
-1328.9524384345052
 30
0.0
 41
0.9996565144181742
 10
936.58218176385867
 20
-1328.9659757411941
 30
0.0
 41
1.0
 10
936.58264768923641
 20
-1328.9660486269254
 30
0.0
 41
1.0
 10
936.58311361461404
 20
-1328.9661215126569
 30
0.0
 41
1.0
 10
936.66871961720085
 20
-1328.9795130478831
 30
0.0
 41
0.9995321806867203
 10
936.75334669752863
 20
-1328.9981135363123
 30
0.0
 41
1.0
 10
936.75373589210039
 20
-1328.9981990787783
 30
0.0
 41
1.0
 10
936.75412508667227
 20
-1328.998284621244
 30
0.0
 41
1.0
 10
936.83797377785652
 20
-1329.0167140247415
 30
0.0
 41
0.9993819199219717
 10
936.92032031205281
 20
-1329.0409894080021
 30
0.0
 41
1.0
 10
936.92055874555149
 20
-1329.0410596971117
 30
0.0
 41
1.0
 10
936.92079717905006
 20
-1329.0411299862212
 30
0.0
 41
1.0
 10
937.00266684624967
 20
-1329.0652647912632
 30
0.0
 41
0.999208856850631
 10
937.08235936523727
 20
-1329.0958300270572
 30
0.0
 41
1.0
 10
937.16204035611622
 20
-1329.1263896277906
 30
0.0
 41
0.9990226101773203
 10
937.23871102602345
 20
-1329.1638670594052
 30
0.0
 41
1.0
 10
937.31537016782295
 20
-1329.2013388559594
 30
0.0
 41
0.9988424273972723
 10
937.38807379503533
 20
-1329.2460036312123
 30
0.0
 41
1.0
 10
937.38834150341393
 20
-1329.246168095284
 30
0.0
 41
1.0
 10
937.38860921179253
 20
-1329.2463325593558
 30
0.0
 41
1.0
 10
937.4618482557637
 20
-1329.2913262627535
 30
0.0
 41
0.9986928844492085
 10
937.53011112247395
 20
-1329.3435619970332
 30
0.0
 41
1.0
 10
937.53069241469632
 20
-1329.3440068102609
 30
0.0
 41
1.0
 10
937.53127370691868
 20
-1329.3444516234886
 30
0.0
 41
1.0
 10
937.60069915807435
 20
-1329.3975769842245
 30
0.0
 41
0.9986007262279047
 10
937.66412532784068
 20
-1329.4577377539174
 30
0.0
 41
1.0
 10
937.66501974329799
 20
-1329.4585861217524
 30
0.0
 41
1.0
 10
937.66591415875519
 20
-1329.4594344895877
 30
0.0
 41
1.0
 10
937.73112915943602
 20
-1329.5212919949508
 30
0.0
 41
0.9985581491380999
 10
937.78933677113719
 20
-1329.589784485222
 30
0.0
 41
1.0
 10
937.79859522473339
 20
-1329.6006788429243
 30
0.0
 41
1.0
 10
937.80785367832959
 20
-1329.6115732006265
 30
0.0
 41
1.0
 10
937.88457819722316
 20
-1329.7018544063019
 30
0.0
 41
0.9970460233519343
 10
937.94657009838204
 20
-1329.8028214904832
 30
0.0
 41
1.0
 10
937.96103946346204
 20
-1329.8263879495651
 30
0.0
 41
1.0
 10
937.97550882854205
 20
-1329.8499544086469
 30
0.0
 41
1.0
 10
938.01524552855346
 20
-1329.9146741326772
 30
0.0
 41
0.998846881663644
 10
938.04859189930517
 20
-1329.9829065851052
 30
0.0
 41
1.0
 10
938.05562792179614
 20
-1329.9973035062417
 30
0.0
 41
1.0
 10
938.06266394428712
 20
-1330.0117004273779
 30
0.0
 41
1.0
 10
938.08193827005607
 20
-1330.0511390375314
 30
0.0
 41
0.9998431189998804
 10
938.09980359755173
 20
-1330.0912355919736
 30
0.0
 41
1.0
 10
938.11766892505477
 20
-1330.1313321464322
 30
0.0
 41
0.9999989989987972
 10
938.1356476484583
 20
-1330.1713779839749
 30
0.0
 41
1.0
 10
938.14181996005777
 20
-1330.185126200799
 30
0.0
 41
1.0
 10
938.14799227165713
 20
-1330.1988744176233
 30
0.0
 41
1.0
 10
938.17831561826597
 20
-1330.2664166888289
 30
0.0
 41
0.9998790356321231
 10
938.20652349840293
 20
-1330.3348694407632
 30
0.0
 41
1.0
 10
938.21335867968776
 20
-1330.351456542192
 30
0.0
 41
1.0
 10
938.22019386097259
 20
-1330.3680436436207
 30
0.0
 41
1.0
 10
938.24375152335381
 20
-1330.4252115985078
 30
0.0
 41
0.9998227574561239
 10
938.2651402717438
 20
-1330.4832259067875
 30
0.0
 41
1.0
 10
938.28652902013403
 20
-1330.5412402150678
 30
0.0
 41
0.9996797971041539
 10
938.3049553050929
 20
-1330.6002623341849
 30
0.0
 41
1.0
 10
938.30885910781808
 20
-1330.6127667923529
 30
0.0
 41
1.0
 10
938.31276291054337
 20
-1330.6252712505209
 30
0.0
 41
1.0
 10
938.33899680095351
 20
-1330.7093022859756
 30
0.0
 41
0.997927493873382
 10
938.3542213244325
 20
-1330.7960066446346
 30
0.0
 41
1.0
 10
938.35644501169395
 20
-1330.8086706454569
 30
0.0
 41
1.0
 10
938.35866869895528
 20
-1330.8213346462792
 30
0.0
 41
1.0
 10
938.36959863865331
 20
-1330.8835811535678
 30
0.0
 41
0.9994985982137192
 10
938.37656680383043
 20
-1330.9463946547116
 30
0.0
 41
1.0
 10
938.38353496900754
 20
-1331.0092081558541
 30
0.0
 41
0.9996372611201286
 10
938.38711083477529
 20
-1331.0723057345376
 30
0.0
 41
1.0
 10
938.38727941226455
 20
-1331.0752803516189
 30
0.0
 41
1.0
 10
938.38744798975381
 20
-1331.0782549687003
 30
0.0
 41
1.0
 10
938.39136101050042
 20
-1331.1473017815536
 30
0.0
 41
0.9997730630736823
 10
938.39232932398841
 20
-1331.216452605594
 30
0.0
 41
1.0
 10
938.39238643040642
 20
-1331.2205307847291
 30
0.0
 41
1.0
 10
938.39244353682443
 20
-1331.2246089638643
 30
0.0
 41
1.0
 10
938.39352606314856
 20
-1331.3019161461928
 30
0.0
 41
0.9998772614071316
 10
938.39218597641661
 20
-1331.3792192927672
 30
0.0
 41
1.0
 10
938.39209671321805
 20
-1331.3843684565918
 30
0.0
 41
1.0
 10
938.39200745001949
 20
-1331.3895176204164
 30
0.0
 41
1.0
 10
938.39048883689031
 20
-1331.4771190946506
 30
0.0
 41
0.9999415567329885
 10
938.38707652664391
 20
-1331.5646672563357
 30
0.0
 41
1.0
 10
938.38683520596874
 20
-1331.570858716068
 30
0.0
 41
1.0
 10
938.38659388529368
 20
-1331.5770501758004
 30
0.0
 41
1.0
 10
938.38269893369704
 20
-1331.676981256951
 30
0.0
 41
0.9999716810427461
 10
938.37730035057871
 20
-1331.7768423951788
 30
0.0
 41
1.0
 10
938.37408755178899
 20
-1331.8362716448516
 30
0.0
 41
1.0
 10
938.37087475299938
 20
-1331.8957008945245
 30
0.0
 41
1.0
 10
938.3628008438468
 20
-1332.0450492957991
 30
0.0
 41
0.9999819129914069
 10
938.35293105223172
 20
-1332.1942897734859
 30
0.0
 41
1.0
 10
938.34306126061517
 20
-1332.3435302511973
 30
0.0
 41
1.0
 10
938.34062194005128
 20
-1332.3807232970466
 30
0.0
 41
1.0
 10
938.36332017389577
 20
-1332.3419822996943
 30
0.0
 41
0.9999982128023959
 10
938.38616473264835
 20
-1332.3033274057409
 30
0.0
 41
1.0
 10
938.41307429252788
 20
-1332.2577941916948
 30
0.0
 41
1.0
 10
938.43998385240741
 20
-1332.2122609776486
 30
0.0
 41
1.0
 10
938.51664753093405
 20
-1332.0825396555776
 30
0.0
 41
0.9998609190058355
 10
938.59759484379776
 20
-1331.9554472736454
 30
0.0
 41
1.0
 10
938.62724316527556
 20
-1331.9088975406942
 30
0.0
 41
1.0
 10
938.65689148675347
 20
-1331.8623478077429
 30
0.0
 41
1.0
 10
938.73916370699339
 20
-1331.7331752377431
 30
0.0
 41
0.9999067609731283
 10
938.82493271645967
 20
-1331.6062975482987
 30
0.0
 41
1.0
 10
938.82733741966035
 20
-1331.6027402822442
 30
0.0
 41
1.0
 10
938.82974212286103
 20
-1331.5991830161897
 30
0.0
 41
1.0
 10
938.91070172592458
 20
-1331.4794198588563
 30
0.0
 41
0.9998784952149389
 10
938.99535533560504
 20
-1331.3622386421489
 30
0.0
 41
1.0
 10
939.08000894528686
 20
-1331.2450574254394
 30
0.0
 41
0.9998532968283032
 10
939.16862656610977
 20
-1331.1308445169689
 30
0.0
 41
1.0
 10
939.18858835509991
 20
-1331.1051171959498
 30
0.0
 41
1.0
 10
939.20855014409005
 20
-1331.0793898749309
 30
0.0
 41
1.0
 10
939.32703419385018
 20
-1330.9266842639609
 30
0.0
 41
0.9991551975795291
 10
939.45765864347368
 20
-1330.7842247018773
 30
0.0
 41
1.0
 10
939.46116825945319
 20
-1330.7803971002531
 30
0.0
 41
1.0
 10
939.46467787543281
 20
-1330.776569498629
 30
0.0
 41
1.0
 10
939.58828309309524
 20
-1330.6417651397956
 30
0.0
 41
0.9997418144181273
 10
939.7178852327977
 20
-1330.5127157291813
 30
0.0
 41
1.0
 10
939.84748737249902
 20
-1330.3836663185684
 30
0.0
 41
0.9989238204633348
 10
939.98848992075045
 20
-1330.2671813565289
 30
0.0
 41
1.0
 10
940.03373759888859
 20
-1330.2298013649215
 30
0.0
 41
1.0
 10
940.07898527702662
 20
-1330.1924213733139
 30
0.0
 41
1.0
 10
940.21922533424822
 20
-1330.0765663200227
 30
0.0
 41
0.9990825084096715
 10
940.36886526685385
 20
-1329.9731373221884
 30
0.0
 41
1.0
 10
940.37891063090865
 20
-1329.9661941091103
 30
0.0
 41
1.0
 10
940.38895599496334
 20
-1329.9592508960325
 30
0.0
 41
1.0
 10
940.51850519945572
 20
-1329.8697083243569
 30
0.0
 41
0.9998164899826113
 10
940.65138940283407
 20
-1329.7851940828391
 30
0.0
 41
1.0
 10
940.66323496335826
 20
-1329.7776603163147
 30
0.0
 41
1.0
 10
940.67508052388246
 20
-1329.7701265497901
 30
0.0
 41
1.0
 10
940.78427360620992
 20
-1329.7006798413231
 30
0.0
 41
0.9997473449130437
 10
940.89647756345971
 20
-1329.6362108835071
 30
0.0
 41
1.0
 10
941.00868152070711
 20
-1329.5717419256925
 30
0.0
 41
0.9999327861147067
 10
941.12235013147006
 20
-1329.5098919340114
 30
0.0
 41
1.0
 10
941.12290213403207
 20
-1329.5095915753316
 30
0.0
 41
1.0
 10
941.12345413659409
 20
-1329.5092912166517
 30
0.0
 41
1.0
 10
941.23822675247959
 20
-1329.4468405076118
 30
0.0
 41
0.9996956420483758
 10
941.35594007832185
 20
-1329.3901270406359
 30
0.0
 41
1.0
 10
941.3863804832132
 20
-1329.3754610639066
 30
0.0
 41
1.0
 10
941.41682088810455
 20
-1329.3607950871772
 30
0.0
 41
1.0
 10
941.51979799484855
 20
-1329.3111814287338
 30
0.0
 41
0.9998070570176877
 10
941.62464438378936
 20
-1329.2656508418327
 30
0.0
 41
1.0
 10
941.72949077273347
 20
-1329.2201202549304
 30
0.0
 41
0.9997827436148077
 10
941.83614370934424
 20
-1329.1789990836185
 30
0.0
 41
1.0
 10
941.85536655897363
 20
-1329.1715875099867
 30
0.0
 41
1.0
 10
941.87458940860301
 20
-1329.1641759363552
 30
0.0
 41
1.0
 10
942.01968804447722
 20
-1329.1082316177781
 30
0.0
 41
0.9988031841976585
 10
942.16955840708329
 20
-1329.06673155361
 30
0.0
 41
1.0
 10
942.19447565544522
 20
-1329.0598318078034
 30
0.0
 41
1.0
 10
942.21939290380715
 20
-1329.0529320619969
 30
0.0
 41
1.0
 10
942.38666292945379
 20
-1329.0066139195901
 30
0.0
 41
0.998474804054994
 10
942.55801983810295
 20
-1328.9790196873253
 30
0.0
 41
1.0
 10
942.56275897435114
 20
-1328.9782565268119
 30
0.0
 41
1.0
 10
942.56749811059933
 20
-1328.9774933662986
 30
0.0
 41
1.0
 10
942.7293767467512
 20
-1328.9514254550604
 30
0.0
 41
0.9984436495479877
 10
942.89315149047661
 20
-1328.9435475012417
 30
0.0
 41
1.0
 10
942.91484869860903
 20
-1328.9425038140421
 30
0.0
 41
1.0
 10
942.93654590674146
 20
-1328.9414601268422
 30
0.0
 41
1.0
 10
943.05692623420225
 20
-1328.935669547423
 30
0.0
 41
0.9987954789335666
 10
943.1772944791112
 20
-1328.9417060751653
 30
0.0
 41
1.0
 10
943.19725927160812
 20
-1328.9427073195038
 30
0.0
 41
1.0
 10
943.21722406410515
 20
-1328.9437085638426
 30
0.0
 41
1.0
 10
943.29766272402378
 20
-1328.9477426029077
 30
0.0
 41
0.9997941595877177
 10
943.37787150211545
 20
-1328.9550366688286
 30
0.0
 41
1.0
 10
943.45808028020815
 20
-1328.9623307347495
 30
0.0
 41
0.9998589466234755
 10
943.53799882706096
 20
-1328.9723145891992
 30
0.0
 41
1.0
 10
943.57040502887116
 20
-1328.9763629461186
 30
0.0
 41
1.0
 10
943.60281123068137
 20
-1328.9804113030382
 30
0.0
 41
1.0
 10
943.74754218115322
 20
-1328.9984918713267
 30
0.0
 41
0.9993495063249308
 10
943.89059342491908
 20
-1329.0269575810685
 30
0.0
 41
1.0
 10
943.92352712207276
 20
-1329.0335110442836
 30
0.0
 41
1.0
 10
943.95646081922655
 20
-1329.0400645074988
 30
0.0
 41
1.0
 10
944.06575464242985
 20
-1329.061812841634
 30
0.0
 41
0.9996788715561211
 10
944.17380621438349
 20
-1329.0890706409964
 30
0.0
 41
1.0
 10
944.17586921692066
 20
-1329.089591067569
 30
0.0
 41
1.0
 10
944.17793221945783
 20
-1329.0901114941414
 30
0.0
 41
1.0
 10
944.28185778633792
 20
-1329.1163284403588
 30
0.0
 41
0.9995480654492459
 10
944.38402002156931
 20
-1329.1487433969837
 30
0.0
 41
1.0
 10
944.38570966369957
 20
-1329.149279501898
 30
0.0
 41
1.0
 10
944.38739930582983
 20
-1329.1498156068124
 30
0.0
 41
1.0
 10
944.48618225680036
 20
-1329.1811583536089
 30
0.0
 41
0.9993867959456633
 10
944.58252941524131
 20
-1329.219337722898
 30
0.0
 41
1.0
 10
944.58377236432659
 20
-1329.2198302647944
 30
0.0
 41
1.0
 10
944.58501531341187
 20
-1329.2203228066908
 30
0.0
 41
1.0
 10
944.67887657368453
 20
-1329.257517092188
 30
0.0
 41
0.9992050256522068
 10
944.76947624871718
 20
-1329.3020709914265
 30
0.0
 41
1.0
 10
944.7702109314298
 20
-1329.3024322838874
 30
0.0
 41
1.0
 10
944.77094561414242
 20
-1329.3027935763482
 30
0.0
 41
1.0
 10
944.86007592375051
 20
-1329.3466248906652
 30
0.0
 41
0.9990222350741903
 10
944.94498598514429
 20
-1329.3981581583635
 30
0.0
 41
1.0
 10
944.94516987042641
 20
-1329.3982697612678
 30
0.0
 41
1.0
 10
944.94535375570854
 20
-1329.3983813641723
 30
0.0
 41
1.0
 10
945.02989604653737
 20
-1329.4496914260615
 30
0.0
 41
0.9988642743805459
 10
945.10917058115683
 20
-1329.5088156135871
 30
0.0
 41
1.0
 10
945.18844511577538
 20
-1329.5679398011118
 30
0.0
 41
0.9987681233310402
 10
945.26146890005214
 20
-1329.6346304925132
 30
0.0
 41
1.0
 10
945.26179782801796
 20
-1329.6349308937274
 30
0.0
 41
1.0
 10
945.26212675598367
 20
-1329.6352312949416
 30
0.0
 41
1.0
 10
945.33580839619219
 20
-1329.7025227887716
 30
0.0
 41
0.9987496570899275
 10
945.40240220151952
 20
-1329.7768356028585
 30
0.0
 41
1.0
 10
945.40317437127942
 20
-1329.7776972762158
 30
0.0
 41
1.0
 10
945.40394654103943
 20
-1329.7785589495732
 30
0.0
 41
1.0
 10
945.4720846858886
 20
-1329.854595110377
 30
0.0
 41
0.9988147669827396
 10
945.53250694011365
 20
-1329.9368961172195
 30
0.0
 41
1.0
 10
945.53362626619082
 20
-1329.9384207485714
 30
0.0
 41
1.0
 10
945.534745592268
 20
-1329.9399453799231
 30
0.0
 41
1.0
 10
945.5974064986483
 20
-1330.0252956494703
 30
0.0
 41
0.998945263621564
 10
945.65197341160922
 20
-1330.1160343386277
 30
0.0
 41
1.0
 10
945.65332213769511
 20
-1330.1182771196543
 30
0.0
 41
1.0
 10
945.65467086378112
 20
-1330.1205199006808
 30
0.0
 41
1.0
 10
945.71193522891383
 20
-1330.2157441518912
 30
0.0
 41
0.9991046436070954
 10
945.76094444223531
 20
-1330.3154685849161
 30
0.0
 41
1.0
 10
945.7624083038254
 20
-1330.3184472649887
 30
0.0
 41
1.0
 10
945.76387216541548
 20
-1330.3214259450615
 30
0.0
 41
1.0
 10
945.81580910191747
 20
-1330.4271077382325
 30
0.0
 41
0.99927638311013
 10
945.85956223047185
 20
-1330.5364318001866
 30
0.0
 41
1.0
 10
945.86104150013534
 20
-1330.5401279877208
 30
0.0
 41
1.0
 10
945.86252076979895
 20
-1330.5438241752549
 30
0.0
 41
1.0
 10
945.90923243768054
 20
-1330.6605406122778
 30
0.0
 41
0.9994163472883763
 10
945.94786546887008
 20
-1330.7801742007412
 30
0.0
 41
1.0
 10
945.94910362111705
 20
-1330.7840083445246
 30
0.0
 41
1.0
 10
945.95034177336413
 20
-1330.7878424883081
 30
0.0
 41
1.0
 10
945.99022533438063
 20
-1330.9113485497842
 30
0.0
 41
0.9997268055891769
 10
946.02429339029322
 20
-1331.0365835817367
 30
0.0
 41
1.0
 10
946.02522357056398
 20
-1331.0400029478499
 30
0.0
 41
1.0
 10
946.02615375083474
 20
-1331.043422313963
 30
0.0
 41
1.0
 10
946.05836144620605
 20
-1331.1618186136914
 30
0.0
 41
0.9996701319000895
 10
946.08444706297564
 20
-1331.2817125669508
 30
0.0
 41
1.0
 10
946.11053267974626
 20
-1331.401606520214
 30
0.0
 41
0.9995785451108775
 10
946.1296162570859
 20
-1331.5228122812459
 30
0.0
 41
1.0
 10
946.13383603925968
 20
-1331.5496134360117
 30
0.0
 41
1.0
 10
946.13805582143357
 20
-1331.5764145907774
 30
0.0
 41
1.0
 10
946.16463079737184
 20
-1331.74520056448
 30
0.0
 41
0.9979925101217219
 10
946.16965638329827
 20
-1331.9159918925707
 30
0.0
 41
1.0
 10
946.17048119572291
 20
-1331.9440226160505
 30
0.0
 41
1.0
 10
946.17130600814755
 20
-1331.9720533395302
 30
0.0
 41
1.0
 10
946.17468196922482
 20
-1332.0867832206607
 30
0.0
 41
0.9995314902262873
 10
946.17103177708611
 20
-1332.2015047044142
 30
0.0
 41
1.0
 10
946.16738158494809
 20
-1332.3162261881605
 30
0.0
 41
0.9996245486943888
 10
946.15745248981739
 20
-1332.4305754592838
 30
0.0
 41
1.0
 10
946.15728944182285
 20
-1332.4324532154224
 30
0.0
 41
1.0
 10
946.15712639382832
 20
-1332.4343309715607
 30
0.0
 41
1.0
 10
946.14687120270889
 20
-1332.5524357549559
 30
0.0
 41
0.9997286095000389
 10
946.13112587913747
 20
-1332.6699346638497
 30
0.0
 41
1.0
 10
946.13073238648713
 20
-1332.6728710885518
 30
0.0
 41
1.0
 10
946.13033889383678
 20
-1332.6758075132536
 30
0.0
 41
1.0
 10
946.11380658496432
 20
-1332.7991792715543
 30
0.0
 41
0.9998265533969674
 10
946.09269112623235
 20
-1332.9218497463385
 30
0.0
 41
1.0
 10
946.09201458409507
 20
-1332.9257801248471
 30
0.0
 41
1.0
 10
946.09133804195767
 20
-1332.9297105033556
 30
0.0
 41
1.0
 10
946.06886949894931
 20
-1333.060241735167
 30
0.0
 41
0.9999022530854325
 10
946.04276003433972
 20
-1333.1900937038031
 30
0.0
 41
1.0
 10
946.04178139317492
 20
-1333.1949608461875
 30
0.0
 41
1.0
 10
946.04080275201011
 20
-1333.199827988572
 30
0.0
 41
1.0
 10
946.01273600506784
 20
-1333.339414241992
 30
0.0
 41
0.9999524761940378
 10
945.98195303623424
 20
-1333.4784267351513
 30
0.0
 41
1.0
 10
945.98067692905897
 20
-1333.4841894944529
 30
0.0
 41
1.0
 10
945.9794008218837
 20
-1333.4899522537544
 30
0.0
 41
1.0
 10
945.94606563869593
 20
-1333.6404902655322
 30
0.0
 41
0.9999813588720906
 10
945.91089463790206
 20
-1333.7906099781803
 30
0.0
 41
1.0
 10
945.90934071244556
 20
-1333.7972425686023
 30
0.0
 41
1.0
 10
945.90778678698916
 20
-1333.8038751590243
 30
0.0
 41
1.0
 10
945.86950793528081
 20
-1333.9672600525225
 30
0.0
 41
0.9999955237682884
 10
945.83025205730087
 20
-1334.1304129561267
 30
0.0
 41
1.0
 10
945.8179704216659
 20
-1334.1814571466521
 30
0.0
 41
1.0
 10
945.80568878603094
 20
-1334.2325013371776
 30
0.0
 41
1.0
 10
945.74186963676675
 20
-1334.4977426218911
 30
0.0
 41
0.9999993604747861
 10
945.67745068958811
 20
-1334.7628388726193
 30
0.0
 41
1.0
 10
945.67273185405384
 20
-1334.7822577806071
 30
0.0
 41
1.0
 10
945.66801301851967
 20
-1334.8016766885949
 30
0.0
 41
1.0
 10
945.59415640025247
 20
-1335.10561075538
 30
0.0
 41
0.999965991472332
 10
945.5152968043642
 20
-1335.4082853019509
 30
0.0
 41
1.0
 10
945.51034411543844
 20
-1335.4272944391146
 30
0.0
 41
1.0
 10
945.50539142651269
 20
-1335.4463035762781
 30
0.0
 41
1.0
 10
945.41662645276745
 20
-1335.7869963971964
 30
0.0
 41
0.9999441976024248
 10
945.32068341980334
 20
-1336.1257378224977
 30
0.0
 41
1.0
 10
945.30398290137805
 20
-1336.1847015350247
 30
0.0
 41
1.0
 10
945.28728238295275
 20
-1336.2436652475517
 30
0.0
 41
1.0
 10
945.15793831313727
 20
-1336.7003340979086
 30
0.0
 41
0.9999625120732624
 10
945.02070554581667
 20
-1337.1546946318952
 30
0.0
 41
1.0
 10
944.98491560272737
 20
-1337.2731906585432
 30
0.0
 41
1.0
 10
944.94912565963807
 20
-1337.3916866851912
 30
0.0
 41
1.0
 10
944.8746054556002
 20
-1337.638413763282
 30
0.0
 41
0.9999793386312027
 10
944.79691943247008
 20
-1337.8841624024942
 30
0.0
 41
1.0
 10
944.71923340933256
 20
-1338.1299110417303
 30
0.0
 41
1.0
 10
944.70845385046186
 20
-1338.163928946105
 30
0.0
 41
1.0
 10
942.85808079719277
 20
-1344.0510008685724
 30
0.0
 41
1.0
 10
941.00770774392356
 20
-1349.93807279104
 30
0.0
 41
1.0
 10
940.0464510539
 20
-1349.93807279104
 30
0.0
 41
1.0
 10
939.08519436387644
 20
-1349.93807279104
 30
0.0
 41
1.0
 10
940.70413914255482
 20
-1344.7900442892505
 30
0.0
 41
1.0
 10
942.32308392123332
 20
-1339.6420157874611
 30
0.0
 41
1.0
 10
942.36824974441424
 20
-1339.4979845651703
 30
0.0
 41
1.0
 10
942.41341556759505
 20
-1339.3539533428795
 30
0.0
 41
1.0
 10
942.58371998494806
 20
-1338.8108623137477
 30
0.0
 41
0.9999911657880355
 10
942.74945279662484
 20
-1338.2663587823952
 30
0.0
 41
1.0
 10
942.77914874012708
 20
-1338.1687948423385
 30
0.0
 41
1.0
 10
942.80884468362945
 20
-1338.0712309022817
 30
0.0
 41
1.0
 10
942.91518560831219
 20
-1337.721855251008
 30
0.0
 41
0.9999952428120238
 10
943.01936919763011
 20
-1337.3718302266821
 30
0.0
 41
1.0
 10
943.0244286679648
 20
-1337.3548319523993
 30
0.0
 41
1.0
 10
943.02948813829948
 20
-1337.3378336781166
 30
0.0
 41
1.0
 10
943.12355278695827
 20
-1337.0218052023217
 30
0.0
 41
0.9999931687555511
 10
943.21527862482867
 20
-1336.7050899890619
 30
0.0
 41
1.0
 10
943.22021388928908
 20
-1336.6880492797877
 30
0.0
 41
1.0
 10
943.2251491537495
 20
-1336.6710085705138
 30
0.0
 41
1.0
 10
943.30700446270646
 20
-1336.3883747757768
 30
0.0
 41
0.9999893840824419
 10
943.38625168915917
 20
-1336.1049986465448
 30
0.0
 41
1.0
 10
943.4654989156154
 20
-1335.8216225173005
 30
0.0
 41
0.999983398006264
 10
943.54147515635452
 20
-1335.537351934282
 30
0.0
 41
1.0
 10
943.55047909307859
 20
-1335.503663055797
 30
0.0
 41
1.0
 10
943.55948302980255
 20
-1335.4699741773122
 30
0.0
 41
1.0
 10
943.62844757867026
 20
-1335.2119383450104
 30
0.0
 41
0.9999233658068835
 10
943.6910025498895
 20
-1334.9522741862918
 30
0.0
 41
1.0
 10
943.75355752110977
 20
-1334.6926100275693
 30
0.0
 41
1.0
 10
943.79304093996734
 20
-1334.5288033631432
 30
0.0
 41
1.0
 10
943.7980195439427
 20
-1334.5081484012808
 30
0.0
 41
1.0
 10
943.80299814791806
 20
-1334.4874934394184
 30
0.0
 41
1.0
 10
943.83252435882616
 20
-1334.3649966987118
 30
0.0
 41
0.9999868670856931
 10
943.86079344282109
 20
-1334.2422037530716
 30
0.0
 41
1.0
 10
943.864690929978
 20
-1334.225274165658
 30
0.0
 41
1.0
 10
943.86858841713502
 20
-1334.2083445782444
 30
0.0
 41
1.0
 10
943.88906252681591
 20
-1334.1194108074324
 30
0.0
 41
0.9999778173348909
 10
943.90835012493267
 20
-1334.0302121901957
 30
0.0
 41
1.0
 10
943.92763772304772
 20
-1333.9410135729668
 30
0.0
 41
0.9999602692856056
 10
943.94533208167945
 20
-1333.8514852845367
 30
0.0
 41
1.0
 10
943.94853591375681
 20
-1333.835274829652
 30
0.0
 41
1.0
 10
943.95173974583417
 20
-1333.8190643747675
 30
0.0
 41
1.0
 10
943.97584176861972
 20
-1333.697115176572
 30
0.0
 41
0.9995617985320529
 10
943.99268511583819
 20
-1333.5739534288684
 30
0.0
 41
1.0
 10
943.9951496057447
 20
-1333.5559326115008
 30
0.0
 41
1.0
 10
943.99761409565122
 20
-1333.5379117941334
 30
0.0
 41
1.0
 10
944.01789735669956
 20
-1333.3895967444321
 30
0.0
 41
0.9991121410639956
 10
944.02562271028796
 20
-1333.2401006456253
 30
0.0
 41
1.0
 10
944.02654150031276
 20
-1333.2223208090447
 30
0.0
 41
1.0
 10
944.02746029033744
 20
-1333.2045409724642
 30
0.0
 41
1.0
 10
944.03334806387625
 20
-1333.0906045468159
 30
0.0
 41
0.9989792494904989
 10
944.02892897175889
 20
-1332.9766017109205
 30
0.0
 41
1.0
 10
944.02828099989028
 20
-1332.9598854649939
 30
0.0
 41
1.0
 10
944.02763302802157
 20
-1332.9431692190674
 30
0.0
 41
1.0
 10
944.02450987964176
 20
-1332.8625988750255
 30
0.0
 41
0.9997820295394
 10
944.01802588226587
 20
-1332.7822291532782
 30
0.0
 41
1.0
 10
944.01154188489045
 20
-1332.7018594315375
 30
0.0
 41
0.9998335105972571
 10
944.00212968937922
 20
-1332.621779815091
 30
0.0
 41
1.0
 10
944.00053476470248
 20
-1332.6082100846045
 30
0.0
 41
1.0
 10
943.99893984002574
 20
-1332.5946403541179
 30
0.0
 41
1.0
 10
943.98633779516103
 20
-1332.4874212766977
 30
0.0
 41
0.9996876457878844
 10
943.96839388236242
 20
-1332.380965848982
 30
0.0
 41
1.0
 10
943.96616221921704
 20
-1332.3677261137398
 30
0.0
 41
1.0
 10
943.96393055607166
 20
-1332.3544863784975
 30
0.0
 41
1.0
 10
943.95013473465065
 20
-1332.2726402345395
 30
0.0
 41
0.9995547496494124
 10
943.93148141275879
 20
-1332.1917627373527
 30
0.0
 41
1.0
 10
943.93110745588729
 20
-1332.1901413266462
 30
0.0
 41
1.0
 10
943.93073349901567
 20
-1332.1885199159397
 30
0.0
 41
1.0
 10
943.91282809086624
 20
-1332.1108852401621
 30
0.0
 41
0.9994899427175287
 10
943.89000318218677
 20
-1332.034551957327
 30
0.0
 41
1.0
 10
943.88954465544623
 20
-1332.0330185075393
 30
0.0
 41
1.0
 10
943.88908612870569
 20
-1332.0314850577515
 30
0.0
 41
1.0
 10
943.86717827350788
 20
-1331.958218674494
 30
0.0
 41
0.9993784877590842
 10
943.8401626384009
 20
-1331.8866779693337
 30
0.0
 41
1.0
 10
943.83963094742444
 20
-1331.8852699866145
 30
0.0
 41
1.0
 10
943.83909925644809
 20
-1331.8838620038953
 30
0.0
 41
1.0
 10
943.81314700329403
 20
-1331.8151372641742
 30
0.0
 41
0.9992430832255194
 10
943.78193046813499
 20
-1331.7486381121064
 30
0.0
 41
1.0
 10
943.78134835207811
 20
-1331.7473980569885
 30
0.0
 41
1.0
 10
943.78076623602135
 20
-1331.7461580018708
 30
0.0
 41
1.0
 10
943.75071393297492
 20
-1331.6821389600368
 30
0.0
 41
0.9990789632798403
 10
943.7152833061989
 20
-1331.6209323482885
 30
0.0
 41
1.0
 10
943.71468760001721
 20
-1331.6199032624299
 30
0.0
 41
1.0
 10
943.71409189383542
 20
-1331.6188741765711
 30
0.0
 41
1.0
 10
943.67985267942288
 20
-1331.55972573654
 30
0.0
 41
0.9988874801120938
 10
943.64019340339019
 20
-1331.5040660241211
 30
0.0
 41
1.0
 10
943.63963787732598
 20
-1331.5032863724464
 30
0.0
 41
1.0
 10
943.63908235126178
 20
-1331.5025067207719
 30
0.0
 41
1.0
 10
943.60053412735806
 20
-1331.4484063117031
 30
0.0
 41
0.9986762060692985
 10
943.55663165608189
 20
-1331.3985525972639
 30
0.0
 41
1.0
 10
943.5561876957496
 20
-1331.3980484554472
 30
0.0
 41
1.0
 10
943.55574373541731
 20
-1331.3975443136305
 30
0.0
 41
1.0
 10
943.51272918480549
 20
-1331.3486988828247
 30
0.0
 41
0.9984621642488456
 10
943.4645716280279
 20
-1331.3049155823537
 30
0.0
 41
1.0
 10
943.46432499351124
 20
-1331.3046913501903
 30
0.0
 41
1.0
 10
943.46407835899458
 20
-1331.3044671180267
 30
0.0
 41
1.0
 10
943.41641407125007
 20
-1331.2611322818825
 30
0.0
 41
0.9982724693850346
 10
943.36399543940865
 20
-1331.223687931365
 30
0.0
 41
1.0
 10
943.31157680756689
 20
-1331.1862435808468
 30
0.0
 41
0.9981399180157645
 10
943.25499074417303
 20
-1331.1554570614032
 30
0.0
 41
1.0
 10
943.25494508209499
 20
-1331.1554322182465
 30
0.0
 41
1.0
 10
943.25489942001695
 20
-1331.1554073750895
 30
0.0
 41
1.0
 10
943.1982220324669
 20
-1331.1245711693318
 30
0.0
 41
0.9980927086836483
 10
943.13817668140121
 20
-1331.1009543604796
 30
0.0
 41
1.0
 10
943.13773651168913
 20
-1331.1007812346043
 30
0.0
 41
1.0
 10
943.13729634197693
 20
-1331.1006081087291
 30
0.0
 41
1.0
 10
943.07637065148549
 20
-1331.076645048126
 30
0.0
 41
0.9981411356560633
 10
943.01298213008488
 20
-1331.0602724066205
 30
0.0
 41
1.0
 10
943.01210001338495
 20
-1331.0600445644154
 30
0.0
 41
1.0
 10
943.01121789668491
 20
-1331.0598167222101
 30
0.0
 41
1.0
 10
942.9460651418832
 20
-1331.0429883962938
 30
0.0
 41
0.9983031812935046
 10
942.8793977128887
 20
-1331.0338490351176
 30
0.0
 41
1.0
 10
942.87052668748458
 20
-1331.0326329164463
 30
0.0
 41
1.0
 10
942.86165566208047
 20
-1331.0314167977749
 30
0.0
 41
1.0
 10
942.80730601957612
 20
-1331.0239660677837
 30
0.0
 41
0.9983887708263485
 10
942.75246217028314
 20
-1331.0227213941503
 30
0.0
 41
1.0
 10
942.74439876506119
 20
-1331.0225383962752
 30
0.0
 41
1.0
 10
942.73633535983925
 20
-1331.0223553984004
 30
0.0
 41
1.0
 10
942.69761832098584
 20
-1331.0214767205171
 30
0.0
 41
0.9998869563079463
 10
942.65889236778764
 20
-1331.0217625898767
 30
0.0
 41
1.0
 10
942.62016641462913
 20
-1331.0220484592362
 30
0.0
 41
0.9999972320081375
 10
942.58144223546208
 20
-1331.0225165587644
 30
0.0
 41
1.0
 10
942.56208921883808
 20
-1331.0227504988543
 30
0.0
 41
1.0
 10
942.5427362022142
 20
-1331.0229844389441
 30
0.0
 41
1.0
 10
942.46530598984339
 20
-1331.0239204186521
 30
0.0
 41
0.9997304945086646
 10
942.38800268360569
 20
-1331.0284495124383
 30
0.0
 41
1.0
 10
942.37895304190147
 20
-1331.0289797184282
 30
0.0
 41
1.0
 10
942.36990340019736
 20
-1331.0295099244181
 30
0.0
 41
1.0
 10
942.27450081055338
 20
-1331.0350994301839
 30
0.0
 41
0.9997888306415206
 10
942.17940847471334
 20
-1331.0446043946724
 30
0.0
 41
1.0
 10
942.17068741313824
 20
-1331.0454761093047
 30
0.0
 41
1.0
 10
942.16196635156314
 20
-1331.0463478239371
 30
0.0
 41
1.0
 10
942.04943189257585
 20
-1331.0575962176904
 30
0.0
 41
0.9984170238191271
 10
941.93887274522535
 20
-1331.081412299626
 30
0.0
 41
1.0
 10
941.90249161423912
 20
-1331.089249335432
 30
0.0
 41
1.0
 10
941.86611048325301
 20
-1331.097086371238
 30
0.0
 41
1.0
 10
941.75091941483072
 20
-1331.1219002377479
 30
0.0
 41
0.9976592854200169
 10
941.64019124842434
 20
-1331.1621989148953
 30
0.0
 41
1.0
 10
941.52946308202127
 20
-1331.2024975920417
 30
0.0
 41
0.9993255074352864
 10
941.42199128323148
 20
-1331.2508144905335
 30
0.0
 41
1.0
 10
941.41736610430667
 20
-1331.2528938667338
 30
0.0
 41
1.0
 10
941.41274092538197
 20
-1331.2549732429343
 30
0.0
 41
1.0
 10
941.29601876874472
 20
-1331.3074488938262
 30
0.0
 41
0.9976475078275323
 10
941.18757142443508
 20
-1331.3753968834842
 30
0.0
 41
1.0
 10
941.16922903029899
 20
-1331.3868893622996
 30
0.0
 41
1.0
 10
941.15088663616291
 20
-1331.398381841115
 30
0.0
 41
1.0
 10
941.06668444461218
 20
-1331.4511389618822
 30
0.0
 41
0.9995131336406766
 10
940.98593672965501
 20
-1331.5090451738354
 30
0.0
 41
1.0
 10
940.9051890146975
 20
-1331.5669513857888
 30
0.0
 41
0.9995810107606147
 10
940.82792736696808
 20
-1331.6294330682551
 30
0.0
 41
1.0
 10
940.82495733575843
 20
-1331.6318349397193
 30
0.0
 41
1.0
 10
940.82198730454866
 20
-1331.6342368111837
 30
0.0
 41
1.0
 10
940.7387855944005
 20
-1331.7015222365778
 30
0.0
 41
0.9996617837954118
 10
940.65919490726321
 20
-1331.7730426921396
 30
0.0
 41
1.0
 10
940.64706415639284
 20
-1331.7839434251243
 30
0.0
 41
1.0
 10
940.63493340552236
 20
-1331.7948441581091
 30
0.0
 41
1.0
 10
940.56665787811858
 20
-1331.8561967735877
 30
0.0
 41
0.999726775005248
 10
940.50132436982926
 20
-1331.9206733101182
 30
0.0
 41
1.0
 10
940.43599086154472
 20
-1331.9851498466444
 30
0.0
 41
0.9999667288956324
 10
940.37171791838989
 20
-1332.0506836535471
 30
0.0
 41
1.0
 10
940.30289047061933
 20
-1332.1208613123008
 30
0.0
 41
1.0
 10
940.23406302284866
 20
-1332.1910389710547
 30
0.0
 41
1.0
 10
940.03213518415055
 20
-1332.3969280954666
 30
0.0
 41
0.9988205335174691
 10
939.85112956717137
 20
-1332.6214323275274
 30
0.0
 41
1.0
 10
939.82048960226712
 20
-1332.6594355779566
 30
0.0
 41
1.0
 10
939.78984963736298
 20
-1332.6974388283859
 30
0.0
 41
1.0
 10
939.5475640905687
 20
-1332.9979495613129
 30
0.0
 41
0.9997077826754797
 10
939.3200861394613
 20
-1333.3098193555329
 30
0.0
 41
1.0
 10
939.31836272433452
 20
-1333.3121821389072
 30
0.0
 41
1.0
 10
939.31663930920786
 20
-1333.3145449222818
 30
0.0
 41
1.0
 10
939.08571452784395
 20
-1333.6311402832544
 30
0.0
 41
0.998914756707902
 10
938.88525102496169
 20
-1333.9678497444363
 30
0.0
 41
1.0
 10
938.86050987965268
 20
-1334.0094063249921
 30
0.0
 41
1.0
 10
938.83576873434379
 20
-1334.050962905548
 30
0.0
 41
1.0
 10
938.68055743570733
 20
-1334.3116642899988
 30
0.0
 41
0.9997476598182381
 10
938.53721244819735
 20
-1334.5790740385821
 30
0.0
 41
1.0
 10
938.39386746068544
 20
-1334.8464837871688
 30
0.0
 41
0.9996258967109405
 10
938.26535920875199
 20
-1335.1213317237973
 30
0.0
 41
1.0
 10
938.25215929930584
 20
-1335.1495631238854
 30
0.0
 41
1.0
 10
938.2389593898597
 20
-1335.1777945239735
 30
0.0
 41
1.0
 10
938.09875066885854
 20
-1335.4776669219293
 30
0.0
 41
0.9998735413945524
 10
937.96814932213624
 20
-1335.7818465214009
 30
0.0
 41
1.0
 10
937.96470649407797
 20
-1335.7898651068604
 30
0.0
 41
1.0
 10
937.96126366601982
 20
-1335.7978836923196
 30
0.0
 41
1.0
 10
937.83754797541678
 20
-1336.0860261208663
 30
0.0
 41
0.9999377418863418
 10
937.72029317324109
 20
-1336.3768575885438
 30
0.0
 41
1.0
 10
937.60303837106403
 20
-1336.6676890562242
 30
0.0
 41
0.9999508299500883
 10
937.49157442769013
 20
-1336.9607887330369
 30
0.0
 41
1.0
 10
937.48849365902697
 20
-1336.9688897590026
 30
0.0
 41
1.0
 10
937.4854128903637
 20
-1336.9769907849686
 30
0.0
 41
1.0
 10
937.3677874096627
 20
-1337.2862925137142
 30
0.0
 41
0.9999609228437266
 10
937.25564880678894
 20
-1337.5976255297287
 30
0.0
 41
1.0
 10
937.25269279643851
 20
-1337.6058323701404
 30
0.0
 41
1.0
 10
937.24973678608808
 20
-1337.6140392105522
 30
0.0
 41
1.0
 10
937.13168616252074
 20
-1337.9417859073706
 30
0.0
 41
0.9999674607405282
 10
937.01893863645239
 20
-1338.2713945273654
 30
0.0
 41
1.0
 10
936.96754024588734
 20
-1338.4216537230645
 30
0.0
 41
1.0
 10
936.91614185532228
 20
-1338.5719129187639
 30
0.0
 41
1.0
 10
936.80013124856544
 20
-1338.9110609012641
 30
0.0
 41
0.9999287532310661
 10
936.69224984459311
 20
-1339.2528816402446
 30
0.0
 41
1.0
 10
936.64577258847748
 20
-1339.4001441845407
 30
0.0
 41
1.0
 10
936.59929533236175
 20
-1339.5474067288371
 30
0.0
 41
1.0
 10
936.58436844066978
 20
-1339.5947023790698
 30
0.0
 41
0.9999998224242325
 10
936.56949793189187
 20
-1339.6420157874611
 30
0.0
 41
1.0
 10
934.94884179509643
 20
-1344.7900442892505
 30
0.0
 41
1.0
 10
933.32818565830098
 20
-1349.93807279104
 30
0.0
 41
1.0
 10
932.42287721441005
 20
-1349.93807279104
 30
0.0
 41
1.0
 10
931.51756877051912
 20
-1349.93807279104
 30
0.0
 41
1.0
 10
933.36965318190516
 20
-1344.0510008685724
 30
0.0
 41
1.0
 10
935.22173759329121
 20
-1338.163928946105
 30
0.0
 41
1.0
 10
935.23185935159393
 20
-1338.1318857326553
 30
0.0
 41
1.0
 10
935.30446702044367
 20
-1337.9015861908294
 30
0.0
 41
1.0
 10
935.37707468929239
 20
-1337.671286649007
 30
0.0
 41
0.9999825681977004
 10
935.44695772850321
 20
-1337.4401457539443
 30
0.0
 41
1.0
 10
935.49524879066144
 20
-1337.2804211704567
 30
0.0
 41
1.0
 10
935.54353985281978
 20
-1337.1206965869692
 30
0.0
 41
1.0
 10
935.64069220613897
 20
-1336.7993613651861
 30
0.0
 41
0.9999672528956985
 10
935.73263101176576
 20
-1336.4764958195888
 30
0.0
 41
1.0
 10
935.73541989543469
 20
-1336.4667019742014
 30
0.0
 41
1.0
 10
935.73820877910373
 20
-1336.4569081288143
 30
0.0
 41
1.0
 10
935.82456981738574
 20
-1336.1536302740142
 30
0.0
 41
0.999989974917771
 10
935.9082114269238
 20
-1335.8495911855498
 30
0.0
 41
1.0
 10
935.91831734594075
 20
-1335.8128559478737
 30
0.0
 41
1.0
 10
935.9284232649577
 20
-1335.7761207101976
 30
0.0
 41
1.0
 10
935.99185303645743
 20
-1335.5455520971018
 30
0.0
 41
0.9999214200504373
 10
936.04948246483627
 20
-1335.3134657548881
 30
0.0
 41
1.0
 10
936.06224831701729
 20
-1335.2620548694899
 30
0.0
 41
1.0
 10
936.07501416919843
 20
-1335.2106439840916
 30
0.0
 41
1.0
 10
936.1071118932141
 20
-1335.0813794126784
 30
0.0
 41
0.9999828681674416
 10
936.13769414520937
 20
-1334.9517479382114
 30
0.0
 41
1.0
 10
936.16827639720259
 20
-1334.8221164637537
 30
0.0
 41
0.999938984448138
 10
936.19598738599188
 20
-1334.6918410078536
 30
0.0
 41
1.0
 10
936.20312512971316
 20
-1334.6582849040115
 30
0.0
 41
1.0
 10
936.21026287343443
 20
-1334.6247288001691
 30
0.0
 41
1.0
 10
936.25224934966445
 20
-1334.4273411365921
 30
0.0
 41
0.9998933699439615
 10
936.28845361406707
 20
-1334.2288115288313
 30
0.0
 41
1.0
 10
936.28982643928305
 20
-1334.2212835081368
 30
0.0
 41
1.0
 10
936.29119926449903
 20
-1334.2137554874423
 30
0.0
 41
1.0
 10
936.33014917933406
 20
-1334.0001698382903
 30
0.0
 41
0.9996850305193067
 10
936.35833285559283
 20
-1333.7848988328533
 30
0.0
 41
1.0
 10
936.36032788896216
 20
-1333.7696604787307
 30
0.0
 41
1.0
 10
936.36232292233149
 20
-1333.7544221246083
 30
0.0
 41
1.0
 10
936.38973078479046
 20
-1333.5450768974542
 30
0.0
 41
0.9994697936706166
 10
936.4034553440099
 20
-1333.3343917021248
 30
0.0
 41
1.0
 10
936.40393241325967
 20
-1333.3270682299121
 30
0.0
 41
1.0
 10
936.40440948250944
 20
-1333.3197447576997
 30
0.0
 41
1.0
 10
936.41717990322957
 20
-1333.1237065067926
 30
0.0
 41
0.9991804893136853
 10
936.4140515869567
 20
-1332.9272776568205
 30
0.0
 41
1.0
 10
936.41396770813458
 20
-1332.9220108554073
 30
0.0
 41
1.0
 10
936.41388382931245
 20
-1332.9167440539939
 30
0.0
 41
1.0
 10
936.41092327068395
 20
-1332.7308488068466
 30
0.0
 41
0.9988448329321485
 10
936.3901317250602
 20
-1332.5460962170137
 30
0.0
 41
1.0
 10
936.38853765135718
 20
-1332.5319313612424
 30
0.0
 41
1.0
 10
936.38694357765416
 20
-1332.5177665054712
 30
0.0
 41
1.0
 10
936.36934017943645
 20
-1332.3613436271805
 30
0.0
 41
0.9985503209458798
 10
936.33502390713693
 20
-1332.207719443091
 30
0.0
 41
1.0
 10
936.32743791506573
 20
-1332.1737591156907
 30
0.0
 41
1.0
 10
936.31985192299442
 20
-1332.1397987882906
 30
0.0
 41
1.0
 10
936.30070763483752
 20
-1332.0540952590029
 30
0.0
 41
0.9991036781370534
 10
936.27438277318606
 20
-1331.9703181716768
 30
0.0
 41
1.0
 10
936.27040054772942
 20
-1331.9576450091645
 30
0.0
 41
1.0
 10
936.2664183222729
 20
-1331.9449718466519
 30
0.0
 41
1.0
 10
936.24805791153517
 20
-1331.886541084353
 30
0.0
 41
0.9998874504367368
 10
936.22795270385654
 20
-1331.8286874821285
 30
0.0
 41
1.0
 10
936.20784749617917
 20
-1331.7708338799082
 30
0.0
 41
0.9994041637543938
 10
936.18379888324478
 20
-1331.7145051760178
 30
0.0
 41
1.0
 10
936.17960209902026
 20
-1331.7046751115347
 30
0.0
 41
1.0
 10
936.17540531479563
 20
-1331.6948450470516
 30
0.0
 41
1.0
 10
936.14752648380147
 20
-1331.6295448810854
 30
0.0
 41
0.9991846840702686
 10
936.11447012710812
 20
-1331.5667068498042
 30
0.0
 41
1.0
 10
936.11333352071301
 20
-1331.5645462333491
 30
0.0
 41
1.0
 10
936.11219691431779
 20
-1331.5623856168943
 30
0.0
 41
1.0
 10
936.08141377041466
 20
-1331.5038688185234
 30
0.0
 41
0.9989253167923217
 10
936.04534434636003
 20
-1331.4484538901338
 30
0.0
 41
1.0
 10
936.04429022168586
 20
-1331.4468343953718
 30
0.0
 41
1.0
 10
936.04323609701169
 20
-1331.4452149006095
 30
0.0
 41
1.0
 10
936.00927492230528
 20
-1331.3930389617437
 30
0.0
 41
0.9986467172835769
 10
935.9700777696678
 20
-1331.3446729281141
 30
0.0
 41
1.0
 10
935.96920364096695
 20
-1331.3435943258355
 30
0.0
 41
1.0
 10
935.968329512266
 20
-1331.342515723557
 30
0.0
 41
1.0
 10
935.93088061702952
 20
-1331.2963068944835
 30
0.0
 41
0.99840011042679
 10
935.88845388651316
 20
-1331.2546217871154
 30
0.0
 41
1.0
 10
935.88786674840367
 20
-1331.2540449122341
 30
0.0
 41
1.0
 10
935.88727961029429
 20
-1331.2534680373528
 30
0.0
 41
1.0
 10
935.84602715599544
 20
-1331.2129366797462
 30
0.0
 41
0.9982442159082285
 10
935.80027105466047
 20
-1331.1775681184865
 30
0.0
 41
1.0
 10
935.80005625919819
 20
-1331.1774020858429
 30
0.0
 41
1.0
 10
935.7998414637359
 20
-1331.1772360531993
 30
0.0
 41
1.0
 10
935.75451495332447
 20
-1331.1421995572261
 30
0.0
 41
0.998245006083574
 10
935.70536397425303
 20
-1331.1127677741929
 30
0.0
 41
1.0
 10
935.65621299518068
 20
-1331.0833359911589
 30
0.0
 41
0.9983922639633511
 10
935.60404668901549
 20
-1331.0596563565048
 30
0.0
 41
1.0
 10
935.60381981169144
 20
-1331.0595533710234
 30
0.0
 41
1.0
 10
935.6035929343675
 20
-1331.0594503855423
 30
0.0
 41
1.0
 10
935.55097287355443
 20
-1331.0355647799256
 30
0.0
 41
0.9986517147151025
 10
935.49615990068799
 20
-1331.0172636608042
 30
0.0
 41
1.0
 10
935.49548197925901
 20
-1331.0170373143724
 30
0.0
 41
1.0
 10
935.49480405783015
 20
-1331.0168109679407
 30
0.0
 41
1.0
 10
935.43863524210656
 20
-1330.9980571559561
 30
0.0
 41
0.9989435598955765
 10
935.38098185495426
 20
-1330.9845394537215
 30
0.0
 41
1.0
 10
935.37990173537287
 20
-1330.9842862034684
 30
0.0
 41
1.0
 10
935.37882161579159
 20
-1330.9840329532155
 30
0.0
 41
1.0
 10
935.319007989478
 20
-1330.9700087504752
 30
0.0
 41
0.9992249241240164
 10
935.25827648058203
 20
-1330.9607334077602
 30
0.0
 41
1.0
 10
935.25686279228967
 20
-1330.9605174993521
 30
0.0
 41
1.0
 10
935.25544910399742
 20
-1330.9603015909443
 30
0.0
 41
1.0
 10
935.19189021851673
 20
-1330.950594431413
 30
0.0
 41
0.9994396597833141
 10
935.1278242819792
 20
-1330.9451615090675
 30
0.0
 41
1.0
 10
935.1086836145023
 20
-1330.9435383413488
 30
0.0
 41
1.0
 10
935.08954294702539
 20
-1330.9419151736302
 30
0.0
 41
1.0
 10
934.98719567553132
 20
-1330.933235915847
 30
0.0
 41
0.998769340312077
 10
934.88449205194308
 20
-1330.9347389793002
 30
0.0
 41
1.0
 10
934.87423771771705
 20
-1330.9348890510742
 30
0.0
 41
1.0
 10
934.8639833834909
 20
-1330.9350391228484
 30
0.0
 41
1.0
 10
934.75442761731233
 20
-1330.9366424671357
 30
0.0
 41
0.9989753644966157
 10
934.64546561729594
 20
-1330.9481454740608
 30
0.0
 41
1.0
 10
934.53650361727898
 20
-1330.9596484809861
 30
0.0
 41
0.9983190067306235
 10
934.42960480631359
 20
-1330.983683472773
 30
0.0
 41
1.0
 10
934.42070385470731
 20
-1330.9856847513356
 30
0.0
 41
1.0
 10
934.41180290310103
 20
-1330.9876860298982
 30
0.0
 41
1.0
 10
934.28710218892331
 20
-1331.0157235788101
 30
0.0
 41
0.99855393883035
 10
934.16613243524569
 20
-1331.0569872548554
 30
0.0
 41
1.0
 10
934.16378700428481
 20
-1331.0577872986714
 30
0.0
 41
1.0
 10
934.16144157332405
 20
-1331.0585873424875
 30
0.0
 41
1.0
 10
934.03578095772514
 20
-1331.1014511061651
 30
0.0
 41
0.9988468746493893
 10
933.91481061542538
 20
-1331.1561691912273
 30
0.0
 41
1.0
 10
933.91162779343654
 20
-1331.1576088657871
 30
0.0
 41
1.0
 10
933.90844497144781
 20
-1331.1590485403472
 30
0.0
 41
1.0
 10
933.78110898517048
 20
-1331.2166459745292
 30
0.0
 41
0.9991322885919424
 10
933.65900840111237
 20
-1331.2846413067116
 30
0.0
 41
1.0
 10
933.64140639006951
 20
-1331.2944435087011
 30
0.0
 41
1.0
 10
933.62380437902652
 20
-1331.3042457106903
 30
0.0
 41
1.0
 10
933.52162769796973
 20
-1331.3611458264709
 30
0.0
 41
0.9993860037849542
 10
933.42368669389487
 20
-1331.4250618420601
 30
0.0
 41
1.0
 10
933.41806838103855
 20
-1331.4287283367576
 30
0.0
 41
1.0
 10
933.41245006818224
 20
-1331.4323948314552
 30
0.0
 41
1.0
 10
933.3257456898192
 20
-1331.4889778576501
 30
0.0
 41
0.9998821494952457
 10
933.2408193140086
 20
-1331.5481960877255
 30
0.0
 41
1.0
 10
933.15589293819687
 20
-1331.6074143178014
 30
0.0
 41
0.9997976482744937
 10
933.07341730779399
 20
-1331.6700007258426
 30
0.0
 41
1.0
 10
933.05878104298813
 20
-1331.681107415623
 30
0.0
 41
1.0
 10
933.04414477818239
 20
-1331.6922141054035
 30
0.0
 41
1.0
 10
932.93239661816926
 20
-1331.7770138930048
 30
0.0
 41
0.9998091630799787
 10
932.82404634014267
 20
-1331.8661142437054
 30
0.0
 41
1.0
 10
932.81104058766459
 20
-1331.876809344152
 30
0.0
 41
1.0
 10
932.79803483518663
 20
-1331.8875044445986
 30
0.0
 41
1.0
 10
932.66367305220331
 20
-1331.9979949961928
 30
0.0
 41
0.9995035112317484
 10
932.53653717443899
 20
-1332.1167288132087
 30
0.0
 41
1.0
 10
932.5268898640536
 20
-1332.1257385593649
 30
0.0
 41
1.0
 10
932.51724255366832
 20
-1332.1347483055208
 30
0.0
 41
1.0
 10
932.39381949090307
 20
-1332.2500146772766
 30
0.0
 41
0.9994630424299333
 10
932.27821108511716
 20
-1332.3731174205136
 30
0.0
 41
1.0
 10
932.27452824634543
 20
-1332.3770390000268
 30
0.0
 41
1.0
 10
932.27084540757369
 20
-1332.3809605795402
 30
0.0
 41
1.0
 10
932.16260267933205
 20
-1332.49622016375
 30
0.0
 41
0.9995160693749926
 10
932.06173664980122
 20
-1332.6179875816215
 30
0.0
 41
1.0
 10
932.05980292972254
 20
-1332.6203220058273
 30
0.0
 41
1.0
 10
932.05786920964374
 20
-1332.622656430033
 30
0.0
 41
1.0
 10
931.96087062027175
 20
-1332.739754999491
 30
0.0
 41
0.9996561470514007
 10
931.8701444016034
 20
-1332.8617777619431
 30
0.0
 41
1.0
 10
931.8639867356992
 20
-1332.8700595509886
 30
0.0
 41
1.0
 10
931.857829069795
 20
-1332.8783413400338
 30
0.0
 41
1.0
 10
931.77941818293323
 20
-1332.983800524398
 30
0.0
 41
0.9998349055174627
 10
931.70489090100523
 20
-1333.0920391080558
 30
0.0
 41
1.0
 10
931.63036361907155
 20
-1333.2002776917216
 30
0.0
 41
0.9999728109555098
 10
931.55744072316179
 20
-1333.309603617276
 30
0.0
 41
1.0
 10
931.55612550775061
 20
-1333.3115753867778
 30
0.0
 41
1.0
 10
931.55481029233943
 20
-1333.3135471562794
 30
0.0
 41
1.0
 10
931.47925696562857
 20
-1333.4268166208053
 30
0.0
 41
0.999997214737783
 10
931.40423915527958
 20
-1333.540441463603
 30
0.0
 41
1.0
 10
931.39926761263337
 20
-1333.5479715521114
 30
0.0
 41
1.0
 10
931.39429606998704
 20
-1333.5555016406202
 30
0.0
 41
1.0
 10
931.3093351743662
 20
-1333.6841866604036
 30
0.0
 41
0.9999371979004652
 10
931.22727982495667
 20
-1333.8147435741896
 30
0.0
 41
1.0
 10
931.22377094059834
 20
-1333.8203265022491
 30
0.0
 41
1.0
 10
931.22026205624002
 20
-1333.8259094303087
 30
0.0
 41
1.0
 10
931.13118893811395
 20
-1333.9676322002133
 30
0.0
 41
0.9998272025610692
 10
931.04744554723402
 20
-1334.1125680769517
 30
0.0
 41
1.0
 10
931.03223037520763
 20
-1334.1389011914125
 30
0.0
 41
1.0
 10
931.01701520318124
 20
-1334.1652343058731
 30
0.0
 41
1.0
 10
930.90284146825331
 20
-1334.3628364115252
 30
0.0
 41
0.9995217214838582
 10
930.8011017786979
 20
-1334.5671187393862
 30
0.0
 41
1.0
 10
930.79345821606012
 20
-1334.5824661890947
 30
0.0
 41
1.0
 10
930.78581465342234
 20
-1334.597813638803
 30
0.0
 41
1.0
 10
930.69890936083311
 20
-1334.7723100968835
 30
0.0
 41
0.9998269762608406
 10
930.61855489456366
 20
-1334.9499183836017
 30
0.0
 41
1.0
 10
930.53820042829204
 20
-1335.1275266703242
 30
0.0
 41
0.999894474738708
 10
930.4630396337277
 20
-1335.3073943959525
 30
0.0
 41
1.0
 10
930.45808596413372
 20
-1335.3192490508768
 30
0.0
 41
1.0
 10
930.45313229453961
 20
-1335.3311037058011
 30
0.0
 41
1.0
 10
930.37248523398728
 20
-1335.5241006458186
 30
0.0
 41
0.9999506734411698
 10
930.29568770508786
 20
-1335.7186614506645
 30
0.0
 41
1.0
 10
930.28108773982717
 20
-1335.7556493724446
 30
0.0
 41
1.0
 10
930.26648777456637
 20
-1335.792637294225
 30
0.0
 41
1.0
 10
930.21889017619685
 20
-1335.913222255489
 30
0.0
 41
0.9999912393935083
 10
930.17230373216171
 20
-1336.0342014582166
 30
0.0
 41
1.0
 10
930.12571728813214
 20
-1336.1551806609309
 30
0.0
 41
0.9999927113948122
 10
930.08005599373178
 20
-1336.2765120684494
 30
0.0
 41
1.0
 10
930.06608756234073
 20
-1336.3136290504308
 30
0.0
 41
1.0
 10
930.05211913094968
 20
-1336.3507460324122
 30
0.0
 41
1.0
 10
929.97852097376153
 20
-1336.5463114039078
 30
0.0
 41
0.9999487550949622
 10
929.90889734879522
 20
-1336.7433267690751
 30
0.0
 41
1.0
 10
929.88530373885465
 20
-1336.8100900793784
 30
0.0
 41
1.0
 10
929.86171012891396
 20
-1336.8768533896819
 30
0.0
 41
1.0
 10
929.7670244945441
 20
-1337.1447872245046
 30
0.0
 41
0.9999808436929946
 10
929.67566290590253
 20
-1337.4138726557694
 30
0.0
 41
1.0
 10
929.58430131726209
 20
-1337.6829580870308
 30
0.0
 41
0.999987393290004
 10
929.49564660854571
 20
-1337.9529474420392
 30
0.0
 41
1.0
 10
929.47555425167502
 20
-1338.014136774796
 30
0.0
 41
1.0
 10
929.45546189480433
 20
-1338.0753261075531
 30
0.0
 41
1.0
 10
929.32662247234339
 20
-1338.467694128085
 30
0.0
 41
0.9999794883029085
 10
929.20281968737959
 20
-1338.8616803343809
 30
0.0
 41
1.0
 10
929.19166742794869
 20
-1338.8971709445971
 30
0.0
 41
1.0
 10
929.18051516851767
 20
-1338.9326615548132
 30
0.0
 41
1.0
 10
929.0379570046133
 20
-1339.3863343069227
 30
0.0
 41
0.9999982761725997
 10
928.89708456460176
 20
-1339.8405333290334
 30
0.0
 41
1.0
 10
927.30894423202915
 20
-1344.8893030600366
 30
0.0
 41
1.0
 10
925.72080389945654
 20
-1349.93807279104
 30
0.0
 41
1.0
 10
924.77205328798016
 20
-1349.93807279104
 30
0.0
 41
1.0
 10
923.82330267650377
 20
-1349.93807279104
 30
0.0
 41
1.0
 10
927.06158716265691
 20
-1339.6107505910938
 30
0.0
 41
1.0
 10
930.29987164881015
 20
-1329.2834283911477
 30
0.0
 41
1.0
  0
LWPOLYLINE
  5
5D
100
AcDbEntity
  8
0
370
              15
390
0
  6
Continuous
 62
               7
100
AcDbPolyline
 90
      232
 70
             128
 10
904.59632587498311
 20
-1330.3677712226629
 42
0.000437080069434
 10
904.54344870090915
 20
-1330.4364378619216
 10
904.50416446978363
 20
-1330.4875449748156
 42
0.0030481992175284
 10
904.37382575265667
 20
-1330.6592666671704
 10
904.33531408091403
 20
-1330.710653450948
 42
0.0042058245755998
 10
904.13132903024587
 20
-1330.9876591960194
 10
904.0789239077435
 20
-1331.0600920428024
 42
0.0120948898744777
 10
903.78287999098018
 20
-1331.4908416473545
 10
903.68668749186224
 20
-1331.6383223825733
 42
0.0141601263947646
 10
903.38304344493815
 20
-1332.1339917193118
 10
903.34350617750897
 20
-1332.2028356867493
 42
0.0071131081305789
 10
903.13823385427372
 20
-1332.5723384855817
 42
0.0068458791002251
 10
902.94335432742616
 20
-1332.9474300490665
 10
902.93654246497294
 20
-1332.9609917627813
 42
0.0064120880286918
 10
902.73840021493697
 20
-1333.3684162376826
 10
902.73086552941163
 20
-1333.3844280944215
 42
0.0058857236450311
 10
902.52811013753558
 20
-1333.8288042054664
 10
902.51993521124598
 20
-1333.8472943590905
 42
0.0053189741893052
 10
902.31123089858318
 20
-1334.3332578329973
 10
902.30248309289709
 20
-1334.3542397112046
 42
0.0047503650418726
 10
902.0865093667494
 20
-1334.8864391444065
 10
902.07724111839821
 20
-1334.9099155205222
 42
0.0042071762171093
 10
901.85269373466758
 20
-1335.4930091145995
 10
901.84294433232185
 20
-1335.5189752894617
 42
0.003668008648458
 10
901.60848968900871
 20
-1336.1576106739956
 10
901.59828190916198
 20
-1336.1860592083372
 42
0.0032573142627253
 10
901.35264962319093
 20
-1336.8849118681032
 10
901.2839991023568
 20
-1337.0843749521373
 42
0.0026133366649005
 10
900.93555390359666
 20
-1338.1142382358155
 10
900.87229711609825
 20
-1338.3044690712015
 42
0.0020592950742328
 10
900.65843404712882
 20
-1338.9565727238216
 10
900.65538225597277
 20
-1338.9660092122097
 42
0.0025609928534063
 10
900.45356175447989
 20
-1339.6011544345972
 10
900.45097038734002
 20
-1339.6094567755799
 42
0.0031362356245142
 10
900.26147960167623
 20
-1340.2302196317173
 10
900.25934855875551
 20
-1340.2373609379058
 42
0.0037229918029582
 10
900.08254817182251
 20
-1340.8463462399027
 10
900.08086958262345
 20
-1340.8522931300508
 42
0.0043077623707218
 10
899.91712878055102
 20
-1341.4521118618459
 42
0.0047654161823311
 10
899.76430005803013
 20
-1342.0547979507683
 10
899.72983544919589
 20
-1342.1963597278982
 42
0.0112969368446308
 10
899.53397109105015
 20
-1343.0880518885333
 10
899.50596470195569
 20
-1343.2308799346201
 42
0.0130056762572006
 10
899.30512745830902
 20
-1344.4178210062651
 10
899.2845877081611
 20
-1344.5618991197477
 42
0.0138721532145331
 10
899.18088470362409
 20
-1345.4687286055678
 10
899.1615892157148
 20
-1345.6922263275096
 42
0.0071254697010706
 10
899.12824256979366
 20
-1346.1554133363402
 10
899.1232815956306
 20
-1346.2414173308957
 42
0.0028881799202885
 10
899.10814330234052
 20
-1346.5331590407427
 42
0.0060297297137068
 10
899.09821110256496
 20
-1346.8251079768581
 10
899.09714882089781
 20
-1346.8735003487889
 42
0.0229523164154367
 10
899.10487984868359
 20
-1347.1962551950742
 10
899.10910562220386
 20
-1347.2566587290887
 42
0.0123673300674142
 10
899.12818426872229
 20
-1347.4577794542652
 42
0.0128577674470397
 10
899.15737965912865
 20
-1347.6576773041922
 10
899.16450553251559
 20
-1347.6990061187889
 42
0.0285717853763739
 10
899.22899953421131
 20
-1347.9771222701024
 10
899.24266805787738
 20
-1348.0237770395786
 42
0.0316283099156801
 10
899.3584786377919
 20
-1348.3427915414054
 10
899.36152732954747
 20
-1348.349777913731
 42
0.0338984824238001
 10
899.51095904051465
 20
-1348.6373438779201
 10
899.51326776988412
 20
-1348.6411349071955
 42
0.0350228718354444
 10
899.69562806055808
 20
-1348.8981868918729
 10
899.69651331233274
 20
-1348.8992659696364
 42
0.034747674752678
 10
899.91093799957321
 20
-1349.1264510168571
 42
0.0331337701909295
 10
900.15418132531954
 20
-1349.3225796789343
 10
900.15528142383573
 20
-1349.3233523821068
 42
0.0305233319080275
 10
900.4238261194098
 20
-1349.4884805521988
 10
900.42705616391027
 20
-1349.4902045640611
 42
0.0273744481153623
 10
900.71960987548516
 20
-1349.6263427079516
 10
900.72471441062214
 20
-1349.6283862924211
 42
0.0240964406196868
 10
901.04019148626787
 20
-1349.7373700187024
 10
901.04677481547787
 20
-1349.7392947583776
 42
0.0209636179811983
 10
901.38417496813042
 20
-1349.8227629063094
 10
901.39180742857911
 20
-1349.824314819311
 42
0.0181388704694356
 10
901.7501298205799
 20
-1349.8837309125252
 10
901.75841066895578
 20
-1349.884797096342
 42
0.0156086547588965
 10
902.13659803314692
 20
-1349.9215332829187
 10
902.17979328547051
 20
-1349.9243717853976
 42
0.0137148329019268
 10
902.50746643077048
 20
-1349.9368920406491
 10
902.55340262071024
 20
-1349.9373864737643
 42
0.0051057823886108
 10
902.7895482072887
 20
-1349.9375167281733
 42
0.0052256693315603
 10
903.02564549107558
 20
-1349.932767903709
 10
903.09587227481677
 20
-1349.930620937695
 42
0.016150717904945
 10
903.47160935292038
 20
-1349.9069705673683
 10
903.49162231329115
 20
-1349.9050603720809
 42
0.0101216737832123
 10
903.90564953478281
 20
-1349.8570674417153
 10
903.93970282420855
 20
-1349.8524197449058
 42
0.0245291776398297
 10
904.4164924797625
 20
-1349.763344666829
 10
904.5013157952875
 20
-1349.7431487464828
 42
0.0143509212558354
 10
904.85794689922329
 20
-1349.647344112705
 42
0.0156557857033206
 10
905.20816296394764
 20
-1349.5303328968873
 10
905.21566417844519
 20
-1349.5275627351321
 42
0.0170137333627439
 10
905.57226017412643
 20
-1349.3819051202609
 10
905.57936409653405
 20
-1349.3787172846971
 42
0.0183105364413232
 10
905.93871376470054
 20
-1349.2013822428726
 10
905.94566052933908
 20
-1349.1976318080006
 42
0.0194899958157405
 10
906.30414127032532
 20
-1348.9856528261082
 10
906.31115514965973
 20
-1348.9811274838148
 42
0.020486985295552
 10
906.66516945175397
 20
-1348.7316074687287
 10
906.67243506034072
 20
-1348.7260274033806
 42
0.0212516938557889
 10
907.01842499144902
 20
-1348.4361234064859
 10
907.06494168552672
 20
-1348.3936560963903
 42
0.0215248918250858
 10
907.32496785441208
 20
-1348.1348918173981
 10
907.36999758879278
 20
-1348.0860476960479
 42
0.0114578554960435
 10
907.52478974246992
 20
-1347.9102247625897
 10
907.53598427844872
 20
-1347.8969059990536
 42
0.0061531305136456
 10
907.66245892445102
 20
-1347.7426164657386
 42
0.0006325587125894
 10
907.78683740863789
 20
-1347.5866130900185
 10
907.80987754365424
 20
-1347.5576395694036
 42
0.0041897761559689
 10
907.97833294763007
 20
-1347.3421201933377
 10
908.03679506751917
 20
-1347.2660188463565
 42
0.0092993880039574
 10
908.31340699474379
 20
-1346.8917400824714
 10
908.39580148794153
 20
-1346.7758030789043
 42
0.0159321727085877
 10
908.74240797058417
 20
-1346.253628858148
 10
908.78676410597211
 20
-1346.1819492938998
 42
0.0085547317022527
 10
909.02127587129894
 20
-1345.7880743446733
 42
0.0084601156889566
 10
909.24225204874347
 20
-1345.386447495637
 10
909.25036752257142
 20
-1345.3710878133681
 42
0.0081429654285026
 10
909.47361679300798
 20
-1344.9313663008293
 10
909.48247695719294
 20
-1344.9131874588079
 42
0.0076574581328342
 10
909.70888446776382
 20
-1344.430004583546
 10
909.71836410848334
 20
-1344.408940105252
 42
0.0070682724199609
 10
909.94880901629142
 20
-1343.8769028004676
 10
909.95879930027183
 20
-1343.8529136114589
 42
0.0064559514447963
 10
910.19413250845116
 20
-1343.2666013449461
 10
910.20454186661846
 20
-1343.239666419498
 42
0.0058311413908315
 10
910.4455886033785
 20
-1342.5936343251217
 10
910.45634368076878
 20
-1342.5637499839536
 42
0.005231242582049
 10
910.70392495881549
 20
-1341.8525475701017
 10
910.71496879518941
 20
-1341.8197208580495
 42
0.0046680544796336
 10
910.96989722292676
 20
-1341.0378945422856
 10
911.01188937297093
 20
-1340.9049113049916
 42
0.004166685644509
 10
911.2151753853625
 20
-1340.241942529997
 10
911.25283782600388
 20
-1340.1153614224188
 42
0.0015170975153433
 10
911.3740244044393
 20
-1339.7034930708496
 42
-0.0004887993112769
 10
911.49436417760592
 20
-1339.2913746586592
 10
911.57084143505745
 20
-1339.0304172728665
 42
0.0002583378929999
 10
911.84405600526554
 20
-1338.096360569195
 10
911.92582885470108
 20
-1337.8162613100951
 42
0.000663616967508
 10
912.11969661470971
 20
-1337.1489083865174
 10
912.12479326907282
 20
-1337.1312768035818
 42
0.0010589131323852
 10
912.30624196997337
 20
-1336.4985454605885
 10
912.31122404047062
 20
-1336.4810325535095
 42
0.0015655524460242
 10
912.47949424763669
 20
-1335.8824158743676
 10
912.48432444805667
 20
-1335.8650237154138
 42
0.0021640440480397
 10
912.63861442003758
 20
-1335.2999966974135
 10
912.64324863946774
 20
-1335.2827319674188
 42
0.0028763871853474
 10
912.78276435752059
 20
-1334.7507640165727
 10
912.78715022168808
 20
-1334.733640038417
 42
0.0037310511943297
 10
912.91110691352469
 20
-1334.2341924443945
 10
912.91518213381494
 20
-1334.2172321731437
 42
0.0047652197773182
 10
913.02280603432212
 20
-1333.7497544048438
 10
913.02649663364241
 20
-1333.7329948497077
 42
0.0060276699300123
 10
913.1170267327991
 20
-1333.2969190545496
 10
913.12024542308814
 20
-1333.2804178402412
 42
0.0075824337760121
 10
913.19293473250377
 20
-1332.8751506758142
 10
913.19558010988465
 20
-1332.8589957283598
 42
0.0095130624611018
 10
913.24969534551519
 20
-1332.483906375292
 10
913.25668156939741
 20
-1332.4279728171791
 42
0.0121054653226782
 10
913.28327289997571
 20
-1332.1630769887015
 10
913.28413938973517
 20
-1332.1516735457726
 42
0.0069050827386349
 10
913.29922820777301
 20
-1331.9087323189283
 10
913.30036350744172
 20
-1331.8852060618799
 42
0.0169063976707284
 10
913.30319078642174
 20
-1331.6890133345828
 10
913.30202013489077
 20
-1331.6286775732465
 42
0.0052007732898637
 10
913.29976668629752
 20
-1331.5530841830814
 42
0.0054038123297072
 10
913.27980317445872
 20
-1331.4330658870717
 10
913.27471731858827
 20
-1331.4044074004903
 42
0.0112050460473395
 10
913.23933295652921
 20
-1331.2280809621491
 10
913.221507994489
 20
-1331.1485393754306
 42
0.0240764468012859
 10
913.13061062834265
 20
-1330.8183023399288
 10
913.11205186552911
 20
-1330.7616821749345
 42
0.0256812331836654
 10
912.96868894533986
 20
-1330.3899579686781
 10
912.96327951951878
 20
-1330.377826633689
 42
0.026836050121556
 10
912.79385227866862
 20
-1330.0468334996674
 10
912.78831587103321
 20
-1330.0373138293544
 42
0.0274670231729188
 10
912.59611489462031
 20
-1329.7450264544377
 10
912.59073359465685
 20
-1329.7377473068952
 42
0.0275035967104856
 10
912.37916071509585
 20
-1329.4822314165924
 10
912.37409121412929
 20
-1329.476752328962
 42
0.0269557673523962
 10
912.14668767068974
 20
-1329.2561100429998
 10
912.1419446129072
 20
-1329.2519800885391
 42
0.0259124802209554
 10
911.90238978147636
 20
-1329.0642895613864
 10
911.89785893629369
 20
-1329.0611040590557
 42
0.0245162153002281
 10
911.64994258319962
 20
-1328.9043710499459
 10
911.64541603687439
 20
-1328.9018108527443
 42
0.0229282588844374
 10
911.39299648004805
 20
-1328.7739426602461
 10
911.38821598621212
 20
-1328.7717903604844
 42
0.02129841356955
 10
911.13517803374953
 20
-1328.6705914432418
 10
911.129873748779
 20
-1328.6687278804814
 42
0.0197555462345385
 10
910.88009541105703
 20
-1328.591912462517
 42
0.018351189679197
 10
910.62516668559067
 20
-1328.5343295555508
 10
910.53880148887276
 20
-1328.5181267651667
 42
0.0338057877141873
 10
910.2532941396106
 20
-1328.484318360026
 10
910.16228873457283
 20
-1328.4797387047647
 42
0.0091990524483164
 10
910.05644162593467
 20
-1328.4763628488427
 42
0.0028333980788503
 10
909.9505277099413
 20
-1328.4755347413261
 10
909.94961225689235
 20
-1328.475532771502
 42
-0.0023619827806773
 10
909.84186624179722
 20
-1328.4747919304234
 10
909.80546107161058
 20
-1328.4743696239602
 42
0.0008824598470043
 10
909.62490508179565
 20
-1328.4725938457223
 10
909.5810436493548
 20
-1328.4722398841964
 42
0.0038132665763888
 10
909.31276075348626
 20
-1328.4721209481297
 10
909.29622709868249
 20
-1328.4722397142734
 42
0.0060665569337913
 10
908.9949466070799
 20
-1328.4780600136946
 10
908.98069627506584
 20
-1328.4785083216618
 42
0.0080356953338354
 10
908.65123755872503
 20
-1328.4941760437289
 10
908.63916754363936
 20
-1328.4949446266692
 42
0.0098996399102839
 10
908.28640445899987
 20
-1328.5244298558662
 10
908.27635874961379
 20
-1328.5254701520655
 42
0.0117740981369278
 10
907.90520189125891
 20
-1328.5727623995963
 10
907.89697919478249
 20
-1328.5740075161661
 42
0.0137435215138567
 10
907.51239037529706
 20
-1328.6431044897281
 10
907.50573333617399
 20
-1328.6444903859615
 42
0.0158359869386769
 10
907.11273624237276
 20
-1328.7393824744418
 10
907.10732305550437
 20
-1328.7408724153127
 42
0.0180554124026734
 10
906.71100801089381
 20
-1328.8655104315508
 10
906.7064512228086
 20
-1328.8671264678178
 42
0.020365743128185
 10
906.31197370499774
 20
-1329.025386809333
 10
906.30783016598991
 20
-1329.0272484307752
 42
0.0226819684655072
 10
905.92039410978646
 20
-1329.2228910094464
 10
905.91619431876813
 20
-1329.2252566013663
 42
0.0248634984608241
 10
905.54101237758573
 20
-1329.4618832473141
 10
905.49281744880204
 20
-1329.4957402891396
 42
0.0267044190886415
 10
905.21852475188643
 20
-1329.7111806650073
 42
0.0139303002201184
 10
904.96235758594787
 20
-1329.948419505919
 10
904.95750420022671
 20
-1329.9531721687792
 42
0.0283460963444682
 10
904.71343160600065
 20
-1330.220902829223
 10
904.67376310084296
 20
-1330.2697044066974
 42
0.0070695364819158
 10
904.59632587498311
 20
-1330.3677712226629
 42
0.0070695364819158
  0
LWPOLYLINE
  5
5E
100
AcDbEntity
  8
0
370
              15
390
0
  6
Continuous
 62
               7
100
AcDbPolyline
 90
      226
 70
             128
 10
901.06750543773671
 20
-1346.0893600288468
 42
-0.0026277636606344
 10
901.06742755393668
 20
-1346.022588103079
 10
901.0676449121687
 20
-1345.9694328856608
 42
-0.008868029672638
 10
901.07142152846188
 20
-1345.7964171032538
 10
901.07376788757415
 20
-1345.7371370778042
 42
-0.0077381705611818
 10
901.08981399833806
 20
-1345.4458765819952
 10
901.09068190951041
 20
-1345.4335883483209
 42
-0.0068872530527108
 10
901.11731398925861
 20
-1345.1183665962506
 10
901.11851821344464
 20
-1345.1061256172329
 42
-0.0062130021490202
 10
901.15611193027178
 20
-1344.7672559259995
 10
901.15761583380754
 20
-1344.755082054078
 42
-0.0056726929662818
 10
901.20653769331125
 20
-1344.3928868319549
 10
901.20831113895429
 20
-1344.3807930317193
 42
-0.0052341884495551
 10
901.26892172521377
 20
-1343.995599776204
 10
901.27093971399086
 20
-1343.9835948462089
 42
-0.004976845017071
 10
901.3436783954146
 20
-1343.5757502787908
 10
901.36792741013903
 20
-1343.4472022957702
 42
-0.0089029805623309
 10
901.50500826193456
 20
-1342.7854268483443
 10
901.53775363725231
 20
-1342.6403954178245
 42
-0.0080318257100966
 10
901.76730225159065
 20
-1341.69468578598
 10
901.77928717804127
 20
-1341.6485551507808
 42
-0.0074265721317282
 10
902.06329871689627
 20
-1340.6184905723831
 10
902.08317826001337
 20
-1340.5503565117922
 42
-0.0069711922700463
 10
902.41048283851455
 20
-1339.4840887714827
 10
902.47043478561511
 20
-1339.2980674131275
 42
-0.0052070422893904
 10
902.69986001087932
 20
-1338.6107953360809
 10
902.71714120301772
 20
-1338.5607680555615
 42
-0.0009167004449226
 10
902.92023309034107
 20
-1337.9763122073095
 42
-0.0025162726941918
 10
903.12733072060723
 20
-1337.3932709431369
 10
903.1645553324164
 20
-1337.2901213972214
 42
-0.0028212681456057
 10
903.41273125137218
 20
-1336.6143907650708
 10
903.4225620141217
 20
-1336.5880833203971
 42
-0.0031964916823629
 10
903.65885427178512
 20
-1335.9678785582669
 10
903.66848872578362
 20
-1335.9430685681248
 42
-0.0036281836452137
 10
903.89359468688531
 20
-1335.3756278872306
 10
903.90303309705132
 20
-1335.3523304557066
 42
-0.0041269166828226
 10
904.11765079370196
 20
-1334.8348895597494
 10
904.15028375011661
 20
-1334.7580111134025
 42
-0.0047472213057573
 10
904.30732855567635
 20
-1334.3975896455049
 10
904.31422263688887
 20
-1334.3821690481634
 42
-0.0025651659996153
 10
904.46258067073472
 20
-1334.0548409924245
 42
-0.005714463500095
 10
904.61633036449996
 20
-1333.7300313190744
 10
904.64436106990581
 20
-1333.6725229366707
 42
-0.0065388068374104
 10
904.82782809764706
 20
-1333.3082904400028
 10
904.8362865534209
 20
-1333.2920308606424
 42
-0.0074510843024042
 10
905.01246879930341
 20
-1332.9653425795104
 10
905.02064846982751
 20
-1332.9507018022541
 42
-0.0084648979862536
 10
905.19028232293454
 20
-1332.6587927912806
 10
905.19813844941825
 20
-1332.645785799637
 42
-0.0095638542805819
 10
905.36197389701681
 20
-1332.3858969276512
 10
905.36944884069305
 20
-1332.3745275661888
 42
-0.0107191626801416
 10
905.52825042107611
 20
-1332.1439163316518
 10
905.53526715480268
 20
-1332.1341802392933
 42
-0.0118458573908991
 10
905.68981525331969
 20
-1331.9301080439764
 42
-0.0129184518184884
 10
905.85426787692722
 20
-1331.733947527799
 10
905.88441264928724
 20
-1331.6998214489031
 42
-0.0217742579630553
 10
906.06102497161964
 20
-1331.5166146786564
 10
906.0717705160788
 20
-1331.5063978454546
 42
-0.0097266568652225
 10
906.23782813493585
 20
-1331.354550271016
 42
-0.0187720905712711
 10
906.41217571083018
 20
-1331.2124814176232
 10
906.44288170149491
 20
-1331.1893223352342
 42
-0.0179428207523067
 10
906.67530242149564
 20
-1331.026770158119
 10
906.67895474841305
 20
-1331.0244062232302
 42
-0.0170047877696703
 10
906.9147183859418
 20
-1330.8829457090796
 10
906.91850137468589
 20
-1330.8808474040447
 42
-0.0160190788364764
 10
907.15540992232366
 20
-1330.7591961020553
 42
-0.0151102861490131
 10
907.39944170477281
 20
-1330.6525133259997
 10
907.4518282069821
 20
-1330.6314731931061
 42
-0.02719454418858
 10
907.81049076604279
 20
-1330.5096083823994
 10
907.87955556652446
 20
-1330.4902588411348
 42
-0.0237596594025062
 10
908.29535241355097
 20
-1330.3948081291524
 10
908.36341526727983
 20
-1330.3825534410257
 42
-0.0213715440554128
 10
908.6492901987267
 20
-1330.3436064095156
 10
908.70943736494496
 20
-1330.3380166948148
 42
-0.0101465655825566
 10
908.8769298969388
 20
-1330.3258731515507
 10
908.88627028313897
 20
-1330.3253862365534
 42
-0.0100375910885035
 10
909.03542438369959
 20
-1330.3206104186281
 10
909.04568365337832
 20
-1330.3204879796137
 42
-0.0103625633383485
 10
909.17439164803477
 20
-1330.3216194131403
 10
909.19665729929545
 20
-1330.3222767716049
 42
-0.0115689250245654
 10
909.28070803682965
 20
-1330.3267062778505
 42
-0.0072438037448277
 10
909.36454631625793
 20
-1330.3342954775985
 10
909.38134682574162
 20
-1330.3360620203239
 42
-0.0217917313134827
 10
909.49791658905565
 20
-1330.353481913045
 10
909.56351667962588
 20
-1330.36622852146
 42
-0.0332943556750419
 10
909.76790884465026
 20
-1330.4202688127666
 10
909.79808141319961
 20
-1330.4304368898847
 42
-0.0184824084801863
 10
909.93658646966583
 20
-1330.4828879052716
 42
-0.0198002050697503
 10
910.07066081016455
 20
-1330.5457719654705
 10
910.07254744754209
 20
-1330.5467497523507
 42
-0.0212242342976989
 10
910.20468638994339
 20
-1330.6225124911432
 10
910.20650168548741
 20
-1330.623658293352
 42
-0.0226090605783623
 10
910.33500558670892
 20
-1330.7131379369164
 10
910.33685002844663
 20
-1330.714550189904
 42
-0.0238457052230831
 10
910.46003210973947
 20
-1330.8185460857662
 10
910.46198483829858
 20
-1330.8203609635325
 42
-0.0248160564157014
 10
910.57818634559999
 20
-1330.9396355647423
 10
910.58028997900124
 20
-1330.9420208984457
 42
-0.0254109591458078
 10
910.68789519686641
 20
-1331.0773092844088
 10
910.69014321878126
 20
-1331.0804508328106
 42
-0.0255528488282173
 10
910.78758989757785
 20
-1331.2324778870438
 10
910.78992099749462
 20
-1331.2365594986527
 42
-0.0252146793221
 10
910.87570202350366
 20
-1331.4060617446494
 10
910.87800426266131
 20
-1331.4112438265624
 42
-0.0244265635952877
 10
910.95065895642256
 20
-1331.5989903986085
 10
910.95990535789076
 20
-1331.6268558169456
 42
-0.0231319612897134
 10
911.00582813688322
 20
-1331.7901568637485
 42
-0.0112130424351361
 10
911.04046415942207
 20
-1331.9563604639397
 10
911.04166668453399
 20
-1331.9628570508244
 42
-0.0210527881240374
 10
911.06735315990477
 20
-1332.1439126962659
 10
911.07086375472659
 20
-1332.179318244813
 42
-0.0190029892419021
 10
911.08630522827139
 20
-1332.4328540910897
 10
911.08711520471525
 20
-1332.4683297054544
 42
-0.0137974553661911
 10
911.08556635187995
 20
-1332.7933611121807
 10
911.08472089692407
 20
-1332.8194798567833
 42
-0.0081336634216173
 10
911.0698615617016
 20
-1333.1248273243798
 42
-0.0073526923573376
 10
911.04555302832671
 20
-1333.4295755686676
 10
911.04429160454424
 20
-1333.442912243331
 42
-0.0066886138691279
 10
911.00855601849662
 20
-1333.7734982868371
 10
911.00689892902778
 20
-1333.7871199058195
 42
-0.0061359187359905
 10
910.9590483269767
 20
-1334.1438838859206
 10
910.95701082590404
 20
-1334.1577786887487
 42
-0.0056698610066423
 10
910.89636049513842
 20
-1334.541057257579
 10
910.89395506181404
 20
-1334.5552163768175
 42
-0.0052721077273469
 10
910.81982286101788
 20
-1334.965343716477
 10
910.81705971217264
 20
-1334.9797603518814
 42
-0.0049289272176348
 10
910.72876559407518
 20
-1335.4170688629915
 10
910.72565309939
 20
-1335.4317377158197
 42
-0.0047415956711352
 10
910.62241510785566
 20
-1335.8965344732389
 10
910.58764689749796
 20
-1336.0463415686136
 42
-0.0084404470902491
 10
910.3976304539259
 20
-1336.8065655931453
 10
910.39150376594046
 20
-1336.8294297172981
 42
-0.0039635940259515
 10
910.17005008166007
 20
-1337.6304185815329
 10
910.15667328647692
 20
-1337.6773501981374
 42
-0.0072475040836677
 10
909.88922639861278
 20
-1338.5665699145311
 10
909.8190140717852
 20
-1338.7883102645035
 42
-0.0051345458827275
 10
909.53225469972756
 20
-1339.6626354523107
 10
909.51072843297004
 20
-1339.7260617194113
 42
-0.0019150016603301
 10
909.25519502609336
 20
-1340.4696108396668
 10
909.24872742168736
 20
-1340.4881983046159
 42
-0.0021524362751978
 10
909.00024937063336
 20
-1341.1925241262961
 10
908.99103894993868
 20
-1341.2182777045925
 42
-0.0024331286819045
 10
908.75478369090092
 20
-1341.868877012716
 10
908.74573573835369
 20
-1341.8934203190615
 42
-0.0027449721786756
 10
908.52112116751493
 20
-1342.4925501979947
 10
908.51223116013398
 20
-1342.5158727878172
 42
-0.0031083229770454
 10
908.29868867351274
 20
-1343.0657968254266
 10
908.28995254182871
 20
-1343.0878865413058
 42
-0.0035311343279476
 10
908.08691135624531
 20
-1343.5908696670144
 10
908.07832601709697
 20
-1343.6117123905265
 42
-0.0040245640950567
 10
907.88521421330324
 20
-1344.0700217131171
 10
907.87677809969603
 20
-1344.0896010811989
 42
-0.0046015135850708
 10
907.69302180653642
 20
-1344.5055061108314
 10
907.68473562871384
 20
-1344.5238032502712
 42
-0.0052768638272643
 10
907.50975810975251
 20
-1344.8995761345539
 10
907.50162589913111
 20
-1344.9165694730855
 42
-0.006067267564568
 10
907.33484628635961
 20
-1345.2544850962113
 10
907.32687680587935
 20
-1345.2701503552059
 42
-0.0069904648871732
 10
907.16770841187667
 20
-1345.5724861618723
 10
907.15991701226721
 20
-1345.5867967110973
 42
-0.0080637022763919
 10
907.00776515192001
 20
-1345.8558320142527
 10
907.00017611928774
 20
-1345.8687598798551
 42
-0.0093006455661841
 10
906.85443544275722
 20
-1346.1067742783566
 10
906.8470847760201
 20
-1346.1182922475195
 42
-0.0107060778055096
 10
906.70713623257507
 20
-1346.3275625649087
 10
906.70007446430066
 20
-1346.3376481074672
 42
-0.0122723111417739
 10
906.56528074609741
 20
-1346.5204414369637
 10
906.56495452254069
 20
-1346.5208618247766
 42
-0.014183631962379
 10
906.42137291956919
 20
-1346.6954315826029
 10
906.41442516391851
 20
-1346.7034065828661
 42
-0.0175957477209483
 10
906.27451899588254
 20
-1346.8530274712723
 42
-0.0080466359680476
 10
906.12705523085697
 20
-1346.9953499994192
 10
906.08102068633491
 20
-1347.0383704375147
 42
-0.0269600260396617
 10
905.82774044035261
 20
-1347.2506936960233
 10
905.76117330405782
 20
-1347.3006451106457
 42
-0.0178362839754421
 10
905.52122881439914
 20
-1347.4676630369001
 10
905.5139838433978
 20
-1347.4723315491055
 42
-0.017465073265207
 10
905.27764764595736
 20
-1347.6131925140642
 42
-0.0169240130159309
 10
905.03218140009483
 20
-1347.737484773844
 10
904.98619524454193
 20
-1347.7588467294088
 42
-0.031888303684048
 10
904.63584438892008
 20
-1347.8951850389194
 10
904.56747885375819
 20
-1347.916885659394
 42
-0.0284435909901685
 10
904.19142872746613
 20
-1348.0131030948692
 10
904.1562705669669
 20
-1348.0199966906978
 42
-0.0243909341011126
 10
903.84282710604862
 20
-1348.0657177217277
 10
903.79254637927829
 20
-1348.0705632686293
 42
-0.0196639292930873
 10
903.57695080175017
 20
-1348.0828115541428
 10
903.52512673058936
 20
-1348.0837148148796
 42
-0.0100501510682509
 10
903.41270344892246
 20
-1348.0834144165265
 10
903.38104358753458
 20
-1348.0826933446401
 42
-0.001975203112028
 10
903.33195125089708
 20
-1348.0813811844314
 10
903.32919094766771
 20
-1348.0812964926049
 42
0.0065378751996
 10
903.28561437292024
 20
-1348.0805296013903
 42
-0.0167974694635841
 10
903.2420835499903
 20
-1348.0788697028645
 10
903.23800421072633
 20
-1348.0785766919694
 42
-0.0081283276278602
 10
903.18644441299352
 20
-1348.074029698332
 10
903.17470483910915
 20
-1348.072801780753
 42
-0.0126703440176091
 10
903.09998654331844
 20
-1348.0630669896821
 10
903.07719867563901
 20
-1348.0595087337663
 42
-0.0117852088432977
 10
902.95765968980379
 20
-1348.0379457386086
 10
902.90227923804355
 20
-1348.0266021983746
 42
-0.0251774592302417
 10
902.67543519903938
 20
-1347.9681041889426
 10
902.63071600918079
 20
-1347.954137369605
 42
-0.014652519989151
 10
902.44432302164614
 20
-1347.8898708424081
 42
-0.0166929435857547
 10
902.26234536551863
 20
-1347.8140637093531
 10
902.25768873424636
 20
-1347.8119388087396
 42
-0.0191684358433334
 10
902.07250510299684
 20
-1347.7187027249495
 10
902.06917251724008
 20
-1347.7168614773964
 42
-0.0221181781810731
 10
901.88586221333856
 20
-1347.6047279790259
 10
901.88351240932946
 20
-1347.6031436810345
 42
-0.0254984685376864
 10
901.70722225894394
 20
-1347.4707325310649
 10
901.68474011124283
 20
-1347.4519802221291
 42
-0.0292492648803494
 10
901.55997117239917
 20
-1347.3348874224855
 42
-0.0159048957497861
 10
901.4461311749476
 20
-1347.2068674308846
 10
901.4448123843697
 20
-1347.2052858178663
 42
-0.0343813379559187
 10
901.34217512274336
 20
-1347.0634144920966
 10
901.31068359138328
 20
-1347.0129111000037
 42
-0.036911727570558
 10
901.22479108948539
 20
-1346.8494338590544
 42
-0.0191751379911738
 10
901.15759770392913
 20
-1346.6770292530505
 10
901.15583438016893
 20
-1346.6719359083736
 42
-0.037817804222585
 10
901.10603966138433
 20
-1346.4829951322909
 10
901.10004436565384
 20
-1346.4504345140926
 42
-0.0184846046454869
 10
901.07932716635992
 20
-1346.3086816935504
 42
-0.017986635130814
 10
901.06899416128624
 20
-1346.1657908804677
 10
901.06893771884052
 20
-1346.1642331938567
 42
-0.0085497186138617
 10
901.06750543773671
 20
-1346.0893600288468
 42
-0.0085497186138617
  0
ENDBLK
  5
5F
100
AcDbEntity
  8
template
390
0
100
AcDbBlockEnd
  0
BLOCK
  5
60
100
AcDbEntity
  8
notes
390
0
100
AcDbBlockBegin
  2
*D3
 70
               1
 10
0.0
 20
0.0
 30
0.0
  3
*D3
  1

  0
LINE
  5
61
100
AcDbEntity
  8
0
370
              -2
390
0
  6
Continuous
 62
               0
100
AcDbLine
 10
-120.54756732546727
 20
848.83612535973464
 30
0.0
 11
-120.54756732546727
 21
978.83612535973475
 31
0.0
  0
LINE
  5
62
100
AcDbEntity
  8
0
370
              -2
390
0
  6
Continuous
 62
               0
100
AcDbLine
 10
-720.54756732546764
 20
848.83612535973464
 30
0.0
 11
-720.54756732546764
 21
978.83612535973475
 31
0.0
  0
LINE
  5
63
100
AcDbEntity
  8
0
370
              -2
390
0
  6
Continuous
 62
               0
100
AcDbLine
 10
-120.54756732546727
 20
978.83612535973475
 30
0.0
 11
-720.54756732546764
 21
978.83612535973475
 31
0.0
  0
CIRCLE
  5
64
102
{ACAD_REACTORS
330
65
102
}
100
AcDbEntity
  8
0
370
              -2
390
0
  6
Continuous
 62
               0
100
AcDbCircle
 10
-120.54756732546727
 20
978.83612535973475
 30
0.0
 40
1.9998779296875
  0
HATCH
  5
65
100
AcDbEntity
  8
0
370
              -2
390
0
  6
Continuous
 62
               0
100
AcDbHatch
 10
0.0
 20
0.0
 30
0.0
210
0.0
220
0.0
230
1.0
  2
SOLID
 70
               1
 71
               1
 91
        1
 92
        1
 93
        1
 72
               2
 10
-120.54756732546727
 20
978.83612535973475
 40
1.9998779296875
 50
0.0
 51
360.0
 73
               0
 97
        1
330
64
 75
               0
 76
               1
 98
        1
 10
0.0
 20
0.0
  0
CIRCLE
  5
66
102
{ACAD_REACTORS
330
67
102
}
100
AcDbEntity
  8
0
370
              -2
390
0
  6
Continuous
 62
               0
100
AcDbCircle
 10
-720.54756732546764
 20
978.83612535973475
 30
0.0
 40
1.9998779296875
  0
HATCH
  5
67
100
AcDbEntity
  8
0
370
              -2
390
0
  6
Continuous
 62
               0
100
AcDbHatch
 10
0.0
 20
0.0
 30
0.0
210
0.0
220
0.0
230
1.0
  2
SOLID
 70
               1
 71
               1
 91
        1
 92
        1
 93
        1
 72
               2
 10
-720.54756732546764
 20
978.83612535973475
 40
1.9998779296875
 50
0.0
 51
360.0
 73
               0
 97
        1
330
66
 75
               0
 76
               1
 98
        1
 10
0.0
 20
0.0
  0
MTEXT
  5
68
100
AcDbEntity
  8
0
390
0
 62
               0
100
AcDbMText
 10
-444.36006900764301
 20
1012.7137425472347
 30
0.0
 40
24.432617187500004
 41
0.0
 71
               1
 72
               1
  1
600
  7
ＭＳ ゴシック
 73
               1
 44
0.7828267384257843
  0
POINT
  5
69
100
AcDbEntity
  8
Defpoints
370
               0
390
0
 62
               0
100
AcDbPoint
 10
-720.54756732546764
 20
823.83612535973464
 30
0.0
  0
POINT
  5
6A
100
AcDbEntity
  8
Defpoints
370
               0
390
0
 62
               0
100
AcDbPoint
 10
-120.54756732546727
 20
823.83612535973464
 30
0.0
  0
POINT
  5
6B
100
AcDbEntity
  8
Defpoints
370
               0
390
0
 62
               0
100
AcDbPoint
 10
-120.54756732546727
 20
978.83612535973475
 30
0.0
  0
ENDBLK
  5
6C
100
AcDbEntity
  8
notes
390
0
100
AcDbBlockEnd
  0
BLOCK
  5
6D
100
AcDbEntity
  8
notes
390
0
100
AcDbBlockBegin
  2
*D4
 70
               1
 10
0.0
 20
0.0
 30
0.0
  3
*D4
  1

  0
LINE
  5
6E
100
AcDbEntity
  8
0
370
              -2
390
0
  6
Continuous
 62
               0
100
AcDbLine
 10
-420.54756732546753
 20
792.07645377502695
 30
0.0
 11
-420.54756732546753
 21
928.83612535973475
 31
0.0
  0
LINE
  5
6F
100
AcDbEntity
  8
0
370
              -2
390
0
  6
Continuous
 62
               0
100
AcDbLine
 10
-320.54756732546753
 20
792.07645377502695
 30
0.0
 11
-320.54756732546753
 21
928.83612535973475
 31
0.0
  0
LINE
  5
70
100
AcDbEntity
  8
0
370
              -2
390
0
  6
Continuous
 62
               0
100
AcDbLine
 10
-420.54756732546753
 20
928.83612535973475
 30
0.0
 11
-320.54756732546753
 21
928.83612535973475
 31
0.0
  0
CIRCLE
  5
71
102
{ACAD_REACTORS
330
72
102
}
100
AcDbEntity
  8
0
370
              -2
390
0
  6
Continuous
 62
               0
100
AcDbCircle
 10
-420.54756732546753
 20
928.83612535973475
 30
0.0
 40
1.9998779296875
  0
HATCH
  5
72
100
AcDbEntity
  8
0
370
              -2
390
0
  6
Continuous
 62
               0
100
AcDbHatch
 10
0.0
 20
0.0
 30
0.0
210
0.0
220
0.0
230
1.0
  2
SOLID
 70
               1
 71
               1
 91
        1
 92
        1
 93
        1
 72
               2
 10
-420.54756732546753
 20
928.83612535973475
 40
1.9998779296875
 50
0.0
 51
360.0
 73
               0
 97
        1
330
71
 75
               0
 76
               1
 98
        1
 10
0.0
 20
0.0
  0
CIRCLE
  5
73
102
{ACAD_REACTORS
330
74
102
}
100
AcDbEntity
  8
0
370
              -2
390
0
  6
Continuous
 62
               0
100
AcDbCircle
 10
-320.54756732546753
 20
928.83612535973475
 30
0.0
 40
1.9998779296875
  0
HATCH
  5
74
100
AcDbEntity
  8
0
370
              -2
390
0
  6
Continuous
 62
               0
100
AcDbHatch
 10
0.0
 20
0.0
 30
0.0
210
0.0
220
0.0
230
1.0
  2
SOLID
 70
               1
 71
               1
 91
        1
 92
        1
 93
        1
 72
               2
 10
-320.54756732546753
 20
928.83612535973475
 40
1.9998779296875
 50
0.0
 51
360.0
 73
               0
 97
        1
330
73
 75
               0
 76
               1
 98
        1
 10
0.0
 20
0.0
  0
MTEXT
  5
75
100
AcDbEntity
  8
0
390
0
 62
               0
100
AcDbMText
 10
-394.36006900764312
 20
962.7137425472348
 30
0.0
 40
24.432617187500004
 41
0.0
 71
               1
 72
               1
  1
100
  7
ＭＳ ゴシック
 73
               1
 44
0.7828267384257843
  0
POINT
  5
76
100
AcDbEntity
  8
Defpoints
370
               0
390
0
 62
               0
100
AcDbPoint
 10
-320.54756732546753
 20
767.07645377502695
 30
0.0
  0
POINT
  5
77
100
AcDbEntity
  8
Defpoints
370
               0
390
0
 62
               0
100
AcDbPoint
 10
-420.54756732546753
 20
767.07645377502695
 30
0.0
  0
POINT
  5
78
100
AcDbEntity
  8
Defpoints
370
               0
390
0
 62
               0
100
AcDbPoint
 10
-420.54756732546753
 20
928.83612535973475
 30
0.0
  0
ENDBLK
  5
79
100
AcDbEntity
  8
notes
390
0
100
AcDbBlockEnd
  0
BLOCK
  5
7A
100
AcDbEntity
  8
notes
390
0
100
AcDbBlockBegin
  2
*D5
 70
               1
 10
0.0
 20
0.0
 30
0.0
  3
*D5
  1

  0
LINE
  5
7B
100
AcDbEntity
  8
0
370
              -2
390
0
  6
Continuous
 62
               0
100
AcDbLine
 10
-420.54756732546753
 20
792.07645377502695
 30
0.0
 11
-420.54756732546753
 21
928.83612535973475
 31
0.0
  0
LINE
  5
7C
100
AcDbEntity
  8
0
370
              -2
390
0
  6
Continuous
 62
               0
100
AcDbLine
 10
-520.54756732546753
 20
792.07645377502695
 30
0.0
 11
-520.54756732546753
 21
928.83612535973475
 31
0.0
  0
LINE
  5
7D
100
AcDbEntity
  8
0
370
              -2
390
0
  6
Continuous
 62
               0
100
AcDbLine
 10
-420.54756732546753
 20
928.83612535973475
 30
0.0
 11
-520.54756732546753
 21
928.83612535973475
 31
0.0
  0
CIRCLE
  5
7E
102
{ACAD_REACTORS
330
7F
102
}
100
AcDbEntity
  8
0
370
              -2
390
0
  6
Continuous
 62
               0
100
AcDbCircle
 10
-420.54756732546753
 20
928.83612535973475
 30
0.0
 40
1.9998779296875
  0
HATCH
  5
7F
100
AcDbEntity
  8
0
370
              -2
390
0
  6
Continuous
 62
               0
100
AcDbHatch
 10
0.0
 20
0.0
 30
0.0
210
0.0
220
0.0
230
1.0
  2
SOLID
 70
               1
 71
               1
 91
        1
 92
        1
 93
        1
 72
               2
 10
-420.54756732546753
 20
928.83612535973475
 40
1.9998779296875
 50
0.0
 51
360.0
 73
               0
 97
        1
330
7E
 75
               0
 76
               1
 98
        1
 10
0.0
 20
0.0
  0
CIRCLE
  5
80
102
{ACAD_REACTORS
330
81
102
}
100
AcDbEntity
  8
0
370
              -2
390
0
  6
Continuous
 62
               0
100
AcDbCircle
 10
-520.54756732546753
 20
928.83612535973475
 30
0.0
 40
1.9998779296875
  0
HATCH
  5
81
100
AcDbEntity
  8
0
370
              -2
390
0
  6
Continuous
 62
               0
100
AcDbHatch
 10
0.0
 20
0.0
 30
0.0
210
0.0
220
0.0
230
1.0
  2
SOLID
 70
               1
 71
               1
 91
        1
 92
        1
 93
        1
 72
               2
 10
-520.54756732546753
 20
928.83612535973475
 40
1.9998779296875
 50
0.0
 51
360.0
 73
               0
 97
        1
330
80
 75
               0
 76
               1
 98
        1
 10
0.0
 20
0.0
  0
MTEXT
  5
82
100
AcDbEntity
  8
0
390
0
 62
               0
100
AcDbMText
 10
-494.36006900764312
 20
962.7137425472348
 30
0.0
 40
24.432617187500004
 41
0.0
 71
               1
 72
               1
  1
100
  7
ＭＳ ゴシック
 73
               1
 44
0.7828267384257843
  0
POINT
  5
83
100
AcDbEntity
  8
Defpoints
370
               0
390
0
 62
               0
100
AcDbPoint
 10
-520.54756732546753
 20
767.07645377502695
 30
0.0
  0
POINT
  5
84
100
AcDbEntity
  8
Defpoints
370
               0
390
0
 62
               0
100
AcDbPoint
 10
-420.54756732546753
 20
767.07645377502695
 30
0.0
  0
POINT
  5
85
100
AcDbEntity
  8
Defpoints
370
               0
390
0
 62
               0
100
AcDbPoint
 10
-420.54756732546753
 20
928.83612535973475
 30
0.0
  0
ENDBLK
  5
86
100
AcDbEntity
  8
notes
390
0
100
AcDbBlockEnd
  0
BLOCK
  5
87
100
AcDbEntity
  8
notes
390
0
100
AcDbBlockBegin
  2
*D6
 70
               1
 10
0.0
 20
0.0
 30
0.0
  3
*D6
  1

  0
LINE
  5
88
100
AcDbEntity
  8
0
370
              -2
390
0
  6
Continuous
 62
               0
100
AcDbLine
 10
-155.5475673254675
 20
362.07725891143303
 30
0.0
 11
-155.5475673254675
 21
278.83612535973685
 31
0.0
  0
LINE
  5
89
100
AcDbEntity
  8
0
370
              -2
390
0
  6
Continuous
 62
               0
100
AcDbLine
 10
-685.54756732546753
 20
361.05084792569374
 30
0.0
 11
-685.54756732546753
 21
278.83612535973685
 31
0.0
  0
LINE
  5
8A
100
AcDbEntity
  8
0
370
              -2
390
0
  6
Continuous
 62
               0
100
AcDbLine
 10
-155.5475673254675
 20
278.83612535973685
 30
0.0
 11
-685.54756732546753
 21
278.83612535973685
 31
0.0
  0
CIRCLE
  5
8B
102
{ACAD_REACTORS
330
8C
102
}
100
AcDbEntity
  8
0
370
              -2
390
0
  6
Continuous
 62
               0
100
AcDbCircle
 10
-155.5475673254675
 20
278.83612535973685
 30
0.0
 40
1.9998779296875
  0
HATCH
  5
8C
100
AcDbEntity
  8
0
370
              -2
390
0
  6
Continuous
 62
               0
100
AcDbHatch
 10
0.0
 20
0.0
 30
0.0
210
0.0
220
0.0
230
1.0
  2
SOLID
 70
               1
 71
               1
 91
        1
 92
        1
 93
        1
 72
               2
 10
-155.5475673254675
 20
278.83612535973685
 40
1.9998779296875
 50
0.0
 51
360.0
 73
               0
 97
        1
330
8B
 75
               0
 76
               1
 98
        1
 10
0.0
 20
0.0
  0
CIRCLE
  5
8D
102
{ACAD_REACTORS
330
8E
102
}
100
AcDbEntity
  8
0
370
              -2
390
0
  6
Continuous
 62
               0
100
AcDbCircle
 10
-685.54756732546753
 20
278.83612535973685
 30
0.0
 40
1.9998779296875
  0
HATCH
  5
8E
100
AcDbEntity
  8
0
370
              -2
390
0
  6
Continuous
 62
               0
100
AcDbHatch
 10
0.0
 20
0.0
 30
0.0
210
0.0
220
0.0
230
1.0
  2
SOLID
 70
               1
 71
               1
 91
        1
 92
        1
 93
        1
 72
               2
 10
-685.54756732546753
 20
278.83612535973685
 40
1.9998779296875
 50
0.0
 51
360.0
 73
               0
 97
        1
330
8D
 75
               0
 76
               1
 98
        1
 10
0.0
 20
0.0
  0
MTEXT
  5
8F
100
AcDbEntity
  8
0
390
0
 62
               0
100
AcDbMText
 10
-444.36006900764312
 20
312.71374254723685
 30
0.0
 40
24.432617187500004
 41
0.0
 71
               1
 72
               1
  1
530
  7
ＭＳ ゴシック
 73
               1
 44
0.7828267384257843
  0
POINT
  5
90
100
AcDbEntity
  8
Defpoints
370
               0
390
0
 62
               0
100
AcDbPoint
 10
-685.54756732546753
 20
386.05084792569374
 30
0.0
  0
POINT
  5
91
100
AcDbEntity
  8
Defpoints
370
               0
390
0
 62
               0
100
AcDbPoint
 10
-155.5475673254675
 20
387.07725891143303
 30
0.0
  0
POINT
  5
92
100
AcDbEntity
  8
Defpoints
370
               0
390
0
 62
               0
100
AcDbPoint
 10
-155.5475673254675
 20
278.83612535973685
 30
0.0
  0
ENDBLK
  5
93
100
AcDbEntity
  8
notes
390
0
100
AcDbBlockEnd
  0
BLOCK
  5
94
100
AcDbEntity
  8
notes
390
0
100
AcDbBlockBegin
  2
*D7
 70
               1
 10
0.0
 20
0.0
 30
0.0
  3
*D7
  1

  0
LINE
  5
95
100
AcDbEntity
  8
0
370
              -2
390
0
  6
Continuous
 62
               0
100
AcDbLine
 10
834.580383313732
 20
-362.08607252381648
 30
0.0
 11
834.580383313732
 21
-287.08607252381648
 31
0.0
  0
LINE
  5
96
100
AcDbEntity
  8
0
370
              -2
390
0
  6
Continuous
 62
               0
100
AcDbLine
 10
759.580383313732
 20
-406.08607252381648
 30
0.0
 11
759.580383313732
 21
-287.08607252381648
 31
0.0
  0
LINE
  5
97
100
AcDbEntity
  8
0
370
              -2
390
0
  6
Continuous
 62
               0
100
AcDbLine
 10
834.580383313732
 20
-287.08607252381648
 30
0.0
 11
759.580383313732
 21
-287.08607252381648
 31
0.0
  0
CIRCLE
  5
98
102
{ACAD_REACTORS
330
99
102
}
100
AcDbEntity
  8
0
370
              -2
390
0
  6
Continuous
 62
               0
100
AcDbCircle
 10
834.580383313732
 20
-287.08607252381648
 30
0.0
 40
1.9998779296875
  0
HATCH
  5
99
100
AcDbEntity
  8
0
370
              -2
390
0
  6
Continuous
 62
               0
100
AcDbHatch
 10
0.0
 20
0.0
 30
0.0
210
0.0
220
0.0
230
1.0
  2
SOLID
 70
               1
 71
               1
 91
        1
 92
        1
 93
        1
 72
               2
 10
834.580383313732
 20
-287.08607252381648
 40
1.9998779296875
 50
0.0
 51
360.0
 73
               0
 97
        1
330
98
 75
               0
 76
               1
 98
        1
 10
0.0
 20
0.0
  0
CIRCLE
  5
9A
102
{ACAD_REACTORS
330
9B
102
}
100
AcDbEntity
  8
0
370
              -2
390
0
  6
Continuous
 62
               0
100
AcDbCircle
 10
759.580383313732
 20
-287.08607252381648
 30
0.0
 40
1.9998779296875
  0
HATCH
  5
9B
100
AcDbEntity
  8
0
370
              -2
390
0
  6
Continuous
 62
               0
100
AcDbHatch
 10
0.0
 20
0.0
 30
0.0
210
0.0
220
0.0
230
1.0
  2
SOLID
 70
               1
 71
               1
 91
        1
 92
        1
 93
        1
 72
               2
 10
759.580383313732
 20
-287.08607252381648
 40
1.9998779296875
 50
0.0
 51
360.0
 73
               0
 97
        1
330
9A
 75
               0
 76
               1
 98
        1
 10
0.0
 20
0.0
  0
MTEXT
  5
9C
100
AcDbEntity
  8
0
390
0
 62
               0
100
AcDbMText
 10
787.49484464851571
 20
-253.20845533631649
 30
0.0
 40
24.432617187500004
 41
0.0
 71
               1
 72
               1
  1
75
  7
ＭＳ ゴシック
 73
               1
 44
0.7828267384257843
  0
POINT
  5
9D
100
AcDbEntity
  8
Defpoints
370
               0
390
0
 62
               0
100
AcDbPoint
 10
759.580383313732
 20
-431.08607252381648
 30
0.0
  0
POINT
  5
9E
100
AcDbEntity
  8
Defpoints
370
               0
390
0
 62
               0
100
AcDbPoint
 10
834.580383313732
 20
-387.08607252381648
 30
0.0
  0
POINT
  5
9F
100
AcDbEntity
  8
Defpoints
370
               0
390
0
 62
               0
100
AcDbPoint
 10
834.580383313732
 20
-287.08607252381648
 30
0.0
  0
ENDBLK
  5
A0
100
AcDbEntity
  8
notes
390
0
100
AcDbBlockEnd
  0
BLOCK
  5
A1
100
AcDbEntity
  8
notes
390
0
100
AcDbBlockBegin
  2
*D8
 70
               1
 10
0.0
 20
0.0
 30
0.0
  3
*D8
  1

  0
LINE
  5
A2
100
AcDbEntity
  8
0
370
              -2
390
0
  6
Continuous
 62
               0
100
AcDbLine
 10
637.58044043171003
 20
-422.08607252381648
 30
0.0
 11
613.35394312360631
 21
-422.08607252381648
 31
0.0
  0
LINE
  5
A3
100
AcDbEntity
  8
0
370
              -2
390
0
  6
Continuous
 62
               0
100
AcDbLine
 10
637.58044043171003
 20
-562.08607252381739
 30
0.0
 11
613.35394312360631
 21
-562.08607252381739
 31
0.0
  0
LINE
  5
A4
100
AcDbEntity
  8
0
370
              -2
390
0
  6
Continuous
 62
               0
100
AcDbLine
 10
613.35394312360631
 20
-422.08607252381648
 30
0.0
 11
613.35394312360631
 21
-263.21107252381648
 31
0.0
  0
LINE
  5
A5
100
AcDbEntity
  8
0
370
              -2
390
0
  6
Continuous
 62
               0
100
AcDbLine
 10
613.35394312360631
 20
-422.08607252381648
 30
0.0
 11
613.35394312360631
 21
-562.08607252381739
 31
0.0
  0
CIRCLE
  5
A6
102
{ACAD_REACTORS
330
A7
102
}
100
AcDbEntity
  8
0
370
              -2
390
0
  6
Continuous
 62
               0
100
AcDbCircle
 10
613.35394312360631
 20
-422.08607252381648
 30
0.0
 40
1.9998779296875
  0
HATCH
  5
A7
100
AcDbEntity
  8
0
370
              -2
390
0
  6
Continuous
 62
               0
100
AcDbHatch
 10
0.0
 20
0.0
 30
0.0
210
0.0
220
0.0
230
1.0
  2
SOLID
 70
               1
 71
               1
 91
        1
 92
        1
 93
        1
 72
               2
 10
613.35394312360631
 20
-422.08607252381648
 40
1.9998779296875
 50
0.0
 51
360.0
 73
               0
 97
        1
330
A6
 75
               0
 76
               1
 98
        1
 10
0.0
 20
0.0
  0
CIRCLE
  5
A8
102
{ACAD_REACTORS
330
A9
102
}
100
AcDbEntity
  8
0
370
              -2
390
0
  6
Continuous
 62
               0
100
AcDbCircle
 10
613.35394312360631
 20
-562.08607252381739
 30
0.0
 40
1.9998779296875
  0
HATCH
  5
A9
100
AcDbEntity
  8
0
370
              -2
390
0
  6
Continuous
 62
               0
100
AcDbHatch
 10
0.0
 20
0.0
 30
0.0
210
0.0
220
0.0
230
1.0
  2
SOLID
 70
               1
 71
               1
 91
        1
 92
        1
 93
        1
 72
               2
 10
613.35394312360631
 20
-562.08607252381739
 40
1.9998779296875
 50
0.0
 51
360.0
 73
               0
 97
        1
330
A8
 75
               0
 76
               1
 98
        1
 10
0.0
 20
0.0
  0
MTEXT
  5
AA
100
AcDbEntity
  8
0
390
0
 62
               0
100
AcDbMText
 10
579.47632593610626
 20
-406.08607252381648
 30
0.0
 40
24.432617187500004
 41
0.0
 71
               1
 72
               1
  1
140(深さ)
  7
ＭＳ ゴシック
 11
0.0
 21
1.0
 31
0.0
 73
               1
 44
0.7828267384257843
  0
POINT
  5
AB
100
AcDbEntity
  8
Defpoints
370
               0
390
0
 62
               0
100
AcDbPoint
 10
612.58044043171003
 20
-562.08607252381739
 30
0.0
  0
POINT
  5
AC
100
AcDbEntity
  8
Defpoints
370
               0
390
0
 62
               0
100
AcDbPoint
 10
612.58044043171003
 20
-422.08607252381648
 30
0.0
  0
POINT
  5
AD
100
AcDbEntity
  8
Defpoints
370
               0
390
0
 62
               0
100
AcDbPoint
 10
613.35394312360631
 20
-422.08607252381648
 30
0.0
  0
ENDBLK
  5
AE
100
AcDbEntity
  8
notes
390
0
100
AcDbBlockEnd
  0
BLOCK
  5
AF
100
AcDbEntity
  8
notes
390
0
100
AcDbBlockBegin
  2
*D9
 70
               1
 10
0.0
 20
0.0
 30
0.0
  3
*D9
  1

  0
LINE
  5
B0
100
AcDbEntity
  8
0
370
              -2
390
0
  6
Continuous
 62
               0
100
AcDbLine
 10
-280.54756732546753
 20
-441.58607252381648
 30
0.0
 11
-280.54756732546753
 21
-287.08607252381654
 31
0.0
  0
LINE
  5
B1
100
AcDbEntity
  8
0
370
              -2
390
0
  6
Continuous
 62
               0
100
AcDbLine
 10
-560.54756732546753
 20
-441.58607252381648
 30
0.0
 11
-560.54756732546753
 21
-287.08607252381654
 31
0.0
  0
LINE
  5
B2
100
AcDbEntity
  8
0
370
              -2
390
0
  6
Continuous
 62
               0
100
AcDbLine
 10
-280.54756732546753
 20
-287.08607252381654
 30
0.0
 11
-560.54756732546753
 21
-287.08607252381654
 31
0.0
  0
CIRCLE
  5
B3
102
{ACAD_REACTORS
330
B4
102
}
100
AcDbEntity
  8
0
370
              -2
390
0
  6
Continuous
 62
               0
100
AcDbCircle
 10
-280.54756732546753
 20
-287.08607252381654
 30
0.0
 40
1.9998779296875
  0
HATCH
  5
B4
100
AcDbEntity
  8
0
370
              -2
390
0
  6
Continuous
 62
               0
100
AcDbHatch
 10
0.0
 20
0.0
 30
0.0
210
0.0
220
0.0
230
1.0
  2
SOLID
 70
               1
 71
               1
 91
        1
 92
        1
 93
        1
 72
               2
 10
-280.54756732546753
 20
-287.08607252381654
 40
1.9998779296875
 50
0.0
 51
360.0
 73
               0
 97
        1
330
B3
 75
               0
 76
               1
 98
        1
 10
0.0
 20
0.0
  0
CIRCLE
  5
B5
102
{ACAD_REACTORS
330
B6
102
}
100
AcDbEntity
  8
0
370
              -2
390
0
  6
Continuous
 62
               0
100
AcDbCircle
 10
-560.54756732546753
 20
-287.08607252381654
 30
0.0
 40
1.9998779296875
  0
HATCH
  5
B6
100
AcDbEntity
  8
0
370
              -2
390
0
  6
Continuous
 62
               0
100
AcDbHatch
 10
0.0
 20
0.0
 30
0.0
210
0.0
220
0.0
230
1.0
  2
SOLID
 70
               1
 71
               1
 91
        1
 92
        1
 93
        1
 72
               2
 10
-560.54756732546753
 20
-287.08607252381654
 40
1.9998779296875
 50
0.0
 51
360.0
 73
               0
 97
        1
330
B5
 75
               0
 76
               1
 98
        1
 10
0.0
 20
0.0
  0
MTEXT
  5
B7
100
AcDbEntity
  8
0
390
0
 62
               0
100
AcDbMText
 10
-444.36006900764312
 20
-253.20845533631655
 30
0.0
 40
24.432617187500004
 41
0.0
 71
               1
 72
               1
  1
280
  7
ＭＳ ゴシック
 73
               1
 44
0.7828267384257843
  0
POINT
  5
B8
100
AcDbEntity
  8
Defpoints
370
               0
390
0
 62
               0
100
AcDbPoint
 10
-560.54756732546753
 20
-466.58607252381648
 30
0.0
  0
POINT
  5
B9
100
AcDbEntity
  8
Defpoints
370
               0
390
0
 62
               0
100
AcDbPoint
 10
-280.54756732546753
 20
-466.58607252381648
 30
0.0
  0
POINT
  5
BA
100
AcDbEntity
  8
Defpoints
370
               0
390
0
 62
               0
100
AcDbPoint
 10
-280.54756732546753
 20
-287.08607252381654
 30
0.0
  0
ENDBLK
  5
BB
100
AcDbEntity
  8
notes
390
0
100
AcDbBlockEnd
  0
BLOCK
  5
BC
100
AcDbEntity
  8
notes
390
0
100
AcDbBlockBegin
  2
*D10
 70
               1
 10
0.0
 20
0.0
 30
0.0
  3
*D10
  1

  0
LINE
  5
BD
100
AcDbEntity
  8
0
370
              -2
390
0
  6
Continuous
 62
               0
100
AcDbLine
 10
-100.5475673254675
 20
828.83612535973498
 30
0.0
 11
-20.547567325467497
 21
828.83612535973498
 31
0.0
  0
LINE
  5
BE
100
AcDbEntity
  8
0
370
              -2
390
0
  6
Continuous
 62
               0
100
AcDbLine
 10
-267.5002108544976
 20
378.8313434982278
 30
0.0
 11
-20.547567325467497
 21
378.8313434982278
 31
0.0
  0
LINE
  5
BF
100
AcDbEntity
  8
0
370
              -2
390
0
  6
Continuous
 62
               0
100
AcDbLine
 10
-20.547567325467497
 20
828.83612535973498
 30
0.0
 11
-20.547567325467497
 21
378.8313434982278
 31
0.0
  0
CIRCLE
  5
C0
102
{ACAD_REACTORS
330
C1
102
}
100
AcDbEntity
  8
0
370
              -2
390
0
  6
Continuous
 62
               0
100
AcDbCircle
 10
-20.547567325467497
 20
828.83612535973498
 30
0.0
 40
1.9998779296875
  0
HATCH
  5
C1
100
AcDbEntity
  8
0
370
              -2
390
0
  6
Continuous
 62
               0
100
AcDbHatch
 10
0.0
 20
0.0
 30
0.0
210
0.0
220
0.0
230
1.0
  2
SOLID
 70
               1
 71
               1
 91
        1
 92
        1
 93
        1
 72
               2
 10
-20.547567325467497
 20
828.83612535973498
 40
1.9998779296875
 50
0.0
 51
360.0
 73
               0
 97
        1
330
C0
 75
               0
 76
               1
 98
        1
 10
0.0
 20
0.0
  0
CIRCLE
  5
C2
102
{ACAD_REACTORS
330
C3
102
}
100
AcDbEntity
  8
0
370
              -2
390
0
  6
Continuous
 62
               0
100
AcDbCircle
 10
-20.547567325467497
 20
378.8313434982278
 30
0.0
 40
1.9998779296875
  0
HATCH
  5
C3
100
AcDbEntity
  8
0
370
              -2
390
0
  6
Continuous
 62
               0
100
AcDbHatch
 10
0.0
 20
0.0
 30
0.0
210
0.0
220
0.0
230
1.0
  2
SOLID
 70
               1
 71
               1
 91
        1
 92
        1
 93
        1
 72
               2
 10
-20.547567325467497
 20
378.8313434982278
 40
1.9998779296875
 50
0.0
 51
360.0
 73
               0
 97
        1
330
C2
 75
               0
 76
               1
 98
        1
 10
0.0
 20
0.0
  0
MTEXT
  5
C4
100
AcDbEntity
  8
0
390
0
 62
               0
100
AcDbMText
 10
-54.425184512967512
 20
580.02123274680594
 30
0.0
 40
24.432617187500004
 41
0.0
 71
               1
 72
               1
  1
450
  7
ＭＳ ゴシック
 11
0.0
 21
1.0
 31
0.0
 73
               1
 44
0.7828267384257843
  0
POINT
  5
C5
100
AcDbEntity
  8
Defpoints
370
               0
390
0
 62
               0
100
AcDbPoint
 10
-292.5002108544976
 20
378.8313434982278
 30
0.0
  0
POINT
  5
C6
100
AcDbEntity
  8
Defpoints
370
               0
390
0
 62
               0
100
AcDbPoint
 10
-125.5475673254675
 20
828.83612535973498
 30
0.0
  0
POINT
  5
C7
100
AcDbEntity
  8
Defpoints
370
               0
390
0
 62
               0
100
AcDbPoint
 10
-20.547567325467497
 20
828.83612535973498
 30
0.0
  0
ENDBLK
  5
C8
100
AcDbEntity
  8
notes
390
0
100
AcDbBlockEnd
  0
BLOCK
  5
C9
100
AcDbEntity
  8
notes
390
0
100
AcDbBlockBegin
  2
*D11
 70
               1
 10
0.0
 20
0.0
 30
0.0
  3
*D11
  1

  0
LINE
  5
CA
100
AcDbEntity
  8
0
370
              -2
390
0
  6
Continuous
 62
               0
100
AcDbLine
 10
-745.63378308748372
 20
413.83612535973685
 30
0.0
 11
-820.54756732546764
 21
413.83612535973685
 31
0.0
  0
LINE
  5
CB
100
AcDbEntity
  8
0
370
              -2
390
0
  6
Continuous
 62
               0
100
AcDbLine
 10
-745.54756732546764
 20
688.83612535973589
 30
0.0
 11
-820.54756732546764
 21
688.83612535973589
 31
0.0
  0
LINE
  5
CC
100
AcDbEntity
  8
0
370
              -2
390
0
  6
Continuous
 62
               0
100
AcDbLine
 10
-820.54756732546764
 20
413.83612535973685
 30
0.0
 11
-820.54756732546764
 21
688.83612535973589
 31
0.0
  0
CIRCLE
  5
CD
102
{ACAD_REACTORS
330
CE
102
}
100
AcDbEntity
  8
0
370
              -2
390
0
  6
Continuous
 62
               0
100
AcDbCircle
 10
-820.54756732546764
 20
413.83612535973685
 30
0.0
 40
1.9998779296875
  0
HATCH
  5
CE
100
AcDbEntity
  8
0
370
              -2
390
0
  6
Continuous
 62
               0
100
AcDbHatch
 10
0.0
 20
0.0
 30
0.0
210
0.0
220
0.0
230
1.0
  2
SOLID
 70
               1
 71
               1
 91
        1
 92
        1
 93
        1
 72
               2
 10
-820.54756732546764
 20
413.83612535973685
 40
1.9998779296875
 50
0.0
 51
360.0
 73
               0
 97
        1
330
CD
 75
               0
 76
               1
 98
        1
 10
0.0
 20
0.0
  0
CIRCLE
  5
CF
102
{ACAD_REACTORS
330
D0
102
}
100
AcDbEntity
  8
0
370
              -2
390
0
  6
Continuous
 62
               0
100
AcDbCircle
 10
-820.54756732546764
 20
688.83612535973589
 30
0.0
 40
1.9998779296875
  0
HATCH
  5
D0
100
AcDbEntity
  8
0
370
              -2
390
0
  6
Continuous
 62
               0
100
AcDbHatch
 10
0.0
 20
0.0
 30
0.0
210
0.0
220
0.0
230
1.0
  2
SOLID
 70
               1
 71
               1
 91
        1
 92
        1
 93
        1
 72
               2
 10
-820.54756732546764
 20
688.83612535973589
 40
1.9998779296875
 50
0.0
 51
360.0
 73
               0
 97
        1
330
CF
 75
               0
 76
               1
 98
        1
 10
0.0
 20
0.0
  0
MTEXT
  5
D1
100
AcDbEntity
  8
0
390
0
 62
               0
100
AcDbMText
 10
-854.42518451296769
 20
527.52362367756086
 30
0.0
 40
24.432617187500004
 41
0.0
 71
               1
 72
               1
  1
275
  7
ＭＳ ゴシック
 11
0.0
 21
1.0
 31
0.0
 73
               1
 44
0.7828267384257843
  0
POINT
  5
D2
100
AcDbEntity
  8
Defpoints
370
               0
390
0
 62
               0
100
AcDbPoint
 10
-720.54756732546764
 20
688.83612535973589
 30
0.0
  0
POINT
  5
D3
100
AcDbEntity
  8
Defpoints
370
               0
390
0
 62
               0
100
AcDbPoint
 10
-720.63378308748372
 20
413.83612535973685
 30
0.0
  0
POINT
  5
D4
100
AcDbEntity
  8
Defpoints
370
               0
390
0
 62
               0
100
AcDbPoint
 10
-820.54756732546764
 20
413.83612535973685
 30
0.0
  0
ENDBLK
  5
D5
100
AcDbEntity
  8
notes
390
0
100
AcDbBlockEnd
  0
BLOCK
  5
D6
100
AcDbEntity
  8
notes
390
0
100
AcDbBlockBegin
  2
*D12
 70
               1
 10
0.0
 20
0.0
 30
0.0
  3
*D12
  1

  0
LINE
  5
D7
100
AcDbEntity
  8
0
370
              -2
390
0
  6
Continuous
 62
               0
100
AcDbLine
 10
-745.54756732546764
 20
688.83612535973498
 30
0.0
 11
-820.54756732546775
 21
688.83612535973498
 31
0.0
  0
LINE
  5
D8
100
AcDbEntity
  8
0
370
              -2
390
0
  6
Continuous
 62
               0
100
AcDbLine
 10
-740.54756732546764
 20
828.83612535973498
 30
0.0
 11
-820.54756732546775
 21
828.83612535973498
 31
0.0
  0
LINE
  5
D9
100
AcDbEntity
  8
0
370
              -2
390
0
  6
Continuous
 62
               0
100
AcDbLine
 10
-820.54756732546775
 20
688.83612535973498
 30
0.0
 11
-820.54756732546775
 21
828.83612535973498
 31
0.0
  0
CIRCLE
  5
DA
102
{ACAD_REACTORS
330
DB
102
}
100
AcDbEntity
  8
0
370
              -2
390
0
  6
Continuous
 62
               0
100
AcDbCircle
 10
-820.54756732546775
 20
688.83612535973498
 30
0.0
 40
1.9998779296875
  0
HATCH
  5
DB
100
AcDbEntity
  8
0
370
              -2
390
0
  6
Continuous
 62
               0
100
AcDbHatch
 10
0.0
 20
0.0
 30
0.0
210
0.0
220
0.0
230
1.0
  2
SOLID
 70
               1
 71
               1
 91
        1
 92
        1
 93
        1
 72
               2
 10
-820.54756732546775
 20
688.83612535973498
 40
1.9998779296875
 50
0.0
 51
360.0
 73
               0
 97
        1
330
DA
 75
               0
 76
               1
 98
        1
 10
0.0
 20
0.0
  0
CIRCLE
  5
DC
102
{ACAD_REACTORS
330
DD
102
}
100
AcDbEntity
  8
0
370
              -2
390
0
  6
Continuous
 62
               0
100
AcDbCircle
 10
-820.54756732546775
 20
828.83612535973498
 30
0.0
 40
1.9998779296875
  0
HATCH
  5
DD
100
AcDbEntity
  8
0
370
              -2
390
0
  6
Continuous
 62
               0
100
AcDbHatch
 10
0.0
 20
0.0
 30
0.0
210
0.0
220
0.0
230
1.0
  2
SOLID
 70
               1
 71
               1
 91
        1
 92
        1
 93
        1
 72
               2
 10
-820.54756732546775
 20
828.83612535973498
 40
1.9998779296875
 50
0.0
 51
360.0
 73
               0
 97
        1
330
DC
 75
               0
 76
               1
 98
        1
 10
0.0
 20
0.0
  0
MTEXT
  5
DE
100
AcDbEntity
  8
0
390
0
 62
               0
100
AcDbMText
 10
-854.4251845129678
 20
735.0236236775595
 30
0.0
 40
24.432617187500004
 41
0.0
 71
               1
 72
               1
  1
140
  7
ＭＳ ゴシック
 11
0.0
 21
1.0
 31
0.0
 73
               1
 44
0.7828267384257843
  0
POINT
  5
DF
100
AcDbEntity
  8
Defpoints
370
               0
390
0
 62
               0
100
AcDbPoint
 10
-715.54756732546764
 20
828.83612535973498
 30
0.0
  0
POINT
  5
E0
100
AcDbEntity
  8
Defpoints
370
               0
390
0
 62
               0
100
AcDbPoint
 10
-720.54756732546764
 20
688.83612535973498
 30
0.0
  0
POINT
  5
E1
100
AcDbEntity
  8
Defpoints
370
               0
390
0
 62
               0
100
AcDbPoint
 10
-820.54756732546775
 20
688.83612535973498
 30
0.0
  0
ENDBLK
  5
E2
100
AcDbEntity
  8
notes
390
0
100
AcDbBlockEnd
  0
BLOCK
  5
E3
100
AcDbEntity
  8
notes
390
0
100
AcDbBlockBegin
  2
*D13
 70
               1
 10
0.0
 20
0.0
 30
0.0
  3
*D13
  1

  0
LINE
  5
E4
100
AcDbEntity
  8
0
370
              -2
390
0
  6
Continuous
 62
               0
100
AcDbLine
 10
366.580383313732
 20
-422.08607252381648
 30
0.0
 11
284.580383313732
 21
-422.08607252381648
 31
0.0
  0
LINE
  5
E5
100
AcDbEntity
  8
0
370
              -2
390
0
  6
Continuous
 62
               0
100
AcDbLine
 10
496.81641862677384
 20
-582.08607252381694
 30
0.0
 11
284.580383313732
 21
-582.08607252381694
 31
0.0
  0
LINE
  5
E6
100
AcDbEntity
  8
0
370
              -2
390
0
  6
Continuous
 62
               0
100
AcDbLine
 10
284.580383313732
 20
-422.08607252381648
 30
0.0
 11
284.580383313732
 21
-582.08607252381694
 31
0.0
  0
CIRCLE
  5
E7
102
{ACAD_REACTORS
330
E8
102
}
100
AcDbEntity
  8
0
370
              -2
390
0
  6
Continuous
 62
               0
100
AcDbCircle
 10
284.580383313732
 20
-422.08607252381648
 30
0.0
 40
1.9998779296875
  0
HATCH
  5
E8
100
AcDbEntity
  8
0
370
              -2
390
0
  6
Continuous
 62
               0
100
AcDbHatch
 10
0.0
 20
0.0
 30
0.0
210
0.0
220
0.0
230
1.0
  2
SOLID
 70
               1
 71
               1
 91
        1
 92
        1
 93
        1
 72
               2
 10
284.580383313732
 20
-422.08607252381648
 40
1.9998779296875
 50
0.0
 51
360.0
 73
               0
 97
        1
330
E7
 75
               0
 76
               1
 98
        1
 10
0.0
 20
0.0
  0
CIRCLE
  5
E9
102
{ACAD_REACTORS
330
EA
102
}
100
AcDbEntity
  8
0
370
              -2
390
0
  6
Continuous
 62
               0
100
AcDbCircle
 10
284.580383313732
 20
-582.08607252381694
 30
0.0
 40
1.9998779296875
  0
HATCH
  5
EA
100
AcDbEntity
  8
0
370
              -2
390
0
  6
Continuous
 62
               0
100
AcDbHatch
 10
0.0
 20
0.0
 30
0.0
210
0.0
220
0.0
230
1.0
  2
SOLID
 70
               1
 71
               1
 91
        1
 92
        1
 93
        1
 72
               2
 10
284.580383313732
 20
-582.08607252381694
 40
1.9998779296875
 50
0.0
 51
360.0
 73
               0
 97
        1
330
E9
 75
               0
 76
               1
 98
        1
 10
0.0
 20
0.0
  0
MTEXT
  5
EB
100
AcDbEntity
  8
0
390
0
 62
               0
100
AcDbMText
 10
250.70276612623198
 20
-525.89857420599219
 30
0.0
 40
24.432617187500004
 41
0.0
 71
               1
 72
               1
  1
160
  7
ＭＳ ゴシック
 11
0.0
 21
1.0
 31
0.0
 73
               1
 44
0.7828267384257843
  0
POINT
  5
EC
100
AcDbEntity
  8
Defpoints
370
               0
390
0
 62
               0
100
AcDbPoint
 10
521.81641862677384
 20
-582.08607252381694
 30
0.0
  0
POINT
  5
ED
100
AcDbEntity
  8
Defpoints
370
               0
390
0
 62
               0
100
AcDbPoint
 10
391.580383313732
 20
-422.08607252381648
 30
0.0
  0
POINT
  5
EE
100
AcDbEntity
  8
Defpoints
370
               0
390
0
 62
               0
100
AcDbPoint
 10
284.580383313732
 20
-422.08607252381648
 30
0.0
  0
ENDBLK
  5
EF
100
AcDbEntity
  8
notes
390
0
100
AcDbBlockEnd
  0
BLOCK
  5
F0
100
AcDbEntity
  8
notes
390
0
100
AcDbBlockBegin
  2
*D14
 70
               1
 10
0.0
 20
0.0
 30
0.0
  3
*D14
  1

  0
LINE
  5
F1
100
AcDbEntity
  8
0
370
              -2
390
0
  6
Continuous
 62
               0
100
AcDbLine
 10
507.0
 20
-582.08607252381694
 30
0.0
 11
284.580383313732
 21
-582.08607252381694
 31
0.0
  0
LINE
  5
F2
100
AcDbEntity
  8
0
370
              -2
390
0
  6
Continuous
 62
               0
100
AcDbLine
 10
562.08038331373314
 20
-612.08607252381739
 30
0.0
 11
284.580383313732
 21
-612.08607252381739
 31
0.0
  0
LINE
  5
F3
100
AcDbEntity
  8
0
370
              -2
390
0
  6
Continuous
 62
               0
100
AcDbLine
 10
284.580383313732
 20
-612.08607252381739
 30
0.0
 11
284.580383313732
 21
-655.6503605375292
 31
0.0
  0
LINE
  5
F4
100
AcDbEntity
  8
0
370
              -2
390
0
  6
Continuous
 62
               0
100
AcDbLine
 10
284.580383313732
 20
-582.08607252381694
 30
0.0
 11
284.580383313732
 21
-612.08607252381739
 31
0.0
  0
CIRCLE
  5
F5
102
{ACAD_REACTORS
330
F6
102
}
100
AcDbEntity
  8
0
370
              -2
390
0
  6
Continuous
 62
               0
100
AcDbCircle
 10
284.580383313732
 20
-582.08607252381694
 30
0.0
 40
1.9998779296875
  0
HATCH
  5
F6
100
AcDbEntity
  8
0
370
              -2
390
0
  6
Continuous
 62
               0
100
AcDbHatch
 10
0.0
 20
0.0
 30
0.0
210
0.0
220
0.0
230
1.0
  2
SOLID
 70
               1
 71
               1
 91
        1
 92
        1
 93
        1
 72
               2
 10
284.580383313732
 20
-582.08607252381694
 40
1.9998779296875
 50
0.0
 51
360.0
 73
               0
 97
        1
330
F5
 75
               0
 76
               1
 98
        1
 10
0.0
 20
0.0
  0
CIRCLE
  5
F7
102
{ACAD_REACTORS
330
F8
102
}
100
AcDbEntity
  8
0
370
              -2
390
0
  6
Continuous
 62
               0
100
AcDbCircle
 10
284.580383313732
 20
-612.08607252381739
 30
0.0
 40
1.9998779296875
  0
HATCH
  5
F8
100
AcDbEntity
  8
0
370
              -2
390
0
  6
Continuous
 62
               0
100
AcDbHatch
 10
0.0
 20
0.0
 30
0.0
210
0.0
220
0.0
230
1.0
  2
SOLID
 70
               1
 71
               1
 91
        1
 92
        1
 93
        1
 72
               2
 10
284.580383313732
 20
-612.08607252381739
 40
1.9998779296875
 50
0.0
 51
360.0
 73
               0
 97
        1
330
F7
 75
               0
 76
               1
 98
        1
 10
0.0
 20
0.0
  0
MTEXT
  5
F9
100
AcDbEntity
  8
0
390
0
 62
               0
100
AcDbMText
 10
250.70276612623198
 20
-655.6503605375292
 30
0.0
 40
24.432617187500004
 41
0.0
 71
               1
 72
               1
  1
30
  7
ＭＳ ゴシック
 11
0.0
 21
1.0
 31
0.0
 73
               1
 44
0.7828267384257843
  0
POINT
  5
FA
100
AcDbEntity
  8
Defpoints
370
               0
390
0
 62
               0
100
AcDbPoint
 10
587.08038331373314
 20
-612.08607252381739
 30
0.0
  0
POINT
  5
FB
100
AcDbEntity
  8
Defpoints
370
               0
390
0
 62
               0
100
AcDbPoint
 10
532.0
 20
-582.08607252381694
 30
0.0
  0
POINT
  5
FC
100
AcDbEntity
  8
Defpoints
370
               0
390
0
 62
               0
100
AcDbPoint
 10
284.580383313732
 20
-582.08607252381694
 30
0.0
  0
ENDBLK
  5
FD
100
AcDbEntity
  8
notes
390
0
100
AcDbBlockEnd
  0
BLOCK
  5
FE
100
AcDbEntity
  8
notes
390
0
100
AcDbBlockBegin
  2
*D15
 70
               1
 10
0.0
 20
0.0
 30
0.0
  3
*D15
  1

  0
LINE
  5
FF
100
AcDbEntity
  8
0
370
              -2
390
0
  6
Continuous
 62
               0
100
AcDbLine
 10
366.580383313732
 20
-422.08607252381648
 30
0.0
 11
284.580383313732
 21
-422.08607252381648
 31
0.0
  0
LINE
  5
100
100
AcDbEntity
  8
0
370
              -2
390
0
  6
Continuous
 62
               0
100
AcDbLine
 10
366.580383313732
 20
-387.08607252381648
 30
0.0
 11
284.580383313732
 21
-387.08607252381648
 31
0.0
  0
LINE
  5
101
100
AcDbEntity
  8
0
370
              -2
390
0
  6
Continuous
 62
               0
100
AcDbLine
 10
284.580383313732
 20
-422.08607252381648
 30
0.0
 11
284.580383313732
 21
-387.08607252381648
 31
0.0
  0
CIRCLE
  5
102
102
{ACAD_REACTORS
330
103
102
}
100
AcDbEntity
  8
0
370
              -2
390
0
  6
Continuous
 62
               0
100
AcDbCircle
 10
284.580383313732
 20
-422.08607252381648
 30
0.0
 40
1.9998779296875
  0
HATCH
  5
103
100
AcDbEntity
  8
0
370
              -2
390
0
  6
Continuous
 62
               0
100
AcDbHatch
 10
0.0
 20
0.0
 30
0.0
210
0.0
220
0.0
230
1.0
  2
SOLID
 70
               1
 71
               1
 91
        1
 92
        1
 93
        1
 72
               2
 10
284.580383313732
 20
-422.08607252381648
 40
1.9998779296875
 50
0.0
 51
360.0
 73
               0
 97
        1
330
102
 75
               0
 76
               1
 98
        1
 10
0.0
 20
0.0
  0
CIRCLE
  5
104
102
{ACAD_REACTORS
330
105
102
}
100
AcDbEntity
  8
0
370
              -2
390
0
  6
Continuous
 62
               0
100
AcDbCircle
 10
284.580383313732
 20
-387.08607252381648
 30
0.0
 40
1.9998779296875
  0
HATCH
  5
105
100
AcDbEntity
  8
0
370
              -2
390
0
  6
Continuous
 62
               0
100
AcDbHatch
 10
0.0
 20
0.0
 30
0.0
210
0.0
220
0.0
230
1.0
  2
SOLID
 70
               1
 71
               1
 91
        1
 92
        1
 93
        1
 72
               2
 10
284.580383313732
 20
-387.08607252381648
 40
1.9998779296875
 50
0.0
 51
360.0
 73
               0
 97
        1
330
104
 75
               0
 76
               1
 98
        1
 10
0.0
 20
0.0
  0
MTEXT
  5
106
100
AcDbEntity
  8
0
390
0
 62
               0
100
AcDbMText
 10
250.70276612623198
 20
-420.46107252381648
 30
0.0
 40
24.432617187500004
 41
0.0
 71
               1
 72
               1
  1
35
  7
ＭＳ ゴシック
 11
0.0
 21
1.0
 31
0.0
 73
               1
 44
0.7828267384257843
  0
POINT
  5
107
100
AcDbEntity
  8
Defpoints
370
               0
390
0
 62
               0
100
AcDbPoint
 10
391.580383313732
 20
-387.08607252381648
 30
0.0
  0
POINT
  5
108
100
AcDbEntity
  8
Defpoints
370
               0
390
0
 62
               0
100
AcDbPoint
 10
391.580383313732
 20
-422.08607252381648
 30
0.0
  0
POINT
  5
109
100
AcDbEntity
  8
Defpoints
370
               0
390
0
 62
               0
100
AcDbPoint
 10
284.580383313732
 20
-422.08607252381648
 30
0.0
  0
ENDBLK
  5
10A
100
AcDbEntity
  8
notes
390
0
100
AcDbBlockEnd
  0
BLOCK
  5
10B
100
AcDbEntity
  8
notes
390
0
100
AcDbBlockBegin
  2
*D16
 70
               1
 10
0.0
 20
0.0
 30
0.0
  3
*D16
  1

  0
LINE
  5
10C
100
AcDbEntity
  8
0
370
              -2
390
0
  6
Continuous
 62
               0
100
AcDbLine
 10
-102.54756732546755
 20
-387.08607252381648
 30
0.0
 11
-20.547567325467554
 21
-387.08607252381648
 31
0.0
  0
LINE
  5
10D
100
AcDbEntity
  8
0
370
              -2
390
0
  6
Continuous
 62
               0
100
AcDbLine
 10
-358.04756732546753
 20
-612.08607252381739
 30
0.0
 11
-20.547567325467554
 21
-612.08607252381739
 31
0.0
  0
LINE
  5
10E
100
AcDbEntity
  8
0
370
              -2
390
0
  6
Continuous
 62
               0
100
AcDbLine
 10
-20.547567325467554
 20
-387.08607252381648
 30
0.0
 11
-20.547567325467554
 21
-612.08607252381739
 31
0.0
  0
CIRCLE
  5
10F
102
{ACAD_REACTORS
330
110
102
}
100
AcDbEntity
  8
0
370
              -2
390
0
  6
Continuous
 62
               0
100
AcDbCircle
 10
-20.547567325467554
 20
-387.08607252381648
 30
0.0
 40
1.9998779296875
  0
HATCH
  5
110
100
AcDbEntity
  8
0
370
              -2
390
0
  6
Continuous
 62
               0
100
AcDbHatch
 10
0.0
 20
0.0
 30
0.0
210
0.0
220
0.0
230
1.0
  2
SOLID
 70
               1
 71
               1
 91
        1
 92
        1
 93
        1
 72
               2
 10
-20.547567325467554
 20
-387.08607252381648
 40
1.9998779296875
 50
0.0
 51
360.0
 73
               0
 97
        1
330
10F
 75
               0
 76
               1
 98
        1
 10
0.0
 20
0.0
  0
CIRCLE
  5
111
102
{ACAD_REACTORS
330
112
102
}
100
AcDbEntity
  8
0
370
              -2
390
0
  6
Continuous
 62
               0
100
AcDbCircle
 10
-20.547567325467554
 20
-612.08607252381739
 30
0.0
 40
1.9998779296875
  0
HATCH
  5
112
100
AcDbEntity
  8
0
370
              -2
390
0
  6
Continuous
 62
               0
100
AcDbHatch
 10
0.0
 20
0.0
 30
0.0
210
0.0
220
0.0
230
1.0
  2
SOLID
 70
               1
 71
               1
 91
        1
 92
        1
 93
        1
 72
               2
 10
-20.547567325467554
 20
-612.08607252381739
 40
1.9998779296875
 50
0.0
 51
360.0
 73
               0
 97
        1
330
111
 75
               0
 76
               1
 98
        1
 10
0.0
 20
0.0
  0
MTEXT
  5
113
100
AcDbEntity
  8
0
390
0
 62
               0
100
AcDbMText
 10
-54.425184512967569
 20
-523.39857420599242
 30
0.0
 40
24.432617187500004
 41
0.0
 71
               1
 72
               1
  1
225
  7
ＭＳ ゴシック
 11
0.0
 21
1.0
 31
0.0
 73
               1
 44
0.7828267384257843
  0
POINT
  5
114
100
AcDbEntity
  8
Defpoints
370
               0
390
0
 62
               0
100
AcDbPoint
 10
-383.04756732546753
 20
-612.08607252381739
 30
0.0
  0
POINT
  5
115
100
AcDbEntity
  8
Defpoints
370
               0
390
0
 62
               0
100
AcDbPoint
 10
-127.54756732546755
 20
-387.08607252381648
 30
0.0
  0
POINT
  5
116
100
AcDbEntity
  8
Defpoints
370
               0
390
0
 62
               0
100
AcDbPoint
 10
-20.547567325467554
 20
-387.08607252381648
 30
0.0
  0
ENDBLK
  5
117
100
AcDbEntity
  8
notes
390
0
100
AcDbBlockEnd
  0
BLOCK
  5
118
100
AcDbEntity
  8
notes
390
0
100
AcDbBlockBegin
  2
*D17
 70
               1
 10
0.0
 20
0.0
 30
0.0
  3
*D17
  1

  0
LINE
  5
119
100
AcDbEntity
  8
0
370
              -2
390
0
  6
Continuous
 62
               0
100
AcDbLine
 10
-606.04756732546753
 20
-487.08607252381677
 30
0.0
 11
-832.26454281394354
 21
-487.08607252381677
 31
0.0
  0
LINE
  5
11A
100
AcDbEntity
  8
0
370
              -2
390
0
  6
Continuous
 62
               0
100
AcDbLine
 10
-738.54756732546753
 20
-387.08607252381648
 30
0.0
 11
-832.26454281394354
 21
-387.08607252381648
 31
0.0
  0
LINE
  5
11B
100
AcDbEntity
  8
0
370
              -2
390
0
  6
Continuous
 62
               0
100
AcDbLine
 10
-832.26454281394354
 20
-487.08607252381677
 30
0.0
 11
-832.26454281394354
 21
-387.08607252381648
 31
0.0
  0
CIRCLE
  5
11C
102
{ACAD_REACTORS
330
11D
102
}
100
AcDbEntity
  8
0
370
              -2
390
0
  6
Continuous
 62
               0
100
AcDbCircle
 10
-832.26454281394354
 20
-487.08607252381677
 30
0.0
 40
1.9998779296875
  0
HATCH
  5
11D
100
AcDbEntity
  8
0
370
              -2
390
0
  6
Continuous
 62
               0
100
AcDbHatch
 10
0.0
 20
0.0
 30
0.0
210
0.0
220
0.0
230
1.0
  2
SOLID
 70
               1
 71
               1
 91
        1
 92
        1
 93
        1
 72
               2
 10
-832.26454281394354
 20
-487.08607252381677
 40
1.9998779296875
 50
0.0
 51
360.0
 73
               0
 97
        1
330
11C
 75
               0
 76
               1
 98
        1
 10
0.0
 20
0.0
  0
CIRCLE
  5
11E
102
{ACAD_REACTORS
330
11F
102
}
100
AcDbEntity
  8
0
370
              -2
390
0
  6
Continuous
 62
               0
100
AcDbCircle
 10
-832.26454281394354
 20
-387.08607252381648
 30
0.0
 40
1.9998779296875
  0
HATCH
  5
11F
100
AcDbEntity
  8
0
370
              -2
390
0
  6
Continuous
 62
               0
100
AcDbHatch
 10
0.0
 20
0.0
 30
0.0
210
0.0
220
0.0
230
1.0
  2
SOLID
 70
               1
 71
               1
 91
        1
 92
        1
 93
        1
 72
               2
 10
-832.26454281394354
 20
-387.08607252381648
 40
1.9998779296875
 50
0.0
 51
360.0
 73
               0
 97
        1
330
11E
 75
               0
 76
               1
 98
        1
 10
0.0
 20
0.0
  0
MTEXT
  5
120
100
AcDbEntity
  8
0
390
0
 62
               0
100
AcDbMText
 10
-866.14216000144359
 20
-460.89857420599208
 30
0.0
 40
24.432617187500004
 41
0.0
 71
               1
 72
               1
  1
100
  7
ＭＳ ゴシック
 11
0.0
 21
1.0
 31
0.0
 73
               1
 44
0.7828267384257843
  0
POINT
  5
121
100
AcDbEntity
  8
Defpoints
370
               0
390
0
 62
               0
100
AcDbPoint
 10
-713.54756732546753
 20
-387.08607252381648
 30
0.0
  0
POINT
  5
122
100
AcDbEntity
  8
Defpoints
370
               0
390
0
 62
               0
100
AcDbPoint
 10
-581.04756732546753
 20
-487.08607252381677
 30
0.0
  0
POINT
  5
123
100
AcDbEntity
  8
Defpoints
370
               0
390
0
 62
               0
100
AcDbPoint
 10
-832.26454281394354
 20
-487.08607252381677
 30
0.0
  0
ENDBLK
  5
124
100
AcDbEntity
  8
notes
390
0
100
AcDbBlockEnd
  0
BLOCK
  5
125
100
AcDbEntity
  8
notes
390
0
100
AcDbBlockBegin
  2
*D18
 70
               1
 10
0.0
 20
0.0
 30
0.0
  3
*D18
  1

  0
LINE
  5
126
100
AcDbEntity
  8
0
370
              -2
390
0
  6
Continuous
 62
               0
100
AcDbLine
 10
624.58038331373314
 20
-637.08607252381739
 30
0.0
 11
624.58038331373314
 21
-712.08607252381739
 31
0.0
  0
LINE
  5
127
100
AcDbEntity
  8
0
370
              -2
390
0
  6
Continuous
 62
               0
100
AcDbLine
 10
834.580383313732
 20
-607.08607252381785
 30
0.0
 11
834.580383313732
 21
-712.08607252381739
 31
0.0
  0
LINE
  5
128
100
AcDbEntity
  8
0
370
              -2
390
0
  6
Continuous
 62
               0
100
AcDbLine
 10
624.58038331373314
 20
-712.08607252381739
 30
0.0
 11
834.580383313732
 21
-712.08607252381739
 31
0.0
  0
CIRCLE
  5
129
102
{ACAD_REACTORS
330
12A
102
}
100
AcDbEntity
  8
0
370
              -2
390
0
  6
Continuous
 62
               0
100
AcDbCircle
 10
624.58038331373314
 20
-712.08607252381739
 30
0.0
 40
1.9998779296875
  0
HATCH
  5
12A
100
AcDbEntity
  8
0
370
              -2
390
0
  6
Continuous
 62
               0
100
AcDbHatch
 10
0.0
 20
0.0
 30
0.0
210
0.0
220
0.0
230
1.0
  2
SOLID
 70
               1
 71
               1
 91
        1
 92
        1
 93
        1
 72
               2
 10
624.58038331373314
 20
-712.08607252381739
 40
1.9998779296875
 50
0.0
 51
360.0
 73
               0
 97
        1
330
129
 75
               0
 76
               1
 98
        1
 10
0.0
 20
0.0
  0
CIRCLE
  5
12B
102
{ACAD_REACTORS
330
12C
102
}
100
AcDbEntity
  8
0
370
              -2
390
0
  6
Continuous
 62
               0
100
AcDbCircle
 10
834.580383313732
 20
-712.08607252381739
 30
0.0
 40
1.9998779296875
  0
HATCH
  5
12C
100
AcDbEntity
  8
0
370
              -2
390
0
  6
Continuous
 62
               0
100
AcDbHatch
 10
0.0
 20
0.0
 30
0.0
210
0.0
220
0.0
230
1.0
  2
SOLID
 70
               1
 71
               1
 91
        1
 92
        1
 93
        1
 72
               2
 10
834.580383313732
 20
-712.08607252381739
 40
1.9998779296875
 50
0.0
 51
360.0
 73
               0
 97
        1
330
12B
 75
               0
 76
               1
 98
        1
 10
0.0
 20
0.0
  0
MTEXT
  5
12D
100
AcDbEntity
  8
0
390
0
 62
               0
100
AcDbMText
 10
705.76788163155709
 20
-678.20845533631734
 30
0.0
 40
24.432617187500004
 41
0.0
 71
               1
 72
               1
  1
210
  7
ＭＳ ゴシック
 73
               1
 44
0.7828267384257843
  0
POINT
  5
12E
100
AcDbEntity
  8
Defpoints
370
               0
390
0
 62
               0
100
AcDbPoint
 10
834.580383313732
 20
-582.08607252381785
 30
0.0
  0
POINT
  5
12F
100
AcDbEntity
  8
Defpoints
370
               0
390
0
 62
               0
100
AcDbPoint
 10
624.58038331373314
 20
-612.08607252381739
 30
0.0
  0
POINT
  5
130
100
AcDbEntity
  8
Defpoints
370
               0
390
0
 62
               0
100
AcDbPoint
 10
624.58038331373314
 20
-712.08607252381739
 30
0.0
  0
ENDBLK
  5
131
100
AcDbEntity
  8
notes
390
0
100
AcDbBlockEnd
  0
BLOCK
  5
132
100
AcDbEntity
  8
notes
390
0
100
AcDbBlockBegin
  2
*D19
 70
               1
 10
0.0
 20
0.0
 30
0.0
  3
*D19
  1

  0
LINE
  5
133
100
AcDbEntity
  8
0
370
              -2
390
0
  6
Continuous
 62
               0
100
AcDbLine
 10
-408.17319865470301
 20
736.46175668897001
 30
0.0
 11
-299.0707530129115
 21
627.35931104717849
 31
0.0
  0
CIRCLE
  5
134
102
{ACAD_REACTORS
330
135
102
}
100
AcDbEntity
  8
0
370
              -2
390
0
  6
Continuous
 62
               0
100
AcDbCircle
 10
-408.17319865470301
 20
736.46175668897001
 30
0.0
 40
1.9998779296875
  0
HATCH
  5
135
100
AcDbEntity
  8
0
370
              -2
390
0
  6
Continuous
 62
               0
100
AcDbHatch
 10
0.0
 20
0.0
 30
0.0
210
0.0
220
0.0
230
1.0
  2
SOLID
 70
               1
 71
               1
 91
        1
 92
        1
 93
        1
 72
               2
 10
-408.17319865470301
 20
736.46175668897001
 40
1.9998779296875
 50
0.0
 51
360.0
 73
               0
 97
        1
330
134
 75
               0
 76
               1
 98
        1
 10
0.0
 20
0.0
  0
LINE
  5
136
100
AcDbEntity
  8
0
370
              -2
390
0
  6
Continuous
 62
               0
100
AcDbLine
 10
-299.0707530129115
 20
627.35931104717849
 30
0.0
 11
-175.57075301291147
 21
627.35931104717849
 31
0.0
  0
MTEXT
  5
137
100
AcDbEntity
  8
0
390
0
 62
               0
100
AcDbMText
 10
-239.07075301291147
 20
661.23692823467854
 30
0.0
 40
24.432617187500004
 41
0.0
 71
               1
 72
               1
  1
φ35
  7
ＭＳ ゴシック
 73
               1
 44
0.7828267384257843
  0
POINT
  5
138
100
AcDbEntity
  8
Defpoints
370
               0
390
0
 62
               0
100
AcDbPoint
 10
-432.92193599623215
 20
761.21049403049926
 30
0.0
  0
POINT
  5
139
100
AcDbEntity
  8
Defpoints
370
               0
390
0
 62
               0
100
AcDbPoint
 10
-408.17319865470301
 20
736.46175668897001
 30
0.0
  0
ENDBLK
  5
13A
100
AcDbEntity
  8
notes
390
0
100
AcDbBlockEnd
  0
BLOCK
  5
13B
100
AcDbEntity
  8
FAA70-2202
390
0
100
AcDbBlockBegin
  2
*D20
 70
               1
 10
0.0
 20
0.0
 30
0.0
  3
*D20
  1

  0
LINE
  5
13C
100
AcDbEntity
  8
0
370
              -2
390
0
  6
Continuous
 62
               0
100
AcDbLine
 10
740.0
 20
-422.08607252381648
 30
0.0
 11
724.67124981384336
 21
-422.08607252381648
 31
0.0
  0
LINE
  5
13D
100
AcDbEntity
  8
0
370
              -2
390
0
  6
Continuous
 62
               0
100
AcDbLine
 10
740.0
 20
-437.08607252381648
 30
0.0
 11
724.67124981384336
 21
-437.08607252381648
 31
0.0
  0
LINE
  5
13E
100
AcDbEntity
  8
0
370
              -2
390
0
  6
Continuous
 62
               0
100
AcDbLine
 10
724.67124981384336
 20
-422.08607252381648
 30
0.0
 11
724.67124981384336
 21
-367.25
 31
0.0
  0
LINE
  5
13F
100
AcDbEntity
  8
0
370
              -2
390
0
  6
Continuous
 62
               0
100
AcDbLine
 10
724.67124981384336
 20
-422.08607252381648
 30
0.0
 11
724.67124981384336
 21
-437.08607252381648
 31
0.0
  0
CIRCLE
  5
140
102
{ACAD_REACTORS
330
141
102
}
100
AcDbEntity
  8
0
370
              -2
390
0
  6
Continuous
 62
               0
100
AcDbCircle
 10
724.67124981384336
 20
-422.08607252381648
 30
0.0
 40
1.9998779296875
  0
HATCH
  5
141
100
AcDbEntity
  8
0
370
              -2
390
0
  6
Continuous
 62
               0
100
AcDbHatch
 10
0.0
 20
0.0
 30
0.0
210
0.0
220
0.0
230
1.0
  2
SOLID
 70
               1
 71
               1
 91
        1
 92
        1
 93
        1
 72
               2
 10
724.67124981384336
 20
-422.08607252381648
 40
1.9998779296875
 50
0.0
 51
360.0
 73
               0
 97
        1
330
140
 75
               0
 76
               1
 98
        1
 10
0.0
 20
0.0
  0
CIRCLE
  5
142
102
{ACAD_REACTORS
330
143
102
}
100
AcDbEntity
  8
0
370
              -2
390
0
  6
Continuous
 62
               0
100
AcDbCircle
 10
724.67124981384336
 20
-437.08607252381648
 30
0.0
 40
1.9998779296875
  0
HATCH
  5
143
100
AcDbEntity
  8
0
370
              -2
390
0
  6
Continuous
 62
               0
100
AcDbHatch
 10
0.0
 20
0.0
 30
0.0
210
0.0
220
0.0
230
1.0
  2
SOLID
 70
               1
 71
               1
 91
        1
 92
        1
 93
        1
 72
               2
 10
724.67124981384336
 20
-437.08607252381648
 40
1.9998779296875
 50
0.0
 51
360.0
 73
               0
 97
        1
330
142
 75
               0
 76
               1
 98
        1
 10
0.0
 20
0.0
  0
MTEXT
  5
144
100
AcDbEntity
  8
0
390
0
 62
               0
100
AcDbMText
 10
690.79363262634331
 20
-399.0
 30
0.0
 40
24.432617187500004
 41
0.0
 71
               1
 72
               1
  1
15
  7
ＭＳ ゴシック
 11
0.0
 21
1.0
 31
0.0
 73
               1
 44
0.7828267384257843
  0
POINT
  5
145
100
AcDbEntity
  8
Defpoints
370
               0
390
0
 62
               0
100
AcDbPoint
 10
715.0
 20
-437.08607252381648
 30
0.0
  0
POINT
  5
146
100
AcDbEntity
  8
Defpoints
370
               0
390
0
 62
               0
100
AcDbPoint
 10
715.0
 20
-422.08607252381648
 30
0.0
  0
POINT
  5
147
100
AcDbEntity
  8
Defpoints
370
               0
390
0
 62
               0
100
AcDbPoint
 10
724.67124981384336
 20
-422.08607252381648
 30
0.0
  0
ENDBLK
  5
148
100
AcDbEntity
  8
FAA70-2202
390
0
100
AcDbBlockEnd
  0
ENDSEC
  0
SECTION
  2
ENTITIES
  0
MTEXT
  5
149
100
AcDbEntity
  8
template
390
0
 62
               7
100
AcDbMText
 10
-967.99999999975921
 20
-1147.4176292337004
 30
0.0
 40
16.288411458333332
 41
0.0
 71
               1
 72
               1
  1
品名
  7
ＭＳ ゴシック
 73
               1
 44
0.7828267384257843
  0
MTEXT
  5
14A
100
AcDbEntity
  8
template
390
0
 62
               7
100
AcDbMText
 10
-967.99999999975921
 20
-1232.4176292337004
 30
0.0
 40
16.288411458333332
 41
0.0
 71
               1
 72
               1
  1
仕様
  7
ＭＳ ゴシック
 73
               1
 44
0.7828267384257843
  0
LINE
  5
14B
100
AcDbEntity
  8
template
370
               5
390
0
  6
Continuous
 62
               7
100
AcDbLine
 10
974.99999999975876
 20
-1224.0027073587005
 30
0.0
 11
-975.00000000024124
 21
-1224.0027073587005
 31
0.0
  0
LWPOLYLINE
  5
14C
100
AcDbEntity
  8
template
370
               5
390
0
  6
Continuous
 62
               7
100
AcDbPolyline
 90
        5
 70
             128
 10
975.00000000024124
 20
1405.9972926412995
 10
-974.99999999975921
 20
1405.9972926412995
 10
-974.99999999975921
 20
-1394.0027073587005
 10
975.00000000024124
 20
-1394.0027073587005
 10
975.00000000024124
 20
1405.9972926412995
  0
LINE
  5
14D
100
AcDbEntity
  8
template
370
               5
390
0
  6
Continuous
 62
               7
100
AcDbLine
 10
974.99999999975876
 20
-1139.0027073587005
 30
0.0
 11
-975.00000000024124
 21
-1139.0027073587005
 31
0.0
  0
LINE
  5
14E
100
AcDbEntity
  8
template
370
               5
390
0
  6
Continuous
 62
               7
100
AcDbLine
 10
975.00000000024124
 20
-1309.0027073587005
 30
0.0
 11
222.00000000024124
 21
-1309.0027073587005
 31
0.0
  0
MTEXT
  5
14F
100
AcDbEntity
  8
template
390
0
 62
               7
100
AcDbMText
 10
251.87140625250089
 20
-1338.9131018320081
 30
0.0
 40
24.432617187500004
 41
0.0
 71
               1
 72
               1
  1
大洋金物株式会社 ティーフォルム事業部
  7
ＭＳ ゴシック
 73
               1
 44
0.7828267384257843
  0
INSERT
  5
150
100
AcDbEntity
  8
template
390
0
 62
               7
100
AcDbBlockReference
  2
グループ
 10
0.0000000000011084
 20
-14.999999999999503
 30
0.0
  0
MTEXT
  5
151
100
AcDbEntity
  8
template
390
0
 62
               7
100
AcDbMText
 10
784.00000000049999
 20
-1261.0000901712006
 30
0.0
 40
24.432617187500004
 41
0.0
 71
               1
 72
               1
  1
1:10
  7
ＭＳ ゴシック
 73
               1
 44
0.7828267384257843
  0
MTEXT
  5
152
100
AcDbEntity
  8
template
390
0
 62
               7
100
AcDbMText
 10
731.00000000049999
 20
-1232.4176292337004
 30
0.0
 40
16.288411458333332
 41
0.0
 71
               1
 72
               1
  1
縮尺
  7
ＭＳ ゴシック
 73
               1
 44
0.7828267384257843
  0
LINE
  5
153
100
AcDbEntity
  8
template
370
               5
390
0
  6
Continuous
 62
               7
100
AcDbLine
 10
724.00000000049999
 20
-1309.0027073587005
 30
0.0
 11
724.00000000049999
 21
-1224.0027073587005
 31
0.0
  0
MTEXT
  5
154
100
AcDbEntity
  8
template
390
0
 62
               7
100
AcDbMText
 10
480.00000000049999
 20
-1232.4176292337004
 30
0.0
 40
16.288411458333332
 41
0.0
 71
               1
 72
               1
  1
容量
  7
ＭＳ ゴシック
 73
               1
 44
0.7828267384257843
  0
MTEXT
  5
155
100
AcDbEntity
  8
template
390
0
 62
               7
100
AcDbMText
 10
533.00000000049999
 20
-1261.0000901712006
 30
0.0
 40
24.432617187500004
 41
0.0
 71
               1
 72
               1
  1
6L
  7
ＭＳ ゴシック
 73
               1
 44
0.7828267384257843
  0
LINE
  5
156
100
AcDbEntity
  8
template
370
               5
390
0
  6
Continuous
 62
               7
100
AcDbLine
 10
473.00000000049999
 20
-1309.0027073587005
 30
0.0
 11
473.00000000049999
 21
-1224.0027073587005
 31
0.0
  0
MTEXT
  5
157
100
AcDbEntity
  8
template
390
0
 62
               7
100
AcDbMText
 10
229.00000000049999
 20
-1147.4176292337004
 30
0.0
 40
16.288411458333332
 41
0.0
 71
               1
 72
               1
  1
品番
  7
ＭＳ ゴシック
 73
               1
 44
0.7828267384257843
  0
MTEXT
  5
158
100
AcDbEntity
  8
template
390
0
 62
               7
100
AcDbMText
 10
229.00000000049999
 20
-1232.4176292337004
 30
0.0
 40
16.288411458333332
 41
0.0
 71
               1
 72
               1
  1
重量
  7
ＭＳ ゴシック
 73
               1
 44
0.7828267384257843
  0
MTEXT
  5
159
100
AcDbEntity
  8
template
390
0
 62
               7
100
AcDbMText
 10
282.00000000049999
 20
-1176.0000901712006
 30
0.0
 40
24.432617187500004
 41
0.0
 71
               1
 72
               1
  1
FAA70-2202
  7
ＭＳ ゴシック
 73
               1
 44
0.7828267384257843
  0
MTEXT
  5
15A
100
AcDbEntity
  8
template
390
0
 62
               7
100
AcDbMText
 10
282.00000000049999
 20
-1261.0000901712006
 30
0.0
 40
24.432617187500004
 41
0.0
 71
               1
 72
               1
  1
18.5kg
  7
ＭＳ ゴシック
 73
               1
 44
0.7828267384257843
  0
LINE
  5
15B
100
AcDbEntity
  8
template
370
               5
390
0
  6
Continuous
 62
               7
100
AcDbLine
 10
222.00000000049999
 20
-1394.0027073587005
 30
0.0
 11
222.00000000049999
 21
-1139.0027073587005
 31
0.0
  0
MTEXT
  5
15C
100
AcDbEntity
  8
template
390
0
 62
               7
100
AcDbMText
 10
-914.99999999975921
 20
-1261.0000901712006
 30
0.0
 40
24.432617187500004
 41
0.0
 71
               1
 72
               1
  1
壁掛け/オーバーフロー付き/壁取付ボルト付属/陶器/ホワイト
  7
ＭＳ ゴシック
 73
               1
 44
1.1307497332816883
  0
MTEXT
  5
15D
100
AcDbEntity
  8
template
390
0
 62
               7
100
AcDbMText
 10
-974.99999999955594
 20
-1405.8565294155574
 30
0.0
 40
21.717881944444446
 41
0.0
 71
               1
 72
               1
  1
120224SH
  7
ＭＳ ゴシック
 73
               1
 44
0.7828267384257843
  0
MTEXT
  5
15E
100
AcDbEntity
  8
template
390
0
 62
               7
100
AcDbMText
 10
-914.99999999975898
 20
-1176.0000901712006
 30
0.0
 40
24.432617187500004
 41
0.0
 71
               1
 72
               1
  1
洗面器 -DURAVIT,Philippe Starck E3-
  7
ＭＳ ゴシック
 73
               1
 44
0.7828267384257843
  0
MTEXT
  5
15F
100
AcDbEntity
  8
notes
390
0
 62
               7
100
AcDbMText
 10
-824.1674291421856
 20
176.24785149142696
 30
0.0
 40
27.147352430555557
 41
936.03870705781878
 71
               1
 72
               1
  1
＝φ30もしくはφ35の水栓取付用穴あけ加工を承ります。\P   必要な場合、ご注文の際にご指示ください。
  7
ＭＳ ゴシック
 73
               1
 44
0.9393920861109412
  0
MTEXT
  5
160
100
AcDbEntity
  8
notes
390
0
 62
               7
100
AcDbMText
 10
-222.02978611443066
 20
-302.05640758396652
 30
0.0
 40
27.147352430555557
 41
0.0
 71
               1
 72
               1
  1
壁取付ボルト穴(2ヶ所)
  7
ＭＳ ゴシック
 73
               1
 44
0.7828267384257843
  0
LINE
  5
161
100
AcDbEntity
  8
notes
370
               5
390
0
  6
Continuous
 62
               7
100
AcDbLine
 10
-280.54756732546753
 20
-487.08607252381677
 30
0.0
 11
-190.30675023806023
 21
-345.04948904394655
 31
0.0
  0
CIRCLE
  5
162
100
AcDbEntity
  8
notes
370
              15
390
0
  6
STYLE_12
 62
               7
100
AcDbCircle
 10
-844.23763050034665
 20
161.7911681394587
 30
0.0
 40
17.500000000000227
  0
DIMENSION
  5
163
100
AcDbEntity
  8
notes
370
               5
390
0
  6
Continuous
 62
               7
100
AcDbDimension
  2
*D3
 10
-120.54756732546727
 20
978.83612535973475
 30
0.0
 11
-420.54756732546753
 21
978.83612535973475
 31
0.0
 71
               5
 72
               1
 41
1.0
 42
0.0
  3
tfrom線あり
100
AcDbAlignedDimension
 13
-720.54756732546764
 23
823.83612535973464
 33
0.0
 14
-120.54756732546727
 24
823.83612535973464
 34
0.0
100
AcDbRotatedDimension
1001
ACAD
1000
DSTYLE
1002
{
1070
             279
1070
               2
1070
             340
1005
36
1070
             147
1040
5.0
1002
}
  0
DIMENSION
  5
164
100
AcDbEntity
  8
notes
370
               5
390
0
  6
Continuous
 62
               7
100
AcDbDimension
  2
*D4
 10
-420.54756732546753
 20
928.83612535973475
 30
0.0
 11
-370.54756732546753
 21
928.83612535973475
 31
0.0
 71
               5
 72
               1
 41
1.0
 42
0.0
  3
tfrom線あり
100
AcDbAlignedDimension
 13
-320.54756732546753
 23
767.07645377502695
 33
0.0
 14
-420.54756732546753
 24
767.07645377502695
 34
0.0
100
AcDbRotatedDimension
1001
ACAD
1000
DSTYLE
1002
{
1070
             279
1070
               2
1070
             340
1005
36
1070
             147
1040
5.0
1002
}
  0
DIMENSION
  5
165
100
AcDbEntity
  8
notes
370
               5
390
0
  6
Continuous
 62
               7
100
AcDbDimension
  2
*D5
 10
-420.54756732546753
 20
928.83612535973475
 30
0.0
 11
-470.54756732546753
 21
928.83612535973475
 31
0.0
 71
               5
 72
               1
 41
1.0
 42
0.0
  3
tfrom線あり
100
AcDbAlignedDimension
 13
-520.54756732546753
 23
767.07645377502695
 33
0.0
 14
-420.54756732546753
 24
767.07645377502695
 34
0.0
100
AcDbRotatedDimension
1001
ACAD
1000
DSTYLE
1002
{
1070
             279
1070
               2
1070
             340
1005
36
1070
             147
1040
5.0
1002
}
  0
DIMENSION
  5
166
100
AcDbEntity
  8
notes
370
               5
390
0
  6
Continuous
 62
               7
100
AcDbDimension
  2
*D6
 10
-155.5475673254675
 20
278.83612535973685
 30
0.0
 11
-420.54756732546753
 21
278.83612535973685
 31
0.0
 71
               5
 72
               1
 41
1.0
 42
0.0
  3
tfrom線あり
100
AcDbAlignedDimension
 13
-685.54756732546753
 23
386.05084792569374
 33
0.0
 14
-155.5475673254675
 24
387.07725891143303
 34
0.0
100
AcDbRotatedDimension
1001
ACAD
1000
DSTYLE
1002
{
1070
             279
1070
               2
1070
             340
1005
36
1070
             147
1040
5.0
1002
}
  0
DIMENSION
  5
167
100
AcDbEntity
  8
notes
370
               5
390
0
  6
Continuous
 62
               7
100
AcDbDimension
  2
*D7
 10
834.580383313732
 20
-287.08607252381648
 30
0.0
 11
803.36984464851571
 21
-282.08607252381648
 31
0.0
 70
             128
 71
               5
 72
               1
 41
1.0
 42
0.0
  3
tfrom線あり
100
AcDbAlignedDimension
 13
759.580383313732
 23
-431.08607252381648
 33
0.0
 14
834.580383313732
 24
-387.08607252381648
 34
0.0
100
AcDbRotatedDimension
1001
ACAD
1000
DSTYLE
1002
{
1070
             279
1070
               2
1070
             340
1005
36
1070
             147
1040
5.0
1002
}
  0
DIMENSION
  5
168
100
AcDbEntity
  8
notes
370
               5
390
0
  6
Continuous
 62
               7
100
AcDbDimension
  2
*D8
 10
613.35394312360631
 20
-422.08607252381648
 30
0.0
 11
618.35394312360631
 21
-406.08607252381648
 31
0.0
 70
             128
 71
               5
 72
               1
 41
1.0
 42
0.0
  3
tfrom線あり
100
AcDbAlignedDimension
 13
612.58044043171003
 23
-562.08607252381739
 33
0.0
 14
612.58044043171003
 24
-422.08607252381648
 34
0.0
 50
90.0
100
AcDbRotatedDimension
1001
ACAD
1000
DSTYLE
1002
{
1070
             279
1070
               2
1070
             340
1005
36
1070
               3
1000
<>(深さ)
1070
             174
1070
               0
1070
             147
1040
5.0
1002
}
  0
DIMENSION
  5
169
100
AcDbEntity
  8
notes
370
               5
390
0
  6
Continuous
 62
               7
100
AcDbDimension
  2
*D9
 10
-280.54756732546753
 20
-287.08607252381654
 30
0.0
 11
-420.54756732546753
 21
-287.08607252381654
 31
0.0
 71
               5
 72
               1
 41
1.0
 42
0.0
  3
tfrom線あり
100
AcDbAlignedDimension
 13
-560.54756732546753
 23
-466.58607252381648
 33
0.0
 14
-280.54756732546753
 24
-466.58607252381648
 34
0.0
100
AcDbRotatedDimension
1001
ACAD
1000
DSTYLE
1002
{
1070
             279
1070
               2
1070
             340
1005
36
1070
             147
1040
5.0
1002
}
  0
DIMENSION
  5
16A
100
AcDbEntity
  8
notes
370
               5
390
0
  6
Continuous
 62
               7
100
AcDbDimension
  2
*D10
 10
-20.547567325467497
 20
828.83612535973498
 30
0.0
 11
-20.547567325467497
 21
603.83373442898142
 31
0.0
 71
               5
 72
               1
 41
1.0
 42
0.0
  3
tfrom線あり
100
AcDbAlignedDimension
 13
-292.5002108544976
 23
378.8313434982278
 33
0.0
 14
-125.5475673254675
 24
828.83612535973498
 34
0.0
 50
90.0
100
AcDbRotatedDimension
1001
ACAD
1000
DSTYLE
1002
{
1070
             279
1070
               2
1070
             340
1005
36
1070
             147
1040
5.0
1002
}
  0
DIMENSION
  5
16B
100
AcDbEntity
  8
notes
370
               5
390
0
  6
Continuous
 62
               7
100
AcDbDimension
  2
*D11
 10
-820.54756732546764
 20
413.83612535973685
 30
0.0
 11
-825.54756732546764
 21
551.33612535973634
 31
0.0
 70
             128
 71
               5
 72
               1
 41
1.0
 42
0.0
  3
tfrom線あり
100
AcDbAlignedDimension
 13
-720.54756732546764
 23
688.83612535973589
 33
0.0
 14
-720.63378308748372
 24
413.83612535973685
 34
0.0
 50
90.0
100
AcDbRotatedDimension
1001
ACAD
1000
DSTYLE
1002
{
1070
             279
1070
               2
1070
             340
1005
36
1070
             147
1040
5.0
1002
}
  0
DIMENSION
  5
16C
100
AcDbEntity
  8
notes
370
               5
390
0
  6
Continuous
 62
               7
100
AcDbDimension
  2
*D12
 10
-820.54756732546775
 20
688.83612535973498
 30
0.0
 11
-820.54756732546775
 21
758.83612535973498
 31
0.0
 71
               5
 72
               1
 41
1.0
 42
0.0
  3
tfrom線あり
100
AcDbAlignedDimension
 13
-715.54756732546764
 23
828.83612535973498
 33
0.0
 14
-720.54756732546764
 24
688.83612535973498
 34
0.0
 50
90.0
100
AcDbRotatedDimension
1001
ACAD
1000
DSTYLE
1002
{
1070
             279
1070
               2
1070
             340
1005
36
1070
             147
1040
5.0
1002
}
  0
DIMENSION
  5
16D
100
AcDbEntity
  8
notes
370
               5
390
0
  6
Continuous
 62
               7
100
AcDbDimension
  2
*D13
 10
284.580383313732
 20
-422.08607252381648
 30
0.0
 11
284.580383313732
 21
-502.08607252381665
 31
0.0
 71
               5
 72
               1
 41
1.0
 42
0.0
  3
tfrom線あり
100
AcDbAlignedDimension
 13
521.81641862677384
 23
-582.08607252381694
 33
0.0
 14
391.580383313732
 24
-422.08607252381648
 34
0.0
 50
90.0
100
AcDbRotatedDimension
1001
ACAD
1000
DSTYLE
1002
{
1070
             279
1070
               2
1070
             340
1005
36
1070
             147
1040
5.0
1002
}
  0
DIMENSION
  5
16E
100
AcDbEntity
  8
notes
370
               5
390
0
  6
Continuous
 62
               7
100
AcDbDimension
  2
*D14
 10
284.580383313732
 20
-582.08607252381694
 30
0.0
 11
279.580383313732
 21
-623.9003605375292
 31
0.0
 70
             128
 71
               5
 72
               1
 41
1.0
 42
0.0
  3
tfrom線あり
100
AcDbAlignedDimension
 13
587.08038331373314
 23
-612.08607252381739
 33
0.0
 14
532.0
 24
-582.08607252381694
 34
0.0
 50
90.0
100
AcDbRotatedDimension
1001
ACAD
1000
DSTYLE
1002
{
1070
             279
1070
               2
1070
             340
1005
36
1070
             174
1070
               0
1070
             147
1040
5.0
1002
}
  0
DIMENSION
  5
16F
100
AcDbEntity
  8
notes
370
               5
390
0
  6
Continuous
 62
               7
100
AcDbDimension
  2
*D15
 10
284.580383313732
 20
-422.08607252381648
 30
0.0
 11
284.580383313732
 21
-404.58607252381648
 31
0.0
 71
               5
 72
               1
 41
1.0
 42
0.0
  3
tfrom線あり
100
AcDbAlignedDimension
 13
391.580383313732
 23
-387.08607252381648
 33
0.0
 14
391.580383313732
 24
-422.08607252381648
 34
0.0
 50
90.0
100
AcDbRotatedDimension
1001
ACAD
1000
DSTYLE
1002
{
1070
             279
1070
               2
1070
             340
1005
36
1070
             147
1040
5.0
1002
}
  0
DIMENSION
  5
170
100
AcDbEntity
  8
notes
370
               5
390
0
  6
Continuous
 62
               7
100
AcDbDimension
  2
*D16
 10
-20.547567325467554
 20
-387.08607252381648
 30
0.0
 11
-20.547567325467554
 21
-499.58607252381688
 31
0.0
 71
               5
 72
               1
 41
1.0
 42
0.0
  3
tfrom線あり
100
AcDbAlignedDimension
 13
-383.04756732546753
 23
-612.08607252381739
 33
0.0
 14
-127.54756732546755
 24
-387.08607252381648
 34
0.0
 50
90.0
100
AcDbRotatedDimension
1001
ACAD
1000
DSTYLE
1002
{
1070
             279
1070
               2
1070
             340
1005
36
1070
             147
1040
5.0
1002
}
  0
DIMENSION
  5
171
100
AcDbEntity
  8
notes
370
               5
390
0
  6
Continuous
 62
               7
100
AcDbDimension
  2
*D17
 10
-832.26454281394354
 20
-487.08607252381677
 30
0.0
 11
-837.26454281394354
 21
-437.08607252381654
 31
0.0
 70
             128
 71
               5
 72
               1
 41
1.0
 42
0.0
  3
tfrom線あり
100
AcDbAlignedDimension
 13
-713.54756732546753
 23
-387.08607252381648
 33
0.0
 14
-581.04756732546753
 24
-487.08607252381677
 34
0.0
 50
90.0
100
AcDbRotatedDimension
1001
ACAD
1000
DSTYLE
1002
{
1070
             279
1070
               2
1070
             340
1005
36
1070
             147
1040
5.0
1002
}
  0
DIMENSION
  5
172
100
AcDbEntity
  8
notes
370
               5
390
0
  6
Continuous
 62
               7
100
AcDbDimension
  2
*D18
 10
624.58038331373314
 20
-712.08607252381739
 30
0.0
 11
729.58038331373257
 21
-707.08607252381739
 31
0.0
 70
             128
 71
               5
 72
               1
 41
1.0
 42
0.0
  3
tfrom線あり
100
AcDbAlignedDimension
 13
834.580383313732
 23
-582.08607252381785
 33
0.0
 14
624.58038331373314
 24
-612.08607252381739
 34
0.0
100
AcDbRotatedDimension
1001
ACAD
1000
DSTYLE
1002
{
1070
             279
1070
               2
1070
             340
1005
36
1070
             147
1040
5.0
1002
}
  0
DIMENSION
  5
173
100
AcDbEntity
  8
notes
370
               5
390
0
  6
Continuous
 62
               7
100
AcDbDimension
  2
*D19
 10
-432.92193599623215
 20
761.21049403049926
 30
0.0
 11
-239.07075301291169
 21
627.35931104717815
 31
0.0
 70
               3
 71
               5
 72
               1
 41
1.0
 42
0.0
  3
tfrom線あり
100
AcDbDiametricDimension
 15
-408.17319865470301
 25
736.46175668897001
 35
0.0
 40
154.29415831469498
1001
ACAD
1000
DSTYLE
1002
{
1070
             289
1070
               0
1070
             342
1005
4A
1070
             340
1005
36
1070
              73
1070
               1
1070
              74
1070
               1
1070
              75
1070
               1
1070
              76
1070
               1
1070
               3
1000

1070
             174
1070
               0
1070
             147
1040
5.0
1002
}
  0
ARC
  5
174
100
AcDbEntity
  8
FAA70-2202
370
              15
390
0
  6
Continuous
 62
               7
100
AcDbCircle
 10
-421.14068963961256
 20
5215.073423934512
 30
0.0
 40
4801.2488842385683
100
AcDbArc
 50
266.95086905635856
 51
273.06260684688988
  0
LINE
  5
175
100
AcDbEntity
  8
FAA70-2202
370
              15
390
0
  6
Continuous
 62
               7
100
AcDbLine
 10
-170.5475673254675
 20
688.83612535973464
 30
0.0
 11
-670.54756732546764
 21
688.83612535973464
 31
0.0
  0
LINE
  5
176
100
AcDbEntity
  8
FAA70-2202
370
              15
390
0
  6
Continuous
 62
               7
100
AcDbLine
 10
-673.54756732546764
 20
793.83612535973498
 30
0.0
 11
-167.5475673254675
 21
793.83612535973498
 31
0.0
  0
LINE
  5
177
100
AcDbEntity
  8
FAA70-2202
370
              15
390
0
  6
Continuous
 62
               7
100
AcDbLine
 10
-706.86769928172805
 20
800.83612535973498
 30
0.0
 11
-134.22743536920714
 21
800.83612535973498
 31
0.0
  0
ARC
  5
178
100
AcDbEntity
  8
FAA70-2202
370
              15
390
0
  6
Continuous
 62
               7
100
AcDbCircle
 10
-676.04756732546764
 20
786.83612535973498
 30
0.0
 40
7.0
100
AcDbArc
 50
90.0
 51
180.0
  0
LINE
  5
179
100
AcDbEntity
  8
FAA70-2202
370
              15
390
0
  6
Continuous
 62
               7
100
AcDbLine
 10
-683.04756732546764
 20
786.83612535973498
 30
0.0
 11
-683.07524581137295
 21
427.50420581307873
 31
0.0
  0
ARC
  5
17A
100
AcDbEntity
  8
FAA70-2202
370
              15
390
0
  6
Continuous
 62
               7
100
AcDbCircle
 10
-676.07524581137295
 20
427.50420581307873
 30
0.0
 40
7.0
100
AcDbArc
 50
180.0
 51
266.23075230221986
  0
ARC
  5
17B
100
AcDbEntity
  8
FAA70-2202
370
              15
390
0
  6
Continuous
 62
               7
100
AcDbCircle
 10
-673.04756732546764
 20
678.83612535973464
 30
0.0
 40
10.0
100
AcDbArc
 50
90.0
 51
180.0
  0
LINE
  5
17C
100
AcDbEntity
  8
FAA70-2202
370
              15
390
0
  6
Continuous
 62
               7
100
AcDbLine
 10
-690.28567556756332
 20
793.83612535973498
 30
0.0
 11
-708.91855947525698
 21
793.83612535973498
 31
0.0
  0
CIRCLE
  5
17D
100
AcDbEntity
  8
FAA70-2202
370
              15
390
0
  6
Continuous
 62
               7
100
AcDbCircle
 10
-420.54756732546753
 20
618.83612535973498
 30
0.0
 40
37.5
  0
CIRCLE
  5
17E
100
AcDbEntity
  8
FAA70-2202
370
              15
390
0
  6
Continuous
 62
               7
100
AcDbCircle
 10
-420.54756732546753
 20
618.83612535973498
 30
0.0
 40
26.0
  0
ARC
  5
17F
100
AcDbEntity
  8
FAA70-2202
370
              15
390
0
  6
Continuous
 62
               7
100
AcDbCircle
 10
-708.01385028420862
 20
791.27531316885666
 30
0.0
 40
9.6292674627790245
100
AcDbArc
 50
83.163999630341138
 51
149.80269476476386
  0
LINE
  5
180
100
AcDbEntity
  8
FAA70-2202
370
              15
390
0
  6
Continuous
 62
               7
100
AcDbLine
 10
-715.54756732546764
 20
828.83612535973498
 30
0.0
 11
-715.54756732546764
 21
800.83612535973498
 31
0.0
  0
ARC
  5
181
100
AcDbEntity
  8
FAA70-2202
370
              15
390
0
  6
Continuous
 62
               7
100
AcDbCircle
 10
-165.0475673254675
 20
786.83612535973498
 30
0.0
 40
7.0
100
AcDbArc
 50
0.0
 51
90.0
  0
LINE
  5
182
100
AcDbEntity
  8
FAA70-2202
370
              15
390
0
  6
Continuous
 62
               7
100
AcDbLine
 10
-158.0475673254675
 20
786.83612535973498
 30
0.0
 11
-158.07524581137287
 21
427.63787446783374
 31
0.0
  0
ARC
  5
183
100
AcDbEntity
  8
FAA70-2202
370
              15
390
0
  6
Continuous
 62
               7
100
AcDbCircle
 10
-165.07524581137287
 20
427.63787446783374
 30
0.0
 40
7.0000000000000719
100
AcDbArc
 50
273.76924769777071
 51
0.0
  0
ARC
  5
184
100
AcDbEntity
  8
FAA70-2202
370
              15
390
0
  6
Continuous
 62
               7
100
AcDbCircle
 10
-168.0475673254675
 20
678.83612535973464
 30
0.0
 40
10.0
100
AcDbArc
 50
0.0
 51
90.0
  0
LINE
  5
185
100
AcDbEntity
  8
FAA70-2202
370
              15
390
0
  6
Continuous
 62
               7
100
AcDbLine
 10
-150.80945908337182
 20
793.83612535973498
 30
0.0
 11
-132.17657517567815
 21
793.83612535973498
 31
0.0
  0
ARC
  5
186
100
AcDbEntity
  8
FAA70-2202
370
              15
390
0
  6
Continuous
 62
               7
100
AcDbCircle
 10
-133.08128436672652
 20
791.27531316885666
 30
0.0
 40
9.6292674627790067
100
AcDbArc
 50
30.197305235235984
 51
96.836000369658535
  0
LINE
  5
187
100
AcDbEntity
  8
FAA70-2202
370
              15
390
0
  6
Continuous
 62
               7
100
AcDbLine
 10
-125.5475673254675
 20
828.83612535973498
 30
0.0
 11
-125.5475673254675
 21
800.83612535973498
 31
0.0
  0
LWPOLYLINE
  5
188
100
AcDbEntity
  8
FAA70-2202
370
              15
390
0
  6
Continuous
 62
               7
100
AcDbPolyline
 90
        8
 70
             129
 10
-120.54756732546727
 20
823.83612535973464
 42
0.4142135623730984
 10
-125.54756732546727
 20
828.83612535973464
 10
-715.54756732546764
 20
828.83612535973464
 42
0.414213562373095
 10
-720.54756732546764
 20
823.83612535973464
 10
-720.54756732546764
 20
432.52664808018307
 42
0.3950431318699733
 10
-676.64228026739102
 20
385.62864437206059
 42
0.0265234644413162
 10
-164.45285438352775
 20
385.62864437206167
 42
0.3950431318699744
 10
-120.5475673254675
 20
432.52664808018324
  0
CIRCLE
  5
189
100
AcDbEntity
  8
FAA70-2202
370
              15
390
0
  6
Continuous
 62
               7
100
AcDbCircle
 10
-420.54756732546753
 20
748.83612535973464
 30
0.0
 40
17.5
  0
LINE
  5
18A
100
AcDbEntity
  8
FAA70-2202
370
              15
390
0
  6
Continuous
 62
               7
100
AcDbLine
 10
391.580383313732
 20
-422.08607252381648
 30
0.0
 11
800.52409152420023
 21
-422.08607252381648
 31
0.0
  0
LINE
  5
18B
100
AcDbEntity
  8
FAA70-2202
370
              15
390
0
  6
Continuous
 62
               7
100
AcDbLine
 10
802.7190775443255
 20
-404.52345937837651
 30
0.0
 11
804.10537322295932
 21
-393.23298711997654
 31
0.0
  0
LINE
  5
18C
100
AcDbEntity
  8
FAA70-2202
370
              15
390
0
  6
Continuous
 62
               7
100
AcDbLine
 10
834.580383313732
 20
-452.08518212844649
 30
0.0
 11
389.580383313732
 21
-452.08518212844649
 31
0.0
  0
LINE
  5
18D
100
AcDbEntity
  8
FAA70-2202
370
              15
390
0
  6
Continuous
 62
               7
100
AcDbLine
 10
384.580383313732
 20
-429.08607252381648
 30
0.0
 11
384.580383313732
 21
-447.08518212844649
 31
0.0
  0
ARC
  5
18E
100
AcDbEntity
  8
FAA70-2202
370
              15
390
0
  6
Continuous
 62
               7
100
AcDbCircle
 10
389.580383313732
 20
-447.08518212844649
 30
0.0
 40
5.0
100
AcDbArc
 50
180.0
 51
270.0
  0
ARC
  5
18F
100
AcDbEntity
  8
FAA70-2202
370
              15
390
0
  6
Continuous
 62
               7
100
AcDbCircle
 10
391.580383313732
 20
-429.08607252381648
 30
0.0
 40
7.0
100
AcDbArc
 50
90.0
 51
180.0
  0
LINE
  5
190
100
AcDbEntity
  8
FAA70-2202
370
              15
390
0
  6
Continuous
 62
               7
100
AcDbLine
 10
400.08038331373291
 20
-452.08518212844649
 30
0.0
 11
395.08038331373291
 21
-452.08518212844649
 31
0.0
  0
LINE
  5
191
100
AcDbEntity
  8
FAA70-2202
370
              15
390
0
  6
Continuous
 62
               7
100
AcDbLine
 10
532.0
 20
-582.08607252381694
 30
0.0
 11
834.58044043171003
 21
-582.08607252381717
 31
0.0
  0
ARC
  5
192
100
AcDbEntity
  8
FAA70-2202
370
              15
390
0
  6
STYLE_12
 62
               7
100
AcDbCircle
 10
796.87788833443733
 20
-433.8499695295128
 30
0.0
 40
3.0317202005527615
100
AcDbArc
 50
269.52479767174134
 51
350.09112165726117
  0
LINE
  5
193
100
AcDbEntity
  8
FAA70-2202
370
              15
390
0
  6
STYLE_12
 62
               7
100
AcDbLine
 10
796.92620752006405
 20
-437.08607252381648
 30
0.0
 11
701.08038331373314
 21
-437.08607252381648
 31
0.0
  0
LINE
  5
194
100
AcDbEntity
  8
FAA70-2202
370
              15
390
0
  6
STYLE_12
 62
               7
100
AcDbLine
 10
694.58038331373314
 20
-443.55358750349137
 30
0.0
 11
694.58038331373314
 21
-545.76303263657678
 31
0.0
  0
ARC
  5
195
100
AcDbEntity
  8
FAA70-2202
370
              15
390
0
  6
STYLE_12
 62
               7
100
AcDbCircle
 10
679.58038331373314
 20
-545.76303263657678
 30
0.0
 40
15.0
100
AcDbArc
 50
270.0
 51
0.0
  0
ARC
  5
196
100
AcDbEntity
  8
FAA70-2202
370
              15
390
0
  6
STYLE_12
 62
               7
100
AcDbCircle
 10
701.08038331373314
 20
-443.55358750349137
 30
0.0
 40
6.5
100
AcDbArc
 50
90.0
 51
180.0
  0
LINE
  5
197
100
AcDbEntity
  8
FAA70-2202
370
              15
390
0
  6
Continuous
 62
               7
100
AcDbLine
 10
799.86438337286586
 20
-434.37167323841402
 30
0.0
 11
804.10650857009068
 21
-393.22384004066294
 31
0.0
  0
LINE
  5
198
100
AcDbEntity
  8
FAA70-2202
370
              15
390
0
  6
Continuous
 62
               7
100
AcDbLine
 10
811.05320239845196
 20
-387.08607252381648
 30
0.0
 11
834.580383313732
 21
-387.08607252381648
 31
0.0
  0
LINE
  5
199
100
AcDbEntity
  8
FAA70-2202
370
              15
390
0
  6
Continuous
 62
               7
100
AcDbLine
 10
834.580383313732
 20
-387.08607252381648
 30
0.0
 11
834.580383313732
 21
-582.08607252381785
 31
0.0
  0
ARC
  5
19A
100
AcDbEntity
  8
FAA70-2202
370
              15
390
0
  6
Continuous
 62
               7
100
AcDbCircle
 10
811.05320239845196
 20
-394.08607252381648
 30
0.0
 40
7.0
100
AcDbArc
 50
90.0
 51
172.92456175796406
  0
ARC
  5
19B
100
AcDbEntity
  8
FAA70-2202
370
              15
390
0
  6
STYLE_12
 62
               7
100
AcDbCircle
 10
419.85839594889376
 20
-426.93982721488828
 30
0.0
 40
4.8590037576929488
100
AcDbArc
 50
1.5844633431615989
 51
92.663447615034983
  0
LINE
  5
19C
100
AcDbEntity
  8
FAA70-2202
370
              15
390
0
  6
Continuous
 62
               7
100
AcDbLine
 10
629.3114226764485
 20
-612.08607252381739
 30
0.0
 11
610.08038331373405
 21
-612.08607252381739
 31
0.0
  0
LINE
  5
19D
100
AcDbEntity
  8
FAA70-2202
370
              15
390
0
  6
STYLE_12
 62
               7
100
AcDbLine
 10
592.45906297017268
 20
-561.62957701885671
 30
0.0
 11
597.70170365729268
 21
-566.8722177059758
 31
0.0
  0
LINE
  5
19E
100
AcDbEntity
  8
FAA70-2202
370
              15
390
0
  6
STYLE_12
 62
               7
100
AcDbLine
 10
598.58038331373314
 20
-568.99353804953535
 30
0.0
 11
598.58038331373314
 21
-612.08607252381739
 31
0.0
  0
ARC
  5
19F
100
AcDbEntity
  8
FAA70-2202
370
              15
390
0
  6
STYLE_12
 62
               7
100
AcDbCircle
 10
590.31210223656149
 20
-563.81279873981975
 30
0.0
 40
3.0620087319524694
100
AcDbArc
 50
45.479784165404773
 51
89.520215834528912
  0
ARC
  5
1A0
100
AcDbEntity
  8
FAA70-2202
370
              15
390
0
  6
STYLE_12
 62
               7
100
AcDbCircle
 10
595.73773879806208
 20
-568.92835927381248
 30
0.0
 40
2.8433916570320479
100
AcDbArc
 50
358.68649966573537
 51
46.313500334263495
  0
LINE
  5
1A1
100
AcDbEntity
  8
FAA70-2202
370
              15
390
0
  6
Continuous
 62
               7
100
AcDbLine
 10
624.58038331373314
 20
-612.08607252381739
 30
0.0
 11
624.58038331373314
 21
-618.58607252381785
 31
0.0
  0
LINE
  5
1A2
100
AcDbEntity
  8
FAA70-2202
370
              15
390
0
  6
Continuous
 62
               7
100
AcDbLine
 10
587.08038331373314
 20
-589.08607252381739
 30
0.0
 11
587.08038331373314
 21
-612.08607252381739
 31
0.0
  0
LINE
  5
1A3
100
AcDbEntity
  8
FAA70-2202
370
              15
390
0
  6
Continuous
 62
               7
100
AcDbLine
 10
624.58038331373314
 20
-612.08607252381739
 30
0.0
 11
587.08038331373314
 21
-612.08607252381739
 31
0.0
  0
ARC
  5
1A4
100
AcDbEntity
  8
FAA70-2202
370
              15
390
0
  6
Continuous
 62
               7
100
AcDbCircle
 10
580.17256002233921
 20
-588.99389581521132
 30
0.0
 40
6.9084382584440771
100
AcDbArc
 50
359.23550115239482
 51
90.764498847605253
  0
LINE
  5
1A5
100
AcDbEntity
  8
FAA70-2202
370
              15
390
0
  6
STYLE_12
 62
               7
100
AcDbLine
 10
656.70170365729314
 20
-561.62957701885671
 30
0.0
 11
651.45906297017314
 21
-566.8722177059758
 31
0.0
  0
LINE
  5
1A6
100
AcDbEntity
  8
FAA70-2202
370
              15
390
0
  6
STYLE_12
 62
               7
100
AcDbLine
 10
650.58038331373314
 20
-568.99353804953535
 30
0.0
 11
650.58038331373314
 21
-612.08607252381739
 31
0.0
  0
ARC
  5
1A7
100
AcDbEntity
  8
FAA70-2202
370
              15
390
0
  6
STYLE_12
 62
               7
100
AcDbCircle
 10
658.84866439090433
 20
-563.81279873981975
 30
0.0
 40
3.0620087319524538
100
AcDbArc
 50
90.479784165471102
 51
134.52021583459523
  0
ARC
  5
1A8
100
AcDbEntity
  8
FAA70-2202
370
              15
390
0
  6
STYLE_12
 62
               7
100
AcDbCircle
 10
653.42302782940374
 20
-568.92835927381248
 30
0.0
 40
2.8433916570318862
100
AcDbArc
 50
133.68649966573648
 51
181.3135003342648
  0
LINE
  5
1A9
100
AcDbEntity
  8
FAA70-2202
370
              15
390
0
  6
Continuous
 62
               7
100
AcDbLine
 10
624.58038331373314
 20
-612.08607252381739
 30
0.0
 11
624.58038331373314
 21
-618.58607252381785
 31
0.0
  0
LINE
  5
1AA
100
AcDbEntity
  8
FAA70-2202
370
              15
390
0
  6
Continuous
 62
               7
100
AcDbLine
 10
662.08038331373314
 20
-589.08607252381739
 30
0.0
 11
662.08038331373314
 21
-612.08607252381739
 31
0.0
  0
LINE
  5
1AB
100
AcDbEntity
  8
FAA70-2202
370
              15
390
0
  6
Continuous
 62
               7
100
AcDbLine
 10
624.58038331373314
 20
-612.08607252381739
 30
0.0
 11
662.08038331373314
 21
-612.08607252381739
 31
0.0
  0
ARC
  5
1AC
100
AcDbEntity
  8
FAA70-2202
370
              15
390
0
  6
Continuous
 62
               7
100
AcDbCircle
 10
668.98820660512706
 20
-588.99389581521132
 30
0.0
 40
6.9084382584440718
100
AcDbArc
 50
89.235501152398555
 51
180.76449884760521
  0
ARC
  5
1AD
100
AcDbEntity
  8
FAA70-2202
370
              15
390
0
  6
STYLE_12
 62
               7
100
AcDbCircle
 10
391.52164673987841
 20
-459.73740879033522
 30
0.0
 40
7.8694399835007331
100
AcDbArc
 50
22.554963435160943
 51
76.506861031704091
  0
LINE
  5
1AE
100
AcDbEntity
  8
FAA70-2202
370
              15
390
0
  6
STYLE_12
 62
               7
100
AcDbLine
 10
679.58038331373314
 20
-560.76303263657678
 30
0.0
 11
658.57512428404129
 21
-560.76303263657678
 31
0.0
  0
LINE
  5
1AF
100
AcDbEntity
  8
FAA70-2202
370
              15
390
0
  6
Continuous
 62
               7
100
AcDbLine
 10
-120.54756732546755
 20
-394.08607252381648
 30
0.0
 11
-120.54756732546755
 21
-447.0851821284466
 31
0.0
  0
ARC
  5
1B0
100
AcDbEntity
  8
FAA70-2202
370
              15
390
0
  6
Continuous
 62
               7
100
AcDbCircle
 10
-127.54756732546755
 20
-429.08607252381671
 30
0.0
 40
7.0
100
AcDbArc
 50
0.0
 51
90.0
  0
ARC
  5
1B1
100
AcDbEntity
  8
FAA70-2202
370
              15
390
0
  6
Continuous
 62
               7
100
AcDbCircle
 10
-127.54756732546755
 20
-394.08607252381648
 30
0.0
 40
7.0
100
AcDbArc
 50
0.0
 51
90.0
  0
ARC
  5
1B2
100
AcDbEntity
  8
FAA70-2202
370
              15
390
0
  6
STYLE_12
 62
               7
100
AcDbCircle
 10
-156.97124215821171
 20
-427.04277563597839
 30
0.0
 40
4.9567995746117841
100
AcDbArc
 50
89.642548767429531
 51
161.42832207979137
  0
ARC
  5
1B3
100
AcDbEntity
  8
FAA70-2202
370
              15
390
0
  6
STYLE_12
 62
               7
100
AcDbCircle
 10
-337.64452147718271
 20
-364.52406336196145
 30
0.0
 40
186.22767160502133
100
AcDbArc
 50
270.17184432892304
 51
340.89902651818858
  0
LINE
  5
1B4
100
AcDbEntity
  8
FAA70-2202
370
              15
390
0
  6
STYLE_12
 62
               7
100
AcDbLine
 10
-388.42624698190707
 20
-551.62957701885671
 30
0.0
 11
-393.66888766902707
 21
-556.8722177059758
 31
0.0
  0
LINE
  5
1B5
100
AcDbEntity
  8
FAA70-2202
370
              15
390
0
  6
STYLE_12
 62
               7
100
AcDbLine
 10
-394.54756732546753
 20
-558.99353804953535
 30
0.0
 11
-394.54756732546753
 21
-612.08607252381739
 31
0.0
  0
ARC
  5
1B6
100
AcDbEntity
  8
FAA70-2202
370
              15
390
0
  6
STYLE_12
 62
               7
100
AcDbCircle
 10
-386.27928624829588
 20
-553.81279873981975
 30
0.0
 40
3.0620087319524538
100
AcDbArc
 50
90.479784165471102
 51
134.52021583459523
  0
ARC
  5
1B7
100
AcDbEntity
  8
FAA70-2202
370
              15
390
0
  6
STYLE_12
 62
               7
100
AcDbCircle
 10
-391.7049228097967
 20
-558.92835927381248
 30
0.0
 40
2.843391657031729
100
AcDbArc
 50
133.68649966573318
 51
181.31350033426469
  0
LINE
  5
1B8
100
AcDbEntity
  8
FAA70-2202
370
              15
390
0
  6
Continuous
 62
               7
100
AcDbLine
 10
-383.04756732546753
 20
-589.08607252381739
 30
0.0
 11
-383.04756732546753
 21
-612.08607252381739
 31
0.0
  0
LINE
  5
1B9
100
AcDbEntity
  8
FAA70-2202
370
              15
390
0
  6
Continuous
 62
               7
100
AcDbLine
 10
-420.54756732546753
 20
-612.08607252381739
 30
0.0
 11
-383.04756732546753
 21
-612.08607252381739
 31
0.0
  0
ARC
  5
1BA
100
AcDbEntity
  8
FAA70-2202
370
              15
390
0
  6
Continuous
 62
               7
100
AcDbCircle
 10
-376.1397440340736
 20
-588.99389581521132
 30
0.0
 40
6.9084382584440771
100
AcDbArc
 50
89.235501152394789
 51
180.76449884760521
  0
LINE
  5
1BB
100
AcDbEntity
  8
FAA70-2202
370
              15
390
0
  6
Continuous
 62
               7
100
AcDbLine
 10
-264.0
 20
-582.08607252381739
 30
0.0
 11
-577.65161025477892
 21
-582.08607252381739
 31
0.0
  0
LINE
  5
1BC
100
AcDbEntity
  8
FAA70-2202
370
              15
390
0
  6
Continuous
 62
               7
100
AcDbLine
 10
-716.54756732546753
 20
-452.0851821284466
 30
0.0
 11
-125.54756732546755
 21
-452.0851821284466
 31
0.0
  0
LINE
  5
1BD
100
AcDbEntity
  8
FAA70-2202
370
              15
390
0
  6
Continuous
 62
               7
100
AcDbLine
 10
-720.54756732546753
 20
-394.08607252381648
 30
0.0
 11
-720.54756732546753
 21
-447.0851821284466
 31
0.0
  0
LINE
  5
1BE
100
AcDbEntity
  8
FAA70-2202
370
              15
390
0
  6
Continuous
 62
               7
100
AcDbLine
 10
-713.54756732546753
 20
-422.08607252381671
 30
0.0
 11
-127.54756732546755
 21
-422.08607252381671
 31
0.0
  0
ARC
  5
1BF
100
AcDbEntity
  8
FAA70-2202
370
              15
390
0
  6
Continuous
 62
               7
100
AcDbCircle
 10
-713.54756732546753
 20
-429.08607252381671
 30
0.0
 40
7.0
100
AcDbArc
 50
90.0
 51
180.0
  0
LINE
  5
1C0
100
AcDbEntity
  8
FAA70-2202
370
              15
390
0
  6
Continuous
 62
               7
100
AcDbLine
 10
-713.54756732546753
 20
-387.08607252381648
 30
0.0
 11
-127.54756732546755
 21
-387.08607252381648
 31
0.0
  0
ARC
  5
1C1
100
AcDbEntity
  8
FAA70-2202
370
              15
390
0
  6
Continuous
 62
               7
100
AcDbCircle
 10
-713.54756732546753
 20
-394.08607252381648
 30
0.0
 40
7.0
100
AcDbArc
 50
90.0
 51
180.0
  0
ARC
  5
1C2
100
AcDbEntity
  8
FAA70-2202
370
              15
390
0
  6
STYLE_12
 62
               7
100
AcDbCircle
 10
-684.12389249272314
 20
-427.04277563597839
 30
0.0
 40
4.9567995746119493
100
AcDbArc
 50
18.571677920207787
 51
90.357451232567868
  0
ARC
  5
1C3
100
AcDbEntity
  8
FAA70-2202
370
              15
390
0
  6
STYLE_12
 62
               7
100
AcDbCircle
 10
-503.45061317375234
 20
-364.52406336196145
 30
0.0
 40
186.22767160502016
100
AcDbArc
 50
199.10097348181154
 51
269.82815567107718
  0
LINE
  5
1C4
100
AcDbEntity
  8
FAA70-2202
370
              15
390
0
  6
STYLE_12
 62
               7
100
AcDbLine
 10
-452.66888766902753
 20
-551.62957701885671
 30
0.0
 11
-447.42624698190752
 21
-556.8722177059758
 31
0.0
  0
LINE
  5
1C5
100
AcDbEntity
  8
FAA70-2202
370
              15
390
0
  6
STYLE_12
 62
               7
100
AcDbLine
 10
-446.54756732546753
 20
-558.99353804953535
 30
0.0
 11
-446.54756732546753
 21
-612.08607252381739
 31
0.0
  0
ARC
  5
1C6
100
AcDbEntity
  8
FAA70-2202
370
              15
390
0
  6
STYLE_12
 62
               7
100
AcDbCircle
 10
-454.81584840263872
 20
-553.81279873981975
 30
0.0
 40
3.0620087319524694
100
AcDbArc
 50
45.479784165404773
 51
89.520215834528912
  0
ARC
  5
1C7
100
AcDbEntity
  8
FAA70-2202
370
              15
390
0
  6
STYLE_12
 62
               7
100
AcDbCircle
 10
-449.39021184113813
 20
-558.92835927381248
 30
0.0
 40
2.8433916570315936
100
AcDbArc
 50
358.6864996657352
 51
46.313500334263551
  0
LINE
  5
1C8
100
AcDbEntity
  8
FAA70-2202
370
              15
390
0
  6
Continuous
 62
               7
100
AcDbLine
 10
-458.04756732546753
 20
-589.08607252381739
 30
0.0
 11
-458.04756732546753
 21
-612.08607252381739
 31
0.0
  0
LINE
  5
1C9
100
AcDbEntity
  8
FAA70-2202
370
              15
390
0
  6
Continuous
 62
               7
100
AcDbLine
 10
-420.54756732546753
 20
-612.08607252381739
 30
0.0
 11
-458.04756732546753
 21
-612.08607252381739
 31
0.0
  0
ARC
  5
1CA
100
AcDbEntity
  8
FAA70-2202
370
              15
390
0
  6
Continuous
 62
               7
100
AcDbCircle
 10
-464.95539061686145
 20
-588.99389581521132
 30
0.0
 40
6.9084382584440771
100
AcDbArc
 50
359.23550115239482
 51
90.764498847605253
  0
LINE
  5
1CB
100
AcDbEntity
  8
FAA70-2202
370
              15
390
0
  6
STYLE_12
 62
               7
100
AcDbLine
 10
-504.00915555761708
 20
-550.75089736241671
 30
0.0
 11
-337.08597909331752
 21
-550.75089736241671
 31
0.0
  0
LINE
  5
1CC
100
AcDbEntity
  8
FAA70-2202
370
              15
390
0
  6
STYLE_12
 62
               7
100
AcDbLine
 10
-560.54756732546753
 20
-466.58607252381648
 30
0.0
 11
-560.54756732546753
 21
-507.58607252381705
 31
0.0
  0
LINE
  5
1CD
100
AcDbEntity
  8
FAA70-2202
370
              15
390
0
  6
STYLE_12
 62
               7
100
AcDbLine
 10
-581.04756732546753
 20
-487.08607252381677
 30
0.0
 11
-540.04756732546753
 21
-487.08607252381677
 31
0.0
  0
LINE
  5
1CE
100
AcDbEntity
  8
FAA70-2202
370
              15
390
0
  6
STYLE_12
 62
               7
100
AcDbLine
 10
-280.54756732546753
 20
-466.58607252381648
 30
0.0
 11
-280.54756732546753
 21
-507.58607252381705
 31
0.0
  0
LINE
  5
1CF
100
AcDbEntity
  8
FAA70-2202
370
              15
390
0
  6
STYLE_12
 62
               7
100
AcDbLine
 10
-301.04756732546753
 20
-487.08607252381677
 30
0.0
 11
-260.04756732546753
 21
-487.08607252381677
 31
0.0
  0
LINE
  5
1D0
100
AcDbEntity
  8
FAA70-2202
370
              15
390
0
  6
Continuous
 62
               7
100
AcDbLine
 10
-720.54756732546753
 20
-394.08607252381648
 30
0.0
 11
-720.54756732546753
 21
-448.0851821284466
 31
0.0
  0
ARC
  5
1D1
100
AcDbEntity
  8
FAA70-2202
370
              15
390
0
  6
Continuous
 62
               7
100
AcDbCircle
 10
-716.54756732546753
 20
-448.0851821284466
 30
0.0
 40
4.0
100
AcDbArc
 50
180.0
 51
270.0
  0
ARC
  5
1D2
100
AcDbEntity
  8
FAA70-2202
370
              15
390
0
  6
Continuous
 62
               7
100
AcDbCircle
 10
-716.41144619436648
 20
-459.20947703929727
 30
0.0
 40
7.1255951989363782
100
AcDbArc
 50
12.075645996727898
 51
91.094594982209742
  0
ARC
  5
1D3
100
AcDbEntity
  8
FAA70-2202
370
              15
390
0
  6
Continuous
 62
               7
100
AcDbCircle
 10
-124.54756732546755
 20
-448.0851821284466
 30
0.0
 40
4.0
100
AcDbArc
 50
270.0
 51
0.0
  0
ARC
  5
1D4
100
AcDbEntity
  8
FAA70-2202
370
              15
390
0
  6
Continuous
 62
               7
100
AcDbCircle
 10
-124.6836884565686
 20
-459.20947703929727
 30
0.0
 40
7.1255951989363604
100
AcDbArc
 50
88.905405017790244
 51
167.9243540032721
  0
CIRCLE
  5
1D5
100
AcDbEntity
  8
FAA70-2202
370
              15
390
0
  6
STYLE_12
 62
               7
100
AcDbCircle
 10
-320.54756732546753
 20
748.83612535973464
 30
0.0
 40
17.5
  0
CIRCLE
  5
1D6
100
AcDbEntity
  8
FAA70-2202
370
              15
390
0
  6
STYLE_12
 62
               7
100
AcDbCircle
 10
-520.54756732546753
 20
748.83612535973464
 30
0.0
 40
17.5
  0
CIRCLE
  5
1D7
100
AcDbEntity
  8
FAA70-2202
370
              15
390
0
  6
STYLE_12
 62
               7
100
AcDbCircle
 10
-560.54756732546753
 20
-487.08607252381677
 30
0.0
 40
10.0
  0
CIRCLE
  5
1D8
100
AcDbEntity
  8
FAA70-2202
370
              15
390
0
  6
STYLE_12
 62
               7
100
AcDbCircle
 10
-280.54756732546753
 20
-487.08607252381677
 30
0.0
 40
10.0
  0
ARC
  5
1D9
100
AcDbEntity
  8
FAA70-2202
370
               5
390
0
  6
STYLE_12
 62
               7
100
AcDbCircle
 10
582.77051890995938
 20
-400.68931257465499
 30
0.0
 40
160.24036257930561
100
AcDbArc
 50
189.47403541099732
 51
272.70675433539685
  0
ARC
  5
1DA
100
AcDbEntity
  8
FAA70-2202
370
               5
390
0
  6
Continuous
 62
               7
100
AcDbCircle
 10
620.07261582355568
 20
-355.04692278831061
 30
0.0
 40
243.52322511544003
100
AcDbArc
 50
204.6771273680676
 51
248.79782107339577
  0
DIMENSION
  5
1DB
100
AcDbEntity
  8
FAA70-2202
370
               5
390
0
  6
Continuous
 62
               7
100
AcDbDimension
  2
*D20
 10
724.67124981384336
 20
-422.08607252381648
 30
0.0
 11
729.67124981384336
 21
-399.0
 31
0.0
 70
             128
 71
               5
 72
               1
 41
1.0
 42
0.0
  3
tfrom線あり
100
AcDbAlignedDimension
 13
715.0
 23
-437.08607252381648
 33
0.0
 14
715.0
 24
-422.08607252381648
 34
0.0
 50
90.0
100
AcDbRotatedDimension
1001
ACAD
1000
DSTYLE
1002
{
1070
             279
1070
               2
1070
             340
1005
36
1070
             174
1070
               0
1070
             147
1040
5.0
1002
}
  0
ARC
  5
1DC
100
AcDbEntity
  8
FAA70-2202
370
               5
390
0
  6
Continuous
 62
               7
100
AcDbCircle
 10
-308.2076849463599
 20
-402.43694280826503
 30
0.0
 40
185.00845714688816
100
AcDbArc
 50
283.82454941537452
 51
342.61403168325904
  0
ARC
  5
1DD
100
AcDbEntity
  8
FAA70-2202
370
               5
390
0
  6
Continuous
 62
               7
100
AcDbCircle
 10
-533.44392530841901
 20
-402.43694280826503
 30
0.0
 40
185.00845714688813
100
AcDbArc
 50
197.38596831674099
 51
256.17545058462548
  0
ENDSEC
  0
SECTION
  2
OBJECTS
  0
DICTIONARY
  5
19
100
AcDbDictionary
280
               0
281
               1
  3
ACAD_GROUP
350
1A
  3
ACAD_MLINESTYLE
350
1B
  3
ACAD_LAYOUT
350
1E
  3
ACAD_PLOTSETTINGS
350
22
  3
ACAD_PLOTSTYLENAME
350
1F
  0
DICTIONARY
  5
1A
102
{ACAD_REACTORS
330
19
102
}
100
AcDbDictionary
280
               0
281
               1
  0
DICTIONARY
  5
1B
102
{ACAD_REACTORS
330
19
102
}
100
AcDbDictionary
280
               0
281
               1
  3
Standard
350
1C
  0
MLINESTYLE
  5
1C
102
{ACAD_REACTORS
330
1B
102
}
100
AcDbMlineStyle
  2
Standard
 70
               0
  3

 62
               0
 51
90.0
 52
90.0
 71
               2
 49
0.5
 62
             256
  6
ByLayer
 49
-0.5
 62
             256
  6
ByLayer
  0
ACDBDICTIONARYWDFLT
  5
1F
102
{ACAD_REACTORS
330
19
102
}
100
AcDbDictionary
281
               1
  3
Normal
350
1D
100
AcDbDictionaryWithDefault
340
1D
  0
ACDBPLACEHOLDER
  5
1D
102
{ACAD_REACTORS
330
1F
102
}
  0
LAYOUT
  5
20
102
{ACAD_REACTORS
330
1E
102
}
100
AcDbPlotSettings
  1

  2

  4

  6

 40
0.0
 41
0.0
 42
0.0
 43
0.0
 44
0.0
 45
0.0
 46
0.0
 47
0.0
 48
0.0
 49
0.0
140
0.0
141
0.0
142
1.0
143
1.0
 70
            1024
 72
               0
 73
               0
 74
               0
  7

 75
               0
147
1.0
148
0.0
149
0.0
100
AcDbLayout
  1
Model
 70
               0
 71
               0
 10
0.0
 20
0.0
 11
0.0
 21
0.0
 12
0.0
 22
0.0
 32
0.0
 14
0.0
 24
0.0
 34
0.0
 15
0.0
 25
0.0
 35
0.0
146
0.0
 13
0.0
 23
0.0
 33
0.0
 16
0.0
 26
0.0
 36
0.0
 17
0.0
 27
0.0
 37
0.0
 76
               0
330
A
331
0
345
0
346
0
  0
LAYOUT
  5
21
102
{ACAD_REACTORS
330
1E
102
}
100
AcDbPlotSettings
  1

  2

  4

  6

 40
0.0
 41
0.0
 42
0.0
 43
0.0
 44
0.0
 45
0.0
 46
0.0
 47
0.0
 48
0.0
 49
0.0
140
0.0
141
0.0
142
1.0
143
1.0
 70
               0
 72
               0
 73
               0
 74
               0
  7

 75
               0
147
1.0
148
0.0
149
0.0
100
AcDbLayout
  1
Layout1
 70
               0
 71
               0
 10
0.0
 20
0.0
 11
0.0
 21
0.0
 12
0.0
 22
0.0
 32
0.0
 14
0.0
 24
0.0
 34
0.0
 15
0.0
 25
0.0
 35
0.0
146
0.0
 13
0.0
 23
0.0
 33
0.0
 16
0.0
 26
0.0
 36
0.0
 17
0.0
 27
0.0
 37
0.0
 76
               0
330
B
331
0
345
0
346
0
  0
DICTIONARY
  5
1E
102
{ACAD_REACTORS
330
19
102
}
100
AcDbDictionary
280
               0
281
               1
  3
Layout1
350
21
  3
Model
350
20
  0
DICTIONARY
  5
22
102
{ACAD_REACTORS
330
19
102
}
100
AcDbDictionary
280
               0
281
               1
  0
ENDSEC
  0
EOF
