  0
SECTION
  2
HEADER
  9
$ACADVER
  1
AC1015
  9
$ACADMAINTVER
 70
               6
  9
$DWGCODEPAGE
  3
ANSI_932
  9
$INSBASE
 10
0.0
 20
0.0
 30
0.0
  9
$EXTMIN
 10
-1049.9999999999998
 20
-1485.0
 30
-14.428611111111111
  9
$EXTMAX
 10
1049.9999999999998
 20
1485.0
 30
14.428611111111111
  9
$LIMMIN
 10
0.0
 20
0.0
  9
$LIMMAX
 10
0.0
 20
0.0
  9
$ORTHOMODE
 70
               0
  9
$REGENMODE
 70
               1
  9
$FILLMODE
 70
               1
  9
$QTEXTMODE
 70
               0
  9
$MIRRTEXT
 70
               1
  9
$LTSCALE
 40
50.799999999999997
  9
$ATTMODE
 70
               1
  9
$TEXTSIZE
 40
0.2
  9
$TRACEWID
 40
1.0
  9
$TEXTSTYLE
  7
Standard
  9
$CLAYER
  8
FAA70-2203
  9
$CELTYPE
  6
Continuous
  9
$CECOLOR
 62
             256
  9
$CELTSCALE
 40
1.0
  9
$DISPSILH
 70
               0
  9
$DIMSCALE
 40
1.0
  9
$DIMASZ
 40
31.75
  9
$DIMEXO
 40
0.0
  9
$DIMDLI
 40
6.9999999999999396
  9
$DIMRND
 40
0.0
  9
$DIMDLE
 40
0.0
  9
$DIMEXE
 40
19.999999999996199
  9
$DIMTP
 40
0.0
  9
$DIMTM
 40
0.0
  9
$DIMTXT
 40
24.432617187500004
  9
$DIMCEN
 40
0.0
  9
$DIMTSZ
 40
0.0
  9
$DIMTOL
 70
               0
  9
$DIMLIM
 70
               0
  9
$DIMTIH
 70
               0
  9
$DIMTOH
 70
               0
  9
$DIMSE1
 70
               0
  9
$DIMSE2
 70
               0
  9
$DIMTAD
 70
               1
  9
$DIMZIN
 70
              11
  9
$DIMBLK
  1
VW_FILLEDARROW
  9
$DIMASO
 70
               1
  9
$DIMSHO
 70
               1
  9
$DIMPOST
  1
<>
  9
$DIMAPOST
  1
[]
  9
$DIMALT
 70
               0
  9
$DIMALTD
 70
               1
  9
$DIMALTF
 40
1.0
  9
$DIMLFAC
 40
1.0
  9
$DIMTOFL
 70
               0
  9
$DIMTVP
 40
0.0
  9
$DIMTIX
 70
               1
  9
$DIMSOXD
 70
               0
  9
$DIMSAH
 70
               0
  9
$DIMBLK1
  1

  9
$DIMBLK2
  1

  9
$DIMSTYLE
  2
JIS
  9
$DIMCLRD
 70
               0
  9
$DIMCLRE
 70
               0
  9
$DIMCLRT
 70
               0
  9
$DIMTFAC
 40
1.0
  9
$DIMGAP
 40
1.00000000000108
  9
$DIMJUST
 70
               0
  9
$DIMSD1
 70
               0
  9
$DIMSD2
 70
               0
  9
$DIMTOLJ
 70
               1
  9
$DIMTZIN
 70
              11
  9
$DIMALTZ
 70
              11
  9
$DIMALTTZ
 70
              11
  9
$DIMUPT
 70
               0
  9
$DIMDEC
 70
               1
  9
$DIMTDEC
 70
               1
  9
$DIMALTU
 70
               2
  9
$DIMALTTD
 70
               2
  9
$DIMTXSTY
  7
ＭＳ ゴシック
  9
$DIMAUNIT
 70
               0
  9
$DIMADEC
 70
               2
  9
$DIMALTRND
 40
0.0
  9
$DIMAZIN
 70
               0
  9
$DIMDSEP
 70
              46
  9
$DIMATFIT
 70
               0
  9
$DIMFRAC
 70
               2
  9
$DIMLDRBLK
  1

  9
$DIMLUNIT
 70
               2
  9
$DIMLWD
 70
              -2
  9
$DIMLWE
 70
              -2
  9
$DIMTMOVE
 70
               0
  9
$LUNITS
 70
               2
  9
$LUPREC
 70
               4
  9
$SKETCHINC
 40
0.1
  9
$FILLETRAD
 40
0.0
  9
$AUNITS
 70
               0
  9
$AUPREC
 70
               0
  9
$MENU
  1
acad
  9
$ELEVATION
 40
0.0
  9
$PELEVATION
 40
0.0
  9
$THICKNESS
 40
0.0
  9
$LIMCHECK
 70
               0
  9
$CHAMFERA
 40
0.0
  9
$CHAMFERB
 40
0.0
  9
$CHAMFERC
 40
0.0
  9
$CHAMFERD
 40
0.0
  9
$SKPOLY
 70
               0
  9
$TDCREATE
 40
2455982.617997685
  9
$TDUCREATE
 40
0.000000000
  9
$TDUPDATE
 40
2455982.617997685
  9
$TDUUPDATE
 40
0.000000000
  9
$TDINDWG
 40
0.0000000000
  9
$TDUSRTIMER
 40
0.0000000000
  9
$USRTIMER
 70
               1
  9
$ANGBASE
 50
0.0
  9
$ANGDIR
 70
               0
  9
$PDMODE
 70
               1
  9
$PDSIZE
 40
-2.0
  9
$PLINEWID
 40
0.0
  9
$SPLFRAME
 70
               0
  9
$SPLINETYPE
 70
               6
  9
$SPLINESEGS
 70
               8
  9
$HANDSEED
  5
1DD
  9
$SURFTAB1
 70
               6
  9
$SURFTAB2
 70
               6
  9
$SURFTYPE
 70
               6
  9
$SURFU
 70
               6
  9
$SURFV
 70
               6
  9
$UCSBASE
  2

  9
$UCSNAME
  2

  9
$UCSORG
 10
0.0
 20
0.0
 30
0.0
  9
$UCSXDIR
 10
1.0
 20
0.0
 30
0.0
  9
$UCSYDIR
 10
0.0
 20
1.0
 30
0.0
  9
$UCSORTHOREF
  2

  9
$UCSORTHOVIEW
 70
               0
  9
$UCSORGTOP
 10
0.0
 20
0.0
 30
0.0
  9
$UCSORGBOTTOM
 10
0.0
 20
0.0
 30
0.0
  9
$UCSORGLEFT
 10
0.0
 20
0.0
 30
0.0
  9
$UCSORGRIGHT
 10
0.0
 20
0.0
 30
0.0
  9
$UCSORGFRONT
 10
0.0
 20
0.0
 30
0.0
  9
$UCSORGBACK
 10
0.0
 20
0.0
 30
0.0
  9
$PUCSBASE
  2

  9
$PUCSNAME
  2

  9
$PUCSORG
 10
0.0
 20
0.0
 30
0.0
  9
$PUCSXDIR
 10
1.0
 20
0.0
 30
0.0
  9
$PUCSYDIR
 10
0.0
 20
1.0
 30
0.0
  9
$PUCSORTHOREF
  2

  9
$PUCSORTHOVIEW
 70
               0
  9
$PUCSORGTOP
 10
0.0
 20
0.0
 30
0.0
  9
$PUCSORGBOTTOM
 10
0.0
 20
0.0
 30
0.0
  9
$PUCSORGLEFT
 10
0.0
 20
0.0
 30
0.0
  9
$PUCSORGRIGHT
 10
0.0
 20
0.0
 30
0.0
  9
$PUCSORGFRONT
 10
0.0
 20
0.0
 30
0.0
  9
$PUCSORGBACK
 10
0.0
 20
0.0
 30
0.0
  9
$USERI1
 70
               0
  9
$USERI2
 70
               0
  9
$USERI3
 70
               0
  9
$USERI4
 70
               0
  9
$USERI5
 70
               0
  9
$USERR1
 40
0.0
  9
$USERR2
 40
0.0
  9
$USERR3
 40
0.0
  9
$USERR4
 40
0.0
  9
$USERR5
 40
0.0
  9
$WORLDVIEW
 70
               1
  9
$SHADEDGE
 70
               3
  9
$SHADEDIF
 70
              70
  9
$TILEMODE
 70
               1
  9
$MAXACTVP
 70
              64
  9
$PINSBASE
 10
0.0
 20
0.0
 30
0.0
  9
$PLIMCHECK
 70
               0
  9
$PEXTMIN
 10
1.0000000000000000E+20
 20
1.0000000000000000E+20
 30
1.0000000000000000E+20
  9
$PEXTMAX
 10
-1.0000000000000000E+20
 20
-1.0000000000000000E+20
 30
-1.0000000000000000E+20
  9
$PLIMMIN
 10
0.0
 20
0.0
  9
$PLIMMAX
 10
12.0
 20
9.0
  9
$UNITMODE
 70
               0
  9
$VISRETAIN
 70
               0
  9
$PLINEGEN
 70
               1
  9
$PSLTSCALE
 70
               0
  9
$TREEDEPTH
 70
            3020
  9
$CMLSTYLE
  2
Standard
  9
$CMLJUST
 70
               0
  9
$CMLSCALE
 40
1.0
  9
$PROXYGRAPHICS
 70
               0
  9
$MEASUREMENT
 70
               1
  9
$CELWEIGHT
370
               0
  9
$ENDCAPS
280
               0
  9
$JOINSTYLE
280
               0
  9
$LWDISPLAY
290
               1
  9
$INSUNITS
 70
               4
  9
$HYPERLINKBASE
  1

  9
$STYLESHEET
  1

  9
$XEDIT
290
               1
  9
$CEPSNTYPE
380
               0
  9
$PSTYLEMODE
290
               1
  9
$FINGERPRINTGUID
  2

  9
$VERSIONGUID
  2

  9
$EXTNAMES
290
               1
  9
$PSVPSCALE
 40
0.0
  0
ENDSEC
  0
SECTION
  2
CLASSES
  0
CLASS
  1
LWPOLYLINE
  2
AcDbPolyline
  3
AutoCAD 2000
 90
        0
280
               0
281
               1
  0
CLASS
  1
IMAGE
  2
AcDbRasterImage
  3
ISM
 90
      127
280
               0
281
               1
  0
CLASS
  1
OLE2FRAME
  2
AcDbOle2Frame
  3
AutoCAD 2000
 90
        0
280
               0
281
               1
  0
CLASS
  1
HATCH
  2
AcDbHatch
  3
AutoCAD 2000
 90
        0
280
               0
281
               1
  0
CLASS
  1
DICTIONARYVAR
  2
AcDbDictionaryVar
  3
AutoCAD 2000
 90
        0
280
               0
281
               0
  0
CLASS
  1
RASTERVARIABLES
  2
AcDbRasterVariables
  3
ISM
 90
        0
280
               0
281
               0
  0
CLASS
  1
IMAGEDEF
  2
AcDbRasterImageDef
  3
ISM
 90
        0
280
               0
281
               0
  0
CLASS
  1
IMAGEDEF_REACTOR
  2
AcDbRasterImageDefReactor
  3
ISM
 90
        1
280
               0
281
               0
  0
CLASS
  1
IDBUFFER
  2
AcDbIdBuffer
  3
AutoCAD 2000
 90
        0
280
               0
281
               0
  0
CLASS
  1
SPATIAL_FILTER
  2
AcDbSpatialFilter
  3
AutoCAD 2000
 90
        0
280
               0
281
               0
  0
CLASS
  1
XRECORD
  2
AcDbXrecord
  3
AutoCAD 2000
 90
        0
280
               0
281
               0
  0
CLASS
  1
SORTENTSTABLE
  2
AcDbSortentsTable
  3
AutoCAD 2000
 90
        0
280
               0
281
               0
  0
CLASS
  1
LAYER_INDEX
  2
AcDbLayerIndex
  3
AutoCAD 2000
 90
        0
280
               0
281
               0
  0
CLASS
  1
SPATIAL_INDEX
  2
AcDbSpatialIndex
  3
AutoCAD 2000
 90
        0
280
               0
281
               0
  0
CLASS
  1
OBJECT_PTR
  2
CAseDLPNTableRecord
  3
"ASE-LPNTableRecord"
 90
        1
280
               0
281
               0
  0
CLASS
  1
LAYOUT
  2
AcDbLayout
  3
AutoCAD 2000
 90
        0
280
               0
281
               0
  0
CLASS
  1
PLOTSETTINGS
  2
AcDbPlotSettings
  3
AutoCAD 2000
 90
        0
280
               0
281
               0
  0
CLASS
  1
ACDBDICTIONARYWDFLT
  2
AcDbDictionaryWithDefault
  3
AutoCAD 2000
 90
        0
280
               0
281
               0
  0
CLASS
  1
ACDBPLACEHOLDER
  2
AcDbPlaceHolder
  3
AutoCAD 2000
 90
        0
280
               0
281
               0
  0
ENDSEC
  0
SECTION
  2
TABLES
  0
TABLE
  2
VPORT
  5
7
100
AcDbSymbolTable
 70
               1
  0
VPORT
  5
15
100
AcDbSymbolTableRecord
100
AcDbViewportTableRecord
  2
*ACTIVE
 70
               0
 10
0.0
 20
0.0
 11
1.0
 21
1.0
 12
0.0
 22
0.0
 13
0.0
 23
0.0
 14
1.0
 24
1.0
 15
0.0
 25
0.0
 16
0.0
 26
0.0
 36
1.0
 17
0.0
 27
0.0
 37
0.0
 40
2970.0
 41
0.688564
 42
50.0
 43
0.0
 44
0.0
 50
0.0
 51
0.0
 71
               0
 72
            2000
 73
               1
 74
               1
 75
               0
 76
               0
 77
               0
 78
               0
281
               0
 65
               0
110
0.0
120
0.0
130
0.0
111
1.0
121
0.0
131
0.0
112
0.0
122
1.0
132
0.0
345
0
346
0
 79
               0
146
0.0
  0
ENDTAB
  0
TABLE
  2
LTYPE
  5
4
100
AcDbSymbolTable
 70
              17
  0
LTYPE
  5
11
100
AcDbSymbolTableRecord
100
AcDbLinetypeTableRecord
  2
ByBlock
 70
              64
  3

 72
              65
 73
               0
 40
0.0
  0
LTYPE
  5
12
100
AcDbSymbolTableRecord
100
AcDbLinetypeTableRecord
  2
ByLayer
 70
              64
  3

 72
              65
 73
               0
 40
0.0
  0
LTYPE
  5
13
100
AcDbSymbolTableRecord
100
AcDbLinetypeTableRecord
  2
Continuous
 70
              64
  3
Solid line
 72
              65
 73
               0
 40
0.0
  0
LTYPE
  5
37
100
AcDbSymbolTableRecord
100
AcDbLinetypeTableRecord
  2
STYLE_01
 70
               0
  3

 72
              65
 73
               4
 40
0.2214566929133858
 49
0.1476377952755905
 74
               0
 49
-0.0246062992125984
 74
               0
 49
0.0246062992125984
 74
               0
 49
-0.0246062992125984
 74
               0
  0
LTYPE
  5
38
100
AcDbSymbolTableRecord
100
AcDbLinetypeTableRecord
  2
STYLE_02
 70
               0
  3

 72
              65
 73
               4
 40
0.0442913385826772
 49
0.0295275590551181
 74
               0
 49
-0.0049212598425197
 74
               0
 49
0.0049212598425197
 74
               0
 49
-0.0049212598425197
 74
               0
  0
LTYPE
  5
39
100
AcDbSymbolTableRecord
100
AcDbLinetypeTableRecord
  2
STYLE_03
 70
               0
  3

 72
              65
 73
               2
 40
1.25
 49
1.0416400000000001
 74
               0
 49
-0.2083599999999999
 74
               0
  0
LTYPE
  5
3A
100
AcDbSymbolTableRecord
100
AcDbLinetypeTableRecord
  2
STYLE_04
 70
               0
  3

 72
              65
 73
               2
 40
1.5277099999999999
 49
1.3194249999999998
 74
               0
 49
-0.208285
 74
               0
  0
LTYPE
  5
3B
100
AcDbSymbolTableRecord
100
AcDbLinetypeTableRecord
  2
STYLE_05
 70
               0
  3

 72
              65
 73
               2
 40
0.20828
 49
0.069425
 74
               0
 49
-0.138855
 74
               0
  0
LTYPE
  5
3C
100
AcDbSymbolTableRecord
100
AcDbLinetypeTableRecord
  2
STYLE_06
 70
               0
  3

 72
              65
 73
               4
 40
1.0416400000000001
 49
0.625
 74
               0
 49
-0.20828
 74
               0
 49
0.06943
 74
               0
 49
-0.13893
 74
               0
  0
LTYPE
  5
3D
100
AcDbSymbolTableRecord
100
AcDbLinetypeTableRecord
  2
STYLE_07
 70
               0
  3

 72
              65
 73
               6
 40
1.875
 49
0.625
 74
               0
 49
-0.20828
 74
               0
 49
0.6250000000000001
 74
               0
 49
-0.2083599999999999
 74
               0
 49
0.06943
 74
               0
 49
-0.1389299999999999
 74
               0
  0
LTYPE
  5
3E
100
AcDbSymbolTableRecord
100
AcDbLinetypeTableRecord
  2
STYLE_08
 70
               0
  3

 72
              65
 73
               6
 40
1.25
 49
0.625
 74
               0
 49
-0.20828
 74
               0
 49
0.06943
 74
               0
 49
-0.13893
 74
               0
 49
0.0694299999999999
 74
               0
 49
-0.13893
 74
               0
  0
LTYPE
  5
3F
100
AcDbSymbolTableRecord
100
AcDbLinetypeTableRecord
  2
STYLE_09
 70
               0
  3

 72
              65
 73
               4
 40
5.0
 49
3.75
 74
               0
 49
-0.2777849999999998
 74
               0
 49
0.6944300000000003
 74
               0
 49
-0.2777849999999998
 74
               0
  0
LTYPE
  5
40
100
AcDbSymbolTableRecord
100
AcDbLinetypeTableRecord
  2
STYLE_10
 70
               0
  3

 72
              65
 73
               6
 40
5.9375
 49
3.75
 74
               0
 49
-0.2777849999999998
 74
               0
 49
0.6944300000000003
 74
               0
 49
-0.2777849999999998
 74
               0
 49
0.625
 74
               0
 49
-0.3125
 74
               0
  0
LTYPE
  5
41
100
AcDbSymbolTableRecord
100
AcDbLinetypeTableRecord
  2
STYLE_11
 70
               0
  3

 72
              65
 73
               2
 40
0.0694444881889764
 49
0.0347222440944882
 74
               0
 49
-0.0347222440944882
 74
               0
  0
LTYPE
  5
42
100
AcDbSymbolTableRecord
100
AcDbLinetypeTableRecord
  2
STYLE_12
 70
               0
  3

 72
              65
 73
               2
 40
0.3937007874015748
 49
0.1968503937007874
 74
               0
 49
-0.1968503937007874
 74
               0
  0
LTYPE
  5
43
100
AcDbSymbolTableRecord
100
AcDbLinetypeTableRecord
  2
STYLE_13
 70
               0
  3

 72
              65
 73
               2
 40
0.5905511811023622
 49
0.2952755905511811
 74
               0
 49
-0.2952755905511811
 74
               0
  0
LTYPE
  5
44
100
AcDbSymbolTableRecord
100
AcDbLinetypeTableRecord
  2
STYLE_14
 70
               0
  3

 72
              65
 73
               2
 40
1.9685039370078738
 49
0.9842519685039369
 74
               0
 49
-0.9842519685039369
 74
               0
  0
ENDTAB
  0
TABLE
  2
LAYER
  5
2
100
AcDbSymbolTable
 70
               5
  0
LAYER
  5
14
100
AcDbSymbolTableRecord
100
AcDbLayerTableRecord
  2
0
 70
               0
 62
               7
  6
Continuous
290
               1
370
              -3
390
1D
  0
LAYER
  5
45
100
AcDbSymbolTableRecord
100
AcDbLayerTableRecord
  2
Defpoints
 70
               0
 62
               7
  6
Continuous
290
               0
370
              -3
390
1D
  0
LAYER
  5
46
100
AcDbSymbolTableRecord
100
AcDbLayerTableRecord
  2
template
 70
               0
 62
               7
  6
Continuous
290
               1
370
              -3
390
1D
  0
LAYER
  5
47
100
AcDbSymbolTableRecord
100
AcDbLayerTableRecord
  2
notes
 70
               0
 62
               7
  6
Continuous
290
               1
370
              -3
390
1D
  0
LAYER
  5
48
100
AcDbSymbolTableRecord
100
AcDbLayerTableRecord
  2
FAA70-2203
 70
               0
 62
               7
  6
Continuous
290
               1
370
              -3
390
1D
  0
ENDTAB
  0
TABLE
  2
STYLE
  5
3
100
AcDbSymbolTable
 70
               2
  0
STYLE
  5
17
100
AcDbSymbolTableRecord
100
AcDbTextStyleTableRecord
  2
Standard
 70
               0
 40
0.0
 41
1.0
 50
0.0
 71
               0
 42
0.0
  3
txt
  4
BIGFONT.SHX
  0
STYLE
  5
36
100
AcDbSymbolTableRecord
100
AcDbTextStyleTableRecord
  2
ＭＳ ゴシック
 70
               0
 40
0.0
 41
1.0
 50
0.0
 71
               0
 42
0.0
  3

  4
ＭＳ ゴシック
1001
ACAD
1000
ＭＳ ゴシック
1071
        0
  0
ENDTAB
  0
TABLE
  2
VIEW
  5
5
100
AcDbSymbolTable
 70
               0
  0
ENDTAB
  0
TABLE
  2
UCS
  5
6
100
AcDbSymbolTable
 70
               0
  0
ENDTAB
  0
TABLE
  2
APPID
  5
8
100
AcDbSymbolTable
 70
               1
  0
APPID
  5
16
100
AcDbSymbolTableRecord
100
AcDbRegAppTableRecord
  2
ACAD
 70
               0
  0
ENDTAB
  0
TABLE
  2
DIMSTYLE
  5
9
100
AcDbSymbolTable
 70
               3
100
AcDbDimStyleTable
 71
               0
  0
DIMSTYLE
105
18
100
AcDbSymbolTableRecord
100
AcDbDimStyleTableRecord
  2
Standard
 70
               0
  3

  4

 40
1.0
 41
0.18
 42
0.0625
 43
0.38
 44
0.18
 45
0.0
 46
0.0
 47
0.0
 48
0.0
 71
               0
 72
               0
 73
               1
 74
               1
 75
               0
 76
               0
 77
               0
 78
               0
 79
               0
140
0.18
141
0.09
142
0.0
143
25.399999999999999
144
1.0
145
0.0
146
1.0
147
0.09
148
0.0
170
               0
171
               2
172
               0
173
               0
174
               0
175
               0
176
               0
177
               0
178
               0
179
               0
271
               4
272
               4
273
               2
274
               2
275
               0
276
               0
277
               2
278
              46
279
               0
280
               0
281
               0
282
               0
283
               1
284
               0
285
               0
286
               0
288
               0
289
               3
340
17
341
0
342
0
343
0
344
0
371
              -2
372
              -2
  0
DIMSTYLE
105
51
100
AcDbSymbolTableRecord
100
AcDbDimStyleTableRecord
  2
tfrom線あり
 70
               0
  3
<>
  4
[]
 40
1.0
 41
3.999755859375
 42
24.999999999999996
 43
0.9999999999999999
 44
0.0
 45
0.0
 46
0.0
 47
0.0
 48
0.0
 71
               0
 72
               0
 73
               0
 74
               0
 75
               0
 76
               0
 77
               1
 78
              11
 79
               0
140
24.432617187500004
141
0.0
142
0.0
143
1.0
144
1.0
145
0.0
146
1.0
147
0.4999999999999999
148
0.0
170
               0
171
               1
172
               0
173
               0
174
               1
175
               0
176
               0
177
               0
178
               0
179
               2
271
               1
272
               1
273
               2
274
               2
275
               0
276
               2
277
               2
278
              46
279
               0
280
               0
281
               0
282
               0
283
               1
284
              11
285
              11
286
              11
288
               0
289
               0
340
36
341
49
342
49
343
0
344
0
371
              -2
372
              -2
  0
DIMSTYLE
105
56
100
AcDbSymbolTableRecord
100
AcDbDimStyleTableRecord
  2
JIS
 70
               0
  3
<>
  4
[]
 40
1.0
 41
31.75
 42
0.0
 43
6.9999999999999396
 44
19.999999999996199
 45
0.0
 46
0.0
 47
0.0
 48
0.0
 71
               0
 72
               0
 73
               0
 74
               0
 75
               0
 76
               0
 77
               1
 78
              11
 79
               0
140
24.432617187500004
141
0.0
142
0.0
143
1.0
144
1.0
145
0.0
146
1.0
147
1.00000000000108
148
0.0
170
               0
171
               1
172
               0
173
               0
174
               1
175
               0
176
               0
177
               0
178
               0
179
               2
271
               1
272
               1
273
               2
274
               2
275
               0
276
               2
277
               2
278
              46
279
               0
280
               0
281
               0
282
               0
283
               1
284
              11
285
              11
286
              11
288
               0
289
               0
340
36
341
52
342
52
343
0
344
0
371
              -2
372
              -2
  0
ENDTAB
  0
TABLE
  2
BLOCK_RECORD
  5
1
100
AcDbSymbolTable
 70
              21
  0
BLOCK_RECORD
  5
A
100
AcDbSymbolTableRecord
100
AcDbBlockTableRecord
  2
*MODEL_SPACE
340
20
  0
BLOCK_RECORD
  5
B
100
AcDbSymbolTableRecord
100
AcDbBlockTableRecord
  2
*PAPER_SPACE
340
21
  0
BLOCK_RECORD
  5
49
100
AcDbSymbolTableRecord
100
AcDbBlockTableRecord
  2
_DOT
340
0
  0
BLOCK_RECORD
  5
52
100
AcDbSymbolTableRecord
100
AcDbBlockTableRecord
  2
VW_FILLEDARROW
340
0
  0
BLOCK_RECORD
  5
23
100
AcDbSymbolTableRecord
100
AcDbBlockTableRecord
  2
グループ
340
0
102
{BLKREFS
331
14F
102
}
  0
BLOCK_RECORD
  5
24
100
AcDbSymbolTableRecord
100
AcDbBlockTableRecord
  2
*D3
340
0
  0
BLOCK_RECORD
  5
25
100
AcDbSymbolTableRecord
100
AcDbBlockTableRecord
  2
*D4
340
0
  0
BLOCK_RECORD
  5
26
100
AcDbSymbolTableRecord
100
AcDbBlockTableRecord
  2
*D5
340
0
  0
BLOCK_RECORD
  5
27
100
AcDbSymbolTableRecord
100
AcDbBlockTableRecord
  2
*D6
340
0
  0
BLOCK_RECORD
  5
28
100
AcDbSymbolTableRecord
100
AcDbBlockTableRecord
  2
*D7
340
0
  0
BLOCK_RECORD
  5
29
100
AcDbSymbolTableRecord
100
AcDbBlockTableRecord
  2
*D8
340
0
  0
BLOCK_RECORD
  5
2A
100
AcDbSymbolTableRecord
100
AcDbBlockTableRecord
  2
*D9
340
0
  0
BLOCK_RECORD
  5
2B
100
AcDbSymbolTableRecord
100
AcDbBlockTableRecord
  2
*D10
340
0
  0
BLOCK_RECORD
  5
2C
100
AcDbSymbolTableRecord
100
AcDbBlockTableRecord
  2
*D11
340
0
  0
BLOCK_RECORD
  5
2D
100
AcDbSymbolTableRecord
100
AcDbBlockTableRecord
  2
*D12
340
0
  0
BLOCK_RECORD
  5
2E
100
AcDbSymbolTableRecord
100
AcDbBlockTableRecord
  2
*D13
340
0
  0
BLOCK_RECORD
  5
2F
100
AcDbSymbolTableRecord
100
AcDbBlockTableRecord
  2
*D14
340
0
  0
BLOCK_RECORD
  5
30
100
AcDbSymbolTableRecord
100
AcDbBlockTableRecord
  2
*D15
340
0
  0
BLOCK_RECORD
  5
31
100
AcDbSymbolTableRecord
100
AcDbBlockTableRecord
  2
*D16
340
0
  0
BLOCK_RECORD
  5
32
100
AcDbSymbolTableRecord
100
AcDbBlockTableRecord
  2
*D17
340
0
  0
BLOCK_RECORD
  5
33
100
AcDbSymbolTableRecord
100
AcDbBlockTableRecord
  2
*D18
340
0
  0
BLOCK_RECORD
  5
34
100
AcDbSymbolTableRecord
100
AcDbBlockTableRecord
  2
*D19
340
0
  0
BLOCK_RECORD
  5
35
100
AcDbSymbolTableRecord
100
AcDbBlockTableRecord
  2
*D20
340
0
  0
ENDTAB
  0
ENDSEC
  0
SECTION
  2
BLOCKS
  0
BLOCK
  5
D
100
AcDbEntity
  8
0
390
0
100
AcDbBlockBegin
  2
*MODEL_SPACE
 70
               0
 10
0.0
 20
0.0
 30
0.0
  3
*MODEL_SPACE
  1

  0
ENDBLK
  5
E
100
AcDbEntity
  8
0
390
0
100
AcDbBlockEnd
  0
BLOCK
  5
F
100
AcDbEntity
 67
               1
  8
0
390
0
100
AcDbBlockBegin
  2
*PAPER_SPACE
 70
               0
 10
0.0
 20
0.0
 30
0.0
  3
*PAPER_SPACE
  1

  0
ENDBLK
  5
10
100
AcDbEntity
 67
               1
  8
0
390
0
100
AcDbBlockEnd
  0
BLOCK
  5
4A
100
AcDbEntity
  8
0
390
0
100
AcDbBlockBegin
  2
_DOT
 70
               0
 10
0.0
 20
0.0
 30
0.0
  3
_DOT
  1

  0
POLYLINE
  5
4B
100
AcDbEntity
  8
0
370
              -2
390
0
  6
ByBlock
 62
               0
100
AcDb2dPolyline
 66
               1
 10
0.0
 20
0.0
 30
0.0
 70
               1
 40
0.5
 41
0.5
  0
VERTEX
  5
4C
100
AcDbEntity
  8
0
370
              -2
390
0
  6
ByBlock
 62
               0
100
AcDbVertex
100
AcDb2dVertex
 10
-0.25
 20
0.0
 30
0.0
 42
1.0
  0
VERTEX
  5
4D
100
AcDbEntity
  8
0
370
              -2
390
0
  6
ByBlock
 62
               0
100
AcDbVertex
100
AcDb2dVertex
 10
0.25
 20
0.0
 30
0.0
 42
1.0
  0
SEQEND
  5
4E
100
AcDbEntity
  8
0
390
0
  0
LINE
  5
4F
100
AcDbEntity
  8
0
370
              -2
390
0
  6
ByBlock
 62
               0
100
AcDbLine
 10
-0.5
 20
0.0
 30
0.0
 11
-1.0
 21
0.0
 31
0.0
  0
ENDBLK
  5
50
100
AcDbEntity
  8
0
390
0
100
AcDbBlockEnd
  0
BLOCK
  5
53
100
AcDbEntity
  8
0
370
              -2
390
0
  6
ByBlock
 62
               0
100
AcDbBlockBegin
  2
VW_FILLEDARROW
 70
               0
 10
0.0
 20
0.0
 30
0.0
  3
VW_FILLEDARROW
  1

  0
SOLID
  5
54
100
AcDbEntity
  8
0
370
              -2
390
0
 62
               0
100
AcDbTrace
 10
0.0
 20
0.0
 30
0.0
 11
-0.9921874999999999
 21
-0.2658558393652545
 31
0.0
 12
-0.9921874999999999
 22
0.2658558393652548
 32
0.0
 13
-0.9921874999999999
 23
0.2658558393652548
 33
0.0
  0
ENDBLK
  5
55
100
AcDbEntity
  8
0
390
0
100
AcDbBlockEnd
  0
BLOCK
  5
57
100
AcDbEntity
  8
template
390
0
100
AcDbBlockBegin
  2
グループ
 70
               0
 10
0.0
 20
0.0
 30
0.0
  3
グループ
  1

  0
LWPOLYLINE
  5
58
100
AcDbEntity
  8
0
370
              15
390
0
  6
Continuous
 62
               7
100
AcDbPolyline
 90
        8
 70
             129
 10
820.3619252663342
 20
-1126.0321844352179
 10
820.3619252663342
 20
-1132.0295731287938
 10
810.86072834833089
 20
-1132.0295731287938
 10
810.86072834833089
 20
-1156.4805363923026
 10
802.5053510865481
 20
-1156.4805363923026
 10
802.5053510865481
 20
-1132.0295731287938
 10
793.17239414023868
 20
-1132.0295731287938
 10
793.17239414023868
 20
-1126.0321844352179
  0
LWPOLYLINE
  5
59
100
AcDbEntity
  8
0
370
              15
390
0
  6
Continuous
 62
               7
100
AcDbPolyline
 90
      101
 70
             128
 10
833.09021709689114
 20
-1126.7604329281544
 10
833.10556712567563
 20
-1126.7560721714694
 42
-0.0222221607813688
 10
833.3955717023473
 20
-1126.6874477062247
 10
833.41136546633857
 20
-1126.6844442831282
 42
-0.0146883565588627
 10
833.67406817156507
 20
-1126.6424410961783
 42
-0.0127458844188942
 10
833.93870713871468
 20
-1126.6149041281062
 10
834.00116221703081
 20
-1126.6100107055177
 42
-0.0198099018566525
 10
834.39201132650294
 20
-1126.594925548121
 10
834.44382279595152
 20
-1126.594979323786
 42
-0.0147617382762287
 10
834.93844625692566
 20
-1126.6100993490311
 10
835.01113771179928
 20
-1126.6144719559186
 42
-0.0162624549003708
 10
835.40129134126516
 20
-1126.650704831191
 10
835.52282373252285
 20
-1126.6659913901874
 42
-0.0080020874670656
 10
835.66840276361586
 20
-1126.6866742374559
 10
835.70672223421343
 20
-1126.6927455152675
 42
-0.0053821929676964
 10
835.77520633952577
 20
-1126.7043530390886
 10
835.04880064032716
 20
-1128.8852814948025
 42
0.0108667757391865
 10
834.98148357019772
 20
-1128.8720943795829
 10
834.94401554700676
 20
-1128.8655966369881
 42
0.017066320330903
 10
834.80079876009415
 20
-1128.8457670396967
 10
834.73292342740831
 20
-1128.8387198691089
 42
0.0220162375277285
 10
834.45254401955117
 20
-1128.8220375083388
 10
834.37468845250112
 20
-1128.8208381410723
 42
0.0282606915786844
 10
834.039052128923
 20
-1128.8346414180414
 10
833.99513885515069
 20
-1128.838941408045
 42
0.0169677213685068
 10
833.74921436019167
 20
-1128.8714784575968
 42
0.0190576269865859
 10
833.50630639761096
 20
-1128.9216253297036
 10
833.50004720950085
 20
-1128.9231683038126
 42
0.0213685642845231
 10
833.24966272502593
 20
-1128.9963685889165
 10
833.24417283010689
 20
-1128.9982315849766
 42
0.0237595297600106
 10
832.99067794520784
 20
-1129.0979161068724
 10
832.98557587117853
 20
-1129.1002078823503
 42
0.0261857468820252
 10
832.73340509494869
 20
-1129.2297442197248
 10
832.72297890586344
 20
-1129.2358096941921
 42
0.027255306201966
 10
832.48654913062319
 20
-1129.3911819001373
 10
832.45178611711299
 20
-1129.41684304823
 42
0.0325996893175204
 10
832.30163077346219
 20
-1129.543590921201
 10
832.2779213443348
 20
-1129.5664089497179
 42
0.0138050960649169
 10
832.18603818812892
 20
-1129.6598586112655
 42
0.0125280103793742
 10
832.09919565529867
 20
-1129.7580219378617
 10
832.07551521038704
 20
-1129.786180436053
 42
0.0205218024741183
 10
831.95041513487286
 20
-1129.9479737502827
 10
831.92794879438623
 20
-1129.979633480109
 42
0.0163110129584162
 10
831.77223841513376
 20
-1130.2149639151808
 10
831.76951451908394
 20
-1130.2193876771644
 42
0.0131897341891608
 10
831.62271399818178
 20
-1130.472519769522
 10
831.62101390281157
 20
-1130.4756380086646
 42
0.0107895576061615
 10
831.48323720060137
 20
-1130.7418532182983
 10
831.48250431107567
 20
-1130.7433474509462
 42
0.0091371507218495
 10
831.35402436242714
 20
-1131.0178726487038
 10
831.3242787310171
 20
-1131.0845791558645
 42
0.0135418326352144
 10
831.15256479194727
 20
-1131.4995169411284
 10
831.11895998351315
 20
-1131.5873830834091
 42
0.0092834542407035
 10
830.94773092359014
 20
-1132.0612815817199
 10
830.92211379587161
 20
-1132.1365226515161
 42
0.0054261043584216
 10
830.81447564757968
 20
-1132.4642866245786
 10
830.79694966138982
 20
-1132.5196747868479
 42
0.0008225090824776
 10
830.72827960957216
 20
-1132.7379435449577
 10
829.74359047763869
 20
-1135.7628348382143
 10
832.97621431771256
 20
-1135.7628348382143
 10
832.47202188785911
 20
-1137.6673131365667
 10
829.21596560587579
 20
-1137.6673131365667
 10
823.38681657352197
 20
-1156.4805362025716
 10
821.56171896321166
 20
-1156.4805362025716
 10
827.39639699871259
 20
-1137.6673131365667
 10
824.99128062967225
 20
-1137.6673131365667
 10
825.49547305952569
 20
-1135.7628348382143
 10
827.92402187047571
 20
-1135.7628348382143
 10
828.78417678866435
 20
-1133.1264218375154
 42
-0.0005863560642452
 10
828.820911466854
 20
-1133.009595417268
 10
828.89699930052825
 20
-1132.7686031178382
 42
-0.0087522378927803
 10
829.09646744398594
 20
-1132.1733270306893
 10
829.18873171940231
 20
-1131.913186862168
 42
-0.0077400953830024
 10
829.4466653785297
 20
-1131.2201821846306
 10
829.46243035010605
 20
-1131.1797513012509
 42
-0.0082369946331664
 10
829.70951482072053
 20
-1130.5756722350488
 42
-0.0085725238363849
 10
829.97676091672577
 20
-1129.9802461957565
 10
830.07839051773124
 20
-1129.7638250937757
 42
-0.0168109410594561
 10
830.36533494646073
 20
-1129.2026175676722
 10
830.49117833685341
 20
-1128.9756535347942
 42
-0.0007817726871607
 10
830.54546268697641
 20
-1128.8781092896438
 10
830.54559099299331
 20
-1128.877879580908
 42
-0.0036626142159643
 10
830.60047885701499
 20
-1128.7812817009387
 42
-0.0080221150661354
 10
830.65760311242002
 20
-1128.6860024661885
 10
830.68830306378288
 20
-1128.6366115170636
 42
-0.0202139325577491
 10
830.81595880358941
 20
-1128.4486299163825
 10
830.87002626877722
 20
-1128.3755510521414
 42
-0.0249323791796075
 10
831.12918906249661
 20
-1128.0595058099868
 10
831.15332887662339
 20
-1128.0328915370746
 42
-0.024213212154047
 10
831.493009618163
 20
-1127.6930080508728
 10
831.54092119091433
 20
-1127.6494989146861
 42
-0.0251017527862725
 10
831.8249028915568
 20
-1127.4165061689196
 10
831.82634836836655
 20
-1127.4154369113435
 42
-0.0130868069038157
 10
832.12460901832787
 20
-1127.2066564427982
 10
832.12617083746932
 20
-1127.2056230025241
 42
-0.0290329526392535
 10
832.43728197886389
 20
-1127.0247975008938
 10
832.4671275408557
 20
-1127.0096951180512
 42
-0.0160250190045144
 10
832.73303195461449
 20
-1126.8856790078412
 42
-0.0267600374779888
 10
833.00830803208646
 20
-1126.7849306872915
 10
833.03504395160417
 20
-1126.7767381284668
 42
-0.0049981587669678
 10
833.09021709689114
 20
-1126.7604329281544
 42
-0.0049981587669678
  0
LWPOLYLINE
  5
5A
100
AcDbEntity
  8
0
370
              15
390
0
  6
Continuous
 62
               7
100
AcDbPolyline
 90
      118
 70
             128
 10
852.90458466133805
 20
-1135.8368181660417
 10
854.77970658583752
 20
-1135.8368181660417
 10
853.94166768023763
 20
-1138.5183846924417
 42
-0.001058722919176
 10
853.97312349584365
 20
-1138.4814801590462
 10
854.03131758644145
 20
-1138.4134979029106
 42
-0.0071874740408054
 10
854.18169280453253
 20
-1138.2428572108895
 10
854.32341557780182
 20
-1138.0866210695685
 42
-0.0148118053515542
 10
854.77354487050945
 20
-1137.6190072235604
 10
854.86076720541439
 20
-1137.533609902704
 42
-0.0086273358697191
 10
855.19631600642469
 20
-1137.2162342686854
 10
855.24014972265127
 20
-1137.1761846243517
 42
-0.0103138323112596
 10
855.49817342488416
 20
-1136.9500214870141
 10
855.54394783120483
 20
-1136.9115394397593
 42
-0.006020674857157
 10
855.71679589532346
 20
-1136.7697447889996
 10
855.7188270261953
 20
-1136.7681190833796
 42
-0.0067069027301012
 10
855.89111984087185
 20
-1136.6339684495733
 10
855.89366860679968
 20
-1136.6320382796966
 42
-0.0076184352051292
 10
856.06457387266926
 20
-1136.5066634044542
 42
-0.0089652861665501
 10
856.23953483541766
 20
-1136.3870301441123
 10
856.27588655554916
 20
-1136.3631189306382
 42
-0.0156916245935672
 10
856.47184605270877
 20
-1136.2428564441643
 42
-0.0023299011067519
 10
856.67210809666142
 20
-1136.1296785046386
 10
856.68749222906854
 20
-1136.1210785095586
 42
-0.0107669341486458
 10
856.92172905417237
 20
-1135.9966783762079
 10
856.9439938552448
 20
-1135.9854616262592
 42
-0.0078058045901732
 10
857.2275839731908
 20
-1135.8481001706239
 10
857.23749106090668
 20
-1135.8434910427522
 42
-0.0181829330467639
 10
857.54780046552389
 20
-1135.7126273016559
 10
857.60185590809078
 20
-1135.6921121817124
 42
-0.0208411536029651
 10
857.95094087553923
 20
-1135.5760217192201
 10
857.96529697566666
 20
-1135.5719032742666
 42
-0.0222799817141227
 10
858.294016769584
 20
-1135.4932617081263
 10
858.30290573282036
 20
-1135.4915496975414
 42
-0.0215509523884671
 10
858.61937670110069
 20
-1135.4446340090067
 10
858.66185866215221
 20
-1135.4401964822157
 42
-0.0182545924870385
 10
858.89596744145501
 20
-1135.424352656825
 10
858.93536845780545
 20
-1135.4231281117457
 42
-0.0072962856529368
 10
859.09129133749184
 20
-1135.4205587832237
 10
859.12039100807294
 20
-1135.42050394782
 42
-0.0059227516316203
 10
859.21814050720889
 20
-1135.4214776596104
 10
859.24738272465947
 20
-1135.4221154262132
 42
-0.0011833111914403
 10
859.28663400841322
 20
-1135.4230644305237
 10
858.49124741280605
 20
-1137.9617983756227
 42
0.0143932051602192
 10
858.46484603045189
 20
-1137.9515994055762
 10
858.45757405803818
 20
-1137.9490281867202
 42
0.0234388603534227
 10
858.41574319210565
 20
-1137.9364089510048
 10
858.40706152919336
 20
-1137.9342279889997
 42
0.0199162742986897
 10
858.34677269511133
 20
-1137.9216112536642
 10
858.32595875730715
 20
-1137.9181140542362
 42
0.0293643550664855
 10
858.22288389854714
 20
-1137.9069640085829
 10
858.19819871782761
 20
-1137.9057523915644
 42
0.0214606686863153
 10
858.04505780187537
 20
-1137.9048138311468
 10
858.03568589105726
 20
-1137.9051587426911
 42
0.0167564054177741
 10
857.86416569994481
 20
-1137.9172357850596
 10
857.85570590718976
 20
-1137.9181171254863
 42
0.0137677553241058
 10
857.66835259392042
 20
-1137.9428664340305
 10
857.66100085441735
 20
-1137.9440443539979
 42
0.0118497261485517
 10
857.46050309031557
 20
-1137.9810617041871
 10
857.45435308306878
 20
-1137.9823485669071
 42
0.0106421143888929
 10
857.2434721957793
 20
-1138.0311809424829
 10
857.23856338739461
 20
-1138.032428285167
 42
0.0099746379702626
 10
857.02010491823444
 20
-1138.0926028134811
 10
856.95855687806193
 20
-1138.1108846921124
 42
0.0191613675858764
 10
856.62257241554482
 20
-1138.2248620723999
 10
856.53451264279886
 20
-1138.2585489827241
 42
0.0205274080143911
 10
856.14920587090023
 20
-1138.42437739055
 10
856.09155658892075
 20
-1138.4520453551211
 42
0.0181256912194642
 10
855.83327964825116
 20
-1138.5877291741003
 10
855.78032426493439
 20
-1138.6180467873166
 42
0.014070924241147
 10
855.63536933030878
 20
-1138.7065414607493
 10
855.6091204616929
 20
-1138.7235982794632
 42
0.008666788439489
 10
855.52019430014775
 20
-1138.7836009473476
 42
0.0036408192010267
 10
855.43276106211783
 20
-1138.8457818051374
 10
855.39753418764576
 20
-1138.8712227510528
 42
0.0052260781285282
 10
855.24130549024335
 20
-1138.9865551376959
 10
855.22509863399523
 20
-1138.9987832483052
 42
0.0050024435897803
 10
855.03909529094096
 20
-1139.1420658165637
 10
855.02377713442115
 20
-1139.1541118390132
 42
0.0136138710278923
 10
854.81333586609537
 20
-1139.3290783439268
 10
854.77966799030219
 20
-1139.3586573166408
 42
0.0172815186915964
 10
854.5152644486426
 20
-1139.6076539892615
 10
854.51270210279722
 20
-1139.6102398064113
 42
0.0189403857999053
 10
854.26212030421755
 20
-1139.8830450712162
 10
854.2294888106843
 20
-1139.9213890027099
 42
0.0185044199501543
 10
854.03753237170201
 20
-1140.1646375838354
 42
0.0088565243900252
 10
853.85907226507277
 20
-1140.418154003987
 10
853.84989428542508
 20
-1140.4316953837456
 42
0.0157195347232071
 10
853.66667367908985
 20
-1140.7212175930631
 10
853.62059073716046
 20
-1140.7993697900813
 42
0.0095451879776746
 10
853.45550518702248
 20
-1141.0919644324385
 10
853.44435726809229
 20
-1141.1126351045716
 42
0.0100351706251398
 10
853.31231351893348
 20
-1141.3696906650614
 42
0.0086935915424151
 10
853.18998236713867
 20
-1141.6315238104678
 10
853.18666162572504
 20
-1141.6389661334376
 42
0.007258017486271
 10
853.06631517378128
 20
-1141.9195581250174
 10
853.06305354047367
 20
-1141.9274781510385
 42
0.0060005122615871
 10
852.94385287213254
 20
-1142.2270878216402
 10
852.94064189378946
 20
-1142.2354493495486
 42
0.0049017786976746
 10
852.82174173493183
 20
-1142.5543783301534
 10
852.81857592854158
 20
-1142.5631312673831
 42
0.0039415167602336
 10
852.69913965048374
 20
-1142.9016733297999
 10
852.69600854783266
 20
-1142.9107765306726
 42
0.0031035838762505
 10
852.57520376214552
 20
-1143.2692163924285
 10
852.57209371760928
 20
-1143.278637013821
 42
0.002507074715423
 10
852.44919236629664
 20
-1143.6572842307562
 10
852.41189846986845
 20
-1143.7741758960178
 42
0.0029081910281471
 10
852.21988017205297
 20
-1144.3883395543246
 10
852.17907700354067
 20
-1144.5215627965854
 42
0.0009266453732041
 10
851.91065962922926
 20
-1145.4037872564977
 10
851.88977215656075
 20
-1145.4728991358261
 42
-0.0005809993665591
 10
851.61243547599418
 20
-1146.3867072423836
 10
851.5461536777284
 20
-1146.6041921745198
 42
-0.0012018708170919
 10
851.39916936829195
 20
-1147.082354839064
 10
851.34684951664747
 20
-1147.2511139801848
 42
-0.0002691059598657
 10
851.30328003555792
 20
-1147.3913816002719
 10
848.47032413726868
 20
-1156.4805362025716
 10
846.65233524529015
 20
-1156.4805362025716
 10
852.90458466133805
 20
-1135.8368181660417
  0
SPLINE
  5
5B
100
AcDbEntity
  8
0
370
              15
390
0
  6
Continuous
 62
               7
100
AcDbSpline
210
0.0
220
0.0
230
1.0
 70
              13
 71
               2
 72
             782
 73
             779
 74
               0
 42
0.000001
 43
0.000001
 40
0.0
 40
0.0
 40
0.0
 40
1.0
 40
1.0
 40
2.0
 40
2.0
 40
3.0
 40
3.0
 40
4.0
 40
4.0
 40
5.0
 40
5.0
 40
6.0
 40
6.0
 40
7.0
 40
7.0
 40
8.0
 40
8.0
 40
9.0
 40
9.0
 40
10.0
 40
10.0
 40
11.0
 40
11.0
 40
12.0
 40
12.0
 40
13.0
 40
13.0
 40
14.0
 40
14.0
 40
15.0
 40
15.0
 40
16.0
 40
16.0
 40
17.0
 40
17.0
 40
18.0
 40
18.0
 40
19.0
 40
19.0
 40
20.0
 40
20.0
 40
21.0
 40
21.0
 40
22.0
 40
22.0
 40
23.0
 40
23.0
 40
24.0
 40
24.0
 40
25.0
 40
25.0
 40
26.0
 40
26.0
 40
27.0
 40
27.0
 40
28.0
 40
28.0
 40
29.0
 40
29.0
 40
30.0
 40
30.0
 40
31.0
 40
31.0
 40
32.0
 40
32.0
 40
33.0
 40
33.0
 40
34.0
 40
34.0
 40
35.0
 40
35.0
 40
36.0
 40
36.0
 40
37.0
 40
37.0
 40
38.0
 40
38.0
 40
39.0
 40
39.0
 40
40.0
 40
40.0
 40
41.0
 40
41.0
 40
42.0
 40
42.0
 40
43.0
 40
43.0
 40
44.0
 40
44.0
 40
45.0
 40
45.0
 40
46.0
 40
46.0
 40
47.0
 40
47.0
 40
48.0
 40
48.0
 40
49.0
 40
49.0
 40
50.0
 40
50.0
 40
51.0
 40
51.0
 40
52.0
 40
52.0
 40
53.0
 40
53.0
 40
54.0
 40
54.0
 40
55.0
 40
55.0
 40
56.0
 40
56.0
 40
57.0
 40
57.0
 40
58.0
 40
58.0
 40
59.0
 40
59.0
 40
60.0
 40
60.0
 40
61.0
 40
61.0
 40
62.0
 40
62.0
 40
63.0
 40
63.0
 40
64.0
 40
64.0
 40
65.0
 40
65.0
 40
66.0
 40
66.0
 40
67.0
 40
67.0
 40
68.0
 40
68.0
 40
69.0
 40
69.0
 40
70.0
 40
70.0
 40
71.0
 40
71.0
 40
72.0
 40
72.0
 40
73.0
 40
73.0
 40
74.0
 40
74.0
 40
75.0
 40
75.0
 40
76.0
 40
76.0
 40
77.0
 40
77.0
 40
78.0
 40
78.0
 40
79.0
 40
79.0
 40
80.0
 40
80.0
 40
81.0
 40
81.0
 40
82.0
 40
82.0
 40
83.0
 40
83.0
 40
84.0
 40
84.0
 40
85.0
 40
85.0
 40
86.0
 40
86.0
 40
87.0
 40
87.0
 40
88.0
 40
88.0
 40
89.0
 40
89.0
 40
90.0
 40
90.0
 40
91.0
 40
91.0
 40
92.0
 40
92.0
 40
93.0
 40
93.0
 40
94.0
 40
94.0
 40
95.0
 40
95.0
 40
96.0
 40
96.0
 40
97.0
 40
97.0
 40
98.0
 40
98.0
 40
99.0
 40
99.0
 40
100.0
 40
100.0
 40
101.0
 40
101.0
 40
102.0
 40
102.0
 40
103.0
 40
103.0
 40
104.0
 40
104.0
 40
105.0
 40
105.0
 40
106.0
 40
106.0
 40
107.0
 40
107.0
 40
108.0
 40
108.0
 40
109.0
 40
109.0
 40
110.0
 40
110.0
 40
111.0
 40
111.0
 40
112.0
 40
112.0
 40
113.0
 40
113.0
 40
114.0
 40
114.0
 40
115.0
 40
115.0
 40
116.0
 40
116.0
 40
117.0
 40
117.0
 40
118.0
 40
118.0
 40
119.0
 40
119.0
 40
120.0
 40
120.0
 40
121.0
 40
121.0
 40
122.0
 40
122.0
 40
123.0
 40
123.0
 40
124.0
 40
124.0
 40
125.0
 40
125.0
 40
126.0
 40
126.0
 40
127.0
 40
127.0
 40
128.0
 40
128.0
 40
129.0
 40
129.0
 40
130.0
 40
130.0
 40
131.0
 40
131.0
 40
132.0
 40
132.0
 40
133.0
 40
133.0
 40
134.0
 40
134.0
 40
135.0
 40
135.0
 40
136.0
 40
136.0
 40
137.0
 40
137.0
 40
138.0
 40
138.0
 40
139.0
 40
139.0
 40
140.0
 40
140.0
 40
141.0
 40
141.0
 40
142.0
 40
142.0
 40
143.0
 40
143.0
 40
144.0
 40
144.0
 40
145.0
 40
145.0
 40
146.0
 40
146.0
 40
147.0
 40
147.0
 40
148.0
 40
148.0
 40
149.0
 40
149.0
 40
150.0
 40
150.0
 40
151.0
 40
151.0
 40
152.0
 40
152.0
 40
153.0
 40
153.0
 40
154.0
 40
154.0
 40
155.0
 40
155.0
 40
156.0
 40
156.0
 40
157.0
 40
157.0
 40
158.0
 40
158.0
 40
159.0
 40
159.0
 40
160.0
 40
160.0
 40
161.0
 40
161.0
 40
162.0
 40
162.0
 40
163.0
 40
163.0
 40
164.0
 40
164.0
 40
165.0
 40
165.0
 40
166.0
 40
166.0
 40
167.0
 40
167.0
 40
168.0
 40
168.0
 40
169.0
 40
169.0
 40
170.0
 40
170.0
 40
171.0
 40
171.0
 40
172.0
 40
172.0
 40
173.0
 40
173.0
 40
174.0
 40
174.0
 40
175.0
 40
175.0
 40
176.0
 40
176.0
 40
177.0
 40
177.0
 40
178.0
 40
178.0
 40
179.0
 40
179.0
 40
180.0
 40
180.0
 40
181.0
 40
181.0
 40
182.0
 40
182.0
 40
183.0
 40
183.0
 40
184.0
 40
184.0
 40
185.0
 40
185.0
 40
186.0
 40
186.0
 40
187.0
 40
187.0
 40
188.0
 40
188.0
 40
189.0
 40
189.0
 40
190.0
 40
190.0
 40
191.0
 40
191.0
 40
192.0
 40
192.0
 40
193.0
 40
193.0
 40
194.0
 40
194.0
 40
195.0
 40
195.0
 40
196.0
 40
196.0
 40
197.0
 40
197.0
 40
198.0
 40
198.0
 40
199.0
 40
199.0
 40
200.0
 40
200.0
 40
201.0
 40
201.0
 40
202.0
 40
202.0
 40
203.0
 40
203.0
 40
204.0
 40
204.0
 40
205.0
 40
205.0
 40
206.0
 40
206.0
 40
207.0
 40
207.0
 40
208.0
 40
208.0
 40
209.0
 40
209.0
 40
210.0
 40
210.0
 40
211.0
 40
211.0
 40
212.0
 40
212.0
 40
213.0
 40
213.0
 40
214.0
 40
214.0
 40
215.0
 40
215.0
 40
216.0
 40
216.0
 40
217.0
 40
217.0
 40
218.0
 40
218.0
 40
219.0
 40
219.0
 40
220.0
 40
220.0
 40
221.0
 40
221.0
 40
222.0
 40
222.0
 40
223.0
 40
223.0
 40
224.0
 40
224.0
 40
225.0
 40
225.0
 40
226.0
 40
226.0
 40
227.0
 40
227.0
 40
228.0
 40
228.0
 40
229.0
 40
229.0
 40
230.0
 40
230.0
 40
231.0
 40
231.0
 40
232.0
 40
232.0
 40
233.0
 40
233.0
 40
234.0
 40
234.0
 40
235.0
 40
235.0
 40
236.0
 40
236.0
 40
237.0
 40
237.0
 40
238.0
 40
238.0
 40
239.0
 40
239.0
 40
240.0
 40
240.0
 40
241.0
 40
241.0
 40
242.0
 40
242.0
 40
243.0
 40
243.0
 40
244.0
 40
244.0
 40
245.0
 40
245.0
 40
246.0
 40
246.0
 40
247.0
 40
247.0
 40
248.0
 40
248.0
 40
249.0
 40
249.0
 40
250.0
 40
250.0
 40
251.0
 40
251.0
 40
252.0
 40
252.0
 40
253.0
 40
253.0
 40
254.0
 40
254.0
 40
255.0
 40
255.0
 40
256.0
 40
256.0
 40
257.0
 40
257.0
 40
258.0
 40
258.0
 40
259.0
 40
259.0
 40
260.0
 40
260.0
 40
261.0
 40
261.0
 40
262.0
 40
262.0
 40
263.0
 40
263.0
 40
264.0
 40
264.0
 40
265.0
 40
265.0
 40
266.0
 40
266.0
 40
267.0
 40
267.0
 40
268.0
 40
268.0
 40
269.0
 40
269.0
 40
270.0
 40
270.0
 40
271.0
 40
271.0
 40
272.0
 40
272.0
 40
273.0
 40
273.0
 40
274.0
 40
274.0
 40
275.0
 40
275.0
 40
276.0
 40
276.0
 40
277.0
 40
277.0
 40
278.0
 40
278.0
 40
279.0
 40
279.0
 40
280.0
 40
280.0
 40
281.0
 40
281.0
 40
282.0
 40
282.0
 40
283.0
 40
283.0
 40
284.0
 40
284.0
 40
285.0
 40
285.0
 40
286.0
 40
286.0
 40
287.0
 40
287.0
 40
288.0
 40
288.0
 40
289.0
 40
289.0
 40
290.0
 40
290.0
 40
291.0
 40
291.0
 40
292.0
 40
292.0
 40
293.0
 40
293.0
 40
294.0
 40
294.0
 40
295.0
 40
295.0
 40
296.0
 40
296.0
 40
297.0
 40
297.0
 40
298.0
 40
298.0
 40
299.0
 40
299.0
 40
300.0
 40
300.0
 40
301.0
 40
301.0
 40
302.0
 40
302.0
 40
303.0
 40
303.0
 40
304.0
 40
304.0
 40
305.0
 40
305.0
 40
306.0
 40
306.0
 40
307.0
 40
307.0
 40
308.0
 40
308.0
 40
309.0
 40
309.0
 40
310.0
 40
310.0
 40
311.0
 40
311.0
 40
312.0
 40
312.0
 40
313.0
 40
313.0
 40
314.0
 40
314.0
 40
315.0
 40
315.0
 40
316.0
 40
316.0
 40
317.0
 40
317.0
 40
318.0
 40
318.0
 40
319.0
 40
319.0
 40
320.0
 40
320.0
 40
321.0
 40
321.0
 40
322.0
 40
322.0
 40
323.0
 40
323.0
 40
324.0
 40
324.0
 40
325.0
 40
325.0
 40
326.0
 40
326.0
 40
327.0
 40
327.0
 40
328.0
 40
328.0
 40
329.0
 40
329.0
 40
330.0
 40
330.0
 40
331.0
 40
331.0
 40
332.0
 40
332.0
 40
333.0
 40
333.0
 40
334.0
 40
334.0
 40
335.0
 40
335.0
 40
336.0
 40
336.0
 40
337.0
 40
337.0
 40
338.0
 40
338.0
 40
339.0
 40
339.0
 40
340.0
 40
340.0
 40
341.0
 40
341.0
 40
342.0
 40
342.0
 40
343.0
 40
343.0
 40
344.0
 40
344.0
 40
345.0
 40
345.0
 40
346.0
 40
346.0
 40
347.0
 40
347.0
 40
348.0
 40
348.0
 40
349.0
 40
349.0
 40
350.0
 40
350.0
 40
351.0
 40
351.0
 40
352.0
 40
352.0
 40
353.0
 40
353.0
 40
354.0
 40
354.0
 40
355.0
 40
355.0
 40
356.0
 40
356.0
 40
357.0
 40
357.0
 40
358.0
 40
358.0
 40
359.0
 40
359.0
 40
360.0
 40
360.0
 40
361.0
 40
361.0
 40
362.0
 40
362.0
 40
363.0
 40
363.0
 40
364.0
 40
364.0
 40
365.0
 40
365.0
 40
366.0
 40
366.0
 40
367.0
 40
367.0
 40
368.0
 40
368.0
 40
369.0
 40
369.0
 40
370.0
 40
370.0
 40
371.0
 40
371.0
 40
372.0
 40
372.0
 40
373.0
 40
373.0
 40
374.0
 40
374.0
 40
375.0
 40
375.0
 40
376.0
 40
376.0
 40
377.0
 40
377.0
 40
378.0
 40
378.0
 40
379.0
 40
379.0
 40
380.0
 40
380.0
 40
381.0
 40
381.0
 40
382.0
 40
382.0
 40
383.0
 40
383.0
 40
384.0
 40
384.0
 40
385.0
 40
385.0
 40
386.0
 40
386.0
 40
387.0
 40
387.0
 40
388.0
 40
388.0
 40
389.0
 40
389.0
 40
389.0
 10
863.23328911207068
 20
-1135.8258918026793
 30
0.0
 41
1.0
 10
864.05171322079116
 20
-1135.8258918026793
 30
0.0
 41
1.0
 10
864.87013732951164
 20
-1135.8258918026793
 30
0.0
 41
1.0
 10
864.45638359399481
 20
-1137.168518066929
 30
0.0
 41
1.0
 10
864.04262985847811
 20
-1138.5111443311787
 30
0.0
 41
1.0
 10
864.06096935365895
 20
-1138.4824435582475
 30
0.0
 41
0.999995726440527
 10
864.07947635048527
 20
-1138.4538505081034
 30
0.0
 41
1.0
 10
864.10990567461829
 20
-1138.4068376297341
 30
0.0
 41
1.0
 10
864.14033499875131
 20
-1138.3598247513648
 30
0.0
 41
1.0
 10
864.21970064385835
 20
-1138.2372059444601
 30
0.0
 41
0.9995394069080875
 10
864.30635903541179
 20
-1138.1196278827165
 30
0.0
 41
1.0
 10
864.34211589767165
 20
-1138.0711129901229
 30
0.0
 41
1.0
 10
864.37787275993151
 20
-1138.0225980975295
 30
0.0
 41
1.0
 10
864.51159942774746
 20
-1137.8411578224056
 30
0.0
 41
0.9994460617143107
 10
864.65709990903508
 20
-1137.6690154247563
 30
0.0
 41
1.0
 10
864.66148809001015
 20
-1137.6638237443735
 30
0.0
 41
1.0
 10
864.66587627098511
 20
-1137.658632063991
 30
0.0
 41
1.0
 10
864.80260039032316
 20
-1137.4968730271064
 30
0.0
 41
0.999435939493428
 10
864.94987462067434
 20
-1137.3446568259421
 30
0.0
 41
1.0
 10
864.95225797462945
 20
-1137.3421934955672
 30
0.0
 41
1.0
 10
864.95464132858467
 20
-1137.3397301651921
 30
0.0
 41
1.0
 10
865.09714885102721
 20
-1137.1924406247763
 30
0.0
 41
0.9995293688567845
 10
865.24842053200803
 20
-1137.0541674126134
 30
0.0
 41
1.0
 10
865.26771429127143
 20
-1137.0365315269623
 30
0.0
 41
1.0
 10
865.28700805053484
 20
-1137.018895641311
 30
0.0
 41
1.0
 10
865.39969221298975
 20
-1136.9158942004497
 30
0.0
 41
0.999708761480377
 10
865.51721510194511
 20
-1136.8184499196514
 30
0.0
 41
1.0
 10
865.53638117511173
 20
-1136.8025583411509
 30
0.0
 41
1.0
 10
865.55554724827846
 20
-1136.7866667626502
 30
0.0
 41
1.0
 10
865.63473799088797
 20
-1136.7210056388631
 30
0.0
 41
0.9999595338692935
 10
865.71509726175532
 20
-1136.6567799081986
 30
0.0
 41
1.0
 10
865.79545653262517
 20
-1136.5925541775321
 30
0.0
 41
0.999974941750036
 10
865.87671706697768
 20
-1136.5294726235788
 30
0.0
 41
1.0
 10
865.89770321313199
 20
-1136.5131813362837
 30
0.0
 41
1.0
 10
865.91868935928619
 20
-1136.4968900489882
 30
0.0
 41
1.0
 10
866.00325724458548
 20
-1136.4312410391492
 30
0.0
 41
0.999979203712698
 10
866.08866484435634
 20
-1136.3666882575044
 30
0.0
 41
1.0
 10
866.10948967022068
 20
-1136.3509484352824
 30
0.0
 41
1.0
 10
866.13031449608513
 20
-1136.3352086130603
 30
0.0
 41
1.0
 10
866.17407244407991
 20
-1136.3021354758957
 30
0.0
 41
0.9999993373872517
 10
866.2177541302691
 20
-1136.2689616804369
 30
0.0
 41
1.0
 10
866.26143581640963
 20
-1136.2357878850146
 30
0.0
 41
0.9999160953817895
 10
866.30596222733107
 20
-1136.2037568198152
 30
0.0
 41
1.0
 10
866.33878411475098
 20
-1136.1801456642299
 30
0.0
 41
1.0
 10
866.37160600217089
 20
-1136.1565345086447
 30
0.0
 41
1.0
 10
866.48177618792818
 20
-1136.0772811322774
 30
0.0
 41
0.9980964527231592
 10
866.6008651814285
 20
-1136.0121936594217
 30
0.0
 41
1.0
 10
866.63789778835871
 20
-1135.9919536798275
 30
0.0
 41
1.0
 10
866.67493039528881
 20
-1135.9717137002331
 30
0.0
 41
1.0
 10
866.85425740856056
 20
-1135.873703449533
 30
0.0
 41
0.9984572810573409
 10
867.04334597491811
 20
-1135.7961811881869
 30
0.0
 41
1.0
 10
867.04699224431374
 20
-1135.794686295849
 30
0.0
 41
1.0
 10
867.05063851370949
 20
-1135.7931914035112
 30
0.0
 41
1.0
 10
867.23243454127646
 20
-1135.7186589268408
 30
0.0
 41
0.9987838528034169
 10
867.42068719983627
 20
-1135.6623932866748
 30
0.0
 41
1.0
 10
867.42492514903688
 20
-1135.6611266329842
 30
0.0
 41
1.0
 10
867.42916309823761
 20
-1135.6598599792933
 30
0.0
 41
1.0
 10
867.60893985839778
 20
-1135.6061276465086
 30
0.0
 41
0.9990652816207444
 10
867.79268579011136
 20
-1135.5681239669671
 30
0.0
 41
1.0
 10
867.79787419114405
 20
-1135.5670508638602
 30
0.0
 41
1.0
 10
867.80306259217673
 20
-1135.5659777607534
 30
0.0
 41
1.0
 10
867.97643172182859
 20
-1135.5301202874248
 30
0.0
 41
0.9992909934270355
 10
868.15200748828556
 20
-1135.5074098549585
 30
0.0
 41
1.0
 10
868.32758325474379
 20
-1135.484699422492
 30
0.0
 41
0.9994553539448573
 10
868.50427468783721
 20
-1135.4736201182857
 30
0.0
 41
1.0
 10
868.53970909563282
 20
-1135.4713982302378
 30
0.0
 41
1.0
 10
868.57514350342842
 20
-1135.4691763421902
 30
0.0
 41
1.0
 10
868.74136926999779
 20
-1135.4587532797784
 30
0.0
 41
0.9990928098292928
 10
868.9078790619003
 20
-1135.4625129210131
 30
0.0
 41
1.0
 10
868.94644089717099
 20
-1135.4633836125458
 30
0.0
 41
1.0
 10
868.98500273244156
 20
-1135.4642543040788
 30
0.0
 41
1.0
 10
869.07438885380168
 20
-1135.4662725622475
 30
0.0
 41
0.9998382089205666
 10
869.16364453658923
 20
-1135.4715046887754
 30
0.0
 41
1.0
 10
869.1640744428131
 20
-1135.4715298896781
 30
0.0
 41
1.0
 10
869.16450434903697
 20
-1135.4715550905805
 30
0.0
 41
1.0
 10
869.2529002193794
 20
-1135.4767368153041
 30
0.0
 41
0.999755801675826
 10
869.34098079657622
 20
-1135.48581933067
 30
0.0
 41
1.0
 10
869.3414569350075
 20
-1135.4858684281526
 30
0.0
 41
1.0
 10
869.3419330734389
 20
-1135.4859175256354
 30
0.0
 41
1.0
 10
869.42906137377872
 20
-1135.4949018460368
 30
0.0
 41
0.9996565144182257
 10
869.51559922711908
 20
-1135.5084391527257
 30
0.0
 41
1.0
 10
869.51606515249705
 20
-1135.508512038457
 30
0.0
 41
1.0
 10
869.51653107787502
 20
-1135.5085849241884
 30
0.0
 41
1.0
 10
869.60213708046172
 20
-1135.5219764594146
 30
0.0
 41
0.9995321806867218
 10
869.68676416078915
 20
-1135.5405769478439
 30
0.0
 41
1.0
 10
869.68715335536035
 20
-1135.5406624903096
 30
0.0
 41
1.0
 10
869.68754254993166
 20
-1135.5407480327754
 30
0.0
 41
1.0
 10
869.77139124111648
 20
-1135.5591774362729
 30
0.0
 41
0.9993819199219549
 10
869.85373777531333
 20
-1135.5834528195337
 30
0.0
 41
1.0
 10
869.85397620881054
 20
-1135.5835231086428
 30
0.0
 41
1.0
 10
869.85421464230762
 20
-1135.5835933977519
 30
0.0
 41
1.0
 10
869.9360843095086
 20
-1135.6077282027941
 30
0.0
 41
0.9992088568505497
 10
870.01577682849779
 20
-1135.6382934385888
 30
0.0
 41
1.0
 10
870.09545781937675
 20
-1135.6688530393221
 30
0.0
 41
0.9990226101773236
 10
870.17212848928398
 20
-1135.7063304709368
 30
0.0
 41
1.0
 10
870.24878763108279
 20
-1135.7438022674905
 30
0.0
 41
0.9988424273972953
 10
870.32149125829608
 20
-1135.7884670427438
 30
0.0
 41
1.0
 10
870.32175896667457
 20
-1135.7886315068156
 30
0.0
 41
1.0
 10
870.32202667505305
 20
-1135.7887959708873
 30
0.0
 41
1.0
 10
870.39526571902422
 20
-1135.8337896742851
 30
0.0
 41
0.9986928844491615
 10
870.46352858573403
 20
-1135.8860254085646
 30
0.0
 41
1.0
 10
870.46410987795662
 20
-1135.8864702217925
 30
0.0
 41
1.0
 10
870.46469117017932
 20
-1135.8869150350201
 30
0.0
 41
1.0
 10
870.53411662133453
 20
-1135.9400403957557
 30
0.0
 41
0.9986007262278466
 10
870.5975427911012
 20
-1136.0002011654492
 30
0.0
 41
1.0
 10
870.5984372065584
 20
-1136.0010495332842
 30
0.0
 41
1.0
 10
870.59933162201571
 20
-1136.0018979011193
 30
0.0
 41
1.0
 10
870.66454662269689
 20
-1136.0637554064833
 30
0.0
 41
0.9985581491382314
 10
870.72275423439885
 20
-1136.132247896755
 30
0.0
 41
1.0
 10
870.73201268799448
 20
-1136.1431422544565
 30
0.0
 41
1.0
 10
870.74127114159023
 20
-1136.1540366121581
 30
0.0
 41
1.0
 10
870.81799566048392
 20
-1136.2443178178339
 30
0.0
 41
0.9970460233520686
 10
870.87998756164313
 20
-1136.3452849020157
 30
0.0
 41
1.0
 10
870.8944569267228
 20
-1136.3688513610969
 30
0.0
 41
1.0
 10
870.90892629180235
 20
-1136.3924178201783
 30
0.0
 41
1.0
 10
870.94866299181388
 20
-1136.4571375442085
 30
0.0
 41
0.9988468816636115
 10
870.98200936256569
 20
-1136.5253699966368
 30
0.0
 41
1.0
 10
870.98904538505712
 20
-1136.5397669177742
 30
0.0
 41
1.0
 10
870.99608140754856
 20
-1136.5541638389116
 30
0.0
 41
1.0
 10
871.01535573331569
 20
-1136.5936024490613
 30
0.0
 41
0.999843118999923
 10
871.03322106081214
 20
-1136.6336990035052
 30
0.0
 41
1.0
 10
871.05108638830484
 20
-1136.6737955579406
 30
0.0
 41
0.9999989990009091
 10
871.06906511172838
 20
-1136.7138413955279
 30
0.0
 41
1.0
 10
871.07523742332296
 20
-1136.7275896123415
 30
0.0
 41
1.0
 10
871.08140973491766
 20
-1136.7413378291549
 30
0.0
 41
1.0
 10
871.11173308152968
 20
-1136.8088801003678
 30
0.0
 41
0.9998790356321535
 10
871.13994096166675
 20
-1136.877332852303
 30
0.0
 41
1.0
 10
871.14677614295056
 20
-1136.893919953729
 30
0.0
 41
1.0
 10
871.15361132423436
 20
-1136.9105070551552
 30
0.0
 41
1.0
 10
871.17716898661388
 20
-1136.9676750100384
 30
0.0
 41
0.9998227574560783
 10
871.19855773500433
 20
-1137.0256893183191
 30
0.0
 41
1.0
 10
871.21994648339432
 20
-1137.0837036265984
 30
0.0
 41
0.9996797971041951
 10
871.23837276835297
 20
-1137.1427257457146
 30
0.0
 41
1.0
 10
871.24227657107849
 20
-1137.1552302038835
 30
0.0
 41
1.0
 10
871.24618037380401
 20
-1137.1677346620525
 30
0.0
 41
1.0
 10
871.27241426421426
 20
-1137.2517656975087
 30
0.0
 41
0.997927493873473
 10
871.28763878769325
 20
-1137.338470056168
 30
0.0
 41
1.0
 10
871.2898624749547
 20
-1137.3511340569903
 30
0.0
 41
1.0
 10
871.29208616221615
 20
-1137.3637980578126
 30
0.0
 41
1.0
 10
871.30301610191418
 20
-1137.4260445651037
 30
0.0
 41
0.9994985982138881
 10
871.30998426709107
 20
-1137.4888580662432
 30
0.0
 41
1.0
 10
871.31695243226807
 20
-1137.5516715673866
 30
0.0
 41
0.9996372611201548
 10
871.32052829803592
 20
-1137.614769146071
 30
0.0
 41
1.0
 10
871.32069687552507
 20
-1137.6177437631513
 30
0.0
 41
1.0
 10
871.32086545301433
 20
-1137.6207183802319
 30
0.0
 41
1.0
 10
871.32477847376083
 20
-1137.689765193086
 30
0.0
 41
0.999773063073726
 10
871.32574678724905
 20
-1137.7589160171219
 30
0.0
 41
1.0
 10
871.32580389366706
 20
-1137.7629941962589
 30
0.0
 41
1.0
 10
871.32586100008507
 20
-1137.7670723753959
 30
0.0
 41
1.0
 10
871.3269435264092
 20
-1137.8443795577111
 30
0.0
 41
0.9998772614071081
 10
871.32560343967771
 20
-1137.9216827042733
 30
0.0
 41
1.0
 10
871.32551417647892
 20
-1137.9268318681106
 30
0.0
 41
1.0
 10
871.32542491328013
 20
-1137.931981031948
 30
0.0
 41
1.0
 10
871.32390630015107
 20
-1138.0195825061783
 30
0.0
 41
0.9999415567327558
 10
871.32049398990534
 20
-1138.1071306678491
 30
0.0
 41
1.0
 10
871.32025266922983
 20
-1138.1133221275904
 30
0.0
 41
1.0
 10
871.32001134855432
 20
-1138.119513587332
 30
0.0
 41
1.0
 10
871.31611639695745
 20
-1138.2194446684844
 30
0.0
 41
0.9999716810418883
 10
871.31071781383889
 20
-1138.3193058067141
 30
0.0
 41
1.0
 10
871.30750501505054
 20
-1138.3787350563632
 30
0.0
 41
1.0
 10
871.3042922162623
 20
-1138.4381643060124
 30
0.0
 41
1.0
 10
871.2962183071088
 20
-1138.5875127073091
 30
0.0
 41
0.9999819129909757
 10
871.28634851549236
 20
-1138.7367531850175
 30
0.0
 41
1.0
 10
871.2764787238757
 20
-1138.8859936627289
 30
0.0
 41
1.0
 10
871.2740394033118
 20
-1138.9231867085782
 30
0.0
 41
1.0
 10
871.29673763714618
 20
-1138.884445711243
 30
0.0
 41
0.9999982128017162
 10
871.31958219591399
 20
-1138.8457908172641
 30
0.0
 41
1.0
 10
871.34649175579102
 20
-1138.8002576032222
 30
0.0
 41
1.0
 10
871.37340131566793
 20
-1138.7547243891802
 30
0.0
 41
1.0
 10
871.45006499419412
 20
-1138.6250030671097
 30
0.0
 41
0.9998609190057637
 10
871.53101230705431
 20
-1138.4979106851831
 30
0.0
 41
1.0
 10
871.5606606285337
 20
-1138.4513609522296
 30
0.0
 41
1.0
 10
871.59030895001297
 20
-1138.4048112192763
 30
0.0
 41
1.0
 10
871.67258117025324
 20
-1138.2756386492758
 30
0.0
 41
0.999906760973111
 10
871.75835017972008
 20
-1138.1487609598303
 30
0.0
 41
1.0
 10
871.76075488292418
 20
-1138.1452036937708
 30
0.0
 41
1.0
 10
871.76315958612815
 20
-1138.1416464277115
 30
0.0
 41
1.0
 10
871.84411918918499
 20
-1138.0218832703881
 30
0.0
 41
0.9998784952147537
 10
871.92877279886557
 20
-1137.9047020536805
 30
0.0
 41
1.0
 10
872.01342640854421
 20
-1137.7875208369751
 30
0.0
 41
0.9998532968284732
 10
872.1020440293637
 20
-1137.6733079285088
 30
0.0
 41
1.0
 10
872.12200581835748
 20
-1137.6475806074852
 30
0.0
 41
1.0
 10
872.14196760735126
 20
-1137.6218532864616
 30
0.0
 41
1.0
 10
872.26045165711037
 20
-1137.4691476754929
 30
0.0
 41
0.9991551975795636
 10
872.39107610673409
 20
-1137.3266881134089
 30
0.0
 41
1.0
 10
872.39458572271315
 20
-1137.3228605117852
 30
0.0
 41
1.0
 10
872.3980953386922
 20
-1137.3190329101617
 30
0.0
 41
1.0
 10
872.52170055635668
 20
-1137.1842285513262
 30
0.0
 41
0.9997418144181453
 10
872.65130269605834
 20
-1137.0551791407129
 30
0.0
 41
1.0
 10
872.78090483575818
 20
-1136.9261297301011
 30
0.0
 41
0.9989238204633202
 10
872.92190738400961
 20
-1136.8096447680616
 30
0.0
 41
1.0
 10
872.967155062149
 20
-1136.7722647764531
 30
0.0
 41
1.0
 10
873.01240274028839
 20
-1136.7348847848443
 30
0.0
 41
1.0
 10
873.15264279751011
 20
-1136.6190297315534
 30
0.0
 41
0.9990825084096717
 10
873.30228273011437
 20
-1136.51560073372
 30
0.0
 41
1.0
 10
873.31232809417122
 20
-1136.5086575206406
 30
0.0
 41
1.0
 10
873.32237345822807
 20
-1136.5017143075611
 30
0.0
 41
1.0
 10
873.45192266271965
 20
-1136.4121717358862
 30
0.0
 41
0.9998164899826171
 10
873.5848068660946
 20
-1136.3276574943707
 30
0.0
 41
1.0
 10
873.59665242662095
 20
-1136.3201237278449
 30
0.0
 41
1.0
 10
873.60849798714719
 20
-1136.312589961319
 30
0.0
 41
1.0
 10
873.71769106947261
 20
-1136.2431432528535
 30
0.0
 41
0.9997473449132192
 10
873.82989502672035
 20
-1136.1786742950387
 30
0.0
 41
1.0
 10
873.94209898396662
 20
-1136.1142053372246
 30
0.0
 41
0.9999327861142099
 10
874.05576759473263
 20
-1136.0523553455419
 30
0.0
 41
1.0
 10
874.05631959729362
 20
-1136.0520549868625
 30
0.0
 41
1.0
 10
874.05687159985462
 20
-1136.0517546281833
 30
0.0
 41
1.0
 10
874.17164421573887
 20
-1135.9893039191438
 30
0.0
 41
0.9996956420483765
 10
874.28935754157817
 20
-1135.9325904521695
 30
0.0
 41
1.0
 10
874.31979794646986
 20
-1135.91792447544
 30
0.0
 41
1.0
 10
874.35023835136144
 20
-1135.9032584987106
 30
0.0
 41
1.0
 10
874.45321545810725
 20
-1135.853644840266
 30
0.0
 41
0.9998070570176805
 10
874.55806184704988
 20
-1135.8081142533642
 30
0.0
 41
1.0
 10
874.66290823598854
 20
-1135.7625836664643
 30
0.0
 41
0.9997827436147967
 10
874.76956117259772
 20
-1135.7214624951528
 30
0.0
 41
1.0
 10
874.78878402223063
 20
-1135.7140509215196
 30
0.0
 41
1.0
 10
874.80800687186343
 20
-1135.7066393478867
 30
0.0
 41
1.0
 10
874.95310550773661
 20
-1135.6506950293099
 30
0.0
 41
0.9988031841976769
 10
875.10297587034245
 20
-1135.609194965142
 30
0.0
 41
1.0
 10
875.12789311870495
 20
-1135.6022952193352
 30
0.0
 41
1.0
 10
875.15281036706745
 20
-1135.5953954735287
 30
0.0
 41
1.0
 10
875.32008039271432
 20
-1135.5490773311217
 30
0.0
 41
0.9984748040549574
 10
875.49143730136348
 20
-1135.5214830988568
 30
0.0
 41
1.0
 10
875.49617643761189
 20
-1135.5207199383435
 30
0.0
 41
1.0
 10
875.50091557386042
 20
-1135.5199567778302
 30
0.0
 41
1.0
 10
875.66279421001195
 20
-1135.493888866592
 30
0.0
 41
0.9984436495479633
 10
875.82656895373725
 20
-1135.4860109127733
 30
0.0
 41
1.0
 10
875.84826616186797
 20
-1135.4849672255737
 30
0.0
 41
1.0
 10
875.8699633699988
 20
-1135.483923538374
 30
0.0
 41
1.0
 10
875.9903436974613
 20
-1135.4781329589546
 30
0.0
 41
0.9987954789335194
 10
876.11071194237172
 20
-1135.4841694866968
 30
0.0
 41
1.0
 10
876.13067673487012
 20
-1135.4851707310356
 30
0.0
 41
1.0
 10
876.15064152736841
 20
-1135.4861719753744
 30
0.0
 41
1.0
 10
876.23108018728533
 20
-1135.4902060144395
 30
0.0
 41
0.9997941595877592
 10
876.31128896537598
 20
-1135.4975000803602
 30
0.0
 41
1.0
 10
876.39149774346515
 20
-1135.5047941462806
 30
0.0
 41
0.9998589466235843
 10
876.47141629031466
 20
-1135.5147780007301
 30
0.0
 41
1.0
 10
876.50382249212828
 20
-1135.5188263576499
 30
0.0
 41
1.0
 10
876.53622869394189
 20
-1135.5228747145698
 30
0.0
 41
1.0
 10
876.6809596444142
 20
-1135.5409552828585
 30
0.0
 41
0.999349506324943
 10
876.82401088818051
 20
-1135.5694209926
 30
0.0
 41
1.0
 10
876.85694458533135
 20
-1135.5759744558147
 30
0.0
 41
1.0
 10
876.88987828248207
 20
-1135.5825279190294
 30
0.0
 41
1.0
 10
876.99917210568765
 20
-1135.6042762531649
 30
0.0
 41
0.9996788715560649
 10
877.10722367764401
 20
-1135.631534052528
 30
0.0
 41
1.0
 10
877.10928668018471
 20
-1135.6320544791015
 30
0.0
 41
1.0
 10
877.1113496827254
 20
-1135.6325749056748
 30
0.0
 41
1.0
 10
877.21527524960288
 20
-1135.6587918518919
 30
0.0
 41
0.9995480654493213
 10
877.31743748482984
 20
-1135.6912068085153
 30
0.0
 41
1.0
 10
877.31912712696021
 20
-1135.6917429134296
 30
0.0
 41
1.0
 10
877.3208167690907
 20
-1135.6922790183439
 30
0.0
 41
1.0
 10
877.41959972006043
 20
-1135.7236217651403
 30
0.0
 41
0.9993867959456663
 10
877.51594687850184
 20
-1135.7618011344296
 30
0.0
 41
1.0
 10
877.51718982758587
 20
-1135.7622936763255
 30
0.0
 41
1.0
 10
877.5184327766699
 20
-1135.7627862182214
 30
0.0
 41
1.0
 10
877.61229403694267
 20
-1135.7999805037184
 30
0.0
 41
0.9992050256521339
 10
877.70289371197771
 20
-1135.8445344029581
 30
0.0
 41
1.0
 10
877.7036283946909
 20
-1135.8448956954194
 30
0.0
 41
1.0
 10
877.70436307740408
 20
-1135.8452569878805
 30
0.0
 41
1.0
 10
877.79349338701195
 20
-1135.8890883021975
 30
0.0
 41
0.999022235074207
 10
877.8784034484047
 20
-1135.940621569895
 30
0.0
 41
1.0
 10
877.87858733368694
 20
-1135.9407331727996
 30
0.0
 41
1.0
 10
877.87877121896929
 20
-1135.9408447757041
 30
0.0
 41
1.0
 10
877.9633135097987
 20
-1135.9921548375935
 30
0.0
 41
0.9988642743805294
 10
878.04258804441747
 20
-1136.0512790251187
 30
0.0
 41
1.0
 10
878.12186257903534
 20
-1136.110403212643
 30
0.0
 41
0.9987681233310787
 10
878.19488636331209
 20
-1136.1770939040443
 30
0.0
 41
1.0
 10
878.19521529127815
 20
-1136.1773943052588
 30
0.0
 41
1.0
 10
878.19554421924408
 20
-1136.1776947064732
 30
0.0
 41
1.0
 10
878.26922585945204
 20
-1136.2449862003023
 30
0.0
 41
0.9987496570898048
 10
878.33581966477936
 20
-1136.3192990143891
 30
0.0
 41
1.0
 10
878.33659183453972
 20
-1136.3201606877469
 30
0.0
 41
1.0
 10
878.33736400430007
 20
-1136.3210223611047
 30
0.0
 41
1.0
 10
878.40550214914799
 20
-1136.397058521907
 30
0.0
 41
0.9988147669827234
 10
878.46592440337304
 20
-1136.4793595287495
 30
0.0
 41
1.0
 10
878.46704372945078
 20
-1136.4808841601021
 30
0.0
 41
1.0
 10
878.46816305552852
 20
-1136.4824087914546
 30
0.0
 41
1.0
 10
878.53082396190882
 20
-1136.5677590610021
 30
0.0
 41
0.9989452636216525
 10
878.58539087487145
 20
-1136.6584977501618
 30
0.0
 41
1.0
 10
878.58673960095655
 20
-1136.660740531187
 30
0.0
 41
1.0
 10
878.58808832704165
 20
-1136.6629833122124
 30
0.0
 41
1.0
 10
878.64535269217436
 20
-1136.7582075634227
 30
0.0
 41
0.9991046436070954
 10
878.69436190549584
 20
-1136.8579319964476
 30
0.0
 41
1.0
 10
878.69582576708592
 20
-1136.8609106765202
 30
0.0
 41
1.0
 10
878.697289628676
 20
-1136.8638893565931
 30
0.0
 41
1.0
 10
878.74922656517799
 20
-1136.9695711497645
 30
0.0
 41
0.999276383110186
 10
878.79297969373363
 20
-1137.0788952117214
 30
0.0
 41
1.0
 10
878.79445896339644
 20
-1137.0825913992539
 30
0.0
 41
1.0
 10
878.79593823305936
 20
-1137.0862875867865
 30
0.0
 41
1.0
 10
878.84264990094061
 20
-1137.2030040238078
 30
0.0
 41
0.9994163472883122
 10
878.8812829321306
 20
-1137.3226376122727
 30
0.0
 41
1.0
 10
878.88252108437769
 20
-1137.3264717560567
 30
0.0
 41
1.0
 10
878.88375923662488
 20
-1137.3303058998406
 30
0.0
 41
1.0
 10
878.92364279764251
 20
-1137.4538119613205
 30
0.0
 41
0.9997268055890173
 10
878.95771085355375
 20
-1137.5790469932683
 30
0.0
 41
1.0
 10
878.95864103382428
 20
-1137.5824663593805
 30
0.0
 41
1.0
 10
878.95957121409469
 20
-1137.5858857254927
 30
0.0
 41
1.0
 10
878.99177890946635
 20
-1137.704282025222
 30
0.0
 41
0.9996701319000699
 10
879.01786452623628
 20
-1137.8241759784823
 30
0.0
 41
1.0
 10
879.04395014300701
 20
-1137.9440699317479
 30
0.0
 41
0.9995785451110056
 10
879.06303372034722
 20
-1138.0652756927821
 30
0.0
 41
1.0
 10
879.06725350252043
 20
-1138.0920768475437
 30
0.0
 41
1.0
 10
879.07147328469364
 20
-1138.1188780023053
 30
0.0
 41
1.0
 10
879.09804826063237
 20
-1138.2876639760098
 30
0.0
 41
0.9979925101216992
 10
879.1030738465588
 20
-1138.4584553041022
 30
0.0
 41
1.0
 10
879.10389865898333
 20
-1138.4864860275802
 30
0.0
 41
1.0
 10
879.10472347140797
 20
-1138.5145167510582
 30
0.0
 41
1.0
 10
879.10809943248546
 20
-1138.6292466321881
 30
0.0
 41
0.9995314902262673
 10
879.10444924034664
 20
-1138.7439681159458
 30
0.0
 41
1.0
 10
879.1007990482085
 20
-1138.8586895996939
 30
0.0
 41
0.9996245486943792
 10
879.09086995307746
 20
-1138.973038870819
 30
0.0
 41
1.0
 10
879.09070690508315
 20
-1138.9749166269557
 30
0.0
 41
1.0
 10
879.09054385708873
 20
-1138.9767943830923
 30
0.0
 41
1.0
 10
879.08028866596874
 20
-1139.0948991664907
 30
0.0
 41
0.999728609500132
 10
879.06454334239777
 20
-1139.2123980753831
 30
0.0
 41
1.0
 10
879.06414984974754
 20
-1139.2153345000843
 30
0.0
 41
1.0
 10
879.0637563570973
 20
-1139.2182709247852
 30
0.0
 41
1.0
 10
879.04722404822496
 20
-1139.3416426830845
 30
0.0
 41
0.9998265533970044
 10
879.02610858949231
 20
-1139.4643131578737
 30
0.0
 41
1.0
 10
879.02543204735525
 20
-1139.4682435363804
 30
0.0
 41
1.0
 10
879.02475550521831
 20
-1139.4721739148872
 30
0.0
 41
1.0
 10
879.00228696221086
 20
-1139.6027051466929
 30
0.0
 41
0.9999022530854964
 10
878.97617749760241
 20
-1139.732557115324
 30
0.0
 41
1.0
 10
878.97519885643646
 20
-1139.7374242577139
 30
0.0
 41
1.0
 10
878.97422021527063
 20
-1139.7422914001036
 30
0.0
 41
1.0
 10
878.94615346833086
 20
-1139.881877653512
 30
0.0
 41
0.9999524761933226
 10
878.91537049949739
 20
-1140.020890146671
 30
0.0
 41
1.0
 10
878.91409439232075
 20
-1140.0266529059786
 30
0.0
 41
1.0
 10
878.91281828514423
 20
-1140.032415665286
 30
0.0
 41
1.0
 10
878.87948310196248
 20
-1140.1829536770392
 30
0.0
 41
0.9999813588720885
 10
878.84431210116554
 20
-1140.3330733896992
 30
0.0
 41
1.0
 10
878.84275817570756
 20
-1140.3397059801275
 30
0.0
 41
1.0
 10
878.84120425024969
 20
-1140.3463385705559
 30
0.0
 41
1.0
 10
878.8029253985477
 20
-1140.5097234640275
 30
0.0
 41
0.9999955237636191
 10
878.76366952056446
 20
-1140.6728763676456
 30
0.0
 41
1.0
 10
878.75138788492791
 20
-1140.7239205581773
 30
0.0
 41
1.0
 10
878.73910624929147
 20
-1140.7749647487092
 30
0.0
 41
1.0
 10
878.67528710006354
 20
-1141.0402060332731
 30
0.0
 41
0.999999360423784
 10
878.61086815289059
 20
-1141.3053022839781
 30
0.0
 41
1.0
 10
878.60614931733539
 20
-1141.3247211920523
 30
0.0
 41
1.0
 10
878.6014304817802
 20
-1141.3441401001264
 30
0.0
 41
1.0
 10
878.52757386351777
 20
-1141.6480741668929
 30
0.0
 41
0.999965991472868
 10
878.44871426763075
 20
-1141.9507487134588
 30
0.0
 41
1.0
 10
878.44376157870192
 20
-1141.9697578506343
 30
0.0
 41
1.0
 10
878.4388088897731
 20
-1141.9887669878096
 30
0.0
 41
1.0
 10
878.35004391602888
 20
-1142.329459808725
 30
0.0
 41
0.9999441976023522
 10
878.25410088306558
 20
-1142.6682012340229
 30
0.0
 41
1.0
 10
878.23740036463937
 20
-1142.7271649465531
 30
0.0
 41
1.0
 10
878.22069984621317
 20
-1142.7861286590833
 30
0.0
 41
1.0
 10
878.09135577639813
 20
-1143.2427975094388
 30
0.0
 41
0.9999625120731281
 10
877.95412300907094
 20
-1143.6971580434476
 30
0.0
 41
1.0
 10
877.91833306599005
 20
-1143.8156540700679
 30
0.0
 41
1.0
 10
877.88254312290906
 20
-1143.9341500966882
 30
0.0
 41
1.0
 10
877.80802291886846
 20
-1144.1808771747887
 30
0.0
 41
0.9999793386307395
 10
877.73033689573072
 20
-1144.4266258140258
 30
0.0
 41
1.0
 10
877.65265087259309
 20
-1144.6723744532619
 30
0.0
 41
1.0
 10
877.64187131372239
 20
-1144.7063923576366
 30
0.0
 41
1.0
 10
875.79149826045318
 20
-1150.5934642801039
 30
0.0
 41
1.0
 10
873.94112520718409
 20
-1156.4805362025716
 30
0.0
 41
1.0
 10
872.97986851716053
 20
-1156.4805362025716
 30
0.0
 41
1.0
 10
872.01861182713697
 20
-1156.4805362025716
 30
0.0
 41
1.0
 10
873.63755660581546
 20
-1151.3325077007821
 30
0.0
 41
1.0
 10
875.25650138449384
 20
-1146.1844791989927
 30
0.0
 41
1.0
 10
875.3016672076667
 20
-1146.0404479767274
 30
0.0
 41
1.0
 10
875.34683303083966
 20
-1145.8964167544621
 30
0.0
 41
1.0
 10
875.51713744820438
 20
-1145.353325725293
 30
0.0
 41
0.9999911657880747
 10
875.68287025988548
 20
-1144.8088221939267
 30
0.0
 41
1.0
 10
875.71256620338477
 20
-1144.71125825388
 30
0.0
 41
1.0
 10
875.74226214688406
 20
-1144.6136943138333
 30
0.0
 41
1.0
 10
875.84860307156407
 20
-1144.2643186625678
 30
0.0
 41
0.9999952428160677
 10
875.95278666089052
 20
-1143.9142936382136
 30
0.0
 41
1.0
 10
875.95784613121998
 20
-1143.8972953639486
 30
0.0
 41
1.0
 10
875.96290560154944
 20
-1143.8802970896834
 30
0.0
 41
1.0
 10
876.05697025021811
 20
-1143.5642686138553
 30
0.0
 41
0.9999931687511985
 10
876.1486960880892
 20
-1143.2475534005935
 30
0.0
 41
1.0
 10
876.15363135254529
 20
-1143.2305126913343
 30
0.0
 41
1.0
 10
876.15856661700138
 20
-1143.2134719820751
 30
0.0
 41
1.0
 10
876.24042192596312
 20
-1142.9308381873225
 30
0.0
 41
0.9999893840786631
 10
876.31966915241969
 20
-1142.6474620580764
 30
0.0
 41
1.0
 10
876.3989163788749
 20
-1142.3640859288357
 30
0.0
 41
0.9999833980056195
 10
876.47489261961766
 20
-1142.0798153458036
 30
0.0
 41
1.0
 10
876.4838965563406
 20
-1142.0461264673227
 30
0.0
 41
1.0
 10
876.49290049306342
 20
-1142.012437588842
 30
0.0
 41
1.0
 10
876.56186504192965
 20
-1141.7544017565456
 30
0.0
 41
0.9999233658069152
 10
876.62442001315003
 20
-1141.4947375978234
 30
0.0
 41
1.0
 10
876.68697498437029
 20
-1141.2350734391009
 30
0.0
 41
1.0
 10
876.72645840322787
 20
-1141.0712667746748
 30
0.0
 41
1.0
 10
876.73143700720004
 20
-1141.0506118128255
 30
0.0
 41
1.0
 10
876.73641561117222
 20
-1141.0299568509763
 30
0.0
 41
1.0
 10
876.76594182208351
 20
-1140.9074601102566
 30
0.0
 41
0.9999868670868912
 10
876.79421090608162
 20
-1140.7846671646032
 30
0.0
 41
1.0
 10
876.79810839324148
 20
-1140.7677375771768
 30
0.0
 41
1.0
 10
876.80200588040134
 20
-1140.7508079897505
 30
0.0
 41
1.0
 10
876.82247999007939
 20
-1140.6618742189512
 30
0.0
 41
0.9999778173353625
 10
876.84176758819331
 20
-1140.5726756017273
 30
0.0
 41
1.0
 10
876.86105518630791
 20
-1140.4834769845006
 30
0.0
 41
0.999960269285859
 10
876.87874954494134
 20
-1140.393948696061
 30
0.0
 41
1.0
 10
876.88195337701802
 20
-1140.3777382411799
 30
0.0
 41
1.0
 10
876.8851572090947
 20
-1140.3615277862991
 30
0.0
 41
1.0
 10
876.9092592318807
 20
-1140.2395785881006
 30
0.0
 41
0.9995617985320613
 10
876.92610257909962
 20
-1140.1164168403945
 30
0.0
 41
1.0
 10
876.92856706900557
 20
-1140.0983960230305
 30
0.0
 41
1.0
 10
876.93103155891163
 20
-1140.0803752056668
 30
0.0
 41
1.0
 10
876.95131481995998
 20
-1139.9320601559634
 30
0.0
 41
0.9991121410640225
 10
876.95904017354849
 20
-1139.7825640571568
 30
0.0
 41
1.0
 10
876.95995896357294
 20
-1139.7647842205818
 30
0.0
 41
1.0
 10
876.96087775359752
 20
-1139.7470043840067
 30
0.0
 41
1.0
 10
876.96676552713654
 20
-1139.633067958353
 30
0.0
 41
0.9989792494906258
 10
876.96234643501941
 20
-1139.519065122452
 30
0.0
 41
1.0
 10
876.9616984631507
 20
-1139.5023488765255
 30
0.0
 41
1.0
 10
876.96105049128209
 20
-1139.485632630599
 30
0.0
 41
1.0
 10
876.95792734290228
 20
-1139.405062286557
 30
0.0
 41
0.9997820295395078
 10
876.9514433455264
 20
-1139.3246925648098
 30
0.0
 41
1.0
 10
876.94495934815075
 20
-1139.2443228430657
 30
0.0
 41
0.9998335105972508
 10
876.93554715263906
 20
-1139.1642432266153
 30
0.0
 41
1.0
 10
876.93395222796266
 20
-1139.1506734961324
 30
0.0
 41
1.0
 10
876.93235730328638
 20
-1139.1371037656495
 30
0.0
 41
1.0
 10
876.91975525842122
 20
-1139.0298846882283
 30
0.0
 41
0.9996876457878733
 10
876.9018113456226
 20
-1138.9234292605117
 30
0.0
 41
1.0
 10
876.89957968247768
 20
-1138.9101895252727
 30
0.0
 41
1.0
 10
876.89734801933287
 20
-1138.8969497900337
 30
0.0
 41
1.0
 10
876.88355219791219
 20
-1138.8151036460772
 30
0.0
 41
0.999554749649524
 10
876.86489887601931
 20
-1138.7342261488843
 30
0.0
 41
1.0
 10
876.86452491914827
 20
-1138.73260473818
 30
0.0
 41
1.0
 10
876.86415096227722
 20
-1138.7309833274758
 30
0.0
 41
1.0
 10
876.84624555412745
 20
-1138.653348651696
 30
0.0
 41
0.9994899427175329
 10
876.82342064544741
 20
-1138.5770153688586
 30
0.0
 41
1.0
 10
876.82296211870653
 20
-1138.5754819190693
 30
0.0
 41
1.0
 10
876.82250359196553
 20
-1138.5739484692801
 30
0.0
 41
1.0
 10
876.80059573676795
 20
-1138.500682086024
 30
0.0
 41
0.9993784877590641
 10
876.77358010166142
 20
-1138.4291413808653
 30
0.0
 41
1.0
 10
876.77304841068451
 20
-1138.4277333981447
 30
0.0
 41
1.0
 10
876.7725167197076
 20
-1138.4263254154241
 30
0.0
 41
1.0
 10
876.74656446655422
 20
-1138.3576006757046
 30
0.0
 41
0.9992430832253816
 10
876.7153479313954
 20
-1138.291101523638
 30
0.0
 41
1.0
 10
876.71476581533875
 20
-1138.2898614685205
 30
0.0
 41
1.0
 10
876.71418369928199
 20
-1138.2886214134028
 30
0.0
 41
1.0
 10
876.6841313962359
 20
-1138.2246023715695
 30
0.0
 41
0.9990789632798974
 10
876.64870076945942
 20
-1138.1633957598201
 30
0.0
 41
1.0
 10
876.64810506327763
 20
-1138.1623666739611
 30
0.0
 41
1.0
 10
876.64750935709571
 20
-1138.1613375881022
 30
0.0
 41
1.0
 10
876.61327014268272
 20
-1138.1021891480705
 30
0.0
 41
0.998887480112041
 10
876.5736108666506
 20
-1138.0465294356527
 30
0.0
 41
1.0
 10
876.57305534058605
 20
-1138.0457497839775
 30
0.0
 41
1.0
 10
876.57249981452162
 20
-1138.0449701323025
 30
0.0
 41
1.0
 10
876.53395159061881
 20
-1137.9908697232349
 30
0.0
 41
0.9986762060693331
 10
876.49004911934253
 20
-1137.9410160087955
 30
0.0
 41
1.0
 10
876.48960515901035
 20
-1137.9405118669788
 30
0.0
 41
1.0
 10
876.48916119867829
 20
-1137.9400077251623
 30
0.0
 41
1.0
 10
876.44614664806591
 20
-1137.8911622943558
 30
0.0
 41
0.998462164248787
 10
876.39798909128854
 20
-1137.8473789938853
 30
0.0
 41
1.0
 10
876.39774245677154
 20
-1137.8471547617214
 30
0.0
 41
1.0
 10
876.39749582225443
 20
-1137.8469305295573
 30
0.0
 41
1.0
 10
876.34983153451071
 20
-1137.8035956934141
 30
0.0
 41
0.9982724693851697
 10
876.29741290266929
 20
-1137.7661513428966
 30
0.0
 41
1.0
 10
876.24499427082856
 20
-1137.7287069923793
 30
0.0
 41
0.9981399180159171
 10
876.18840820743515
 20
-1137.6979204729357
 30
0.0
 41
1.0
 10
876.18836254535631
 20
-1137.6978956297785
 30
0.0
 41
1.0
 10
876.18831688327759
 20
-1137.697870786621
 30
0.0
 41
1.0
 10
876.131639495728
 20
-1137.6670345808636
 30
0.0
 41
0.9980927086836845
 10
876.07159414466241
 20
-1137.6434177720114
 30
0.0
 41
1.0
 10
876.07115397494999
 20
-1137.6432446461361
 30
0.0
 41
1.0
 10
876.07071380523757
 20
-1137.6430715202607
 30
0.0
 41
1.0
 10
876.00978811474783
 20
-1137.6191084596583
 30
0.0
 41
0.9981411356561699
 10
875.94639959334836
 20
-1137.6027358181527
 30
0.0
 41
1.0
 10
875.94551747664696
 20
-1137.6025079759472
 30
0.0
 41
1.0
 10
875.94463535994555
 20
-1137.6022801337417
 30
0.0
 41
1.0
 10
875.87948260514338
 20
-1137.5854518078252
 30
0.0
 41
0.9983031812935822
 10
875.81281517614832
 20
-1137.5763124466489
 30
0.0
 41
1.0
 10
875.803944150745
 20
-1137.5750963279777
 30
0.0
 41
1.0
 10
875.79507312534167
 20
-1137.5738802093065
 30
0.0
 41
1.0
 10
875.74072348283721
 20
-1137.5664294793153
 30
0.0
 41
0.9983887708264293
 10
875.68587963354366
 20
-1137.5651848056818
 30
0.0
 41
1.0
 10
875.67781622832808
 20
-1137.565001807807
 30
0.0
 41
1.0
 10
875.6697528231125
 20
-1137.5648188099321
 30
0.0
 41
1.0
 10
875.63103578425284
 20
-1137.5639401320486
 30
0.0
 41
0.999886956307786
 10
875.59230983104817
 20
-1137.5642260014083
 30
0.0
 41
1.0
 10
875.55358387781575
 20
-1137.5645118707682
 30
0.0
 41
0.9999972320178939
 10
875.51485969857617
 20
-1137.5649799702976
 30
0.0
 41
1.0
 10
875.49550668202551
 20
-1137.5652139103868
 30
0.0
 41
1.0
 10
875.47615366547473
 20
-1137.5654478504757
 30
0.0
 41
1.0
 10
875.3987234531013
 20
-1137.5663838301837
 30
0.0
 41
0.9997304945086776
 10
875.32142014686076
 20
-1137.5709129239701
 30
0.0
 41
1.0
 10
875.31237050515938
 20
-1137.5714431299598
 30
0.0
 41
1.0
 10
875.30332086345788
 20
-1137.5719733359497
 30
0.0
 41
1.0
 10
875.2079182738097
 20
-1137.5775628417157
 30
0.0
 41
0.9997888306415329
 10
875.11282593796523
 20
-1137.5870678062049
 30
0.0
 41
1.0
 10
875.10410487639444
 20
-1137.5879395208367
 30
0.0
 41
1.0
 10
875.09538381482366
 20
-1137.5888112354687
 30
0.0
 41
1.0
 10
874.98284935583592
 20
-1137.6000596292222
 30
0.0
 41
0.9984170238191251
 10
874.87229020848565
 20
-1137.6238757111576
 30
0.0
 41
1.0
 10
874.83590907749954
 20
-1137.6317127469638
 30
0.0
 41
1.0
 10
874.79952794651331
 20
-1137.6395497827698
 30
0.0
 41
1.0
 10
874.68433687809056
 20
-1137.6643636492797
 30
0.0
 41
0.9976592854199489
 10
874.57360871168487
 20
-1137.7046623264268
 30
0.0
 41
1.0
 10
874.46288054528179
 20
-1137.7449610035733
 30
0.0
 41
0.9993255074352532
 10
874.3554087464928
 20
-1137.7932779020648
 30
0.0
 41
1.0
 10
874.35078356756765
 20
-1137.7953572782653
 30
0.0
 41
1.0
 10
874.34615838864249
 20
-1137.7974366544659
 30
0.0
 41
1.0
 10
874.22943623200661
 20
-1137.8499123053573
 30
0.0
 41
0.9976475078276043
 10
874.12098888769731
 20
-1137.9178602950146
 30
0.0
 41
1.0
 10
874.10264649356213
 20
-1137.9293527738294
 30
0.0
 41
1.0
 10
874.08430409942707
 20
-1137.9408452526441
 30
0.0
 41
1.0
 10
874.00010190787464
 20
-1137.9936023734128
 30
0.0
 41
0.9995131336406627
 10
873.91935419291553
 20
-1138.0515085853669
 30
0.0
 41
1.0
 10
873.83860647795791
 20
-1138.1094147973204
 30
0.0
 41
0.999581010760592
 10
873.76134483022838
 20
-1138.1718964797869
 30
0.0
 41
1.0
 10
873.75837479901884
 20
-1138.1742983512511
 30
0.0
 41
1.0
 10
873.75540476780918
 20
-1138.1767002227152
 30
0.0
 41
1.0
 10
873.67220305765989
 20
-1138.2439856481105
 30
0.0
 41
0.9996617837954597
 10
873.59261237052579
 20
-1138.3155061036693
 30
0.0
 41
1.0
 10
873.58048161964939
 20
-1138.3264068366593
 30
0.0
 41
1.0
 10
873.568350868773
 20
-1138.3373075696495
 30
0.0
 41
1.0
 10
873.50007534137421
 20
-1138.3986601851238
 30
0.0
 41
0.9997267750052356
 10
873.43474183308967
 20
-1138.4631367216498
 30
0.0
 41
1.0
 10
873.36940832481127
 20
-1138.52761325817
 30
0.0
 41
0.9999667288963736
 10
873.30513538166906
 20
-1138.5931470650598
 30
0.0
 41
1.0
 10
873.23630793388907
 20
-1138.6633247238231
 30
0.0
 41
1.0
 10
873.16748048610907
 20
-1138.7335023825863
 30
0.0
 41
1.0
 10
872.96555264741039
 20
-1138.9393915069991
 30
0.0
 41
0.9988205335174897
 10
872.78454703042917
 20
-1139.1638957390619
 30
0.0
 41
1.0
 10
872.75390706552628
 20
-1139.2018989894896
 30
0.0
 41
1.0
 10
872.72326710062339
 20
-1139.2399022399175
 30
0.0
 41
1.0
 10
872.48098155383263
 20
-1139.5404129728404
 30
0.0
 41
0.999707782675468
 10
872.25350360272807
 20
-1139.8522827670558
 30
0.0
 41
1.0
 10
872.25178018759823
 20
-1139.8546455504347
 30
0.0
 41
1.0
 10
872.25005677246838
 20
-1139.8570083338134
 30
0.0
 41
1.0
 10
872.01913199110197
 20
-1140.1736036947891
 30
0.0
 41
0.9989147567078699
 10
871.8186684882179
 20
-1140.5103131559752
 30
0.0
 41
1.0
 10
871.79392734291139
 20
-1140.5518697365269
 30
0.0
 41
1.0
 10
871.76918619760488
 20
-1140.5934263170784
 30
0.0
 41
1.0
 10
871.61397489896717
 20
-1140.8541277015318
 30
0.0
 41
0.9997476598182034
 10
871.47062991145788
 20
-1141.1215374501137
 30
0.0
 41
1.0
 10
871.32728492394756
 20
-1141.3889471986975
 30
0.0
 41
0.9996258967109343
 10
871.19877667201524
 20
-1141.663795135323
 30
0.0
 41
1.0
 10
871.1855767625666
 20
-1141.6920265354163
 30
0.0
 41
1.0
 10
871.17237685311807
 20
-1141.7202579355096
 30
0.0
 41
1.0
 10
871.03216813211941
 20
-1142.0201303334602
 30
0.0
 41
0.9998735413944226
 10
870.90156678539677
 20
-1142.3243099329325
 30
0.0
 41
1.0
 10
870.89812395733475
 20
-1142.3323285184006
 30
0.0
 41
1.0
 10
870.89468112927284
 20
-1142.3403471038687
 30
0.0
 41
1.0
 10
870.77096543867526
 20
-1142.6284895324025
 30
0.0
 41
0.9999377418857161
 10
870.65371063650173
 20
-1142.9193210000753
 30
0.0
 41
1.0
 10
870.53645583432649
 20
-1143.2101524677514
 30
0.0
 41
0.9999508299509849
 10
870.4249918909502
 20
-1143.5032521445694
 30
0.0
 41
1.0
 10
870.42191112228716
 20
-1143.5113531705347
 30
0.0
 41
1.0
 10
870.41883035362412
 20
-1143.5194541965002
 30
0.0
 41
1.0
 10
870.30120487292493
 20
-1143.8287559252412
 30
0.0
 41
0.9999609228429333
 10
870.18906627004856
 20
-1144.140088941263
 30
0.0
 41
1.0
 10
870.18611025969858
 20
-1144.1482957816734
 30
0.0
 41
1.0
 10
870.1831542493486
 20
-1144.1565026220837
 30
0.0
 41
1.0
 10
870.06510362577751
 20
-1144.4842493189124
 30
0.0
 41
0.9999674607396121
 10
869.95235609970587
 20
-1144.8138579389172
 30
0.0
 41
1.0
 10
869.9009577091449
 20
-1144.9641171346047
 30
0.0
 41
1.0
 10
869.84955931858394
 20
-1145.1143763302921
 30
0.0
 41
1.0
 10
869.73354871182516
 20
-1145.453524312798
 30
0.0
 41
0.9999287532310259
 10
869.62566730785352
 20
-1145.7953450517762
 30
0.0
 41
1.0
 10
869.57919005173744
 20
-1145.9426075960737
 30
0.0
 41
1.0
 10
869.53271279562148
 20
-1146.0898701403714
 30
0.0
 41
1.0
 10
869.5177859039004
 20
-1146.1371657906957
 30
0.0
 41
0.9999998224841338
 10
869.5029153951524
 20
-1146.1844791989927
 30
0.0
 41
1.0
 10
867.88225925835695
 20
-1151.3325077007821
 30
0.0
 41
1.0
 10
866.26160312156151
 20
-1156.4805362025716
 30
0.0
 41
1.0
 10
865.35629467767058
 20
-1156.4805362025716
 30
0.0
 41
1.0
 10
864.45098623377964
 20
-1156.4805362025716
 30
0.0
 41
1.0
 10
866.30307064516569
 20
-1150.5934642801039
 30
0.0
 41
1.0
 10
868.15515505655173
 20
-1144.7063923576366
 30
0.0
 41
1.0
 10
868.16527681485445
 20
-1144.6743491441869
 30
0.0
 41
1.0
 10
868.23788448370419
 20
-1144.444049602361
 30
0.0
 41
1.0
 10
868.31049215255405
 20
-1144.2137500605349
 30
0.0
 41
0.9999825681968061
 10
868.38037519176066
 20
-1143.9826091654859
 30
0.0
 41
1.0
 10
868.42866625392401
 20
-1143.8228845819815
 30
0.0
 41
1.0
 10
868.47695731608735
 20
-1143.6631599984771
 30
0.0
 41
1.0
 10
868.57410966940336
 20
-1143.3418247767056
 30
0.0
 41
0.9999672528963953
 10
868.66604847502629
 20
-1143.0189592311203
 30
0.0
 41
1.0
 10
868.66883735869305
 20
-1143.009165385741
 30
0.0
 41
1.0
 10
868.67162624235982
 20
-1142.9993715403616
 30
0.0
 41
1.0
 10
868.75798728064683
 20
-1142.6960936855442
 30
0.0
 41
0.9999899749142848
 10
868.84162889018432
 20
-1142.3920545970814
 30
0.0
 41
1.0
 10
868.85173480920355
 20
-1142.3553193593966
 30
0.0
 41
1.0
 10
868.86184072822277
 20
-1142.3185841217119
 30
0.0
 41
1.0
 10
868.92527049972148
 20
-1142.0880155086206
 30
0.0
 41
0.9999214200503517
 10
868.98289992809669
 20
-1141.8559291664196
 30
0.0
 41
1.0
 10
868.99566578027714
 20
-1141.8045182810242
 30
0.0
 41
1.0
 10
869.00843163245759
 20
-1141.7531073956286
 30
0.0
 41
1.0
 10
869.04052935647405
 20
-1141.6238428242127
 30
0.0
 41
0.9999828681670964
 10
869.07111160846989
 20
-1141.494211349743
 30
0.0
 41
1.0
 10
869.1016938604663
 20
-1141.3645798752718
 30
0.0
 41
0.9999389844478845
 10
869.12940484925616
 20
-1141.2343044193678
 30
0.0
 41
1.0
 10
869.1365425929755
 20
-1141.2007483155344
 30
0.0
 41
1.0
 10
869.14368033669496
 20
-1141.1671922117007
 30
0.0
 41
1.0
 10
869.18566681292441
 20
-1140.9698045481261
 30
0.0
 41
0.9998933699441485
 10
869.22187107732793
 20
-1140.7712749403611
 30
0.0
 41
1.0
 10
869.2232439025438
 20
-1140.7637469196675
 30
0.0
 41
1.0
 10
869.22461672775955
 20
-1140.7562188989739
 30
0.0
 41
1.0
 10
869.26356664259458
 20
-1140.5426332498216
 30
0.0
 41
0.9996850305193225
 10
869.29175031885336
 20
-1140.3273622443849
 30
0.0
 41
1.0
 10
869.29374535222234
 20
-1140.312123890265
 30
0.0
 41
1.0
 10
869.29574038559133
 20
-1140.2968855361453
 30
0.0
 41
1.0
 10
869.32314824805042
 20
-1140.0875403089904
 30
0.0
 41
0.9994697936706783
 10
869.33687280727054
 20
-1139.8768551136563
 30
0.0
 41
1.0
 10
869.33734987652019
 20
-1139.8695316414455
 30
0.0
 41
1.0
 10
869.33782694576985
 20
-1139.8622081692349
 30
0.0
 41
1.0
 10
869.35059736649009
 20
-1139.6661699183262
 30
0.0
 41
0.9991804893137014
 10
869.34746905021734
 20
-1139.4697410683521
 30
0.0
 41
1.0
 10
869.34738517139522
 20
-1139.4644742669389
 30
0.0
 41
1.0
 10
869.34730129257309
 20
-1139.4592074655254
 30
0.0
 41
1.0
 10
869.34434073394459
 20
-1139.2733122183793
 30
0.0
 41
0.9988448329321688
 10
869.32354918832073
 20
-1139.0885596285452
 30
0.0
 41
1.0
 10
869.32195511461782
 20
-1139.0743947727744
 30
0.0
 41
1.0
 10
869.3203610409148
 20
-1139.0602299170037
 30
0.0
 41
1.0
 10
869.30275764269686
 20
-1138.9038070387123
 30
0.0
 41
0.998550320945918
 10
869.26844137039734
 20
-1138.7501828546226
 30
0.0
 41
1.0
 10
869.26085537832626
 20
-1138.7162225272227
 30
0.0
 41
1.0
 10
869.25326938625517
 20
-1138.6822621998231
 30
0.0
 41
1.0
 10
869.23412509809793
 20
-1138.5965586705338
 30
0.0
 41
0.9991036781370514
 10
869.2078002364467
 20
-1138.5127815832084
 30
0.0
 41
1.0
 10
869.2038180109912
 20
-1138.5001084206997
 30
0.0
 41
1.0
 10
869.19983578553581
 20
-1138.4874352581908
 30
0.0
 41
1.0
 10
869.1814753747949
 20
-1138.4290044958814
 30
0.0
 41
0.9998874504368333
 10
869.16137016711696
 20
-1138.3711508936601
 30
0.0
 41
1.0
 10
869.14126495943822
 20
-1138.3132972914357
 30
0.0
 41
0.9994041637543507
 10
869.11721634650451
 20
-1138.2569685875476
 30
0.0
 41
1.0
 10
869.11301956228067
 20
-1138.247138523066
 30
0.0
 41
1.0
 10
869.10882277805683
 20
-1138.2373084585845
 30
0.0
 41
1.0
 10
869.08094394706166
 20
-1138.1720082926154
 30
0.0
 41
0.9991846840701094
 10
869.04788759036865
 20
-1138.1091702613357
 30
0.0
 41
1.0
 10
869.04675098397342
 20
-1138.1070096448807
 30
0.0
 41
1.0
 10
869.04561437757809
 20
-1138.1048490284254
 30
0.0
 41
1.0
 10
869.01483123367495
 20
-1138.0463322300541
 30
0.0
 41
0.9989253167921961
 10
868.97876180962066
 20
-1137.9909173016654
 30
0.0
 41
1.0
 10
868.97770768494604
 20
-1137.9892978069024
 30
0.0
 41
1.0
 10
868.97665356027142
 20
-1137.9876783121397
 30
0.0
 41
1.0
 10
868.94269238556535
 20
-1137.9355023732744
 30
0.0
 41
0.9986467172834455
 10
868.90349523292821
 20
-1137.8871363396456
 30
0.0
 41
1.0
 10
868.90262110422736
 20
-1137.8860577373673
 30
0.0
 41
1.0
 10
868.90174697552663
 20
-1137.884979135089
 30
0.0
 41
1.0
 10
868.86429808029072
 20
-1137.8387703060157
 30
0.0
 41
0.9984001104266607
 10
868.82187134977369
 20
-1137.797085198647
 30
0.0
 41
1.0
 10
868.82128421166431
 20
-1137.7965083237657
 30
0.0
 41
1.0
 10
868.82069707355492
 20
-1137.7959314488844
 30
0.0
 41
1.0
 10
868.77944461925688
 20
-1137.7554000912787
 30
0.0
 41
0.9982442159083937
 10
868.73368851792088
 20
-1137.7200315300181
 30
0.0
 41
1.0
 10
868.73347372245962
 20
-1137.7198654973754
 30
0.0
 41
1.0
 10
868.73325892699847
 20
-1137.7196994647325
 30
0.0
 41
1.0
 10
868.68793241658591
 20
-1137.6846629687584
 30
0.0
 41
0.9982450060836441
 10
868.63878143751356
 20
-1137.6552311857245
 30
0.0
 41
1.0
 10
868.58963045844234
 20
-1137.6257994026912
 30
0.0
 41
0.9983922639634619
 10
868.53746415227715
 20
-1137.6021197680368
 30
0.0
 41
1.0
 10
868.53723727495253
 20
-1137.6020167825554
 30
0.0
 41
1.0
 10
868.53701039762802
 20
-1137.6019137970738
 30
0.0
 41
1.0
 10
868.48439033681404
 20
-1137.5780281914567
 30
0.0
 41
0.99865171471499
 10
868.42957736394669
 20
-1137.5597270723354
 30
0.0
 41
1.0
 10
868.42889944251863
 20
-1137.5595007259039
 30
0.0
 41
1.0
 10
868.42822152109056
 20
-1137.5592743794723
 30
0.0
 41
1.0
 10
868.37205270536663
 20
-1137.5405205674876
 30
0.0
 41
0.9989435598956542
 10
868.31439931821467
 20
-1137.5270028652528
 30
0.0
 41
1.0
 10
868.31331919863351
 20
-1137.526749615
 30
0.0
 41
1.0
 10
868.31223907905223
 20
-1137.5264963647471
 30
0.0
 41
1.0
 10
868.25242545273738
 20
-1137.5124721620066
 30
0.0
 41
0.9992249241239882
 10
868.19169394383994
 20
-1137.5031968192916
 30
0.0
 41
1.0
 10
868.19028025554894
 20
-1137.5029809108837
 30
0.0
 41
1.0
 10
868.18886656725795
 20
-1137.5027650024758
 30
0.0
 41
1.0
 10
868.12530768177646
 20
-1137.4930578429446
 30
0.0
 41
0.9994396597832903
 10
868.06124174523791
 20
-1137.4876249205988
 30
0.0
 41
1.0
 10
868.04210107776191
 20
-1137.4860017528804
 30
0.0
 41
1.0
 10
868.02296041028592
 20
-1137.4843785851617
 30
0.0
 41
1.0
 10
867.92061313879219
 20
-1137.4756993273788
 30
0.0
 41
0.9987693403120875
 10
867.81790951520384
 20
-1137.4772023908317
 30
0.0
 41
1.0
 10
867.80765518097735
 20
-1137.4773524626057
 30
0.0
 41
1.0
 10
867.79740084675086
 20
-1137.4775025343799
 30
0.0
 41
1.0
 10
867.68784508057263
 20
-1137.4791058786673
 30
0.0
 41
0.9989753644966194
 10
867.57888308055647
 20
-1137.4906088855923
 30
0.0
 41
1.0
 10
867.46992108053882
 20
-1137.5021118925179
 30
0.0
 41
0.9983190067306139
 10
867.36302226957275
 20
-1137.5261468843048
 30
0.0
 41
1.0
 10
867.35412131796716
 20
-1137.5281481628672
 30
0.0
 41
1.0
 10
867.34522036636156
 20
-1137.5301494414298
 30
0.0
 41
1.0
 10
867.22051965218282
 20
-1137.5581869903419
 30
0.0
 41
0.9985539388303124
 10
867.0995498985053
 20
-1137.5994506663874
 30
0.0
 41
1.0
 10
867.09720446754488
 20
-1137.6002507102032
 30
0.0
 41
1.0
 10
867.09485903658447
 20
-1137.6010507540191
 30
0.0
 41
1.0
 10
866.96919842098748
 20
-1137.643914517696
 30
0.0
 41
0.9988468746494021
 10
866.84822807868784
 20
-1137.6986326027579
 30
0.0
 41
1.0
 10
866.84504525669809
 20
-1137.7000722773182
 30
0.0
 41
1.0
 10
866.84186243470833
 20
-1137.7015119518787
 30
0.0
 41
1.0
 10
866.71452644843043
 20
-1137.759109386061
 30
0.0
 41
0.9991322885919332
 10
866.59242586437279
 20
-1137.8271047182434
 30
0.0
 41
1.0
 10
866.57482385333128
 20
-1137.8369069202317
 30
0.0
 41
1.0
 10
866.55722184228966
 20
-1137.8467091222203
 30
0.0
 41
1.0
 10
866.45504516123083
 20
-1137.9036092380022
 30
0.0
 41
0.9993860037850061
 10
866.35710415715539
 20
-1137.9675252535917
 30
0.0
 41
1.0
 10
866.35148584429919
 20
-1137.9711917482891
 30
0.0
 41
1.0
 10
866.34586753144299
 20
-1137.9748582429866
 30
0.0
 41
1.0
 10
866.25916315307813
 20
-1138.0314412691828
 30
0.0
 41
0.9998821494953262
 10
866.17423677726924
 20
-1138.0906594992571
 30
0.0
 41
1.0
 10
866.08931040145842
 20
-1138.1498777293323
 30
0.0
 41
0.9997976482744645
 10
866.00683477105383
 20
-1138.2124641373746
 30
0.0
 41
1.0
 10
865.99219850624831
 20
-1138.2235708271548
 30
0.0
 41
1.0
 10
865.97756224144291
 20
-1138.2346775169351
 30
0.0
 41
1.0
 10
865.86581408142763
 20
-1138.3194773045379
 30
0.0
 41
0.9998091630800571
 10
865.75746380340149
 20
-1138.4085776552381
 30
0.0
 41
1.0
 10
865.74445805092432
 20
-1138.4192727556842
 30
0.0
 41
1.0
 10
865.73145229844715
 20
-1138.4299678561301
 30
0.0
 41
1.0
 10
865.59709051546429
 20
-1138.5404584077241
 30
0.0
 41
0.9995035112317223
 10
865.4699546377019
 20
-1138.659192224738
 30
0.0
 41
1.0
 10
865.46030732731379
 20
-1138.6682019708967
 30
0.0
 41
1.0
 10
865.45066001692567
 20
-1138.6772117170553
 30
0.0
 41
1.0
 10
865.32723695416121
 20
-1138.7924780888104
 30
0.0
 41
0.9994630424299403
 10
865.21162854837758
 20
-1138.9155808320452
 30
0.0
 41
1.0
 10
865.20794570960948
 20
-1138.9195024115547
 30
0.0
 41
1.0
 10
865.20426287084126
 20
-1138.9234239910643
 30
0.0
 41
1.0
 10
865.0960201425961
 20
-1139.0386835752777
 30
0.0
 41
0.9995160693749809
 10
864.99515411306174
 20
-1139.1604509931531
 30
0.0
 41
1.0
 10
864.99322039298067
 20
-1139.1627854173616
 30
0.0
 41
1.0
 10
864.99128667289949
 20
-1139.1651198415705
 30
0.0
 41
1.0
 10
864.89428808352977
 20
-1139.2822184110255
 30
0.0
 41
0.9996561470514472
 10
864.80356186486392
 20
-1139.4042411734747
 30
0.0
 41
1.0
 10
864.79740419896348
 20
-1139.4125229625149
 30
0.0
 41
1.0
 10
864.79124653306314
 20
-1139.4208047515551
 30
0.0
 41
1.0
 10
864.71283564620069
 20
-1139.5262639359203
 30
0.0
 41
0.9998349055172923
 10
864.63830836426587
 20
-1139.6345025195874
 30
0.0
 41
1.0
 10
864.56378108234003
 20
-1139.7427411032413
 30
0.0
 41
0.9999728109558482
 10
864.49085818643118
 20
-1139.8520670287942
 30
0.0
 41
1.0
 10
864.48954297101557
 20
-1139.8540387983026
 30
0.0
 41
1.0
 10
864.48822775559995
 20
-1139.8560105678109
 30
0.0
 41
1.0
 10
864.41267442885464
 20
-1139.9692800323887
 30
0.0
 41
0.9999972147299834
 10
864.33765661849202
 20
-1140.0829048752073
 30
0.0
 41
1.0
 10
864.33268507586979
 20
-1140.0904349636794
 30
0.0
 41
1.0
 10
864.32771353324756
 20
-1140.0979650521517
 30
0.0
 41
1.0
 10
864.24275263763604
 20
-1140.2266500719211
 30
0.0
 41
0.9999371979004792
 10
864.16069728823982
 20
-1140.357206985685
 30
0.0
 41
1.0
 10
864.15718840387012
 20
-1140.3627899137628
 30
0.0
 41
1.0
 10
864.15367951950043
 20
-1140.3683728418403
 30
0.0
 41
1.0
 10
864.06460640137504
 20
-1140.5100956117437
 30
0.0
 41
0.9998272025610699
 10
863.9808630104958
 20
-1140.6550314884814
 30
0.0
 41
1.0
 10
863.96564783846884
 20
-1140.6813646029432
 30
0.0
 41
1.0
 10
863.95043266644188
 20
-1140.7076977174047
 30
0.0
 41
1.0
 10
863.83625893151145
 20
-1140.9052998230607
 30
0.0
 41
0.9995217214837859
 10
863.7345192419557
 20
-1141.1095821509232
 30
0.0
 41
1.0
 10
863.72687567932007
 20
-1141.1249296006272
 30
0.0
 41
1.0
 10
863.71923211668445
 20
-1141.1402770503314
 30
0.0
 41
1.0
 10
863.63232682409705
 20
-1141.3147735084083
 30
0.0
 41
0.9998269762607496
 10
863.55197235782418
 20
-1141.4923817951333
 30
0.0
 41
1.0
 10
863.47161789155371
 20
-1141.6699900818533
 30
0.0
 41
0.9998944747387275
 10
863.39645709698766
 20
-1141.8498578074857
 30
0.0
 41
1.0
 10
863.39150342739822
 20
-1141.8617124623988
 30
0.0
 41
1.0
 10
863.38654975780889
 20
-1141.8735671173119
 30
0.0
 41
1.0
 10
863.30590269725406
 20
-1142.0665640573352
 30
0.0
 41
0.9999506734409118
 10
863.22910516834838
 20
-1142.2611248621961
 30
0.0
 41
1.0
 10
863.21450520308395
 20
-1142.2981127839855
 30
0.0
 41
1.0
 10
863.19990523781962
 20
-1142.3351007057749
 30
0.0
 41
1.0
 10
863.15230763944874
 20
-1142.455685667042
 30
0.0
 41
0.9999912393943468
 10
863.10572119542235
 20
-1142.5766648697481
 30
0.0
 41
1.0
 10
863.05913475139369
 20
-1142.6976440724598
 30
0.0
 41
0.9999927113962094
 10
863.01347345699401
 20
-1142.8189754799764
 30
0.0
 41
1.0
 10
862.99950502560205
 20
-1142.8560924619601
 30
0.0
 41
1.0
 10
862.98553659421009
 20
-1142.8932094439438
 30
0.0
 41
1.0
 10
862.9119384370174
 20
-1143.0887748154516
 30
0.0
 41
0.9999487550947146
 10
862.84231481204347
 20
-1143.2857901806412
 30
0.0
 41
1.0
 10
862.81872120210983
 20
-1143.3525534909245
 30
0.0
 41
1.0
 10
862.7951275921763
 20
-1143.419316801208
 30
0.0
 41
1.0
 10
862.70044195780577
 20
-1143.6872506360328
 30
0.0
 41
0.9999808436948067
 10
862.60908036916305
 20
-1143.956336067301
 30
0.0
 41
1.0
 10
862.51771878051829
 20
-1144.2254214985755
 30
0.0
 41
0.9999873932907547
 10
862.42906407180408
 20
-1144.4954108535771
 30
0.0
 41
1.0
 10
862.40897171493441
 20
-1144.5566001863308
 30
0.0
 41
1.0
 10
862.38887935806474
 20
-1144.6177895190847
 30
0.0
 41
1.0
 10
862.26003993561312
 20
-1145.0101575395884
 30
0.0
 41
0.9999794883026316
 10
862.13623715065285
 20
-1145.4041437458723
 30
0.0
 41
1.0
 10
862.1250848912141
 20
-1145.4396343561132
 30
0.0
 41
1.0
 10
862.11393263177547
 20
-1145.4751249663541
 30
0.0
 41
1.0
 10
861.97137446788906
 20
-1145.9287977184049
 30
0.0
 41
0.999998276171405
 10
861.83050202786228
 20
-1146.382996740565
 30
0.0
 41
1.0
 10
860.24236169528967
 20
-1151.4317664715682
 30
0.0
 41
1.0
 10
858.65422136271707
 20
-1156.4805362025716
 30
0.0
 41
1.0
 10
857.70547075124068
 20
-1156.4805362025716
 30
0.0
 41
1.0
 10
856.7567201397643
 20
-1156.4805362025716
 30
0.0
 41
1.0
 10
859.99500462591755
 20
-1146.1532140026254
 30
0.0
 41
1.0
 10
863.23328911207068
 20
-1135.8258918026793
 30
0.0
 41
1.0
  0
LWPOLYLINE
  5
5C
100
AcDbEntity
  8
0
370
              15
390
0
  6
Continuous
 62
               7
100
AcDbPolyline
 90
      232
 70
             128
 10
837.52974333824363
 20
-1136.9102346341945
 42
0.0004370800681322
 10
837.47686616445765
 20
-1136.9789012730787
 10
837.43758193304416
 20
-1137.0300083863472
 42
0.0030481992181863
 10
837.30724321589707
 20
-1137.2017300787288
 10
837.26873154417456
 20
-1137.2531168624796
 42
0.0042058245756064
 10
837.06474649349127
 20
-1137.5301226075717
 10
837.01234137100403
 20
-1137.6025554543339
 42
0.0120948898744352
 10
836.71629745423968
 20
-1138.0333050588877
 10
836.62010495511981
 20
-1138.1807857941094
 42
0.0141601263949009
 10
836.31646090819868
 20
-1138.6764551308434
 10
836.27692364076438
 20
-1138.7452990982897
 42
0.007113108130615
 10
836.07165131753436
 20
-1139.1148018971132
 42
0.0068458791006925
 10
835.87677179069294
 20
-1139.4898934605858
 10
835.86995992823347
 20
-1139.5034551743129
 42
0.0064120880286387
 10
835.67181767819579
 20
-1139.9108796492178
 10
835.66428299267216
 20
-1139.9268915059531
 42
0.0058857236449368
 10
835.46152760080088
 20
-1140.3712676169873
 10
835.4533526745065
 20
-1140.3897577706221
 42
0.0053189741894904
 10
835.24464836183688
 20
-1140.8757212445453
 10
835.23590055615762
 20
-1140.8967031227362
 42
0.0047503650420946
 10
835.01992683000697
 20
-1141.428902555946
 10
835.01065858165884
 20
-1141.4523789320538
 42
0.00420717621752
 10
834.78611119792367
 20
-1142.0354725261432
 10
834.77636179558237
 20
-1142.0614387009932
 42
0.0036680086485942
 10
834.54190715226798
 20
-1142.7000740855308
 10
834.53169937242251
 20
-1142.7285226198687
 42
0.0032573142626209
 10
834.28606708645873
 20
-1143.4273752796137
 10
834.21741656561346
 20
-1143.6268383636798
 42
0.002613336664781
 10
833.86897136685707
 20
-1144.6567016473471
 10
833.80571457935037
 20
-1144.8469324827586
 42
0.0020592950740407
 10
833.59185151038935
 20
-1145.4990361353532
 10
833.58879971922829
 20
-1145.5084726237567
 42
0.0025609928534659
 10
833.38697921774042
 20
-1146.1436178461288
 10
833.38438785060737
 20
-1146.1519201870897
 42
0.0031362356244058
 10
833.19489706493687
 20
-1146.7726830432489
 10
833.19276602201376
 20
-1146.7798243494456
 42
0.0037229918031316
 10
833.01596563508303
 20
-1147.3888096514343
 10
833.01428704587704
 20
-1147.394756541607
 42
0.0043077623708104
 10
832.85054624381155
 20
-1147.9945752733774
 42
0.0047654161822088
 10
832.69771752130146
 20
-1148.5972613622562
 10
832.66325291245653
 20
-1148.7388231394298
 42
0.0112969368447445
 10
832.46738855431215
 20
-1149.6305153000576
 10
832.43938216521622
 20
-1149.7733433461517
 42
0.0130056762572935
 10
832.23854492156966
 20
-1150.9602844177966
 10
832.21800517142196
 20
-1151.1043625312775
 42
0.0138721532147278
 10
832.11430216688461
 20
-1152.0111920170993
 10
832.09500667897623
 20
-1152.2346897390303
 42
0.0071254697006177
 10
832.06166003305407
 20
-1152.6978767478718
 10
832.05669905889192
 20
-1152.7838807424127
 42
0.0028881799194933
 10
832.04156076560093
 20
-1153.0756224522743
 42
0.0060297297134651
 10
832.03162856582571
 20
-1153.3675713883788
 10
832.03056628415845
 20
-1153.4159637603204
 42
0.0229523164154555
 10
832.03829731194412
 20
-1153.7387186066057
 10
832.0425230854645
 20
-1153.7991221406221
 42
0.0123673300666552
 10
832.06160173198282
 20
-1154.0002428657967
 42
0.0128577674466687
 10
832.09079712238861
 20
-1154.2001407157202
 10
832.09792299577612
 20
-1154.2414695303205
 42
0.0285717853763259
 10
832.16241699747161
 20
-1154.5195856816331
 10
832.17608552113836
 20
-1154.5662404511115
 42
0.0316283099158352
 10
832.29189610105254
 20
-1154.885254952937
 10
832.29494479280811
 20
-1154.8922413252626
 42
0.0338984824238604
 10
832.44437650377517
 20
-1155.1798072894517
 10
832.44668523314465
 20
-1155.183598318727
 42
0.0350228718354842
 10
832.6290455238186
 20
-1155.4406503034045
 10
832.62993077559395
 20
-1155.4417293811689
 42
0.0347476747529559
 10
832.84435546283373
 20
-1155.6689144283887
 42
0.0331337701910355
 10
833.08759878858098
 20
-1155.8650430904665
 10
833.08869888709626
 20
-1155.8658157936384
 42
0.0305233319081895
 10
833.35724358266896
 20
-1156.0309439637294
 10
833.3604736271709
 20
-1156.0326679755926
 42
0.0273744481152031
 10
833.65302733874523
 20
-1156.168806119483
 10
833.65813187388267
 20
-1156.1708497039526
 42
0.0240964406195555
 10
833.97360894952817
 20
-1156.279833430234
 10
833.98019227873829
 20
-1156.2817581699092
 42
0.0209636179812723
 10
834.31759243139209
 20
-1156.3652263178412
 10
834.32522489183964
 20
-1156.3667782308426
 42
0.0181388704691223
 10
834.68354728383781
 20
-1156.4261943240565
 10
834.69182813221619
 20
-1156.4272605078736
 42
0.0156086547590255
 10
835.07001549641075
 20
-1156.4639966944505
 10
835.11321074872785
 20
-1156.466835196929
 42
0.01371483290186
 10
835.440883894031
 20
-1156.4793554521807
 10
835.4868200839785
 20
-1156.4798498852958
 42
0.0051057823889519
 10
835.72296567054923
 20
-1156.4799801397048
 42
0.0052256693312389
 10
835.9590629543211
 20
-1156.475231315241
 10
836.0292897380773
 20
-1156.4730843492266
 42
0.01615071790509
 10
836.40502681618273
 20
-1156.4494339788996
 10
836.42503977655156
 20
-1156.4475237836125
 42
0.0101216737833755
 10
836.83906699804413
 20
-1156.3995308532467
 10
836.87312028746908
 20
-1156.3948831564373
 42
0.0245291776396629
 10
837.34990994302041
 20
-1156.3058080783612
 10
837.4347332585462
 20
-1156.2856121580148
 42
0.014350921255744
 10
837.79136436248382
 20
-1156.1898075242366
 42
0.0156557857037074
 10
838.14158042721283
 20
-1156.0727963084171
 10
838.14908164170572
 20
-1156.0700261466636
 42
0.0170137333629929
 10
838.5056776373915
 20
-1155.9243685317904
 10
838.51278155979458
 20
-1155.9211806962287
 42
0.0183105364411858
 10
838.8721312279589
 20
-1155.7438456544053
 10
838.8790779925996
 20
-1155.7400952195321
 42
0.0194899958154659
 10
839.23755873358607
 20
-1155.5281162376398
 10
839.24457261292036
 20
-1155.5235908953464
 42
0.0204869852949671
 10
839.59858691501256
 20
-1155.2740708802619
 10
839.60585252360124
 20
-1155.2684908149122
 42
0.0212516938558847
 10
839.9518424547116
 20
-1154.9785868180156
 10
839.99835914878361
 20
-1154.9361195079252
 42
0.0215248918251307
 10
840.25838531767249
 20
-1154.6773552289296
 10
840.30341505205695
 20
-1154.6285111075756
 42
0.0114578554961817
 10
840.45820720573056
 20
-1154.4526881741212
 10
840.46940174170288
 20
-1154.4393694105929
 42
0.006153130513525
 10
840.59587638771154
 20
-1154.2850798772702
 42
0.0006325587125894
 10
840.72025487194844
 20
-1154.1290765014874
 10
840.74329500691488
 20
-1154.1001029809352
 42
0.0041897761560384
 10
840.91175041089446
 20
-1153.8845836048642
 10
840.97021253077969
 20
-1153.808482257888
 42
0.0092993880040649
 10
841.24682445800704
 20
-1153.4342034939991
 10
841.32921895120205
 20
-1153.3182664904361
 42
0.0159321727087674
 10
841.67582543384469
 20
-1152.7960922696795
 10
841.72018156923787
 20
-1152.7244127054228
 42
0.0085547317023281
 10
841.95469333455958
 20
-1152.3305377562049
 42
0.0084601156889739
 10
842.17566951200172
 20
-1151.9289109071726
 10
842.18378498583195
 20
-1151.9135512248997
 42
0.0081429654284754
 10
842.40703425626691
 20
-1151.473829712364
 10
842.41589442045347
 20
-1151.4556508703395
 42
0.0076574581329765
 10
842.64230193102537
 20
-1150.9724679950752
 10
842.65178157174387
 20
-1150.9514035167836
 42
0.007068272419738
 10
842.8822264795466
 20
-1150.4193662120119
 10
842.89221676353236
 20
-1150.3953770229905
 42
0.006455951444864
 10
843.12754997171226
 20
-1149.8090647564763
 10
843.1379593298791
 20
-1149.7821298310296
 42
0.0058311413905184
 10
843.37900606664039
 20
-1149.1360977366496
 10
843.38976114402931
 20
-1149.1062133954852
 42
0.0052312425819455
 10
843.63734242207408
 20
-1148.3950109816396
 10
843.64838625845005
 20
-1148.3621842695811
 42
0.0046680544796098
 10
843.90331468618263
 20
-1147.5803579538319
 10
843.94530683622918
 20
-1147.4473747165305
 42
0.0041666856444424
 10
844.14859284862291
 20
-1146.7844059415286
 10
844.18625528929704
 20
-1146.6578248338403
 42
0.0015170975155079
 10
844.30744186769982
 20
-1146.2459564823812
 42
-0.0004887993112201
 10
844.42778164081722
 20
-1145.833838070359
 10
844.50425889831808
 20
-1145.5728806843981
 42
0.0002583378926776
 10
844.77747346844217
 20
-1144.638823981014
 10
844.85924631796513
 20
-1144.3587247216149
 42
0.0006636169672361
 10
845.05311407797024
 20
-1143.691371798049
 10
845.05821073233597
 20
-1143.6737402151043
 42
0.0010589131324835
 10
845.2396594332339
 20
-1143.0410088721201
 10
845.24464150370272
 20
-1143.0234959651411
 42
0.0015655524462503
 10
845.41291171089711
 20
-1142.4248792858991
 10
845.41774191130594
 20
-1142.4074871269854
 42
0.002164044047719
 10
845.57203188329822
 20
-1141.842460108945
 10
845.57666610273168
 20
-1141.8251953789379
 42
0.0028763871855669
 10
845.716181820781
 20
-1141.2932274281043
 10
845.72056768494724
 20
-1141.276103449954
 42
0.0037310511944692
 10
845.8445243767851
 20
-1140.776655855926
 10
845.84859959707865
 20
-1140.7596955846616
 42
0.0047652197775541
 10
845.95622349758264
 20
-1140.2922178163753
 10
845.95991409690396
 20
-1140.2754582612347
 42
0.0060276699296761
 10
846.05044419605974
 20
-1139.8393824660811
 10
846.05366288634661
 20
-1139.8228812517837
 42
0.0075824337751617
 10
846.1263521957643
 20
-1139.4176140873458
 10
846.12899757314426
 20
-1139.4014591398968
 42
0.0095130624606874
 10
846.18311280877583
 20
-1139.0263697868236
 10
846.19009903265749
 20
-1138.9704362287143
 42
0.0121054653225067
 10
846.21669036323624
 20
-1138.7055404002331
 10
846.21755685299524
 20
-1138.6941369573115
 42
0.0069050827386851
 10
846.23264567103342
 20
-1138.4511957304599
 10
846.23378097070236
 20
-1138.4276694734078
 42
0.0169063976703352
 10
846.23660824968238
 20
-1138.2314767461144
 10
846.23543759815095
 20
-1138.1711409847599
 42
0.0052007732902987
 10
846.23318414955804
 20
-1138.095547594613
 42
0.0054038123300064
 10
846.21322063771856
 20
-1137.9755292985997
 10
846.20813478184868
 20
-1137.9468708120219
 42
0.011205046047192
 10
846.17275041978917
 20
-1137.7705443736781
 10
846.15492545774964
 20
-1137.6910027869621
 42
0.024076446800577
 10
846.0640280916034
 20
-1137.360765751461
 10
846.04546932878998
 20
-1137.304145586467
 42
0.0256812331831615
 10
845.9021064086005
 20
-1136.9324213802097
 10
845.89669698277919
 20
-1136.9202900452201
 42
0.026836050121661
 10
845.72726974192915
 20
-1136.589296911199
 10
845.72173333429419
 20
-1136.5797772408869
 42
0.0274670231729707
 10
845.52953235788073
 20
-1136.2874898659693
 10
845.52415105791795
 20
-1136.2802107184275
 42
0.0275035967099238
 10
845.31257817835626
 20
-1136.024694828124
 10
845.30750867738982
 20
-1136.0192157404936
 42
0.0269557673524032
 10
845.08010513395016
 20
-1135.7985734545314
 10
845.07536207616829
 20
-1135.7944435000713
 42
0.0259124802209554
 10
844.83580724473677
 20
-1135.606752972918
 10
844.83127639955455
 20
-1135.6035674705874
 42
0.024516215300273
 10
844.58336004646014
 20
-1135.4468344614775
 10
844.5788335001381
 20
-1135.4442742642777
 42
0.0229282588841317
 10
844.32641394330858
 20
-1135.3164060717777
 10
844.32163344947196
 20
-1135.3142537720157
 42
0.0212984135697658
 10
844.06859549701016
 20
-1135.2130548547734
 10
844.06329121204351
 20
-1135.2111912920143
 42
0.0197555462340942
 10
843.81351287431767
 20
-1135.1343758740486
 42
0.0183511896790282
 10
843.55858414885233
 20
-1135.0767929670826
 10
843.47221895213329
 20
-1135.0605901766983
 42
0.0338057877142316
 10
843.18671160287113
 20
-1135.0267817715576
 10
843.09570619783358
 20
-1135.0222021162963
 42
0.0091990524481919
 10
842.98985908919519
 20
-1135.0188262603742
 42
0.0028333980786642
 10
842.88394517320683
 20
-1135.0179981528577
 10
842.88302972015299
 20
-1135.0179961830336
 42
-0.002361982778847
 10
842.77528370500602
 20
-1135.0172553419545
 10
842.73887853487122
 20
-1135.0168330354918
 42
0.0008824598471931
 10
842.55832254504969
 20
-1135.0150572572538
 10
842.51446111261532
 20
-1135.0147032957279
 42
0.0038132665768474
 10
842.24617821671814
 20
-1135.0145843596615
 10
842.22964456194302
 20
-1135.014703125805
 42
0.0060665569334127
 10
841.92836407035247
 20
-1135.0205234252257
 10
841.91411373832636
 20
-1135.0209717331934
 42
0.0080356953336523
 10
841.5846550219926
 20
-1135.03663945526
 10
841.57258500689989
 20
-1135.0374080382007
 42
0.0098996399105384
 10
841.21982192224903
 20
-1135.0668932673989
 10
841.20977621287432
 20
-1135.0679335635971
 42
0.0117740981367893
 10
840.8386193545258
 20
-1135.1152258111269
 10
840.83039665804301
 20
-1135.1164709276977
 42
0.0137435215139421
 10
840.44580783855429
 20
-1135.1855679012604
 10
840.43915079943463
 20
-1135.1869537974931
 42
0.0158359869390993
 10
840.04615370562544
 20
-1135.2818458859756
 10
840.04074051876501
 20
-1135.2833358268442
 42
0.0180554124027946
 10
839.64442547415251
 20
-1135.407973843083
 10
839.63986868606912
 20
-1135.4095898793494
 42
0.0203657431283757
 10
839.24539116825645
 20
-1135.5678502208655
 10
839.24124762925044
 20
-1135.5697118423068
 42
0.0226819684652877
 10
838.85381157304971
 20
-1135.7653544209763
 10
838.84961178202866
 20
-1135.7677200128978
 42
0.0248634984606462
 10
838.47442984084933
 20
-1136.0043466588436
 10
838.42623491206223
 20
-1136.0382037006714
 42
0.0267044190887311
 10
838.15194221514696
 20
-1136.2536440765389
 42
0.0139303002200302
 10
837.89577504920669
 20
-1136.4908829174522
 10
837.89092166348723
 20
-1136.4956355803108
 42
0.0283460963448361
 10
837.64684906925822
 20
-1136.7633662407582
 10
837.60718056410349
 20
-1136.812167818229
 42
0.0070695364819079
 10
837.52974333824363
 20
-1136.9102346341945
 42
0.0070695364819079
  0
LWPOLYLINE
  5
5D
100
AcDbEntity
  8
0
370
              15
390
0
  6
Continuous
 62
               7
100
AcDbPolyline
 90
      226
 70
             128
 10
834.00092290099724
 20
-1152.6318234403784
 42
-0.0026277636629318
 10
834.00084501719721
 20
-1152.5650515146433
 10
834.00106237542923
 20
-1152.5118962971924
 42
-0.0088680296732414
 10
834.00483899172229
 20
-1152.338880514789
 10
834.00718535083479
 20
-1152.2796004893357
 42
-0.0077381705621487
 10
834.02323146159756
 20
-1151.9883399935413
 10
834.02409937277093
 20
-1151.9760517598525
 42
-0.0068872530532741
 10
834.05073145252027
 20
-1151.6608300077712
 10
834.05193567670517
 20
-1151.6485890287645
 42
-0.0062130021485711
 10
834.08952939353333
 20
-1151.3097193375238
 10
834.09103329706818
 20
-1151.2975454656096
 42
-0.0056726929665827
 10
834.13995515657177
 20
-1150.9353502434865
 10
834.14172860221481
 20
-1150.9232564432509
 42
-0.0052341884496757
 10
834.20233918847623
 20
-1150.5380631877247
 10
834.2043571772515
 20
-1150.5260582577405
 42
-0.0049768450166025
 10
834.27709585867774
 20
-1150.1182136903078
 10
834.30134487339956
 20
-1149.9896657073018
 42
-0.0089029805627581
 10
834.43842572519168
 20
-1149.3278902598913
 10
834.47117110051283
 20
-1149.1828588293561
 42
-0.0080318257099152
 10
834.7007197148547
 20
-1148.237149197498
 10
834.7127046413018
 20
-1148.1910185623124
 42
-0.0074265721318151
 10
834.99671618015543
 20
-1147.1609539839189
 10
835.01659572326685
 20
-1147.0928199233474
 42
-0.0069711922702305
 10
835.34390030177508
 20
-1146.0265521830142
 10
835.40385224888348
 20
-1145.8405308246347
 42
-0.0052070422894317
 10
835.63327747413996
 20
-1145.1532587476124
 10
835.65055866631576
 20
-1145.1032314669849
 42
-0.0009167004450512
 10
835.85365055360148
 20
-1144.5187756188411
 42
-0.0025162726943517
 10
836.06074818386708
 20
-1143.9357343546703
 10
836.09797279567135
 20
-1143.8325848087682
 42
-0.0028212681456943
 10
836.34614871463259
 20
-1143.1568541766023
 10
836.35597947738688
 20
-1143.130546731916
 42
-0.0031964916823086
 10
836.59227173504564
 20
-1142.5103419697984
 10
836.60190618904176
 20
-1142.4855319796627
 42
-0.0036281836454088
 10
836.82701215014583
 20
-1141.9180912987622
 10
836.83645056030491
 20
-1141.8947938672554
 42
-0.0041269166831067
 10
837.05106825696248
 20
-1141.377352971281
 10
837.08370121338089
 20
-1141.3004745249254
 42
-0.0047472213058742
 10
837.24074601893687
 20
-1140.9400530570365
 10
837.24764010014474
 20
-1140.9246324597054
 42
-0.0025651659998588
 10
837.39599813399525
 20
-1140.5973044039561
 42
-0.0057144634994975
 10
837.54974782776674
 20
-1140.2724947305933
 10
837.57777853317202
 20
-1140.2149863481909
 42
-0.006538806837368
 10
837.76124556090758
 20
-1139.8507538515344
 10
837.76970401668223
 20
-1139.8344942721722
 42
-0.007451084302325
 10
837.94588626256393
 20
-1139.507805991042
 10
837.95406593310258
 20
-1139.4931652137595
 42
-0.0084648979854328
 10
838.12369978619495
 20
-1139.2012562028121
 10
838.13155591268151
 20
-1139.1882492111638
 42
-0.0095638542801864
 10
838.29539136027734
 20
-1138.9283603391827
 10
838.30286630395301
 20
-1138.9169909777213
 42
-0.0107191626803942
 10
838.46166788433663
 20
-1138.6863797431834
 10
838.46868461806753
 20
-1138.676643650819
 42
-0.0118458573903084
 10
838.62323271658022
 20
-1138.4725714555079
 42
-0.0129184518183653
 10
838.78768534018673
 20
-1138.2764109393318
 10
838.81783011254254
 20
-1138.2422848604403
 42
-0.0217742579636849
 10
838.99444243488028
 20
-1138.059078090188
 10
839.00518797933842
 20
-1138.0488612569873
 42
-0.009726656865047
 10
839.17124559819626
 20
-1137.8970136825476
 42
-0.0187720905717186
 10
839.34559317408684
 20
-1137.7549448291577
 10
839.37629916476271
 20
-1137.7317857467601
 42
-0.017942820751454
 10
839.60871988475617
 20
-1137.5692335696506
 10
839.61237221167323
 20
-1137.566869634762
 42
-0.0170047877695911
 10
839.84813584920232
 20
-1137.4254091206112
 10
839.85191883794801
 20
-1137.4233108155754
 42
-0.0160190788363082
 10
840.08882738558418
 20
-1137.3016595135869
 42
-0.0151102861489097
 10
840.33285916802993
 20
-1137.1949767375327
 10
840.38524567024263
 20
-1137.1739366046377
 42
-0.027194544188687
 10
840.74390822930002
 20
-1137.0520717939319
 10
840.8129730297909
 20
-1137.0327222526648
 42
-0.0237596594021526
 10
841.22876987681138
 20
-1136.9372715406839
 10
841.29683273054047
 20
-1136.9250168525573
 42
-0.0213715440554885
 10
841.58270766198711
 20
-1136.8860698210472
 10
841.64285482820912
 20
-1136.8804801063459
 42
-0.0101465655819874
 10
841.81034736019933
 20
-1136.8683365630823
 10
841.81968774639654
 20
-1136.867849648085
 42
-0.010037591088157
 10
841.96884184696012
 20
-1136.8630738301597
 10
841.9791011166476
 20
-1136.8629513911451
 42
-0.0103625633371969
 10
842.10780911129541
 20
-1136.8640828246719
 10
842.13007476255962
 20
-1136.8647401831367
 42
-0.011568925024818
 10
842.21412550009018
 20
-1136.869169689382
 42
-0.0072438037426269
 10
842.29796377954096
 20
-1136.8767588891324
 10
842.31476428900214
 20
-1136.8785254318555
 42
-0.0217917313135555
 10
842.43133405231436
 20
-1136.8959453245761
 10
842.49693414288492
 20
-1136.9086919329914
 42
-0.0332943556752508
 10
842.7013263079109
 20
-1136.9627322242982
 10
842.73149887646127
 20
-1136.9729003014168
 42
-0.0184824084808916
 10
842.87000393292624
 20
-1137.0253513168032
 42
-0.0198002050701655
 10
843.00407827342633
 20
-1137.0882353770028
 10
843.0059649108025
 20
-1137.0892131638823
 42
-0.021224234297335
 10
843.13810385320267
 20
-1137.1649759026739
 10
843.13991914874805
 20
-1137.1661217048836
 42
-0.0226090605782903
 10
843.26842304996921
 20
-1137.2556013484477
 10
843.27026749170705
 20
-1137.2570136014356
 42
-0.0238457052235241
 10
843.39344957300034
 20
-1137.3610094972983
 10
843.3954023015591
 20
-1137.3628243750641
 42
-0.0248160564145076
 10
843.51160380885983
 20
-1137.4820989762729
 10
843.51370744226188
 20
-1137.4844843099772
 42
-0.0254109591449413
 10
843.62131266012727
 20
-1137.6197726959408
 10
843.6235606820419
 20
-1137.6229142443422
 42
-0.0255528488290537
 10
843.72100736083848
 20
-1137.7749412985761
 10
843.72333846075503
 20
-1137.7790229101843
 42
-0.0252146793223902
 10
843.80911948676464
 20
-1137.9485251561819
 10
843.81142172592183
 20
-1137.953707238094
 42
-0.0244265635959011
 10
843.88407641968342
 20
-1138.141453810141
 10
843.89332282115163
 20
-1138.1693192284781
 42
-0.0231319612891714
 10
843.93924560014375
 20
-1138.3326202752801
 42
-0.0112130424355893
 10
843.97388162268214
 20
-1138.4988238754695
 10
843.9750841477944
 20
-1138.5053204623559
 42
-0.0210527881234213
 10
844.00077062316541
 20
-1138.6863761077975
 10
844.00428121798723
 20
-1138.7217816563445
 42
-0.0190029892424648
 10
844.0197226915318
 20
-1138.9753175026176
 10
844.02053266797577
 20
-1139.010793116986
 42
-0.0137974553665504
 10
844.01898381514059
 20
-1139.3358245237087
 10
844.01813836018459
 20
-1139.3619432683149
 42
-0.0081336634216105
 10
844.00327902496213
 20
-1139.6672907359114
 42
-0.0073526923572385
 10
843.97897049158757
 20
-1139.9720389801955
 10
843.97770906780477
 20
-1139.9853756548625
 42
-0.0066886138692711
 10
843.94197348175828
 20
-1140.3159616983596
 10
843.94031639228842
 20
-1140.3295833173511
 42
-0.006135918735192
 10
843.89246579023688
 20
-1140.6863472974558
 10
843.89042828916467
 20
-1140.7002421002803
 42
-0.0056698610067745
 10
843.82977795839918
 20
-1141.0835206691088
 10
843.82737252507445
 20
-1141.0976797883491
 42
-0.0052721077275273
 10
843.75324032427318
 20
-1141.5078071280359
 10
843.75047717543316
 20
-1141.522223763413
 42
-0.004928927217601
 10
843.66218305733082
 20
-1141.9595322745467
 10
843.65907056265064
 20
-1141.9742011273513
 42
-0.0047415956709127
 10
843.55583257112107
 20
-1142.4389978847498
 10
843.52106436075849
 20
-1142.5888049801451
 42
-0.0084404470904095
 10
843.33104791718665
 20
-1143.3490290046759
 10
843.32492122920098
 20
-1143.3718931288297
 42
-0.003963594025808
 10
843.1034675449115
 20
-1144.1728819930963
 10
843.09009074973744
 20
-1144.219813609669
 42
-0.0072475040835939
 10
842.82264386187171
 20
-1145.1090333260672
 10
842.75243153504516
 20
-1145.3307736760371
 42
-0.0051345458826126
 10
842.46567216298808
 20
-1146.2050988638423
 10
842.44414589622284
 20
-1146.2685251309656
 42
-0.001915001660283
 10
842.18861248935389
 20
-1147.0120742511983
 10
842.18214488497517
 20
-1147.0306617160693
 42
-0.0021524362753945
 10
841.93366683389377
 20
-1147.7349875378277
 10
841.92445641319784
 20
-1147.7607411161275
 42
-0.0024331286821383
 10
841.68820115416133
 20
-1148.4113404242476
 10
841.67915320162012
 20
-1148.4358837305765
 42
-0.0027449721789031
 10
841.45453863077546
 20
-1149.0350136095262
 10
841.44564862338416
 20
-1149.0583361993761
 42
-0.0031083229769382
 10
841.23210613677327
 20
-1149.6082602369581
 10
841.22337000508924
 20
-1149.6303499528374
 42
-0.0035311343277609
 10
841.02032881950595
 20
-1150.133333078546
 10
841.01174348036625
 20
-1150.1541758020369
 42
-0.0040245640953015
 10
840.81863167656377
 20
-1150.6124851246486
 10
840.81019556296269
 20
-1150.6320644927159
 42
-0.0046015135853634
 10
840.62643926979695
 20
-1151.047969522363
 10
840.61815309196606
 20
-1151.0662666618209
 42
-0.0052768638269592
 10
840.44317557301315
 20
-1151.4420395460854
 10
840.43504336238755
 20
-1151.4590328846259
 42
-0.0060672675645085
 10
840.26826374962025
 20
-1151.7969485077429
 10
840.26029426913885
 20
-1151.8126137667398
 42
-0.0069904648868099
 10
840.10112587513709
 20
-1152.1149495734039
 10
840.0933344755224
 20
-1152.1292601226382
 42
-0.008063702276329
 10
839.94118261518042
 20
-1152.3982954257842
 10
839.93359358254258
 20
-1152.4112232913963
 42
-0.0093006455659319
 10
839.78785290601775
 20
-1152.6492376898882
 10
839.78050223927016
 20
-1152.6607556590675
 42
-0.01070607780469
 10
839.64055369583571
 20
-1152.8700259764403
 10
839.63349192755504
 20
-1152.8801115190076
 42
-0.0122723111414277
 10
839.49869820935783
 20
-1153.0629048484952
 10
839.49837198580724
 20
-1153.0633252363004
 42
-0.014183631962756
 10
839.35479038282983
 20
-1153.2378949941344
 10
839.34784262717812
 20
-1153.2458699943988
 42
-0.0175957477206542
 10
839.20793645914318
 20
-1153.3954908828039
 42
-0.0080466359673756
 10
839.06047269410408
 20
-1153.5378134109633
 10
839.01443814959543
 20
-1153.5808338490463
 42
-0.0269600260395541
 10
838.76115790361564
 20
-1153.7931571075533
 10
838.69459076731732
 20
-1153.843108522178
 42
-0.0178362839755862
 10
838.45464627765966
 20
-1154.0101264484317
 10
838.44740130665775
 20
-1154.0147949606376
 42
-0.0174650732649031
 10
838.211065109218
 20
-1154.1556559255957
 42
-0.0169240130164563
 10
837.9655988633582
 20
-1154.2799481853742
 10
837.91961270780234
 20
-1154.3013101409404
 42
-0.0318883036842069
 10
837.56926185218401
 20
-1154.4376484504501
 10
837.50089631701405
 20
-1154.4593490709271
 42
-0.0284435909896925
 10
837.12484619072666
 20
-1154.5555665064007
 10
837.08968803022674
 20
-1154.5624601022294
 42
-0.0243909341012737
 10
836.77624456930914
 20
-1154.6081811332592
 10
836.72596384253734
 20
-1154.6130266801608
 42
-0.0196639292932421
 10
836.51036826501081
 20
-1154.6252749656744
 10
836.45854419384273
 20
-1154.6261782264112
 42
-0.010050151068157
 10
836.3461209121831
 20
-1154.625877828058
 10
836.31446105078783
 20
-1154.6251567561715
 42
-0.0019752031123793
 10
836.2653687141576
 20
-1154.623844595963
 10
836.26260841093722
 20
-1154.6237599041367
 42
0.0065378751977593
 10
836.21903183618065
 20
-1154.6229930129218
 42
-0.0167974694622669
 10
836.17550101324571
 20
-1154.6213331143956
 10
836.17142167398674
 20
-1154.6210401035009
 42
-0.008128327628323
 10
836.11986187625621
 20
-1154.6164931098638
 10
836.10812230236979
 20
-1154.6152651922846
 42
-0.0126703440164802
 10
836.03340400657532
 20
-1154.6055304012132
 10
836.01061613889942
 20
-1154.6019721452979
 42
-0.0117852088435092
 10
835.89107715306613
 20
-1154.5804091501404
 10
835.83569670130407
 20
-1154.5690656099061
 42
-0.0251774592294551
 10
835.60885266229479
 20
-1154.5105676004725
 10
835.5641334724462
 20
-1154.4966007811381
 42
-0.0146525199894657
 10
835.37774048490667
 20
-1154.4323342539396
 42
-0.0166929435859382
 10
835.19576282878086
 20
-1154.3565271208856
 10
835.19110619750677
 20
-1154.3544022202711
 42
-0.0191684358437203
 10
835.00592256625907
 20
-1154.261166136482
 10
835.00258998050072
 20
-1154.2593248889279
 42
-0.0221181781809976
 10
834.81927967659851
 20
-1154.1471913905571
 10
834.81692987258998
 20
-1154.145607092566
 42
-0.0254984685377249
 10
834.64063972220401
 20
-1154.013195942596
 10
834.61815757450245
 20
-1153.99444363366
 42
-0.0292492648805838
 10
834.4933886356597
 20
-1153.8773508340171
 42
-0.015904895750325
 10
834.37954863820994
 20
-1153.7493308424182
 10
834.37822984763034
 20
-1153.7477492293979
 42
-0.0343813379569699
 10
834.27559258600445
 20
-1153.6058779036291
 10
834.24410105464301
 20
-1153.555374511534
 42
-0.0369117275701167
 10
834.15820855274592
 20
-1153.391897270586
 42
-0.0191751379904921
 10
834.09101516718908
 20
-1153.2194926645807
 10
834.08925184342934
 20
-1153.2143993199052
 42
-0.0378178042229563
 10
834.03945712464554
 20
-1153.0254585438252
 10
834.03346182891414
 20
-1152.9928979256224
 42
-0.0184846046472239
 10
834.01274462962056
 20
-1152.851145105082
 42
-0.0179866351308426
 10
834.00241162454665
 20
-1152.7082542919975
 10
834.00235518210104
 20
-1152.7066966053883
 42
-0.0085497186139429
 10
834.00092290099724
 20
-1152.6318234403784
 42
-0.0085497186139429
  0
ENDBLK
  5
5E
100
AcDbEntity
  8
template
390
0
100
AcDbBlockEnd
  0
BLOCK
  5
5F
100
AcDbEntity
  8
notes
390
0
100
AcDbBlockBegin
  2
*D3
 70
               1
 10
0.0
 20
0.0
 30
0.0
  3
*D3
  1

  0
LINE
  5
60
100
AcDbEntity
  8
0
370
              -2
390
0
  6
Continuous
 62
               0
100
AcDbLine
 10
-386.19127166557996
 20
794.06108381250283
 30
0.0
 11
-319.56227466404482
 21
696.24547909066337
 31
0.0
  0
CIRCLE
  5
61
102
{ACAD_REACTORS
330
62
102
}
100
AcDbEntity
  8
0
370
              -2
390
0
  6
Continuous
 62
               0
100
AcDbCircle
 10
-386.19127166557996
 20
794.06108381250283
 30
0.0
 40
1.9998779296875
  0
HATCH
  5
62
100
AcDbEntity
  8
0
370
              -2
390
0
  6
Continuous
 62
               0
100
AcDbHatch
 10
0.0
 20
0.0
 30
0.0
210
0.0
220
0.0
230
1.0
  2
SOLID
 70
               1
 71
               1
 91
        1
 92
        1
 93
        1
 72
               2
 10
-386.19127166557996
 20
794.06108381250283
 40
1.9998779296875
 50
0.0
 51
360.0
 73
               0
 97
        1
330
61
 75
               0
 76
               1
 98
        1
 10
0.0
 20
0.0
  0
LINE
  5
63
100
AcDbEntity
  8
0
370
              -2
390
0
  6
Continuous
 62
               0
100
AcDbLine
 10
-319.56227466404482
 20
696.24547909066337
 30
0.0
 11
-196.06227466404482
 21
696.24547909066337
 31
0.0
  0
MTEXT
  5
64
100
AcDbEntity
  8
0
390
0
 62
               0
100
AcDbMText
 10
-259.56227466404482
 20
730.1230962781633
 30
0.0
 40
24.432617187500004
 41
0.0
 71
               1
 72
               1
  1
φ35
  7
ＭＳ ゴシック
 73
               1
 44
0.7828267384257843
  0
POINT
  5
65
100
AcDbEntity
  8
Defpoints
370
               0
390
0
 62
               0
100
AcDbPoint
 10
-405.89524723996584
 20
822.98777298641471
 30
0.0
  0
POINT
  5
66
100
AcDbEntity
  8
Defpoints
370
               0
390
0
 62
               0
100
AcDbPoint
 10
-386.19127166557996
 20
794.06108381250283
 30
0.0
  0
ENDBLK
  5
67
100
AcDbEntity
  8
notes
390
0
100
AcDbBlockEnd
  0
BLOCK
  5
68
100
AcDbEntity
  8
notes
390
0
100
AcDbBlockBegin
  2
*D4
 70
               1
 10
0.0
 20
0.0
 30
0.0
  3
*D4
  1

  0
LINE
  5
69
100
AcDbEntity
  8
0
370
              -2
390
0
  6
Continuous
 62
               0
100
AcDbLine
 10
-121.04325945277235
 20
903.52442839945866
 30
0.0
 11
-121.04325945277235
 21
1033.5244283994587
 31
0.0
  0
LINE
  5
6A
100
AcDbEntity
  8
0
370
              -2
390
0
  6
Continuous
 62
               0
100
AcDbLine
 10
-671.04325945277242
 20
903.52442839945866
 30
0.0
 11
-671.04325945277242
 21
1033.5244283994587
 31
0.0
  0
LINE
  5
6B
100
AcDbEntity
  8
0
370
              -2
390
0
  6
Continuous
 62
               0
100
AcDbLine
 10
-121.04325945277235
 20
1033.5244283994587
 30
0.0
 11
-671.04325945277242
 21
1033.5244283994587
 31
0.0
  0
CIRCLE
  5
6C
102
{ACAD_REACTORS
330
6D
102
}
100
AcDbEntity
  8
0
370
              -2
390
0
  6
Continuous
 62
               0
100
AcDbCircle
 10
-121.04325945277235
 20
1033.5244283994587
 30
0.0
 40
1.9998779296875
  0
HATCH
  5
6D
100
AcDbEntity
  8
0
370
              -2
390
0
  6
Continuous
 62
               0
100
AcDbHatch
 10
0.0
 20
0.0
 30
0.0
210
0.0
220
0.0
230
1.0
  2
SOLID
 70
               1
 71
               1
 91
        1
 92
        1
 93
        1
 72
               2
 10
-121.04325945277235
 20
1033.5244283994587
 40
1.9998779296875
 50
0.0
 51
360.0
 73
               0
 97
        1
330
6C
 75
               0
 76
               1
 98
        1
 10
0.0
 20
0.0
  0
CIRCLE
  5
6E
102
{ACAD_REACTORS
330
6F
102
}
100
AcDbEntity
  8
0
370
              -2
390
0
  6
Continuous
 62
               0
100
AcDbCircle
 10
-671.04325945277242
 20
1033.5244283994587
 30
0.0
 40
1.9998779296875
  0
HATCH
  5
6F
100
AcDbEntity
  8
0
370
              -2
390
0
  6
Continuous
 62
               0
100
AcDbHatch
 10
0.0
 20
0.0
 30
0.0
210
0.0
220
0.0
230
1.0
  2
SOLID
 70
               1
 71
               1
 91
        1
 92
        1
 93
        1
 72
               2
 10
-671.04325945277242
 20
1033.5244283994587
 40
1.9998779296875
 50
0.0
 51
360.0
 73
               0
 97
        1
330
6E
 75
               0
 76
               1
 98
        1
 10
0.0
 20
0.0
  0
MTEXT
  5
70
100
AcDbEntity
  8
0
390
0
 62
               0
100
AcDbMText
 10
-419.85576113494795
 20
1067.4020455869586
 30
0.0
 40
24.432617187500004
 41
0.0
 71
               1
 72
               1
  1
550
  7
ＭＳ ゴシック
 73
               1
 44
0.7828267384257843
  0
POINT
  5
71
100
AcDbEntity
  8
Defpoints
370
               0
390
0
 62
               0
100
AcDbPoint
 10
-671.04325945277242
 20
878.52442839945866
 30
0.0
  0
POINT
  5
72
100
AcDbEntity
  8
Defpoints
370
               0
390
0
 62
               0
100
AcDbPoint
 10
-121.04325945277235
 20
878.52442839945866
 30
0.0
  0
POINT
  5
73
100
AcDbEntity
  8
Defpoints
370
               0
390
0
 62
               0
100
AcDbPoint
 10
-121.04325945277235
 20
1033.5244283994587
 30
0.0
  0
ENDBLK
  5
74
100
AcDbEntity
  8
notes
390
0
100
AcDbBlockEnd
  0
BLOCK
  5
75
100
AcDbEntity
  8
notes
390
0
100
AcDbBlockBegin
  2
*D5
 70
               1
 10
0.0
 20
0.0
 30
0.0
  3
*D5
  1

  0
LINE
  5
76
100
AcDbEntity
  8
0
370
              -2
390
0
  6
Continuous
 62
               0
100
AcDbLine
 10
-396.04325945277287
 20
846.76475681475085
 30
0.0
 11
-396.04325945277287
 21
983.52442839945866
 31
0.0
  0
LINE
  5
77
100
AcDbEntity
  8
0
370
              -2
390
0
  6
Continuous
 62
               0
100
AcDbLine
 10
-296.04325945277287
 20
846.76475681475085
 30
0.0
 11
-296.04325945277287
 21
983.52442839945866
 31
0.0
  0
LINE
  5
78
100
AcDbEntity
  8
0
370
              -2
390
0
  6
Continuous
 62
               0
100
AcDbLine
 10
-396.04325945277287
 20
983.52442839945866
 30
0.0
 11
-296.04325945277287
 21
983.52442839945866
 31
0.0
  0
CIRCLE
  5
79
102
{ACAD_REACTORS
330
7A
102
}
100
AcDbEntity
  8
0
370
              -2
390
0
  6
Continuous
 62
               0
100
AcDbCircle
 10
-396.04325945277287
 20
983.52442839945866
 30
0.0
 40
1.9998779296875
  0
HATCH
  5
7A
100
AcDbEntity
  8
0
370
              -2
390
0
  6
Continuous
 62
               0
100
AcDbHatch
 10
0.0
 20
0.0
 30
0.0
210
0.0
220
0.0
230
1.0
  2
SOLID
 70
               1
 71
               1
 91
        1
 92
        1
 93
        1
 72
               2
 10
-396.04325945277287
 20
983.52442839945866
 40
1.9998779296875
 50
0.0
 51
360.0
 73
               0
 97
        1
330
79
 75
               0
 76
               1
 98
        1
 10
0.0
 20
0.0
  0
CIRCLE
  5
7B
102
{ACAD_REACTORS
330
7C
102
}
100
AcDbEntity
  8
0
370
              -2
390
0
  6
Continuous
 62
               0
100
AcDbCircle
 10
-296.04325945277287
 20
983.52442839945866
 30
0.0
 40
1.9998779296875
  0
HATCH
  5
7C
100
AcDbEntity
  8
0
370
              -2
390
0
  6
Continuous
 62
               0
100
AcDbHatch
 10
0.0
 20
0.0
 30
0.0
210
0.0
220
0.0
230
1.0
  2
SOLID
 70
               1
 71
               1
 91
        1
 92
        1
 93
        1
 72
               2
 10
-296.04325945277287
 20
983.52442839945866
 40
1.9998779296875
 50
0.0
 51
360.0
 73
               0
 97
        1
330
7B
 75
               0
 76
               1
 98
        1
 10
0.0
 20
0.0
  0
MTEXT
  5
7D
100
AcDbEntity
  8
0
390
0
 62
               0
100
AcDbMText
 10
-369.85576113494841
 20
1017.4020455869586
 30
0.0
 40
24.432617187500004
 41
0.0
 71
               1
 72
               1
  1
100
  7
ＭＳ ゴシック
 73
               1
 44
0.7828267384257843
  0
POINT
  5
7E
100
AcDbEntity
  8
Defpoints
370
               0
390
0
 62
               0
100
AcDbPoint
 10
-296.04325945277287
 20
821.76475681475085
 30
0.0
  0
POINT
  5
7F
100
AcDbEntity
  8
Defpoints
370
               0
390
0
 62
               0
100
AcDbPoint
 10
-396.04325945277287
 20
821.76475681475085
 30
0.0
  0
POINT
  5
80
100
AcDbEntity
  8
Defpoints
370
               0
390
0
 62
               0
100
AcDbPoint
 10
-396.04325945277287
 20
983.52442839945866
 30
0.0
  0
ENDBLK
  5
81
100
AcDbEntity
  8
notes
390
0
100
AcDbBlockEnd
  0
BLOCK
  5
82
100
AcDbEntity
  8
notes
390
0
100
AcDbBlockBegin
  2
*D6
 70
               1
 10
0.0
 20
0.0
 30
0.0
  3
*D6
  1

  0
LINE
  5
83
100
AcDbEntity
  8
0
370
              -2
390
0
  6
Continuous
 62
               0
100
AcDbLine
 10
-396.04325945277287
 20
846.76475681475085
 30
0.0
 11
-396.04325945277287
 21
983.52442839945866
 31
0.0
  0
LINE
  5
84
100
AcDbEntity
  8
0
370
              -2
390
0
  6
Continuous
 62
               0
100
AcDbLine
 10
-496.0432594527723
 20
846.76475681475108
 30
0.0
 11
-496.0432594527723
 21
983.52442839945866
 31
0.0
  0
LINE
  5
85
100
AcDbEntity
  8
0
370
              -2
390
0
  6
Continuous
 62
               0
100
AcDbLine
 10
-396.04325945277287
 20
983.52442839945866
 30
0.0
 11
-496.0432594527723
 21
983.52442839945866
 31
0.0
  0
CIRCLE
  5
86
102
{ACAD_REACTORS
330
87
102
}
100
AcDbEntity
  8
0
370
              -2
390
0
  6
Continuous
 62
               0
100
AcDbCircle
 10
-396.04325945277287
 20
983.52442839945866
 30
0.0
 40
1.9998779296875
  0
HATCH
  5
87
100
AcDbEntity
  8
0
370
              -2
390
0
  6
Continuous
 62
               0
100
AcDbHatch
 10
0.0
 20
0.0
 30
0.0
210
0.0
220
0.0
230
1.0
  2
SOLID
 70
               1
 71
               1
 91
        1
 92
        1
 93
        1
 72
               2
 10
-396.04325945277287
 20
983.52442839945866
 40
1.9998779296875
 50
0.0
 51
360.0
 73
               0
 97
        1
330
86
 75
               0
 76
               1
 98
        1
 10
0.0
 20
0.0
  0
CIRCLE
  5
88
102
{ACAD_REACTORS
330
89
102
}
100
AcDbEntity
  8
0
370
              -2
390
0
  6
Continuous
 62
               0
100
AcDbCircle
 10
-496.0432594527723
 20
983.52442839945866
 30
0.0
 40
1.9998779296875
  0
HATCH
  5
89
100
AcDbEntity
  8
0
370
              -2
390
0
  6
Continuous
 62
               0
100
AcDbHatch
 10
0.0
 20
0.0
 30
0.0
210
0.0
220
0.0
230
1.0
  2
SOLID
 70
               1
 71
               1
 91
        1
 92
        1
 93
        1
 72
               2
 10
-496.0432594527723
 20
983.52442839945866
 40
1.9998779296875
 50
0.0
 51
360.0
 73
               0
 97
        1
330
88
 75
               0
 76
               1
 98
        1
 10
0.0
 20
0.0
  0
MTEXT
  5
8A
100
AcDbEntity
  8
0
390
0
 62
               0
100
AcDbMText
 10
-469.85576113494801
 20
1017.4020455869586
 30
0.0
 40
24.432617187500004
 41
0.0
 71
               1
 72
               1
  1
100
  7
ＭＳ ゴシック
 73
               1
 44
0.7828267384257843
  0
POINT
  5
8B
100
AcDbEntity
  8
Defpoints
370
               0
390
0
 62
               0
100
AcDbPoint
 10
-496.0432594527723
 20
821.76475681475108
 30
0.0
  0
POINT
  5
8C
100
AcDbEntity
  8
Defpoints
370
               0
390
0
 62
               0
100
AcDbPoint
 10
-396.04325945277287
 20
821.76475681475085
 30
0.0
  0
POINT
  5
8D
100
AcDbEntity
  8
Defpoints
370
               0
390
0
 62
               0
100
AcDbPoint
 10
-396.04325945277287
 20
983.52442839945866
 30
0.0
  0
ENDBLK
  5
8E
100
AcDbEntity
  8
notes
390
0
100
AcDbBlockEnd
  0
BLOCK
  5
8F
100
AcDbEntity
  8
notes
390
0
100
AcDbBlockBegin
  2
*D7
 70
               1
 10
0.0
 20
0.0
 30
0.0
  3
*D7
  1

  0
LINE
  5
90
100
AcDbEntity
  8
0
370
              -2
390
0
  6
Continuous
 62
               0
100
AcDbLine
 10
-636.04325945277242
 20
435.73915096541685
 30
0.0
 11
-636.04325945277242
 21
353.52442839945917
 31
0.0
  0
LINE
  5
91
100
AcDbEntity
  8
0
370
              -2
390
0
  6
Continuous
 62
               0
100
AcDbLine
 10
-156.0432594527727
 20
435.01020760027114
 30
0.0
 11
-156.0432594527727
 21
353.52442839945917
 31
0.0
  0
LINE
  5
92
100
AcDbEntity
  8
0
370
              -2
390
0
  6
Continuous
 62
               0
100
AcDbLine
 10
-636.04325945277242
 20
353.52442839945917
 30
0.0
 11
-156.0432594527727
 21
353.52442839945917
 31
0.0
  0
CIRCLE
  5
93
102
{ACAD_REACTORS
330
94
102
}
100
AcDbEntity
  8
0
370
              -2
390
0
  6
Continuous
 62
               0
100
AcDbCircle
 10
-636.04325945277242
 20
353.52442839945917
 30
0.0
 40
1.9998779296875
  0
HATCH
  5
94
100
AcDbEntity
  8
0
370
              -2
390
0
  6
Continuous
 62
               0
100
AcDbHatch
 10
0.0
 20
0.0
 30
0.0
210
0.0
220
0.0
230
1.0
  2
SOLID
 70
               1
 71
               1
 91
        1
 92
        1
 93
        1
 72
               2
 10
-636.04325945277242
 20
353.52442839945917
 40
1.9998779296875
 50
0.0
 51
360.0
 73
               0
 97
        1
330
93
 75
               0
 76
               1
 98
        1
 10
0.0
 20
0.0
  0
CIRCLE
  5
95
102
{ACAD_REACTORS
330
96
102
}
100
AcDbEntity
  8
0
370
              -2
390
0
  6
Continuous
 62
               0
100
AcDbCircle
 10
-156.0432594527727
 20
353.52442839945917
 30
0.0
 40
1.9998779296875
  0
HATCH
  5
96
100
AcDbEntity
  8
0
370
              -2
390
0
  6
Continuous
 62
               0
100
AcDbHatch
 10
0.0
 20
0.0
 30
0.0
210
0.0
220
0.0
230
1.0
  2
SOLID
 70
               1
 71
               1
 91
        1
 92
        1
 93
        1
 72
               2
 10
-156.0432594527727
 20
353.52442839945917
 40
1.9998779296875
 50
0.0
 51
360.0
 73
               0
 97
        1
330
95
 75
               0
 76
               1
 98
        1
 10
0.0
 20
0.0
  0
MTEXT
  5
97
100
AcDbEntity
  8
0
390
0
 62
               0
100
AcDbMText
 10
-419.85576113494807
 20
387.40204558695922
 30
0.0
 40
24.432617187500004
 41
0.0
 71
               1
 72
               1
  1
480
  7
ＭＳ ゴシック
 73
               1
 44
0.7828267384257843
  0
POINT
  5
98
100
AcDbEntity
  8
Defpoints
370
               0
390
0
 62
               0
100
AcDbPoint
 10
-156.0432594527727
 20
460.01020760027114
 30
0.0
  0
POINT
  5
99
100
AcDbEntity
  8
Defpoints
370
               0
390
0
 62
               0
100
AcDbPoint
 10
-636.04325945277242
 20
460.73915096541685
 30
0.0
  0
POINT
  5
9A
100
AcDbEntity
  8
Defpoints
370
               0
390
0
 62
               0
100
AcDbPoint
 10
-636.04325945277242
 20
353.52442839945917
 30
0.0
  0
ENDBLK
  5
9B
100
AcDbEntity
  8
notes
390
0
100
AcDbBlockEnd
  0
BLOCK
  5
9C
100
AcDbEntity
  8
notes
390
0
100
AcDbBlockBegin
  2
*D8
 70
               1
 10
0.0
 20
0.0
 30
0.0
  3
*D8
  1

  0
LINE
  5
9D
100
AcDbEntity
  8
0
370
              -2
390
0
  6
Continuous
 62
               0
100
AcDbLine
 10
-256.04325945277287
 20
-386.8977694840936
 30
0.0
 11
-256.04325945277287
 21
-232.39776948409366
 31
0.0
  0
LINE
  5
9E
100
AcDbEntity
  8
0
370
              -2
390
0
  6
Continuous
 62
               0
100
AcDbLine
 10
-536.0432594527723
 20
-386.8977694840936
 30
0.0
 11
-536.0432594527723
 21
-232.39776948409366
 31
0.0
  0
LINE
  5
9F
100
AcDbEntity
  8
0
370
              -2
390
0
  6
Continuous
 62
               0
100
AcDbLine
 10
-256.04325945277287
 20
-232.39776948409366
 30
0.0
 11
-536.0432594527723
 21
-232.39776948409366
 31
0.0
  0
CIRCLE
  5
A0
102
{ACAD_REACTORS
330
A1
102
}
100
AcDbEntity
  8
0
370
              -2
390
0
  6
Continuous
 62
               0
100
AcDbCircle
 10
-256.04325945277287
 20
-232.39776948409366
 30
0.0
 40
1.9998779296875
  0
HATCH
  5
A1
100
AcDbEntity
  8
0
370
              -2
390
0
  6
Continuous
 62
               0
100
AcDbHatch
 10
0.0
 20
0.0
 30
0.0
210
0.0
220
0.0
230
1.0
  2
SOLID
 70
               1
 71
               1
 91
        1
 92
        1
 93
        1
 72
               2
 10
-256.04325945277287
 20
-232.39776948409366
 40
1.9998779296875
 50
0.0
 51
360.0
 73
               0
 97
        1
330
A0
 75
               0
 76
               1
 98
        1
 10
0.0
 20
0.0
  0
CIRCLE
  5
A2
102
{ACAD_REACTORS
330
A3
102
}
100
AcDbEntity
  8
0
370
              -2
390
0
  6
Continuous
 62
               0
100
AcDbCircle
 10
-536.0432594527723
 20
-232.39776948409366
 30
0.0
 40
1.9998779296875
  0
HATCH
  5
A3
100
AcDbEntity
  8
0
370
              -2
390
0
  6
Continuous
 62
               0
100
AcDbHatch
 10
0.0
 20
0.0
 30
0.0
210
0.0
220
0.0
230
1.0
  2
SOLID
 70
               1
 71
               1
 91
        1
 92
        1
 93
        1
 72
               2
 10
-536.0432594527723
 20
-232.39776948409366
 40
1.9998779296875
 50
0.0
 51
360.0
 73
               0
 97
        1
330
A2
 75
               0
 76
               1
 98
        1
 10
0.0
 20
0.0
  0
MTEXT
  5
A4
100
AcDbEntity
  8
0
390
0
 62
               0
100
AcDbMText
 10
-419.85576113494812
 20
-198.52015229659366
 30
0.0
 40
24.432617187500004
 41
0.0
 71
               1
 72
               1
  1
280
  7
ＭＳ ゴシック
 73
               1
 44
0.7828267384257843
  0
POINT
  5
A5
100
AcDbEntity
  8
Defpoints
370
               0
390
0
 62
               0
100
AcDbPoint
 10
-536.0432594527723
 20
-411.8977694840936
 30
0.0
  0
POINT
  5
A6
100
AcDbEntity
  8
Defpoints
370
               0
390
0
 62
               0
100
AcDbPoint
 10
-256.04325945277287
 20
-411.8977694840936
 30
0.0
  0
POINT
  5
A7
100
AcDbEntity
  8
Defpoints
370
               0
390
0
 62
               0
100
AcDbPoint
 10
-256.04325945277287
 20
-232.39776948409366
 30
0.0
  0
ENDBLK
  5
A8
100
AcDbEntity
  8
notes
390
0
100
AcDbBlockEnd
  0
BLOCK
  5
A9
100
AcDbEntity
  8
notes
390
0
100
AcDbBlockBegin
  2
*D9
 70
               1
 10
0.0
 20
0.0
 30
0.0
  3
*D9
  1

  0
LINE
  5
AA
100
AcDbEntity
  8
0
370
              -2
390
0
  6
Continuous
 62
               0
100
AcDbLine
 10
838.95969118642597
 20
-307.39776948409366
 30
0.0
 11
838.95969118642597
 21
-232.39776948409366
 31
0.0
  0
LINE
  5
AB
100
AcDbEntity
  8
0
370
              -2
390
0
  6
Continuous
 62
               0
100
AcDbLine
 10
763.95969118642597
 20
-351.39776948409366
 30
0.0
 11
763.95969118642597
 21
-232.39776948409366
 31
0.0
  0
LINE
  5
AC
100
AcDbEntity
  8
0
370
              -2
390
0
  6
Continuous
 62
               0
100
AcDbLine
 10
838.95969118642597
 20
-232.39776948409366
 30
0.0
 11
763.95969118642597
 21
-232.39776948409366
 31
0.0
  0
CIRCLE
  5
AD
102
{ACAD_REACTORS
330
AE
102
}
100
AcDbEntity
  8
0
370
              -2
390
0
  6
Continuous
 62
               0
100
AcDbCircle
 10
838.95969118642597
 20
-232.39776948409366
 30
0.0
 40
1.9998779296875
  0
HATCH
  5
AE
100
AcDbEntity
  8
0
370
              -2
390
0
  6
Continuous
 62
               0
100
AcDbHatch
 10
0.0
 20
0.0
 30
0.0
210
0.0
220
0.0
230
1.0
  2
SOLID
 70
               1
 71
               1
 91
        1
 92
        1
 93
        1
 72
               2
 10
838.95969118642597
 20
-232.39776948409366
 40
1.9998779296875
 50
0.0
 51
360.0
 73
               0
 97
        1
330
AD
 75
               0
 76
               1
 98
        1
 10
0.0
 20
0.0
  0
CIRCLE
  5
AF
102
{ACAD_REACTORS
330
B0
102
}
100
AcDbEntity
  8
0
370
              -2
390
0
  6
Continuous
 62
               0
100
AcDbCircle
 10
763.95969118642597
 20
-232.39776948409366
 30
0.0
 40
1.9998779296875
  0
HATCH
  5
B0
100
AcDbEntity
  8
0
370
              -2
390
0
  6
Continuous
 62
               0
100
AcDbHatch
 10
0.0
 20
0.0
 30
0.0
210
0.0
220
0.0
230
1.0
  2
SOLID
 70
               1
 71
               1
 91
        1
 92
        1
 93
        1
 72
               2
 10
763.95969118642597
 20
-232.39776948409366
 40
1.9998779296875
 50
0.0
 51
360.0
 73
               0
 97
        1
330
AF
 75
               0
 76
               1
 98
        1
 10
0.0
 20
0.0
  0
MTEXT
  5
B1
100
AcDbEntity
  8
0
390
0
 62
               0
100
AcDbMText
 10
791.87415252120968
 20
-198.52015229659366
 30
0.0
 40
24.432617187500004
 41
0.0
 71
               1
 72
               1
  1
75
  7
ＭＳ ゴシック
 73
               1
 44
0.7828267384257843
  0
POINT
  5
B2
100
AcDbEntity
  8
Defpoints
370
               0
390
0
 62
               0
100
AcDbPoint
 10
763.95969118642597
 20
-376.39776948409366
 30
0.0
  0
POINT
  5
B3
100
AcDbEntity
  8
Defpoints
370
               0
390
0
 62
               0
100
AcDbPoint
 10
838.95969118642597
 20
-332.39776948409366
 30
0.0
  0
POINT
  5
B4
100
AcDbEntity
  8
Defpoints
370
               0
390
0
 62
               0
100
AcDbPoint
 10
838.95969118642597
 20
-232.39776948409366
 30
0.0
  0
ENDBLK
  5
B5
100
AcDbEntity
  8
notes
390
0
100
AcDbBlockEnd
  0
BLOCK
  5
B6
100
AcDbEntity
  8
notes
390
0
100
AcDbBlockBegin
  2
*D10
 70
               1
 10
0.0
 20
0.0
 30
0.0
  3
*D10
  1

  0
LINE
  5
B7
100
AcDbEntity
  8
0
370
              -2
390
0
  6
Continuous
 62
               0
100
AcDbLine
 10
641.95974830440389
 20
-367.39776948409366
 30
0.0
 11
617.73325099630017
 21
-367.39776948409366
 31
0.0
  0
LINE
  5
B8
100
AcDbEntity
  8
0
370
              -2
390
0
  6
Continuous
 62
               0
100
AcDbLine
 10
641.95974830440389
 20
-512.39776948409394
 30
0.0
 11
617.73325099630017
 21
-512.39776948409394
 31
0.0
  0
LINE
  5
B9
100
AcDbEntity
  8
0
370
              -2
390
0
  6
Continuous
 62
               0
100
AcDbLine
 10
617.73325099630017
 20
-367.39776948409366
 30
0.0
 11
617.73325099630017
 21
-208.52276948409366
 31
0.0
  0
LINE
  5
BA
100
AcDbEntity
  8
0
370
              -2
390
0
  6
Continuous
 62
               0
100
AcDbLine
 10
617.73325099630017
 20
-367.39776948409366
 30
0.0
 11
617.73325099630017
 21
-512.39776948409394
 31
0.0
  0
CIRCLE
  5
BB
102
{ACAD_REACTORS
330
BC
102
}
100
AcDbEntity
  8
0
370
              -2
390
0
  6
Continuous
 62
               0
100
AcDbCircle
 10
617.73325099630017
 20
-367.39776948409366
 30
0.0
 40
1.9998779296875
  0
HATCH
  5
BC
100
AcDbEntity
  8
0
370
              -2
390
0
  6
Continuous
 62
               0
100
AcDbHatch
 10
0.0
 20
0.0
 30
0.0
210
0.0
220
0.0
230
1.0
  2
SOLID
 70
               1
 71
               1
 91
        1
 92
        1
 93
        1
 72
               2
 10
617.73325099630017
 20
-367.39776948409366
 40
1.9998779296875
 50
0.0
 51
360.0
 73
               0
 97
        1
330
BB
 75
               0
 76
               1
 98
        1
 10
0.0
 20
0.0
  0
CIRCLE
  5
BD
102
{ACAD_REACTORS
330
BE
102
}
100
AcDbEntity
  8
0
370
              -2
390
0
  6
Continuous
 62
               0
100
AcDbCircle
 10
617.73325099630017
 20
-512.39776948409394
 30
0.0
 40
1.9998779296875
  0
HATCH
  5
BE
100
AcDbEntity
  8
0
370
              -2
390
0
  6
Continuous
 62
               0
100
AcDbHatch
 10
0.0
 20
0.0
 30
0.0
210
0.0
220
0.0
230
1.0
  2
SOLID
 70
               1
 71
               1
 91
        1
 92
        1
 93
        1
 72
               2
 10
617.73325099630017
 20
-512.39776948409394
 40
1.9998779296875
 50
0.0
 51
360.0
 73
               0
 97
        1
330
BD
 75
               0
 76
               1
 98
        1
 10
0.0
 20
0.0
  0
MTEXT
  5
BF
100
AcDbEntity
  8
0
390
0
 62
               0
100
AcDbMText
 10
583.85563380880012
 20
-351.39776948409366
 30
0.0
 40
24.432617187500004
 41
0.0
 71
               1
 72
               1
  1
145(深さ)
  7
ＭＳ ゴシック
 11
0.0
 21
1.0
 31
0.0
 73
               1
 44
0.7828267384257843
  0
POINT
  5
C0
100
AcDbEntity
  8
Defpoints
370
               0
390
0
 62
               0
100
AcDbPoint
 10
616.95974830440389
 20
-512.39776948409394
 30
0.0
  0
POINT
  5
C1
100
AcDbEntity
  8
Defpoints
370
               0
390
0
 62
               0
100
AcDbPoint
 10
616.95974830440389
 20
-367.39776948409366
 30
0.0
  0
POINT
  5
C2
100
AcDbEntity
  8
Defpoints
370
               0
390
0
 62
               0
100
AcDbPoint
 10
617.73325099630017
 20
-367.39776948409366
 30
0.0
  0
ENDBLK
  5
C3
100
AcDbEntity
  8
notes
390
0
100
AcDbBlockEnd
  0
BLOCK
  5
C4
100
AcDbEntity
  8
notes
390
0
100
AcDbBlockBegin
  2
*D11
 70
               1
 10
0.0
 20
0.0
 30
0.0
  3
*D11
  1

  0
LINE
  5
C5
100
AcDbEntity
  8
0
370
              -2
390
0
  6
Continuous
 62
               0
100
AcDbLine
 10
-101.04325945277257
 20
883.52442839945888
 30
0.0
 11
-21.043259452772347
 21
883.52442839945888
 31
0.0
  0
LINE
  5
C6
100
AcDbEntity
  8
0
370
              -2
390
0
  6
Continuous
 62
               0
100
AcDbLine
 10
-237.56227466404482
 20
453.52442839945917
 30
0.0
 11
-21.043259452772347
 21
453.52442839945917
 31
0.0
  0
LINE
  5
C7
100
AcDbEntity
  8
0
370
              -2
390
0
  6
Continuous
 62
               0
100
AcDbLine
 10
-21.043259452772347
 20
883.52442839945888
 30
0.0
 11
-21.043259452772347
 21
453.52442839945917
 31
0.0
  0
CIRCLE
  5
C8
102
{ACAD_REACTORS
330
C9
102
}
100
AcDbEntity
  8
0
370
              -2
390
0
  6
Continuous
 62
               0
100
AcDbCircle
 10
-21.043259452772347
 20
883.52442839945888
 30
0.0
 40
1.9998779296875
  0
HATCH
  5
C9
100
AcDbEntity
  8
0
370
              -2
390
0
  6
Continuous
 62
               0
100
AcDbHatch
 10
0.0
 20
0.0
 30
0.0
210
0.0
220
0.0
230
1.0
  2
SOLID
 70
               1
 71
               1
 91
        1
 92
        1
 93
        1
 72
               2
 10
-21.043259452772347
 20
883.52442839945888
 40
1.9998779296875
 50
0.0
 51
360.0
 73
               0
 97
        1
330
C8
 75
               0
 76
               1
 98
        1
 10
0.0
 20
0.0
  0
CIRCLE
  5
CA
102
{ACAD_REACTORS
330
CB
102
}
100
AcDbEntity
  8
0
370
              -2
390
0
  6
Continuous
 62
               0
100
AcDbCircle
 10
-21.043259452772347
 20
453.52442839945917
 30
0.0
 40
1.9998779296875
  0
HATCH
  5
CB
100
AcDbEntity
  8
0
370
              -2
390
0
  6
Continuous
 62
               0
100
AcDbHatch
 10
0.0
 20
0.0
 30
0.0
210
0.0
220
0.0
230
1.0
  2
SOLID
 70
               1
 71
               1
 91
        1
 92
        1
 93
        1
 72
               2
 10
-21.043259452772347
 20
453.52442839945917
 40
1.9998779296875
 50
0.0
 51
360.0
 73
               0
 97
        1
330
CA
 75
               0
 76
               1
 98
        1
 10
0.0
 20
0.0
  0
MTEXT
  5
CC
100
AcDbEntity
  8
0
390
0
 62
               0
100
AcDbMText
 10
-54.920876640272354
 20
644.71192671728363
 30
0.0
 40
24.432617187500004
 41
0.0
 71
               1
 72
               1
  1
430
  7
ＭＳ ゴシック
 11
0.0
 21
1.0
 31
0.0
 73
               1
 44
0.7828267384257843
  0
POINT
  5
CD
100
AcDbEntity
  8
Defpoints
370
               0
390
0
 62
               0
100
AcDbPoint
 10
-262.56227466404482
 20
453.52442839945917
 30
0.0
  0
POINT
  5
CE
100
AcDbEntity
  8
Defpoints
370
               0
390
0
 62
               0
100
AcDbPoint
 10
-126.04325945277257
 20
883.52442839945888
 30
0.0
  0
POINT
  5
CF
100
AcDbEntity
  8
Defpoints
370
               0
390
0
 62
               0
100
AcDbPoint
 10
-21.043259452772347
 20
883.52442839945888
 30
0.0
  0
ENDBLK
  5
D0
100
AcDbEntity
  8
notes
390
0
100
AcDbBlockEnd
  0
BLOCK
  5
D1
100
AcDbEntity
  8
notes
390
0
100
AcDbBlockBegin
  2
*D12
 70
               1
 10
0.0
 20
0.0
 30
0.0
  3
*D12
  1

  0
LINE
  5
D2
100
AcDbEntity
  8
0
370
              -2
390
0
  6
Continuous
 62
               0
100
AcDbLine
 10
-103.04325945277257
 20
-332.39776948409366
 30
0.0
 11
-21.043259452772574
 21
-332.39776948409366
 31
0.0
  0
LINE
  5
D3
100
AcDbEntity
  8
0
370
              -2
390
0
  6
Continuous
 62
               0
100
AcDbLine
 10
-333.54325945277287
 20
-557.39776948409394
 30
0.0
 11
-21.043259452772574
 21
-557.39776948409394
 31
0.0
  0
LINE
  5
D4
100
AcDbEntity
  8
0
370
              -2
390
0
  6
Continuous
 62
               0
100
AcDbLine
 10
-21.043259452772574
 20
-332.39776948409366
 30
0.0
 11
-21.043259452772574
 21
-557.39776948409394
 31
0.0
  0
CIRCLE
  5
D5
102
{ACAD_REACTORS
330
D6
102
}
100
AcDbEntity
  8
0
370
              -2
390
0
  6
Continuous
 62
               0
100
AcDbCircle
 10
-21.043259452772574
 20
-332.39776948409366
 30
0.0
 40
1.9998779296875
  0
HATCH
  5
D6
100
AcDbEntity
  8
0
370
              -2
390
0
  6
Continuous
 62
               0
100
AcDbHatch
 10
0.0
 20
0.0
 30
0.0
210
0.0
220
0.0
230
1.0
  2
SOLID
 70
               1
 71
               1
 91
        1
 92
        1
 93
        1
 72
               2
 10
-21.043259452772574
 20
-332.39776948409366
 40
1.9998779296875
 50
0.0
 51
360.0
 73
               0
 97
        1
330
D5
 75
               0
 76
               1
 98
        1
 10
0.0
 20
0.0
  0
CIRCLE
  5
D7
102
{ACAD_REACTORS
330
D8
102
}
100
AcDbEntity
  8
0
370
              -2
390
0
  6
Continuous
 62
               0
100
AcDbCircle
 10
-21.043259452772574
 20
-557.39776948409394
 30
0.0
 40
1.9998779296875
  0
HATCH
  5
D8
100
AcDbEntity
  8
0
370
              -2
390
0
  6
Continuous
 62
               0
100
AcDbHatch
 10
0.0
 20
0.0
 30
0.0
210
0.0
220
0.0
230
1.0
  2
SOLID
 70
               1
 71
               1
 91
        1
 92
        1
 93
        1
 72
               2
 10
-21.043259452772574
 20
-557.39776948409394
 40
1.9998779296875
 50
0.0
 51
360.0
 73
               0
 97
        1
330
D7
 75
               0
 76
               1
 98
        1
 10
0.0
 20
0.0
  0
MTEXT
  5
D9
100
AcDbEntity
  8
0
390
0
 62
               0
100
AcDbMText
 10
-54.920876640272581
 20
-468.71027116626931
 30
0.0
 40
24.432617187500004
 41
0.0
 71
               1
 72
               1
  1
225
  7
ＭＳ ゴシック
 11
0.0
 21
1.0
 31
0.0
 73
               1
 44
0.7828267384257843
  0
POINT
  5
DA
100
AcDbEntity
  8
Defpoints
370
               0
390
0
 62
               0
100
AcDbPoint
 10
-358.54325945277287
 20
-557.39776948409394
 30
0.0
  0
POINT
  5
DB
100
AcDbEntity
  8
Defpoints
370
               0
390
0
 62
               0
100
AcDbPoint
 10
-128.04325945277259
 20
-332.39776948409366
 30
0.0
  0
POINT
  5
DC
100
AcDbEntity
  8
Defpoints
370
               0
390
0
 62
               0
100
AcDbPoint
 10
-21.043259452772574
 20
-332.39776948409366
 30
0.0
  0
ENDBLK
  5
DD
100
AcDbEntity
  8
notes
390
0
100
AcDbBlockEnd
  0
BLOCK
  5
DE
100
AcDbEntity
  8
notes
390
0
100
AcDbBlockBegin
  2
*D13
 70
               1
 10
0.0
 20
0.0
 30
0.0
  3
*D13
  1

  0
LINE
  5
DF
100
AcDbEntity
  8
0
370
              -2
390
0
  6
Continuous
 62
               0
100
AcDbLine
 10
390.95969118642643
 20
-367.39776948409366
 30
0.0
 11
308.95969118642643
 21
-367.39776948409366
 31
0.0
  0
LINE
  5
E0
100
AcDbEntity
  8
0
370
              -2
390
0
  6
Continuous
 62
               0
100
AcDbLine
 10
550.02627372316704
 20
-527.39776948409394
 30
0.0
 11
308.95969118642643
 21
-527.39776948409394
 31
0.0
  0
LINE
  5
E1
100
AcDbEntity
  8
0
370
              -2
390
0
  6
Continuous
 62
               0
100
AcDbLine
 10
308.95969118642643
 20
-367.39776948409366
 30
0.0
 11
308.95969118642643
 21
-527.39776948409394
 31
0.0
  0
CIRCLE
  5
E2
102
{ACAD_REACTORS
330
E3
102
}
100
AcDbEntity
  8
0
370
              -2
390
0
  6
Continuous
 62
               0
100
AcDbCircle
 10
308.95969118642643
 20
-367.39776948409366
 30
0.0
 40
1.9998779296875
  0
HATCH
  5
E3
100
AcDbEntity
  8
0
370
              -2
390
0
  6
Continuous
 62
               0
100
AcDbHatch
 10
0.0
 20
0.0
 30
0.0
210
0.0
220
0.0
230
1.0
  2
SOLID
 70
               1
 71
               1
 91
        1
 92
        1
 93
        1
 72
               2
 10
308.95969118642643
 20
-367.39776948409366
 40
1.9998779296875
 50
0.0
 51
360.0
 73
               0
 97
        1
330
E2
 75
               0
 76
               1
 98
        1
 10
0.0
 20
0.0
  0
CIRCLE
  5
E4
102
{ACAD_REACTORS
330
E5
102
}
100
AcDbEntity
  8
0
370
              -2
390
0
  6
Continuous
 62
               0
100
AcDbCircle
 10
308.95969118642643
 20
-527.39776948409394
 30
0.0
 40
1.9998779296875
  0
HATCH
  5
E5
100
AcDbEntity
  8
0
370
              -2
390
0
  6
Continuous
 62
               0
100
AcDbHatch
 10
0.0
 20
0.0
 30
0.0
210
0.0
220
0.0
230
1.0
  2
SOLID
 70
               1
 71
               1
 91
        1
 92
        1
 93
        1
 72
               2
 10
308.95969118642643
 20
-527.39776948409394
 40
1.9998779296875
 50
0.0
 51
360.0
 73
               0
 97
        1
330
E4
 75
               0
 76
               1
 98
        1
 10
0.0
 20
0.0
  0
MTEXT
  5
E6
100
AcDbEntity
  8
0
390
0
 62
               0
100
AcDbMText
 10
275.08207399892643
 20
-471.21027116626931
 30
0.0
 40
24.432617187500004
 41
0.0
 71
               1
 72
               1
  1
160
  7
ＭＳ ゴシック
 11
0.0
 21
1.0
 31
0.0
 73
               1
 44
0.7828267384257843
  0
POINT
  5
E7
100
AcDbEntity
  8
Defpoints
370
               0
390
0
 62
               0
100
AcDbPoint
 10
575.02627372316704
 20
-527.39776948409394
 30
0.0
  0
POINT
  5
E8
100
AcDbEntity
  8
Defpoints
370
               0
390
0
 62
               0
100
AcDbPoint
 10
415.95969118642643
 20
-367.39776948409366
 30
0.0
  0
POINT
  5
E9
100
AcDbEntity
  8
Defpoints
370
               0
390
0
 62
               0
100
AcDbPoint
 10
308.95969118642643
 20
-367.39776948409366
 30
0.0
  0
ENDBLK
  5
EA
100
AcDbEntity
  8
notes
390
0
100
AcDbBlockEnd
  0
BLOCK
  5
EB
100
AcDbEntity
  8
notes
390
0
100
AcDbBlockBegin
  2
*D14
 70
               1
 10
0.0
 20
0.0
 30
0.0
  3
*D14
  1

  0
LINE
  5
EC
100
AcDbEntity
  8
0
370
              -2
390
0
  6
Continuous
 62
               0
100
AcDbLine
 10
550.02627372316704
 20
-527.39776948409394
 30
0.0
 11
308.95969118642694
 21
-527.39776948409394
 31
0.0
  0
LINE
  5
ED
100
AcDbEntity
  8
0
370
              -2
390
0
  6
Continuous
 62
               0
100
AcDbLine
 10
566.45969118642699
 20
-557.39776948409417
 30
0.0
 11
308.95969118642694
 21
-557.39776948409417
 31
0.0
  0
LINE
  5
EE
100
AcDbEntity
  8
0
370
              -2
390
0
  6
Continuous
 62
               0
100
AcDbLine
 10
308.95969118642694
 20
-557.39776948409417
 30
0.0
 11
308.95969118642694
 21
-600.96205749780597
 31
0.0
  0
LINE
  5
EF
100
AcDbEntity
  8
0
370
              -2
390
0
  6
Continuous
 62
               0
100
AcDbLine
 10
308.95969118642694
 20
-527.39776948409394
 30
0.0
 11
308.95969118642694
 21
-557.39776948409417
 31
0.0
  0
CIRCLE
  5
F0
102
{ACAD_REACTORS
330
F1
102
}
100
AcDbEntity
  8
0
370
              -2
390
0
  6
Continuous
 62
               0
100
AcDbCircle
 10
308.95969118642694
 20
-527.39776948409394
 30
0.0
 40
1.9998779296875
  0
HATCH
  5
F1
100
AcDbEntity
  8
0
370
              -2
390
0
  6
Continuous
 62
               0
100
AcDbHatch
 10
0.0
 20
0.0
 30
0.0
210
0.0
220
0.0
230
1.0
  2
SOLID
 70
               1
 71
               1
 91
        1
 92
        1
 93
        1
 72
               2
 10
308.95969118642694
 20
-527.39776948409394
 40
1.9998779296875
 50
0.0
 51
360.0
 73
               0
 97
        1
330
F0
 75
               0
 76
               1
 98
        1
 10
0.0
 20
0.0
  0
CIRCLE
  5
F2
102
{ACAD_REACTORS
330
F3
102
}
100
AcDbEntity
  8
0
370
              -2
390
0
  6
Continuous
 62
               0
100
AcDbCircle
 10
308.95969118642694
 20
-557.39776948409417
 30
0.0
 40
1.9998779296875
  0
HATCH
  5
F3
100
AcDbEntity
  8
0
370
              -2
390
0
  6
Continuous
 62
               0
100
AcDbHatch
 10
0.0
 20
0.0
 30
0.0
210
0.0
220
0.0
230
1.0
  2
SOLID
 70
               1
 71
               1
 91
        1
 92
        1
 93
        1
 72
               2
 10
308.95969118642694
 20
-557.39776948409417
 40
1.9998779296875
 50
0.0
 51
360.0
 73
               0
 97
        1
330
F2
 75
               0
 76
               1
 98
        1
 10
0.0
 20
0.0
  0
MTEXT
  5
F4
100
AcDbEntity
  8
0
390
0
 62
               0
100
AcDbMText
 10
275.08207399892694
 20
-600.96205749780597
 30
0.0
 40
24.432617187500004
 41
0.0
 71
               1
 72
               1
  1
30
  7
ＭＳ ゴシック
 11
0.0
 21
1.0
 31
0.0
 73
               1
 44
0.7828267384257843
  0
POINT
  5
F5
100
AcDbEntity
  8
Defpoints
370
               0
390
0
 62
               0
100
AcDbPoint
 10
591.45969118642699
 20
-557.39776948409417
 30
0.0
  0
POINT
  5
F6
100
AcDbEntity
  8
Defpoints
370
               0
390
0
 62
               0
100
AcDbPoint
 10
575.02627372316704
 20
-527.39776948409394
 30
0.0
  0
POINT
  5
F7
100
AcDbEntity
  8
Defpoints
370
               0
390
0
 62
               0
100
AcDbPoint
 10
308.95969118642694
 20
-527.39776948409394
 30
0.0
  0
ENDBLK
  5
F8
100
AcDbEntity
  8
notes
390
0
100
AcDbBlockEnd
  0
BLOCK
  5
F9
100
AcDbEntity
  8
notes
390
0
100
AcDbBlockBegin
  2
*D15
 70
               1
 10
0.0
 20
0.0
 30
0.0
  3
*D15
  1

  0
LINE
  5
FA
100
AcDbEntity
  8
0
370
              -2
390
0
  6
Continuous
 62
               0
100
AcDbLine
 10
370.95969118642529
 20
-367.39776948409366
 30
0.0
 11
308.95969118642643
 21
-367.39776948409366
 31
0.0
  0
LINE
  5
FB
100
AcDbEntity
  8
0
370
              -2
390
0
  6
Continuous
 62
               0
100
AcDbLine
 10
390.95969118642643
 20
-332.39776948409366
 30
0.0
 11
308.95969118642643
 21
-332.39776948409366
 31
0.0
  0
LINE
  5
FC
100
AcDbEntity
  8
0
370
              -2
390
0
  6
Continuous
 62
               0
100
AcDbLine
 10
308.95969118642643
 20
-367.39776948409366
 30
0.0
 11
308.95969118642643
 21
-332.39776948409366
 31
0.0
  0
CIRCLE
  5
FD
102
{ACAD_REACTORS
330
FE
102
}
100
AcDbEntity
  8
0
370
              -2
390
0
  6
Continuous
 62
               0
100
AcDbCircle
 10
308.95969118642643
 20
-367.39776948409366
 30
0.0
 40
1.9998779296875
  0
HATCH
  5
FE
100
AcDbEntity
  8
0
370
              -2
390
0
  6
Continuous
 62
               0
100
AcDbHatch
 10
0.0
 20
0.0
 30
0.0
210
0.0
220
0.0
230
1.0
  2
SOLID
 70
               1
 71
               1
 91
        1
 92
        1
 93
        1
 72
               2
 10
308.95969118642643
 20
-367.39776948409366
 40
1.9998779296875
 50
0.0
 51
360.0
 73
               0
 97
        1
330
FD
 75
               0
 76
               1
 98
        1
 10
0.0
 20
0.0
  0
CIRCLE
  5
FF
102
{ACAD_REACTORS
330
100
102
}
100
AcDbEntity
  8
0
370
              -2
390
0
  6
Continuous
 62
               0
100
AcDbCircle
 10
308.95969118642643
 20
-332.39776948409366
 30
0.0
 40
1.9998779296875
  0
HATCH
  5
100
100
AcDbEntity
  8
0
370
              -2
390
0
  6
Continuous
 62
               0
100
AcDbHatch
 10
0.0
 20
0.0
 30
0.0
210
0.0
220
0.0
230
1.0
  2
SOLID
 70
               1
 71
               1
 91
        1
 92
        1
 93
        1
 72
               2
 10
308.95969118642643
 20
-332.39776948409366
 40
1.9998779296875
 50
0.0
 51
360.0
 73
               0
 97
        1
330
FF
 75
               0
 76
               1
 98
        1
 10
0.0
 20
0.0
  0
MTEXT
  5
101
100
AcDbEntity
  8
0
390
0
 62
               0
100
AcDbMText
 10
275.08207399892643
 20
-365.77276948409366
 30
0.0
 40
24.432617187500004
 41
0.0
 71
               1
 72
               1
  1
35
  7
ＭＳ ゴシック
 11
0.0
 21
1.0
 31
0.0
 73
               1
 44
0.7828267384257843
  0
POINT
  5
102
100
AcDbEntity
  8
Defpoints
370
               0
390
0
 62
               0
100
AcDbPoint
 10
415.95969118642643
 20
-332.39776948409366
 30
0.0
  0
POINT
  5
103
100
AcDbEntity
  8
Defpoints
370
               0
390
0
 62
               0
100
AcDbPoint
 10
395.95969118642529
 20
-367.39776948409366
 30
0.0
  0
POINT
  5
104
100
AcDbEntity
  8
Defpoints
370
               0
390
0
 62
               0
100
AcDbPoint
 10
308.95969118642643
 20
-367.39776948409366
 30
0.0
  0
ENDBLK
  5
105
100
AcDbEntity
  8
notes
390
0
100
AcDbBlockEnd
  0
BLOCK
  5
106
100
AcDbEntity
  8
notes
390
0
100
AcDbBlockBegin
  2
*D16
 70
               1
 10
0.0
 20
0.0
 30
0.0
  3
*D16
  1

  0
LINE
  5
107
100
AcDbEntity
  8
0
370
              -2
390
0
  6
Continuous
 62
               0
100
AcDbLine
 10
-691.04325945277242
 20
883.52442839945866
 30
0.0
 11
-771.04325945277242
 21
883.52442839945866
 31
0.0
  0
LINE
  5
108
100
AcDbEntity
  8
0
370
              -2
390
0
  6
Continuous
 62
               0
100
AcDbLine
 10
-696.04325945277242
 20
743.52442839945866
 30
0.0
 11
-771.04325945277242
 21
743.52442839945866
 31
0.0
  0
LINE
  5
109
100
AcDbEntity
  8
0
370
              -2
390
0
  6
Continuous
 62
               0
100
AcDbLine
 10
-771.04325945277242
 20
883.52442839945866
 30
0.0
 11
-771.04325945277242
 21
743.52442839945866
 31
0.0
  0
CIRCLE
  5
10A
102
{ACAD_REACTORS
330
10B
102
}
100
AcDbEntity
  8
0
370
              -2
390
0
  6
Continuous
 62
               0
100
AcDbCircle
 10
-771.04325945277242
 20
883.52442839945866
 30
0.0
 40
1.9998779296875
  0
HATCH
  5
10B
100
AcDbEntity
  8
0
370
              -2
390
0
  6
Continuous
 62
               0
100
AcDbHatch
 10
0.0
 20
0.0
 30
0.0
210
0.0
220
0.0
230
1.0
  2
SOLID
 70
               1
 71
               1
 91
        1
 92
        1
 93
        1
 72
               2
 10
-771.04325945277242
 20
883.52442839945866
 40
1.9998779296875
 50
0.0
 51
360.0
 73
               0
 97
        1
330
10A
 75
               0
 76
               1
 98
        1
 10
0.0
 20
0.0
  0
CIRCLE
  5
10C
102
{ACAD_REACTORS
330
10D
102
}
100
AcDbEntity
  8
0
370
              -2
390
0
  6
Continuous
 62
               0
100
AcDbCircle
 10
-771.04325945277242
 20
743.52442839945866
 30
0.0
 40
1.9998779296875
  0
HATCH
  5
10D
100
AcDbEntity
  8
0
370
              -2
390
0
  6
Continuous
 62
               0
100
AcDbHatch
 10
0.0
 20
0.0
 30
0.0
210
0.0
220
0.0
230
1.0
  2
SOLID
 70
               1
 71
               1
 91
        1
 92
        1
 93
        1
 72
               2
 10
-771.04325945277242
 20
743.52442839945866
 40
1.9998779296875
 50
0.0
 51
360.0
 73
               0
 97
        1
330
10C
 75
               0
 76
               1
 98
        1
 10
0.0
 20
0.0
  0
MTEXT
  5
10E
100
AcDbEntity
  8
0
390
0
 62
               0
100
AcDbMText
 10
-804.92087664027247
 20
789.71192671728318
 30
0.0
 40
24.432617187500004
 41
0.0
 71
               1
 72
               1
  1
140
  7
ＭＳ ゴシック
 11
0.0
 21
1.0
 31
0.0
 73
               1
 44
0.7828267384257843
  0
POINT
  5
10F
100
AcDbEntity
  8
Defpoints
370
               0
390
0
 62
               0
100
AcDbPoint
 10
-671.04325945277242
 20
743.52442839945866
 30
0.0
  0
POINT
  5
110
100
AcDbEntity
  8
Defpoints
370
               0
390
0
 62
               0
100
AcDbPoint
 10
-666.04325945277242
 20
883.52442839945866
 30
0.0
  0
POINT
  5
111
100
AcDbEntity
  8
Defpoints
370
               0
390
0
 62
               0
100
AcDbPoint
 10
-771.04325945277242
 20
883.52442839945866
 30
0.0
  0
ENDBLK
  5
112
100
AcDbEntity
  8
notes
390
0
100
AcDbBlockEnd
  0
BLOCK
  5
113
100
AcDbEntity
  8
notes
390
0
100
AcDbBlockBegin
  2
*D17
 70
               1
 10
0.0
 20
0.0
 30
0.0
  3
*D17
  1

  0
LINE
  5
114
100
AcDbEntity
  8
0
370
              -2
390
0
  6
Continuous
 62
               0
100
AcDbLine
 10
-696.04325945277242
 20
743.52442839945888
 30
0.0
 11
-771.04325945277242
 21
743.52442839945888
 31
0.0
  0
LINE
  5
115
100
AcDbEntity
  8
0
370
              -2
390
0
  6
Continuous
 62
               0
100
AcDbLine
 10
-696.21435988280007
 20
483.52442839945894
 30
0.0
 11
-771.04325945277242
 21
483.52442839945894
 31
0.0
  0
LINE
  5
116
100
AcDbEntity
  8
0
370
              -2
390
0
  6
Continuous
 62
               0
100
AcDbLine
 10
-771.04325945277242
 20
743.52442839945888
 30
0.0
 11
-771.04325945277242
 21
483.52442839945894
 31
0.0
  0
CIRCLE
  5
117
102
{ACAD_REACTORS
330
118
102
}
100
AcDbEntity
  8
0
370
              -2
390
0
  6
Continuous
 62
               0
100
AcDbCircle
 10
-771.04325945277242
 20
743.52442839945888
 30
0.0
 40
1.9998779296875
  0
HATCH
  5
118
100
AcDbEntity
  8
0
370
              -2
390
0
  6
Continuous
 62
               0
100
AcDbHatch
 10
0.0
 20
0.0
 30
0.0
210
0.0
220
0.0
230
1.0
  2
SOLID
 70
               1
 71
               1
 91
        1
 92
        1
 93
        1
 72
               2
 10
-771.04325945277242
 20
743.52442839945888
 40
1.9998779296875
 50
0.0
 51
360.0
 73
               0
 97
        1
330
117
 75
               0
 76
               1
 98
        1
 10
0.0
 20
0.0
  0
CIRCLE
  5
119
102
{ACAD_REACTORS
330
11A
102
}
100
AcDbEntity
  8
0
370
              -2
390
0
  6
Continuous
 62
               0
100
AcDbCircle
 10
-771.04325945277242
 20
483.52442839945894
 30
0.0
 40
1.9998779296875
  0
HATCH
  5
11A
100
AcDbEntity
  8
0
370
              -2
390
0
  6
Continuous
 62
               0
100
AcDbHatch
 10
0.0
 20
0.0
 30
0.0
210
0.0
220
0.0
230
1.0
  2
SOLID
 70
               1
 71
               1
 91
        1
 92
        1
 93
        1
 72
               2
 10
-771.04325945277242
 20
483.52442839945894
 40
1.9998779296875
 50
0.0
 51
360.0
 73
               0
 97
        1
330
119
 75
               0
 76
               1
 98
        1
 10
0.0
 20
0.0
  0
MTEXT
  5
11B
100
AcDbEntity
  8
0
390
0
 62
               0
100
AcDbMText
 10
-804.92087664027247
 20
589.7119267172834
 30
0.0
 40
24.432617187500004
 41
0.0
 71
               1
 72
               1
  1
260
  7
ＭＳ ゴシック
 11
0.0
 21
1.0
 31
0.0
 73
               1
 44
0.7828267384257843
  0
POINT
  5
11C
100
AcDbEntity
  8
Defpoints
370
               0
390
0
 62
               0
100
AcDbPoint
 10
-671.21435988280007
 20
483.52442839945894
 30
0.0
  0
POINT
  5
11D
100
AcDbEntity
  8
Defpoints
370
               0
390
0
 62
               0
100
AcDbPoint
 10
-671.04325945277242
 20
743.52442839945888
 30
0.0
  0
POINT
  5
11E
100
AcDbEntity
  8
Defpoints
370
               0
390
0
 62
               0
100
AcDbPoint
 10
-771.04325945277242
 20
743.52442839945888
 30
0.0
  0
ENDBLK
  5
11F
100
AcDbEntity
  8
notes
390
0
100
AcDbBlockEnd
  0
BLOCK
  5
120
100
AcDbEntity
  8
notes
390
0
100
AcDbBlockBegin
  2
*D18
 70
               1
 10
0.0
 20
0.0
 30
0.0
  3
*D18
  1

  0
LINE
  5
121
100
AcDbEntity
  8
0
370
              -2
390
0
  6
Continuous
 62
               0
100
AcDbLine
 10
-581.5432594527723
 20
-432.3977694840936
 30
0.0
 11
-771.0432594527723
 21
-432.3977694840936
 31
0.0
  0
LINE
  5
122
100
AcDbEntity
  8
0
370
              -2
390
0
  6
Continuous
 62
               0
100
AcDbLine
 10
-689.0432594527723
 20
-332.39776948409366
 30
0.0
 11
-771.0432594527723
 21
-332.39776948409366
 31
0.0
  0
LINE
  5
123
100
AcDbEntity
  8
0
370
              -2
390
0
  6
Continuous
 62
               0
100
AcDbLine
 10
-771.0432594527723
 20
-432.3977694840936
 30
0.0
 11
-771.0432594527723
 21
-332.39776948409366
 31
0.0
  0
CIRCLE
  5
124
102
{ACAD_REACTORS
330
125
102
}
100
AcDbEntity
  8
0
370
              -2
390
0
  6
Continuous
 62
               0
100
AcDbCircle
 10
-771.0432594527723
 20
-432.3977694840936
 30
0.0
 40
1.9998779296875
  0
HATCH
  5
125
100
AcDbEntity
  8
0
370
              -2
390
0
  6
Continuous
 62
               0
100
AcDbHatch
 10
0.0
 20
0.0
 30
0.0
210
0.0
220
0.0
230
1.0
  2
SOLID
 70
               1
 71
               1
 91
        1
 92
        1
 93
        1
 72
               2
 10
-771.0432594527723
 20
-432.3977694840936
 40
1.9998779296875
 50
0.0
 51
360.0
 73
               0
 97
        1
330
124
 75
               0
 76
               1
 98
        1
 10
0.0
 20
0.0
  0
CIRCLE
  5
126
102
{ACAD_REACTORS
330
127
102
}
100
AcDbEntity
  8
0
370
              -2
390
0
  6
Continuous
 62
               0
100
AcDbCircle
 10
-771.0432594527723
 20
-332.39776948409366
 30
0.0
 40
1.9998779296875
  0
HATCH
  5
127
100
AcDbEntity
  8
0
370
              -2
390
0
  6
Continuous
 62
               0
100
AcDbHatch
 10
0.0
 20
0.0
 30
0.0
210
0.0
220
0.0
230
1.0
  2
SOLID
 70
               1
 71
               1
 91
        1
 92
        1
 93
        1
 72
               2
 10
-771.0432594527723
 20
-332.39776948409366
 40
1.9998779296875
 50
0.0
 51
360.0
 73
               0
 97
        1
330
126
 75
               0
 76
               1
 98
        1
 10
0.0
 20
0.0
  0
MTEXT
  5
128
100
AcDbEntity
  8
0
390
0
 62
               0
100
AcDbMText
 10
-804.92087664027235
 20
-406.21027116626919
 30
0.0
 40
24.432617187500004
 41
0.0
 71
               1
 72
               1
  1
100
  7
ＭＳ ゴシック
 11
0.0
 21
1.0
 31
0.0
 73
               1
 44
0.7828267384257843
  0
POINT
  5
129
100
AcDbEntity
  8
Defpoints
370
               0
390
0
 62
               0
100
AcDbPoint
 10
-664.0432594527723
 20
-332.39776948409366
 30
0.0
  0
POINT
  5
12A
100
AcDbEntity
  8
Defpoints
370
               0
390
0
 62
               0
100
AcDbPoint
 10
-556.5432594527723
 20
-432.3977694840936
 30
0.0
  0
POINT
  5
12B
100
AcDbEntity
  8
Defpoints
370
               0
390
0
 62
               0
100
AcDbPoint
 10
-771.0432594527723
 20
-432.3977694840936
 30
0.0
  0
ENDBLK
  5
12C
100
AcDbEntity
  8
notes
390
0
100
AcDbBlockEnd
  0
BLOCK
  5
12D
100
AcDbEntity
  8
notes
390
0
100
AcDbBlockBegin
  2
*D19
 70
               1
 10
0.0
 20
0.0
 30
0.0
  3
*D19
  1

  0
LINE
  5
12E
100
AcDbEntity
  8
0
370
              -2
390
0
  6
Continuous
 62
               0
100
AcDbLine
 10
628.95969118642699
 20
-582.39776948409417
 30
0.0
 11
628.95969118642699
 21
-657.39776948409417
 31
0.0
  0
LINE
  5
12F
100
AcDbEntity
  8
0
370
              -2
390
0
  6
Continuous
 62
               0
100
AcDbLine
 10
838.95969118642597
 20
-552.39776948409462
 30
0.0
 11
838.95969118642597
 21
-657.39776948409417
 31
0.0
  0
LINE
  5
130
100
AcDbEntity
  8
0
370
              -2
390
0
  6
Continuous
 62
               0
100
AcDbLine
 10
628.95969118642699
 20
-657.39776948409417
 30
0.0
 11
838.95969118642597
 21
-657.39776948409417
 31
0.0
  0
CIRCLE
  5
131
102
{ACAD_REACTORS
330
132
102
}
100
AcDbEntity
  8
0
370
              -2
390
0
  6
Continuous
 62
               0
100
AcDbCircle
 10
628.95969118642699
 20
-657.39776948409417
 30
0.0
 40
1.9998779296875
  0
HATCH
  5
132
100
AcDbEntity
  8
0
370
              -2
390
0
  6
Continuous
 62
               0
100
AcDbHatch
 10
0.0
 20
0.0
 30
0.0
210
0.0
220
0.0
230
1.0
  2
SOLID
 70
               1
 71
               1
 91
        1
 92
        1
 93
        1
 72
               2
 10
628.95969118642699
 20
-657.39776948409417
 40
1.9998779296875
 50
0.0
 51
360.0
 73
               0
 97
        1
330
131
 75
               0
 76
               1
 98
        1
 10
0.0
 20
0.0
  0
CIRCLE
  5
133
102
{ACAD_REACTORS
330
134
102
}
100
AcDbEntity
  8
0
370
              -2
390
0
  6
Continuous
 62
               0
100
AcDbCircle
 10
838.95969118642597
 20
-657.39776948409417
 30
0.0
 40
1.9998779296875
  0
HATCH
  5
134
100
AcDbEntity
  8
0
370
              -2
390
0
  6
Continuous
 62
               0
100
AcDbHatch
 10
0.0
 20
0.0
 30
0.0
210
0.0
220
0.0
230
1.0
  2
SOLID
 70
               1
 71
               1
 91
        1
 92
        1
 93
        1
 72
               2
 10
838.95969118642597
 20
-657.39776948409417
 40
1.9998779296875
 50
0.0
 51
360.0
 73
               0
 97
        1
330
133
 75
               0
 76
               1
 98
        1
 10
0.0
 20
0.0
  0
MTEXT
  5
135
100
AcDbEntity
  8
0
390
0
 62
               0
100
AcDbMText
 10
710.14718950425106
 20
-623.52015229659423
 30
0.0
 40
24.432617187500004
 41
0.0
 71
               1
 72
               1
  1
210
  7
ＭＳ ゴシック
 73
               1
 44
0.7828267384257843
  0
POINT
  5
136
100
AcDbEntity
  8
Defpoints
370
               0
390
0
 62
               0
100
AcDbPoint
 10
838.95969118642597
 20
-527.39776948409462
 30
0.0
  0
POINT
  5
137
100
AcDbEntity
  8
Defpoints
370
               0
390
0
 62
               0
100
AcDbPoint
 10
628.95969118642699
 20
-557.39776948409417
 30
0.0
  0
POINT
  5
138
100
AcDbEntity
  8
Defpoints
370
               0
390
0
 62
               0
100
AcDbPoint
 10
628.95969118642699
 20
-657.39776948409417
 30
0.0
  0
ENDBLK
  5
139
100
AcDbEntity
  8
notes
390
0
100
AcDbBlockEnd
  0
BLOCK
  5
13A
100
AcDbEntity
  8
FAA70-2203
390
0
100
AcDbBlockBegin
  2
*D20
 70
               1
 10
0.0
 20
0.0
 30
0.0
  3
*D20
  1

  0
LINE
  5
13B
100
AcDbEntity
  8
0
370
              -2
390
0
  6
Continuous
 62
               0
100
AcDbLine
 10
747.0
 20
-367.39776948409366
 30
0.0
 11
726.0
 21
-367.39776948409366
 31
0.0
  0
LINE
  5
13C
100
AcDbEntity
  8
0
370
              -2
390
0
  6
Continuous
 62
               0
100
AcDbLine
 10
747.0
 20
-382.39776948409366
 30
0.0
 11
726.0
 21
-382.39776948409366
 31
0.0
  0
LINE
  5
13D
100
AcDbEntity
  8
0
370
              -2
390
0
  6
Continuous
 62
               0
100
AcDbLine
 10
726.0
 20
-367.39776948409366
 30
0.0
 11
726.0
 21
-310.25
 31
0.0
  0
LINE
  5
13E
100
AcDbEntity
  8
0
370
              -2
390
0
  6
Continuous
 62
               0
100
AcDbLine
 10
726.0
 20
-367.39776948409366
 30
0.0
 11
726.0
 21
-382.39776948409366
 31
0.0
  0
CIRCLE
  5
13F
102
{ACAD_REACTORS
330
140
102
}
100
AcDbEntity
  8
0
370
              -2
390
0
  6
Continuous
 62
               0
100
AcDbCircle
 10
726.0
 20
-367.39776948409366
 30
0.0
 40
1.9998779296875
  0
HATCH
  5
140
100
AcDbEntity
  8
0
370
              -2
390
0
  6
Continuous
 62
               0
100
AcDbHatch
 10
0.0
 20
0.0
 30
0.0
210
0.0
220
0.0
230
1.0
  2
SOLID
 70
               1
 71
               1
 91
        1
 92
        1
 93
        1
 72
               2
 10
726.0
 20
-367.39776948409366
 40
1.9998779296875
 50
0.0
 51
360.0
 73
               0
 97
        1
330
13F
 75
               0
 76
               1
 98
        1
 10
0.0
 20
0.0
  0
CIRCLE
  5
141
102
{ACAD_REACTORS
330
142
102
}
100
AcDbEntity
  8
0
370
              -2
390
0
  6
Continuous
 62
               0
100
AcDbCircle
 10
726.0
 20
-382.39776948409366
 30
0.0
 40
1.9998779296875
  0
HATCH
  5
142
100
AcDbEntity
  8
0
370
              -2
390
0
  6
Continuous
 62
               0
100
AcDbHatch
 10
0.0
 20
0.0
 30
0.0
210
0.0
220
0.0
230
1.0
  2
SOLID
 70
               1
 71
               1
 91
        1
 92
        1
 93
        1
 72
               2
 10
726.0
 20
-382.39776948409366
 40
1.9998779296875
 50
0.0
 51
360.0
 73
               0
 97
        1
330
141
 75
               0
 76
               1
 98
        1
 10
0.0
 20
0.0
  0
MTEXT
  5
143
100
AcDbEntity
  8
0
390
0
 62
               0
100
AcDbMText
 10
692.12238281249995
 20
-342.0
 30
0.0
 40
24.432617187500004
 41
0.0
 71
               1
 72
               1
  1
15
  7
ＭＳ ゴシック
 11
0.0
 21
1.0
 31
0.0
 73
               1
 44
0.7828267384257843
  0
POINT
  5
144
100
AcDbEntity
  8
Defpoints
370
               0
390
0
 62
               0
100
AcDbPoint
 10
722.0
 20
-382.39776948409366
 30
0.0
  0
POINT
  5
145
100
AcDbEntity
  8
Defpoints
370
               0
390
0
 62
               0
100
AcDbPoint
 10
722.0
 20
-367.39776948409366
 30
0.0
  0
POINT
  5
146
100
AcDbEntity
  8
Defpoints
370
               0
390
0
 62
               0
100
AcDbPoint
 10
726.0
 20
-367.39776948409366
 30
0.0
  0
ENDBLK
  5
147
100
AcDbEntity
  8
FAA70-2203
390
0
100
AcDbBlockEnd
  0
ENDSEC
  0
SECTION
  2
ENTITIES
  0
MTEXT
  5
148
100
AcDbEntity
  8
template
390
0
 62
               7
100
AcDbMText
 10
-967.99999999975932
 20
-1147.4176292337004
 30
0.0
 40
16.288411458333332
 41
0.0
 71
               1
 72
               1
  1
品名
  7
ＭＳ ゴシック
 73
               1
 44
0.7828267384257843
  0
MTEXT
  5
149
100
AcDbEntity
  8
template
390
0
 62
               7
100
AcDbMText
 10
-967.99999999975932
 20
-1232.4176292337004
 30
0.0
 40
16.288411458333332
 41
0.0
 71
               1
 72
               1
  1
仕様
  7
ＭＳ ゴシック
 73
               1
 44
0.7828267384257843
  0
LINE
  5
14A
100
AcDbEntity
  8
template
370
               5
390
0
  6
Continuous
 62
               7
100
AcDbLine
 10
974.99999999975876
 20
-1224.0027073587005
 30
0.0
 11
-975.00000000024136
 21
-1224.0027073587005
 31
0.0
  0
LWPOLYLINE
  5
14B
100
AcDbEntity
  8
template
370
               5
390
0
  6
Continuous
 62
               7
100
AcDbPolyline
 90
        5
 70
             128
 10
975.00000000024124
 20
1405.9972926412995
 10
-974.99999999975932
 20
1405.9972926412995
 10
-974.99999999975932
 20
-1394.0027073587005
 10
975.00000000024124
 20
-1394.0027073587005
 10
975.00000000024124
 20
1405.9972926412995
  0
LINE
  5
14C
100
AcDbEntity
  8
template
370
               5
390
0
  6
Continuous
 62
               7
100
AcDbLine
 10
974.99999999975876
 20
-1139.0027073587005
 30
0.0
 11
-975.00000000024136
 21
-1139.0027073587005
 31
0.0
  0
LINE
  5
14D
100
AcDbEntity
  8
template
370
               5
390
0
  6
Continuous
 62
               7
100
AcDbLine
 10
975.00000000024124
 20
-1309.0027073587005
 30
0.0
 11
222.00000000024124
 21
-1309.0027073587005
 31
0.0
  0
MTEXT
  5
14E
100
AcDbEntity
  8
template
390
0
 62
               7
100
AcDbMText
 10
251.87140625250089
 20
-1338.9131018320081
 30
0.0
 40
24.432617187500004
 41
0.0
 71
               1
 72
               1
  1
大洋金物株式会社 ティーフォルム事業部
  7
ＭＳ ゴシック
 73
               1
 44
0.7828267384257843
  0
INSERT
  5
14F
100
AcDbEntity
  8
template
390
0
 62
               7
100
AcDbBlockReference
  2
グループ
 10
67.066582536740626
 20
-208.45753658846792
 30
0.0
  0
MTEXT
  5
150
100
AcDbEntity
  8
template
390
0
 62
               7
100
AcDbMText
 10
784.00000000049999
 20
-1261.0000901712006
 30
0.0
 40
24.432617187500004
 41
0.0
 71
               1
 72
               1
  1
1:10
  7
ＭＳ ゴシック
 73
               1
 44
0.7828267384257843
  0
MTEXT
  5
151
100
AcDbEntity
  8
template
390
0
 62
               7
100
AcDbMText
 10
731.00000000049999
 20
-1232.4176292337004
 30
0.0
 40
16.288411458333332
 41
0.0
 71
               1
 72
               1
  1
縮尺
  7
ＭＳ ゴシック
 73
               1
 44
0.7828267384257843
  0
LINE
  5
152
100
AcDbEntity
  8
template
370
               5
390
0
  6
Continuous
 62
               7
100
AcDbLine
 10
724.00000000049999
 20
-1309.0027073587005
 30
0.0
 11
724.00000000049999
 21
-1224.0027073587005
 31
0.0
  0
MTEXT
  5
153
100
AcDbEntity
  8
template
390
0
 62
               7
100
AcDbMText
 10
480.00000000049999
 20
-1232.4176292337004
 30
0.0
 40
16.288411458333332
 41
0.0
 71
               1
 72
               1
  1
容量
  7
ＭＳ ゴシック
 73
               1
 44
0.7828267384257843
  0
MTEXT
  5
154
100
AcDbEntity
  8
template
390
0
 62
               7
100
AcDbMText
 10
533.00000000049999
 20
-1261.0000901712006
 30
0.0
 40
24.432617187500004
 41
0.0
 71
               1
 72
               1
  1
4.9L
  7
ＭＳ ゴシック
 73
               1
 44
0.7828267384257843
  0
LINE
  5
155
100
AcDbEntity
  8
template
370
               5
390
0
  6
Continuous
 62
               7
100
AcDbLine
 10
473.00000000049999
 20
-1309.0027073587005
 30
0.0
 11
473.00000000049999
 21
-1224.0027073587005
 31
0.0
  0
MTEXT
  5
156
100
AcDbEntity
  8
template
390
0
 62
               7
100
AcDbMText
 10
229.00000000049999
 20
-1147.4176292337004
 30
0.0
 40
16.288411458333332
 41
0.0
 71
               1
 72
               1
  1
品番
  7
ＭＳ ゴシック
 73
               1
 44
0.7828267384257843
  0
MTEXT
  5
157
100
AcDbEntity
  8
template
390
0
 62
               7
100
AcDbMText
 10
229.00000000049999
 20
-1232.4176292337004
 30
0.0
 40
16.288411458333332
 41
0.0
 71
               1
 72
               1
  1
重量
  7
ＭＳ ゴシック
 73
               1
 44
0.7828267384257843
  0
MTEXT
  5
158
100
AcDbEntity
  8
template
390
0
 62
               7
100
AcDbMText
 10
282.00000000049999
 20
-1176.0000901712003
 30
0.0
 40
24.432617187500004
 41
0.0
 71
               1
 72
               1
  1
FAA70-2203
  7
ＭＳ ゴシック
 73
               1
 44
0.7828267384257843
  0
MTEXT
  5
159
100
AcDbEntity
  8
template
390
0
 62
               7
100
AcDbMText
 10
282.00000000049999
 20
-1261.0000901712006
 30
0.0
 40
24.432617187500004
 41
0.0
 71
               1
 72
               1
  1
17kg
  7
ＭＳ ゴシック
 73
               1
 44
0.7828267384257843
  0
LINE
  5
15A
100
AcDbEntity
  8
template
370
               5
390
0
  6
Continuous
 62
               7
100
AcDbLine
 10
222.00000000049999
 20
-1394.0027073587005
 30
0.0
 11
222.00000000049999
 21
-1139.0027073587005
 31
0.0
  0
MTEXT
  5
15B
100
AcDbEntity
  8
template
390
0
 62
               7
100
AcDbMText
 10
-914.99999999975921
 20
-1261.0000901712006
 30
0.0
 40
24.432617187500004
 41
0.0
 71
               1
 72
               1
  1
壁掛け/オーバーフロー付き/壁取付ボルト付属/陶器/ホワイト
  7
ＭＳ ゴシック
 73
               1
 44
1.1307497332816883
  0
MTEXT
  5
15C
100
AcDbEntity
  8
template
390
0
 62
               7
100
AcDbMText
 10
-974.99999999955605
 20
-1405.8565294155574
 30
0.0
 40
21.717881944444446
 41
0.0
 71
               1
 72
               1
  1
120224SH
  7
ＭＳ ゴシック
 73
               1
 44
0.7828267384257843
  0
MTEXT
  5
15D
100
AcDbEntity
  8
template
390
0
 62
               7
100
AcDbMText
 10
-914.99999999975898
 20
-1176.0000901712003
 30
0.0
 40
24.432617187500004
 41
0.0
 71
               1
 72
               1
  1
洗面器 -DURAVIT,Philippe Starck E3-
  7
ＭＳ ゴシック
 73
               1
 44
0.7828267384257843
  0
MTEXT
  5
15E
100
AcDbEntity
  8
notes
390
0
 62
               7
100
AcDbMText
 10
-801.30230283095705
 20
230.93615453114995
 30
0.0
 40
27.147352430555557
 41
973.97212452107931
 71
               1
 72
               1
  1
＝φ30もしくはφ35の水栓取付用穴あけ加工を承ります。\P   必要な場合、ご注文の際にご指示ください。
  7
ＭＳ ゴシック
 73
               1
 44
0.9393920861109412
  0
MTEXT
  5
15F
100
AcDbEntity
  8
notes
390
0
 62
               7
100
AcDbMText
 10
-197.52547824173575
 20
-247.36810454424369
 30
0.0
 40
27.147352430555557
 41
0.0
 71
               1
 72
               1
  1
壁取付ボルト穴(2ヶ所)
  7
ＭＳ ゴシック
 73
               1
 44
0.7828267384257843
  0
LINE
  5
160
100
AcDbEntity
  8
notes
370
               5
390
0
  6
Continuous
 62
               7
100
AcDbLine
 10
-256.04325945277287
 20
-432.3977694840936
 30
0.0
 11
-165.80244236536527
 21
-290.36118600422373
 31
0.0
  0
DIMENSION
  5
161
100
AcDbEntity
  8
notes
370
               5
390
0
  6
Continuous
 62
               7
100
AcDbDimension
  2
*D3
 10
-405.89524723996584
 20
822.98777298641471
 30
0.0
 11
-259.56227466404505
 21
696.24547909066314
 31
0.0
 70
               3
 71
               5
 72
               1
 41
1.0
 42
0.0
  3
tfrom線あり
100
AcDbDiametricDimension
 15
-386.19127166557996
 25
794.06108381250283
 35
0.0
 40
118.35250638887942
1001
ACAD
1000
DSTYLE
1002
{
1070
             289
1070
               0
1070
             342
1005
49
1070
             340
1005
36
1070
              73
1070
               1
1070
              74
1070
               1
1070
              75
1070
               1
1070
              76
1070
               1
1070
               3
1000

1070
             174
1070
               0
1070
             147
1040
5.0
1002
}
  0
CIRCLE
  5
162
100
AcDbEntity
  8
notes
370
              15
390
0
  6
STYLE_12
 62
               7
100
AcDbCircle
 10
-821.3725041891181
 20
216.47947117918164
 30
0.0
 40
17.500000000000227
  0
DIMENSION
  5
163
100
AcDbEntity
  8
notes
370
               5
390
0
  6
Continuous
 62
               7
100
AcDbDimension
  2
*D4
 10
-121.04325945277235
 20
1033.5244283994587
 30
0.0
 11
-396.04325945277236
 21
1033.5244283994587
 31
0.0
 71
               5
 72
               1
 41
1.0
 42
0.0
  3
tfrom線あり
100
AcDbAlignedDimension
 13
-671.04325945277242
 23
878.52442839945866
 33
0.0
 14
-121.04325945277235
 24
878.52442839945866
 34
0.0
100
AcDbRotatedDimension
1001
ACAD
1000
DSTYLE
1002
{
1070
             279
1070
               2
1070
             340
1005
36
1070
             147
1040
5.0
1002
}
  0
DIMENSION
  5
164
100
AcDbEntity
  8
notes
370
               5
390
0
  6
Continuous
 62
               7
100
AcDbDimension
  2
*D5
 10
-396.04325945277287
 20
983.52442839945866
 30
0.0
 11
-346.04325945277287
 21
983.52442839945866
 31
0.0
 71
               5
 72
               1
 41
1.0
 42
0.0
  3
tfrom線あり
100
AcDbAlignedDimension
 13
-296.04325945277287
 23
821.76475681475085
 33
0.0
 14
-396.04325945277287
 24
821.76475681475085
 34
0.0
100
AcDbRotatedDimension
1001
ACAD
1000
DSTYLE
1002
{
1070
             279
1070
               2
1070
             340
1005
36
1070
             147
1040
5.0
1002
}
  0
DIMENSION
  5
165
100
AcDbEntity
  8
notes
370
               5
390
0
  6
Continuous
 62
               7
100
AcDbDimension
  2
*D6
 10
-396.04325945277287
 20
983.52442839945866
 30
0.0
 11
-446.04325945277253
 21
983.52442839945866
 31
0.0
 71
               5
 72
               1
 41
1.0
 42
0.0
  3
tfrom線あり
100
AcDbAlignedDimension
 13
-496.0432594527723
 23
821.76475681475108
 33
0.0
 14
-396.04325945277287
 24
821.76475681475085
 34
0.0
100
AcDbRotatedDimension
1001
ACAD
1000
DSTYLE
1002
{
1070
             279
1070
               2
1070
             340
1005
36
1070
             147
1040
5.0
1002
}
  0
DIMENSION
  5
166
100
AcDbEntity
  8
notes
370
               5
390
0
  6
Continuous
 62
               7
100
AcDbDimension
  2
*D7
 10
-636.04325945277242
 20
353.52442839945917
 30
0.0
 11
-396.04325945277253
 21
353.52442839945917
 31
0.0
 71
               5
 72
               1
 41
1.0
 42
0.0
  3
tfrom線あり
100
AcDbAlignedDimension
 13
-156.0432594527727
 23
460.01020760027114
 33
0.0
 14
-636.04325945277242
 24
460.73915096541685
 34
0.0
100
AcDbRotatedDimension
1001
ACAD
1000
DSTYLE
1002
{
1070
             279
1070
               2
1070
             340
1005
36
1070
             147
1040
5.0
1002
}
  0
DIMENSION
  5
167
100
AcDbEntity
  8
notes
370
               5
390
0
  6
Continuous
 62
               7
100
AcDbDimension
  2
*D8
 10
-256.04325945277287
 20
-232.39776948409366
 30
0.0
 11
-396.04325945277259
 21
-232.39776948409366
 31
0.0
 71
               5
 72
               1
 41
1.0
 42
0.0
  3
tfrom線あり
100
AcDbAlignedDimension
 13
-536.0432594527723
 23
-411.8977694840936
 33
0.0
 14
-256.04325945277287
 24
-411.8977694840936
 34
0.0
100
AcDbRotatedDimension
1001
ACAD
1000
DSTYLE
1002
{
1070
             279
1070
               2
1070
             340
1005
36
1070
             147
1040
5.0
1002
}
  0
DIMENSION
  5
168
100
AcDbEntity
  8
notes
370
               5
390
0
  6
Continuous
 62
               7
100
AcDbDimension
  2
*D9
 10
838.95969118642597
 20
-232.39776948409366
 30
0.0
 11
807.74915252120968
 21
-227.39776948409366
 31
0.0
 70
             128
 71
               5
 72
               1
 41
1.0
 42
0.0
  3
tfrom線あり
100
AcDbAlignedDimension
 13
763.95969118642597
 23
-376.39776948409366
 33
0.0
 14
838.95969118642597
 24
-332.39776948409366
 34
0.0
100
AcDbRotatedDimension
1001
ACAD
1000
DSTYLE
1002
{
1070
             279
1070
               2
1070
             340
1005
36
1070
             147
1040
5.0
1002
}
  0
DIMENSION
  5
169
100
AcDbEntity
  8
notes
370
               5
390
0
  6
Continuous
 62
               7
100
AcDbDimension
  2
*D10
 10
617.73325099630017
 20
-367.39776948409366
 30
0.0
 11
622.73325099630017
 21
-351.39776948409366
 31
0.0
 70
             128
 71
               5
 72
               1
 41
1.0
 42
0.0
  3
tfrom線あり
100
AcDbAlignedDimension
 13
616.95974830440389
 23
-512.39776948409394
 33
0.0
 14
616.95974830440389
 24
-367.39776948409366
 34
0.0
 50
90.0
100
AcDbRotatedDimension
1001
ACAD
1000
DSTYLE
1002
{
1070
             279
1070
               2
1070
             340
1005
36
1070
               3
1000
<>(深さ)
1070
             174
1070
               0
1070
             147
1040
5.0
1002
}
  0
DIMENSION
  5
16A
100
AcDbEntity
  8
notes
370
               5
390
0
  6
Continuous
 62
               7
100
AcDbDimension
  2
*D11
 10
-21.043259452772347
 20
883.52442839945888
 30
0.0
 11
-21.043259452772347
 21
668.52442839945911
 31
0.0
 71
               5
 72
               1
 41
1.0
 42
0.0
  3
tfrom線あり
100
AcDbAlignedDimension
 13
-262.56227466404482
 23
453.52442839945917
 33
0.0
 14
-126.04325945277257
 24
883.52442839945888
 34
0.0
 50
90.0
100
AcDbRotatedDimension
1001
ACAD
1000
DSTYLE
1002
{
1070
             279
1070
               2
1070
             340
1005
36
1070
             147
1040
5.0
1002
}
  0
DIMENSION
  5
16B
100
AcDbEntity
  8
notes
370
               5
390
0
  6
Continuous
 62
               7
100
AcDbDimension
  2
*D12
 10
-21.043259452772574
 20
-332.39776948409366
 30
0.0
 11
-21.043259452772574
 21
-444.89776948409383
 31
0.0
 71
               5
 72
               1
 41
1.0
 42
0.0
  3
tfrom線あり
100
AcDbAlignedDimension
 13
-358.54325945277287
 23
-557.39776948409394
 33
0.0
 14
-128.04325945277259
 24
-332.39776948409366
 34
0.0
 50
90.0
100
AcDbRotatedDimension
1001
ACAD
1000
DSTYLE
1002
{
1070
             279
1070
               2
1070
             340
1005
36
1070
             147
1040
5.0
1002
}
  0
DIMENSION
  5
16C
100
AcDbEntity
  8
notes
370
               5
390
0
  6
Continuous
 62
               7
100
AcDbDimension
  2
*D13
 10
308.95969118642643
 20
-367.39776948409366
 30
0.0
 11
308.95969118642643
 21
-447.39776948409383
 31
0.0
 71
               5
 72
               1
 41
1.0
 42
0.0
  3
tfrom線あり
100
AcDbAlignedDimension
 13
575.02627372316704
 23
-527.39776948409394
 33
0.0
 14
415.95969118642643
 24
-367.39776948409366
 34
0.0
 50
90.0
100
AcDbRotatedDimension
1001
ACAD
1000
DSTYLE
1002
{
1070
             279
1070
               2
1070
             340
1005
36
1070
             147
1040
5.0
1002
}
  0
DIMENSION
  5
16D
100
AcDbEntity
  8
notes
370
               5
390
0
  6
Continuous
 62
               7
100
AcDbDimension
  2
*D14
 10
308.95969118642694
 20
-527.39776948409394
 30
0.0
 11
303.95969118642694
 21
-569.21205749780597
 31
0.0
 70
             128
 71
               5
 72
               1
 41
1.0
 42
0.0
  3
tfrom線あり
100
AcDbAlignedDimension
 13
591.45969118642699
 23
-557.39776948409417
 33
0.0
 14
575.02627372316704
 24
-527.39776948409394
 34
0.0
 50
90.0
100
AcDbRotatedDimension
1001
ACAD
1000
DSTYLE
1002
{
1070
             279
1070
               2
1070
             340
1005
36
1070
             174
1070
               0
1070
             147
1040
5.0
1002
}
  0
DIMENSION
  5
16E
100
AcDbEntity
  8
notes
370
               5
390
0
  6
Continuous
 62
               7
100
AcDbDimension
  2
*D15
 10
308.95969118642643
 20
-367.39776948409366
 30
0.0
 11
308.95969118642643
 21
-349.89776948409366
 31
0.0
 71
               5
 72
               1
 41
1.0
 42
0.0
  3
tfrom線あり
100
AcDbAlignedDimension
 13
415.95969118642643
 23
-332.39776948409366
 33
0.0
 14
395.95969118642529
 24
-367.39776948409366
 34
0.0
 50
90.0
100
AcDbRotatedDimension
1001
ACAD
1000
DSTYLE
1002
{
1070
             279
1070
               2
1070
             340
1005
36
1070
             147
1040
5.0
1002
}
  0
DIMENSION
  5
16F
100
AcDbEntity
  8
notes
370
               5
390
0
  6
Continuous
 62
               7
100
AcDbDimension
  2
*D16
 10
-771.04325945277242
 20
883.52442839945866
 30
0.0
 11
-771.04325945277242
 21
813.52442839945866
 31
0.0
 71
               5
 72
               1
 41
1.0
 42
0.0
  3
tfrom線あり
100
AcDbAlignedDimension
 13
-671.04325945277242
 23
743.52442839945866
 33
0.0
 14
-666.04325945277242
 24
883.52442839945866
 34
0.0
 50
90.0
100
AcDbRotatedDimension
1001
ACAD
1000
DSTYLE
1002
{
1070
             279
1070
               2
1070
             340
1005
36
1070
             147
1040
5.0
1002
}
  0
DIMENSION
  5
170
100
AcDbEntity
  8
notes
370
               5
390
0
  6
Continuous
 62
               7
100
AcDbDimension
  2
*D17
 10
-771.04325945277242
 20
743.52442839945888
 30
0.0
 11
-771.04325945277242
 21
613.52442839945888
 31
0.0
 71
               5
 72
               1
 41
1.0
 42
0.0
  3
tfrom線あり
100
AcDbAlignedDimension
 13
-671.21435988280007
 23
483.52442839945894
 33
0.0
 14
-671.04325945277242
 24
743.52442839945888
 34
0.0
 50
90.0
100
AcDbRotatedDimension
1001
ACAD
1000
DSTYLE
1002
{
1070
             279
1070
               2
1070
             340
1005
36
1070
             147
1040
5.0
1002
}
  0
DIMENSION
  5
171
100
AcDbEntity
  8
notes
370
               5
390
0
  6
Continuous
 62
               7
100
AcDbDimension
  2
*D18
 10
-771.0432594527723
 20
-432.3977694840936
 30
0.0
 11
-771.0432594527723
 21
-382.3977694840936
 31
0.0
 71
               5
 72
               1
 41
1.0
 42
0.0
  3
tfrom線あり
100
AcDbAlignedDimension
 13
-664.0432594527723
 23
-332.39776948409366
 33
0.0
 14
-556.5432594527723
 24
-432.3977694840936
 34
0.0
 50
90.0
100
AcDbRotatedDimension
1001
ACAD
1000
DSTYLE
1002
{
1070
             279
1070
               2
1070
             340
1005
36
1070
             147
1040
5.0
1002
}
  0
DIMENSION
  5
172
100
AcDbEntity
  8
notes
370
               5
390
0
  6
Continuous
 62
               7
100
AcDbDimension
  2
*D19
 10
628.95969118642699
 20
-657.39776948409417
 30
0.0
 11
733.95969118642654
 21
-652.39776948409417
 31
0.0
 70
             128
 71
               5
 72
               1
 41
1.0
 42
0.0
  3
tfrom線あり
100
AcDbAlignedDimension
 13
838.95969118642597
 23
-527.39776948409462
 33
0.0
 14
628.95969118642699
 24
-557.39776948409417
 34
0.0
100
AcDbRotatedDimension
1001
ACAD
1000
DSTYLE
1002
{
1070
             279
1070
               2
1070
             340
1005
36
1070
             147
1040
5.0
1002
}
  0
ARC
  5
173
100
AcDbEntity
  8
FAA70-2203
370
              15
390
0
  6
Continuous
 62
               7
100
AcDbCircle
 10
-396.00345714823601
 20
4384.9401919872662
 30
0.0
 40
3901.4464780721341
100
AcDbArc
 50
266.64296410654822
 51
273.35703589345184
  0
LINE
  5
174
100
AcDbEntity
  8
FAA70-2203
370
              15
390
0
  6
Continuous
 62
               7
100
AcDbLine
 10
-171.04325945277259
 20
743.52442839945866
 30
0.0
 11
-621.04325945277242
 21
743.52442839945866
 31
0.0
  0
LINE
  5
175
100
AcDbEntity
  8
FAA70-2203
370
              15
390
0
  6
Continuous
 62
               7
100
AcDbLine
 10
-624.04325945277242
 20
848.52442839945888
 30
0.0
 11
-168.04325945277259
 21
848.52442839945888
 31
0.0
  0
LINE
  5
176
100
AcDbEntity
  8
FAA70-2203
370
              15
390
0
  6
Continuous
 62
               7
100
AcDbLine
 10
-657.36339140903283
 20
855.52442839945888
 30
0.0
 11
-134.72312749651218
 21
855.52442839945888
 31
0.0
  0
ARC
  5
177
100
AcDbEntity
  8
FAA70-2203
370
              15
390
0
  6
Continuous
 62
               7
100
AcDbCircle
 10
-624.04325945277242
 20
841.52442839945888
 30
0.0
 40
7.0
100
AcDbArc
 50
90.0
 51
180.0
  0
LINE
  5
178
100
AcDbEntity
  8
FAA70-2203
370
              15
390
0
  6
Continuous
 62
               7
100
AcDbLine
 10
-631.04325945277242
 20
841.52442839945888
 30
0.0
 11
-631.00345714823436
 21
497.17338003226683
 31
0.0
  0
ARC
  5
179
100
AcDbEntity
  8
FAA70-2203
370
              15
390
0
  6
Continuous
 62
               7
100
AcDbCircle
 10
-624.00345714823436
 20
497.17338003226683
 30
0.0
 40
7.0
100
AcDbArc
 50
180.0
 51
266.23075230222003
  0
ARC
  5
17A
100
AcDbEntity
  8
FAA70-2203
370
              15
390
0
  6
Continuous
 62
               7
100
AcDbCircle
 10
-621.04325945277242
 20
733.52442839945866
 30
0.0
 40
10.0
100
AcDbArc
 50
90.0
 51
180.0
  0
LINE
  5
17B
100
AcDbEntity
  8
FAA70-2203
370
              15
390
0
  6
Continuous
 62
               7
100
AcDbLine
 10
-640.78136769486809
 20
848.52442839945888
 30
0.0
 11
-659.41425160256176
 21
848.52442839945888
 31
0.0
  0
CIRCLE
  5
17C
100
AcDbEntity
  8
FAA70-2203
370
              15
390
0
  6
Continuous
 62
               7
100
AcDbCircle
 10
-396.04325945277287
 20
673.52442839945888
 30
0.0
 40
37.5
  0
CIRCLE
  5
17D
100
AcDbEntity
  8
FAA70-2203
370
              15
390
0
  6
Continuous
 62
               7
100
AcDbCircle
 10
-396.04325945277287
 20
673.52442839945888
 30
0.0
 40
26.0
  0
ARC
  5
17E
100
AcDbEntity
  8
FAA70-2203
370
              15
390
0
  6
Continuous
 62
               7
100
AcDbCircle
 10
-658.50954241151339
 20
845.96361620858056
 30
0.0
 40
9.6292674627790245
100
AcDbArc
 50
83.163999630341138
 51
149.80269476476386
  0
LINE
  5
17F
100
AcDbEntity
  8
FAA70-2203
370
              15
390
0
  6
Continuous
 62
               7
100
AcDbLine
 10
-666.04325945277242
 20
883.52442839945888
 30
0.0
 11
-666.04325945277242
 21
855.52442839945888
 31
0.0
  0
ARC
  5
180
100
AcDbEntity
  8
FAA70-2203
370
              15
390
0
  6
Continuous
 62
               7
100
AcDbCircle
 10
-168.04325945277259
 20
841.52442839945888
 30
0.0
 40
7.0
100
AcDbArc
 50
0.0
 51
90.0
  0
LINE
  5
181
100
AcDbEntity
  8
FAA70-2203
370
              15
390
0
  6
Continuous
 62
               7
100
AcDbLine
 10
-161.04325945277259
 20
841.52442839945888
 30
0.0
 11
-161.04325945277259
 21
497.91879806269304
 31
0.0
  0
ARC
  5
182
100
AcDbEntity
  8
FAA70-2203
370
              15
390
0
  6
Continuous
 62
               7
100
AcDbCircle
 10
-168.00345714823447
 20
497.17338003226683
 30
0.0
 40
7.0000000000000719
100
AcDbArc
 50
273.76924769777071
 51
0.0
  0
ARC
  5
183
100
AcDbEntity
  8
FAA70-2203
370
              15
390
0
  6
Continuous
 62
               7
100
AcDbCircle
 10
-171.04325945277259
 20
733.52442839945866
 30
0.0
 40
10.0
100
AcDbArc
 50
0.0
 51
90.0
  0
LINE
  5
184
100
AcDbEntity
  8
FAA70-2203
370
              15
390
0
  6
Continuous
 62
               7
100
AcDbLine
 10
-151.30515121067691
 20
848.52442839945888
 30
0.0
 11
-132.67226730298324
 21
848.52442839945888
 31
0.0
  0
ARC
  5
185
100
AcDbEntity
  8
FAA70-2203
370
              15
390
0
  6
Continuous
 62
               7
100
AcDbCircle
 10
-133.57697649403161
 20
845.96361620858056
 30
0.0
 40
9.6292674627790067
100
AcDbArc
 50
30.197305235235984
 51
96.836000369658535
  0
LINE
  5
186
100
AcDbEntity
  8
FAA70-2203
370
              15
390
0
  6
Continuous
 62
               7
100
AcDbLine
 10
-126.04325945277257
 20
883.52442839945888
 30
0.0
 11
-126.04325945277257
 21
855.52442839945888
 31
0.0
  0
LWPOLYLINE
  5
187
100
AcDbEntity
  8
FAA70-2203
370
              15
390
0
  6
Continuous
 62
               7
100
AcDbPolyline
 90
        8
 70
             129
 10
-121.04325945277235
 20
878.52442839945866
 42
0.4142135623730984
 10
-126.04325945277235
 20
883.52442839945866
 10
-666.04325945277242
 20
883.52442839945866
 42
0.414213562373095
 10
-671.04325945277242
 20
878.52442839945866
 10
-671.04325945277242
 20
507.21495111990617
 42
0.3950431318699739
 10
-627.13797239471205
 20
460.31694741178427
 42
0.0293927927898176
 10
-164.94854651083278
 20
460.31694741178472
 42
0.3950431318699735
 10
-121.04325945277252
 20
507.2149511199064
  0
CIRCLE
  5
188
100
AcDbEntity
  8
FAA70-2203
370
              15
390
0
  6
Continuous
 62
               7
100
AcDbCircle
 10
-396.04325945277287
 20
808.52442839945866
 30
0.0
 40
17.5
  0
LINE
  5
189
100
AcDbEntity
  8
FAA70-2203
370
              15
390
0
  6
Continuous
 62
               7
100
AcDbLine
 10
-121.04325945277257
 20
-339.39776948409366
 30
0.0
 11
-121.04325945277257
 21
-392.39687908872378
 31
0.0
  0
ARC
  5
18A
100
AcDbEntity
  8
FAA70-2203
370
              15
390
0
  6
Continuous
 62
               7
100
AcDbCircle
 10
-128.04325945277259
 20
-374.39776948409389
 30
0.0
 40
7.0
100
AcDbArc
 50
0.0
 51
90.0
  0
ARC
  5
18B
100
AcDbEntity
  8
FAA70-2203
370
              15
390
0
  6
Continuous
 62
               7
100
AcDbCircle
 10
-128.04325945277259
 20
-339.39776948409366
 30
0.0
 40
7.0
100
AcDbArc
 50
0.0
 51
90.0
  0
ARC
  5
18C
100
AcDbEntity
  8
FAA70-2203
370
              15
390
0
  6
STYLE_12
 62
               7
100
AcDbCircle
 10
-157.46693428551674
 20
-372.35447259625556
 30
0.0
 40
4.9567995746117841
100
AcDbArc
 50
89.642548767429531
 51
161.42832207979137
  0
LINE
  5
18D
100
AcDbEntity
  8
FAA70-2203
370
              15
390
0
  6
STYLE_12
 62
               7
100
AcDbLine
 10
-363.92193910921242
 20
-511.94127397913326
 30
0.0
 11
-369.16457979633242
 21
-517.18391466625235
 31
0.0
  0
LINE
  5
18E
100
AcDbEntity
  8
FAA70-2203
370
              15
390
0
  6
STYLE_12
 62
               7
100
AcDbLine
 10
-370.04325945277287
 20
-519.29776948409392
 30
0.0
 11
-370.04325945277287
 21
-557.39776948409394
 31
0.0
  0
ARC
  5
18F
100
AcDbEntity
  8
FAA70-2203
370
              15
390
0
  6
STYLE_12
 62
               7
100
AcDbCircle
 10
-361.77497837560122
 20
-514.1244957000963
 30
0.0
 40
3.0620087319525107
100
AcDbArc
 50
90.479784165471102
 51
134.52021583459523
  0
ARC
  5
190
100
AcDbEntity
  8
FAA70-2203
370
              15
390
0
  6
STYLE_12
 62
               7
100
AcDbCircle
 10
-367.20061493710205
 20
-519.24005623408902
 30
0.0
 40
2.843391657031729
100
AcDbArc
 50
133.68649966573318
 51
181.31350033426469
  0
LINE
  5
191
100
AcDbEntity
  8
FAA70-2203
370
              15
390
0
  6
Continuous
 62
               7
100
AcDbLine
 10
-358.54325945277287
 20
-534.39776948409394
 30
0.0
 11
-358.54325945277287
 21
-557.39776948409394
 31
0.0
  0
LINE
  5
192
100
AcDbEntity
  8
FAA70-2203
370
              15
390
0
  6
Continuous
 62
               7
100
AcDbLine
 10
-396.04325945277287
 20
-557.39776948409394
 30
0.0
 11
-358.54325945277287
 21
-557.39776948409394
 31
0.0
  0
ARC
  5
193
100
AcDbEntity
  8
FAA70-2203
370
              15
390
0
  6
Continuous
 62
               7
100
AcDbCircle
 10
-351.63543616137895
 20
-534.30559277548787
 30
0.0
 40
6.9084382584440771
100
AcDbArc
 50
89.235501152394789
 51
180.76449884760521
  0
LINE
  5
194
100
AcDbEntity
  8
FAA70-2203
370
              15
390
0
  6
Continuous
 62
               7
100
AcDbLine
 10
-259.13470072174562
 20
-527.39776948409371
 30
0.0
 11
-533.0
 21
-527.39776948409371
 31
0.0
  0
LINE
  5
195
100
AcDbEntity
  8
FAA70-2203
370
              15
390
0
  6
Continuous
 62
               7
100
AcDbLine
 10
-667.0432594527723
 20
-397.39687908872378
 30
0.0
 11
-125.14113586036744
 21
-397.39568143553169
 31
0.0
  0
LINE
  5
196
100
AcDbEntity
  8
FAA70-2203
370
              15
390
0
  6
Continuous
 62
               7
100
AcDbLine
 10
-671.0432594527723
 20
-339.39776948409366
 30
0.0
 11
-671.0432594527723
 21
-392.39687908872378
 31
0.0
  0
LINE
  5
197
100
AcDbEntity
  8
FAA70-2203
370
              15
390
0
  6
Continuous
 62
               7
100
AcDbLine
 10
-664.0432594527723
 20
-367.39776948409389
 30
0.0
 11
-128.04325945277259
 21
-367.39776948409389
 31
0.0
  0
ARC
  5
198
100
AcDbEntity
  8
FAA70-2203
370
              15
390
0
  6
Continuous
 62
               7
100
AcDbCircle
 10
-664.0432594527723
 20
-374.39776948409389
 30
0.0
 40
7.0
100
AcDbArc
 50
90.0
 51
180.0
  0
LINE
  5
199
100
AcDbEntity
  8
FAA70-2203
370
              15
390
0
  6
Continuous
 62
               7
100
AcDbLine
 10
-664.0432594527723
 20
-332.39776948409366
 30
0.0
 11
-128.04325945277259
 21
-332.39776948409366
 31
0.0
  0
ARC
  5
19A
100
AcDbEntity
  8
FAA70-2203
370
              15
390
0
  6
Continuous
 62
               7
100
AcDbCircle
 10
-664.0432594527723
 20
-339.39776948409366
 30
0.0
 40
7.0
100
AcDbArc
 50
90.0
 51
180.0
  0
ARC
  5
19B
100
AcDbEntity
  8
FAA70-2203
370
              15
390
0
  6
STYLE_12
 62
               7
100
AcDbCircle
 10
-634.61958462002792
 20
-372.35447259625556
 30
0.0
 40
4.9567995746119493
100
AcDbArc
 50
18.571677920207787
 51
90.357451232567868
  0
LINE
  5
19C
100
AcDbEntity
  8
FAA70-2203
370
              15
390
0
  6
STYLE_12
 62
               7
100
AcDbLine
 10
-428.16457979633287
 20
-511.94127397913326
 30
0.0
 11
-422.92193910921287
 21
-517.18391466625235
 31
0.0
  0
LINE
  5
19D
100
AcDbEntity
  8
FAA70-2203
370
              15
390
0
  6
STYLE_12
 62
               7
100
AcDbLine
 10
-422.04325945277287
 20
-519.29776948409392
 30
0.0
 11
-422.04325945277287
 21
-557.39776948409394
 31
0.0
  0
ARC
  5
19E
100
AcDbEntity
  8
FAA70-2203
370
              15
390
0
  6
STYLE_12
 62
               7
100
AcDbCircle
 10
-430.31154052994407
 20
-514.1244957000963
 30
0.0
 40
3.0620087319524694
100
AcDbArc
 50
45.479784165404773
 51
89.520215834528912
  0
ARC
  5
19F
100
AcDbEntity
  8
FAA70-2203
370
              15
390
0
  6
STYLE_12
 62
               7
100
AcDbCircle
 10
-424.88590396844347
 20
-519.24005623408902
 30
0.0
 40
2.8433916570315936
100
AcDbArc
 50
358.6864996657352
 51
46.313500334263551
  0
LINE
  5
1A0
100
AcDbEntity
  8
FAA70-2203
370
              15
390
0
  6
Continuous
 62
               7
100
AcDbLine
 10
-433.54325945277287
 20
-534.39776948409394
 30
0.0
 11
-433.54325945277287
 21
-557.39776948409394
 31
0.0
  0
LINE
  5
1A1
100
AcDbEntity
  8
FAA70-2203
370
              15
390
0
  6
Continuous
 62
               7
100
AcDbLine
 10
-396.04325945277287
 20
-557.39776948409394
 30
0.0
 11
-433.54325945277287
 21
-557.39776948409394
 31
0.0
  0
ARC
  5
1A2
100
AcDbEntity
  8
FAA70-2203
370
              15
390
0
  6
Continuous
 62
               7
100
AcDbCircle
 10
-440.4510827441668
 20
-534.30559277548787
 30
0.0
 40
6.9084382584440771
100
AcDbArc
 50
359.23550115239482
 51
90.764498847605253
  0
LINE
  5
1A3
100
AcDbEntity
  8
FAA70-2203
370
              15
390
0
  6
STYLE_12
 62
               7
100
AcDbLine
 10
-454.50484768492231
 20
-511.0625943226932
 30
0.0
 11
-337.58167122062287
 21
-511.0625943226932
 31
0.0
  0
LINE
  5
1A4
100
AcDbEntity
  8
FAA70-2203
370
              15
390
0
  6
STYLE_12
 62
               7
100
AcDbLine
 10
-536.0432594527723
 20
-411.8977694840936
 30
0.0
 11
-536.0432594527723
 21
-452.8977694840936
 31
0.0
  0
LINE
  5
1A5
100
AcDbEntity
  8
FAA70-2203
370
              15
390
0
  6
STYLE_12
 62
               7
100
AcDbLine
 10
-556.5432594527723
 20
-432.3977694840936
 30
0.0
 11
-515.5432594527723
 21
-432.3977694840936
 31
0.0
  0
LINE
  5
1A6
100
AcDbEntity
  8
FAA70-2203
370
              15
390
0
  6
STYLE_12
 62
               7
100
AcDbLine
 10
-256.04325945277287
 20
-411.8977694840936
 30
0.0
 11
-256.04325945277287
 21
-452.8977694840936
 31
0.0
  0
LINE
  5
1A7
100
AcDbEntity
  8
FAA70-2203
370
              15
390
0
  6
STYLE_12
 62
               7
100
AcDbLine
 10
-276.54325945277287
 20
-432.3977694840936
 30
0.0
 11
-235.54325945277287
 21
-432.3977694840936
 31
0.0
  0
LINE
  5
1A8
100
AcDbEntity
  8
FAA70-2203
370
              15
390
0
  6
Continuous
 62
               7
100
AcDbLine
 10
-671.0432594527723
 20
-339.39776948409366
 30
0.0
 11
-671.0432594527723
 21
-393.39687908872378
 31
0.0
  0
ARC
  5
1A9
100
AcDbEntity
  8
FAA70-2203
370
              15
390
0
  6
Continuous
 62
               7
100
AcDbCircle
 10
-667.0432594527723
 20
-393.39687908872378
 30
0.0
 40
4.0
100
AcDbArc
 50
180.0
 51
270.0
  0
ARC
  5
1AA
100
AcDbEntity
  8
FAA70-2203
370
              15
390
0
  6
Continuous
 62
               7
100
AcDbCircle
 10
-666.90713832167114
 20
-404.52117399957444
 30
0.0
 40
7.1255951989361561
100
AcDbArc
 50
12.07564599672828
 51
91.094594982210666
  0
ARC
  5
1AB
100
AcDbEntity
  8
FAA70-2203
370
              15
390
0
  6
Continuous
 62
               7
100
AcDbCircle
 10
-125.04325945277257
 20
-393.39687908872378
 30
0.0
 40
4.0
100
AcDbArc
 50
270.0
 51
0.0
  0
ARC
  5
1AC
100
AcDbEntity
  8
FAA70-2203
370
              15
390
0
  6
Continuous
 62
               7
100
AcDbCircle
 10
-125.17938058387362
 20
-404.52117399957444
 30
0.0
 40
7.1255951989363604
100
AcDbArc
 50
88.905405017790244
 51
167.9243540032721
  0
LINE
  5
1AD
100
AcDbEntity
  8
FAA70-2203
370
              15
390
0
  6
Continuous
 62
               7
100
AcDbLine
 10
415.95969118642643
 20
-367.39776948409366
 30
0.0
 11
804.9033993968942
 21
-367.39776948409366
 31
0.0
  0
LINE
  5
1AE
100
AcDbEntity
  8
FAA70-2203
370
              15
390
0
  6
Continuous
 62
               7
100
AcDbLine
 10
807.09838541701947
 20
-349.83515633865369
 30
0.0
 11
808.48468109565329
 21
-338.54468408025372
 31
0.0
  0
LINE
  5
1AF
100
AcDbEntity
  8
FAA70-2203
370
              15
390
0
  6
Continuous
 62
               7
100
AcDbLine
 10
838.95969118642597
 20
-397.39687908872367
 30
0.0
 11
413.95969118642643
 21
-397.39687908872367
 31
0.0
  0
LINE
  5
1B0
100
AcDbEntity
  8
FAA70-2203
370
              15
390
0
  6
Continuous
 62
               7
100
AcDbLine
 10
408.95969118642643
 20
-374.39776948409366
 30
0.0
 11
408.95969118642643
 21
-392.39687908872367
 31
0.0
  0
ARC
  5
1B1
100
AcDbEntity
  8
FAA70-2203
370
              15
390
0
  6
Continuous
 62
               7
100
AcDbCircle
 10
413.95969118642643
 20
-392.39687908872367
 30
0.0
 40
5.0
100
AcDbArc
 50
180.0
 51
270.0
  0
ARC
  5
1B2
100
AcDbEntity
  8
FAA70-2203
370
              15
390
0
  6
Continuous
 62
               7
100
AcDbCircle
 10
415.95969118642643
 20
-374.39776948409366
 30
0.0
 40
7.0
100
AcDbArc
 50
90.0
 51
180.0
  0
LINE
  5
1B3
100
AcDbEntity
  8
FAA70-2203
370
              15
390
0
  6
Continuous
 62
               7
100
AcDbLine
 10
424.45969118642734
 20
-397.39687908872367
 30
0.0
 11
419.45969118642734
 21
-397.39687908872367
 31
0.0
  0
LINE
  5
1B4
100
AcDbEntity
  8
FAA70-2203
370
              15
390
0
  6
Continuous
 62
               7
100
AcDbLine
 10
575.02627372316704
 20
-527.39776948409394
 30
0.0
 11
838.959748304404
 21
-527.39776948409394
 31
0.0
  0
ARC
  5
1B5
100
AcDbEntity
  8
FAA70-2203
370
              15
390
0
  6
STYLE_12
 62
               7
100
AcDbCircle
 10
801.2571962071313
 20
-379.35250412328952
 30
0.0
 40
3.0317202005527615
100
AcDbArc
 50
269.52479767174134
 51
350.09112165726117
  0
LINE
  5
1B6
100
AcDbEntity
  8
FAA70-2203
370
              15
390
0
  6
STYLE_12
 62
               7
100
AcDbLine
 10
801.30551539275802
 20
-382.39776948409366
 30
0.0
 11
705.45969118642722
 21
-382.39776948409366
 31
0.0
  0
LINE
  5
1B7
100
AcDbEntity
  8
FAA70-2203
370
              15
390
0
  6
STYLE_12
 62
               7
100
AcDbLine
 10
698.95969118642722
 20
-388.89776948409366
 30
0.0
 11
698.95969118642722
 21
-481.07472959685356
 31
0.0
  0
ARC
  5
1B8
100
AcDbEntity
  8
FAA70-2203
370
              15
390
0
  6
STYLE_12
 62
               7
100
AcDbCircle
 10
683.95969118642722
 20
-496.07472959685367
 30
0.0
 40
14.999999999999829
100
AcDbArc
 50
270.0
 51
0.0
  0
ARC
  5
1B9
100
AcDbEntity
  8
FAA70-2203
370
              15
390
0
  6
STYLE_12
 62
               7
100
AcDbCircle
 10
705.45969118642722
 20
-388.89776948409366
 30
0.0
 40
6.5
100
AcDbArc
 50
90.0
 51
180.0
  0
LINE
  5
1BA
100
AcDbEntity
  8
FAA70-2203
370
              15
390
0
  6
Continuous
 62
               7
100
AcDbLine
 10
804.24369124555983
 20
-379.87420783219073
 30
0.0
 11
808.48581644278465
 21
-338.53553700094011
 31
0.0
  0
LINE
  5
1BB
100
AcDbEntity
  8
FAA70-2203
370
              15
390
0
  6
Continuous
 62
               7
100
AcDbLine
 10
815.43251027114593
 20
-332.39776948409366
 30
0.0
 11
838.95969118642597
 21
-332.39776948409366
 31
0.0
  0
LINE
  5
1BC
100
AcDbEntity
  8
FAA70-2203
370
              15
390
0
  6
Continuous
 62
               7
100
AcDbLine
 10
838.95969118642597
 20
-332.39776948409366
 30
0.0
 11
838.95969118642597
 21
-527.39776948409462
 31
0.0
  0
ARC
  5
1BD
100
AcDbEntity
  8
FAA70-2203
370
              15
390
0
  6
Continuous
 62
               7
100
AcDbCircle
 10
815.43251027114593
 20
-339.39776948409366
 30
0.0
 40
7.0
100
AcDbArc
 50
90.0
 51
172.92456175796406
  0
ARC
  5
1BE
100
AcDbEntity
  8
FAA70-2203
370
              15
390
0
  6
STYLE_12
 62
               7
100
AcDbCircle
 10
444.23770382158818
 20
-372.25152417516546
 30
0.0
 40
4.8590037576929488
100
AcDbArc
 50
1.5844633431615989
 51
92.663447615034983
  0
LINE
  5
1BF
100
AcDbEntity
  8
FAA70-2203
370
              15
390
0
  6
Continuous
 62
               7
100
AcDbLine
 10
633.69073054914236
 20
-557.39776948409417
 30
0.0
 11
614.4596911864279
 21
-557.39776948409417
 31
0.0
  0
LINE
  5
1C0
100
AcDbEntity
  8
FAA70-2203
370
              15
390
0
  6
STYLE_12
 62
               7
100
AcDbLine
 10
596.83837084286654
 20
-511.94127397913348
 30
0.0
 11
602.08101152998654
 21
-517.18391466625258
 31
0.0
  0
LINE
  5
1C1
100
AcDbEntity
  8
FAA70-2203
370
              15
390
0
  6
STYLE_12
 62
               7
100
AcDbLine
 10
602.95969118642699
 20
-519.29776948409415
 30
0.0
 11
602.95969118642699
 21
-557.39776948409417
 31
0.0
  0
ARC
  5
1C2
100
AcDbEntity
  8
FAA70-2203
370
              15
390
0
  6
STYLE_12
 62
               7
100
AcDbCircle
 10
594.69141010925534
 20
-514.12449570009653
 30
0.0
 40
3.0620087319524694
100
AcDbArc
 50
45.479784165404773
 51
89.520215834528912
  0
ARC
  5
1C3
100
AcDbEntity
  8
FAA70-2203
370
              15
390
0
  6
STYLE_12
 62
               7
100
AcDbCircle
 10
600.11704667075594
 20
-519.24005623408925
 30
0.0
 40
2.8433916570320479
100
AcDbArc
 50
358.68649966573537
 51
46.313500334263495
  0
LINE
  5
1C4
100
AcDbEntity
  8
FAA70-2203
370
              15
390
0
  6
Continuous
 62
               7
100
AcDbLine
 10
591.45969118642699
 20
-534.39776948409417
 30
0.0
 11
591.45969118642699
 21
-557.39776948409417
 31
0.0
  0
LINE
  5
1C5
100
AcDbEntity
  8
FAA70-2203
370
              15
390
0
  6
Continuous
 62
               7
100
AcDbLine
 10
628.95969118642699
 20
-557.39776948409417
 30
0.0
 11
591.45969118642699
 21
-557.39776948409417
 31
0.0
  0
ARC
  5
1C6
100
AcDbEntity
  8
FAA70-2203
370
              15
390
0
  6
Continuous
 62
               7
100
AcDbCircle
 10
584.55186789503307
 20
-534.30559277548809
 30
0.0
 40
6.9084382584440771
100
AcDbArc
 50
359.23550115239482
 51
90.764498847605253
  0
LINE
  5
1C7
100
AcDbEntity
  8
FAA70-2203
370
              15
390
0
  6
STYLE_12
 62
               7
100
AcDbLine
 10
661.08101152998699
 20
-511.94127397913348
 30
0.0
 11
655.83837084286699
 21
-517.18391466625258
 31
0.0
  0
LINE
  5
1C8
100
AcDbEntity
  8
FAA70-2203
370
              15
390
0
  6
STYLE_12
 62
               7
100
AcDbLine
 10
654.95969118642699
 20
-519.29776948409415
 30
0.0
 11
654.95969118642699
 21
-557.39776948409417
 31
0.0
  0
ARC
  5
1C9
100
AcDbEntity
  8
FAA70-2203
370
              15
390
0
  6
STYLE_12
 62
               7
100
AcDbCircle
 10
663.22797226359819
 20
-514.12449570009653
 30
0.0
 40
3.0620087319525107
100
AcDbArc
 50
90.479784165471102
 51
134.52021583459523
  0
ARC
  5
1CA
100
AcDbEntity
  8
FAA70-2203
370
              15
390
0
  6
STYLE_12
 62
               7
100
AcDbCircle
 10
657.80233570209759
 20
-519.24005623408925
 30
0.0
 40
2.8433916570318862
100
AcDbArc
 50
133.68649966573648
 51
181.3135003342648
  0
LINE
  5
1CB
100
AcDbEntity
  8
FAA70-2203
370
              15
390
0
  6
Continuous
 62
               7
100
AcDbLine
 10
666.45969118642699
 20
-534.39776948409417
 30
0.0
 11
666.45969118642699
 21
-557.39776948409417
 31
0.0
  0
LINE
  5
1CC
100
AcDbEntity
  8
FAA70-2203
370
              15
390
0
  6
Continuous
 62
               7
100
AcDbLine
 10
628.95969118642699
 20
-557.39776948409417
 30
0.0
 11
666.45969118642699
 21
-557.39776948409417
 31
0.0
  0
ARC
  5
1CD
100
AcDbEntity
  8
FAA70-2203
370
              15
390
0
  6
Continuous
 62
               7
100
AcDbCircle
 10
673.36751447782115
 20
-534.30559277548809
 30
0.0
 40
6.9084382584440718
100
AcDbArc
 50
89.235501152398555
 51
180.76449884760521
  0
LINE
  5
1CE
100
AcDbEntity
  8
FAA70-2203
370
              15
390
0
  6
STYLE_12
 62
               7
100
AcDbLine
 10
683.95969118642722
 20
-511.0747295968535
 30
0.0
 11
662.95443215673538
 21
-511.0747295968535
 31
0.0
  0
ARC
  5
1CF
100
AcDbEntity
  8
FAA70-2203
370
              15
390
0
  6
Continuous
 62
               7
100
AcDbCircle
 10
575.81912428518297
 20
-367.75566887580737
 30
0.0
 40
159.63344481445185
100
AcDbArc
 50
190.69698061199676
 51
269.69799102721203
  0
CIRCLE
  5
1D0
100
AcDbEntity
  8
FAA70-2203
370
              15
390
0
  6
STYLE_12
 62
               7
100
AcDbCircle
 10
-296.06227466404482
 20
808.52442839945866
 30
0.0
 40
17.5
  0
CIRCLE
  5
1D1
100
AcDbEntity
  8
FAA70-2203
370
              15
390
0
  6
STYLE_12
 62
               7
100
AcDbCircle
 10
-496.06227466404425
 20
808.52442839945866
 30
0.0
 40
17.499999999999886
  0
CIRCLE
  5
1D2
100
AcDbEntity
  8
FAA70-2203
370
              15
390
0
  6
STYLE_12
 62
               7
100
AcDbCircle
 10
-256.04325945277287
 20
-432.3977694840936
 30
0.0
 40
10.0
  0
CIRCLE
  5
1D3
100
AcDbEntity
  8
FAA70-2203
370
              15
390
0
  6
STYLE_12
 62
               7
100
AcDbCircle
 10
-536.0432594527723
 20
-432.3977694840936
 30
0.0
 40
10.0
  0
ARC
  5
1D4
100
AcDbEntity
  8
FAA70-2203
370
              15
390
0
  6
STYLE_12
 62
               7
100
AcDbCircle
 10
-360.44638685658094
 20
-302.65790502901967
 30
0.0
 40
209.65521634508841
100
AcDbArc
 50
276.26105393564984
 51
341.04022537275245
  0
ARC
  5
1D5
100
AcDbEntity
  8
FAA70-2203
370
              15
390
0
  6
STYLE_12
 62
               7
100
AcDbCircle
 10
-431.64013204896435
 20
-302.65790502901967
 30
0.0
 40
209.65521634508755
100
AcDbArc
 50
198.95977462724764
 51
263.7389460643501
  0
LINE
  5
1D6
100
AcDbEntity
  8
FAA70-2203
370
              15
390
0
  6
Continuous
 62
               7
100
AcDbLine
 10
746.45969118642597
 20
-375.39776948409366
 30
0.0
 11
746.45969118642597
 21
-390.39776948409366
 31
0.0
  0
LINE
  5
1D7
100
AcDbEntity
  8
FAA70-2203
370
              15
390
0
  6
Continuous
 62
               7
100
AcDbLine
 10
781.45969118642597
 20
-375.39776948409366
 30
0.0
 11
781.45969118642597
 21
-390.39776948409366
 31
0.0
  0
ARC
  5
1D8
100
AcDbEntity
  8
FAA70-2203
370
               5
390
0
  6
STYLE_12
 62
               7
100
AcDbCircle
 10
604.79378142684811
 20
-354.71902283770299
 30
0.0
 40
156.66797008600037
100
AcDbArc
 50
186.37590918600978
 51
266.31224572811271
  0
DIMENSION
  5
1D9
100
AcDbEntity
  8
FAA70-2203
370
               5
390
0
  6
Continuous
 62
               7
100
AcDbDimension
  2
*D20
 10
726.0
 20
-367.39776948409366
 30
0.0
 11
731.0
 21
-342.0
 31
0.0
 70
             128
 71
               5
 72
               1
 41
1.0
 42
0.0
  3
tfrom線あり
100
AcDbAlignedDimension
 13
722.0
 23
-382.39776948409366
 33
0.0
 14
722.0
 24
-367.39776948409366
 34
0.0
 50
90.0
100
AcDbRotatedDimension
1001
ACAD
1000
DSTYLE
1002
{
1070
             279
1070
               2
1070
             340
1005
36
1070
             174
1070
               0
1070
             147
1040
5.0
1002
}
  0
LINE
  5
1DA
100
AcDbEntity
  8
FAA70-2203
370
               5
390
0
  6
STYLE_12
 62
               7
100
AcDbLine
 10
596.83837084286654
 20
-511.94127397913348
 30
0.0
 11
663.20233187354563
 21
-511.06259432269206
 31
0.0
  0
ARC
  5
1DB
100
AcDbEntity
  8
FAA70-2203
370
               5
390
0
  6
Continuous
 62
               7
100
AcDbCircle
 10
-470.6304443410869
 20
-336.7725960247497
 30
0.0
 40
200.56898621046875
100
AcDbArc
 50
199.28999561492773
 51
251.88271846879667
  0
ARC
  5
1DC
100
AcDbEntity
  8
FAA70-2203
370
               5
390
0
  6
Continuous
 62
               7
100
AcDbCircle
 10
-321.50425638065872
 20
-336.7725960247497
 30
0.0
 40
200.56898621046889
100
AcDbArc
 50
288.11728153120328
 51
340.71000438507224
  0
ENDSEC
  0
SECTION
  2
OBJECTS
  0
DICTIONARY
  5
19
100
AcDbDictionary
280
               0
281
               1
  3
ACAD_GROUP
350
1A
  3
ACAD_MLINESTYLE
350
1B
  3
ACAD_LAYOUT
350
1E
  3
ACAD_PLOTSETTINGS
350
22
  3
ACAD_PLOTSTYLENAME
350
1F
  0
DICTIONARY
  5
1A
102
{ACAD_REACTORS
330
19
102
}
100
AcDbDictionary
280
               0
281
               1
  0
DICTIONARY
  5
1B
102
{ACAD_REACTORS
330
19
102
}
100
AcDbDictionary
280
               0
281
               1
  3
Standard
350
1C
  0
MLINESTYLE
  5
1C
102
{ACAD_REACTORS
330
1B
102
}
100
AcDbMlineStyle
  2
Standard
 70
               0
  3

 62
               0
 51
90.0
 52
90.0
 71
               2
 49
0.5
 62
             256
  6
ByLayer
 49
-0.5
 62
             256
  6
ByLayer
  0
ACDBDICTIONARYWDFLT
  5
1F
102
{ACAD_REACTORS
330
19
102
}
100
AcDbDictionary
281
               1
  3
Normal
350
1D
100
AcDbDictionaryWithDefault
340
1D
  0
ACDBPLACEHOLDER
  5
1D
102
{ACAD_REACTORS
330
1F
102
}
  0
LAYOUT
  5
20
102
{ACAD_REACTORS
330
1E
102
}
100
AcDbPlotSettings
  1

  2

  4

  6

 40
0.0
 41
0.0
 42
0.0
 43
0.0
 44
0.0
 45
0.0
 46
0.0
 47
0.0
 48
0.0
 49
0.0
140
0.0
141
0.0
142
1.0
143
1.0
 70
            1024
 72
               0
 73
               0
 74
               0
  7

 75
               0
147
1.0
148
0.0
149
0.0
100
AcDbLayout
  1
Model
 70
               0
 71
               0
 10
0.0
 20
0.0
 11
0.0
 21
0.0
 12
0.0
 22
0.0
 32
0.0
 14
0.0
 24
0.0
 34
0.0
 15
0.0
 25
0.0
 35
0.0
146
0.0
 13
0.0
 23
0.0
 33
0.0
 16
0.0
 26
0.0
 36
0.0
 17
0.0
 27
0.0
 37
0.0
 76
               0
330
A
331
0
345
0
346
0
  0
LAYOUT
  5
21
102
{ACAD_REACTORS
330
1E
102
}
100
AcDbPlotSettings
  1

  2

  4

  6

 40
0.0
 41
0.0
 42
0.0
 43
0.0
 44
0.0
 45
0.0
 46
0.0
 47
0.0
 48
0.0
 49
0.0
140
0.0
141
0.0
142
1.0
143
1.0
 70
               0
 72
               0
 73
               0
 74
               0
  7

 75
               0
147
1.0
148
0.0
149
0.0
100
AcDbLayout
  1
Layout1
 70
               0
 71
               0
 10
0.0
 20
0.0
 11
0.0
 21
0.0
 12
0.0
 22
0.0
 32
0.0
 14
0.0
 24
0.0
 34
0.0
 15
0.0
 25
0.0
 35
0.0
146
0.0
 13
0.0
 23
0.0
 33
0.0
 16
0.0
 26
0.0
 36
0.0
 17
0.0
 27
0.0
 37
0.0
 76
               0
330
B
331
0
345
0
346
0
  0
DICTIONARY
  5
1E
102
{ACAD_REACTORS
330
19
102
}
100
AcDbDictionary
280
               0
281
               1
  3
Layout1
350
21
  3
Model
350
20
  0
DICTIONARY
  5
22
102
{ACAD_REACTORS
330
19
102
}
100
AcDbDictionary
280
               0
281
               1
  0
ENDSEC
  0
EOF
