  0
SECTION
  2
HEADER
  9
$ACADVER
  1
AC1021
  9
$ACADMAINTVER
 70
    25
  9
$DWGCODEPAGE
  3
ANSI_932
  9
$LASTSAVEDBY
  1
Shimosaki
  9
$INSBASE
 10
0.0
 20
0.0
 30
0.0
  9
$EXTMIN
 10
-975.0000000002412
 20
-1431.525522471113
 30
-14.42861111111111
  9
$EXTMAX
 10
975.0000000002412
 20
1405.9972926413
 30
14.42861111111111
  9
$LIMMIN
 10
-1050.0
 20
-1497.698190377274
  9
$LIMMAX
 10
1050.0
 20
1472.301809622726
  9
$ORTHOMODE
 70
     0
  9
$REGENMODE
 70
     1
  9
$FILLMODE
 70
     1
  9
$QTEXTMODE
 70
     0
  9
$MIRRTEXT
 70
     1
  9
$LTSCALE
 40
50.8
  9
$ATTMODE
 70
     1
  9
$TEXTSIZE
 40
0.0
  9
$TRACEWID
 40
1.0
  9
$TEXTSTYLE
  7
Standard
  9
$CLAYER
  8
FAA70-2215
  9
$CELTYPE
  6
Continuous
  9
$CECOLOR
 62
   256
  9
$CELTSCALE
 40
1.0
  9
$DISPSILH
 70
     0
  9
$DIMSCALE
 40
1.0
  9
$DIMASZ
 40
31.75
  9
$DIMEXO
 40
0.0
  9
$DIMDLI
 40
6.99999999999994
  9
$DIMRND
 40
0.0
  9
$DIMDLE
 40
0.0
  9
$DIMEXE
 40
19.9999999999962
  9
$DIMTP
 40
0.0
  9
$DIMTM
 40
0.0
  9
$DIMTXT
 40
24.4326171875
  9
$DIMCEN
 40
0.0
  9
$DIMTSZ
 40
0.0
  9
$DIMTOL
 70
     0
  9
$DIMLIM
 70
     0
  9
$DIMTIH
 70
     0
  9
$DIMTOH
 70
     0
  9
$DIMSE1
 70
     0
  9
$DIMSE2
 70
     0
  9
$DIMTAD
 70
     1
  9
$DIMZIN
 70
    11
  9
$DIMBLK
  1
VW_FILLEDARROW
  9
$DIMASO
 70
     1
  9
$DIMSHO
 70
     1
  9
$DIMPOST
  1
<>
  9
$DIMAPOST
  1
[]
  9
$DIMALT
 70
     0
  9
$DIMALTD
 70
     1
  9
$DIMALTF
 40
1.0
  9
$DIMLFAC
 40
1.0
  9
$DIMTOFL
 70
     0
  9
$DIMTVP
 40
0.0
  9
$DIMTIX
 70
     1
  9
$DIMSOXD
 70
     0
  9
$DIMSAH
 70
     0
  9
$DIMBLK1
  1

  9
$DIMBLK2
  1

  9
$DIMSTYLE
  2
JIS
  9
$DIMCLRD
 70
     0
  9
$DIMCLRE
 70
     0
  9
$DIMCLRT
 70
     0
  9
$DIMTFAC
 40
1.0
  9
$DIMGAP
 40
1.00000000000108
  9
$DIMJUST
 70
     0
  9
$DIMSD1
 70
     0
  9
$DIMSD2
 70
     0
  9
$DIMTOLJ
 70
     1
  9
$DIMTZIN
 70
    11
  9
$DIMALTZ
 70
    11
  9
$DIMALTTZ
 70
    11
  9
$DIMUPT
 70
     0
  9
$DIMDEC
 70
     1
  9
$DIMTDEC
 70
     1
  9
$DIMALTU
 70
     2
  9
$DIMALTTD
 70
     2
  9
$DIMTXSTY
  7
ＭＳ ゴシック
  9
$DIMAUNIT
 70
     0
  9
$DIMADEC
 70
     2
  9
$DIMALTRND
 40
0.0
  9
$DIMAZIN
 70
     0
  9
$DIMDSEP
 70
    46
  9
$DIMATFIT
 70
     0
  9
$DIMFRAC
 70
     2
  9
$DIMLDRBLK
  1

  9
$DIMLUNIT
 70
     2
  9
$DIMLWD
 70
    -2
  9
$DIMLWE
 70
    -2
  9
$DIMTMOVE
 70
     0
  9
$DIMFXL
 40
1.0
  9
$DIMFXLON
 70
     0
  9
$DIMJOGANG
 40
0.7853981633974483
  9
$DIMTFILL
 70
     0
  9
$DIMTFILLCLR
 70
     0
  9
$DIMARCSYM
 70
     0
  9
$DIMLTYPE
  6

  9
$DIMLTEX1
  6

  9
$DIMLTEX2
  6

  9
$LUNITS
 70
     2
  9
$LUPREC
 70
     4
  9
$SKETCHINC
 40
0.1
  9
$FILLETRAD
 40
0.0
  9
$AUNITS
 70
     0
  9
$AUPREC
 70
     0
  9
$MENU
  1
acad
  9
$ELEVATION
 40
0.0
  9
$PELEVATION
 40
0.0
  9
$THICKNESS
 40
0.0
  9
$LIMCHECK
 70
     0
  9
$CHAMFERA
 40
0.0
  9
$CHAMFERB
 40
0.0
  9
$CHAMFERC
 40
0.0
  9
$CHAMFERD
 40
0.0
  9
$SKPOLY
 70
     0
  9
$TDCREATE
 40
2447893.375
  9
$TDUCREATE
 40
0.0
  9
$TDUPDATE
 40
2456931.594027836
  9
$TDUUPDATE
 40
2456931.219027836
  9
$TDINDWG
 40
0.0015457407
  9
$TDUSRTIMER
 40
2456931.217482292
  9
$USRTIMER
 70
     1
  9
$ANGBASE
 50
0.0
  9
$ANGDIR
 70
     0
  9
$PDMODE
 70
     1
  9
$PDSIZE
 40
-2.0
  9
$PLINEWID
 40
0.0
  9
$SPLFRAME
 70
     0
  9
$SPLINETYPE
 70
     6
  9
$SPLINESEGS
 70
     8
  9
$HANDSEED
  5
23F
  9
$SURFTAB1
 70
     6
  9
$SURFTAB2
 70
     6
  9
$SURFTYPE
 70
     6
  9
$SURFU
 70
     6
  9
$SURFV
 70
     6
  9
$UCSBASE
  2

  9
$UCSNAME
  2

  9
$UCSORG
 10
0.0
 20
0.0
 30
0.0
  9
$UCSXDIR
 10
1.0
 20
0.0
 30
0.0
  9
$UCSYDIR
 10
0.0
 20
1.0
 30
0.0
  9
$UCSORTHOREF
  2

  9
$UCSORTHOVIEW
 70
     0
  9
$UCSORGTOP
 10
0.0
 20
0.0
 30
0.0
  9
$UCSORGBOTTOM
 10
0.0
 20
0.0
 30
0.0
  9
$UCSORGLEFT
 10
0.0
 20
0.0
 30
0.0
  9
$UCSORGRIGHT
 10
0.0
 20
0.0
 30
0.0
  9
$UCSORGFRONT
 10
0.0
 20
0.0
 30
0.0
  9
$UCSORGBACK
 10
0.0
 20
0.0
 30
0.0
  9
$PUCSBASE
  2

  9
$PUCSNAME
  2

  9
$PUCSORG
 10
0.0
 20
0.0
 30
0.0
  9
$PUCSXDIR
 10
1.0
 20
0.0
 30
0.0
  9
$PUCSYDIR
 10
0.0
 20
1.0
 30
0.0
  9
$PUCSORTHOREF
  2

  9
$PUCSORTHOVIEW
 70
     0
  9
$PUCSORGTOP
 10
0.0
 20
0.0
 30
0.0
  9
$PUCSORGBOTTOM
 10
0.0
 20
0.0
 30
0.0
  9
$PUCSORGLEFT
 10
0.0
 20
0.0
 30
0.0
  9
$PUCSORGRIGHT
 10
0.0
 20
0.0
 30
0.0
  9
$PUCSORGFRONT
 10
0.0
 20
0.0
 30
0.0
  9
$PUCSORGBACK
 10
0.0
 20
0.0
 30
0.0
  9
$USERI1
 70
     0
  9
$USERI2
 70
     0
  9
$USERI3
 70
     0
  9
$USERI4
 70
     0
  9
$USERI5
 70
     0
  9
$USERR1
 40
0.0
  9
$USERR2
 40
0.0
  9
$USERR3
 40
0.0
  9
$USERR4
 40
0.0
  9
$USERR5
 40
0.0
  9
$WORLDVIEW
 70
     1
  9
$SHADEDGE
 70
     3
  9
$SHADEDIF
 70
    70
  9
$TILEMODE
 70
     1
  9
$MAXACTVP
 70
    64
  9
$PINSBASE
 10
0.0
 20
0.0
 30
0.0
  9
$PLIMCHECK
 70
     0
  9
$PEXTMIN
 10
1.000000000000000E+20
 20
1.000000000000000E+20
 30
1.000000000000000E+20
  9
$PEXTMAX
 10
-1.000000000000000E+20
 20
-1.000000000000000E+20
 30
-1.000000000000000E+20
  9
$PLIMMIN
 10
0.0
 20
0.0
  9
$PLIMMAX
 10
0.0
 20
0.0
  9
$UNITMODE
 70
     0
  9
$VISRETAIN
 70
     0
  9
$PLINEGEN
 70
     1
  9
$PSLTSCALE
 70
     0
  9
$TREEDEPTH
 70
  3020
  9
$CMLSTYLE
  2
Standard
  9
$CMLJUST
 70
     0
  9
$CMLSCALE
 40
1.0
  9
$PROXYGRAPHICS
 70
     0
  9
$MEASUREMENT
 70
     1
  9
$CELWEIGHT
370
     0
  9
$ENDCAPS
280
     0
  9
$JOINSTYLE
280
     0
  9
$LWDISPLAY
290
     1
  9
$INSUNITS
 70
     4
  9
$HYPERLINKBASE
  1

  9
$STYLESHEET
  1

  9
$XEDIT
290
     1
  9
$CEPSNTYPE
380
     0
  9
$PSTYLEMODE
290
     1
  9
$FINGERPRINTGUID
  2

  9
$VERSIONGUID
  2

  9
$EXTNAMES
290
     1
  9
$PSVPSCALE
 40
0.0
  9
$OLESTARTUP
290
     0
  9
$SORTENTS
280
   127
  9
$INDEXCTL
280
     0
  9
$HIDETEXT
280
     1
  9
$XCLIPFRAME
290
     0
  9
$HALOGAP
280
     0
  9
$OBSCOLOR
 70
   257
  9
$OBSLTYPE
280
     0
  9
$INTERSECTIONDISPLAY
280
     0
  9
$INTERSECTIONCOLOR
 70
   257
  9
$DIMASSOC
280
     2
  9
$PROJECTNAME
  1

  9
$CAMERADISPLAY
290
     0
  9
$LENSLENGTH
 40
50.0
  9
$CAMERAHEIGHT
 40
0.0
  9
$STEPSPERSEC
 40
2.0
  9
$STEPSIZE
 40
6.0
  9
$3DDWFPREC
 40
2.0
  9
$PSOLWIDTH
 40
0.25
  9
$PSOLHEIGHT
 40
4.0
  9
$LOFTANG1
 40
1.570796326794897
  9
$LOFTANG2
 40
1.570796326794897
  9
$LOFTMAG1
 40
0.0
  9
$LOFTMAG2
 40
0.0
  9
$LOFTPARAM
 70
     7
  9
$LOFTNORMALS
280
     1
  9
$LATITUDE
 40
37.795
  9
$LONGITUDE
 40
-122.394
  9
$NORTHDIRECTION
 40
0.0
  9
$TIMEZONE
 70
 -8000
  9
$LIGHTGLYPHDISPLAY
280
     1
  9
$TILEMODELIGHTSYNCH
280
     1
  9
$SOLIDHIST
280
     1
  9
$SHOWHIST
280
     1
  9
$DWFFRAME
280
     2
  9
$DGNFRAME
280
     2
  9
$REALWORLDSCALE
290
     1
  9
$INTERFERECOLOR
 62
   256
  9
$CSHADOW
280
     0
  9
$SHADOWPLANELOCATION
 40
0.0
  0
ENDSEC
  0
SECTION
  2
CLASSES
  0
CLASS
  1
LWPOLYLINE
  2
AcDbPolyline
  3
ObjectDBX Classes
 90
        0
 91
        1
280
     0
281
     1
  0
CLASS
  1
IMAGE
  2
AcDbRasterImage
  3
ISM
 90
      127
 91
        5
280
     0
281
     1
  0
CLASS
  1
OLE2FRAME
  2
AcDbOle2Frame
  3
ObjectDBX Classes
 90
        0
 91
        1
280
     0
281
     1
  0
CLASS
  1
HATCH
  2
AcDbHatch
  3
ObjectDBX Classes
 90
        0
 91
        1
280
     0
281
     1
  0
CLASS
  1
DICTIONARYVAR
  2
AcDbDictionaryVar
  3
ObjectDBX Classes
 90
        0
 91
        4
280
     0
281
     0
  0
CLASS
  1
RASTERVARIABLES
  2
AcDbRasterVariables
  3
ISM
 90
        0
 91
        5
280
     0
281
     0
  0
CLASS
  1
IMAGEDEF
  2
AcDbRasterImageDef
  3
ISM
 90
        0
 91
        4
280
     0
281
     0
  0
CLASS
  1
IMAGEDEF_REACTOR
  2
AcDbRasterImageDefReactor
  3
ISM
 90
        1
 91
        4
280
     0
281
     0
  0
CLASS
  1
IDBUFFER
  2
AcDbIdBuffer
  3
ObjectDBX Classes
 90
        0
 91
        4
280
     0
281
     0
  0
CLASS
  1
SPATIAL_FILTER
  2
AcDbSpatialFilter
  3
ObjectDBX Classes
 90
        0
 91
        4
280
     0
281
     0
  0
CLASS
  1
XRECORD
  2
AcDbXrecord
  3
ObjectDBX Classes
 90
        0
 91
        1
280
     0
281
     0
  0
CLASS
  1
SORTENTSTABLE
  2
AcDbSortentsTable
  3
ObjectDBX Classes
 90
        0
 91
        4
280
     0
281
     0
  0
CLASS
  1
LAYER_INDEX
  2
AcDbLayerIndex
  3
ObjectDBX Classes
 90
        0
 91
        4
280
     0
281
     0
  0
CLASS
  1
SPATIAL_INDEX
  2
AcDbSpatialIndex
  3
AutoCAD 2000
 90
        0
 91
        4
280
     0
281
     0
  0
CLASS
  1
OBJECT_PTR
  2
CAseDLPNTableRecord
  3
ASE-LPNTableRecord
 90
        1
 91
        4
280
     0
281
     0
  0
CLASS
  1
LAYOUT
  2
AcDbLayout
  3
ObjectDBX Classes
 90
        0
 91
        1
280
     0
281
     0
  0
CLASS
  1
PLOTSETTINGS
  2
AcDbPlotSettings
  3
ObjectDBX Classes
 90
        0
 91
        4
280
     0
281
     0
  0
CLASS
  1
ACDBDICTIONARYWDFLT
  2
AcDbDictionaryWithDefault
  3
ObjectDBX Classes
 90
        0
 91
        5
280
     0
281
     0
  0
CLASS
  1
ACDBPLACEHOLDER
  2
AcDbPlaceHolder
  3
ObjectDBX Classes
 90
        0
 91
        1
280
     0
281
     0
  0
CLASS
  1
SCALE
  2
AcDbScale
  3
ObjectDBX Classes
 90
     1153
 91
        5
280
     0
281
     0
  0
CLASS
  1
VISUALSTYLE
  2
AcDbVisualStyle
  3
ObjectDBX Classes
 90
     4095
 91
        5
280
     0
281
     0
  0
CLASS
  1
MATERIAL
  2
AcDbMaterial
  3
ObjectDBX Classes
 90
     1153
 91
        5
280
     0
281
     0
  0
CLASS
  1
TABLESTYLE
  2
AcDbTableStyle
  3
ObjectDBX Classes
 90
     4095
 91
        5
280
     0
281
     0
  0
CLASS
  1
SUN
  2
AcDbSun
  3
SCENEOE
 90
     1153
 91
        5
280
     0
281
     0
  0
CLASS
  1
CELLSTYLEMAP
  2
AcDbCellStyleMap
  3
ObjectDBX Classes
 90
     1152
 91
        4
280
     0
281
     0
  0
ENDSEC
  0
SECTION
  2
TABLES
  0
TABLE
  2
VPORT
  5
7
330
0
100
AcDbSymbolTable
 70
     1
  0
VPORT
  5
15
330
7
100
AcDbSymbolTableRecord
100
AcDbViewportTableRecord
  2
*ACTIVE
 70
     0
 10
0.0
 20
0.0
 11
1.0
 21
1.0
 12
1055.497180449074
 22
-510.8763444088279
 13
0.0
 23
0.0
 14
1.0
 24
1.0
 15
0.0
 25
0.0
 16
0.0
 26
0.0
 36
1.0
 17
0.0
 27
0.0
 37
0.0
 40
4433.629398613141
 41
2.184105960264901
 42
50.0
 43
0.0
 44
0.0
 50
0.0
 51
0.0
 71
    16
 72
  2000
 73
     1
 74
     1
 75
     0
 76
     0
 77
     0
 78
     0
281
     0
 65
     0
110
0.0
120
0.0
130
0.0
111
1.0
121
0.0
131
0.0
112
0.0
122
1.0
132
0.0
 79
     0
146
0.0
348
20F
 60
     3
 61
     5
292
     1
282
     1
141
0.0
142
0.0
 63
   250
361
22A
  0
ENDTAB
  0
TABLE
  2
LTYPE
  5
4
330
0
100
AcDbSymbolTable
 70
    15
  0
LTYPE
  5
11
330
4
100
AcDbSymbolTableRecord
100
AcDbLinetypeTableRecord
  2
ByBlock
 70
     0
  3

 72
    65
 73
     0
 40
0.0
  0
LTYPE
  5
12
330
4
100
AcDbSymbolTableRecord
100
AcDbLinetypeTableRecord
  2
ByLayer
 70
     0
  3

 72
    65
 73
     0
 40
0.0
  0
LTYPE
  5
13
330
4
100
AcDbSymbolTableRecord
100
AcDbLinetypeTableRecord
  2
Continuous
 70
     0
  3
Solid line
 72
    65
 73
     0
 40
0.0
  0
LTYPE
  5
38
330
4
100
AcDbSymbolTableRecord
100
AcDbLinetypeTableRecord
  2
STYLE_01
 70
     0
  3

 72
    65
 73
     4
 40
0.2214566929133858
 49
0.1476377952755905
 74
     0
 49
-0.0246062992125984
 74
     0
 49
0.0246062992125984
 74
     0
 49
-0.0246062992125984
 74
     0
  0
LTYPE
  5
39
330
4
100
AcDbSymbolTableRecord
100
AcDbLinetypeTableRecord
  2
STYLE_02
 70
     0
  3

 72
    65
 73
     4
 40
0.0442913385826772
 49
0.0295275590551181
 74
     0
 49
-0.0049212598425197
 74
     0
 49
0.0049212598425197
 74
     0
 49
-0.0049212598425197
 74
     0
  0
LTYPE
  5
3A
330
4
100
AcDbSymbolTableRecord
100
AcDbLinetypeTableRecord
  2
STYLE_03
 70
     0
  3

 72
    65
 73
     2
 40
1.25
 49
1.04164
 74
     0
 49
-0.2083599999999999
 74
     0
  0
LTYPE
  5
3B
330
4
100
AcDbSymbolTableRecord
100
AcDbLinetypeTableRecord
  2
STYLE_04
 70
     0
  3

 72
    65
 73
     2
 40
1.52771
 49
1.319425
 74
     0
 49
-0.208285
 74
     0
  0
LTYPE
  5
3C
330
4
100
AcDbSymbolTableRecord
100
AcDbLinetypeTableRecord
  2
STYLE_05
 70
     0
  3

 72
    65
 73
     2
 40
0.20828
 49
0.069425
 74
     0
 49
-0.138855
 74
     0
  0
LTYPE
  5
3D
330
4
100
AcDbSymbolTableRecord
100
AcDbLinetypeTableRecord
  2
STYLE_06
 70
     0
  3

 72
    65
 73
     4
 40
1.04164
 49
0.625
 74
     0
 49
-0.20828
 74
     0
 49
0.06943
 74
     0
 49
-0.13893
 74
     0
  0
LTYPE
  5
3E
330
4
100
AcDbSymbolTableRecord
100
AcDbLinetypeTableRecord
  2
STYLE_07
 70
     0
  3

 72
    65
 73
     6
 40
1.875
 49
0.625
 74
     0
 49
-0.20828
 74
     0
 49
0.6250000000000001
 74
     0
 49
-0.2083599999999999
 74
     0
 49
0.06943
 74
     0
 49
-0.1389299999999999
 74
     0
  0
LTYPE
  5
3F
330
4
100
AcDbSymbolTableRecord
100
AcDbLinetypeTableRecord
  2
STYLE_08
 70
     0
  3

 72
    65
 73
     6
 40
1.25
 49
0.625
 74
     0
 49
-0.20828
 74
     0
 49
0.06943
 74
     0
 49
-0.13893
 74
     0
 49
0.0694299999999999
 74
     0
 49
-0.13893
 74
     0
  0
LTYPE
  5
40
330
4
100
AcDbSymbolTableRecord
100
AcDbLinetypeTableRecord
  2
STYLE_09
 70
     0
  3

 72
    65
 73
     4
 40
5.0
 49
3.75
 74
     0
 49
-0.2777849999999998
 74
     0
 49
0.6944300000000003
 74
     0
 49
-0.2777849999999998
 74
     0
  0
LTYPE
  5
41
330
4
100
AcDbSymbolTableRecord
100
AcDbLinetypeTableRecord
  2
STYLE_10
 70
     0
  3

 72
    65
 73
     6
 40
5.9375
 49
3.75
 74
     0
 49
-0.2777849999999998
 74
     0
 49
0.6944300000000003
 74
     0
 49
-0.2777849999999998
 74
     0
 49
0.625
 74
     0
 49
-0.3125
 74
     0
  0
LTYPE
  5
42
330
4
100
AcDbSymbolTableRecord
100
AcDbLinetypeTableRecord
  2
STYLE_11
 70
     0
  3

 72
    65
 73
     2
 40
0.0694444881889764
 49
0.0347222440944882
 74
     0
 49
-0.0347222440944882
 74
     0
  0
LTYPE
  5
43
330
4
100
AcDbSymbolTableRecord
100
AcDbLinetypeTableRecord
  2
STYLE_12
 70
     0
  3

 72
    65
 73
     2
 40
0.3937007874015748
 49
0.1968503937007874
 74
     0
 49
-0.1968503937007874
 74
     0
  0
LTYPE
  5
44
330
4
100
AcDbSymbolTableRecord
100
AcDbLinetypeTableRecord
  2
STYLE_13
 70
     0
  3

 72
    65
 73
     2
 40
0.5905511811023622
 49
0.2952755905511811
 74
     0
 49
-0.2952755905511811
 74
     0
  0
LTYPE
  5
45
330
4
100
AcDbSymbolTableRecord
100
AcDbLinetypeTableRecord
  2
STYLE_14
 70
     0
  3

 72
    65
 73
     2
 40
1.968503937007874
 49
0.9842519685039369
 74
     0
 49
-0.9842519685039369
 74
     0
  0
ENDTAB
  0
TABLE
  2
LAYER
  5
2
102
{ACAD_XDICTIONARY
360
22D
102
}
330
0
100
AcDbSymbolTable
 70
     6
  0
LAYER
  5
14
330
2
100
AcDbSymbolTableRecord
100
AcDbLayerTableRecord
  2
0
 70
     0
 62
     7
  6
Continuous
370
    -3
390
1D
347
226
  0
LAYER
  5
46
330
2
100
AcDbSymbolTableRecord
100
AcDbLayerTableRecord
  2
Defpoints
 70
     0
 62
     7
  6
Continuous
290
     0
370
    -3
390
1D
347
226
  0
LAYER
  5
47
330
2
100
AcDbSymbolTableRecord
100
AcDbLayerTableRecord
  2
template
 70
     0
 62
     7
  6
Continuous
370
    -3
390
1D
347
226
  0
LAYER
  5
48
330
2
100
AcDbSymbolTableRecord
100
AcDbLayerTableRecord
  2
notes
 70
     0
 62
     7
  6
Continuous
370
    -3
390
1D
347
226
  0
LAYER
  5
49
330
2
100
AcDbSymbolTableRecord
100
AcDbLayerTableRecord
  2
FAA70-2215
 70
     0
 62
     7
  6
Continuous
370
    -3
390
1D
347
226
  0
LAYER
  5
230
330
2
100
AcDbSymbolTableRecord
100
AcDbLayerTableRecord
  2
waku
 70
     0
 62
    -7
  6
Continuous
370
    -3
390
1D
347
226
1001
AcAecLayerStandard
1000

1000

  0
ENDTAB
  0
TABLE
  2
STYLE
  5
3
330
0
100
AcDbSymbolTable
 70
     2
  0
STYLE
  5
17
330
3
100
AcDbSymbolTableRecord
100
AcDbTextStyleTableRecord
  2
Standard
 70
     0
 40
0.0
 41
1.0
 50
0.0
 71
     0
 42
0.0
  3
txt
  4
BIGFONT.SHX
  0
STYLE
  5
37
330
3
100
AcDbSymbolTableRecord
100
AcDbTextStyleTableRecord
  2
ＭＳ ゴシック
 70
     0
 40
0.0
 41
1.0
 50
0.0
 71
     0
 42
0.0
  3
msgothic.ttc
  4
ＭＳ ゴシック
1001
ACAD
1000
ＭＳ ゴシック
1071
        0
  0
ENDTAB
  0
TABLE
  2
VIEW
  5
5
330
0
100
AcDbSymbolTable
 70
     0
  0
ENDTAB
  0
TABLE
  2
UCS
  5
6
330
0
100
AcDbSymbolTable
 70
     0
  0
ENDTAB
  0
TABLE
  2
APPID
  5
8
330
0
100
AcDbSymbolTable
 70
     2
  0
APPID
  5
16
330
8
100
AcDbSymbolTableRecord
100
AcDbRegAppTableRecord
  2
ACAD
 70
     0
  0
APPID
  5
231
330
8
100
AcDbSymbolTableRecord
100
AcDbRegAppTableRecord
  2
AcAecLayerStandard
 70
     0
  0
ENDTAB
  0
TABLE
  2
DIMSTYLE
  5
9
330
0
100
AcDbSymbolTable
 70
     3
100
AcDbDimStyleTable
  0
DIMSTYLE
105
18
330
9
100
AcDbSymbolTableRecord
100
AcDbDimStyleTableRecord
  2
Standard
 70
     0
178
     0
340
17
  0
DIMSTYLE
105
52
330
9
100
AcDbSymbolTableRecord
100
AcDbDimStyleTableRecord
  2
tfrom線あり
 70
     0
  3
<>
  4
[]
 41
3.999755859375
 42
25.0
 43
0.9999999999999999
 44
0.0
 73
     0
 74
     0
 77
     1
 78
    11
140
24.4326171875
141
0.0
143
1.0
147
0.4999999999999999
171
     1
174
     1
178
     0
179
     2
271
     1
272
     1
276
     2
284
    11
285
    11
286
    11
289
     0
340
37
341
4A
342
4A
  0
DIMSTYLE
105
57
330
9
100
AcDbSymbolTableRecord
100
AcDbDimStyleTableRecord
  2
JIS
 70
     0
  3
<>
  4
[]
 41
31.75
 42
0.0
 43
6.99999999999994
 44
19.9999999999962
 73
     0
 74
     0
 77
     1
 78
    11
140
24.4326171875
141
0.0
143
1.0
147
1.00000000000108
171
     1
174
     1
178
     0
179
     2
271
     1
272
     1
276
     2
284
    11
285
    11
286
    11
289
     0
340
37
341
53
342
53
  0
ENDTAB
  0
TABLE
  2
BLOCK_RECORD
  5
1
330
0
100
AcDbSymbolTable
 70
    22
  0
BLOCK_RECORD
  5
A
330
1
100
AcDbSymbolTableRecord
100
AcDbBlockTableRecord
  2
*MODEL_SPACE
340
20
 70
     0
280
     1
281
     0
  0
BLOCK_RECORD
  5
B
330
1
100
AcDbSymbolTableRecord
100
AcDbBlockTableRecord
  2
*PAPER_SPACE
340
21
 70
     0
280
     1
281
     0
  0
BLOCK_RECORD
  5
4A
330
1
100
AcDbSymbolTableRecord
100
AcDbBlockTableRecord
  2
_DOT
340
0
 70
     0
280
     1
281
     0
  0
BLOCK_RECORD
  5
53
330
1
100
AcDbSymbolTableRecord
100
AcDbBlockTableRecord
  2
VW_FILLEDARROW
340
0
 70
     0
280
     1
281
     0
  0
BLOCK_RECORD
  5
23
330
1
100
AcDbSymbolTableRecord
100
AcDbBlockTableRecord
  2
グループ
340
0
102
{BLKREFS
331
15C
102
}
 70
     0
280
     1
281
     0
  0
BLOCK_RECORD
  5
24
330
1
100
AcDbSymbolTableRecord
100
AcDbBlockTableRecord
  2
*D3
340
0
 70
     0
280
     1
281
     0
  0
BLOCK_RECORD
  5
25
330
1
100
AcDbSymbolTableRecord
100
AcDbBlockTableRecord
  2
*D4
340
0
 70
     0
280
     1
281
     0
  0
BLOCK_RECORD
  5
26
330
1
100
AcDbSymbolTableRecord
100
AcDbBlockTableRecord
  2
*D5
340
0
 70
     0
280
     1
281
     0
  0
BLOCK_RECORD
  5
27
330
1
100
AcDbSymbolTableRecord
100
AcDbBlockTableRecord
  2
*D6
340
0
 70
     0
280
     1
281
     0
  0
BLOCK_RECORD
  5
28
330
1
100
AcDbSymbolTableRecord
100
AcDbBlockTableRecord
  2
*D7
340
0
 70
     0
280
     1
281
     0
  0
BLOCK_RECORD
  5
29
330
1
100
AcDbSymbolTableRecord
100
AcDbBlockTableRecord
  2
*D8
340
0
 70
     0
280
     1
281
     0
  0
BLOCK_RECORD
  5
2A
330
1
100
AcDbSymbolTableRecord
100
AcDbBlockTableRecord
  2
*D9
340
0
 70
     0
280
     1
281
     0
  0
BLOCK_RECORD
  5
2B
330
1
100
AcDbSymbolTableRecord
100
AcDbBlockTableRecord
  2
*D10
340
0
 70
     0
280
     1
281
     0
  0
BLOCK_RECORD
  5
2C
330
1
100
AcDbSymbolTableRecord
100
AcDbBlockTableRecord
  2
*D11
340
0
 70
     0
280
     1
281
     0
  0
BLOCK_RECORD
  5
2D
330
1
100
AcDbSymbolTableRecord
100
AcDbBlockTableRecord
  2
*D12
340
0
 70
     0
280
     1
281
     0
  0
BLOCK_RECORD
  5
2E
330
1
100
AcDbSymbolTableRecord
100
AcDbBlockTableRecord
  2
*D13
340
0
 70
     0
280
     1
281
     0
  0
BLOCK_RECORD
  5
2F
330
1
100
AcDbSymbolTableRecord
100
AcDbBlockTableRecord
  2
*D14
340
0
 70
     0
280
     1
281
     0
  0
BLOCK_RECORD
  5
30
330
1
100
AcDbSymbolTableRecord
100
AcDbBlockTableRecord
  2
*D15
340
0
 70
     0
280
     1
281
     0
  0
BLOCK_RECORD
  5
31
330
1
100
AcDbSymbolTableRecord
100
AcDbBlockTableRecord
  2
*D16
340
0
 70
     0
280
     1
281
     0
  0
BLOCK_RECORD
  5
32
330
1
100
AcDbSymbolTableRecord
100
AcDbBlockTableRecord
  2
*D17
340
0
 70
     0
280
     1
281
     0
  0
BLOCK_RECORD
  5
33
330
1
100
AcDbSymbolTableRecord
100
AcDbBlockTableRecord
  2
*D18
340
0
 70
     0
280
     1
281
     0
  0
BLOCK_RECORD
  5
34
330
1
100
AcDbSymbolTableRecord
100
AcDbBlockTableRecord
  2
*D19
340
0
 70
     0
280
     1
281
     0
  0
BLOCK_RECORD
  5
35
330
1
100
AcDbSymbolTableRecord
100
AcDbBlockTableRecord
  2
*D20
340
0
 70
     0
280
     1
281
     0
  0
BLOCK_RECORD
  5
36
330
1
100
AcDbSymbolTableRecord
100
AcDbBlockTableRecord
  2
*D21
340
0
 70
     0
280
     1
281
     0
  0
ENDTAB
  0
ENDSEC
  0
SECTION
  2
BLOCKS
  0
BLOCK
  5
D
330
A
100
AcDbEntity
  8
0
390
1D
100
AcDbBlockBegin
  2
*MODEL_SPACE
 70
     0
 10
0.0
 20
0.0
 30
0.0
  3
*MODEL_SPACE
  1
*MODEL_SPACE
  0
ENDBLK
  5
E
330
A
100
AcDbEntity
  8
0
390
1D
100
AcDbBlockEnd
  0
BLOCK
  5
F
330
B
100
AcDbEntity
 67
     1
  8
0
390
1D
100
AcDbBlockBegin
  2
*PAPER_SPACE
 70
     0
 10
0.0
 20
0.0
 30
0.0
  3
*PAPER_SPACE
  1
*PAPER_SPACE
  0
ENDBLK
  5
10
330
B
100
AcDbEntity
 67
     1
  8
0
390
1D
100
AcDbBlockEnd
  0
BLOCK
  5
4B
330
4A
100
AcDbEntity
  8
0
390
1D
100
AcDbBlockBegin
  2
_DOT
 70
     0
 10
0.0
 20
0.0
 30
0.0
  3
_DOT
  1
_DOT
  0
POLYLINE
  5
4C
330
4A
100
AcDbEntity
  8
0
  6
ByBlock
 62
     0
370
    -2
390
1D
100
AcDb2dPolyline
 66
     1
 10
0.0
 20
0.0
 30
0.0
 70
     1
 40
0.5
 41
0.5
  0
VERTEX
  5
4D
330
4C
100
AcDbEntity
  8
0
  6
ByBlock
 62
     0
370
    -2
390
1D
100
AcDbVertex
100
AcDb2dVertex
 10
-0.25
 20
0.0
 30
0.0
 42
1.0
  0
VERTEX
  5
4E
330
4C
100
AcDbEntity
  8
0
  6
ByBlock
 62
     0
370
    -2
390
1D
100
AcDbVertex
100
AcDb2dVertex
 10
0.25
 20
0.0
 30
0.0
 42
1.0
  0
SEQEND
  5
4F
330
4C
100
AcDbEntity
  8
0
390
1D
  0
LINE
  5
50
330
4A
100
AcDbEntity
  8
0
  6
ByBlock
 62
     0
370
    -2
390
1D
100
AcDbLine
 10
-0.5
 20
0.0
 30
0.0
 11
-1.0
 21
0.0
 31
0.0
  0
ENDBLK
  5
51
330
4A
100
AcDbEntity
  8
0
390
1D
100
AcDbBlockEnd
  0
BLOCK
  5
54
330
53
100
AcDbEntity
  8
0
  6
ByBlock
 62
     0
370
    -2
390
1D
100
AcDbBlockBegin
  2
VW_FILLEDARROW
 70
     0
 10
0.0
 20
0.0
 30
0.0
  3
VW_FILLEDARROW
  1
VW_FILLEDARROW
  0
SOLID
  5
55
330
53
100
AcDbEntity
  8
0
 62
     0
370
    -2
390
1D
100
AcDbTrace
 10
0.0
 20
0.0
 30
0.0
 11
-0.9921874999999999
 21
-0.2658558393652545
 31
0.0
 12
-0.9921874999999999
 22
0.2658558393652548
 32
0.0
 13
-0.9921874999999999
 23
0.2658558393652548
 33
0.0
  0
ENDBLK
  5
56
330
53
100
AcDbEntity
  8
0
390
1D
100
AcDbBlockEnd
  0
BLOCK
  5
58
330
23
100
AcDbEntity
  8
template
390
1D
100
AcDbBlockBegin
  2
グループ
 70
     0
 10
0.0
 20
0.0
 30
0.0
  3
グループ
  1
グループ
  0
LWPOLYLINE
  5
59
330
23
100
AcDbEntity
  8
0
  6
Continuous
 62
     7
370
    15
390
1D
100
AcDbPolyline
 90
        8
 70
   129
 43
0.0
 10
887.428507803075
 20
-1344.489721023686
 10
887.428507803075
 20
-1350.487109717262
 10
877.9273108850717
 20
-1350.487109717262
 10
877.9273108850717
 20
-1374.938072980771
 10
869.5719336232889
 20
-1374.938072980771
 10
869.5719336232889
 20
-1350.487109717262
 10
860.2389766769795
 20
-1350.487109717262
 10
860.2389766769795
 20
-1344.489721023686
  0
LWPOLYLINE
  5
5A
330
23
100
AcDbEntity
  8
0
  6
Continuous
 62
     7
370
    15
390
1D
100
AcDbPolyline
 90
      101
 70
   128
 43
0.0
 10
900.156799633632
 20
-1345.217969516622
 10
900.1721496624166
 20
-1345.213608759937
 42
-0.0222221607814323
 10
900.462154239088
 20
-1345.144984294693
 10
900.477948003081
 20
-1345.141980871596
 42
-0.0146883565583974
 10
900.7406507083058
 20
-1345.099977684646
 42
-0.0127458844182612
 10
901.0052896754622
 20
-1345.072440716574
 10
901.0677447537716
 20
-1345.067547293986
 42
-0.0198099018564589
 10
901.4585938632476
 20
-1345.052462136589
 10
901.5104053326922
 20
-1345.052515912254
 42
-0.014761738276367
 10
902.0050287936627
 20
-1345.067635937499
 10
902.0777202485389
 20
-1345.072008544387
 42
-0.0162624549004951
 10
902.467873878006
 20
-1345.108241419659
 10
902.58940626927
 20
-1345.123527978656
 42
-0.0080020874661505
 10
902.7349853003568
 20
-1345.144210825924
 10
902.7733047709484
 20
-1345.150282103735
 42
-0.0053821929683475
 10
902.8417888762666
 20
-1345.161889627557
 10
902.115383177068
 20
-1347.34281808327
 42
0.0108667757390338
 10
902.0480661069329
 20
-1347.32963096805
 10
902.0105980837477
 20
-1347.323133225456
 42
0.017066320330914
 10
901.8673812968332
 20
-1347.303303628164
 10
901.7995059641491
 20
-1347.296256457577
 42
0.0220162375277206
 10
901.5191265562922
 20
-1347.279574096807
 10
901.441270989241
 20
-1347.27837472954
 42
0.028260691578863
 10
901.1056346656638
 20
-1347.292178006509
 10
901.0617213918905
 20
-1347.296477996513
 42
0.0169677213688958
 10
900.8157968969326
 20
-1347.329015046065
 42
0.0190576269867996
 10
900.5728889343499
 20
-1347.379161918172
 10
900.5666297462417
 20
-1347.380704892281
 42
0.0213685642848653
 10
900.316245261762
 20
-1347.453905177386
 10
900.3107553668477
 20
-1347.455768173445
 42
0.0237595297596479
 10
900.0572604819499
 20
-1347.55545269534
 10
900.0521584079194
 20
-1347.557744470818
 42
0.0261857468818378
 10
899.7999876316899
 20
-1347.687280808193
 10
899.7895614426045
 20
-1347.69334628266
 42
0.0272553062019482
 10
899.5531316673639
 20
-1347.848718488605
 10
899.5183686538544
 20
-1347.874379636698
 42
0.0325996893174447
 10
899.3682133102029
 20
-1348.001127509669
 10
899.3445038810784
 20
-1348.023945538183
 42
0.0138050960642152
 10
899.2526207248698
 20
-1348.117395199733
 42
0.0125280103805591
 10
899.1657781920393
 20
-1348.21555852633
 10
899.1420977471279
 20
-1348.243717024521
 42
0.0205218024744861
 10
899.0169976716114
 20
-1348.405510338754
 10
898.9945313311271
 20
-1348.437170068577
 42
0.0163110129581999
 10
898.8388209518752
 20
-1348.672500503648
 10
898.8360970558248
 20
-1348.676924265632
 42
0.0131897341892155
 10
898.68929653492
 20
-1348.930056357995
 10
898.6875964395524
 20
-1348.933174597133
 42
0.0107895576065591
 10
898.5498197373412
 20
-1349.199389806769
 10
898.5490868478166
 20
-1349.200884039414
 42
0.0091371507219551
 10
898.4206068991689
 20
-1349.47540923717
 10
898.3908612677578
 20
-1349.542115744332
 42
0.0135418326348186
 10
898.2191473286863
 20
-1349.957053529601
 10
898.1855425202489
 20
-1350.044919671891
 42
0.0092834542413017
 10
898.0143134603311
 20
-1350.518818170188
 10
897.9886963326131
 20
-1350.594059239982
 42
0.0054261043584779
 10
897.8810581843204
 20
-1350.921823213047
 10
897.863532198146
 20
-1350.977211375267
 42
0.0008225090813218
 10
897.794862146313
 20
-1351.195480133426
 10
896.8101730143795
 20
-1354.220371426682
 10
900.0427968544534
 20
-1354.220371426682
 10
899.5386044246
 20
-1356.124849725035
 10
896.2825481426166
 20
-1356.124849725035
 10
890.4533991102628
 20
-1374.93807279104
 10
888.6283014999525
 20
-1374.93807279104
 10
894.4629795354534
 20
-1356.124849725035
 10
892.0578631664131
 20
-1356.124849725035
 10
892.5620555962665
 20
-1354.220371426682
 10
894.9906044072166
 20
-1354.220371426682
 10
895.8507593254052
 20
-1351.583958425983
 42
-0.0005863560649315
 10
895.8874940035307
 20
-1351.467132005939
 10
895.9635818372691
 20
-1351.226139706306
 42
-0.0087522378924377
 10
896.163049980728
 20
-1350.630863619154
 10
896.2553142561405
 20
-1350.370723450643
 42
-0.0077400953829872
 10
896.5132479152705
 20
-1349.677718773099
 10
896.5290128868528
 20
-1349.637287889704
 42
-0.008236994632997
 10
896.7760973574614
 20
-1349.033208823517
 42
-0.0085725238367322
 10
897.0433434534631
 20
-1348.437782784232
 10
897.144973054473
 20
-1348.221361682242
 42
-0.0168109410595982
 10
897.4319174832017
 20
-1347.66015415614
 10
897.5577608736234
 20
-1347.43319012321
 42
-0.0007817726871429
 10
897.6120452237174
 20
-1347.335645878112
 10
897.6121735297301
 20
-1347.335416169384
 42
-0.0036626142157446
 10
897.6670613937558
 20
-1347.238818289407
 42
-0.0080221150687587
 10
897.7241856491571
 20
-1347.143539054663
 10
897.7548856005237
 20
-1347.094148105532
 42
-0.0202139325565547
 10
897.8825413403314
 20
-1346.906166504849
 10
897.9366088055181
 20
-1346.833087640609
 42
-0.0249323791800325
 10
898.1957715992378
 20
-1346.517042398455
 10
898.2199114133642
 20
-1346.490428125543
 42
-0.0242132121541492
 10
898.5595921549019
 20
-1346.150544639343
 10
898.6075037276559
 20
-1346.107035503153
 42
-0.0251017527859809
 10
898.8914854282975
 20
-1345.874042757388
 10
898.89293090511
 20
-1345.872973499809
 42
-0.0130868069033217
 10
899.1911915550686
 20
-1345.664193031266
 10
899.1927533742117
 20
-1345.663159590991
 42
-0.0290329526388645
 10
899.5038645156046
 20
-1345.482334089362
 10
899.5337100775942
 20
-1345.46723170652
 42
-0.0160250190044459
 10
899.7996144913554
 20
-1345.343215596309
 42
-0.0267600374788371
 10
900.0748905688212
 20
-1345.242467275761
 10
900.101626488345
 20
-1345.234274716935
 42
-0.0049981587669956
 10
900.156799633632
 20
-1345.217969516622
 42
-0.0049981587669956
  0
LWPOLYLINE
  5
5B
330
23
100
AcDbEntity
  8
0
  6
Continuous
 62
     7
370
    15
390
1D
100
AcDbPolyline
 90
      118
 70
   128
 43
0.0
 10
919.9711671980789
 20
-1354.29435475451
 10
921.8462891225784
 20
-1354.29435475451
 10
921.0082502169785
 20
-1356.97592128091
 42
-0.0010587229286335
 10
921.0397060324854
 20
-1356.93901674763
 10
921.0979001231824
 20
-1356.871034491379
 42
-0.007187474040703
 10
921.2482753412879
 20
-1356.700393799341
 10
921.3899981145427
 20
-1356.544157658037
 42
-0.0148118053513348
 10
921.8401274072585
 20
-1356.07654381202
 10
921.9273497421569
 20
-1355.99114649117
 42
-0.0086273358692959
 10
922.2628985431656
 20
-1355.673770857153
 10
922.3067322593917
 20
-1355.63372121282
 42
-0.0103138323115396
 10
922.564755961625
 20
-1355.407558075482
 10
922.6105303679605
 20
-1355.369076028215
 42
-0.0060206748565046
 10
922.7833784320643
 20
-1355.227281377468
 10
922.7854095629446
 20
-1355.225655671841
 42
-0.0067069027300278
 10
922.9577023776128
 20
-1355.091505038041
 10
922.9602511435454
 20
-1355.089574868161
 42
-0.007618435204865
 10
923.1311564094101
 20
-1354.964199992922
 42
-0.0089652861674397
 10
923.3061173721429
 20
-1354.84456673259
 10
923.3424690922881
 20
-1354.820655519107
 42
-0.0156916245938178
 10
923.5384285894497
 20
-1354.700393032632
 42
-0.0023299011069336
 10
923.7386906334058
 20
-1354.587215093105
 10
923.7540747658094
 20
-1354.578615098027
 42
-0.0107669341488251
 10
923.9883115909087
 20
-1354.454214964678
 10
924.0105763919855
 20
-1354.442998214727
 42
-0.0078058045897837
 10
924.2941665099369
 20
-1354.305636759089
 10
924.3040735976474
 20
-1354.30102763122
 42
-0.0181829330469802
 10
924.6143830022637
 20
-1354.170163890124
 10
924.6684384448309
 20
-1354.149648770181
 42
-0.0208411536029625
 10
925.0175234122801
 20
-1354.033558307688
 10
925.0318795124076
 20
-1354.029439862735
 42
-0.0222799817140659
 10
925.3605993063247
 20
-1353.950798296594
 10
925.3694882695668
 20
-1353.949086286008
 42
-0.0215509523879565
 10
925.6859592378416
 20
-1353.902170597475
 10
925.7284411988903
 20
-1353.897733070684
 42
-0.0182545924871988
 10
925.9625499781957
 20
-1353.881889245293
 10
926.0019509945455
 20
-1353.880664700214
 42
-0.0072962856536369
 10
926.1578738742328
 20
-1353.878095371692
 10
926.1869735448083
 20
-1353.878040536288
 42
-0.0059227516319039
 10
926.2847230439497
 20
-1353.879014248078
 10
926.3139652614601
 20
-1353.879652014683
 42
-0.0011833111903085
 10
926.353216545154
 20
-1353.880601018992
 10
925.5578299495469
 20
-1356.419334964091
 42
0.0143932051594269
 10
925.5314285671952
 20
-1356.409135994045
 10
925.524156594779
 20
-1356.406564775188
 42
0.0234388603517087
 10
925.4823257288446
 20
-1356.393945539472
 10
925.4736440659342
 20
-1356.391764577468
 42
0.0199162742972028
 10
925.4133552318575
 20
-1356.379147842133
 10
925.392541294048
 20
-1356.375650642704
 42
0.0293643550668168
 10
925.2894664352873
 20
-1356.364500597051
 10
925.2647812545686
 20
-1356.363288980032
 42
0.0214606686863474
 10
925.111640338615
 20
-1356.362350419615
 10
925.1022684277981
 20
-1356.362695331159
 42
0.0167564054179445
 10
924.9307482366866
 20
-1356.374772373528
 10
924.9222884439307
 20
-1356.375653713954
 42
0.0137677553239328
 10
924.7349351306643
 20
-1356.400403022498
 10
924.7275833911581
 20
-1356.401580942466
 42
0.0118497261484732
 10
924.527085627055
 20
-1356.438598292655
 10
924.5209356198095
 20
-1356.439885155375
 42
0.0106421143887428
 10
924.310054732525
 20
-1356.48871753095
 10
924.3051459241354
 20
-1356.489964873635
 42
0.0099746379703621
 10
924.0866874549705
 20
-1356.55013940195
 10
924.0251394148027
 20
-1356.56842128058
 42
0.019161367585818
 10
923.689154952292
 20
-1356.682398660866
 10
923.6010951795417
 20
-1356.716085571191
 42
0.0205274080144081
 10
923.215788407641
 20
-1356.881913979018
 10
923.1581391256581
 20
-1356.909581943591
 42
0.0181256912192943
 10
922.899862184992
 20
-1357.045265762568
 10
922.8469068016722
 20
-1357.075583375786
 42
0.0140709242421267
 10
922.7019518670497
 20
-1357.164078049217
 10
922.6757029984414
 20
-1357.181134867926
 42
0.0086667884394049
 10
922.5867768368887
 20
-1357.241137535816
 42
0.0036408192022389
 10
922.4993435988589
 20
-1357.303318393605
 10
922.4641167243867
 20
-1357.328759339521
 42
0.0052260781280992
 10
922.3078880269825
 20
-1357.444091726165
 10
922.291681170736
 20
-1357.456319836773
 42
0.0050024435897955
 10
922.1056778276653
 20
-1357.599602405045
 10
922.090359671162
 20
-1357.611648427481
 42
0.013613871028486
 10
921.8799184028325
 20
-1357.786614932398
 10
921.8462505270431
 20
-1357.816193905109
 42
0.0172815186913029
 10
921.5818469853845
 20
-1358.065190577728
 10
921.579284639538
 20
-1358.067776394879
 42
0.0189403857993656
 10
921.3287028409574
 20
-1358.340581659685
 10
921.2960713474229
 20
-1358.378925591181
 42
0.0185044199504247
 10
921.1041149084429
 20
-1358.622174172303
 42
0.0088565243901099
 10
920.9256548018153
 20
-1358.875690592452
 10
920.9164768221659
 20
-1358.889231972214
 42
0.0157195347230441
 10
920.7332562158323
 20
-1359.178754181528
 10
920.6871732738958
 20
-1359.256906378559
 42
0.0095451879786084
 10
920.5220877237633
 20
-1359.549501020907
 10
920.5109398048293
 20
-1359.570171693047
 42
0.0100351706265613
 10
920.3788960556744
 20
-1359.827227253529
 42
0.0086935915423001
 10
920.2565649038801
 20
-1360.089060398935
 10
920.2532441624659
 20
-1360.096502721906
 42
0.007258017486469
 10
920.1328977105223
 20
-1360.377094713485
 10
920.1296360772146
 20
-1360.385014739506
 42
0.0060005122615894
 10
920.0104354088656
 20
-1360.684624410128
 10
920.0072244305303
 20
-1360.692985938017
 42
0.004901778697676
 10
919.8883242716719
 20
-1361.011914918623
 10
919.8851584652824
 20
-1361.020667855851
 42
0.0039415167603005
 10
919.7657221872183
 20
-1361.359209918286
 10
919.7625910845736
 20
-1361.368313119141
 42
0.0031035838768676
 10
919.6417862988827
 20
-1361.726752980907
 10
919.6386762543501
 20
-1361.736173602289
 42
0.0025070747149082
 10
919.515774903055
 20
-1362.11482081917
 10
919.4784810066094
 20
-1362.231712484486
 42
0.0029081910284811
 10
919.2864627087938
 20
-1362.845876142793
 10
919.2456595402815
 20
-1362.979099385053
 42
0.0009266453732565
 10
918.9772421659683
 20
-1363.861323844972
 10
918.956354693347
 20
-1363.930435724144
 42
-0.0005809993667144
 10
918.679018012735
 20
-1364.844243830852
 10
918.6127362144623
 20
-1365.06172876301
 42
-0.0012018708167166
 10
918.4657519050329
 20
-1365.539891427532
 10
918.4134320533033
 20
-1365.708650568926
 42
-0.0002691059598657
 10
918.3698625722988
 20
-1365.84891818874
 10
915.5369066740095
 20
-1374.93807279104
 10
913.718917782031
 20
-1374.93807279104
 10
919.9711671980789
 20
-1354.29435475451
  0
SPLINE
  5
5C
330
23
100
AcDbEntity
  8
0
  6
Continuous
 62
     7
370
    15
390
1D
100
AcDbSpline
210
0.0
220
0.0
230
1.0
 70
    15
 71
     2
 72
   782
 73
   779
 74
     0
 42
0.000000001
 43
0.000001
 40
0.0
 40
0.0
 40
0.0
 40
1.0
 40
1.0
 40
2.0
 40
2.0
 40
3.0
 40
3.0
 40
4.0
 40
4.0
 40
5.0
 40
5.0
 40
6.0
 40
6.0
 40
7.0
 40
7.0
 40
8.0
 40
8.0
 40
9.0
 40
9.0
 40
10.0
 40
10.0
 40
11.0
 40
11.0
 40
12.0
 40
12.0
 40
13.0
 40
13.0
 40
14.0
 40
14.0
 40
15.0
 40
15.0
 40
16.0
 40
16.0
 40
17.0
 40
17.0
 40
18.0
 40
18.0
 40
19.0
 40
19.0
 40
20.0
 40
20.0
 40
21.0
 40
21.0
 40
22.0
 40
22.0
 40
23.0
 40
23.0
 40
24.0
 40
24.0
 40
25.0
 40
25.0
 40
26.0
 40
26.0
 40
27.0
 40
27.0
 40
28.0
 40
28.0
 40
29.0
 40
29.0
 40
30.0
 40
30.0
 40
31.0
 40
31.0
 40
32.0
 40
32.0
 40
33.0
 40
33.0
 40
34.0
 40
34.0
 40
35.0
 40
35.0
 40
36.0
 40
36.0
 40
37.0
 40
37.0
 40
38.0
 40
38.0
 40
39.0
 40
39.0
 40
40.0
 40
40.0
 40
41.0
 40
41.0
 40
42.0
 40
42.0
 40
43.0
 40
43.0
 40
44.0
 40
44.0
 40
45.0
 40
45.0
 40
46.0
 40
46.0
 40
47.0
 40
47.0
 40
48.0
 40
48.0
 40
49.0
 40
49.0
 40
50.0
 40
50.0
 40
51.0
 40
51.0
 40
52.0
 40
52.0
 40
53.0
 40
53.0
 40
54.0
 40
54.0
 40
55.0
 40
55.0
 40
56.0
 40
56.0
 40
57.0
 40
57.0
 40
58.0
 40
58.0
 40
59.0
 40
59.0
 40
60.0
 40
60.0
 40
61.0
 40
61.0
 40
62.0
 40
62.0
 40
63.0
 40
63.0
 40
64.0
 40
64.0
 40
65.0
 40
65.0
 40
66.0
 40
66.0
 40
67.0
 40
67.0
 40
68.0
 40
68.0
 40
69.0
 40
69.0
 40
70.0
 40
70.0
 40
71.0
 40
71.0
 40
72.0
 40
72.0
 40
73.0
 40
73.0
 40
74.0
 40
74.0
 40
75.0
 40
75.0
 40
76.0
 40
76.0
 40
77.0
 40
77.0
 40
78.0
 40
78.0
 40
79.0
 40
79.0
 40
80.0
 40
80.0
 40
81.0
 40
81.0
 40
82.0
 40
82.0
 40
83.0
 40
83.0
 40
84.0
 40
84.0
 40
85.0
 40
85.0
 40
86.0
 40
86.0
 40
87.0
 40
87.0
 40
88.0
 40
88.0
 40
89.0
 40
89.0
 40
90.0
 40
90.0
 40
91.0
 40
91.0
 40
92.0
 40
92.0
 40
93.0
 40
93.0
 40
94.0
 40
94.0
 40
95.0
 40
95.0
 40
96.0
 40
96.0
 40
97.0
 40
97.0
 40
98.0
 40
98.0
 40
99.0
 40
99.0
 40
100.0
 40
100.0
 40
101.0
 40
101.0
 40
102.0
 40
102.0
 40
103.0
 40
103.0
 40
104.0
 40
104.0
 40
105.0
 40
105.0
 40
106.0
 40
106.0
 40
107.0
 40
107.0
 40
108.0
 40
108.0
 40
109.0
 40
109.0
 40
110.0
 40
110.0
 40
111.0
 40
111.0
 40
112.0
 40
112.0
 40
113.0
 40
113.0
 40
114.0
 40
114.0
 40
115.0
 40
115.0
 40
116.0
 40
116.0
 40
117.0
 40
117.0
 40
118.0
 40
118.0
 40
119.0
 40
119.0
 40
120.0
 40
120.0
 40
121.0
 40
121.0
 40
122.0
 40
122.0
 40
123.0
 40
123.0
 40
124.0
 40
124.0
 40
125.0
 40
125.0
 40
126.0
 40
126.0
 40
127.0
 40
127.0
 40
128.0
 40
128.0
 40
129.0
 40
129.0
 40
130.0
 40
130.0
 40
131.0
 40
131.0
 40
132.0
 40
132.0
 40
133.0
 40
133.0
 40
134.0
 40
134.0
 40
135.0
 40
135.0
 40
136.0
 40
136.0
 40
137.0
 40
137.0
 40
138.0
 40
138.0
 40
139.0
 40
139.0
 40
140.0
 40
140.0
 40
141.0
 40
141.0
 40
142.0
 40
142.0
 40
143.0
 40
143.0
 40
144.0
 40
144.0
 40
145.0
 40
145.0
 40
146.0
 40
146.0
 40
147.0
 40
147.0
 40
148.0
 40
148.0
 40
149.0
 40
149.0
 40
150.0
 40
150.0
 40
151.0
 40
151.0
 40
152.0
 40
152.0
 40
153.0
 40
153.0
 40
154.0
 40
154.0
 40
155.0
 40
155.0
 40
156.0
 40
156.0
 40
157.0
 40
157.0
 40
158.0
 40
158.0
 40
159.0
 40
159.0
 40
160.0
 40
160.0
 40
161.0
 40
161.0
 40
162.0
 40
162.0
 40
163.0
 40
163.0
 40
164.0
 40
164.0
 40
165.0
 40
165.0
 40
166.0
 40
166.0
 40
167.0
 40
167.0
 40
168.0
 40
168.0
 40
169.0
 40
169.0
 40
170.0
 40
170.0
 40
171.0
 40
171.0
 40
172.0
 40
172.0
 40
173.0
 40
173.0
 40
174.0
 40
174.0
 40
175.0
 40
175.0
 40
176.0
 40
176.0
 40
177.0
 40
177.0
 40
178.0
 40
178.0
 40
179.0
 40
179.0
 40
180.0
 40
180.0
 40
181.0
 40
181.0
 40
182.0
 40
182.0
 40
183.0
 40
183.0
 40
184.0
 40
184.0
 40
185.0
 40
185.0
 40
186.0
 40
186.0
 40
187.0
 40
187.0
 40
188.0
 40
188.0
 40
189.0
 40
189.0
 40
190.0
 40
190.0
 40
191.0
 40
191.0
 40
192.0
 40
192.0
 40
193.0
 40
193.0
 40
194.0
 40
194.0
 40
195.0
 40
195.0
 40
196.0
 40
196.0
 40
197.0
 40
197.0
 40
198.0
 40
198.0
 40
199.0
 40
199.0
 40
200.0
 40
200.0
 40
201.0
 40
201.0
 40
202.0
 40
202.0
 40
203.0
 40
203.0
 40
204.0
 40
204.0
 40
205.0
 40
205.0
 40
206.0
 40
206.0
 40
207.0
 40
207.0
 40
208.0
 40
208.0
 40
209.0
 40
209.0
 40
210.0
 40
210.0
 40
211.0
 40
211.0
 40
212.0
 40
212.0
 40
213.0
 40
213.0
 40
214.0
 40
214.0
 40
215.0
 40
215.0
 40
216.0
 40
216.0
 40
217.0
 40
217.0
 40
218.0
 40
218.0
 40
219.0
 40
219.0
 40
220.0
 40
220.0
 40
221.0
 40
221.0
 40
222.0
 40
222.0
 40
223.0
 40
223.0
 40
224.0
 40
224.0
 40
225.0
 40
225.0
 40
226.0
 40
226.0
 40
227.0
 40
227.0
 40
228.0
 40
228.0
 40
229.0
 40
229.0
 40
230.0
 40
230.0
 40
231.0
 40
231.0
 40
232.0
 40
232.0
 40
233.0
 40
233.0
 40
234.0
 40
234.0
 40
235.0
 40
235.0
 40
236.0
 40
236.0
 40
237.0
 40
237.0
 40
238.0
 40
238.0
 40
239.0
 40
239.0
 40
240.0
 40
240.0
 40
241.0
 40
241.0
 40
242.0
 40
242.0
 40
243.0
 40
243.0
 40
244.0
 40
244.0
 40
245.0
 40
245.0
 40
246.0
 40
246.0
 40
247.0
 40
247.0
 40
248.0
 40
248.0
 40
249.0
 40
249.0
 40
250.0
 40
250.0
 40
251.0
 40
251.0
 40
252.0
 40
252.0
 40
253.0
 40
253.0
 40
254.0
 40
254.0
 40
255.0
 40
255.0
 40
256.0
 40
256.0
 40
257.0
 40
257.0
 40
258.0
 40
258.0
 40
259.0
 40
259.0
 40
260.0
 40
260.0
 40
261.0
 40
261.0
 40
262.0
 40
262.0
 40
263.0
 40
263.0
 40
264.0
 40
264.0
 40
265.0
 40
265.0
 40
266.0
 40
266.0
 40
267.0
 40
267.0
 40
268.0
 40
268.0
 40
269.0
 40
269.0
 40
270.0
 40
270.0
 40
271.0
 40
271.0
 40
272.0
 40
272.0
 40
273.0
 40
273.0
 40
274.0
 40
274.0
 40
275.0
 40
275.0
 40
276.0
 40
276.0
 40
277.0
 40
277.0
 40
278.0
 40
278.0
 40
279.0
 40
279.0
 40
280.0
 40
280.0
 40
281.0
 40
281.0
 40
282.0
 40
282.0
 40
283.0
 40
283.0
 40
284.0
 40
284.0
 40
285.0
 40
285.0
 40
286.0
 40
286.0
 40
287.0
 40
287.0
 40
288.0
 40
288.0
 40
289.0
 40
289.0
 40
290.0
 40
290.0
 40
291.0
 40
291.0
 40
292.0
 40
292.0
 40
293.0
 40
293.0
 40
294.0
 40
294.0
 40
295.0
 40
295.0
 40
296.0
 40
296.0
 40
297.0
 40
297.0
 40
298.0
 40
298.0
 40
299.0
 40
299.0
 40
300.0
 40
300.0
 40
301.0
 40
301.0
 40
302.0
 40
302.0
 40
303.0
 40
303.0
 40
304.0
 40
304.0
 40
305.0
 40
305.0
 40
306.0
 40
306.0
 40
307.0
 40
307.0
 40
308.0
 40
308.0
 40
309.0
 40
309.0
 40
310.0
 40
310.0
 40
311.0
 40
311.0
 40
312.0
 40
312.0
 40
313.0
 40
313.0
 40
314.0
 40
314.0
 40
315.0
 40
315.0
 40
316.0
 40
316.0
 40
317.0
 40
317.0
 40
318.0
 40
318.0
 40
319.0
 40
319.0
 40
320.0
 40
320.0
 40
321.0
 40
321.0
 40
322.0
 40
322.0
 40
323.0
 40
323.0
 40
324.0
 40
324.0
 40
325.0
 40
325.0
 40
326.0
 40
326.0
 40
327.0
 40
327.0
 40
328.0
 40
328.0
 40
329.0
 40
329.0
 40
330.0
 40
330.0
 40
331.0
 40
331.0
 40
332.0
 40
332.0
 40
333.0
 40
333.0
 40
334.0
 40
334.0
 40
335.0
 40
335.0
 40
336.0
 40
336.0
 40
337.0
 40
337.0
 40
338.0
 40
338.0
 40
339.0
 40
339.0
 40
340.0
 40
340.0
 40
341.0
 40
341.0
 40
342.0
 40
342.0
 40
343.0
 40
343.0
 40
344.0
 40
344.0
 40
345.0
 40
345.0
 40
346.0
 40
346.0
 40
347.0
 40
347.0
 40
348.0
 40
348.0
 40
349.0
 40
349.0
 40
350.0
 40
350.0
 40
351.0
 40
351.0
 40
352.0
 40
352.0
 40
353.0
 40
353.0
 40
354.0
 40
354.0
 40
355.0
 40
355.0
 40
356.0
 40
356.0
 40
357.0
 40
357.0
 40
358.0
 40
358.0
 40
359.0
 40
359.0
 40
360.0
 40
360.0
 40
361.0
 40
361.0
 40
362.0
 40
362.0
 40
363.0
 40
363.0
 40
364.0
 40
364.0
 40
365.0
 40
365.0
 40
366.0
 40
366.0
 40
367.0
 40
367.0
 40
368.0
 40
368.0
 40
369.0
 40
369.0
 40
370.0
 40
370.0
 40
371.0
 40
371.0
 40
372.0
 40
372.0
 40
373.0
 40
373.0
 40
374.0
 40
374.0
 40
375.0
 40
375.0
 40
376.0
 40
376.0
 40
377.0
 40
377.0
 40
378.0
 40
378.0
 40
379.0
 40
379.0
 40
380.0
 40
380.0
 40
381.0
 40
381.0
 40
382.0
 40
382.0
 40
383.0
 40
383.0
 40
384.0
 40
384.0
 40
385.0
 40
385.0
 40
386.0
 40
386.0
 40
387.0
 40
387.0
 40
388.0
 40
388.0
 40
389.0
 40
389.0
 40
389.0
 10
930.2998716488115
 20
-1354.283428391147
 30
0.0
 41
1.0
 10
931.118295757532
 20
-1354.283428391147
 30
0.0
 41
1.0
 10
931.9367198662525
 20
-1354.283428391147
 30
0.0
 41
1.0
 10
931.5229661307358
 20
-1355.626054655397
 30
0.0
 41
1.0
 10
931.109212395219
 20
-1356.968680919647
 30
0.0
 41
1.0
 10
931.1275518903863
 20
-1356.939980146736
 30
0.0
 41
0.9999957264339473
 10
931.1460588872354
 20
-1356.911387096557
 30
0.0
 41
1.0
 10
931.1764882113639
 20
-1356.864374218195
 30
0.0
 41
1.0
 10
931.2069175354923
 20
-1356.817361339833
 30
0.0
 41
1.0
 10
931.2862831805978
 20
-1356.69474253293
 30
0.0
 41
0.9995394069080946
 10
931.3729415721515
 20
-1356.577164471186
 30
0.0
 41
1.0
 10
931.4086984344133
 20
-1356.52864957859
 30
0.0
 41
1.0
 10
931.4444552966751
 20
-1356.480134685994
 30
0.0
 41
1.0
 10
931.5781819644898
 20
-1356.298694410872
 30
0.0
 41
0.9994460617143521
 10
931.7236824457759
 20
-1356.126552013224
 30
0.0
 41
1.0
 10
931.7280706267502
 20
-1356.121360332843
 30
0.0
 41
1.0
 10
931.7324588077244
 20
-1356.116168652461
 30
0.0
 41
1.0
 10
931.8691829270639
 20
-1355.954409615575
 30
0.0
 41
0.9994359394934248
 10
932.0164571574153
 20
-1355.80219341441
 30
0.0
 41
1.0
 10
932.018840511367
 20
-1355.799730084038
 30
0.0
 41
1.0
 10
932.0212238653188
 20
-1355.797266753667
 30
0.0
 41
1.0
 10
932.1637313877654
 20
-1355.649977213247
 30
0.0
 41
0.9995293688567425
 10
932.3150030687489
 20
-1355.511704001081
 30
0.0
 41
1.0
 10
932.3342968280074
 20
-1355.494068115435
 30
0.0
 41
1.0
 10
932.3535905872658
 20
-1355.476432229788
 30
0.0
 41
1.0
 10
932.4662747497279
 20
-1355.37343078892
 30
0.0
 41
0.9997087614802947
 10
932.5837976386861
 20
-1355.275986508119
 30
0.0
 41
1.0
 10
932.6029637118532
 20
-1355.260094929618
 30
0.0
 41
1.0
 10
932.6221297850204
 20
-1355.244203351117
 30
0.0
 41
1.0
 10
932.7013205276328
 20
-1355.178542227328
 30
0.0
 41
0.9999595338693126
 10
932.7816797984963
 20
-1355.114316496667
 30
0.0
 41
1.0
 10
932.8620390693445
 20
-1355.050090766017
 30
0.0
 41
0.9999749417507734
 10
932.9432996036909
 20
-1354.987009212068
 30
0.0
 41
1.0
 10
932.9642857498659
 20
-1354.970717924757
 30
0.0
 41
1.0
 10
932.9852718960408
 20
-1354.954426637446
 30
0.0
 41
1.0
 10
933.0698397813328
 20
-1354.888777627612
 30
0.0
 41
0.9999792037133471
 10
933.1552473810973
 20
-1354.824224845972
 30
0.0
 41
1.0
 10
933.1760722070194
 20
-1354.808485023707
 30
0.0
 41
1.0
 10
933.1968970329415
 20
-1354.792745201441
 30
0.0
 41
1.0
 10
933.2406549808743
 20
-1354.759672064323
 30
0.0
 41
0.9999993374001179
 10
933.2843366670099
 20
-1354.726498268905
 30
0.0
 41
1.0
 10
933.3280183531564
 20
-1354.693324473478
 30
0.0
 41
0.9999160953813527
 10
933.3725447640795
 20
-1354.661293408278
 30
0.0
 41
1.0
 10
933.4053666514956
 20
-1354.637682252695
 30
0.0
 41
1.0
 10
933.4381885389117
 20
-1354.614071097113
 30
0.0
 41
1.0
 10
933.5483587246692
 20
-1354.534817720745
 30
0.0
 41
0.9980964527232128
 10
933.6674477181698
 20
-1354.469730247889
 30
0.0
 41
1.0
 10
933.7044803250985
 20
-1354.449490268296
 30
0.0
 41
1.0
 10
933.7415129320271
 20
-1354.429250288702
 30
0.0
 41
1.0
 10
933.9208399452998
 20
-1354.331240038002
 30
0.0
 41
0.9984572810573
 10
934.1099285116591
 20
-1354.253717776655
 30
0.0
 41
1.0
 10
934.1135747810558
 20
-1354.252222884317
 30
0.0
 41
1.0
 10
934.1172210504526
 20
-1354.250727991978
 30
0.0
 41
1.0
 10
934.299017078019
 20
-1354.176195515308
 30
0.0
 41
0.9987838528034327
 10
934.4872697365772
 20
-1354.119929875143
 30
0.0
 41
1.0
 10
934.4915076857766
 20
-1354.118663221452
 30
0.0
 41
1.0
 10
934.495745634976
 20
-1354.117396567762
 30
0.0
 41
1.0
 10
934.6755223951371
 20
-1354.063664234977
 30
0.0
 41
0.9990652816207267
 10
934.8592683268523
 20
-1354.025660555435
 30
0.0
 41
1.0
 10
934.8644567278818
 20
-1354.024587452329
 30
0.0
 41
1.0
 10
934.8696451289114
 20
-1354.023514349223
 30
0.0
 41
1.0
 10
935.0430142585666
 20
-1353.987656875893
 30
0.0
 41
0.9992909934270314
 10
935.2185900250265
 20
-1353.964946443426
 30
0.0
 41
1.0
 10
935.3941657914831
 20
-1353.94223601096
 30
0.0
 41
0.9994553539448314
 10
935.5708572245742
 20
-1353.931156706754
 30
0.0
 41
1.0
 10
935.6062916323715
 20
-1353.928934818706
 30
0.0
 41
1.0
 10
935.6417260401689
 20
-1353.926712930658
 30
0.0
 41
1.0
 10
935.8079518067385
 20
-1353.916289868246
 30
0.0
 41
0.9990928098292936
 10
935.9744615986413
 20
-1353.920049509481
 30
0.0
 41
1.0
 10
936.0130234339139
 20
-1353.920920201014
 30
0.0
 41
1.0
 10
936.0515852691865
 20
-1353.921790892547
 30
0.0
 41
1.0
 10
936.1409713905448
 20
-1353.923809150715
 30
0.0
 41
0.9998382089206577
 10
936.2302270733301
 20
-1353.929041277243
 30
0.0
 41
1.0
 10
936.2306569795473
 20
-1353.929066478146
 30
0.0
 41
1.0
 10
936.2310868857646
 20
-1353.929091679048
 30
0.0
 41
1.0
 10
936.3194827561135
 20
-1353.934273403771
 30
0.0
 41
0.9997558016758693
 10
936.4075633333171
 20
-1353.943355919138
 30
0.0
 41
1.0
 10
936.408039471747
 20
-1353.943405016621
 30
0.0
 41
1.0
 10
936.4085156101769
 20
-1353.943454114103
 30
0.0
 41
1.0
 10
936.4956439105181
 20
-1353.952438434505
 30
0.0
 41
0.9996565144181692
 10
936.58218176386
 20
-1353.965975741194
 30
0.0
 41
1.0
 10
936.58264768924
 20
-1353.966048626925
 30
0.0
 41
1.0
 10
936.58311361462
 20
-1353.966121512657
 30
0.0
 41
1.0
 10
936.6687196172044
 20
-1353.979513047883
 30
0.0
 41
0.9995321806867198
 10
936.75334669753
 20
-1353.998113536312
 30
0.0
 41
1.0
 10
936.7537358921004
 20
-1353.998199078777
 30
0.0
 41
1.0
 10
936.7541250866708
 20
-1353.998284621243
 30
0.0
 41
1.0
 10
936.8379737778564
 20
-1354.016714024741
 30
0.0
 41
0.9993819199220165
 10
936.9203203120542
 20
-1354.040989408002
 30
0.0
 41
1.0
 10
936.9205587455526
 20
-1354.041059697111
 30
0.0
 41
1.0
 10
936.9207971790512
 20
-1354.041129986221
 30
0.0
 41
1.0
 10
937.0026668462508
 20
-1354.065264791263
 30
0.0
 41
0.9992088568505905
 10
937.0823593652386
 20
-1354.095830027057
 30
0.0
 41
1.0
 10
937.1620403561176
 20
-1354.12638962779
 30
0.0
 41
0.9990226101773199
 10
937.2387110260248
 20
-1354.163867059405
 30
0.0
 41
1.0
 10
937.3153701678235
 20
-1354.201338855958
 30
0.0
 41
0.9988424273972271
 10
937.3880737950359
 20
-1354.246003631211
 30
0.0
 41
1.0
 10
937.388341503415
 20
-1354.246168095283
 30
0.0
 41
1.0
 10
937.3886092117939
 20
-1354.246332559355
 30
0.0
 41
1.0
 10
937.4618482557645
 20
-1354.291326262753
 30
0.0
 41
0.9986928844491244
 10
937.5301111224742
 20
-1354.343561997032
 30
0.0
 41
1.0
 10
937.5306924146971
 20
-1354.34400681026
 30
0.0
 41
1.0
 10
937.53127370692
 20
-1354.344451623488
 30
0.0
 41
1.0
 10
937.6006991580763
 20
-1354.397576984225
 30
0.0
 41
0.9986007262279101
 10
937.664125327843
 20
-1354.457737753918
 30
0.0
 41
1.0
 10
937.6650197432998
 20
-1354.458586121752
 30
0.0
 41
1.0
 10
937.6659141587566
 20
-1354.459434489587
 30
0.0
 41
1.0
 10
937.7311291594374
 20
-1354.521291994951
 30
0.0
 41
0.9985581491381692
 10
937.7893367711388
 20
-1354.589784485222
 30
0.0
 41
1.0
 10
937.7985952247349
 20
-1354.600678842924
 30
0.0
 41
1.0
 10
937.807853678331
 20
-1354.611573200626
 30
0.0
 41
1.0
 10
937.8845781972241
 20
-1354.701854406301
 30
0.0
 41
0.9970460233520149
 10
937.9465700983835
 20
-1354.802821490483
 30
0.0
 41
1.0
 10
937.9610394634633
 20
-1354.826387949564
 30
0.0
 41
1.0
 10
937.975508828543
 20
-1354.849954408646
 30
0.0
 41
1.0
 10
938.0152455285555
 20
-1354.914674132678
 30
0.0
 41
0.9988468816636578
 10
938.0485918993065
 20
-1354.982906585105
 30
0.0
 41
1.0
 10
938.0556279217984
 20
-1354.997303506243
 30
0.0
 41
1.0
 10
938.0626639442903
 20
-1355.011700427381
 30
0.0
 41
1.0
 10
938.0819382700582
 20
-1355.051139037533
 30
0.0
 41
0.999843118999763
 10
938.0998035975531
 20
-1355.091235591973
 30
0.0
 41
1.0
 10
938.1176689250667
 20
-1355.131332146455
 30
0.0
 41
0.9999989989932274
 10
938.1356476485107
 20
-1355.171377984088
 30
0.0
 41
1.0
 10
938.1418199600846
 20
-1355.185126200855
 30
0.0
 41
1.0
 10
938.1479922716585
 20
-1355.198874417623
 30
0.0
 41
1.0
 10
938.1783156182673
 20
-1355.266416688828
 30
0.0
 41
0.9998790356322063
 10
938.2065234984065
 20
-1355.334869440768
 30
0.0
 41
1.0
 10
938.2133586796904
 20
-1355.351456542195
 30
0.0
 41
1.0
 10
938.2201938609744
 20
-1355.368043643621
 30
0.0
 41
1.0
 10
938.2437515233553
 20
-1355.425211598508
 30
0.0
 41
0.9998227574561205
 10
938.2651402717452
 20
-1355.483225906787
 30
0.0
 41
1.0
 10
938.2865290201354
 20
-1355.541240215067
 30
0.0
 41
0.9996797971041236
 10
938.3049553050951
 20
-1355.600262334187
 30
0.0
 41
1.0
 10
938.3088591078199
 20
-1355.612766792354
 30
0.0
 41
1.0
 10
938.3127629105447
 20
-1355.62527125052
 30
0.0
 41
1.0
 10
938.3389968009554
 20
-1355.709302285978
 30
0.0
 41
0.9979274938734057
 10
938.3542213244344
 20
-1355.796006644638
 30
0.0
 41
1.0
 10
938.3564450116953
 20
-1355.808670645457
 30
0.0
 41
1.0
 10
938.3586686989563
 20
-1355.821334646277
 30
0.0
 41
1.0
 10
938.3695986386548
 20
-1355.883581153568
 30
0.0
 41
0.9994985982137569
 10
938.3765668038318
 20
-1355.946394654711
 30
0.0
 41
1.0
 10
938.3835349690086
 20
-1356.009208155848
 30
0.0
 41
0.9996372611200969
 10
938.3871108347763
 20
-1356.072305734531
 30
0.0
 41
1.0
 10
938.3872794122658
 20
-1356.075280351615
 30
0.0
 41
1.0
 10
938.3874479897552
 20
-1356.0782549687
 30
0.0
 41
1.0
 10
938.3913610105016
 20
-1356.147301781545
 30
0.0
 41
0.9997730630736701
 10
938.3923293239897
 20
-1356.216452605584
 30
0.0
 41
1.0
 10
938.3923864304077
 20
-1356.220530784724
 30
0.0
 41
1.0
 10
938.3924435368258
 20
-1356.224608963864
 30
0.0
 41
1.0
 10
938.39352606315
 20
-1356.301916146185
 30
0.0
 41
0.999877261407091
 10
938.3921859764182
 20
-1356.379219292753
 30
0.0
 41
1.0
 10
938.3920967132195
 20
-1356.384368456585
 30
0.0
 41
1.0
 10
938.3920074500209
 20
-1356.389517620416
 30
0.0
 41
1.0
 10
938.3904888368917
 20
-1356.477119094651
 30
0.0
 41
0.9999415567328268
 10
938.3870765266453
 20
-1356.564667256336
 30
0.0
 41
1.0
 10
938.3868352059701
 20
-1356.570858716068
 30
0.0
 41
1.0
 10
938.386593885295
 20
-1356.5770501758
 30
0.0
 41
1.0
 10
938.382698933698
 20
-1356.676981256962
 30
0.0
 41
0.9999716810421219
 10
938.3773003505795
 20
-1356.776842395187
 30
0.0
 41
1.0
 10
938.3740875517908
 20
-1356.836271644841
 30
0.0
 41
1.0
 10
938.3708747530022
 20
-1356.895700894496
 30
0.0
 41
1.0
 10
938.3628008438496
 20
-1357.045049295775
 30
0.0
 41
0.9999819129898119
 10
938.3529310522331
 20
-1357.194289773485
 30
0.0
 41
1.0
 10
938.3430612606165
 20
-1357.343530251197
 30
0.0
 41
1.0
 10
938.3406219400526
 20
-1357.380723297046
 30
0.0
 41
1.0
 10
938.3633201738965
 20
-1357.341982299695
 30
0.0
 41
0.9999982128144004
 10
938.386164732647
 20
-1357.303327405745
 30
0.0
 41
1.0
 10
938.4130742925279
 20
-1357.257794191697
 30
0.0
 41
1.0
 10
938.4399838524088
 20
-1357.212260977648
 30
0.0
 41
1.0
 10
938.5166475309363
 20
-1357.082539655576
 30
0.0
 41
0.9998609190058719
 10
938.5975948438042
 20
-1356.955447273637
 30
0.0
 41
1.0
 10
938.6272431652781
 20
-1356.908897540692
 30
0.0
 41
1.0
 10
938.656891486752
 20
-1356.862347807747
 30
0.0
 41
1.0
 10
938.7391637069953
 20
-1356.733175237742
 30
0.0
 41
0.9999067609732707
 10
938.824932716461
 20
-1356.606297548298
 30
0.0
 41
1.0
 10
938.8273374196651
 20
-1356.602740282239
 30
0.0
 41
1.0
 10
938.8297421228693
 20
-1356.599183016179
 30
0.0
 41
1.0
 10
938.910701725928
 20
-1356.479419858853
 30
0.0
 41
0.9998784952149019
 10
938.9953553356064
 20
-1356.362238642148
 30
0.0
 41
1.0
 10
939.0800089452887
 20
-1356.245057425439
 30
0.0
 41
0.9998532968282021
 10
939.1686265661087
 20
-1356.130844516971
 30
0.0
 41
1.0
 10
939.1885883550989
 20
-1356.105117195953
 30
0.0
 41
1.0
 10
939.208550144089
 20
-1356.079389874933
 30
0.0
 41
1.0
 10
939.3270341938495
 20
-1355.926684263962
 30
0.0
 41
0.9991551975795138
 10
939.457658643475
 20
-1355.784224701877
 30
0.0
 41
1.0
 10
939.4611682594533
 20
-1355.780397100254
 30
0.0
 41
1.0
 10
939.4646778754316
 20
-1355.776569498631
 30
0.0
 41
1.0
 10
939.5882830930966
 20
-1355.641765139795
 30
0.0
 41
0.9997418144180904
 10
939.7178852327991
 20
-1355.512715729181
 30
0.0
 41
1.0
 10
939.847487372499
 20
-1355.383666318569
 30
0.0
 41
0.99892382046333
 10
939.9884899207489
 20
-1355.267181356531
 30
0.0
 41
1.0
 10
940.0337375988903
 20
-1355.229801364921
 30
0.0
 41
1.0
 10
940.0789852770317
 20
-1355.19242137331
 30
0.0
 41
1.0
 10
940.2192253342523
 20
-1355.07656632002
 30
0.0
 41
0.9990825084097175
 10
940.3688652668552
 20
-1354.973137322188
 30
0.0
 41
1.0
 10
940.3789106309125
 20
-1354.966194109108
 30
0.0
 41
1.0
 10
940.3889559949698
 20
-1354.959250896028
 30
0.0
 41
1.0
 10
940.5185051994583
 20
-1354.869708324356
 30
0.0
 41
0.9998164899827175
 10
940.6513894028354
 20
-1354.785194082839
 30
0.0
 41
1.0
 10
940.6632349633583
 20
-1354.777660316315
 30
0.0
 41
1.0
 10
940.6750805238812
 20
-1354.770126549791
 30
0.0
 41
1.0
 10
940.7842736062089
 20
-1354.700679841324
 30
0.0
 41
0.9997473449130494
 10
940.8964775634611
 20
-1354.636210883507
 30
0.0
 41
1.0
 10
941.0086815207093
 20
-1354.571741925692
 30
0.0
 41
0.9999327861144988
 10
941.1223501314686
 20
-1354.509891934013
 30
0.0
 41
1.0
 10
941.1229021340321
 20
-1354.509591575332
 30
0.0
 41
1.0
 10
941.1234541365955
 20
-1354.509291216651
 30
0.0
 41
1.0
 10
941.2382267524831
 20
-1354.44684050761
 30
0.0
 41
0.9996956420484308
 10
941.3559400783278
 20
-1354.390127040633
 30
0.0
 41
1.0
 10
941.3863804832203
 20
-1354.375461063903
 30
0.0
 41
1.0
 10
941.4168208881127
 20
-1354.360795087174
 30
0.0
 41
1.0
 10
941.5197979948533
 20
-1354.311181428732
 30
0.0
 41
0.9998070570176048
 10
941.6246443837907
 20
-1354.265650841832
 30
0.0
 41
1.0
 10
941.7294907727277
 20
-1354.220120254933
 30
0.0
 41
0.9997827436147357
 10
941.8361437093334
 20
-1354.178999083623
 30
0.0
 41
1.0
 10
941.8553665589689
 20
-1354.171587509989
 30
0.0
 41
1.0
 10
941.8745894086044
 20
-1354.164175936355
 30
0.0
 41
1.0
 10
942.0196880444776
 20
-1354.108231617778
 30
0.0
 41
0.9988031841976522
 10
942.1695584070818
 20
-1354.06673155361
 30
0.0
 41
1.0
 10
942.1944756554458
 20
-1354.059831807803
 30
0.0
 41
1.0
 10
942.2193929038099
 20
-1354.052932061996
 30
0.0
 41
1.0
 10
942.3866629294565
 20
-1354.006613919589
 30
0.0
 41
0.9984748040549731
 10
942.5580198381043
 20
-1353.979019687325
 30
0.0
 41
1.0
 10
942.5627589743532
 20
-1353.978256526811
 30
0.0
 41
1.0
 10
942.5674981106021
 20
-1353.977493366298
 30
0.0
 41
1.0
 10
942.7293767467531
 20
-1353.95142545506
 30
0.0
 41
0.9984436495479907
 10
942.893151490478
 20
-1353.943547501241
 30
0.0
 41
1.0
 10
942.914848698609
 20
-1353.942503814042
 30
0.0
 41
1.0
 10
942.9365459067401
 20
-1353.941460126842
 30
0.0
 41
1.0
 10
943.0569262342023
 20
-1353.935669547423
 30
0.0
 41
0.9987954789335111
 10
943.1772944791126
 20
-1353.941706075165
 30
0.0
 41
1.0
 10
943.1972592716081
 20
-1353.942707319503
 30
0.0
 41
1.0
 10
943.2172240641038
 20
-1353.943708563842
 30
0.0
 41
1.0
 10
943.2976627240237
 20
-1353.947742602907
 30
0.0
 41
0.9997941595876881
 10
943.3778715021168
 20
-1353.955036668828
 30
0.0
 41
1.0
 10
943.4580802802147
 20
-1353.96233073475
 30
0.0
 41
0.9998589466236903
 10
943.537998827073
 20
-1353.9723145892
 30
0.0
 41
1.0
 10
943.5704050288779
 20
-1353.976362946119
 30
0.0
 41
1.0
 10
943.6028112306827
 20
-1353.980411303038
 30
0.0
 41
1.0
 10
943.7475421811532
 20
-1353.998491871326
 30
0.0
 41
0.9993495063249036
 10
943.8905934249177
 20
-1354.026957581067
 30
0.0
 41
1.0
 10
943.9235271220673
 20
-1354.033511044282
 30
0.0
 41
1.0
 10
943.9564608192168
 20
-1354.040064507496
 30
0.0
 41
1.0
 10
944.0657546424254
 20
-1354.061812841632
 30
0.0
 41
0.9996788715560969
 10
944.1738062143849
 20
-1354.089070640996
 30
0.0
 41
1.0
 10
944.1758692169242
 20
-1354.089591067569
 30
0.0
 41
1.0
 10
944.1779322194636
 20
-1354.090111494142
 30
0.0
 41
1.0
 10
944.2818577863417
 20
-1354.116328440359
 30
0.0
 41
0.9995480654492651
 10
944.3840200215707
 20
-1354.148743396983
 30
0.0
 41
1.0
 10
944.3857096637009
 20
-1354.149279501898
 30
0.0
 41
1.0
 10
944.3873993058312
 20
-1354.149815606812
 30
0.0
 41
1.0
 10
944.4861822568017
 20
-1354.181158353608
 30
0.0
 41
0.9993867959456659
 10
944.5825294152427
 20
-1354.219337722898
 30
0.0
 41
1.0
 10
944.5837723643278
 20
-1354.219830264794
 30
0.0
 41
1.0
 10
944.585015313413
 20
-1354.22032280669
 30
0.0
 41
1.0
 10
944.6788765736849
 20
-1354.257517092187
 30
0.0
 41
0.9992050256521726
 10
944.7694762487185
 20
-1354.302070991426
 30
0.0
 41
1.0
 10
944.7702109314306
 20
-1354.302432283887
 30
0.0
 41
1.0
 10
944.7709456141426
 20
-1354.302793576347
 30
0.0
 41
1.0
 10
944.8600759237513
 20
-1354.346624890664
 30
0.0
 41
0.9990222350741794
 10
944.9449859851456
 20
-1354.398158158363
 30
0.0
 41
1.0
 10
944.945169870428
 20
-1354.398269761268
 30
0.0
 41
1.0
 10
944.9453537557104
 20
-1354.398381364172
 30
0.0
 41
1.0
 10
945.0298960465391
 20
-1354.449691426061
 30
0.0
 41
0.9988642743805582
 10
945.1091705811582
 20
-1354.508815613587
 30
0.0
 41
1.0
 10
945.1884451157767
 20
-1354.567939801111
 30
0.0
 41
0.9987681233310622
 10
945.2614689000535
 20
-1354.634630492513
 30
0.0
 41
1.0
 10
945.2617978280193
 20
-1354.634930893727
 30
0.0
 41
1.0
 10
945.262126755985
 20
-1354.635231294941
 30
0.0
 41
1.0
 10
945.3358083961924
 20
-1354.70252278877
 30
0.0
 41
0.9987496570898289
 10
945.4024022015192
 20
-1354.776835602856
 30
0.0
 41
1.0
 10
945.40317437128
 20
-1354.777697276214
 30
0.0
 41
1.0
 10
945.4039465410408
 20
-1354.778558949573
 30
0.0
 41
1.0
 10
945.4720846858884
 20
-1354.854595110374
 30
0.0
 41
0.9988147669826628
 10
945.5325069401141
 20
-1354.936896117218
 30
0.0
 41
1.0
 10
945.5336262661917
 20
-1354.93842074857
 30
0.0
 41
1.0
 10
945.5347455922694
 20
-1354.939945379923
 30
0.0
 41
1.0
 10
945.5974064986501
 20
-1355.025295649471
 30
0.0
 41
0.9989452636216823
 10
945.6519734116109
 20
-1355.116034338628
 30
0.0
 41
1.0
 10
945.6533221376967
 20
-1355.118277119654
 30
0.0
 41
1.0
 10
945.6546708637825
 20
-1355.12051990068
 30
0.0
 41
1.0
 10
945.7119352289151
 20
-1355.21574415189
 30
0.0
 41
0.9991046436070096
 10
945.7609444422365
 20
-1355.315468584915
 30
0.0
 41
1.0
 10
945.7624083038266
 20
-1355.318447264988
 30
0.0
 41
1.0
 10
945.7638721654168
 20
-1355.321425945061
 30
0.0
 41
1.0
 10
945.8158091019188
 20
-1355.427107738232
 30
0.0
 41
0.9992763831101371
 10
945.8595622304734
 20
-1355.536431800187
 30
0.0
 41
1.0
 10
945.8610415001369
 20
-1355.540127987721
 30
0.0
 41
1.0
 10
945.8625207698003
 20
-1355.543824175254
 30
0.0
 41
1.0
 10
945.9092324376817
 20
-1355.660540612277
 30
0.0
 41
0.9994163472883943
 10
945.947865468872
 20
-1355.780174200743
 30
0.0
 41
1.0
 10
945.9491036211191
 20
-1355.784008344526
 30
0.0
 41
1.0
 10
945.9503417733661
 20
-1355.787842488309
 30
0.0
 41
1.0
 10
945.9902253343829
 20
-1355.911348549787
 30
0.0
 41
0.9997268055890811
 10
946.0242933902946
 20
-1356.036583581736
 30
0.0
 41
1.0
 10
946.0252235705645
 20
-1356.040002947847
 30
0.0
 41
1.0
 10
946.0261537508345
 20
-1356.043422313957
 30
0.0
 41
1.0
 10
946.0583614462068
 20
-1356.161818613688
 30
0.0
 41
0.9996701319000446
 10
946.084447062977
 20
-1356.28171256695
 30
0.0
 41
1.0
 10
946.1105326797476
 20
-1356.401606520214
 30
0.0
 41
0.9995785451108886
 10
946.1296162570873
 20
-1356.522812281245
 30
0.0
 41
1.0
 10
946.133836039261
 20
-1356.549613436011
 30
0.0
 41
1.0
 10
946.1380558214348
 20
-1356.576414590776
 30
0.0
 41
1.0
 10
946.1646307973732
 20
-1356.745200564478
 30
0.0
 41
0.997992510121692
 10
946.1696563832996
 20
-1356.91599189257
 30
0.0
 41
1.0
 10
946.1704811957243
 20
-1356.944022616047
 30
0.0
 41
1.0
 10
946.1713060081488
 20
-1356.972053339523
 30
0.0
 41
1.0
 10
946.1746819692263
 20
-1357.086783220655
 30
0.0
 41
0.9995314902262444
 10
946.1710317770875
 20
-1357.201504704414
 30
0.0
 41
1.0
 10
946.1673815849493
 20
-1357.316226188162
 30
0.0
 41
0.9996245486943958
 10
946.1574524898183
 20
-1357.430575459288
 30
0.0
 41
1.0
 10
946.157289441824
 20
-1357.432453215424
 30
0.0
 41
1.0
 10
946.1571263938297
 20
-1357.43433097156
 30
0.0
 41
1.0
 10
946.14687120271
 20
-1357.552435754956
 30
0.0
 41
0.9997286095000789
 10
946.1311258791392
 20
-1357.669934663847
 30
0.0
 41
1.0
 10
946.1307323864887
 20
-1357.67287108855
 30
0.0
 41
1.0
 10
946.1303388938381
 20
-1357.675807513253
 30
0.0
 41
1.0
 10
946.1138065849655
 20
-1357.799179271556
 30
0.0
 41
0.9998265533968916
 10
946.092691126232
 20
-1357.921849746348
 30
0.0
 41
1.0
 10
946.0920145840955
 20
-1357.925780124852
 30
0.0
 41
1.0
 10
946.091338041959
 20
-1357.929710503355
 30
0.0
 41
1.0
 10
946.0688694989524
 20
-1358.060241735157
 30
0.0
 41
0.9999022530854238
 10
946.042760034343
 20
-1358.190093703793
 30
0.0
 41
1.0
 10
946.0417813931772
 20
-1358.194960846182
 30
0.0
 41
1.0
 10
946.0408027520115
 20
-1358.199827988572
 30
0.0
 41
1.0
 10
946.0127360050719
 20
-1358.339414241979
 30
0.0
 41
0.9999524761936425
 10
945.9819530362363
 20
-1358.478426735148
 30
0.0
 41
1.0
 10
945.9806769290607
 20
-1358.484189494451
 30
0.0
 41
1.0
 10
945.9794008218851
 20
-1358.489952253754
 30
0.0
 41
1.0
 10
945.9460656387018
 20
-1358.640490265513
 30
0.0
 41
0.9999813588739339
 10
945.9108946379081
 20
-1358.79060997816
 30
0.0
 41
1.0
 10
945.9093407124493
 20
-1358.797242568592
 30
0.0
 41
1.0
 10
945.9077867869905
 20
-1358.803875159024
 30
0.0
 41
1.0
 10
945.8695079352852
 20
-1358.967260052509
 30
0.0
 41
0.9999955237731992
 10
945.8302520572994
 20
-1359.130412956138
 30
0.0
 41
1.0
 10
945.8179704216659
 20
-1359.181457146658
 30
0.0
 41
1.0
 10
945.8056887860323
 20
-1359.232501337177
 30
0.0
 41
1.0
 10
945.7418696367617
 20
-1359.497742621918
 30
0.0
 41
0.9999993604754468
 10
945.6774506895866
 20
-1359.762838872631
 30
0.0
 41
1.0
 10
945.6727318540538
 20
-1359.782257780613
 30
0.0
 41
1.0
 10
945.668013018521
 20
-1359.801676688594
 30
0.0
 41
1.0
 10
945.5941564002576
 20
-1360.105610755365
 30
0.0
 41
0.9999659914724275
 10
945.5152968043695
 20
-1360.408285301935
 30
0.0
 41
1.0
 10
945.5103441154417
 20
-1360.427294439106
 30
0.0
 41
1.0
 10
945.505391426514
 20
-1360.446303576278
 30
0.0
 41
1.0
 10
945.4166264527703
 20
-1360.786996397191
 30
0.0
 41
0.999944197602653
 10
945.3206834198079
 20
-1361.125737822486
 30
0.0
 41
1.0
 10
945.303982901381
 20
-1361.184701535019
 30
0.0
 41
1.0
 10
945.2872823829541
 20
-1361.243665247551
 30
0.0
 41
1.0
 10
945.1579383131434
 20
-1361.700334097892
 30
0.0
 41
0.999962512073463
 10
945.0207055458241
 20
-1362.154694631875
 30
0.0
 41
1.0
 10
944.9849156027365
 20
-1362.273190658517
 30
0.0
 41
1.0
 10
944.9491256596489
 20
-1362.39168668516
 30
0.0
 41
1.0
 10
944.8746054556088
 20
-1362.638413763258
 30
0.0
 41
0.9999793386314973
 10
944.7969194324714
 20
-1362.884162402494
 30
0.0
 41
1.0
 10
944.7192334093339
 20
-1363.12991104173
 30
0.0
 41
1.0
 10
944.7084538504632
 20
-1363.163928946105
 30
0.0
 41
1.0
 10
942.8580807971941
 20
-1369.051000868572
 30
0.0
 41
1.0
 10
941.0077077439249
 20
-1374.93807279104
 30
0.0
 41
1.0
 10
940.0464510539014
 20
-1374.93807279104
 30
0.0
 41
1.0
 10
939.0851943638778
 20
-1374.93807279104
 30
0.0
 41
1.0
 10
940.7041391425562
 20
-1369.79004428925
 30
0.0
 41
1.0
 10
942.3230839212347
 20
-1364.642015787461
 30
0.0
 41
1.0
 10
942.3682497444046
 20
-1364.497984565205
 30
0.0
 41
1.0
 10
942.4134155675745
 20
-1364.353953342949
 30
0.0
 41
1.0
 10
942.5837199849423
 20
-1363.81086231377
 30
0.0
 41
0.999991165791783
 10
942.7494527966262
 20
-1363.266358782395
 30
0.0
 41
1.0
 10
942.7791487401271
 20
-1363.168794842343
 30
0.0
 41
1.0
 10
942.8088446836279
 20
-1363.071230902291
 30
0.0
 41
1.0
 10
942.9151856083007
 20
-1362.72185525105
 30
0.0
 41
0.999995242813973
 10
943.0193691976315
 20
-1362.371830226682
 30
0.0
 41
1.0
 10
943.0244286679647
 20
-1362.354831952404
 30
0.0
 41
1.0
 10
943.029488138298
 20
-1362.337833678126
 30
0.0
 41
1.0
 10
943.1235527869543
 20
-1362.021805202339
 30
0.0
 41
0.9999931687541527
 10
943.21527862483
 20
-1361.705089989061
 30
0.0
 41
1.0
 10
943.220213889289
 20
-1361.688049279792
 30
0.0
 41
1.0
 10
943.225149153748
 20
-1361.671008570523
 30
0.0
 41
1.0
 10
943.3070044627036
 20
-1361.388374775791
 30
0.0
 41
0.9999893840791214
 10
943.3862516891605
 20
-1361.104998646544
 30
0.0
 41
1.0
 10
943.4654989156156
 20
-1360.821622517304
 30
0.0
 41
0.9999833980061031
 10
943.5414751563532
 20
-1360.537351934292
 30
0.0
 41
1.0
 10
943.5504790930795
 20
-1360.503663055798
 30
0.0
 41
1.0
 10
943.5594830298058
 20
-1360.469974177304
 30
0.0
 41
1.0
 10
943.6284475786715
 20
-1360.211938345011
 30
0.0
 41
0.9999233658070191
 10
943.6910025498909
 20
-1359.952274186291
 30
0.0
 41
1.0
 10
943.7535575211111
 20
-1359.692610027569
 30
0.0
 41
1.0
 10
943.7930409399687
 20
-1359.528803363143
 30
0.0
 41
1.0
 10
943.7980195439427
 20
-1359.508148401286
 30
0.0
 41
1.0
 10
943.8029981479166
 20
-1359.48749343943
 30
0.0
 41
1.0
 10
943.8325243588238
 20
-1359.364996698728
 30
0.0
 41
0.9999868670841492
 10
943.8607934428225
 20
-1359.242203753071
 30
0.0
 41
1.0
 10
943.8646909299814
 20
-1359.225274165649
 30
0.0
 41
1.0
 10
943.8685884171404
 20
-1359.208344578227
 30
0.0
 41
1.0
 10
943.8890625268211
 20
-1359.119410807415
 30
0.0
 41
0.9999778173354597
 10
943.908350124934
 20
-1359.030212190195
 30
0.0
 41
1.0
 10
943.9276377230512
 20
-1358.941013572956
 30
0.0
 41
0.9999602692858104
 10
943.9453320816823
 20
-1358.851485284528
 30
0.0
 41
1.0
 10
943.9485359137589
 20
-1358.835274829647
 30
0.0
 41
1.0
 10
943.9517397458355
 20
-1358.819064374767
 30
0.0
 41
1.0
 10
943.975841768622
 20
-1358.697115176566
 30
0.0
 41
0.9995617985320505
 10
943.9926851158406
 20
-1358.573953428862
 30
0.0
 41
1.0
 10
943.9951496057466
 20
-1358.555932611497
 30
0.0
 41
1.0
 10
943.9976140956527
 20
-1358.537911794132
 30
0.0
 41
1.0
 10
944.0178973567009
 20
-1358.389596744433
 30
0.0
 41
0.9991121410639554
 10
944.0256227102893
 20
-1358.240100645625
 30
0.0
 41
1.0
 10
944.0265415003137
 20
-1358.222320809052
 30
0.0
 41
1.0
 10
944.0274602903381
 20
-1358.204540972479
 30
0.0
 41
1.0
 10
944.0333480638776
 20
-1358.090604546821
 30
0.0
 41
0.9989792494905372
 10
944.0289289717603
 20
-1357.97660171092
 30
0.0
 41
1.0
 10
944.0282809998916
 20
-1357.959885464994
 30
0.0
 41
1.0
 10
944.027633028023
 20
-1357.943169219068
 30
0.0
 41
1.0
 10
944.0245098796429
 20
-1357.862598875023
 30
0.0
 41
0.9997820295394653
 10
944.0180258822672
 20
-1357.782229153278
 30
0.0
 41
1.0
 10
944.0115418848915
 20
-1357.701859431532
 30
0.0
 41
0.9998335105972789
 10
944.0021296893794
 20
-1357.621779815081
 30
0.0
 41
1.0
 10
944.0005347647033
 20
-1357.608210084599
 30
0.0
 41
1.0
 10
943.9989398400271
 20
-1357.594640354117
 30
0.0
 41
1.0
 10
943.986337795163
 20
-1357.487421276703
 30
0.0
 41
0.9996876457878735
 10
943.9683938823648
 20
-1357.380965848988
 30
0.0
 41
1.0
 10
943.9661622192187
 20
-1357.367726113742
 30
0.0
 41
1.0
 10
943.9639305560727
 20
-1357.354486378495
 30
0.0
 41
1.0
 10
943.9501347346524
 20
-1357.27264023454
 30
0.0
 41
0.999554749649386
 10
943.9314814127601
 20
-1357.191762737352
 30
0.0
 41
1.0
 10
943.9311074558887
 20
-1357.190141326646
 30
0.0
 41
1.0
 10
943.930733499017
 20
-1357.188519915939
 30
0.0
 41
1.0
 10
943.9128280908677
 20
-1357.110885240162
 30
0.0
 41
0.9994899427175764
 10
943.8900031821881
 20
-1357.034551957327
 30
0.0
 41
1.0
 10
943.8895446554475
 20
-1357.033018507538
 30
0.0
 41
1.0
 10
943.8890861287068
 20
-1357.03148505775
 30
0.0
 41
1.0
 10
943.8671782735091
 20
-1356.958218674493
 30
0.0
 41
0.9993784877590778
 10
943.8401626384023
 20
-1356.886677969333
 30
0.0
 41
1.0
 10
943.8396309474251
 20
-1356.885269986612
 30
0.0
 41
1.0
 10
943.839099256448
 20
-1356.883862003891
 30
0.0
 41
1.0
 10
943.8131470032953
 20
-1356.815137264173
 30
0.0
 41
0.9992430832253997
 10
943.7819304681364
 20
-1356.748638112106
 30
0.0
 41
1.0
 10
943.7813483520797
 20
-1356.747398056988
 30
0.0
 41
1.0
 10
943.7807662360232
 20
-1356.746158001871
 30
0.0
 41
1.0
 10
943.7507139329765
 20
-1356.682138960037
 30
0.0
 41
0.999078963279853
 10
943.7152833062003
 20
-1356.620932348288
 30
0.0
 41
1.0
 10
943.7146876000186
 20
-1356.619903262429
 30
0.0
 41
1.0
 10
943.7140918938368
 20
-1356.618874176571
 30
0.0
 41
1.0
 10
943.6798526794244
 20
-1356.55972573654
 30
0.0
 41
0.9988874801120936
 10
943.6401934033915
 20
-1356.504066024121
 30
0.0
 41
1.0
 10
943.6396378773276
 20
-1356.503286372446
 30
0.0
 41
1.0
 10
943.6390823512636
 20
-1356.502506720772
 30
0.0
 41
1.0
 10
943.6005341273597
 20
-1356.448406311703
 30
0.0
 41
0.998676206069336
 10
943.5566316560833
 20
-1356.398552597263
 30
0.0
 41
1.0
 10
943.5561876957512
 20
-1356.398048455447
 30
0.0
 41
1.0
 10
943.5557437354191
 20
-1356.397544313631
 30
0.0
 41
1.0
 10
943.5127291848071
 20
-1356.348698882824
 30
0.0
 41
0.9984621642488859
 10
943.4645716280293
 20
-1356.304915582353
 30
0.0
 41
1.0
 10
943.464324993513
 20
-1356.30469135019
 30
0.0
 41
1.0
 10
943.4640783589967
 20
-1356.304467118027
 30
0.0
 41
1.0
 10
943.4164140712523
 20
-1356.261132281883
 30
0.0
 41
0.9982724693850289
 10
943.36399543941
 20
-1356.223687931365
 30
0.0
 41
1.0
 10
943.3115768075693
 20
-1356.186243580847
 30
0.0
 41
0.9981399180157827
 10
943.2549907441759
 20
-1356.155457061404
 30
0.0
 41
1.0
 10
943.254945082097
 20
-1356.155432218246
 30
0.0
 41
1.0
 10
943.2548994200183
 20
-1356.155407375089
 30
0.0
 41
1.0
 10
943.1982220324675
 20
-1356.124571169331
 30
0.0
 41
0.9980927086835839
 10
943.1381766814014
 20
-1356.100954360479
 30
0.0
 41
1.0
 10
943.1377365116898
 20
-1356.100781234604
 30
0.0
 41
1.0
 10
943.1372963419783
 20
-1356.100608108729
 30
0.0
 41
1.0
 10
943.076370651489
 20
-1356.076645048126
 30
0.0
 41
0.9981411356562371
 10
943.0129821300902
 20
-1356.060272406621
 30
0.0
 41
1.0
 10
943.0121000133882
 20
-1356.060044564415
 30
0.0
 41
1.0
 10
943.0112178966863
 20
-1356.05981672221
 30
0.0
 41
1.0
 10
942.9460651418831
 20
-1356.042988396293
 30
0.0
 41
0.9983031812934694
 10
942.8793977128873
 20
-1356.033849035117
 30
0.0
 41
1.0
 10
942.8705266874853
 20
-1356.032632916445
 30
0.0
 41
1.0
 10
942.8616556620832
 20
-1356.031416797774
 30
0.0
 41
1.0
 10
942.8073060195782
 20
-1356.023966067783
 30
0.0
 41
0.9983887708264833
 10
942.7524621702845
 20
-1356.02272139415
 30
0.0
 41
1.0
 10
942.7443987650687
 20
-1356.022538396275
 30
0.0
 41
1.0
 10
942.7363353598529
 20
-1356.0223553984
 30
0.0
 41
1.0
 10
942.6976183209932
 20
-1356.021476720517
 30
0.0
 41
0.999886956308156
 10
942.658892367789
 20
-1356.021762589876
 30
0.0
 41
1.0
 10
942.6201664145799
 20
-1356.022048459236
 30
0.0
 41
0.9999972320186407
 10
942.5814422353641
 20
-1356.022516558765
 30
0.0
 41
1.0
 10
942.5620892187899
 20
-1356.022750498854
 30
0.0
 41
1.0
 10
942.5427362022156
 20
-1356.022984438944
 30
0.0
 41
1.0
 10
942.4653059898483
 20
-1356.023920418652
 30
0.0
 41
0.9997304945086974
 10
942.3880026836141
 20
-1356.028449512437
 30
0.0
 41
1.0
 10
942.3789530419065
 20
-1356.028979718428
 30
0.0
 41
1.0
 10
942.3699034001987
 20
-1356.029509924418
 30
0.0
 41
1.0
 10
942.2745008105535
 20
-1356.035099430183
 30
0.0
 41
0.9997888306415096
 10
942.179408474712
 20
-1356.044604394672
 30
0.0
 41
1.0
 10
942.1706874131382
 20
-1356.045476109304
 30
0.0
 41
1.0
 10
942.1619663515645
 20
-1356.046347823937
 30
0.0
 41
1.0
 10
942.0494318925759
 20
-1356.05759621769
 30
0.0
 41
0.9984170238191074
 10
941.938872745224
 20
-1356.081412299626
 30
0.0
 41
1.0
 10
941.9024916142378
 20
-1356.089249335432
 30
0.0
 41
1.0
 10
941.8661104832516
 20
-1356.097086371238
 30
0.0
 41
1.0
 10
941.7509194148302
 20
-1356.121900237748
 30
0.0
 41
0.9976592854199116
 10
941.6401912484257
 20
-1356.162198914895
 30
0.0
 41
1.0
 10
941.5294630820209
 20
-1356.202497592042
 30
0.0
 41
0.9993255074352304
 10
941.4219912832302
 20
-1356.250814490534
 30
0.0
 41
1.0
 10
941.4173661043068
 20
-1356.252893866734
 30
0.0
 41
1.0
 10
941.4127409253833
 20
-1356.254973242934
 30
0.0
 41
1.0
 10
941.2960187687446
 20
-1356.307448893826
 30
0.0
 41
0.9976475078274455
 10
941.1875714244337
 20
-1356.375396883486
 30
0.0
 41
1.0
 10
941.1692290303002
 20
-1356.386889362299
 30
0.0
 41
1.0
 10
941.1508866361668
 20
-1356.398381841113
 30
0.0
 41
1.0
 10
941.0666844446148
 20
-1356.451138961881
 30
0.0
 41
0.9995131336406615
 10
940.9859367296564
 20
-1356.509045173835
 30
0.0
 41
1.0
 10
940.9051890146975
 20
-1356.566951385789
 30
0.0
 41
0.9995810107605674
 10
940.827927366967
 20
-1356.629433068257
 30
0.0
 41
1.0
 10
940.8249573357584
 20
-1356.63183493972
 30
0.0
 41
1.0
 10
940.82198730455
 20
-1356.634236811183
 30
0.0
 41
1.0
 10
940.7387855944045
 20
-1356.701522236575
 30
0.0
 41
0.9996617837954307
 10
940.659194907272
 20
-1356.773042692133
 30
0.0
 41
1.0
 10
940.6470641563965
 20
-1356.783943425122
 30
0.0
 41
1.0
 10
940.6349334055209
 20
-1356.794844158111
 30
0.0
 41
1.0
 10
940.5666578781198
 20
-1356.856196773588
 30
0.0
 41
0.9997267750053256
 10
940.5013243698306
 20
-1356.920673310118
 30
0.0
 41
1.0
 10
940.4359908615414
 20
-1356.985149846648
 30
0.0
 41
0.999966728895628
 10
940.3717179183886
 20
-1357.050683653549
 30
0.0
 41
1.0
 10
940.3028904706193
 20
-1357.120861312302
 30
0.0
 41
1.0
 10
940.23406302285
 20
-1357.191038971054
 30
0.0
 41
1.0
 10
940.0321351841527
 20
-1357.396928095465
 30
0.0
 41
0.998820533517494
 10
939.8511295671739
 20
-1357.621432327525
 30
0.0
 41
1.0
 10
939.8204896022692
 20
-1357.659435577955
 30
0.0
 41
1.0
 10
939.7898496373643
 20
-1357.697438828385
 30
0.0
 41
1.0
 10
939.5475640905769
 20
-1357.997949561304
 30
0.0
 41
0.9997077826755085
 10
939.3200861394732
 20
-1358.309819355518
 30
0.0
 41
1.0
 10
939.3183627243412
 20
-1358.3121821389
 30
0.0
 41
1.0
 10
939.3166393092092
 20
-1358.314544922281
 30
0.0
 41
1.0
 10
939.0857145278437
 20
-1358.631140283256
 30
0.0
 41
0.9989147567079063
 10
938.8852510249603
 20
-1358.96784974444
 30
0.0
 41
1.0
 10
938.8605098796513
 20
-1359.009406324996
 30
0.0
 41
1.0
 10
938.8357687343424
 20
-1359.050962905552
 30
0.0
 41
1.0
 10
938.6805574357074
 20
-1359.311664290001
 30
0.0
 41
0.9997476598182041
 10
938.5372124481987
 20
-1359.579074038582
 30
0.0
 41
1.0
 10
938.3938674606889
 20
-1359.846483787165
 30
0.0
 41
0.9996258967110083
 10
938.265359208757
 20
-1360.121331723789
 30
0.0
 41
1.0
 10
938.2521592993076
 20
-1360.149563123884
 30
0.0
 41
1.0
 10
938.2389593898581
 20
-1360.177794523979
 30
0.0
 41
1.0
 10
938.0987506688585
 20
-1360.477666921932
 30
0.0
 41
0.9998735413945654
 10
937.9681493221376
 20
-1360.7818465214
 30
0.0
 41
1.0
 10
937.964706494078
 20
-1360.789865106863
 30
0.0
 41
1.0
 10
937.9612636660185
 20
-1360.797883692326
 30
0.0
 41
1.0
 10
937.8375479754167
 20
-1361.086026120869
 30
0.0
 41
0.9999377418860413
 10
937.7202931732425
 20
-1361.376857588543
 30
0.0
 41
1.0
 10
937.603038371067
 20
-1361.66768905622
 30
0.0
 41
0.999950829950463
 10
937.4915744276947
 20
-1361.960788733028
 30
0.0
 41
1.0
 10
937.4884936590299
 20
-1361.968889758998
 30
0.0
 41
1.0
 10
937.4854128903651
 20
-1361.976990784968
 30
0.0
 41
1.0
 10
937.3677874096647
 20
-1362.286292513712
 30
0.0
 41
0.9999609228436802
 10
937.2556488067877
 20
-1362.597625529736
 30
0.0
 41
1.0
 10
937.2526927964386
 20
-1362.605832370144
 30
0.0
 41
1.0
 10
937.2497367860894
 20
-1362.614039210552
 30
0.0
 41
1.0
 10
937.1316861625132
 20
-1362.941785907395
 30
0.0
 41
0.9999674607399134
 10
937.0189386364451
 20
-1363.27139452739
 30
0.0
 41
1.0
 10
936.967540245887
 20
-1363.421653723069
 30
0.0
 41
1.0
 10
936.9161418553288
 20
-1363.571912918748
 30
0.0
 41
1.0
 10
936.8001312485679
 20
-1363.91106090126
 30
0.0
 41
0.9999287532307314
 10
936.6922498445945
 20
-1364.252881640244
 30
0.0
 41
1.0
 10
936.6457725884775
 20
-1364.400144184544
 30
0.0
 41
1.0
 10
936.5992953323605
 20
-1364.547406728845
 30
0.0
 41
1.0
 10
936.5843684406418
 20
-1364.594702379162
 30
0.0
 41
0.9999998223531782
 10
936.5694979318932
 20
-1364.642015787461
 30
0.0
 41
1.0
 10
934.9488417950978
 20
-1369.79004428925
 30
0.0
 41
1.0
 10
933.3281856583023
 20
-1374.93807279104
 30
0.0
 41
1.0
 10
932.4228772144114
 20
-1374.93807279104
 30
0.0
 41
1.0
 10
931.5175687705205
 20
-1374.93807279104
 30
0.0
 41
1.0
 10
933.3696531819065
 20
-1369.051000868572
 30
0.0
 41
1.0
 10
935.2217375932926
 20
-1363.163928946105
 30
0.0
 41
1.0
 10
935.2318593515953
 20
-1363.131885732655
 30
0.0
 41
1.0
 10
935.304467020445
 20
-1362.901586190829
 30
0.0
 41
1.0
 10
935.3770746892926
 20
-1362.67128664901
 30
0.0
 41
0.9999825681970814
 10
935.4469577285021
 20
-1362.440145753952
 30
0.0
 41
1.0
 10
935.4952487906648
 20
-1362.280421170449
 30
0.0
 41
1.0
 10
935.5435398528277
 20
-1362.120696586947
 30
0.0
 41
1.0
 10
935.6406922061437
 20
-1361.799361365175
 30
0.0
 41
0.9999672528963915
 10
935.7326310117671
 20
-1361.476495819588
 30
0.0
 41
1.0
 10
935.7354198954349
 20
-1361.466701974205
 30
0.0
 41
1.0
 10
935.7382087791027
 20
-1361.456908128822
 30
0.0
 41
1.0
 10
935.8245698173894
 20
-1361.153630274005
 30
0.0
 41
0.999989974916898
 10
935.9082114269252
 20
-1360.849591185549
 30
0.0
 41
1.0
 10
935.9183173459456
 20
-1360.81285594786
 30
0.0
 41
1.0
 10
935.9284232649661
 20
-1360.776120710171
 30
0.0
 41
1.0
 10
935.9918530364621
 20
-1360.545552097088
 30
0.0
 41
0.9999214200505503
 10
936.0494824648376
 20
-1360.313465754888
 30
0.0
 41
1.0
 10
936.0622483170173
 20
-1360.262054869495
 30
0.0
 41
1.0
 10
936.075014169197
 20
-1360.210643984103
 30
0.0
 41
1.0
 10
936.1071118932117
 20
-1360.081379412693
 30
0.0
 41
0.9999828681669333
 10
936.1376941452107
 20
-1359.951747938211
 30
0.0
 41
1.0
 10
936.1682763972055
 20
-1359.822116463746
 30
0.0
 41
0.9999389844475114
 10
936.1959873859943
 20
-1359.691841007849
 30
0.0
 41
1.0
 10
936.2031251297151
 20
-1359.658284904009
 30
0.0
 41
1.0
 10
936.2102628734358
 20
-1359.624728800169
 30
0.0
 41
1.0
 10
936.2522493496656
 20
-1359.427341136593
 30
0.0
 41
0.9998933699438999
 10
936.288453614068
 20
-1359.228811528834
 30
0.0
 41
1.0
 10
936.2898264392842
 20
-1359.221283508138
 30
0.0
 41
1.0
 10
936.2911992645004
 20
-1359.213755487442
 30
0.0
 41
1.0
 10
936.330149179335
 20
-1359.000169838293
 30
0.0
 41
0.9996850305193404
 10
936.3583328555941
 20
-1358.784898832854
 30
0.0
 41
1.0
 10
936.3603278889635
 20
-1358.76966047873
 30
0.0
 41
1.0
 10
936.362322922333
 20
-1358.754422124607
 30
0.0
 41
1.0
 10
936.3897307847923
 20
-1358.545076897452
 30
0.0
 41
0.9994697936706443
 10
936.4034553440113
 20
-1358.334391702124
 30
0.0
 41
1.0
 10
936.4039324132607
 20
-1358.327068229916
 30
0.0
 41
1.0
 10
936.4044094825102
 20
-1358.319744757707
 30
0.0
 41
1.0
 10
936.4171799032308
 20
-1358.123706506795
 30
0.0
 41
0.9991804893136932
 10
936.4140515869581
 20
-1357.92727765682
 30
0.0
 41
1.0
 10
936.4139677081359
 20
-1357.922010855407
 30
0.0
 41
1.0
 10
936.4138838293138
 20
-1357.916744053994
 30
0.0
 41
1.0
 10
936.4109232706853
 20
-1357.730848806846
 30
0.0
 41
0.9988448329321534
 10
936.3901317250616
 20
-1357.546096217013
 30
0.0
 41
1.0
 10
936.3885376513587
 20
-1357.531931361243
 30
0.0
 41
1.0
 10
936.3869435776558
 20
-1357.517766505473
 30
0.0
 41
1.0
 10
936.3693401794379
 20
-1357.361343627181
 30
0.0
 41
0.9985503209458907
 10
936.3350239071383
 20
-1357.207719443091
 30
0.0
 41
1.0
 10
936.3274379150673
 20
-1357.173759115691
 30
0.0
 41
1.0
 10
936.3198519229963
 20
-1357.139798788292
 30
0.0
 41
1.0
 10
936.3007076348388
 20
-1357.054095259002
 30
0.0
 41
0.999103678137119
 10
936.2743827731874
 20
-1356.970318171676
 30
0.0
 41
1.0
 10
936.2704005477324
 20
-1356.957645009169
 30
0.0
 41
1.0
 10
936.2664183222774
 20
-1356.944971846661
 30
0.0
 41
1.0
 10
936.2480579115381
 20
-1356.886541084358
 30
0.0
 41
0.9998874504368082
 10
936.2279527038579
 20
-1356.828687482128
 30
0.0
 41
1.0
 10
936.2078474961794
 20
-1356.770833879905
 30
0.0
 41
0.9994041637542908
 10
936.1837988832449
 20
-1356.714505176015
 30
0.0
 41
1.0
 10
936.1796020990207
 20
-1356.704675111532
 30
0.0
 41
1.0
 10
936.1754053147964
 20
-1356.69484504705
 30
0.0
 41
1.0
 10
936.1475264838023
 20
-1356.629544881083
 30
0.0
 41
0.9991846840701382
 10
936.1144701271095
 20
-1356.566706849804
 30
0.0
 41
1.0
 10
936.1133335207148
 20
-1356.56454623335
 30
0.0
 41
1.0
 10
936.1121969143202
 20
-1356.562385616896
 30
0.0
 41
1.0
 10
936.0814137704162
 20
-1356.503868818523
 30
0.0
 41
0.9989253167922802
 10
936.0453443463614
 20
-1356.448453890133
 30
0.0
 41
1.0
 10
936.0442902216873
 20
-1356.446834395371
 30
0.0
 41
1.0
 10
936.0432360970132
 20
-1356.445214900609
 30
0.0
 41
1.0
 10
936.0092749223063
 20
-1356.393038961742
 30
0.0
 41
0.998646717283489
 10
935.9700777696692
 20
-1356.344672928114
 30
0.0
 41
1.0
 10
935.9692036409687
 20
-1356.343594325836
 30
0.0
 41
1.0
 10
935.9683295122682
 20
-1356.342515723558
 30
0.0
 41
1.0
 10
935.9308806170319
 20
-1356.296306894484
 30
0.0
 41
0.9984001104267457
 10
935.8884538865145
 20
-1356.254621787115
 30
0.0
 41
1.0
 10
935.8878667484054
 20
-1356.254044912234
 30
0.0
 41
1.0
 10
935.8872796102962
 20
-1356.253468037353
 30
0.0
 41
1.0
 10
935.8460271559975
 20
-1356.212936679746
 30
0.0
 41
0.9982442159083996
 10
935.8002710546618
 20
-1356.177568118486
 30
0.0
 41
1.0
 10
935.8000562592001
 20
-1356.177402085843
 30
0.0
 41
1.0
 10
935.7998414637384
 20
-1356.1772360532
 30
0.0
 41
1.0
 10
935.7545149533263
 20
-1356.142199557226
 30
0.0
 41
0.9982450060836027
 10
935.7053639742544
 20
-1356.112767774192
 30
0.0
 41
1.0
 10
935.6562129951825
 20
-1356.083335991159
 30
0.0
 41
0.9983922639633948
 10
935.6040466890174
 20
-1356.059656356505
 30
0.0
 41
1.0
 10
935.6038198116931
 20
-1356.059553371023
 30
0.0
 41
1.0
 10
935.6035929343689
 20
-1356.059450385542
 30
0.0
 41
1.0
 10
935.5509728735556
 20
-1356.035564779925
 30
0.0
 41
0.9986517147150453
 10
935.4961599006883
 20
-1356.017263660804
 30
0.0
 41
1.0
 10
935.4954819792599
 20
-1356.017037314372
 30
0.0
 41
1.0
 10
935.4948040578315
 20
-1356.01681096794
 30
0.0
 41
1.0
 10
935.4386352421086
 20
-1355.998057155956
 30
0.0
 41
0.9989435598956102
 10
935.3809818549578
 20
-1355.984539453721
 30
0.0
 41
1.0
 10
935.3799017353754
 20
-1355.984286203468
 30
0.0
 41
1.0
 10
935.378821615793
 20
-1355.984032953215
 30
0.0
 41
1.0
 10
935.3190079894782
 20
-1355.970008750475
 30
0.0
 41
0.9992249241239543
 10
935.2582764805807
 20
-1355.96073340776
 30
0.0
 41
1.0
 10
935.2568627922897
 20
-1355.960517499352
 30
0.0
 41
1.0
 10
935.2554491039988
 20
-1355.960301590944
 30
0.0
 41
1.0
 10
935.1918902185172
 20
-1355.950594431412
 30
0.0
 41
0.9994396597833263
 10
935.1278242819778
 20
-1355.945161509067
 30
0.0
 41
1.0
 10
935.1086836145023
 20
-1355.943538341348
 30
0.0
 41
1.0
 10
935.0895429470268
 20
-1355.94191517363
 30
0.0
 41
1.0
 10
934.9871956755338
 20
-1355.933235915847
 30
0.0
 41
0.9987693403121385
 10
934.8844920519465
 20
-1355.934738979299
 30
0.0
 41
1.0
 10
934.8742377177205
 20
-1355.934889051074
 30
0.0
 41
1.0
 10
934.8639833834945
 20
-1355.935039122848
 30
0.0
 41
1.0
 10
934.7544276173147
 20
-1355.936642467135
 30
0.0
 41
0.9989753644966504
 10
934.6454656172973
 20
-1355.94814547406
 30
0.0
 41
1.0
 10
934.5365036172831
 20
-1355.959648480985
 30
0.0
 41
0.9983190067307149
 10
934.4296048063198
 20
-1355.983683472771
 30
0.0
 41
1.0
 10
934.4207038547111
 20
-1355.985684751335
 30
0.0
 41
1.0
 10
934.4118029031024
 20
-1355.987686029898
 30
0.0
 41
1.0
 10
934.2871021889225
 20
-1356.01572357881
 30
0.0
 41
0.9985539388302611
 10
934.1661324352443
 20
-1356.056987254856
 30
0.0
 41
1.0
 10
934.1637870042848
 20
-1356.057787298671
 30
0.0
 41
1.0
 10
934.1614415733254
 20
-1356.058587342487
 30
0.0
 41
1.0
 10
934.0357809577257
 20
-1356.101451106165
 30
0.0
 41
0.9988468746493551
 10
933.9148106154241
 20
-1356.156169191228
 30
0.0
 41
1.0
 10
933.9116277934367
 20
-1356.157608865787
 30
0.0
 41
1.0
 10
933.9084449714492
 20
-1356.159048540347
 30
0.0
 41
1.0
 10
933.7811089851715
 20
-1356.216645974529
 30
0.0
 41
0.999132288591947
 10
933.6590084011153
 20
-1356.28464130671
 30
0.0
 41
1.0
 10
933.6414063900727
 20
-1356.294443508699
 30
0.0
 41
1.0
 10
933.6238043790302
 20
-1356.304245710689
 30
0.0
 41
1.0
 10
933.5216276979708
 20
-1356.36114582647
 30
0.0
 41
0.9993860037849458
 10
933.4236866938962
 20
-1356.42506184206
 30
0.0
 41
1.0
 10
933.4180683810437
 20
-1356.428728336755
 30
0.0
 41
1.0
 10
933.412450068191
 20
-1356.43239483145
 30
0.0
 41
1.0
 10
933.3257456898225
 20
-1356.488977857648
 30
0.0
 41
0.9998821494953618
 10
933.24081931401
 20
-1356.548196087725
 30
0.0
 41
1.0
 10
933.155892938193
 20
-1356.607414317805
 30
0.0
 41
0.999797648274343
 10
933.0734173077856
 20
-1356.67000072585
 30
0.0
 41
1.0
 10
933.0587810429847
 20
-1356.681107415626
 30
0.0
 41
1.0
 10
933.0441447781837
 20
-1356.692214105403
 30
0.0
 41
1.0
 10
932.932396618168
 20
-1356.777013893006
 30
0.0
 41
0.9998091630799294
 10
932.8240463401414
 20
-1356.866114243707
 30
0.0
 41
1.0
 10
932.8110405876647
 20
-1356.876809344153
 30
0.0
 41
1.0
 10
932.798034835188
 20
-1356.887504444598
 30
0.0
 41
1.0
 10
932.6636730522043
 20
-1356.997994996193
 30
0.0
 41
0.9995035112317262
 10
932.536537174438
 20
-1357.116728813211
 30
0.0
 41
1.0
 10
932.5268898640525
 20
-1357.125738559367
 30
0.0
 41
1.0
 10
932.5172425536668
 20
-1357.134748305523
 30
0.0
 41
1.0
 10
932.3938194909024
 20
-1357.250014677278
 30
0.0
 41
0.9994630424299352
 10
932.2782110851185
 20
-1357.373117420513
 30
0.0
 41
1.0
 10
932.2745282463486
 20
-1357.377039000025
 30
0.0
 41
1.0
 10
932.2708454075788
 20
-1357.380960579536
 30
0.0
 41
1.0
 10
932.1626026793363
 20
-1357.496220163747
 30
0.0
 41
0.9995160693750084
 10
932.0617366498026
 20
-1357.617987581621
 30
0.0
 41
1.0
 10
932.0598029297191
 20
-1357.620322005832
 30
0.0
 41
1.0
 10
932.0578692096358
 20
-1357.622656430044
 30
0.0
 41
1.0
 10
931.9608706202685
 20
-1357.739754999496
 30
0.0
 41
0.9996561470513907
 10
931.8701444016048
 20
-1357.861777761943
 30
0.0
 41
1.0
 10
931.8639867357078
 20
-1357.870059550978
 30
0.0
 41
1.0
 10
931.857829069811
 20
-1357.878341340014
 30
0.0
 41
1.0
 10
931.7794181829435
 20
-1357.983800524386
 30
0.0
 41
0.9998349055171681
 10
931.7048909010066
 20
-1358.092039108055
 30
0.0
 41
1.0
 10
931.6303636190715
 20
-1358.200277691723
 30
0.0
 41
0.9999728109567507
 10
931.5574407231602
 20
-1358.30960361728
 30
0.0
 41
1.0
 10
931.5561255077505
 20
-1358.311575386779
 30
0.0
 41
1.0
 10
931.5548102923408
 20
-1358.313547156279
 30
0.0
 41
1.0
 10
931.4792569655998
 20
-1358.42681662085
 30
0.0
 41
0.9999972147306903
 10
931.4042391552196
 20
-1358.540441463696
 30
0.0
 41
1.0
 10
931.399267612604
 20
-1358.547971552158
 30
0.0
 41
1.0
 10
931.3942960699884
 20
-1358.55550164062
 30
0.0
 41
1.0
 10
931.3093351743637
 20
-1358.684186660409
 30
0.0
 41
0.9999371979007118
 10
931.2272798249552
 20
-1358.814743574194
 30
0.0
 41
1.0
 10
931.2237709405983
 20
-1358.820326502251
 30
0.0
 41
1.0
 10
931.2202620562414
 20
-1358.825909430308
 30
0.0
 41
1.0
 10
931.131188938114
 20
-1358.967632200215
 30
0.0
 41
0.9998272025610894
 10
931.0474455472327
 20
-1359.112568076956
 30
0.0
 41
1.0
 10
931.0322303752076
 20
-1359.138901191414
 30
0.0
 41
1.0
 10
931.0170152031826
 20
-1359.165234305873
 30
0.0
 41
1.0
 10
930.9028414682517
 20
-1359.36283641153
 30
0.0
 41
0.9995217214837865
 10
930.8011017786938
 20
-1359.567118739397
 30
0.0
 41
1.0
 10
930.793458216062
 20
-1359.582466189093
 30
0.0
 41
1.0
 10
930.7858146534303
 20
-1359.597813638789
 30
0.0
 41
1.0
 10
930.6989093608379
 20
-1359.772310096876
 30
0.0
 41
0.9998269762607503
 10
930.618554894565
 20
-1359.949918383601
 30
0.0
 41
1.0
 10
930.538200428292
 20
-1360.127526670327
 30
0.0
 41
0.9998944747384746
 10
930.4630396337263
 20
-1360.307394395958
 30
0.0
 41
1.0
 10
930.4580859641358
 20
-1360.319249050875
 30
0.0
 41
1.0
 10
930.4531322945451
 20
-1360.331103705791
 30
0.0
 41
1.0
 10
930.3724852339908
 20
-1360.524100645813
 30
0.0
 41
0.9999506734415936
 10
930.2956877050892
 20
-1360.718661450664
 30
0.0
 41
1.0
 10
930.28108773982
 20
-1360.755649372466
 30
0.0
 41
1.0
 10
930.2664877745508
 20
-1360.792637294267
 30
0.0
 41
1.0
 10
930.2188901761848
 20
-1360.913222255522
 30
0.0
 41
0.9999912393909117
 10
930.1723037321631
 20
-1361.034201458216
 30
0.0
 41
1.0
 10
930.1257172881417
 20
-1361.155180660909
 30
0.0
 41
0.9999927113927463
 10
930.0800559937601
 20
-1361.276512068378
 30
0.0
 41
1.0
 10
930.0660875623555
 20
-1361.313629050395
 30
0.0
 41
1.0
 10
930.052119130951
 20
-1361.350746032412
 30
0.0
 41
1.0
 10
929.9785209737606
 20
-1361.546311403913
 30
0.0
 41
0.9999487550951442
 10
929.9088973487887
 20
-1361.743326769097
 30
0.0
 41
1.0
 10
929.8853037388506
 20
-1361.810090079393
 30
0.0
 41
1.0
 10
929.8617101289124
 20
-1361.876853389689
 30
0.0
 41
1.0
 10
929.7670244945443
 20
-1362.144787224507
 30
0.0
 41
0.9999808436952561
 10
929.6756629059039
 20
-1362.413872655769
 30
0.0
 41
1.0
 10
929.5843013172623
 20
-1362.682958087034
 30
0.0
 41
0.9999873932899548
 10
929.4956466085443
 20
-1362.952947442047
 30
0.0
 41
1.0
 10
929.475554251675
 20
-1363.0141367748
 30
0.0
 41
1.0
 10
929.4554618948057
 20
-1363.075326107553
 30
0.0
 41
1.0
 10
929.3266224723525
 20
-1363.467694128061
 30
0.0
 41
0.9999794883030393
 10
929.2028196873911
 20
-1363.861680334348
 30
0.0
 41
1.0
 10
929.1916674279538
 20
-1363.897170944585
 30
0.0
 41
1.0
 10
929.1805151685165
 20
-1363.932661554821
 30
0.0
 41
1.0
 10
929.0379570046157
 20
-1364.386334306919
 30
0.0
 41
0.9999982761711929
 10
928.8970845646031
 20
-1364.840533329033
 30
0.0
 41
1.0
 10
927.3089442320305
 20
-1369.889303060036
 30
0.0
 41
1.0
 10
925.7208038994579
 20
-1374.93807279104
 30
0.0
 41
1.0
 10
924.7720532879815
 20
-1374.93807279104
 30
0.0
 41
1.0
 10
923.8233026765051
 20
-1374.93807279104
 30
0.0
 41
1.0
 10
927.0615871626583
 20
-1364.610750591093
 30
0.0
 41
1.0
 10
930.2998716488115
 20
-1354.283428391147
 30
0.0
 41
1.0
  0
LWPOLYLINE
  5
5D
330
23
100
AcDbEntity
  8
0
  6
Continuous
 62
     7
370
    15
390
1D
100
AcDbPolyline
 90
      232
 70
   128
 43
0.0
 10
904.5963258749845
 20
-1355.367771222662
 42
0.0004370800687355
 10
904.5434487009077
 20
-1355.436437861925
 10
904.504164469785
 20
-1355.487544974815
 42
0.0030481992175876
 10
904.3738257526553
 20
-1355.659266667174
 10
904.3353140809154
 20
-1355.710653450948
 42
0.0042058245755437
 10
904.1313290302445
 20
-1355.987659196023
 10
904.0789239077449
 20
-1356.060092042802
 42
0.0120948898742768
 10
903.7828799909848
 20
-1356.490841647349
 10
903.6866874918608
 20
-1356.638322382577
 42
0.0141601263946194
 10
903.3830434449395
 20
-1357.133991719311
 10
903.3435061775077
 20
-1357.202835686753
 42
0.0071131081305457
 10
903.1382338542751
 20
-1357.572338485581
 42
0.0068458791002545
 10
902.9433543274387
 20
-1357.947430049044
 10
902.9365424649743
 20
-1357.960991762781
 42
0.0064120880292448
 10
902.7384002149224
 20
-1358.368416237716
 10
902.730865529413
 20
-1358.384428094421
 42
0.0058857236446432
 10
902.5281101375476
 20
-1358.828804205442
 10
902.5199352112473
 20
-1358.84729435909
 42
0.0053189741893143
 10
902.3112308985818
 20
-1359.333257833003
 10
902.3024830928985
 20
-1359.354239711204
 42
0.0047503650420128
 10
902.0865093667481
 20
-1359.886439144413
 10
902.0772411183996
 20
-1359.909915520522
 42
0.0042071762170318
 10
901.852693734673
 20
-1360.493009114588
 10
901.8429443323232
 20
-1360.518975289461
 42
0.0036680086485753
 10
901.6084896890075
 20
-1361.157610674002
 10
901.5982819091633
 20
-1361.186059208337
 42
0.0032573142628574
 10
901.3526496231971
 20
-1361.884911868089
 10
901.2839991023553
 20
-1362.084374952145
 42
0.0026133366647678
 10
900.935553903598
 20
-1363.114238235815
 10
900.8722971160969
 20
-1363.304469071209
 42
0.0020592950742597
 10
900.6584340471302
 20
-1363.956572723821
 10
900.6553822559714
 20
-1363.966009212217
 42
0.0025609928533819
 10
900.4535617544813
 20
-1364.601154434597
 10
900.450970387351
 20
-1364.609456775549
 42
0.0031362356242796
 10
900.2614796016776
 20
-1365.230219631717
 10
900.2593485587539
 20
-1365.237360937915
 42
0.0037229918025239
 10
900.0825481718239
 20
-1365.846346239902
 10
900.0808695826221
 20
-1365.85229313006
 42
0.0043077623708684
 10
899.9171287805524
 20
-1366.452111861845
 42
0.0047654161822336
 10
899.7643000580402
 20
-1367.054797950732
 10
899.7298354491973
 20
-1367.196359727898
 42
0.0112969368444545
 10
899.5339710910539
 20
-1368.088051888521
 10
899.505964701957
 20
-1368.23087993462
 42
0.0130056762571969
 10
899.3051274583104
 20
-1369.417821006265
 10
899.2845877081629
 20
-1369.561899119745
 42
0.0138721532145221
 10
899.1808847036255
 20
-1370.468728605567
 10
899.1615892157173
 20
-1370.692226327496
 42
0.0071254697010589
 10
899.128242569795
 20
-1371.15541333634
 10
899.1232815956325
 20
-1371.241417330885
 42
0.0028881799203702
 10
899.1081433023419
 20
-1371.533159040742
 42
0.0060297297134099
 10
899.0982111025661
 20
-1371.825107976866
 10
899.0971488208992
 20
-1371.873500348789
 42
0.0229523164155276
 10
899.104879848685
 20
-1372.196255195074
 10
899.1091056222052
 20
-1372.256658729089
 42
0.0123673300673232
 10
899.1281842687237
 20
-1372.457779454265
 42
0.0128577674473767
 10
899.1573796591309
 20
-1372.657677304197
 10
899.164505532517
 20
-1372.699006118788
 42
0.0285717853763829
 10
899.2289995342129
 20
-1372.977122270103
 10
899.2426680578791
 20
-1373.023777039579
 42
0.0316283099155896
 10
899.3584786377933
 20
-1373.342791541405
 10
899.3615273295491
 20
-1373.349777913731
 42
0.0338984824232575
 10
899.510959040516
 20
-1373.63734387792
 10
899.513267769885
 20
-1373.641134907194
 42
0.0350228718354733
 10
899.6956280605594
 20
-1373.898186891872
 10
899.6965133123352
 20
-1373.899265969637
 42
0.0347476747528855
 10
899.9109379995746
 20
-1374.126451016857
 42
0.033133770191139
 10
900.1541813253212
 20
-1374.322579678934
 10
900.1552814238371
 20
-1374.323352382106
 42
0.0305233319081518
 10
900.4238261194108
 20
-1374.488480552198
 10
900.4270561639116
 20
-1374.490204564061
 42
0.0273744481152412
 10
900.7196098754856
 20
-1374.626342707951
 10
900.7247144106235
 20
-1374.628386292421
 42
0.0240964406194478
 10
901.0401914862688
 20
-1374.737370018702
 10
901.0467748154792
 20
-1374.739294758377
 42
0.0209636179812563
 10
901.3841749681341
 20
-1374.822762906309
 10
901.3918074285805
 20
-1374.824314819311
 42
0.0181388704691188
 10
901.7501298205785
 20
-1374.883730912524
 10
901.7584106689571
 20
-1374.884797096342
 42
0.0156086547585618
 10
902.1365980331456
 20
-1374.921533282918
 10
902.1797932854776
 20
-1374.924371785397
 42
0.013714832902384
 10
902.5074664307718
 20
-1374.936892040649
 10
902.5534026207089
 20
-1374.937386473764
 42
0.0051057823884885
 10
902.7895482072901
 20
-1374.937516728173
 42
0.0052256693316705
 10
903.0256454910742
 20
-1374.932767903709
 10
903.0958722748181
 20
-1374.930620937695
 42
0.0161507179048646
 10
903.471609352919
 20
-1374.906970567368
 10
903.4916223132925
 20
-1374.90506037208
 42
0.0101216737832884
 10
903.9056495347814
 20
-1374.857067441715
 10
903.9397028242099
 20
-1374.852419744905
 42
0.0245291776396714
 10
904.4164924797611
 20
-1374.763344666829
 10
904.5013157952861
 20
-1374.743148746483
 42
0.0143509212555465
 10
904.8579468992247
 20
-1374.647344112705
 42
0.01565578570351
 10
905.2081629639526
 20
-1374.530332896886
 10
905.2156641784466
 20
-1374.527562735132
 42
0.0170137333630705
 10
905.5722601741306
 20
-1374.381905120259
 10
905.5793640965354
 20
-1374.378717284697
 42
0.0183105364410561
 10
905.9387137646991
 20
-1374.201382242874
 10
905.9456605293404
 20
-1374.197631808
 42
0.0194899958155893
 10
906.3041412703283
 20
-1373.985652826107
 10
906.3111551496611
 20
-1373.981127483814
 42
0.0204869852952653
 10
906.6651694517527
 20
-1373.73160746873
 10
906.6724350603421
 20
-1373.72602740338
 42
0.0212516938558501
 10
907.0184249914508
 20
-1373.436123406485
 10
907.0649416855252
 20
-1373.393656096393
 42
0.0215248918250276
 10
907.3249678544134
 20
-1373.134891817398
 10
907.3699975887997
 20
-1373.086047696042
 42
0.0114578554953891
 10
907.5247897424713
 20
-1372.910224762589
 10
907.535984278462
 20
-1372.896905999039
 42
0.0061531305138295
 10
907.6624589244524
 20
-1372.742616465738
 42
0.0006325587117667
 10
907.7868374084966
 20
-1372.586613090198
 10
907.8098775436556
 20
-1372.557639569403
 42
0.0041897761558099
 10
907.9783329476287
 20
-1372.342120193341
 10
908.0367950675205
 20
-1372.266018846356
 42
0.0092993880041739
 10
908.3134069947506
 20
-1371.891740082463
 10
908.3958014879445
 20
-1371.775803078902
 42
0.0159321727084151
 10
908.7424079705855
 20
-1371.253628858148
 10
908.7867641059707
 20
-1371.181949293904
 42
0.0085547317019898
 10
909.0212758713003
 20
-1370.788074344673
 42
0.0084601156891822
 10
909.2422520487485
 20
-1370.386447495629
 10
909.2503675225728
 20
-1370.371087813368
 42
0.0081429654286424
 10
909.4736167930121
 20
-1369.931366300823
 10
909.4824769571943
 20
-1369.913187458807
 42
0.0076574581327907
 10
909.7088844677627
 20
-1369.430004583551
 10
909.7183641084847
 20
-1369.408940105252
 42
0.00706827242017
 10
909.9488090162954
 20
-1368.876902800461
 10
909.9587993002732
 20
-1368.852913611458
 42
0.0064559514447608
 10
910.19413250845
 20
-1368.266601344952
 10
910.2045418666198
 20
-1368.239666419498
 42
0.0058311413908422
 10
910.4455886033821
 20
-1367.593634325115
 10
910.4563436807701
 20
-1367.563749983953
 42
0.0052312425819747
 10
910.7039249588141
 20
-1366.852547570109
 10
910.7149687951908
 20
-1366.819720858049
 42
0.0046680544796693
 10
910.9698972229256
 20
-1366.037894542293
 10
911.0118893729598
 20
-1365.904911305031
 42
0.0041666856442159
 10
911.2151753853639
 20
-1365.241942529997
 10
911.2528378260265
 20
-1365.115361422346
 42
0.0015170975153661
 10
911.3740244044407
 20
-1364.703493070849
 42
-0.0004887993119015
 10
911.4943641775315
 20
-1364.291374658918
 10
911.5708414350588
 20
-1364.030417272866
 42
0.0002583378928388
 10
911.8440560051258
 20
-1363.096360569677
 10
911.9258288547001
 20
-1362.816261310103
 42
0.0006636169672466
 10
912.1196966147111
 20
-1362.148908386517
 10
912.1247932690713
 20
-1362.131276803591
 42
0.0010589131323983
 10
912.3062419699747
 20
-1361.498545460588
 10
912.3112240404479
 20
-1361.481032553594
 42
0.0015655524458203
 10
912.4794942476381
 20
-1360.882415874367
 10
912.4843244480552
 20
-1360.865023715423
 42
0.0021640440477703
 10
912.638614420039
 20
-1360.299996697413
 10
912.6432486394771
 20
-1360.282731967389
 42
0.0028763871855404
 10
912.782764357522
 20
-1359.750764016572
 10
912.7871502216939
 20
-1359.733640038399
 42
0.003731051194551
 10
912.911106913526
 20
-1359.234192444394
 10
912.9151821338136
 20
-1359.217232173155
 42
0.0047652197770881
 10
913.0228060343235
 20
-1358.749754404843
 10
913.0264966336475
 20
-1358.73299484969
 42
0.006027669929934
 10
913.1170267328005
 20
-1358.296919054549
 10
913.1202454230886
 20
-1358.280417840245
 42
0.0075824337759507
 10
913.1929347325051
 20
-1357.875150675814
 10
913.1955801098853
 20
-1357.858995728364
 42
0.0095130624606144
 10
913.2496953455166
 20
-1357.483906375292
 10
913.2566815693989
 20
-1357.427972817178
 42
0.0121054653229283
 10
913.2832728999771
 20
-1357.163076988701
 10
913.2841393897357
 20
-1357.151673545784
 42
0.0069050827387836
 10
913.2992282077744
 20
-1356.908732318928
 10
913.3003635074426
 20
-1356.885206061888
 42
0.0169063976701577
 10
913.3031907864231
 20
-1356.689013334582
 10
913.3020201348917
 20
-1356.628677573225
 42
0.0052007732916131
 10
913.2997666862989
 20
-1356.553084183081
 42
0.0054038123293822
 10
913.2798031744608
 20
-1356.433065887075
 10
913.2747173185896
 20
-1356.40440740049
 42
0.0112050460468519
 10
913.2393329565316
 20
-1356.228080962153
 10
913.2215079944904
 20
-1356.14853937543
 42
0.0240764468013075
 10
913.130610628344
 20
-1355.818302339928
 10
913.11205186553
 20
-1355.761682174933
 42
0.0256812331837559
 10
912.9686889453412
 20
-1355.389957968678
 10
912.9632795195193
 20
-1355.377826633687
 42
0.0268360501215349
 10
912.79385227867
 20
-1355.046833499667
 10
912.7883158710354
 20
-1355.037313829355
 42
0.0274670231729474
 10
912.5961148946217
 20
-1354.745026454437
 10
912.5907335946582
 20
-1354.737747306895
 42
0.0275035967097656
 10
912.3791607150972
 20
-1354.482231416592
 10
912.3740912141309
 20
-1354.476752328962
 42
0.0269557673523544
 10
912.1466876706911
 20
-1354.256110042999
 10
912.1419446129086
 20
-1354.251980088539
 42
0.0259124802208883
 10
911.9023897814777
 20
-1354.064289561386
 10
911.8978589362954
 20
-1354.061104059055
 42
0.0245162153003076
 10
911.649942583201
 20
-1353.904371049945
 10
911.645416036877
 20
-1353.901810852745
 42
0.0229282588839455
 10
911.3929964800494
 20
-1353.773942660246
 10
911.3882159862152
 20
-1353.771790360485
 42
0.0212984135698823
 10
911.1351780337509
 20
-1353.670591443241
 10
911.1298737487831
 20
-1353.668727880482
 42
0.0197555462347879
 10
910.8800954110584
 20
-1353.591912462517
 42
0.0183511896791039
 10
910.6251666855953
 20
-1353.534329555551
 10
910.5388014888714
 20
-1353.518126765166
 42
0.0338057877146249
 10
910.253294139612
 20
-1353.484318360026
 10
910.1622887345715
 20
-1353.479738704764
 42
0.0091990524492174
 10
910.056441625936
 20
-1353.476362848842
 42
0.0028333980789482
 10
909.9505277099399
 20
-1353.475534741326
 10
909.9496122568937
 20
-1353.475532771502
 42
-0.0023619827804687
 10
909.8418662417959
 20
-1353.474791930423
 10
909.805461071612
 20
-1353.47436962396
 42
0.0008824598474447
 10
909.6249050816656
 20
-1353.472593845721
 10
909.5810436493562
 20
-1353.472239884196
 42
0.0038132665763925
 10
909.3127607534849
 20
-1353.472120948129
 10
909.2962270986839
 20
-1353.472239714273
 42
0.0060665569335465
 10
908.9949466070972
 20
-1353.478060013694
 10
908.9806962750672
 20
-1353.478508321661
 42
0.0080356953336325
 10
908.6512375587237
 20
-1353.494176043728
 10
908.6391675436407
 20
-1353.494944626669
 42
0.0098996399108631
 10
908.2864044589871
 20
-1353.524429855867
 10
908.2763587496152
 20
-1353.525470152065
 42
0.0117740981368695
 10
907.9052018912671
 20
-1353.572762399595
 10
907.8969791947839
 20
-1353.574007516166
 42
0.013743521513549
 10
907.5123903753035
 20
-1353.643104489727
 10
907.5057333361754
 20
-1353.644490385961
 42
0.0158359869387072
 10
907.1127362423714
 20
-1353.739382474442
 10
907.1073230555057
 20
-1353.740872415312
 42
0.0180554124027934
 10
906.7110080108981
 20
-1353.865510431549
 10
906.70645122281
 20
-1353.867126467817
 42
0.0203657431280959
 10
906.3119737050012
 20
-1354.025386809332
 10
906.3078301659913
 20
-1354.027248430775
 42
0.022681968465506
 10
905.9203941097894
 20
-1354.222891009445
 10
905.9161943187695
 20
-1354.225256601366
 42
0.0248634984606512
 10
905.5410123775878
 20
-1354.461883247313
 10
905.4928174488059
 20
-1354.495740289137
 42
0.0267044190883348
 10
905.2185247518878
 20
-1354.711180665007
 42
0.0139303002203293
 10
904.9623575859465
 20
-1354.948419505921
 10
904.9575042002281
 20
-1354.953172168779
 42
0.0283460963446352
 10
904.7134316059995
 20
-1355.220902829225
 10
904.6737631008443
 20
-1355.269704406697
 42
0.0070695364819197
 10
904.5963258749845
 20
-1355.367771222662
 42
0.0070695364819197
  0
LWPOLYLINE
  5
5E
330
23
100
AcDbEntity
  8
0
  6
Continuous
 62
     7
370
    15
390
1D
100
AcDbPolyline
 90
      226
 70
   128
 43
0.0
 10
901.0675054377381
 20
-1371.089360028846
 42
-0.0026277636664809
 10
901.0674275539379
 20
-1371.022588103138
 10
901.0676449121701
 20
-1370.96943288566
 42
-0.0088680296722419
 10
901.0714215284635
 20
-1370.796417103247
 10
901.0737678875755
 20
-1370.737137077804
 42
-0.007738170561658
 10
901.0898139983382
 20
-1370.445876582014
 10
901.0906819095118
 20
-1370.43358834832
 42
-0.0068872530537225
 10
901.1173139892588
 20
-1370.118366596262
 10
901.118518213446
 20
-1370.106125617232
 42
-0.0062130021487554
 10
901.1561119302739
 20
-1369.767255925993
 10
901.1576158338089
 20
-1369.755082054078
 42
-0.0056726929666561
 10
901.2065376933109
 20
-1369.392886831966
 10
901.2083111389557
 20
-1369.380793031719
 42
-0.0052341884494344
 10
901.2689217252165
 20
-1368.995599776195
 10
901.2709397139922
 20
-1368.983594846208
 42
-0.0049768450171979
 10
901.3436783954188
 20
-1368.575750278775
 10
901.3679274101404
 20
-1368.44720229577
 42
-0.0089029805627683
 10
901.505008261933
 20
-1367.785426848357
 10
901.5377536372537
 20
-1367.640395417824
 42
-0.0080318257099471
 10
901.7673022515927
 20
-1366.694685785977
 10
901.7792871780426
 20
-1366.64855515078
 42
-0.0074265721320749
 10
902.06329871689
 20
-1365.618490572409
 10
902.0831782600122
 20
-1365.5503565118
 42
-0.0069711922701817
 10
902.4104828385159
 20
-1364.484088771482
 10
902.4704347856137
 20
-1364.298067413135
 42
-0.0052070422894437
 10
902.6998600108807
 20
-1363.61079533608
 10
902.7171412030697
 20
-1363.560768055415
 42
-0.0009167004446349
 10
902.9202330903424
 20
-1362.976312207309
 42
-0.0025162726943959
 10
903.1273307206058
 20
-1362.393270943145
 10
903.1645553324056
 20
-1362.290121397255
 42
-0.0028212681458074
 10
903.4127312513735
 20
-1361.61439076507
 10
903.4225620141294
 20
-1361.588083320379
 42
-0.0031964916822066
 10
903.6588542717865
 20
-1360.967878558266
 10
903.6684887257825
 20
-1360.943068568131
 42
-0.0036281836452367
 10
903.8935946868867
 20
-1360.37562788723
 10
903.9030330970501
 20
-1360.352330455712
 42
-0.0041269166829352
 10
904.1176507937033
 20
-1359.834889559749
 10
904.1502837501152
 20
-1359.758011113409
 42
-0.0047472213059239
 10
904.3073285556777
 20
-1359.397589645504
 10
904.3142226368874
 20
-1359.382169048169
 42
-0.0025651659998128
 10
904.4625806707361
 20
-1359.054840992424
 42
-0.0057144634987603
 10
904.6163303645136
 20
-1358.730031319049
 10
904.6443610699116
 20
-1358.672522936661
 42
-0.0065388068373712
 10
904.8278280976484
 20
-1358.308290440002
 10
904.8362865534198
 20
-1358.292030860646
 42
-0.007451084302353
 10
905.0124687993048
 20
-1357.96534257951
 10
905.0206484698327
 20
-1357.950701802247
 42
-0.0084648979856698
 10
905.1902823229359
 20
-1357.65879279128
 10
905.1981384494235
 20
-1357.64578579963
 42
-0.009563854280174
 10
905.3619738970182
 20
-1357.385896927651
 10
905.3694488406851
 20
-1357.374527566203
 42
-0.0107191626812666
 10
905.5282504210775
 20
-1357.143916331651
 10
905.5352671548151
 20
-1357.134180239278
 42
-0.0118458573899239
 10
905.6898152533211
 20
-1356.930108043976
 42
-0.0129184518192897
 10
905.8542678769184
 20
-1356.73394752781
 10
905.8844126492908
 20
-1356.6998214489
 42
-0.0217742579628638
 10
906.061024971621
 20
-1356.516614678656
 10
906.0717705160774
 20
-1356.506397845457
 42
-0.0097266568656043
 10
906.2378281349372
 20
-1356.354550271016
 42
-0.0187720905722845
 10
906.4121757108252
 20
-1356.212481417628
 10
906.4428817014978
 20
-1356.189322335233
 42
-0.0179428207522617
 10
906.675302421497
 20
-1356.026770158119
 10
906.6789547484165
 20
-1356.024406223228
 42
-0.0170047877692496
 10
906.9147183859432
 20
-1355.882945709079
 10
906.9185013746848
 20
-1355.880847404046
 42
-0.016019078836603
 10
907.155409922325
 20
-1355.759196102055
 42
-0.0151102861488362
 10
907.3994417047777
 20
-1355.652513325998
 10
907.4518282069835
 20
-1355.631473193106
 42
-0.0271945441889731
 10
907.8104907660414
 20
-1355.5096083824
 10
907.8795555665276
 20
-1355.490258841134
 42
-0.0237596594024576
 10
908.2953524135523
 20
-1355.394808129152
 10
908.3634152672837
 20
-1355.382553441025
 42
-0.0213715440555998
 10
908.6492901987281
 20
-1355.343606409515
 10
908.7094373649436
 20
-1355.338016694814
 42
-0.0101465655819682
 10
908.8769298969402
 20
-1355.32587315155
 10
908.8862702831376
 20
-1355.325386236553
 42
-0.010037591088204
 10
909.035424383701
 20
-1355.320610418628
 10
909.0456836533879
 20
-1355.320487979613
 42
-0.0103625633371902
 10
909.1743916480361
 20
-1355.32161941314
 10
909.1966572993041
 20
-1355.322276771605
 42
-0.011568925023655
 10
909.280708036831
 20
-1355.32670627785
 42
-0.0072438037437566
 10
909.364546316272
 20
-1355.334295477599
 10
909.381346825743
 20
-1355.336062020323
 42
-0.0217917313119741
 10
909.4979165890595
 20
-1355.353481913045
 10
909.5635166796277
 20
-1355.36622852146
 42
-0.033294355674792
 10
909.7679088446516
 20
-1355.420268812766
 10
909.7980814131982
 20
-1355.430436889883
 42
-0.0184824084805731
 10
909.9365864696672
 20
-1355.482887905271
 42
-0.0198002050696636
 10
910.0706608101681
 20
-1355.545771965471
 10
910.0725474475435
 20
-1355.54674975235
 42
-0.0212242342969619
 10
910.2046863899441
 20
-1355.622512491142
 10
910.2065016854888
 20
-1355.623658293352
 42
-0.0226090605780812
 10
910.3350055867094
 20
-1355.713137936915
 10
910.336850028448
 20
-1355.714550189904
 42
-0.0238457052221737
 10
910.4600321097412
 20
-1355.818546085766
 10
910.4619848382999
 20
-1355.820360963532
 42
-0.0248160564154988
 10
910.5781863456016
 20
-1355.939635564742
 10
910.5802899790026
 20
-1355.942020898445
 42
-0.0254109591441556
 10
910.6878951968682
 20
-1356.077309284409
 10
910.6901432187826
 20
-1356.08045083281
 42
-0.0255528488290578
 10
910.78758989758
 20
-1356.232477887045
 10
910.789920997496
 20
-1356.236559498652
 42
-0.0252146793221339
 10
910.875702023505
 20
-1356.406061744649
 10
910.8780042626627
 20
-1356.411243826562
 42
-0.0244265635948592
 10
910.9506589564246
 20
-1356.59899039861
 10
910.9599053578921
 20
-1356.626855816945
 42
-0.0231319612897551
 10
911.0058281368846
 20
-1356.790156863748
 42
-0.0112130424347071
 10
911.0404641594233
 20
-1356.956360463938
 10
911.0416666845354
 20
-1356.962857050824
 42
-0.0210527881231459
 10
911.0673531599059
 20
-1357.143912696264
 10
911.070863754728
 20
-1357.179318244813
 42
-0.0190029892425328
 10
911.0863052282725
 20
-1357.432854091083
 10
911.0871152047166
 20
-1357.468329705454
 42
-0.0137974553667794
 10
911.0855663518814
 20
-1357.793361112174
 10
911.0847208969255
 20
-1357.81947985678
 42
-0.0081336634214543
 10
911.069861561703
 20
-1358.124827324379
 42
-0.0073526923573263
 10
911.0455530283288
 20
-1358.429575568661
 10
911.0442916045456
 20
-1358.442912243331
 42
-0.0066886138693375
 10
911.0085560184983
 20
-1358.773498286834
 10
911.0068989290291
 20
-1358.787119905819
 42
-0.006135918735589
 10
910.9590483269764
 20
-1359.143883885932
 10
910.9570108259054
 20
-1359.157778688748
 42
-0.0056698610064085
 10
910.8963604951368
 20
-1359.541057257596
 10
910.8939550618154
 20
-1359.555216376817
 42
-0.0052721077275075
 10
910.8198228610194
 20
-1359.965343716476
 10
910.817059712174
 20
-1359.979760351881
 42
-0.0049289272177953
 10
910.7287655940737
 20
-1360.417068863005
 10
910.7256530993914
 20
-1360.431737715819
 42
-0.004741595671542
 10
910.6224151078587
 20
-1360.896534473231
 10
910.5876468974993
 20
-1361.046341568613
 42
-0.0084404470902516
 10
910.3976304539278
 20
-1361.806565593143
 10
910.3915037659418
 20
-1361.829429717298
 42
-0.0039635940257012
 10
910.1700500816586
 20
-1362.630418581542
 10
910.1566732864783
 20
-1362.677350198137
 42
-0.0072475040835537
 10
909.8892263986115
 20
-1363.566569914539
 10
909.819014071784
 20
-1363.788310264511
 42
-0.005134545882591
 10
909.5322546997289
 20
-1364.66263545231
 10
909.5107284329686
 20
-1364.726061719419
 42
-0.001915001660283
 10
909.2551950260947
 20
-1365.469610839666
 10
909.2487274217094
 20
-1365.488198304556
 42
-0.0021524362753139
 10
909.0002493706347
 20
-1366.192524126296
 10
908.9910389499374
 20
-1366.218277704599
 42
-0.0024331286818104
 10
908.7547836909023
 20
-1366.868877012716
 10
908.745735738342
 20
-1366.893420319096
 42
-0.0027449721784911
 10
908.5211211675163
 20
-1367.492550197994
 10
908.5122311601139
 20
-1367.515872787873
 42
-0.0031083229766302
 10
908.2986886735141
 20
-1368.065796825426
 10
908.2899525418449
 20
-1368.087886541268
 42
-0.0035311343284566
 10
908.0869113562467
 20
-1368.590869667014
 10
908.0783260171036
 20
-1368.611712390513
 42
-0.0040245640952671
 10
907.8852142133046
 20
-1369.070021713117
 10
907.8767780997025
 20
-1369.089601081187
 42
-0.0046015135850663
 10
907.6930218065378
 20
-1369.505506110831
 10
907.6847356287127
 20
-1369.523803250276
 42
-0.0052768638274747
 10
907.5097581097539
 20
-1369.899576134553
 10
907.5016258991225
 20
-1369.916569473106
 42
-0.0060672675641882
 10
907.334846286361
 20
-1370.254485096211
 10
907.3268768058851
 20
-1370.270150355197
 42
-0.006990464887481
 10
907.167708411878
 20
-1370.572486161872
 10
907.159917012266
 20
-1370.586796711101
 42
-0.0080637022766122
 10
907.0077651519214
 20
-1370.855832014252
 10
907.0001761192865
 20
-1370.868759879859
 42
-0.0093006455660946
 10
906.8544354427586
 20
-1371.106774278356
 10
906.8470847760124
 20
-1371.118292247533
 42
-0.0107060778043217
 10
906.7071362325764
 20
-1371.327562564908
 10
906.7000744642994
 20
-1371.33764810747
 42
-0.012272311141439
 10
906.5652807460988
 20
-1371.520441436963
 10
906.5649545225452
 20
-1371.520861824772
 42
-0.0141836319623736
 10
906.4213729195706
 20
-1371.695431582602
 10
906.4144251639228
 20
-1371.703406582862
 42
-0.0175957477209215
 10
906.2745189958839
 20
-1371.853027471272
 42
-0.0080466359672264
 10
906.1270552308556
 20
-1371.995349999421
 10
906.0810206863363
 20
-1372.038370437514
 42
-0.0269600260397466
 10
905.8277404403561
 20
-1372.250693696021
 10
905.7611733040566
 20
-1372.300645110647
 42
-0.017836283975559
 10
905.5212288144005
 20
-1372.4676630369
 10
905.5139838433964
 20
-1372.472331549107
 42
-0.0174650732649127
 10
905.2776476459587
 20
-1372.613192514064
 42
-0.0169240130164264
 10
905.0321814000987
 20
-1372.737484773842
 10
904.9861952445433
 20
-1372.758846729408
 42
-0.0318883036839484
 10
904.6358443889217
 20
-1372.895185038919
 10
904.5674788537605
 20
-1372.916885659393
 42
-0.0284435909901448
 10
904.1914287274675
 20
-1373.013103094869
 10
904.1562705669701
 20
-1373.019996690697
 42
-0.024390934101051
 10
903.84282710605
 20
-1373.065717721727
 10
903.7925463792828
 20
-1373.070563268629
 42
-0.0196639292931591
 10
903.5769508017515
 20
-1373.082811554142
 10
903.525126730588
 20
-1373.083714814879
 42
-0.0100501510682178
 10
903.4127034489238
 20
-1373.083414416526
 10
903.3810435875907
 20
-1373.082693344641
 42
-0.0019752031154392
 10
903.3319512508984
 20
-1373.081381184431
 10
903.3291909476663
 20
-1373.081296492604
 42
0.0065378752009715
 10
903.2856143729216
 20
-1373.08052960139
 42
-0.0167974694627652
 10
903.2420835499889
 20
-1373.078869702864
 10
903.2380042107277
 20
-1373.078576691969
 42
-0.0081283276268876
 10
903.1864444129922
 20
-1373.074029698331
 10
903.1747048391105
 20
-1373.072801780753
 42
-0.0126703440176359
 10
903.0999865433172
 20
-1373.063066989681
 10
903.0771986756404
 20
-1373.059508733766
 42
-0.0117852088431156
 10
902.9576596898023
 20
-1373.037945738608
 10
902.9022792380449
 20
-1373.026602198374
 42
-0.0251774592298552
 10
902.6754351990381
 20
-1372.968104188941
 10
902.6307160091866
 20
-1372.954137369606
 42
-0.0146525199890993
 10
902.4443230216475
 20
-1372.889870842408
 42
-0.0166929435857431
 10
902.26234536552
 20
-1372.814063709353
 10
902.2576887342477
 20
-1372.811938808739
 42
-0.0191684358437913
 10
902.0725051030001
 20
-1372.71870272495
 10
902.0691725172414
 20
-1372.716861477396
 42
-0.022118178181802
 10
901.8858622133408
 20
-1372.604727979026
 10
901.8835124093308
 20
-1372.603143681034
 42
-0.0254984685376512
 10
901.7072222589453
 20
-1372.470732531064
 10
901.6847401112433
 20
-1372.451980222128
 42
-0.0292492648804151
 10
901.5599711724005
 20
-1372.334887422485
 42
-0.0159048957493704
 10
901.4461311749525
 20
-1372.206867430888
 10
901.4448123843711
 20
-1372.205285817866
 42
-0.0343813379559378
 10
901.3421751227444
 20
-1372.063414492096
 10
901.310683591383
 20
-1372.012911100001
 42
-0.0369117275701749
 10
901.2247910894868
 20
-1371.849433859054
 42
-0.0191751379909643
 10
901.1575977039296
 20
-1371.677029253047
 10
901.1558343801703
 20
-1371.671935908373
 42
-0.0378178042225739
 10
901.1060396613857
 20
-1371.48299513229
 10
901.1000443656555
 20
-1371.450434514094
 42
-0.0184846046461677
 10
901.0793271663613
 20
-1371.30868169355
 42
-0.0179866351308712
 10
901.0689941612876
 20
-1371.165790880468
 10
901.0689377188419
 20
-1371.164233193856
 42
-0.0085497186138674
 10
901.0675054377381
 20
-1371.089360028846
 42
-0.0085497186138674
  0
ENDBLK
  5
5F
330
23
100
AcDbEntity
  8
template
390
1D
100
AcDbBlockEnd
  0
BLOCK
  5
60
330
24
100
AcDbEntity
  8
notes
390
1D
100
AcDbBlockBegin
  2
*D3
 70
     1
 10
0.0
 20
0.0
 30
0.0
  3
*D3
  1
*D3
  0
LINE
  5
61
330
24
100
AcDbEntity
  8
0
  6
Continuous
 62
     0
370
    -2
390
1D
100
AcDbLine
 10
-409.9411756091168
 20
800.4852232387922
 30
0.0
 11
-367.2131994239544
 21
843.2131994239545
 31
0.0
  0
LINE
  5
62
330
24
100
AcDbEntity
  8
0
  6
Continuous
 62
     0
370
    -2
390
1D
100
AcDbLine
 10
-268.5198193718072
 20
659.0638670014825
 30
0.0
 11
-225.7918431866448
 21
701.7918431866449
 31
0.0
  0
LINE
  5
63
330
24
100
AcDbEntity
  8
0
  6
Continuous
 62
     0
370
    -2
390
1D
100
AcDbLine
 10
-367.2131994239544
 20
843.2131994239545
 30
0.0
 11
-225.7918431866448
 21
701.7918431866449
 31
0.0
  0
CIRCLE
  5
64
102
{ACAD_REACTORS
330
65
102
}
330
24
100
AcDbEntity
  8
0
  6
Continuous
 62
     0
370
    -2
390
1D
100
AcDbCircle
 10
-367.2131994239544
 20
843.2131994239545
 30
0.0
 40
1.9998779296875
  0
HATCH
  5
65
330
24
100
AcDbEntity
  8
0
  6
Continuous
 62
     0
370
    -2
390
1D
100
AcDbHatch
 10
0.0
 20
0.0
 30
0.0
210
0.0
220
0.0
230
1.0
  2
SOLID
 70
     1
 71
     1
 91
        1
 92
        1
 93
        1
 72
     2
 10
-367.2131994239544
 20
843.2131994239545
 40
1.9998779296875
 50
0.0
 51
360.0
 73
     0
 97
        1
330
64
 75
     0
 76
     1
 98
        1
 10
0.0
 20
0.0
  0
CIRCLE
  5
66
102
{ACAD_REACTORS
330
67
102
}
330
24
100
AcDbEntity
  8
0
  6
Continuous
 62
     0
370
    -2
390
1D
100
AcDbCircle
 10
-225.7918431866448
 20
701.7918431866449
 30
0.0
 40
1.9998779296875
  0
HATCH
  5
67
330
24
100
AcDbEntity
  8
0
  6
Continuous
 62
     0
370
    -2
390
1D
100
AcDbHatch
 10
0.0
 20
0.0
 30
0.0
210
0.0
220
0.0
230
1.0
  2
SOLID
 70
     1
 71
     1
 91
        1
 92
        1
 93
        1
 72
     2
 10
-225.7918431866448
 20
701.7918431866449
 40
1.9998779296875
 50
0.0
 51
360.0
 73
     0
 97
        1
330
66
 75
     0
 76
     1
 98
        1
 10
0.0
 20
0.0
  0
MTEXT
  5
68
330
24
100
AcDbEntity
  8
0
 62
     0
390
1D
100
AcDbMText
 10
-289.3854098780588
 20
813.2955955655053
 30
0.0
 40
24.4326171875
 41
0.0
 46
0.0
 71
     1
 72
     1
  1
200
  7
ＭＳ ゴシック
 11
0.7071067811865474
 21
-0.7071067811865477
 31
0.0
 73
     1
 44
0.7828267384257843
  0
POINT
  5
69
330
24
100
AcDbEntity
  8
Defpoints
 62
     0
370
     0
390
1D
100
AcDbPoint
 10
-286.1974889014709
 20
641.3861974718188
 30
0.0
  0
POINT
  5
6A
330
24
100
AcDbEntity
  8
Defpoints
 62
     0
370
     0
390
1D
100
AcDbPoint
 10
-427.6188451387804
 20
782.8075537091285
 30
0.0
  0
POINT
  5
6B
330
24
100
AcDbEntity
  8
Defpoints
 62
     0
370
     0
390
1D
100
AcDbPoint
 10
-367.2131994239544
 20
843.2131994239545
 30
0.0
  0
ENDBLK
  5
6C
330
24
100
AcDbEntity
  8
notes
390
1D
100
AcDbBlockEnd
  0
BLOCK
  5
6D
330
25
100
AcDbEntity
  8
notes
390
1D
100
AcDbBlockBegin
  2
*D4
 70
     1
 10
0.0
 20
0.0
 30
0.0
  3
*D4
  1
*D4
  0
LINE
  5
6E
330
25
100
AcDbEntity
  8
0
  6
Continuous
 62
     0
370
    -2
390
1D
100
AcDbLine
 10
-431.1543790447131
 20
800.4852232387923
 30
0.0
 11
-485.3345779029603
 21
854.6654220970395
 31
0.0
  0
LINE
  5
6F
330
25
100
AcDbEntity
  8
0
  6
Continuous
 62
     0
370
    -2
390
1D
100
AcDbLine
 10
-650.357481212543
 20
581.2821210709626
 30
0.0
 11
-704.5376800707902
 21
635.4623199292098
 31
0.0
  0
LINE
  5
70
330
25
100
AcDbEntity
  8
0
  6
Continuous
 62
     0
370
    -2
390
1D
100
AcDbLine
 10
-485.3345779029603
 20
854.6654220970395
 30
0.0
 11
-704.5376800707902
 21
635.4623199292098
 31
0.0
  0
CIRCLE
  5
71
102
{ACAD_REACTORS
330
72
102
}
330
25
100
AcDbEntity
  8
0
  6
Continuous
 62
     0
370
    -2
390
1D
100
AcDbCircle
 10
-485.3345779029603
 20
854.6654220970395
 30
0.0
 40
1.9998779296875
  0
HATCH
  5
72
330
25
100
AcDbEntity
  8
0
  6
Continuous
 62
     0
370
    -2
390
1D
100
AcDbHatch
 10
0.0
 20
0.0
 30
0.0
210
0.0
220
0.0
230
1.0
  2
SOLID
 70
     1
 71
     1
 91
        1
 92
        1
 93
        1
 72
     2
 10
-485.3345779029603
 20
854.6654220970395
 40
1.9998779296875
 50
0.0
 51
360.0
 73
     0
 97
        1
330
71
 75
     0
 76
     1
 98
        1
 10
0.0
 20
0.0
  0
CIRCLE
  5
73
102
{ACAD_REACTORS
330
74
102
}
330
25
100
AcDbEntity
  8
0
  6
Continuous
 62
     0
370
    -2
390
1D
100
AcDbCircle
 10
-704.5376800707902
 20
635.4623199292098
 30
0.0
 40
1.9998779296875
  0
HATCH
  5
74
330
25
100
AcDbEntity
  8
0
  6
Continuous
 62
     0
370
    -2
390
1D
100
AcDbHatch
 10
0.0
 20
0.0
 30
0.0
210
0.0
220
0.0
230
1.0
  2
SOLID
 70
     1
 71
     1
 91
        1
 92
        1
 93
        1
 72
     2
 10
-704.5376800707902
 20
635.4623199292098
 40
1.9998779296875
 50
0.0
 51
360.0
 73
     0
 97
        1
330
73
 75
     0
 76
     1
 98
        1
 10
0.0
 20
0.0
  0
MTEXT
  5
75
330
25
100
AcDbEntity
  8
0
 62
     0
390
1D
100
AcDbMText
 10
-635.7292032470808
 20
752.1809824403655
 30
0.0
 40
24.4326171875
 41
0.0
 46
0.0
 71
     1
 72
     1
  1
310
  7
ＭＳ ゴシック
 11
0.7071067811865479
 21
0.7071067811865472
 31
0.0
 73
     1
 44
0.7828267384257843
  0
POINT
  5
76
330
25
100
AcDbEntity
  8
Defpoints
 62
     0
370
     0
390
1D
100
AcDbPoint
 10
-632.6798116828793
 20
563.6044515412989
 30
0.0
  0
POINT
  5
77
330
25
100
AcDbEntity
  8
Defpoints
 62
     0
370
     0
390
1D
100
AcDbPoint
 10
-413.4767095150494
 20
782.8075537091286
 30
0.0
  0
POINT
  5
78
330
25
100
AcDbEntity
  8
Defpoints
 62
     0
370
     0
390
1D
100
AcDbPoint
 10
-485.3345779029603
 20
854.6654220970395
 30
0.0
  0
ENDBLK
  5
79
330
25
100
AcDbEntity
  8
notes
390
1D
100
AcDbBlockEnd
  0
BLOCK
  5
7A
330
26
100
AcDbEntity
  8
notes
390
1D
100
AcDbBlockBegin
  2
*D5
 70
     1
 10
0.0
 20
0.0
 30
0.0
  3
*D5
  1
*D5
  0
LINE
  5
7B
330
26
100
AcDbEntity
  8
0
  6
Continuous
 62
     0
370
    -2
390
1D
100
AcDbLine
 10
-635.6034781000881
 20
596.0
 30
0.0
 11
-635.6034781000881
 21
935.7364858972634
 31
0.0
  0
LINE
  5
7C
330
26
100
AcDbEntity
  8
0
  6
Continuous
 62
     0
370
    -2
390
1D
100
AcDbLine
 10
-205.4920765537414
 20
596.0
 30
0.0
 11
-205.4920765537414
 21
935.7364858972634
 31
0.0
  0
LINE
  5
7D
330
26
100
AcDbEntity
  8
0
  6
Continuous
 62
     0
370
    -2
390
1D
100
AcDbLine
 10
-635.6034781000881
 20
935.7364858972634
 30
0.0
 11
-205.4920765537414
 21
935.7364858972634
 31
0.0
  0
CIRCLE
  5
7E
102
{ACAD_REACTORS
330
7F
102
}
330
26
100
AcDbEntity
  8
0
  6
Continuous
 62
     0
370
    -2
390
1D
100
AcDbCircle
 10
-635.6034781000881
 20
935.7364858972634
 30
0.0
 40
1.9998779296875
  0
HATCH
  5
7F
330
26
100
AcDbEntity
  8
0
  6
Continuous
 62
     0
370
    -2
390
1D
100
AcDbHatch
 10
0.0
 20
0.0
 30
0.0
210
0.0
220
0.0
230
1.0
  2
SOLID
 70
     1
 71
     1
 91
        1
 92
        1
 93
        1
 72
     2
 10
-635.6034781000881
 20
935.7364858972634
 40
1.9998779296875
 50
0.0
 51
360.0
 73
     0
 97
        1
330
7E
 75
     0
 76
     1
 98
        1
 10
0.0
 20
0.0
  0
CIRCLE
  5
80
102
{ACAD_REACTORS
330
81
102
}
330
26
100
AcDbEntity
  8
0
  6
Continuous
 62
     0
370
    -2
390
1D
100
AcDbCircle
 10
-205.4920765537414
 20
935.7364858972634
 30
0.0
 40
1.9998779296875
  0
HATCH
  5
81
330
26
100
AcDbEntity
  8
0
  6
Continuous
 62
     0
370
    -2
390
1D
100
AcDbHatch
 10
0.0
 20
0.0
 30
0.0
210
0.0
220
0.0
230
1.0
  2
SOLID
 70
     1
 71
     1
 91
        1
 92
        1
 93
        1
 72
     2
 10
-205.4920765537414
 20
935.7364858972634
 40
1.9998779296875
 50
0.0
 51
360.0
 73
     0
 97
        1
330
80
 75
     0
 76
     1
 98
        1
 10
0.0
 20
0.0
  0
MTEXT
  5
82
330
26
100
AcDbEntity
  8
0
 62
     0
390
1D
100
AcDbMText
 10
-444.3602790090903
 20
969.6141030847634
 30
0.0
 40
24.4326171875
 41
0.0
 46
0.0
 71
     1
 72
     1
  1
430
  7
ＭＳ ゴシック
 73
     1
 44
0.7828267384257843
  0
POINT
  5
83
330
26
100
AcDbEntity
  8
Defpoints
 62
     0
370
     0
390
1D
100
AcDbPoint
 10
-205.4920765537414
 20
571.0
 30
0.0
  0
POINT
  5
84
330
26
100
AcDbEntity
  8
Defpoints
 62
     0
370
     0
390
1D
100
AcDbPoint
 10
-635.6034781000881
 20
571.0
 30
0.0
  0
POINT
  5
85
330
26
100
AcDbEntity
  8
Defpoints
 62
     0
370
     0
390
1D
100
AcDbPoint
 10
-635.6034781000881
 20
935.7364858972634
 30
0.0
  0
ENDBLK
  5
86
330
26
100
AcDbEntity
  8
notes
390
1D
100
AcDbBlockEnd
  0
BLOCK
  5
87
330
27
100
AcDbEntity
  8
notes
390
1D
100
AcDbBlockBegin
  2
*D6
 70
     1
 10
0.0
 20
0.0
 30
0.0
  3
*D6
  1
*D6
  0
LINE
  5
88
330
27
100
AcDbEntity
  8
0
  6
Continuous
 62
     0
370
    -2
390
1D
100
AcDbLine
 10
-413.439938343594
 20
711.5088317170962
 30
0.0
 11
-336.0
 21
885.7364858972634
 31
0.0
  0
CIRCLE
  5
89
102
{ACAD_REACTORS
330
8A
102
}
330
27
100
AcDbEntity
  8
0
  6
Continuous
 62
     0
370
    -2
390
1D
100
AcDbCircle
 10
-413.439938343594
 20
711.5088317170962
 30
0.0
 40
1.9998779296875
  0
HATCH
  5
8A
330
27
100
AcDbEntity
  8
0
  6
Continuous
 62
     0
370
    -2
390
1D
100
AcDbHatch
 10
0.0
 20
0.0
 30
0.0
210
0.0
220
0.0
230
1.0
  2
SOLID
 70
     1
 71
     1
 91
        1
 92
        1
 93
        1
 72
     2
 10
-413.439938343594
 20
711.5088317170962
 40
1.9998779296875
 50
0.0
 51
360.0
 73
     0
 97
        1
330
89
 75
     0
 76
     1
 98
        1
 10
0.0
 20
0.0
  0
LINE
  5
8B
330
27
100
AcDbEntity
  8
0
  6
Continuous
 62
     0
370
    -2
390
1D
100
AcDbLine
 10
-336.0
 20
885.7364858972634
 30
0.0
 11
-212.5
 21
885.7364858972634
 31
0.0
  0
MTEXT
  5
8C
330
27
100
AcDbEntity
  8
0
 62
     0
390
1D
100
AcDbMText
 10
-276.0
 20
919.6141030847634
 30
0.0
 40
24.4326171875
 41
0.0
 46
0.0
 71
     1
 72
     1
  1
φ35
  7
ＭＳ ゴシック
 73
     1
 44
0.7828267384257843
  0
POINT
  5
8D
330
27
100
AcDbEntity
  8
Defpoints
 62
     0
370
     0
390
1D
100
AcDbPoint
 10
-427.6556163102362
 20
679.5257971526886
 30
0.0
  0
POINT
  5
8E
330
27
100
AcDbEntity
  8
Defpoints
 62
     0
370
     0
390
1D
100
AcDbPoint
 10
-413.439938343594
 20
711.5088317170962
 30
0.0
  0
ENDBLK
  5
8F
330
27
100
AcDbEntity
  8
notes
390
1D
100
AcDbBlockEnd
  0
BLOCK
  5
90
330
28
100
AcDbEntity
  8
notes
390
1D
100
AcDbBlockBegin
  2
*D7
 70
     1
 10
0.0
 20
0.0
 30
0.0
  3
*D7
  1
*D7
  0
LINE
  5
91
330
28
100
AcDbEntity
  8
0
  6
Continuous
 62
     0
370
    -2
390
1D
100
AcDbLine
 10
-308.9452369484717
 20
435.7323159175679
 30
0.0
 11
-104.8802090650179
 21
435.7323159175679
 31
0.0
  0
LINE
  5
92
330
28
100
AcDbEntity
  8
0
  6
Continuous
 62
     0
370
    -2
390
1D
100
AcDbLine
 10
-249.9289137444336
 20
645.7323159175679
 30
0.0
 11
-104.8802090650179
 21
645.7323159175679
 31
0.0
  0
LINE
  5
93
330
28
100
AcDbEntity
  8
0
  6
Continuous
 62
     0
370
    -2
390
1D
100
AcDbLine
 10
-104.8802090650179
 20
435.7323159175679
 30
0.0
 11
-104.8802090650179
 21
645.7323159175679
 31
0.0
  0
CIRCLE
  5
94
102
{ACAD_REACTORS
330
95
102
}
330
28
100
AcDbEntity
  8
0
  6
Continuous
 62
     0
370
    -2
390
1D
100
AcDbCircle
 10
-104.8802090650179
 20
435.7323159175679
 30
0.0
 40
1.9998779296875
  0
HATCH
  5
95
330
28
100
AcDbEntity
  8
0
  6
Continuous
 62
     0
370
    -2
390
1D
100
AcDbHatch
 10
0.0
 20
0.0
 30
0.0
210
0.0
220
0.0
230
1.0
  2
SOLID
 70
     1
 71
     1
 91
        1
 92
        1
 93
        1
 72
     2
 10
-104.8802090650179
 20
435.7323159175679
 40
1.9998779296875
 50
0.0
 51
360.0
 73
     0
 97
        1
330
94
 75
     0
 76
     1
 98
        1
 10
0.0
 20
0.0
  0
CIRCLE
  5
96
102
{ACAD_REACTORS
330
97
102
}
330
28
100
AcDbEntity
  8
0
  6
Continuous
 62
     0
370
    -2
390
1D
100
AcDbCircle
 10
-104.8802090650179
 20
645.7323159175679
 30
0.0
 40
1.9998779296875
  0
HATCH
  5
97
330
28
100
AcDbEntity
  8
0
  6
Continuous
 62
     0
370
    -2
390
1D
100
AcDbHatch
 10
0.0
 20
0.0
 30
0.0
210
0.0
220
0.0
230
1.0
  2
SOLID
 70
     1
 71
     1
 91
        1
 92
        1
 93
        1
 72
     2
 10
-104.8802090650179
 20
645.7323159175679
 40
1.9998779296875
 50
0.0
 51
360.0
 73
     0
 97
        1
330
96
 75
     0
 76
     1
 98
        1
 10
0.0
 20
0.0
  0
MTEXT
  5
98
330
28
100
AcDbEntity
  8
0
 62
     0
390
1D
100
AcDbMText
 10
-138.7578262525179
 20
516.9198142353923
 30
0.0
 40
24.4326171875
 41
0.0
 46
0.0
 71
     1
 72
     1
  1
210
  7
ＭＳ ゴシック
 11
0.0
 21
1.0
 31
0.0
 73
     1
 44
0.7828267384257843
  0
POINT
  5
99
330
28
100
AcDbEntity
  8
Defpoints
 62
     0
370
     0
390
1D
100
AcDbPoint
 10
-274.9289137444335
 20
645.7323159175679
 30
0.0
  0
POINT
  5
9A
330
28
100
AcDbEntity
  8
Defpoints
 62
     0
370
     0
390
1D
100
AcDbPoint
 10
-333.9452369484717
 20
435.7323159175679
 30
0.0
  0
POINT
  5
9B
330
28
100
AcDbEntity
  8
Defpoints
 62
     0
370
     0
390
1D
100
AcDbPoint
 10
-104.8802090650179
 20
435.7323159175679
 30
0.0
  0
ENDBLK
  5
9C
330
28
100
AcDbEntity
  8
notes
390
1D
100
AcDbBlockEnd
  0
BLOCK
  5
9D
330
29
100
AcDbEntity
  8
notes
390
1D
100
AcDbBlockBegin
  2
*D8
 70
     1
 10
0.0
 20
0.0
 30
0.0
  3
*D8
  1
*D8
  0
LINE
  5
9E
330
29
100
AcDbEntity
  8
0
  6
Continuous
 62
     0
370
    -2
390
1D
100
AcDbLine
 10
-395.5477773269151
 20
785.736485897263
 30
0.0
 11
-104.8802090650179
 21
785.736485897263
 31
0.0
  0
LINE
  5
9F
330
29
100
AcDbEntity
  8
0
  6
Continuous
 62
     0
370
    -2
390
1D
100
AcDbLine
 10
-249.9289137444336
 20
645.736485897263
 30
0.0
 11
-104.8802090650179
 21
645.736485897263
 31
0.0
  0
LINE
  5
A0
330
29
100
AcDbEntity
  8
0
  6
Continuous
 62
     0
370
    -2
390
1D
100
AcDbLine
 10
-104.8802090650179
 20
785.736485897263
 30
0.0
 11
-104.8802090650179
 21
645.736485897263
 31
0.0
  0
CIRCLE
  5
A1
102
{ACAD_REACTORS
330
A2
102
}
330
29
100
AcDbEntity
  8
0
  6
Continuous
 62
     0
370
    -2
390
1D
100
AcDbCircle
 10
-104.8802090650179
 20
785.736485897263
 30
0.0
 40
1.9998779296875
  0
HATCH
  5
A2
330
29
100
AcDbEntity
  8
0
  6
Continuous
 62
     0
370
    -2
390
1D
100
AcDbHatch
 10
0.0
 20
0.0
 30
0.0
210
0.0
220
0.0
230
1.0
  2
SOLID
 70
     1
 71
     1
 91
        1
 92
        1
 93
        1
 72
     2
 10
-104.8802090650179
 20
785.736485897263
 40
1.9998779296875
 50
0.0
 51
360.0
 73
     0
 97
        1
330
A1
 75
     0
 76
     1
 98
        1
 10
0.0
 20
0.0
  0
CIRCLE
  5
A3
102
{ACAD_REACTORS
330
A4
102
}
330
29
100
AcDbEntity
  8
0
  6
Continuous
 62
     0
370
    -2
390
1D
100
AcDbCircle
 10
-104.8802090650179
 20
645.736485897263
 30
0.0
 40
1.9998779296875
  0
HATCH
  5
A4
330
29
100
AcDbEntity
  8
0
  6
Continuous
 62
     0
370
    -2
390
1D
100
AcDbHatch
 10
0.0
 20
0.0
 30
0.0
210
0.0
220
0.0
230
1.0
  2
SOLID
 70
     1
 71
     1
 91
        1
 92
        1
 93
        1
 72
     2
 10
-104.8802090650179
 20
645.736485897263
 40
1.9998779296875
 50
0.0
 51
360.0
 73
     0
 97
        1
330
A3
 75
     0
 76
     1
 98
        1
 10
0.0
 20
0.0
  0
MTEXT
  5
A5
330
29
100
AcDbEntity
  8
0
 62
     0
390
1D
100
AcDbMText
 10
-138.7578262525178
 20
691.9239842150876
 30
0.0
 40
24.4326171875
 41
0.0
 46
0.0
 71
     1
 72
     1
  1
140
  7
ＭＳ ゴシック
 11
0.0
 21
1.0
 31
0.0
 73
     1
 44
0.7828267384257843
  0
POINT
  5
A6
330
29
100
AcDbEntity
  8
Defpoints
 62
     0
370
     0
390
1D
100
AcDbPoint
 10
-274.9289137444335
 20
645.736485897263
 30
0.0
  0
POINT
  5
A7
330
29
100
AcDbEntity
  8
Defpoints
 62
     0
370
     0
390
1D
100
AcDbPoint
 10
-420.5477773269151
 20
785.736485897263
 30
0.0
  0
POINT
  5
A8
330
29
100
AcDbEntity
  8
Defpoints
 62
     0
370
     0
390
1D
100
AcDbPoint
 10
-104.8802090650179
 20
785.736485897263
 30
0.0
  0
ENDBLK
  5
A9
330
29
100
AcDbEntity
  8
notes
390
1D
100
AcDbBlockEnd
  0
BLOCK
  5
AA
330
2A
100
AcDbEntity
  8
notes
390
1D
100
AcDbBlockBegin
  2
*D9
 70
     1
 10
0.0
 20
0.0
 30
0.0
  3
*D9
  1
*D9
  0
LINE
  5
AB
330
2A
100
AcDbEntity
  8
0
  6
Continuous
 62
     0
370
    -2
390
1D
100
AcDbLine
 10
-395.5477773269151
 20
785.736485897263
 30
0.0
 11
-54.88020906501785
 21
785.736485897263
 31
0.0
  0
LINE
  5
AC
330
2A
100
AcDbEntity
  8
0
  6
Continuous
 62
     0
370
    -2
390
1D
100
AcDbLine
 10
-395.5477728173055
 20
405.7323159175683
 30
0.0
 11
-54.88020906501785
 21
405.7323159175683
 31
0.0
  0
LINE
  5
AD
330
2A
100
AcDbEntity
  8
0
  6
Continuous
 62
     0
370
    -2
390
1D
100
AcDbLine
 10
-54.88020906501785
 20
785.736485897263
 30
0.0
 11
-54.88020906501785
 21
405.7323159175683
 31
0.0
  0
CIRCLE
  5
AE
102
{ACAD_REACTORS
330
AF
102
}
330
2A
100
AcDbEntity
  8
0
  6
Continuous
 62
     0
370
    -2
390
1D
100
AcDbCircle
 10
-54.88020906501785
 20
785.736485897263
 30
0.0
 40
1.9998779296875
  0
HATCH
  5
AF
330
2A
100
AcDbEntity
  8
0
  6
Continuous
 62
     0
370
    -2
390
1D
100
AcDbHatch
 10
0.0
 20
0.0
 30
0.0
210
0.0
220
0.0
230
1.0
  2
SOLID
 70
     1
 71
     1
 91
        1
 92
        1
 93
        1
 72
     2
 10
-54.88020906501785
 20
785.736485897263
 40
1.9998779296875
 50
0.0
 51
360.0
 73
     0
 97
        1
330
AE
 75
     0
 76
     1
 98
        1
 10
0.0
 20
0.0
  0
CIRCLE
  5
B0
102
{ACAD_REACTORS
330
B1
102
}
330
2A
100
AcDbEntity
  8
0
  6
Continuous
 62
     0
370
    -2
390
1D
100
AcDbCircle
 10
-54.88020906501785
 20
405.7323159175683
 30
0.0
 40
1.9998779296875
  0
HATCH
  5
B1
330
2A
100
AcDbEntity
  8
0
  6
Continuous
 62
     0
370
    -2
390
1D
100
AcDbHatch
 10
0.0
 20
0.0
 30
0.0
210
0.0
220
0.0
230
1.0
  2
SOLID
 70
     1
 71
     1
 91
        1
 92
        1
 93
        1
 72
     2
 10
-54.88020906501785
 20
405.7323159175683
 40
1.9998779296875
 50
0.0
 51
360.0
 73
     0
 97
        1
330
B0
 75
     0
 76
     1
 98
        1
 10
0.0
 20
0.0
  0
MTEXT
  5
B2
330
2A
100
AcDbEntity
  8
0
 62
     0
390
1D
100
AcDbMText
 10
-88.75782625251786
 20
571.9218992252402
 30
0.0
 40
24.4326171875
 41
0.0
 46
0.0
 71
     1
 72
     1
  1
380
  7
ＭＳ ゴシック
 11
0.0
 21
1.0
 31
0.0
 73
     1
 44
0.7828267384257843
  0
POINT
  5
B3
330
2A
100
AcDbEntity
  8
Defpoints
 62
     0
370
     0
390
1D
100
AcDbPoint
 10
-420.5477728173055
 20
405.7323159175683
 30
0.0
  0
POINT
  5
B4
330
2A
100
AcDbEntity
  8
Defpoints
 62
     0
370
     0
390
1D
100
AcDbPoint
 10
-420.5477773269151
 20
785.736485897263
 30
0.0
  0
POINT
  5
B5
330
2A
100
AcDbEntity
  8
Defpoints
 62
     0
370
     0
390
1D
100
AcDbPoint
 10
-54.88020906501785
 20
785.736485897263
 30
0.0
  0
ENDBLK
  5
B6
330
2A
100
AcDbEntity
  8
notes
390
1D
100
AcDbBlockEnd
  0
BLOCK
  5
B7
330
2B
100
AcDbEntity
  8
notes
390
1D
100
AcDbBlockBegin
  2
*D10
 70
     1
 10
0.0
 20
0.0
 30
0.0
  3
*D10
  1
*D10
  0
LINE
  5
B8
330
2B
100
AcDbEntity
  8
0
  6
Continuous
 62
     0
370
    -2
390
1D
100
AcDbLine
 10
733.0758095682925
 20
-405.1857119862887
 30
0.0
 11
733.0758095682925
 21
-343.375
 31
0.0
  0
LINE
  5
B9
330
2B
100
AcDbEntity
  8
0
  6
Continuous
 62
     0
370
    -2
390
1D
100
AcDbLine
 10
643.0758095682925
 20
-420.1857119862887
 30
0.0
 11
643.0758095682925
 21
-343.375
 31
0.0
  0
LINE
  5
BA
330
2B
100
AcDbEntity
  8
0
  6
Continuous
 62
     0
370
    -2
390
1D
100
AcDbLine
 10
733.0758095682925
 20
-343.375
 30
0.0
 11
643.0758095682925
 21
-343.375
 31
0.0
  0
CIRCLE
  5
BB
102
{ACAD_REACTORS
330
BC
102
}
330
2B
100
AcDbEntity
  8
0
  6
Continuous
 62
     0
370
    -2
390
1D
100
AcDbCircle
 10
733.0758095682925
 20
-343.375
 30
0.0
 40
1.9998779296875
  0
HATCH
  5
BC
330
2B
100
AcDbEntity
  8
0
  6
Continuous
 62
     0
370
    -2
390
1D
100
AcDbHatch
 10
0.0
 20
0.0
 30
0.0
210
0.0
220
0.0
230
1.0
  2
SOLID
 70
     1
 71
     1
 91
        1
 92
        1
 93
        1
 72
     2
 10
733.0758095682925
 20
-343.375
 40
1.9998779296875
 50
0.0
 51
360.0
 73
     0
 97
        1
330
BB
 75
     0
 76
     1
 98
        1
 10
0.0
 20
0.0
  0
CIRCLE
  5
BD
102
{ACAD_REACTORS
330
BE
102
}
330
2B
100
AcDbEntity
  8
0
  6
Continuous
 62
     0
370
    -2
390
1D
100
AcDbCircle
 10
643.0758095682925
 20
-343.375
 30
0.0
 40
1.9998779296875
  0
HATCH
  5
BE
330
2B
100
AcDbEntity
  8
0
  6
Continuous
 62
     0
370
    -2
390
1D
100
AcDbHatch
 10
0.0
 20
0.0
 30
0.0
210
0.0
220
0.0
230
1.0
  2
SOLID
 70
     1
 71
     1
 91
        1
 92
        1
 93
        1
 72
     2
 10
643.0758095682925
 20
-343.375
 40
1.9998779296875
 50
0.0
 51
360.0
 73
     0
 97
        1
330
BD
 75
     0
 76
     1
 98
        1
 10
0.0
 20
0.0
  0
MTEXT
  5
BF
330
2B
100
AcDbEntity
  8
0
 62
     0
390
1D
100
AcDbMText
 10
680.0
 20
-309.4973828125
 30
0.0
 40
24.4326171875
 41
0.0
 46
0.0
 71
     1
 72
     1
  1
90
  7
ＭＳ ゴシック
 73
     1
 44
0.7828267384257843
  0
POINT
  5
C0
330
2B
100
AcDbEntity
  8
Defpoints
 62
     0
370
     0
390
1D
100
AcDbPoint
 10
643.0758095682925
 20
-445.1857119862887
 30
0.0
  0
POINT
  5
C1
330
2B
100
AcDbEntity
  8
Defpoints
 62
     0
370
     0
390
1D
100
AcDbPoint
 10
733.0758095682925
 20
-430.1857119862887
 30
0.0
  0
POINT
  5
C2
330
2B
100
AcDbEntity
  8
Defpoints
 62
     0
370
     0
390
1D
100
AcDbPoint
 10
733.0758095682925
 20
-343.375
 30
0.0
  0
ENDBLK
  5
C3
330
2B
100
AcDbEntity
  8
notes
390
1D
100
AcDbBlockEnd
  0
BLOCK
  5
C4
330
2C
100
AcDbEntity
  8
notes
390
1D
100
AcDbBlockBegin
  2
*D11
 70
     1
 10
0.0
 20
0.0
 30
0.0
  3
*D11
  1
*D11
  0
LINE
  5
C5
330
2C
100
AcDbEntity
  8
0
  6
Continuous
 62
     0
370
    -2
390
1D
100
AcDbLine
 10
335.0758095682925
 20
-445.1857119862887
 30
0.0
 11
282.53125
 21
-445.1857119862887
 31
0.0
  0
LINE
  5
C6
330
2C
100
AcDbEntity
  8
0
  6
Continuous
 62
     0
370
    -2
390
1D
100
AcDbLine
 10
335.0758095682925
 20
-430.1857119862887
 30
0.0
 11
282.53125
 21
-430.1857119862887
 31
0.0
  0
LINE
  5
C7
330
2C
100
AcDbEntity
  8
0
  6
Continuous
 62
     0
370
    -2
390
1D
100
AcDbLine
 10
282.53125
 20
-430.1857119862887
 30
0.0
 11
282.53125
 21
-380.25
 31
0.0
  0
LINE
  5
C8
330
2C
100
AcDbEntity
  8
0
  6
Continuous
 62
     0
370
    -2
390
1D
100
AcDbLine
 10
282.53125
 20
-445.1857119862887
 30
0.0
 11
282.53125
 21
-430.1857119862887
 31
0.0
  0
CIRCLE
  5
C9
102
{ACAD_REACTORS
330
CA
102
}
330
2C
100
AcDbEntity
  8
0
  6
Continuous
 62
     0
370
    -2
390
1D
100
AcDbCircle
 10
282.53125
 20
-445.1857119862887
 30
0.0
 40
1.9998779296875
  0
HATCH
  5
CA
330
2C
100
AcDbEntity
  8
0
  6
Continuous
 62
     0
370
    -2
390
1D
100
AcDbHatch
 10
0.0
 20
0.0
 30
0.0
210
0.0
220
0.0
230
1.0
  2
SOLID
 70
     1
 71
     1
 91
        1
 92
        1
 93
        1
 72
     2
 10
282.53125
 20
-445.1857119862887
 40
1.9998779296875
 50
0.0
 51
360.0
 73
     0
 97
        1
330
C9
 75
     0
 76
     1
 98
        1
 10
0.0
 20
0.0
  0
CIRCLE
  5
CB
102
{ACAD_REACTORS
330
CC
102
}
330
2C
100
AcDbEntity
  8
0
  6
Continuous
 62
     0
370
    -2
390
1D
100
AcDbCircle
 10
282.53125
 20
-430.1857119862887
 30
0.0
 40
1.9998779296875
  0
HATCH
  5
CC
330
2C
100
AcDbEntity
  8
0
  6
Continuous
 62
     0
370
    -2
390
1D
100
AcDbHatch
 10
0.0
 20
0.0
 30
0.0
210
0.0
220
0.0
230
1.0
  2
SOLID
 70
     1
 71
     1
 91
        1
 92
        1
 93
        1
 72
     2
 10
282.53125
 20
-430.1857119862887
 40
1.9998779296875
 50
0.0
 51
360.0
 73
     0
 97
        1
330
CB
 75
     0
 76
     1
 98
        1
 10
0.0
 20
0.0
  0
MTEXT
  5
CD
330
2C
100
AcDbEntity
  8
0
 62
     0
390
1D
100
AcDbMText
 10
248.6536328125
 20
-412.0
 30
0.0
 40
24.4326171875
 41
0.0
 46
0.0
 71
     1
 72
     1
  1
15
  7
ＭＳ ゴシック
 11
0.0
 21
1.0
 31
0.0
 73
     1
 44
0.7828267384257843
  0
POINT
  5
CE
330
2C
100
AcDbEntity
  8
Defpoints
 62
     0
370
     0
390
1D
100
AcDbPoint
 10
360.0758095682925
 20
-430.1857119862887
 30
0.0
  0
POINT
  5
CF
330
2C
100
AcDbEntity
  8
Defpoints
 62
     0
370
     0
390
1D
100
AcDbPoint
 10
360.0758095682925
 20
-445.1857119862887
 30
0.0
  0
POINT
  5
D0
330
2C
100
AcDbEntity
  8
Defpoints
 62
     0
370
     0
390
1D
100
AcDbPoint
 10
282.53125
 20
-445.1857119862887
 30
0.0
  0
ENDBLK
  5
D1
330
2C
100
AcDbEntity
  8
notes
390
1D
100
AcDbBlockEnd
  0
BLOCK
  5
D2
330
2D
100
AcDbEntity
  8
notes
390
1D
100
AcDbBlockBegin
  2
*D12
 70
     1
 10
0.0
 20
0.0
 30
0.0
  3
*D12
  1
*D12
  0
LINE
  5
D3
330
2D
100
AcDbEntity
  8
0
  6
Continuous
 62
     0
370
    -2
390
1D
100
AcDbLine
 10
553.383122370248
 20
-445.1857119862887
 30
0.0
 11
528.383122370248
 21
-445.1857119862887
 31
0.0
  0
LINE
  5
D4
330
2D
100
AcDbEntity
  8
0
  6
Continuous
 62
     0
370
    -2
390
1D
100
AcDbLine
 10
553.383122370248
 20
-555.1857119862887
 30
0.0
 11
528.383122370248
 21
-555.1857119862887
 31
0.0
  0
LINE
  5
D5
330
2D
100
AcDbEntity
  8
0
  6
Continuous
 62
     0
370
    -2
390
1D
100
AcDbLine
 10
528.383122370248
 20
-445.1857119862887
 30
0.0
 11
528.383122370248
 21
-274.125
 31
0.0
  0
LINE
  5
D6
330
2D
100
AcDbEntity
  8
0
  6
Continuous
 62
     0
370
    -2
390
1D
100
AcDbLine
 10
528.383122370248
 20
-445.1857119862887
 30
0.0
 11
528.383122370248
 21
-555.1857119862887
 31
0.0
  0
CIRCLE
  5
D7
102
{ACAD_REACTORS
330
D8
102
}
330
2D
100
AcDbEntity
  8
0
  6
Continuous
 62
     0
370
    -2
390
1D
100
AcDbCircle
 10
528.383122370248
 20
-445.1857119862887
 30
0.0
 40
1.9998779296875
  0
HATCH
  5
D8
330
2D
100
AcDbEntity
  8
0
  6
Continuous
 62
     0
370
    -2
390
1D
100
AcDbHatch
 10
0.0
 20
0.0
 30
0.0
210
0.0
220
0.0
230
1.0
  2
SOLID
 70
     1
 71
     1
 91
        1
 92
        1
 93
        1
 72
     2
 10
528.383122370248
 20
-445.1857119862887
 40
1.9998779296875
 50
0.0
 51
360.0
 73
     0
 97
        1
330
D7
 75
     0
 76
     1
 98
        1
 10
0.0
 20
0.0
  0
CIRCLE
  5
D9
102
{ACAD_REACTORS
330
DA
102
}
330
2D
100
AcDbEntity
  8
0
  6
Continuous
 62
     0
370
    -2
390
1D
100
AcDbCircle
 10
528.383122370248
 20
-555.1857119862887
 30
0.0
 40
1.9998779296875
  0
HATCH
  5
DA
330
2D
100
AcDbEntity
  8
0
  6
Continuous
 62
     0
370
    -2
390
1D
100
AcDbHatch
 10
0.0
 20
0.0
 30
0.0
210
0.0
220
0.0
230
1.0
  2
SOLID
 70
     1
 71
     1
 91
        1
 92
        1
 93
        1
 72
     2
 10
528.383122370248
 20
-555.1857119862887
 40
1.9998779296875
 50
0.0
 51
360.0
 73
     0
 97
        1
330
D9
 75
     0
 76
     1
 98
        1
 10
0.0
 20
0.0
  0
MTEXT
  5
DB
330
2D
100
AcDbEntity
  8
0
 62
     0
390
1D
100
AcDbMText
 10
494.505505182748
 20
-417.0
 30
0.0
 40
24.4326171875
 41
0.0
 46
0.0
 71
     1
 72
     1
  1
110(深さ)
  7
ＭＳ ゴシック
 11
0.0
 21
1.0
 31
0.0
 73
     1
 44
0.7828267384257843
  0
POINT
  5
DC
330
2D
100
AcDbEntity
  8
Defpoints
 62
     0
370
     0
390
1D
100
AcDbPoint
 10
528.383122370248
 20
-555.1857119862887
 30
0.0
  0
POINT
  5
DD
330
2D
100
AcDbEntity
  8
Defpoints
 62
     0
370
     0
390
1D
100
AcDbPoint
 10
528.383122370248
 20
-445.1857119862887
 30
0.0
  0
POINT
  5
DE
330
2D
100
AcDbEntity
  8
Defpoints
 62
     0
370
     0
390
1D
100
AcDbPoint
 10
528.383122370248
 20
-445.1857119862887
 30
0.0
  0
ENDBLK
  5
DF
330
2D
100
AcDbEntity
  8
notes
390
1D
100
AcDbBlockEnd
  0
BLOCK
  5
E0
330
2E
100
AcDbEntity
  8
notes
390
1D
100
AcDbBlockBegin
  2
*D13
 70
     1
 10
0.0
 20
0.0
 30
0.0
  3
*D13
  1
*D13
  0
LINE
  5
E1
330
2E
100
AcDbEntity
  8
0
  6
Continuous
 62
     0
370
    -2
390
1D
100
AcDbLine
 10
-583.0174530933931
 20
500.5806268502988
 30
0.0
 11
-583.0174530933931
 21
307.2323159175683
 31
0.0
  0
LINE
  5
E2
330
2E
100
AcDbEntity
  8
0
  6
Continuous
 62
     0
370
    -2
390
1D
100
AcDbLine
 10
-258.017453093393
 20
500.5883962426171
 30
0.0
 11
-258.017453093393
 21
307.2323159175683
 31
0.0
  0
LINE
  5
E3
330
2E
100
AcDbEntity
  8
0
  6
Continuous
 62
     0
370
    -2
390
1D
100
AcDbLine
 10
-583.0174530933931
 20
307.2323159175683
 30
0.0
 11
-258.017453093393
 21
307.2323159175683
 31
0.0
  0
CIRCLE
  5
E4
102
{ACAD_REACTORS
330
E5
102
}
330
2E
100
AcDbEntity
  8
0
  6
Continuous
 62
     0
370
    -2
390
1D
100
AcDbCircle
 10
-583.0174530933931
 20
307.2323159175683
 30
0.0
 40
1.9998779296875
  0
HATCH
  5
E5
330
2E
100
AcDbEntity
  8
0
  6
Continuous
 62
     0
370
    -2
390
1D
100
AcDbHatch
 10
0.0
 20
0.0
 30
0.0
210
0.0
220
0.0
230
1.0
  2
SOLID
 70
     1
 71
     1
 91
        1
 92
        1
 93
        1
 72
     2
 10
-583.0174530933931
 20
307.2323159175683
 40
1.9998779296875
 50
0.0
 51
360.0
 73
     0
 97
        1
330
E4
 75
     0
 76
     1
 98
        1
 10
0.0
 20
0.0
  0
CIRCLE
  5
E6
102
{ACAD_REACTORS
330
E7
102
}
330
2E
100
AcDbEntity
  8
0
  6
Continuous
 62
     0
370
    -2
390
1D
100
AcDbCircle
 10
-258.017453093393
 20
307.2323159175683
 30
0.0
 40
1.9998779296875
  0
HATCH
  5
E7
330
2E
100
AcDbEntity
  8
0
  6
Continuous
 62
     0
370
    -2
390
1D
100
AcDbHatch
 10
0.0
 20
0.0
 30
0.0
210
0.0
220
0.0
230
1.0
  2
SOLID
 70
     1
 71
     1
 91
        1
 92
        1
 93
        1
 72
     2
 10
-258.017453093393
 20
307.2323159175683
 40
1.9998779296875
 50
0.0
 51
360.0
 73
     0
 97
        1
330
E6
 75
     0
 76
     1
 98
        1
 10
0.0
 20
0.0
  0
MTEXT
  5
E8
330
2E
100
AcDbEntity
  8
0
 62
     0
390
1D
100
AcDbMText
 10
-444.3299547755686
 20
341.1099331050683
 30
0.0
 40
24.4326171875
 41
0.0
 46
0.0
 71
     1
 72
     1
  1
325
  7
ＭＳ ゴシック
 73
     1
 44
0.7828267384257843
  0
POINT
  5
E9
330
2E
100
AcDbEntity
  8
Defpoints
 62
     0
370
     0
390
1D
100
AcDbPoint
 10
-258.017453093393
 20
525.5883962426171
 30
0.0
  0
POINT
  5
EA
330
2E
100
AcDbEntity
  8
Defpoints
 62
     0
370
     0
390
1D
100
AcDbPoint
 10
-583.0174530933931
 20
525.5806268502988
 30
0.0
  0
POINT
  5
EB
330
2E
100
AcDbEntity
  8
Defpoints
 62
     0
370
     0
390
1D
100
AcDbPoint
 10
-583.0174530933931
 20
307.2323159175683
 30
0.0
  0
ENDBLK
  5
EC
330
2E
100
AcDbEntity
  8
notes
390
1D
100
AcDbBlockEnd
  0
BLOCK
  5
ED
330
2F
100
AcDbEntity
  8
notes
390
1D
100
AcDbBlockBegin
  2
*D14
 70
     1
 10
0.0
 20
0.0
 30
0.0
  3
*D14
  1
*D14
  0
LINE
  5
EE
330
2F
100
AcDbEntity
  8
0
  6
Continuous
 62
     0
370
    -2
390
1D
100
AcDbLine
 10
-191.8190438298242
 20
-430.1857119862887
 30
0.0
 11
-76.0
 21
-430.1857119862887
 31
0.0
  0
LINE
  5
EF
330
2F
100
AcDbEntity
  8
0
  6
Continuous
 62
     0
370
    -2
390
1D
100
AcDbLine
 10
-358.0477773269151
 20
-605.1857119862884
 30
0.0
 11
-75.99999999999997
 21
-605.1857119862884
 31
0.0
  0
LINE
  5
F0
330
2F
100
AcDbEntity
  8
0
  6
Continuous
 62
     0
370
    -2
390
1D
100
AcDbLine
 10
-76.0
 20
-430.1857119862887
 30
0.0
 11
-75.99999999999997
 21
-605.1857119862884
 31
0.0
  0
CIRCLE
  5
F1
102
{ACAD_REACTORS
330
F2
102
}
330
2F
100
AcDbEntity
  8
0
  6
Continuous
 62
     0
370
    -2
390
1D
100
AcDbCircle
 10
-76.0
 20
-430.1857119862887
 30
0.0
 40
1.9998779296875
  0
HATCH
  5
F2
330
2F
100
AcDbEntity
  8
0
  6
Continuous
 62
     0
370
    -2
390
1D
100
AcDbHatch
 10
0.0
 20
0.0
 30
0.0
210
0.0
220
0.0
230
1.0
  2
SOLID
 70
     1
 71
     1
 91
        1
 92
        1
 93
        1
 72
     2
 10
-76.0
 20
-430.1857119862887
 40
1.9998779296875
 50
0.0
 51
360.0
 73
     0
 97
        1
330
F1
 75
     0
 76
     1
 98
        1
 10
0.0
 20
0.0
  0
CIRCLE
  5
F3
102
{ACAD_REACTORS
330
F4
102
}
330
2F
100
AcDbEntity
  8
0
  6
Continuous
 62
     0
370
    -2
390
1D
100
AcDbCircle
 10
-75.99999999999997
 20
-605.1857119862884
 30
0.0
 40
1.9998779296875
  0
HATCH
  5
F4
330
2F
100
AcDbEntity
  8
0
  6
Continuous
 62
     0
370
    -2
390
1D
100
AcDbHatch
 10
0.0
 20
0.0
 30
0.0
210
0.0
220
0.0
230
1.0
  2
SOLID
 70
     1
 71
     1
 91
        1
 92
        1
 93
        1
 72
     2
 10
-75.99999999999997
 20
-605.1857119862884
 40
1.9998779296875
 50
0.0
 51
360.0
 73
     0
 97
        1
330
F3
 75
     0
 76
     1
 98
        1
 10
0.0
 20
0.0
  0
MTEXT
  5
F5
330
2F
100
AcDbEntity
  8
0
 62
     0
390
1D
100
AcDbMText
 10
-109.8776171875
 20
-541.498213668464
 30
0.0
 40
24.4326171875
 41
0.0
 46
0.0
 71
     1
 72
     1
  1
175
  7
ＭＳ ゴシック
 11
0.0
 21
1.0
 31
0.0
 73
     1
 44
0.7828267384257843
  0
POINT
  5
F6
330
2F
100
AcDbEntity
  8
Defpoints
 62
     0
370
     0
390
1D
100
AcDbPoint
 10
-383.0477773269151
 20
-605.1857119862884
 30
0.0
  0
POINT
  5
F7
330
2F
100
AcDbEntity
  8
Defpoints
 62
     0
370
     0
390
1D
100
AcDbPoint
 10
-216.8190438298242
 20
-430.1857119862887
 30
0.0
  0
POINT
  5
F8
330
2F
100
AcDbEntity
  8
Defpoints
 62
     0
370
     0
390
1D
100
AcDbPoint
 10
-76.0
 20
-430.1857119862887
 30
0.0
  0
ENDBLK
  5
F9
330
2F
100
AcDbEntity
  8
notes
390
1D
100
AcDbBlockEnd
  0
BLOCK
  5
FA
330
30
100
AcDbEntity
  8
notes
390
1D
100
AcDbBlockBegin
  2
*D15
 70
     1
 10
0.0
 20
0.0
 30
0.0
  3
*D15
  1
*D15
  0
LINE
  5
FB
330
30
100
AcDbEntity
  8
0
  6
Continuous
 62
     0
370
    -2
390
1D
100
AcDbLine
 10
335.0758095682925
 20
-445.1857119862887
 30
0.0
 11
282.53125
 21
-445.1857119862887
 31
0.0
  0
LINE
  5
FC
330
30
100
AcDbEntity
  8
0
  6
Continuous
 62
     0
370
    -2
390
1D
100
AcDbLine
 10
335.0758095682925
 20
-475.1857119862887
 30
0.0
 11
282.53125
 21
-475.1857119862887
 31
0.0
  0
LINE
  5
FD
330
30
100
AcDbEntity
  8
0
  6
Continuous
 62
     0
370
    -2
390
1D
100
AcDbLine
 10
282.53125
 20
-445.1857119862887
 30
0.0
 11
282.53125
 21
-475.1857119862887
 31
0.0
  0
CIRCLE
  5
FE
102
{ACAD_REACTORS
330
FF
102
}
330
30
100
AcDbEntity
  8
0
  6
Continuous
 62
     0
370
    -2
390
1D
100
AcDbCircle
 10
282.53125
 20
-445.1857119862887
 30
0.0
 40
1.9998779296875
  0
HATCH
  5
FF
330
30
100
AcDbEntity
  8
0
  6
Continuous
 62
     0
370
    -2
390
1D
100
AcDbHatch
 10
0.0
 20
0.0
 30
0.0
210
0.0
220
0.0
230
1.0
  2
SOLID
 70
     1
 71
     1
 91
        1
 92
        1
 93
        1
 72
     2
 10
282.53125
 20
-445.1857119862887
 40
1.9998779296875
 50
0.0
 51
360.0
 73
     0
 97
        1
330
FE
 75
     0
 76
     1
 98
        1
 10
0.0
 20
0.0
  0
CIRCLE
  5
100
102
{ACAD_REACTORS
330
101
102
}
330
30
100
AcDbEntity
  8
0
  6
Continuous
 62
     0
370
    -2
390
1D
100
AcDbCircle
 10
282.53125
 20
-475.1857119862887
 30
0.0
 40
1.9998779296875
  0
HATCH
  5
101
330
30
100
AcDbEntity
  8
0
  6
Continuous
 62
     0
370
    -2
390
1D
100
AcDbHatch
 10
0.0
 20
0.0
 30
0.0
210
0.0
220
0.0
230
1.0
  2
SOLID
 70
     1
 71
     1
 91
        1
 92
        1
 93
        1
 72
     2
 10
282.53125
 20
-475.1857119862887
 40
1.9998779296875
 50
0.0
 51
360.0
 73
     0
 97
        1
330
100
 75
     0
 76
     1
 98
        1
 10
0.0
 20
0.0
  0
MTEXT
  5
102
330
30
100
AcDbEntity
  8
0
 62
     0
390
1D
100
AcDbMText
 10
248.6536328125
 20
-476.0607119862887
 30
0.0
 40
24.4326171875
 41
0.0
 46
0.0
 71
     1
 72
     1
  1
30
  7
ＭＳ ゴシック
 11
0.0
 21
1.0
 31
0.0
 73
     1
 44
0.7828267384257843
  0
POINT
  5
103
330
30
100
AcDbEntity
  8
Defpoints
 62
     0
370
     0
390
1D
100
AcDbPoint
 10
360.0758095682925
 20
-475.1857119862887
 30
0.0
  0
POINT
  5
104
330
30
100
AcDbEntity
  8
Defpoints
 62
     0
370
     0
390
1D
100
AcDbPoint
 10
360.0758095682925
 20
-445.1857119862887
 30
0.0
  0
POINT
  5
105
330
30
100
AcDbEntity
  8
Defpoints
 62
     0
370
     0
390
1D
100
AcDbPoint
 10
282.53125
 20
-445.1857119862887
 30
0.0
  0
ENDBLK
  5
106
330
30
100
AcDbEntity
  8
notes
390
1D
100
AcDbBlockEnd
  0
BLOCK
  5
107
330
31
100
AcDbEntity
  8
notes
390
1D
100
AcDbBlockBegin
  2
*D16
 70
     1
 10
0.0
 20
0.0
 30
0.0
  3
*D16
  1
*D16
  0
LINE
  5
108
330
31
100
AcDbEntity
  8
0
  6
Continuous
 62
     0
370
    -2
390
1D
100
AcDbLine
 10
335.0758095682925
 20
-475.1857119862887
 30
0.0
 11
282.53125
 21
-475.1857119862887
 31
0.0
  0
LINE
  5
109
330
31
100
AcDbEntity
  8
0
  6
Continuous
 62
     0
370
    -2
390
1D
100
AcDbLine
 10
446.4344281948663
 20
-570.1857119862887
 30
0.0
 11
282.53125
 21
-570.1857119862887
 31
0.0
  0
LINE
  5
10A
330
31
100
AcDbEntity
  8
0
  6
Continuous
 62
     0
370
    -2
390
1D
100
AcDbLine
 10
282.53125
 20
-475.1857119862887
 30
0.0
 11
282.53125
 21
-570.1857119862887
 31
0.0
  0
CIRCLE
  5
10B
102
{ACAD_REACTORS
330
10C
102
}
330
31
100
AcDbEntity
  8
0
  6
Continuous
 62
     0
370
    -2
390
1D
100
AcDbCircle
 10
282.53125
 20
-475.1857119862887
 30
0.0
 40
1.9998779296875
  0
HATCH
  5
10C
330
31
100
AcDbEntity
  8
0
  6
Continuous
 62
     0
370
    -2
390
1D
100
AcDbHatch
 10
0.0
 20
0.0
 30
0.0
210
0.0
220
0.0
230
1.0
  2
SOLID
 70
     1
 71
     1
 91
        1
 92
        1
 93
        1
 72
     2
 10
282.53125
 20
-475.1857119862887
 40
1.9998779296875
 50
0.0
 51
360.0
 73
     0
 97
        1
330
10B
 75
     0
 76
     1
 98
        1
 10
0.0
 20
0.0
  0
CIRCLE
  5
10D
102
{ACAD_REACTORS
330
10E
102
}
330
31
100
AcDbEntity
  8
0
  6
Continuous
 62
     0
370
    -2
390
1D
100
AcDbCircle
 10
282.53125
 20
-570.1857119862887
 30
0.0
 40
1.9998779296875
  0
HATCH
  5
10E
330
31
100
AcDbEntity
  8
0
  6
Continuous
 62
     0
370
    -2
390
1D
100
AcDbHatch
 10
0.0
 20
0.0
 30
0.0
210
0.0
220
0.0
230
1.0
  2
SOLID
 70
     1
 71
     1
 91
        1
 92
        1
 93
        1
 72
     2
 10
282.53125
 20
-570.1857119862887
 40
1.9998779296875
 50
0.0
 51
360.0
 73
     0
 97
        1
330
10D
 75
     0
 76
     1
 98
        1
 10
0.0
 20
0.0
  0
MTEXT
  5
10F
330
31
100
AcDbEntity
  8
0
 62
     0
390
1D
100
AcDbMText
 10
248.6536328125
 20
-538.5607119862887
 30
0.0
 40
24.4326171875
 41
0.0
 46
0.0
 71
     1
 72
     1
  1
95
  7
ＭＳ ゴシック
 11
0.0
 21
1.0
 31
0.0
 73
     1
 44
0.7828267384257843
  0
POINT
  5
110
330
31
100
AcDbEntity
  8
Defpoints
 62
     0
370
     0
390
1D
100
AcDbPoint
 10
471.4344281948663
 20
-570.1857119862887
 30
0.0
  0
POINT
  5
111
330
31
100
AcDbEntity
  8
Defpoints
 62
     0
370
     0
390
1D
100
AcDbPoint
 10
360.0758095682925
 20
-475.1857119862887
 30
0.0
  0
POINT
  5
112
330
31
100
AcDbEntity
  8
Defpoints
 62
     0
370
     0
390
1D
100
AcDbPoint
 10
282.53125
 20
-475.1857119862887
 30
0.0
  0
ENDBLK
  5
113
330
31
100
AcDbEntity
  8
notes
390
1D
100
AcDbBlockEnd
  0
BLOCK
  5
114
330
32
100
AcDbEntity
  8
notes
390
1D
100
AcDbBlockBegin
  2
*D17
 70
     1
 10
0.0
 20
0.0
 30
0.0
  3
*D17
  1
*D17
  0
LINE
  5
115
330
32
100
AcDbEntity
  8
0
  6
Continuous
 62
     0
370
    -2
390
1D
100
AcDbLine
 10
456.4344281948663
 20
-570.1857119862887
 30
0.0
 11
282.53125
 21
-570.1857119862887
 31
0.0
  0
LINE
  5
116
330
32
100
AcDbEntity
  8
0
  6
Continuous
 62
     0
370
    -2
390
1D
100
AcDbLine
 10
480.5685210445702
 20
-605.1857119862887
 30
0.0
 11
282.53125
 21
-605.1857119862887
 31
0.0
  0
LINE
  5
117
330
32
100
AcDbEntity
  8
0
  6
Continuous
 62
     0
370
    -2
390
1D
100
AcDbLine
 10
282.53125
 20
-570.1857119862887
 30
0.0
 11
282.53125
 21
-605.1857119862887
 31
0.0
  0
CIRCLE
  5
118
102
{ACAD_REACTORS
330
119
102
}
330
32
100
AcDbEntity
  8
0
  6
Continuous
 62
     0
370
    -2
390
1D
100
AcDbCircle
 10
282.53125
 20
-570.1857119862887
 30
0.0
 40
1.9998779296875
  0
HATCH
  5
119
330
32
100
AcDbEntity
  8
0
  6
Continuous
 62
     0
370
    -2
390
1D
100
AcDbHatch
 10
0.0
 20
0.0
 30
0.0
210
0.0
220
0.0
230
1.0
  2
SOLID
 70
     1
 71
     1
 91
        1
 92
        1
 93
        1
 72
     2
 10
282.53125
 20
-570.1857119862887
 40
1.9998779296875
 50
0.0
 51
360.0
 73
     0
 97
        1
330
118
 75
     0
 76
     1
 98
        1
 10
0.0
 20
0.0
  0
CIRCLE
  5
11A
102
{ACAD_REACTORS
330
11B
102
}
330
32
100
AcDbEntity
  8
0
  6
Continuous
 62
     0
370
    -2
390
1D
100
AcDbCircle
 10
282.53125
 20
-605.1857119862887
 30
0.0
 40
1.9998779296875
  0
HATCH
  5
11B
330
32
100
AcDbEntity
  8
0
  6
Continuous
 62
     0
370
    -2
390
1D
100
AcDbHatch
 10
0.0
 20
0.0
 30
0.0
210
0.0
220
0.0
230
1.0
  2
SOLID
 70
     1
 71
     1
 91
        1
 92
        1
 93
        1
 72
     2
 10
282.53125
 20
-605.1857119862887
 40
1.9998779296875
 50
0.0
 51
360.0
 73
     0
 97
        1
330
11A
 75
     0
 76
     1
 98
        1
 10
0.0
 20
0.0
  0
MTEXT
  5
11C
330
32
100
AcDbEntity
  8
0
 62
     0
390
1D
100
AcDbMText
 10
248.6536328125
 20
-603.5607119862887
 30
0.0
 40
24.4326171875
 41
0.0
 46
0.0
 71
     1
 72
     1
  1
35
  7
ＭＳ ゴシック
 11
0.0
 21
1.0
 31
0.0
 73
     1
 44
0.7828267384257843
  0
POINT
  5
11D
330
32
100
AcDbEntity
  8
Defpoints
 62
     0
370
     0
390
1D
100
AcDbPoint
 10
505.5685210445702
 20
-605.1857119862887
 30
0.0
  0
POINT
  5
11E
330
32
100
AcDbEntity
  8
Defpoints
 62
     0
370
     0
390
1D
100
AcDbPoint
 10
481.4344281948663
 20
-570.1857119862887
 30
0.0
  0
POINT
  5
11F
330
32
100
AcDbEntity
  8
Defpoints
 62
     0
370
     0
390
1D
100
AcDbPoint
 10
282.53125
 20
-570.1857119862887
 30
0.0
  0
ENDBLK
  5
120
330
32
100
AcDbEntity
  8
notes
390
1D
100
AcDbBlockEnd
  0
BLOCK
  5
121
330
33
100
AcDbEntity
  8
notes
390
1D
100
AcDbBlockBegin
  2
*D18
 70
     1
 10
0.0
 20
0.0
 30
0.0
  3
*D18
  1
*D18
  0
LINE
  5
122
330
33
100
AcDbEntity
  8
0
  6
Continuous
 62
     0
370
    -2
390
1D
100
AcDbLine
 10
543.0758095682925
 20
-627.3714239725773
 30
0.0
 11
543.0758095682925
 21
-719.1857119862887
 31
0.0
  0
LINE
  5
123
330
33
100
AcDbEntity
  8
0
  6
Continuous
 62
     0
370
    -2
390
1D
100
AcDbLine
 10
733.0758095682925
 20
-597.3714239725773
 30
0.0
 11
733.0758095682925
 21
-719.1857119862887
 31
0.0
  0
LINE
  5
124
330
33
100
AcDbEntity
  8
0
  6
Continuous
 62
     0
370
    -2
390
1D
100
AcDbLine
 10
543.0758095682925
 20
-719.1857119862887
 30
0.0
 11
733.0758095682925
 21
-719.1857119862887
 31
0.0
  0
CIRCLE
  5
125
102
{ACAD_REACTORS
330
126
102
}
330
33
100
AcDbEntity
  8
0
  6
Continuous
 62
     0
370
    -2
390
1D
100
AcDbCircle
 10
543.0758095682925
 20
-719.1857119862887
 30
0.0
 40
1.9998779296875
  0
HATCH
  5
126
330
33
100
AcDbEntity
  8
0
  6
Continuous
 62
     0
370
    -2
390
1D
100
AcDbHatch
 10
0.0
 20
0.0
 30
0.0
210
0.0
220
0.0
230
1.0
  2
SOLID
 70
     1
 71
     1
 91
        1
 92
        1
 93
        1
 72
     2
 10
543.0758095682925
 20
-719.1857119862887
 40
1.9998779296875
 50
0.0
 51
360.0
 73
     0
 97
        1
330
125
 75
     0
 76
     1
 98
        1
 10
0.0
 20
0.0
  0
CIRCLE
  5
127
102
{ACAD_REACTORS
330
128
102
}
330
33
100
AcDbEntity
  8
0
  6
Continuous
 62
     0
370
    -2
390
1D
100
AcDbCircle
 10
733.0758095682925
 20
-719.1857119862887
 30
0.0
 40
1.9998779296875
  0
HATCH
  5
128
330
33
100
AcDbEntity
  8
0
  6
Continuous
 62
     0
370
    -2
390
1D
100
AcDbHatch
 10
0.0
 20
0.0
 30
0.0
210
0.0
220
0.0
230
1.0
  2
SOLID
 70
     1
 71
     1
 91
        1
 92
        1
 93
        1
 72
     2
 10
733.0758095682925
 20
-719.1857119862887
 40
1.9998779296875
 50
0.0
 51
360.0
 73
     0
 97
        1
330
127
 75
     0
 76
     1
 98
        1
 10
0.0
 20
0.0
  0
MTEXT
  5
129
330
33
100
AcDbEntity
  8
0
 62
     0
390
1D
100
AcDbMText
 10
614.263307886117
 20
-685.3080947987886
 30
0.0
 40
24.4326171875
 41
0.0
 46
0.0
 71
     1
 72
     1
  1
190
  7
ＭＳ ゴシック
 73
     1
 44
0.7828267384257843
  0
POINT
  5
12A
330
33
100
AcDbEntity
  8
Defpoints
 62
     0
370
     0
390
1D
100
AcDbPoint
 10
733.0758095682925
 20
-572.3714239725773
 30
0.0
  0
POINT
  5
12B
330
33
100
AcDbEntity
  8
Defpoints
 62
     0
370
     0
390
1D
100
AcDbPoint
 10
543.0758095682925
 20
-602.3714239725773
 30
0.0
  0
POINT
  5
12C
330
33
100
AcDbEntity
  8
Defpoints
 62
     0
370
     0
390
1D
100
AcDbPoint
 10
543.0758095682925
 20
-719.1857119862887
 30
0.0
  0
ENDBLK
  5
12D
330
33
100
AcDbEntity
  8
notes
390
1D
100
AcDbBlockEnd
  0
BLOCK
  5
12E
330
34
100
AcDbEntity
  8
notes
390
1D
100
AcDbBlockBegin
  2
*D19
 70
     1
 10
0.0
 20
0.0
 30
0.0
  3
*D19
  1
*D19
  0
LINE
  5
12F
330
34
100
AcDbEntity
  8
0
  6
Continuous
 62
     0
370
    -2
390
1D
100
AcDbLine
 10
-653.5508794947448
 20
-430.1857119862886
 30
0.0
 11
-705.0
 21
-430.1857119862886
 31
0.0
  0
LINE
  5
130
330
34
100
AcDbEntity
  8
0
  6
Continuous
 62
     0
370
    -2
390
1D
100
AcDbLine
 10
-586.6689829203992
 20
-515.1857119862887
 30
0.0
 11
-705.0
 21
-515.1857119862887
 31
0.0
  0
LINE
  5
131
330
34
100
AcDbEntity
  8
0
  6
Continuous
 62
     0
370
    -2
390
1D
100
AcDbLine
 10
-705.0
 20
-430.1857119862886
 30
0.0
 11
-705.0
 21
-515.1857119862887
 31
0.0
  0
CIRCLE
  5
132
102
{ACAD_REACTORS
330
133
102
}
330
34
100
AcDbEntity
  8
0
  6
Continuous
 62
     0
370
    -2
390
1D
100
AcDbCircle
 10
-705.0
 20
-430.1857119862886
 30
0.0
 40
1.9998779296875
  0
HATCH
  5
133
330
34
100
AcDbEntity
  8
0
  6
Continuous
 62
     0
370
    -2
390
1D
100
AcDbHatch
 10
0.0
 20
0.0
 30
0.0
210
0.0
220
0.0
230
1.0
  2
SOLID
 70
     1
 71
     1
 91
        1
 92
        1
 93
        1
 72
     2
 10
-705.0
 20
-430.1857119862886
 40
1.9998779296875
 50
0.0
 51
360.0
 73
     0
 97
        1
330
132
 75
     0
 76
     1
 98
        1
 10
0.0
 20
0.0
  0
CIRCLE
  5
134
102
{ACAD_REACTORS
330
135
102
}
330
34
100
AcDbEntity
  8
0
  6
Continuous
 62
     0
370
    -2
390
1D
100
AcDbCircle
 10
-705.0
 20
-515.1857119862887
 30
0.0
 40
1.9998779296875
  0
HATCH
  5
135
330
34
100
AcDbEntity
  8
0
  6
Continuous
 62
     0
370
    -2
390
1D
100
AcDbHatch
 10
0.0
 20
0.0
 30
0.0
210
0.0
220
0.0
230
1.0
  2
SOLID
 70
     1
 71
     1
 91
        1
 92
        1
 93
        1
 72
     2
 10
-705.0
 20
-515.1857119862887
 40
1.9998779296875
 50
0.0
 51
360.0
 73
     0
 97
        1
330
134
 75
     0
 76
     1
 98
        1
 10
0.0
 20
0.0
  0
MTEXT
  5
136
330
34
100
AcDbEntity
  8
0
 62
     0
390
1D
100
AcDbMText
 10
-738.8776171875
 20
-488.5607119862887
 30
0.0
 40
24.4326171875
 41
0.0
 46
0.0
 71
     1
 72
     1
  1
85
  7
ＭＳ ゴシック
 11
0.0
 21
1.0
 31
0.0
 73
     1
 44
0.7828267384257843
  0
POINT
  5
137
330
34
100
AcDbEntity
  8
Defpoints
 62
     0
370
     0
390
1D
100
AcDbPoint
 10
-561.6689829203992
 20
-515.1857119862887
 30
0.0
  0
POINT
  5
138
330
34
100
AcDbEntity
  8
Defpoints
 62
     0
370
     0
390
1D
100
AcDbPoint
 10
-628.5508794947448
 20
-430.1857119862886
 30
0.0
  0
POINT
  5
139
330
34
100
AcDbEntity
  8
Defpoints
 62
     0
370
     0
390
1D
100
AcDbPoint
 10
-705.0
 20
-430.1857119862886
 30
0.0
  0
ENDBLK
  5
13A
330
34
100
AcDbEntity
  8
notes
390
1D
100
AcDbBlockEnd
  0
BLOCK
  5
13B
330
35
100
AcDbEntity
  8
FAA70-2215
390
1D
100
AcDbBlockBegin
  2
*D20
 70
     1
 10
0.0
 20
0.0
 30
0.0
  3
*D20
  1
*D20
  0
LINE
  5
13C
330
35
100
AcDbEntity
  8
0
  6
Continuous
 62
     0
370
    -2
390
1D
100
AcDbLine
 10
353.0758095682925
 20
-495.1857119862887
 30
0.0
 11
353.0758095682925
 21
-827.0
 31
0.0
  0
LINE
  5
13D
330
35
100
AcDbEntity
  8
0
  6
Continuous
 62
     0
370
    -2
390
1D
100
AcDbLine
 10
733.0758095682925
 20
-600.1857119862887
 30
0.0
 11
733.0758095682925
 21
-827.0
 31
0.0
  0
LINE
  5
13E
330
35
100
AcDbEntity
  8
0
  6
Continuous
 62
     0
370
    -2
390
1D
100
AcDbLine
 10
353.0758095682925
 20
-827.0
 30
0.0
 11
733.0758095682925
 21
-827.0
 31
0.0
  0
CIRCLE
  5
13F
102
{ACAD_REACTORS
330
140
102
}
330
35
100
AcDbEntity
  8
0
  6
Continuous
 62
     0
370
    -2
390
1D
100
AcDbCircle
 10
353.0758095682925
 20
-827.0
 30
0.0
 40
1.9998779296875
  0
HATCH
  5
140
330
35
100
AcDbEntity
  8
0
  6
Continuous
 62
     0
370
    -2
390
1D
100
AcDbHatch
 10
0.0
 20
0.0
 30
0.0
210
0.0
220
0.0
230
1.0
  2
SOLID
 70
     1
 71
     1
 91
        1
 92
        1
 93
        1
 72
     2
 10
353.0758095682925
 20
-827.0
 40
1.9998779296875
 50
0.0
 51
360.0
 73
     0
 97
        1
330
13F
 75
     0
 76
     1
 98
        1
 10
0.0
 20
0.0
  0
CIRCLE
  5
141
102
{ACAD_REACTORS
330
142
102
}
330
35
100
AcDbEntity
  8
0
  6
Continuous
 62
     0
370
    -2
390
1D
100
AcDbCircle
 10
733.0758095682925
 20
-827.0
 30
0.0
 40
1.9998779296875
  0
HATCH
  5
142
330
35
100
AcDbEntity
  8
0
  6
Continuous
 62
     0
370
    -2
390
1D
100
AcDbHatch
 10
0.0
 20
0.0
 30
0.0
210
0.0
220
0.0
230
1.0
  2
SOLID
 70
     1
 71
     1
 91
        1
 92
        1
 93
        1
 72
     2
 10
733.0758095682925
 20
-827.0
 40
1.9998779296875
 50
0.0
 51
360.0
 73
     0
 97
        1
330
141
 75
     0
 76
     1
 98
        1
 10
0.0
 20
0.0
  0
MTEXT
  5
143
330
35
100
AcDbEntity
  8
0
 62
     0
390
1D
100
AcDbMText
 10
519.263307886117
 20
-793.1223828125
 30
0.0
 40
24.4326171875
 41
0.0
 46
0.0
 71
     1
 72
     1
  1
380
  7
ＭＳ ゴシック
 73
     1
 44
0.7828267384257843
  0
POINT
  5
144
330
35
100
AcDbEntity
  8
Defpoints
 62
     0
370
     0
390
1D
100
AcDbPoint
 10
733.0758095682925
 20
-575.1857119862887
 30
0.0
  0
POINT
  5
145
330
35
100
AcDbEntity
  8
Defpoints
 62
     0
370
     0
390
1D
100
AcDbPoint
 10
353.0758095682925
 20
-470.1857119862887
 30
0.0
  0
POINT
  5
146
330
35
100
AcDbEntity
  8
Defpoints
 62
     0
370
     0
390
1D
100
AcDbPoint
 10
353.0758095682925
 20
-827.0
 30
0.0
  0
ENDBLK
  5
147
330
35
100
AcDbEntity
  8
FAA70-2215
390
1D
100
AcDbBlockEnd
  0
BLOCK
  5
148
330
36
100
AcDbEntity
  8
FAA70-2215
390
1D
100
AcDbBlockBegin
  2
*D21
 70
     1
 10
0.0
 20
0.0
 30
0.0
  3
*D21
  1
*D21
  0
LINE
  5
149
330
36
100
AcDbEntity
  8
0
  6
Continuous
 62
     0
370
    -2
390
1D
100
AcDbLine
 10
-445.3656390808266
 20
616.7065845426725
 30
0.0
 11
-556.9676218971315
 21
728.3085673589775
 31
0.0
  0
LINE
  5
14A
330
36
100
AcDbEntity
  8
0
  6
Continuous
 62
     0
370
    -2
390
1D
100
AcDbLine
 10
-445.3656390808267
 20
814.6964832749059
 30
0.0
 11
-457.9726725310148
 21
827.303516725094
 31
0.0
  0
LINE
  5
14B
330
36
100
AcDbEntity
  8
0
  6
Continuous
 62
     0
370
    -2
390
1D
100
AcDbLine
 10
-556.9676218971315
 20
728.3085673589775
 30
0.0
 11
-457.9726725310148
 21
827.303516725094
 31
0.0
  0
CIRCLE
  5
14C
102
{ACAD_REACTORS
330
14D
102
}
330
36
100
AcDbEntity
  8
0
  6
Continuous
 62
     0
370
    -2
390
1D
100
AcDbCircle
 10
-556.9676218971315
 20
728.3085673589775
 30
0.0
 40
1.9998779296875
  0
HATCH
  5
14D
330
36
100
AcDbEntity
  8
0
  6
Continuous
 62
     0
370
    -2
390
1D
100
AcDbHatch
 10
0.0
 20
0.0
 30
0.0
210
0.0
220
0.0
230
1.0
  2
SOLID
 70
     1
 71
     1
 91
        1
 92
        1
 93
        1
 72
     2
 10
-556.9676218971315
 20
728.3085673589775
 40
1.9998779296875
 50
0.0
 51
360.0
 73
     0
 97
        1
330
14C
 75
     0
 76
     1
 98
        1
 10
0.0
 20
0.0
  0
CIRCLE
  5
14E
102
{ACAD_REACTORS
330
14F
102
}
330
36
100
AcDbEntity
  8
0
  6
Continuous
 62
     0
370
    -2
390
1D
100
AcDbCircle
 10
-457.9726725310148
 20
827.303516725094
 30
0.0
 40
1.9998779296875
  0
HATCH
  5
14F
330
36
100
AcDbEntity
  8
0
  6
Continuous
 62
     0
370
    -2
390
1D
100
AcDbHatch
 10
0.0
 20
0.0
 30
0.0
210
0.0
220
0.0
230
1.0
  2
SOLID
 70
     1
 71
     1
 91
        1
 92
        1
 93
        1
 72
     2
 10
-457.9726725310148
 20
827.303516725094
 40
1.9998779296875
 50
0.0
 51
360.0
 73
     0
 97
        1
330
14E
 75
     0
 76
     1
 98
        1
 10
0.0
 20
0.0
  0
MTEXT
  5
150
330
36
100
AcDbEntity
  8
0
 62
     0
390
1D
100
AcDbMText
 10
-548.2632214742788
 20
784.9231534692766
 30
0.0
 40
24.4326171875
 41
0.0
 46
0.0
 71
     1
 72
     1
  1
140
  7
ＭＳ ゴシック
 11
0.7071067811865476
 21
0.7071067811865475
 31
0.0
 73
     1
 44
0.7828267384257843
  0
POINT
  5
151
330
36
100
AcDbEntity
  8
Defpoints
 62
     0
370
     0
390
1D
100
AcDbPoint
 10
-427.687969551163
 20
797.0188137452421
 30
0.0
  0
POINT
  5
152
330
36
100
AcDbEntity
  8
Defpoints
 62
     0
370
     0
390
1D
100
AcDbPoint
 10
-427.6879695511628
 20
599.0289150130088
 30
0.0
  0
POINT
  5
153
330
36
100
AcDbEntity
  8
Defpoints
 62
     0
370
     0
390
1D
100
AcDbPoint
 10
-556.9676218971315
 20
728.3085673589775
 30
0.0
  0
ENDBLK
  5
154
330
36
100
AcDbEntity
  8
FAA70-2215
390
1D
100
AcDbBlockEnd
  0
ENDSEC
  0
SECTION
  2
ENTITIES
  0
MTEXT
  5
155
330
A
100
AcDbEntity
  8
template
 62
     7
390
1D
100
AcDbMText
 10
-967.9999999997592
 20
-1147.4176292337
 30
0.0
 40
16.28841145833333
 41
0.0
 46
0.0
 71
     1
 72
     1
  1
品名
  7
ＭＳ ゴシック
 73
     1
 44
0.7828267384257843
  0
MTEXT
  5
156
330
A
100
AcDbEntity
  8
template
 62
     7
390
1D
100
AcDbMText
 10
-967.9999999997592
 20
-1232.4176292337
 30
0.0
 40
16.28841145833333
 41
0.0
 46
0.0
 71
     1
 72
     1
  1
仕様
  7
ＭＳ ゴシック
 73
     1
 44
0.7828267384257843
  0
LINE
  5
157
330
A
100
AcDbEntity
  8
template
  6
Continuous
 62
     7
370
     5
390
1D
100
AcDbLine
 10
974.9999999997588
 20
-1224.0027073587
 30
0.0
 11
-975.0000000002412
 21
-1224.0027073587
 31
0.0
  0
LWPOLYLINE
  5
158
330
A
100
AcDbEntity
  8
template
  6
Continuous
 62
     7
370
     5
390
1D
100
AcDbPolyline
 90
        5
 70
   128
 43
0.0
 10
975.0000000002412
 20
1405.9972926413
 10
-974.9999999997592
 20
1405.9972926413
 10
-974.9999999997592
 20
-1394.0027073587
 10
975.0000000002412
 20
-1394.0027073587
 10
975.0000000002412
 20
1405.9972926413
  0
LINE
  5
159
330
A
100
AcDbEntity
  8
template
  6
Continuous
 62
     7
370
     5
390
1D
100
AcDbLine
 10
974.9999999997588
 20
-1139.0027073587
 30
0.0
 11
-975.0000000002412
 21
-1139.0027073587
 31
0.0
  0
LINE
  5
15A
330
A
100
AcDbEntity
  8
template
  6
Continuous
 62
     7
370
     5
390
1D
100
AcDbLine
 10
975.0000000002412
 20
-1309.0027073587
 30
0.0
 11
222.0000000002412
 21
-1309.0027073587
 31
0.0
  0
MTEXT
  5
15B
330
A
100
AcDbEntity
  8
template
 62
     7
390
1D
100
AcDbMText
 10
251.8714062525009
 20
-1338.913101832008
 30
0.0
 40
24.4326171875
 41
0.0
 46
0.0
 71
     1
 72
     1
  1
大洋金物株式会社 ティーフォルム事業部
  7
ＭＳ ゴシック
 73
     1
 44
0.7828267384257843
  0
INSERT
  5
15C
330
A
100
AcDbEntity
  8
template
 62
     7
390
1D
100
AcDbBlockReference
  2
グループ
 10
-0.000000000000199
 20
9.999999999999986
 30
0.0
  0
MTEXT
  5
15D
330
A
100
AcDbEntity
  8
template
 62
     7
390
1D
100
AcDbMText
 10
784.0000000005
 20
-1261.000090171201
 30
0.0
 40
24.4326171875
 41
0.0
 46
0.0
 71
     1
 72
     1
  1
1:10
  7
ＭＳ ゴシック
 73
     1
 44
0.7828267384257843
  0
MTEXT
  5
15E
330
A
100
AcDbEntity
  8
template
 62
     7
390
1D
100
AcDbMText
 10
731.0000000005
 20
-1232.4176292337
 30
0.0
 40
16.28841145833333
 41
0.0
 46
0.0
 71
     1
 72
     1
  1
縮尺
  7
ＭＳ ゴシック
 73
     1
 44
0.7828267384257843
  0
LINE
  5
15F
330
A
100
AcDbEntity
  8
template
  6
Continuous
 62
     7
370
     5
390
1D
100
AcDbLine
 10
724.0000000005
 20
-1309.0027073587
 30
0.0
 11
724.0000000005
 21
-1224.0027073587
 31
0.0
  0
MTEXT
  5
160
330
A
100
AcDbEntity
  8
template
 62
     7
390
1D
100
AcDbMText
 10
480.0000000005
 20
-1232.4176292337
 30
0.0
 40
16.28841145833333
 41
0.0
 46
0.0
 71
     1
 72
     1
  1
容量
  7
ＭＳ ゴシック
 73
     1
 44
0.7828267384257843
  0
MTEXT
  5
161
330
A
100
AcDbEntity
  8
template
 62
     7
390
1D
100
AcDbMText
 10
533.0000000005
 20
-1261.000090171201
 30
0.0
 40
24.4326171875
 41
0.0
 46
0.0
 71
     1
 72
     1
  1
1.2L
  7
ＭＳ ゴシック
 73
     1
 44
0.7828267384257843
  0
LINE
  5
162
330
A
100
AcDbEntity
  8
template
  6
Continuous
 62
     7
370
     5
390
1D
100
AcDbLine
 10
473.0000000005
 20
-1309.0027073587
 30
0.0
 11
473.0000000005
 21
-1224.0027073587
 31
0.0
  0
MTEXT
  5
163
330
A
100
AcDbEntity
  8
template
 62
     7
390
1D
100
AcDbMText
 10
229.0000000005
 20
-1147.4176292337
 30
0.0
 40
16.28841145833333
 41
0.0
 46
0.0
 71
     1
 72
     1
  1
品番
  7
ＭＳ ゴシック
 73
     1
 44
0.7828267384257843
  0
MTEXT
  5
164
330
A
100
AcDbEntity
  8
template
 62
     7
390
1D
100
AcDbMText
 10
229.0000000005
 20
-1232.4176292337
 30
0.0
 40
16.28841145833333
 41
0.0
 46
0.0
 71
     1
 72
     1
  1
重量
  7
ＭＳ ゴシック
 73
     1
 44
0.7828267384257843
  0
MTEXT
  5
165
330
A
100
AcDbEntity
  8
template
 62
     7
390
1D
100
AcDbMText
 10
282.0000000005
 20
-1176.000090171201
 30
0.0
 40
24.4326171875
 41
0.0
 46
0.0
 71
     1
 72
     1
  1
FAA70-2215
  7
ＭＳ ゴシック
 73
     1
 44
0.7828267384257843
  0
MTEXT
  5
166
330
A
100
AcDbEntity
  8
template
 62
     7
390
1D
100
AcDbMText
 10
282.0000000005
 20
-1261.000090171201
 30
0.0
 40
24.4326171875
 41
0.0
 46
0.0
 71
     1
 72
     1
  1
6.5kg
  7
ＭＳ ゴシック
 73
     1
 44
0.7828267384257843
  0
LINE
  5
167
330
A
100
AcDbEntity
  8
template
  6
Continuous
 62
     7
370
     5
390
1D
100
AcDbLine
 10
222.0000000005
 20
-1394.0027073587
 30
0.0
 11
222.0000000005
 21
-1139.0027073587
 31
0.0
  0
MTEXT
  5
168
330
A
100
AcDbEntity
  8
template
 62
     7
390
1D
100
AcDbMText
 10
-914.9999999997593
 20
-1261.000090171201
 30
0.0
 40
24.4326171875
 41
0.0
 46
0.0
 71
     1
 72
     1
  1
コーナー専用,壁掛け/オーバーフロー付き/バックハンガー付属/\P陶器/ホワイト
  7
ＭＳ ゴシック
 73
     1
 44
1.130749733281688
  0
MTEXT
  5
169
330
A
100
AcDbEntity
  8
template
 62
     7
390
1D
100
AcDbMText
 10
-974.999999999556
 20
-1405.856529415557
 30
0.0
 40
21.71788194444445
 41
0.0
 46
0.0
 71
     1
 72
     1
  1
100709SH
  7
ＭＳ ゴシック
 73
     1
 44
0.7828267384257843
  0
MTEXT
  5
16A
330
A
100
AcDbEntity
  8
template
 62
     7
390
1D
100
AcDbMText
 10
-914.9999999997591
 20
-1176.000090171201
 30
0.0
 40
24.4326171875
 41
0.0
 46
0.0
 71
     1
 72
     1
  1
手洗器 -DURAVIT,Philippe Starck E3-
  7
ＭＳ ゴシック
 73
     1
 44
0.7828267384257843
  0
MTEXT
  5
16B
330
A
100
AcDbEntity
  8
notes
 62
     7
390
1D
100
AcDbMText
 10
-222.029786114432
 20
-344.8368934006054
 30
0.0
 40
24.4326171875
 41
0.0
 46
0.0
 71
     1
 72
     1
  1
バックハンガー位置(2ヶ所)
  7
ＭＳ ゴシック
 73
     1
 44
0.7828267384257843
  0
DIMENSION
  5
16C
330
A
100
AcDbEntity
  8
notes
  6
Continuous
 62
     7
370
     5
390
1D
100
AcDbDimension
  2
*D3
 10
-367.2131994239544
 20
843.2131994239545
 30
0.0
 11
-296.5025213052996
 21
772.5025213052998
 31
0.0
 70
     1
 71
     5
 42
0.0
 73
     0
 74
     0
 75
     0
  3
tfrom線あり
100
AcDbAlignedDimension
 13
-286.1974889014709
 23
641.3861974718188
 33
0.0
 14
-427.6188451387804
 24
782.8075537091285
 34
0.0
1001
ACAD
1000
DSTYLE
1002
{
1070
   279
1070
     2
1070
   340
1005
37
1070
   147
1040
5.0
1002
}
  0
DIMENSION
  5
16D
330
A
100
AcDbEntity
  8
notes
  6
Continuous
 62
     7
370
     5
390
1D
100
AcDbDimension
  2
*D4
 10
-485.3345779029603
 20
854.6654220970395
 30
0.0
 11
-594.9361289868752
 21
745.0638710131246
 31
0.0
 70
     1
 71
     5
 42
0.0
 73
     0
 74
     0
 75
     0
  3
tfrom線あり
100
AcDbAlignedDimension
 13
-632.6798116828793
 23
563.6044515412989
 33
0.0
 14
-413.4767095150494
 24
782.8075537091286
 34
0.0
1001
ACAD
1000
DSTYLE
1002
{
1070
   279
1070
     2
1070
   340
1005
37
1070
   147
1040
5.0
1002
}
  0
DIMENSION
  5
16E
330
A
100
AcDbEntity
  8
notes
  6
Continuous
 62
     7
370
     5
390
1D
100
AcDbDimension
  2
*D5
 10
-635.6034781000881
 20
935.7364858972634
 30
0.0
 11
-420.5477773269147
 21
935.7364858972634
 31
0.0
 70
    32
 71
     5
 42
0.0
 73
     0
 74
     0
 75
     0
  3
tfrom線あり
100
AcDbAlignedDimension
 13
-205.4920765537414
 23
571.0
 33
0.0
 14
-635.6034781000881
 24
571.0
 34
0.0
100
AcDbRotatedDimension
1001
ACAD
1000
DSTYLE
1002
{
1070
   271
1070
     0
1070
   279
1070
     2
1070
   340
1005
37
1070
   147
1040
5.0
1002
}
  0
DIMENSION
  5
16F
330
A
100
AcDbEntity
  8
notes
  6
Continuous
 62
     7
370
     5
390
1D
100
AcDbDimension
  2
*D6
 10
-427.6556163102362
 20
679.5257971526886
 30
0.0
 11
-276.0
 21
885.7364858972634
 31
0.0
 70
     3
 71
     5
 42
0.0
 73
     0
 74
     0
 75
     0
  3
tfrom線あり
100
AcDbDiametricDimension
 15
-413.439938343594
 25
711.5088317170962
 35
0.0
 40
190.6625803134521
1001
ACAD
1000
DSTYLE
1002
{
1070
   289
1070
     0
1070
   342
1005
4A
1070
   340
1005
37
1070
    73
1070
     1
1070
    74
1070
     1
1070
    75
1070
     1
1070
    76
1070
     1
1070
     3
1000

1070
   174
1070
     0
1070
   147
1040
5.0
1002
}
  0
DIMENSION
  5
170
330
A
100
AcDbEntity
  8
notes
  6
Continuous
 62
     7
370
     5
390
1D
100
AcDbDimension
  2
*D7
 10
-104.8802090650179
 20
435.7323159175679
 30
0.0
 11
-104.8802090650179
 21
540.7323159175679
 31
0.0
 70
    32
 71
     5
 42
0.0
 73
     0
 74
     0
 75
     0
  3
tfrom線あり
100
AcDbAlignedDimension
 13
-274.9289137444335
 23
645.7323159175679
 33
0.0
 14
-333.9452369484717
 24
435.7323159175679
 34
0.0
 50
90.0
100
AcDbRotatedDimension
1001
ACAD
1000
DSTYLE
1002
{
1070
   279
1070
     2
1070
   340
1005
37
1070
   147
1040
5.0
1002
}
  0
DIMENSION
  5
171
330
A
100
AcDbEntity
  8
notes
  6
Continuous
 62
     7
370
     5
390
1D
100
AcDbDimension
  2
*D8
 10
-104.8802090650179
 20
785.736485897263
 30
0.0
 11
-104.8802090650179
 21
715.736485897263
 31
0.0
 70
    32
 71
     5
 42
0.0
 73
     0
 74
     0
 75
     0
  3
tfrom線あり
100
AcDbAlignedDimension
 13
-274.9289137444335
 23
645.736485897263
 33
0.0
 14
-420.5477773269151
 24
785.736485897263
 34
0.0
 50
90.0
100
AcDbRotatedDimension
1001
ACAD
1000
DSTYLE
1002
{
1070
   279
1070
     2
1070
   340
1005
37
1070
   147
1040
5.0
1002
}
  0
DIMENSION
  5
172
330
A
100
AcDbEntity
  8
notes
  6
Continuous
 62
     7
370
     5
390
1D
100
AcDbDimension
  2
*D9
 10
-54.88020906501785
 20
785.736485897263
 30
0.0
 11
-54.88020906501785
 21
595.7344009074156
 31
0.0
 70
    32
 71
     5
 42
0.0
 73
     0
 74
     0
 75
     0
  3
tfrom線あり
100
AcDbAlignedDimension
 13
-420.5477728173055
 23
405.7323159175683
 33
0.0
 14
-420.5477773269151
 24
785.736485897263
 34
0.0
 50
90.0
100
AcDbRotatedDimension
1001
ACAD
1000
DSTYLE
1002
{
1070
   279
1070
     2
1070
   340
1005
37
1070
   147
1040
5.0
1002
}
  0
DIMENSION
  5
173
330
A
100
AcDbEntity
  8
notes
  6
Continuous
 62
     7
370
     5
390
1D
100
AcDbDimension
  2
*D10
 10
733.0758095682925
 20
-343.375
 30
0.0
 11
695.875
 21
-338.375
 31
0.0
 70
   128
 71
     5
 42
0.0
 73
     0
 74
     0
 75
     0
  3
tfrom線あり
100
AcDbAlignedDimension
 13
643.0758095682925
 23
-445.1857119862887
 33
0.0
 14
733.0758095682925
 24
-430.1857119862887
 34
0.0
100
AcDbRotatedDimension
1001
ACAD
1000
DSTYLE
1002
{
1070
   279
1070
     2
1070
   340
1005
37
1070
   147
1040
5.0
1002
}
  0
DIMENSION
  5
174
330
A
100
AcDbEntity
  8
notes
  6
Continuous
 62
     7
370
     5
390
1D
100
AcDbDimension
  2
*D11
 10
282.53125
 20
-445.1857119862887
 30
0.0
 11
277.53125
 21
-412.0
 31
0.0
 70
   128
 71
     5
 42
0.0
 73
     0
 74
     0
 75
     0
  3
tfrom線あり
100
AcDbAlignedDimension
 13
360.0758095682925
 23
-430.1857119862887
 33
0.0
 14
360.0758095682925
 24
-445.1857119862887
 34
0.0
 50
90.0
100
AcDbRotatedDimension
1001
ACAD
1000
DSTYLE
1002
{
1070
   279
1070
     2
1070
   340
1005
37
1070
   174
1070
     0
1070
   147
1040
5.0
1002
}
  0
DIMENSION
  5
175
330
A
100
AcDbEntity
  8
notes
  6
Continuous
 62
     7
370
     5
390
1D
100
AcDbDimension
  2
*D12
 10
528.383122370248
 20
-445.1857119862887
 30
0.0
 11
528.383122370248
 21
-417.0
 31
0.0
 70
   128
 71
     5
 42
0.0
 73
     0
 74
     0
 75
     0
  3
tfrom線あり
100
AcDbAlignedDimension
 13
528.383122370248
 23
-555.1857119862887
 33
0.0
 14
528.383122370248
 24
-445.1857119862887
 34
0.0
 50
90.0
100
AcDbRotatedDimension
1001
ACAD
1000
DSTYLE
1002
{
1070
   279
1070
     2
1070
   340
1005
37
1070
     3
1000
<>(深さ)
1070
   174
1070
     0
1070
   147
1040
5.0
1002
}
  0
DIMENSION
  5
176
330
A
100
AcDbEntity
  8
notes
  6
Continuous
 62
     7
370
     5
390
1D
100
AcDbDimension
  2
*D13
 10
-583.0174530933931
 20
307.2323159175683
 30
0.0
 11
-420.517453093393
 21
307.2323159175683
 31
0.0
 70
    32
 71
     5
 42
0.0
 73
     0
 74
     0
 75
     0
  3
tfrom線あり
100
AcDbAlignedDimension
 13
-258.017453093393
 23
525.5883962426171
 33
0.0
 14
-583.0174530933931
 24
525.5806268502988
 34
0.0
100
AcDbRotatedDimension
1001
ACAD
1000
DSTYLE
1002
{
1070
   279
1070
     2
1070
   340
1005
37
1070
   147
1040
5.0
1002
}
  0
LINE
  5
177
330
A
100
AcDbEntity
  8
notes
  6
Continuous
 62
     7
370
     5
390
1D
100
AcDbLine
 10
-279.4265717334305
 20
-513.1720753658719
 30
0.0
 11
-208.0
 21
-378.0
 31
0.0
  0
DIMENSION
  5
178
330
A
100
AcDbEntity
  8
notes
  6
Continuous
 62
     7
370
     5
390
1D
100
AcDbDimension
  2
*D14
 10
-76.0
 20
-430.1857119862887
 30
0.0
 11
-76.0
 21
-517.6857119862885
 31
0.0
 70
    32
 71
     5
 42
0.0
 73
     0
 74
     0
 75
     0
  3
tfrom線あり
100
AcDbAlignedDimension
 13
-383.0477773269151
 23
-605.1857119862884
 33
0.0
 14
-216.8190438298242
 24
-430.1857119862887
 34
0.0
 50
90.0
100
AcDbRotatedDimension
1001
ACAD
1000
DSTYLE
1002
{
1070
   279
1070
     2
1070
   340
1005
37
1070
   147
1040
5.0
1002
}
  0
DIMENSION
  5
179
330
A
100
AcDbEntity
  8
notes
  6
Continuous
 62
     7
370
     5
390
1D
100
AcDbDimension
  2
*D15
 10
282.53125
 20
-445.1857119862887
 30
0.0
 11
282.53125
 21
-460.1857119862887
 31
0.0
 70
    32
 71
     5
 42
0.0
 73
     0
 74
     0
 75
     0
  3
tfrom線あり
100
AcDbAlignedDimension
 13
360.0758095682925
 23
-475.1857119862887
 33
0.0
 14
360.0758095682925
 24
-445.1857119862887
 34
0.0
 50
90.0
100
AcDbRotatedDimension
1001
ACAD
1000
DSTYLE
1002
{
1070
   279
1070
     2
1070
   340
1005
37
1070
   147
1040
5.0
1002
}
  0
DIMENSION
  5
17A
330
A
100
AcDbEntity
  8
notes
  6
Continuous
 62
     7
370
     5
390
1D
100
AcDbDimension
  2
*D16
 10
282.53125
 20
-475.1857119862887
 30
0.0
 11
282.53125
 21
-522.6857119862887
 31
0.0
 70
    32
 71
     5
 42
0.0
 73
     0
 74
     0
 75
     0
  3
tfrom線あり
100
AcDbAlignedDimension
 13
471.4344281948663
 23
-570.1857119862887
 33
0.0
 14
360.0758095682925
 24
-475.1857119862887
 34
0.0
 50
90.0
100
AcDbRotatedDimension
1001
ACAD
1000
DSTYLE
1002
{
1070
   279
1070
     2
1070
   340
1005
37
1070
   147
1040
5.0
1002
}
  0
DIMENSION
  5
17B
330
A
100
AcDbEntity
  8
notes
  6
Continuous
 62
     7
370
     5
390
1D
100
AcDbDimension
  2
*D17
 10
282.53125
 20
-570.1857119862887
 30
0.0
 11
282.53125
 21
-587.6857119862887
 31
0.0
 70
    32
 71
     5
 42
0.0
 73
     0
 74
     0
 75
     0
  3
tfrom線あり
100
AcDbAlignedDimension
 13
505.5685210445702
 23
-605.1857119862887
 33
0.0
 14
481.4344281948663
 24
-570.1857119862887
 34
0.0
 50
90.0
100
AcDbRotatedDimension
1001
ACAD
1000
DSTYLE
1002
{
1070
   279
1070
     2
1070
   340
1005
37
1070
   147
1040
5.0
1002
}
  0
DIMENSION
  5
17C
330
A
100
AcDbEntity
  8
notes
  6
Continuous
 62
     7
370
     5
390
1D
100
AcDbDimension
  2
*D18
 10
543.0758095682925
 20
-719.1857119862887
 30
0.0
 11
638.0758095682925
 21
-719.1857119862887
 31
0.0
 70
    32
 71
     5
 42
0.0
 73
     0
 74
     0
 75
     0
  3
tfrom線あり
100
AcDbAlignedDimension
 13
733.0758095682925
 23
-572.3714239725773
 33
0.0
 14
543.0758095682925
 24
-602.3714239725773
 34
0.0
100
AcDbRotatedDimension
1001
ACAD
1000
DSTYLE
1002
{
1070
   279
1070
     2
1070
   340
1005
37
1070
   147
1040
5.0
1002
}
  0
DIMENSION
  5
17D
330
A
100
AcDbEntity
  8
notes
  6
Continuous
 62
     7
370
     5
390
1D
100
AcDbDimension
  2
*D19
 10
-705.0
 20
-430.1857119862886
 30
0.0
 11
-705.0
 21
-472.6857119862887
 31
0.0
 70
    32
 71
     5
 42
0.0
 73
     0
 74
     0
 75
     0
  3
tfrom線あり
100
AcDbAlignedDimension
 13
-561.6689829203992
 23
-515.1857119862887
 33
0.0
 14
-628.5508794947448
 24
-430.1857119862886
 34
0.0
 50
90.0
100
AcDbRotatedDimension
1001
ACAD
1000
DSTYLE
1002
{
1070
   279
1070
     2
1070
   340
1005
37
1070
   147
1040
5.0
1002
}
  0
MTEXT
  5
17E
330
A
100
AcDbEntity
  8
notes
 62
     7
390
1D
100
AcDbMText
 10
-917.1281711068831
 20
452.5544070791735
 30
0.0
 40
24.4326171875
 41
0.0
 46
0.0
 71
     1
 72
     1
  1
バックハンガー位置(2ヶ所)
  7
ＭＳ ゴシック
 73
     1
 44
0.7828267384257843
  0
LINE
  5
17F
330
A
100
AcDbEntity
  8
notes
  6
Continuous
 62
     7
370
     5
390
1D
100
AcDbLine
 10
-561.6689829203992
 20
648.1571146398595
 30
0.0
 11
-689.0
 21
485.0
 31
0.0
  0
LINE
  5
180
330
A
100
AcDbEntity
  8
FAA70-2215
  6
Continuous
 62
     7
370
    15
390
1D
100
AcDbLine
 10
-607.0951226934404
 20
-470.1857119862886
 30
0.0
 11
-234.0004319603898
 21
-470.1857119862887
 31
0.0
  0
LINE
  5
181
330
A
100
AcDbEntity
  8
FAA70-2215
  6
STYLE_12
 62
     7
370
    15
390
1D
100
AcDbLine
 10
-610.0021421532673
 20
-445.1857119862886
 30
0.0
 11
-231.0934125005629
 21
-445.1857119862887
 31
0.0
  0
ARC
  5
182
330
A
100
AcDbEntity
  8
FAA70-2215
  6
Continuous
 62
     7
370
    15
390
1D
100
AcDbCircle
 10
-466.6436059226427
 20
-438.1428473784997
 30
0.0
 40
131.9063973366338
100
AcDbArc
 50
194.0590182409115
 51
234.243357318579
  0
LINE
  5
183
330
A
100
AcDbEntity
  8
FAA70-2215
  6
STYLE_12
 62
     7
370
    15
390
1D
100
AcDbLine
 10
-615.0021421532673
 20
-435.1857119862887
 30
0.0
 11
-615.0021421532673
 21
-440.1857119862886
 31
0.0
  0
ARC
  5
184
330
A
100
AcDbEntity
  8
FAA70-2215
  6
STYLE_12
 62
     7
370
    15
390
1D
100
AcDbCircle
 10
-610.0021421532673
 20
-440.1857119862886
 30
0.0
 40
5.0
100
AcDbArc
 50
180.0
 51
270.0
  0
ARC
  5
185
330
A
100
AcDbEntity
  8
FAA70-2215
  6
STYLE_12
 62
     7
370
    15
390
1D
100
AcDbCircle
 10
-620.0021421532673
 20
-435.1857119862887
 30
0.0
 40
5.0
100
AcDbArc
 50
0.0
 51
90.0
  0
LINE
  5
186
330
A
100
AcDbEntity
  8
FAA70-2215
  6
Continuous
 62
     7
370
    15
390
1D
100
AcDbLine
 10
-460.6926820375421
 20
-585.1857119862887
 30
0.0
 11
-380.4028726162882
 21
-585.1857119862887
 31
0.0
  0
ARC
  5
187
330
A
100
AcDbEntity
  8
FAA70-2215
  6
Continuous
 62
     7
370
    15
390
1D
100
AcDbCircle
 10
-374.4519487311876
 20
-438.1428473784997
 30
0.0
 40
131.9063973366339
100
AcDbArc
 50
305.7566426814209
 51
345.9409817590885
  0
LINE
  5
188
330
A
100
AcDbEntity
  8
FAA70-2215
  6
STYLE_12
 62
     7
370
    15
390
1D
100
AcDbLine
 10
-226.0934125005629
 20
-435.1857119862887
 30
0.0
 11
-226.0934125005629
 21
-440.1857119862886
 31
0.0
  0
ARC
  5
189
330
A
100
AcDbEntity
  8
FAA70-2215
  6
STYLE_12
 62
     7
370
    15
390
1D
100
AcDbCircle
 10
-231.0934125005629
 20
-440.1857119862886
 30
0.0
 40
5.0
100
AcDbArc
 50
270.0
 51
0.0
  0
ARC
  5
18A
330
A
100
AcDbEntity
  8
FAA70-2215
  6
STYLE_12
 62
     7
370
    15
390
1D
100
AcDbCircle
 10
-221.0934125005629
 20
-435.1857119862887
 30
0.0
 40
5.0
100
AcDbArc
 50
90.0
 51
180.0
  0
LWPOLYLINE
  5
18B
330
A
100
AcDbEntity
  8
FAA70-2215
  6
Continuous
 62
     7
370
    15
390
1D
100
AcDbPolyline
 90
       26
 70
   129
 43
0.0
 10
-240.8216997479046
 20
-475.6139913460306
 42
-0.3493364015729669
 10
-234.0004319603898
 20
-470.1857119862887
 10
-212.5446751590853
 20
-470.1857119862886
 42
0.4142135623731022
 10
-205.5446751590854
 20
-463.1857119862886
 10
-205.5446751590854
 20
-437.1857119862886
 42
0.414213562373095
 10
-212.5446751590854
 20
-430.1857119862886
 10
-221.0934125005629
 20
-430.1857119862887
 10
-620.0021421532673
 20
-430.1857119862887
 10
-628.5508794947448
 20
-430.1857119862886
 42
0.4142135623730927
 10
-635.5508794947448
 20
-437.1857119862886
 10
-635.550879494745
 20
-463.1857119862886
 42
0.4142135623731046
 10
-628.5508794947448
 20
-470.1857119862886
 10
-607.0951226934405
 20
-470.1857119862886
 42
-0.3493364015729706
 10
-600.2738549059258
 20
-475.6139913460303
 10
-585.4711351690412
 20
-539.8577969705652
 42
0.3452072747090823
 10
-578.6737730479418
 20
-545.1857119862884
 10
-543.72228517241
 20
-545.1857119862884
 42
0.1294618587026395
 10
-463.6566161702734
 20
-584.6112167749775
 42
-0.3567570576570894
 10
-458.0477773269151
 20
-591.4715863449244
 10
-458.0477773269151
 20
-605.1857119862887
 10
-383.0477773269151
 20
-605.1857119862884
 10
-383.0477773269151
 20
-591.4715863449243
 42
-0.3567570576571011
 10
-377.4389384835569
 20
-584.6112167749775
 42
0.1294618587026403
 10
-297.3732694814205
 20
-545.1857119862884
 10
-262.4217816058884
 20
-545.1857119862884
 42
0.34520727470904
 10
-255.6244194847892
 20
-539.8577969705657
  0
ARC
  5
18C
330
A
100
AcDbEntity
  8
FAA70-2215
  6
STYLE_12
 62
     7
370
    15
390
1D
100
AcDbCircle
 10
-596.6028627610388
 20
-450.2101092731944
 30
0.0
 40
5.024407657798323
100
AcDbArc
 50
358.2308999733294
 51
89.88358650263774
  0
ARC
  5
18D
330
A
100
AcDbEntity
  8
FAA70-2215
  6
STYLE_12
 62
     7
370
    15
390
1D
100
AcDbCircle
 10
-399.6588811503415
 20
-214.0406628767144
 30
0.0
 40
335.0324212727067
100
AcDbArc
 50
239.9086273444289
 51
261.2633870861915
  0
ARC
  5
18E
330
A
100
AcDbEntity
  8
FAA70-2215
  6
STYLE_12
 62
     7
370
    15
390
1D
100
AcDbCircle
 10
-544.0791993172994
 20
-467.3287163592751
 30
0.0
 40
43.51896654394003
100
AcDbArc
 50
209.9886076506485
 51
237.2253544227595
  0
ARC
  5
18F
330
A
100
AcDbEntity
  8
FAA70-2215
  6
STYLE_12
 62
     7
370
    15
390
1D
100
AcDbCircle
 10
-525.5732590736624
 20
-454.2107552578101
 30
0.0
 40
66.13787239299181
100
AcDbArc
 50
176.6827913179437
 51
211.8185687074464
  0
LINE
  5
190
330
A
100
AcDbEntity
  8
FAA70-2215
  6
STYLE_12
 62
     7
370
    15
390
1D
100
AcDbLine
 10
-446.5477773269154
 20
-550.4283526734075
 30
0.0
 11
-446.5477773269154
 21
-605.1857119862887
 31
0.0
  0
LINE
  5
191
330
A
100
AcDbEntity
  8
FAA70-2215
  6
STYLE_12
 62
     7
370
    15
390
1D
100
AcDbLine
 10
-450.5477773269154
 20
-545.1857119862887
 30
0.0
 11
-447.4264569833554
 21
-548.3070323298487
 31
0.0
  0
ARC
  5
192
330
A
100
AcDbEntity
  8
FAA70-2215
  6
STYLE_12
 62
     7
370
    15
390
1D
100
AcDbCircle
 10
-449.547777326915
 20
-550.4283526734077
 30
0.0
 40
2.999999999999716
100
AcDbArc
 50
0.0000000000043201
 51
44.99999999999153
  0
ARC
  5
193
330
A
100
AcDbEntity
  8
FAA70-2215
  6
STYLE_12
 62
     7
370
    15
390
1D
100
AcDbCircle
 10
-244.4926918927916
 20
-450.2101092731944
 30
0.0
 40
5.024407657798307
100
AcDbArc
 50
90.11641349736159
 51
181.7691000266706
  0
ARC
  5
194
330
A
100
AcDbEntity
  8
FAA70-2215
  6
STYLE_12
 62
     7
370
    15
390
1D
100
AcDbCircle
 10
-441.4366735034888
 20
-214.0406628767144
 30
0.0
 40
335.0324212727068
100
AcDbArc
 50
278.7366129138085
 51
300.0913726555711
  0
ARC
  5
195
330
A
100
AcDbEntity
  8
FAA70-2215
  6
STYLE_12
 62
     7
370
    15
390
1D
100
AcDbCircle
 10
-297.0163553365309
 20
-467.3287163592751
 30
0.0
 40
43.5189665439401
100
AcDbArc
 50
302.7746455772406
 51
330.0113923493515
  0
ARC
  5
196
330
A
100
AcDbEntity
  8
FAA70-2215
  6
STYLE_12
 62
     7
370
    15
390
1D
100
AcDbCircle
 10
-315.5222955801679
 20
-454.2107552578101
 30
0.0
 40
66.13787239299172
100
AcDbArc
 50
328.1814312925536
 51
3.317208682056275
  0
LINE
  5
197
330
A
100
AcDbEntity
  8
FAA70-2215
  6
STYLE_12
 62
     7
370
    15
390
1D
100
AcDbLine
 10
-394.5477773269149
 20
-550.4283526734075
 30
0.0
 11
-394.5477773269149
 21
-605.1857119862887
 31
0.0
  0
LINE
  5
198
330
A
100
AcDbEntity
  8
FAA70-2215
  6
STYLE_12
 62
     7
370
    15
390
1D
100
AcDbLine
 10
-390.5477773269149
 20
-545.1857119862887
 30
0.0
 11
-393.6690976704749
 21
-548.3070323298487
 31
0.0
  0
ARC
  5
199
330
A
100
AcDbEntity
  8
FAA70-2215
  6
STYLE_12
 62
     7
370
    15
390
1D
100
AcDbCircle
 10
-391.5477773269153
 20
-550.4283526734077
 30
0.0
 40
2.999999999999662
100
AcDbArc
 50
135.0000000000084
 51
179.9999999999957
  0
LINE
  5
19A
330
A
100
AcDbEntity
  8
FAA70-2215
  6
Continuous
 62
     7
370
    15
390
1D
100
AcDbLine
 10
733.0758095682925
 20
-430.1857119862887
 30
0.0
 11
733.0758095682925
 21
-575.1857119862887
 31
0.0
  0
LINE
  5
19B
330
A
100
AcDbEntity
  8
FAA70-2215
  6
Continuous
 62
     7
370
    15
390
1D
100
AcDbLine
 10
733.0758095682925
 20
-575.1857119862887
 30
0.0
 11
525.0758095682922
 21
-575.1857119862887
 31
0.0
  0
LINE
  5
19C
330
A
100
AcDbEntity
  8
FAA70-2215
  6
Continuous
 62
     7
370
    15
390
1D
100
AcDbLine
 10
353.0758095682925
 20
-452.1857119862887
 30
0.0
 11
353.0758095682925
 21
-470.1857119862887
 31
0.0
  0
LINE
  5
19D
330
A
100
AcDbEntity
  8
FAA70-2215
  6
Continuous
 62
     7
370
    15
390
1D
100
AcDbLine
 10
358.0758095682925
 20
-475.1857119862887
 30
0.0
 11
569.3396999122624
 21
-475.1857119862887
 31
0.0
  0
LINE
  5
19E
330
A
100
AcDbEntity
  8
FAA70-2215
  6
Continuous
 62
     7
370
    15
390
1D
100
AcDbLine
 10
733.0758095682925
 20
-430.1857119862887
 30
0.0
 11
509.0758095682922
 21
-430.1857119862887
 31
0.0
  0
ARC
  5
19F
330
A
100
AcDbEntity
  8
FAA70-2215
  6
Continuous
 62
     7
370
    15
390
1D
100
AcDbCircle
 10
509.040885374955
 20
-437.2177395508889
 30
0.0
 40
7.032089468591359
100
AcDbArc
 50
90.24041141260126
 51
174.8049415005522
  0
LINE
  5
1A0
330
A
100
AcDbEntity
  8
FAA70-2215
  6
Continuous
 62
     7
370
    15
390
1D
100
AcDbLine
 10
502.0376822421903
 20
-436.581007130238
 30
0.0
 11
501.5717173693531
 21
-441.9215699076986
 31
0.0
  0
ARC
  5
1A1
330
A
100
AcDbEntity
  8
FAA70-2215
  6
Continuous
 62
     7
370
    15
390
1D
100
AcDbCircle
 10
495.6682511914734
 20
-441.5961795237993
 30
0.0
 40
5.912426897248229
100
AcDbArc
 50
322.2725699054542
 51
356.8451330966932
  0
LINE
  5
1A2
330
A
100
AcDbEntity
  8
FAA70-2215
  6
Continuous
 62
     7
370
    15
390
1D
100
AcDbLine
 10
360.0758095682925
 20
-445.1857119862887
 30
0.0
 11
382.0665932568836
 21
-445.1857119862887
 31
0.0
  0
ARC
  5
1A3
330
A
100
AcDbEntity
  8
FAA70-2215
  6
STYLE_12
 62
     7
370
    15
390
1D
100
AcDbCircle
 10
377.6453243447723
 20
-449.908871363855
 30
0.0
 40
4.698346325110833
100
AcDbArc
 50
348.6672371083125
 51
87.77624487007483
  0
ARC
  5
1A4
330
A
100
AcDbEntity
  8
FAA70-2215
  6
STYLE_12
 62
     7
370
    15
390
1D
100
AcDbCircle
 10
636.6982664694929
 20
-586.7683865110953
 30
0.0
 40
84.55403586349448
100
AcDbArc
 50
134.4528867688651
 51
150.5418193224311
  0
ARC
  5
1A5
330
A
100
AcDbEntity
  8
FAA70-2215
  6
STYLE_12
 62
     7
370
    15
390
1D
100
AcDbCircle
 10
521.2687041233413
 20
-450.1054674574414
 30
0.0
 40
94.77696058965472
100
AcDbArc
 50
306.3789932418149
 51
331.8386584125129
  0
ARC
  5
1A6
330
A
100
AcDbEntity
  8
FAA70-2215
  6
STYLE_12
 62
     7
370
    15
390
1D
100
AcDbCircle
 10
483.1892841835476
 20
-449.8999339675923
 30
0.0
 40
129.67863114746
100
AcDbArc
 50
339.9595338642266
 51
359.9499125525554
  0
ARC
  5
1A7
330
A
100
AcDbEntity
  8
FAA70-2215
  6
Continuous
 62
     7
370
    15
390
1D
100
AcDbCircle
 10
618.004242004662
 20
-450.2557608739905
 30
0.0
 40
5.07247660004904
100
AcDbArc
 50
91.77273386201915
 51
176.9984486524391
  0
ARC
  5
1A8
330
A
100
AcDbEntity
  8
FAA70-2215
  6
STYLE_12
 62
     7
370
    15
390
1D
100
AcDbCircle
 10
705.3645376738109
 20
-434.5668097526464
 30
0.0
 40
4.387487238491409
100
AcDbArc
 50
93.09253701470611
 51
143.2720601637281
  0
ARC
  5
1A9
330
A
100
AcDbEntity
  8
FAA70-2215
  6
STYLE_12
 62
     7
370
    15
390
1D
100
AcDbCircle
 10
708.6253236649719
 20
-436.9629267011775
 30
0.0
 40
8.433923617656097
100
AcDbArc
 50
143.472826479463
 51
175.7140662314147
  0
ARC
  5
1AA
330
A
100
AcDbEntity
  8
FAA70-2215
  6
STYLE_12
 62
     7
370
    15
390
1D
100
AcDbCircle
 10
694.4103531559738
 20
-441.2864662311887
 30
0.0
 40
4.892585532333171
100
AcDbArc
 50
323.7204344540018
 51
355.4664582568525
  0
ARC
  5
1AB
330
A
100
AcDbEntity
  8
FAA70-2215
  6
STYLE_12
 62
     7
370
    15
390
1D
100
AcDbCircle
 10
696.2229150870317
 20
-442.510987868647
 30
0.0
 40
2.708174045415274
100
AcDbArc
 50
279.0145689918176
 51
321.9132675675547
  0
LINE
  5
1AC
330
A
100
AcDbEntity
  8
FAA70-2215
  6
STYLE_12
 62
     7
370
    15
390
1D
100
AcDbLine
 10
700.2149854227374
 20
-436.3326265824525
 30
0.0
 11
699.2876309226093
 21
-441.6731893599088
 31
0.0
  0
LINE
  5
1AD
330
A
100
AcDbEntity
  8
FAA70-2215
  6
Continuous
 62
     7
370
    15
390
1D
100
AcDbLine
 10
500.3445709971238
 20
-445.2140276259984
 30
0.0
 11
360.0758095682925
 21
-445.1857119862887
 31
0.0
  0
ARC
  5
1AE
330
A
100
AcDbEntity
  8
FAA70-2215
  6
Continuous
 62
     7
370
    15
390
1D
100
AcDbCircle
 10
618.0021445607699
 20
-450.2534809479553
 30
0.0
 40
5.070263112916218
100
AcDbArc
 50
88.20277860654876
 51
177.022936183927
  0
ARC
  5
1AF
330
A
100
AcDbEntity
  8
FAA70-2215
  6
Continuous
 62
     7
370
    15
390
1D
100
AcDbCircle
 10
360.0758095682925
 20
-452.1857119862887
 30
0.0
 40
7.0
100
AcDbArc
 50
90.0
 51
180.0
  0
ARC
  5
1B0
330
A
100
AcDbEntity
  8
FAA70-2215
  6
Continuous
 62
     7
370
    15
390
1D
100
AcDbCircle
 10
358.0758095682925
 20
-470.1857119862887
 30
0.0
 40
5.0
100
AcDbArc
 50
180.0
 51
270.0
  0
LINE
  5
1B1
330
A
100
AcDbEntity
  8
FAA70-2215
  6
Continuous
 62
     7
370
    15
390
1D
100
AcDbLine
 10
572.8752338181952
 20
-480.1857119862887
 30
0.0
 11
572.8752338181952
 21
-569.0
 31
0.0
  0
ARC
  5
1B2
330
A
100
AcDbEntity
  8
FAA70-2215
  6
STYLE_12
 62
     7
370
    15
390
1D
100
AcDbCircle
 10
567.0162468527758
 20
-479.9823521551605
 30
0.0
 40
5.862515115705087
100
AcDbArc
 50
358.0121163424393
 51
34.63778353133654
  0
ARC
  5
1B3
330
A
100
AcDbEntity
  8
FAA70-2215
  6
STYLE_12
 62
     7
370
    15
390
1D
100
AcDbCircle
 10
569.2138907997239
 20
-478.2665980989523
 30
0.0
 40
3.083453773287372
100
AcDbArc
 50
31.61600812515082
 51
87.66160506511622
  0
ARC
  5
1B4
330
A
100
AcDbEntity
  8
FAA70-2215
  6
Continuous
 62
     7
370
    15
390
1D
100
AcDbCircle
 10
552.860150076737
 20
-479.9823521551605
 30
0.0
 40
5.862515115705087
100
AcDbArc
 50
358.0121163424393
 51
34.63778353133654
  0
ARC
  5
1B5
330
A
100
AcDbEntity
  8
FAA70-2215
  6
Continuous
 62
     7
370
    15
390
1D
100
AcDbCircle
 10
555.057794023685
 20
-478.2665980989523
 30
0.0
 40
3.083453773287469
100
AcDbArc
 50
31.61600812514972
 51
87.66160506511413
  0
LINE
  5
1B6
330
A
100
AcDbEntity
  8
FAA70-2215
  6
Continuous
 62
     7
370
    15
390
1D
100
AcDbLine
 10
558.7191370421564
 20
-480.1857119862887
 30
0.0
 11
558.7191370421564
 21
-495.1857119862887
 31
0.0
  0
ARC
  5
1B7
330
A
100
AcDbEntity
  8
FAA70-2215
  6
Continuous
 62
     7
370
    15
390
1D
100
AcDbCircle
 10
445.9799066927025
 20
-498.6029543851658
 30
0.0
 40
112.7910085308217
100
AcDbArc
 50
332.3747096155815
 51
1.73616262156952
  0
ARC
  5
1B8
330
A
100
AcDbEntity
  8
FAA70-2215
  6
Continuous
 62
     7
370
    15
390
1D
100
AcDbCircle
 10
525.1581791225894
 20
-574.6747201836192
 30
0.0
 40
0.4217159405742759
100
AcDbArc
 50
129.7859776334276
 51
258.7365827423339
  0
ARC
  5
1B9
330
A
100
AcDbEntity
  8
FAA70-2215
  6
Continuous
 62
     7
370
    15
390
1D
100
AcDbCircle
 10
566.3434315628745
 20
-615.0152513675516
 30
0.0
 40
58.07009586112782
100
AcDbArc
 50
129.3156335533338
 51
135.55153907146
  0
ARC
  5
1BA
330
A
100
AcDbEntity
  8
FAA70-2215
  6
Continuous
 62
     7
370
    15
390
1D
100
AcDbCircle
 10
486.6789588494935
 20
-517.2251844514333
 30
0.0
 40
68.13811163873599
100
AcDbArc
 50
308.9902860465659
 51
330.3794508124406
  0
LINE
  5
1BB
330
A
100
AcDbEntity
  8
FAA70-2215
  6
Continuous
 62
     7
370
    15
390
1D
100
AcDbLine
 10
498.5999955762308
 20
-570.1857119862887
 30
0.0
 11
481.4344281948663
 21
-570.1857119862887
 31
0.0
  0
LINE
  5
1BC
330
A
100
AcDbEntity
  8
FAA70-2215
  6
Continuous
 62
     7
370
    15
390
1D
100
AcDbLine
 10
505.6
 20
-577.1857119862887
 30
0.0
 11
580.6314789554299
 21
-577.1857119862887
 31
0.0
  0
LINE
  5
1BD
330
A
100
AcDbEntity
  8
FAA70-2215
  6
STYLE_12
 62
     7
370
    15
390
1D
100
AcDbLine
 10
563.0758095682927
 20
-545.1857119862887
 30
0.0
 11
559.9544892247327
 21
-548.3070323298487
 31
0.0
  0
ARC
  5
1BE
330
A
100
AcDbEntity
  8
FAA70-2215
  6
STYLE_12
 62
     7
370
    15
390
1D
100
AcDbCircle
 10
562.0758095682924
 20
-550.428352673408
 30
0.0
 40
2.999999999999783
100
AcDbArc
 50
135.0000000000046
 51
179.9999999999957
  0
CIRCLE
  5
1BF
330
A
100
AcDbEntity
  8
FAA70-2215
  6
Continuous
 62
     7
370
    15
390
1D
100
AcDbCircle
 10
-420.5477773269151
 20
591.8887227887607
 30
0.0
 40
26.0
  0
CIRCLE
  5
1C0
330
A
100
AcDbEntity
  8
FAA70-2215
  6
Continuous
 62
     7
370
    15
390
1D
100
AcDbCircle
 10
-420.5477773269151
 20
591.8887227887607
 30
0.0
 40
37.5
  0
LINE
  5
1C1
330
A
100
AcDbEntity
  8
FAA70-2215
  6
STYLE_12
 62
     7
370
    15
390
1D
100
AcDbLine
 10
-561.6689829203992
 20
-533.1720753658719
 30
0.0
 11
-561.6689829203992
 21
-493.1720753658719
 31
0.0
  0
LINE
  5
1C2
330
A
100
AcDbEntity
  8
FAA70-2215
  6
STYLE_12
 62
     7
370
    15
390
1D
100
AcDbLine
 10
-541.6689829203992
 20
-513.1720753658719
 30
0.0
 11
-581.6689829203992
 21
-513.1720753658719
 31
0.0
  0
LINE
  5
1C3
330
A
100
AcDbEntity
  8
FAA70-2215
  6
STYLE_12
 62
     7
370
    15
390
1D
100
AcDbLine
 10
-279.4265717334305
 20
-533.1720753658719
 30
0.0
 11
-279.4265717334305
 21
-493.1720753658719
 31
0.0
  0
LINE
  5
1C4
330
A
100
AcDbEntity
  8
FAA70-2215
  6
STYLE_12
 62
     7
370
    15
390
1D
100
AcDbLine
 10
-259.4265717334305
 20
-513.1720753658719
 30
0.0
 11
-299.4265717334305
 21
-513.1720753658719
 31
0.0
  0
LINE
  5
1C5
330
A
100
AcDbEntity
  8
FAA70-2215
  6
STYLE_12
 62
     7
370
    15
390
1D
100
AcDbLine
 10
696.6472469792652
 20
-445.1857119862887
 30
0.0
 11
500.3445709971238
 21
-445.2140276259984
 31
0.0
  0
LINE
  5
1C6
330
A
100
AcDbEntity
  8
FAA70-2215
  6
Continuous
 62
     7
370
    15
390
1D
100
AcDbLine
 10
-415.5980298561135
 20
749.5735349930983
 30
0.0
 11
-226.0934125351993
 21
560.0689176007813
 31
0.0
  0
LINE
  5
1C7
330
A
100
AcDbEntity
  8
FAA70-2215
  6
Continuous
 62
     7
370
    15
390
1D
100
AcDbLine
 10
-425.4975247936443
 20
749.5735349940175
 30
0.0
 11
-615.0021421532672
 21
560.0689176354177
 31
0.0
  0
LINE
  5
1C8
330
A
100
AcDbEntity
  8
FAA70-2215
  6
Continuous
 62
     7
370
    15
390
1D
100
AcDbLine
 10
-519.3407391015917
 20
645.7597579385128
 30
0.0
 11
-321.7548155889284
 21
645.7597579385128
 31
0.0
  0
ARC
  5
1C9
330
A
100
AcDbEntity
  8
FAA70-2215
  6
Continuous
 62
     7
370
    15
390
1D
100
AcDbCircle
 10
-420.5477773269151
 20
545.7323159175679
 30
0.0
 40
109.9999999999999
100
AcDbArc
 50
225.0
 51
314.9999999999999
  0
LINE
  5
1CA
330
A
100
AcDbEntity
  8
FAA70-2215
  6
Continuous
 62
     7
370
    15
390
1D
100
AcDbLine
 10
-592.3747251552463
 20
565.7257718848584
 30
0.0
 11
-498.3295232574353
 21
467.9505699870476
 31
0.0
  0
LINE
  5
1CB
330
A
100
AcDbEntity
  8
FAA70-2215
  6
Continuous
 62
     7
370
    15
390
1D
100
AcDbLine
 10
-524.2904865698976
 20
643.7095054068187
 30
0.0
 11
-592.3747251552463
 21
575.6252668214702
 31
0.0
  0
ARC
  5
1CC
330
A
100
AcDbEntity
  8
FAA70-2215
  6
Continuous
 62
     7
370
    15
390
1D
100
AcDbCircle
 10
-587.4249776869403
 20
570.6755193531643
 30
0.0
 40
6.999999999999976
100
AcDbArc
 50
134.9999999999993
 51
225.0000000000007
  0
LINE
  5
1CD
330
A
100
AcDbEntity
  8
FAA70-2215
  6
Continuous
 62
     7
370
    15
390
1D
100
AcDbLine
 10
-248.7208294985842
 20
565.7257718228825
 30
0.0
 11
-342.766031396395
 21
467.9505699870476
 31
0.0
  0
LINE
  5
1CE
330
A
100
AcDbEntity
  8
FAA70-2215
  6
Continuous
 62
     7
370
    15
390
1D
100
AcDbLine
 10
-316.8050681197034
 20
643.7095054058996
 30
0.0
 11
-248.7208294985842
 21
575.6252667594943
 31
0.0
  0
CIRCLE
  5
1CF
330
A
100
AcDbEntity
  8
FAA70-2215
  6
Continuous
 62
     7
370
    15
390
1D
100
AcDbCircle
 10
-420.5477773269151
 20
591.8887227887607
 30
0.0
 40
26.0
  0
ARC
  5
1D0
330
A
100
AcDbEntity
  8
FAA70-2215
  6
Continuous
 62
     7
370
    15
390
1D
100
AcDbCircle
 10
-253.6705769668899
 20
570.6755192911884
 30
0.0
 40
7.000000000000056
100
AcDbArc
 50
315.0
 51
45.0
  0
ARC
  5
1D1
330
A
100
AcDbEntity
  8
FAA70-2215
  6
Continuous
 62
     7
370
    15
390
1D
100
AcDbCircle
 10
-420.5477773253385
 20
744.6237875257116
 30
0.0
 40
7.000000000000016
100
AcDbArc
 50
44.99999998936062
 51
134.9999999999996
  0
LWPOLYLINE
  5
1D2
330
A
100
AcDbEntity
  8
FAA70-2215
  6
Continuous
 62
     7
370
    15
390
1D
100
AcDbPolyline
 90
        8
 70
   129
 43
0.0
 10
-208.4157429709506
 20
577.74658716503
 10
-413.4767095150495
 20
782.8075537091286
 42
0.4142135623730963
 10
-427.6188451387803
 20
782.8075537091286
 10
-632.6798116828793
 20
577.7465871650298
 42
0.414213562373088
 10
-632.6798116828793
 20
563.6044515412989
 10
-519.5427266930317
 20
446.7373665514514
 42
0.4142135623730947
 10
-321.5528279607986
 20
446.7373665514514
 10
-208.4157429709506
 20
563.604451541299
 42
0.4142135623730974
  0
LINE
  5
1D3
330
A
100
AcDbEntity
  8
FAA70-2215
  6
STYLE_12
 62
     7
370
    15
390
1D
100
AcDbLine
 10
-570.1105195205835
 20
656.5986512400438
 30
0.0
 11
-553.227446320215
 21
639.7155780396753
 31
0.0
  0
LINE
  5
1D4
330
A
100
AcDbEntity
  8
FAA70-2215
  6
STYLE_12
 62
     7
370
    15
390
1D
100
AcDbLine
 10
-270.9850351332462
 20
656.5986512400438
 30
0.0
 11
-287.8681083336147
 21
639.7155780396753
 31
0.0
  0
CIRCLE
  5
1D5
330
A
100
AcDbEntity
  8
FAA70-2215
  6
Continuous
 62
     7
370
    15
390
1D
100
AcDbCircle
 10
-420.5477773269151
 20
695.5173144348923
 30
0.0
 40
17.5
  0
LINE
  5
1D6
330
A
100
AcDbEntity
  8
FAA70-2215
  6
STYLE_12
 62
     7
370
    15
390
1D
100
AcDbLine
 10
517.0999999999998
 20
-555.1857119862887
 30
0.0
 11
517.0999999999998
 21
-605.1857119862887
 31
0.0
  0
LINE
  5
1D7
330
A
100
AcDbEntity
  8
FAA70-2215
  6
Continuous
 62
     7
370
    15
390
1D
100
AcDbLine
 10
580.6314789554299
 20
-605.1857119862887
 30
0.0
 11
505.5685210445702
 21
-605.1857119862887
 31
0.0
  0
LINE
  5
1D8
330
A
100
AcDbEntity
  8
FAA70-2215
  6
Continuous
 62
     7
370
    15
390
1D
100
AcDbLine
 10
505.5999911524643
 20
-577.1935817201727
 30
0.0
 11
505.5685210445702
 21
-605.1857119862887
 31
0.0
  0
LINE
  5
1D9
330
A
100
AcDbEntity
  8
FAA70-2215
  6
STYLE_12
 62
     7
370
    15
390
1D
100
AcDbLine
 10
569.1000000000003
 20
-555.1857119862887
 30
0.0
 11
569.1000000000003
 21
-605.1857119862887
 31
0.0
  0
LINE
  5
1DA
330
A
100
AcDbEntity
  8
FAA70-2215
  6
Continuous
 62
     7
370
    15
390
1D
100
AcDbLine
 10
580.6314789554299
 20
-577.1857119862887
 30
0.0
 11
580.6314789554299
 21
-605.1857119862887
 31
0.0
  0
LINE
  5
1DB
330
A
100
AcDbEntity
  8
FAA70-2215
  6
Continuous
 62
     7
370
    15
390
1D
100
AcDbLine
 10
580.5758095682925
 20
-577.0334677893533
 30
0.0
 11
599.971293667372
 21
-576.9324240884956
 31
0.0
  0
ARC
  5
1DC
330
A
100
AcDbEntity
  8
FAA70-2215
  6
Continuous
 62
     7
370
    15
390
1D
100
AcDbCircle
 10
600.3247647252301
 20
-538.6103315027314
 30
0.0
 40
38.32372270462033
100
AcDbArc
 50
269.4715365439586
 51
287.3732892278855
  0
ARC
  5
1DD
330
A
100
AcDbEntity
  8
FAA70-2215
  6
Continuous
 62
     7
370
    15
390
1D
100
AcDbCircle
 10
498.5999955762308
 20
-577.1857119862887
 30
0.0
 40
7.000000000000071
100
AcDbArc
 50
359.9355853382241
 51
89.99999999999955
  0
SPLINE
  5
1DE
330
A
100
AcDbEntity
  8
FAA70-2215
  6
STYLE_12
 62
     7
370
    15
390
1D
100
AcDbSpline
210
0.0
220
0.0
230
1.0
 70
     8
 71
     2
 72
     6
 73
     3
 74
     0
 42
0.000000001
 43
0.000001
 40
0.0
 40
0.0
 40
0.0
 40
1.0
 40
1.0
 40
1.0
 10
382.2520644380324
 20
-450.832128589027
 30
0.0
 10
457.5202265016762
 20
-540.9129271209333
 30
0.0
 10
517.0999999999998
 20
-555.1857119862887
 30
0.0
  0
SPLINE
  5
1DF
330
A
100
AcDbEntity
  8
FAA70-2215
  6
Continuous
 62
     7
370
    15
390
1D
100
AcDbSpline
210
0.0
220
0.0
230
1.0
 70
     8
 71
     2
 72
     6
 73
     3
 74
     0
 42
0.000000001
 43
0.000001
 40
0.0
 40
0.0
 40
0.0
 40
1.0
 40
1.0
 40
1.0
 10
373.0758095682887
 20
-475.1857119862887
 30
0.0
 10
406.7870832537377
 20
-553.251266252338
 30
0.0
 10
481.4344281948663
 20
-570.1857119862887
 30
0.0
  0
ARC
  5
1E0
330
A
100
AcDbEntity
  8
FAA70-2215
  6
Continuous
 62
     7
370
    15
390
1D
100
AcDbCircle
 10
-321.7548155889283
 20
638.7597579385128
 30
0.0
 40
6.999999999999976
100
AcDbArc
 50
44.99999998936095
 51
90.0000000000005
  0
ARC
  5
1E1
330
A
100
AcDbEntity
  8
FAA70-2215
  6
Continuous
 62
     7
370
    15
390
1D
100
AcDbCircle
 10
-519.3407391015919
 20
638.7597579385127
 30
0.0
 40
7.000000000000114
100
AcDbArc
 50
89.99999999999814
 51
134.999999999998
  0
ARC
  5
1E2
330
A
100
AcDbEntity
  8
FAA70-2215
  6
Continuous
 62
     7
370
    15
390
1D
100
AcDbCircle
 10
579.8752338181952
 20
-568.1857119862887
 30
0.0
 40
7.0
100
AcDbArc
 50
180.0
 51
270.0
  0
CIRCLE
  5
1E3
330
A
100
AcDbEntity
  8
FAA70-2215
  6
STYLE_12
 62
     7
370
    15
390
1D
100
AcDbCircle
 10
-279.4265717334305
 20
-513.1720753658719
 30
0.0
 40
10.0
  0
CIRCLE
  5
1E4
330
A
100
AcDbEntity
  8
FAA70-2215
  6
STYLE_12
 62
     7
370
    15
390
1D
100
AcDbCircle
 10
-561.6689829203992
 20
-513.1720753658719
 30
0.0
 40
10.0
  0
LWPOLYLINE
  5
1E5
330
A
100
AcDbEntity
  8
FAA70-2215
  6
Continuous
 62
     7
370
    15
390
1D
100
AcDbPolyline
 90
        8
 70
   129
 43
0.0
 10
-208.4157429709506
 20
577.74658716503
 10
-413.4767095150495
 20
782.8075537091286
 42
0.4142135623730963
 10
-427.6188451387803
 20
782.8075537091286
 10
-632.6798116828793
 20
577.7465871650298
 42
0.414213562373088
 10
-632.6798116828793
 20
563.6044515412989
 10
-519.5427266930317
 20
446.7373665514514
 42
0.4142135623730947
 10
-321.5528279607986
 20
446.7373665514514
 10
-208.4157429709506
 20
563.604451541299
 42
0.4142135623730974
  0
DIMENSION
  5
1E6
330
A
100
AcDbEntity
  8
FAA70-2215
  6
Continuous
 62
     7
370
     5
390
1D
100
AcDbDimension
  2
*D20
 10
353.0758095682925
 20
-827.0
 30
0.0
 11
543.0758095682925
 21
-827.0
 31
0.0
 70
    32
 71
     5
 42
0.0
 73
     0
 74
     0
 75
     0
  3
tfrom線あり
100
AcDbAlignedDimension
 13
733.0758095682925
 23
-575.1857119862887
 33
0.0
 14
353.0758095682925
 24
-470.1857119862887
 34
0.0
100
AcDbRotatedDimension
1001
ACAD
1000
DSTYLE
1002
{
1070
   279
1070
     2
1070
   340
1005
37
1070
   147
1040
5.0
1002
}
  0
DIMENSION
  5
1E7
330
A
100
AcDbEntity
  8
FAA70-2215
  6
Continuous
 62
     7
370
     5
390
1D
100
AcDbDimension
  2
*D21
 10
-556.9676218971315
 20
728.3085673589775
 30
0.0
 11
-507.4701472140731
 21
777.8060420420358
 31
0.0
 70
    32
 71
     5
 42
0.0
 73
     0
 74
     0
 75
     0
  3
tfrom線あり
100
AcDbAlignedDimension
 13
-427.687969551163
 23
797.0188137452421
 33
0.0
 14
-427.6879695511628
 24
599.0289150130088
 34
0.0
 50
45.0
100
AcDbRotatedDimension
1001
ACAD
1000
DSTYLE
1002
{
1070
   279
1070
     2
1070
   340
1005
37
1070
   147
1040
5.0
1002
}
  0
LWPOLYLINE
  5
22C
330
A
100
AcDbEntity
  8
waku
  6
Continuous
370
     0
100
AcDbPolyline
 90
        4
 70
     1
 43
0.0
 10
-1050.0
 20
-1497.698190377274
 10
-1050.0
 20
1472.301809622726
 10
1050.0
 20
1472.301809622726
 10
1050.0
 20
-1497.698190377274
  0
ENDSEC
  0
SECTION
  2
OBJECTS
  0
DICTIONARY
  5
19
330
0
100
AcDbDictionary
281
     1
  3
ACAD_DETAILVIEWSTYLE
350
23D
  3
ACAD_GROUP
350
1A
  3
ACAD_IMAGE_VARS
350
22B
  3
ACAD_LAYOUT
350
1E
  3
ACAD_MATERIAL
350
223
  3
ACAD_MLEADERSTYLE
350
23B
  3
ACAD_MLINESTYLE
350
1B
  3
ACAD_PLOTSETTINGS
350
22
  3
ACAD_PLOTSTYLENAME
350
1F
  3
ACAD_SCALELIST
350
1E8
  3
ACAD_SECTIONVIEWSTYLE
350
23E
  3
ACAD_TABLESTYLE
350
227
  3
ACAD_VISUALSTYLE
350
20A
  3
ACDB_RECOMPOSE_DATA
350
239
  3
AcDbVariableDictionary
350
234
  3
APPDATA
350
229
  0
SUN
  5
22A
330
15
100
AcDbSun
 90
        1
290
     0
 63
     7
421
 16777215
 40
1.0
291
     1
 91
  2455826
 92
 54000000
292
     0
 70
     2
 71
   256
280
     1
  0
DICTIONARY
  5
22D
330
2
100
AcDbDictionary
280
     1
281
     1
  3
ACAD_LAYERSTATES
360
22E
  3
ACLYDICTIONARY
360
232
  0
DICTIONARY
  5
23D
102
{ACAD_REACTORS
330
19
102
}
330
19
100
AcDbDictionary
281
     1
  0
DICTIONARY
  5
1A
102
{ACAD_REACTORS
330
19
102
}
330
19
100
AcDbDictionary
281
     1
  0
RASTERVARIABLES
  5
22B
102
{ACAD_REACTORS
330
19
102
}
330
19
100
AcDbRasterVariables
 90
        0
 70
     1
 71
     1
 72
     1
  0
DICTIONARY
  5
1E
102
{ACAD_REACTORS
330
19
102
}
330
19
100
AcDbDictionary
281
     1
  3
Layout1
350
21
  3
Model
350
20
  0
DICTIONARY
  5
223
102
{ACAD_REACTORS
330
19
102
}
330
19
100
AcDbDictionary
281
     1
  3
ByBlock
350
225
  3
ByLayer
350
224
  3
Global
350
226
  0
DICTIONARY
  5
23B
102
{ACAD_REACTORS
330
19
102
}
330
19
100
AcDbDictionary
281
     1
  0
DICTIONARY
  5
1B
102
{ACAD_REACTORS
330
19
102
}
330
19
100
AcDbDictionary
281
     1
  3
Standard
350
1C
  0
DICTIONARY
  5
22
102
{ACAD_REACTORS
330
19
102
}
330
19
100
AcDbDictionary
281
     1
  0
ACDBDICTIONARYWDFLT
  5
1F
102
{ACAD_REACTORS
330
19
102
}
330
19
100
AcDbDictionary
281
     1
  3
Normal
350
1D
100
AcDbDictionaryWithDefault
340
1D
  0
DICTIONARY
  5
1E8
102
{ACAD_REACTORS
330
19
102
}
330
19
100
AcDbDictionary
281
     1
  3
A0
350
1E9
  3
A1
350
1EA
  3
A2
350
1EB
  3
A3
350
1EC
  3
A4
350
1ED
  3
A5
350
1EE
  3
A6
350
1EF
  3
A7
350
1F0
  3
A8
350
1F1
  3
A9
350
1F2
  3
B0
350
1F3
  3
B1
350
1F4
  3
B2
350
1F5
  3
B3
350
1F6
  3
B4
350
1F7
  3
B5
350
1F8
  3
B6
350
1F9
  3
B7
350
1FA
  3
B8
350
1FB
  3
B9
350
1FC
  3
C0
350
1FD
  3
C1
350
1FE
  3
C2
350
1FF
  3
C3
350
200
  3
C4
350
201
  3
C5
350
202
  3
C6
350
203
  3
C7
350
204
  3
C8
350
205
  3
C9
350
206
  3
D0
350
207
  3
D1
350
208
  3
D2
350
209
  0
DICTIONARY
  5
23E
102
{ACAD_REACTORS
330
19
102
}
330
19
100
AcDbDictionary
281
     1
  0
DICTIONARY
  5
227
102
{ACAD_REACTORS
330
19
102
}
330
19
100
AcDbDictionary
281
     1
  3
Standard
350
228
  0
DICTIONARY
  5
20A
102
{ACAD_REACTORS
330
19
102
}
330
19
100
AcDbDictionary
281
     1
  3
2dWireframe
350
20F
  3
Basic
350
212
  3
Brighten
350
216
  3
ColorChange
350
21A
  3
Conceptual
350
214
  3
Dim
350
215
  3
EdgeColorOff
350
21D
  3
Facepattern
350
219
  3
Flat
350
20B
  3
FlatWithEdges
350
20C
  3
Gouraud
350
20D
  3
GouraudWithEdges
350
20E
  3
Hidden
350
211
  3
JitterOff
350
21B
  3
Linepattern
350
218
  3
OverhangOff
350
21C
  3
Realistic
350
213
  3
Shaded
350
222
  3
Shaded with edges
350
221
  3
Shades of Gray
350
21E
  3
Sketchy
350
21F
  3
Thicken
350
217
  3
Wireframe
350
210
  3
X-Ray
350
220
  0
XRECORD
  5
239
102
{ACAD_REACTORS
330
19
102
}
330
19
100
AcDbXrecord
280
     1
 90
        1
330
228
  0
DICTIONARY
  5
234
102
{ACAD_REACTORS
330
19
102
}
330
19
100
AcDbDictionary
281
     1
  3
CANNOSCALE
350
235
  3
CTABLESTYLE
350
23A
  3
LIGHTINGUNITS
350
236
  3
MSLTSCALE
350
23C
  0
DICTIONARY
  5
229
102
{ACAD_REACTORS
330
19
102
}
330
19
100
AcDbDictionary
281
     1
  0
DICTIONARY
  5
22E
102
{ACAD_REACTORS
330
22D
102
}
330
22D
100
AcDbDictionary
281
     1
  3
ARGON_LAYERP_1
350
22F
  3
ARGON_LAYERP_2
350
233
  0
DICTIONARY
  5
232
102
{ACAD_REACTORS
330
22D
102
}
330
22D
100
AcDbDictionary
281
     1
1001
ACAD
1000
<All
  0
LAYOUT
  5
21
102
{ACAD_REACTORS
330
1E
102
}
330
1E
100
AcDbPlotSettings
  1

  2

  4

  6

 40
0.0
 41
0.0
 42
0.0
 43
0.0
 44
0.0
 45
0.0
 46
0.0
 47
0.0
 48
0.0
 49
0.0
140
0.0
141
0.0
142
1.0
143
1.0
 70
     0
 72
     0
 73
     0
 74
     0
  7

 75
     0
 76
     0
 77
     2
 78
   300
147
1.0
148
0.0
149
0.0
100
AcDbLayout
  1
Layout1
 70
     0
 71
     0
 10
0.0
 20
0.0
 11
0.0
 21
0.0
 12
0.0
 22
0.0
 32
0.0
 14
0.0
 24
0.0
 34
0.0
 15
0.0
 25
0.0
 35
0.0
146
0.0
 13
0.0
 23
0.0
 33
0.0
 16
0.0
 26
0.0
 36
0.0
 17
0.0
 27
0.0
 37
0.0
 76
     0
330
B
  0
LAYOUT
  5
20
102
{ACAD_REACTORS
330
1E
102
}
330
1E
100
AcDbPlotSettings
  1

  2

  4

  6

 40
0.0
 41
0.0
 42
0.0
 43
0.0
 44
0.0
 45
0.0
 46
0.0
 47
0.0
 48
0.0
 49
0.0
140
0.0
141
0.0
142
1.0
143
1.0
 70
  1024
 72
     0
 73
     0
 74
     0
  7

 75
     0
 76
     0
 77
     2
 78
   300
147
1.0
148
0.0
149
0.0
100
AcDbLayout
  1
Model
 70
     0
 71
     1
 10
-1050.0
 20
-1497.698190377274
 11
1050.0
 21
1472.301809622726
 12
0.0
 22
0.0
 32
0.0
 14
0.0
 24
0.0
 34
0.0
 15
0.0
 25
0.0
 35
0.0
146
0.0
 13
0.0
 23
0.0
 33
0.0
 16
0.0
 26
0.0
 36
0.0
 17
0.0
 27
0.0
 37
0.0
 76
     0
330
A
331
15
  0
MATERIAL
  5
225
102
{ACAD_REACTORS
330
223
102
}
330
223
100
AcDbMaterial
  1
ByBlock
 72
     1
 94
      127
  0
MATERIAL
  5
224
102
{ACAD_REACTORS
330
223
102
}
330
223
100
AcDbMaterial
  1
ByLayer
 72
     1
 94
      127
  0
MATERIAL
  5
226
102
{ACAD_REACTORS
330
223
102
}
330
223
100
AcDbMaterial
  1
Global
 72
     1
 94
      127
  0
MLINESTYLE
  5
1C
102
{ACAD_REACTORS
330
1B
102
}
330
1B
100
AcDbMlineStyle
  2
Standard
 70
     0
  3

 62
     0
 51
90.0
 52
90.0
 71
     2
 49
0.5
 62
   256
  6
BYLAYER
 49
-0.5
 62
   256
  6
BYLAYER
  0
ACDBPLACEHOLDER
  5
1D
102
{ACAD_REACTORS
330
1F
102
}
330
1F
  0
SCALE
  5
1E9
102
{ACAD_REACTORS
330
1E8
102
}
330
1E8
100
AcDbScale
 70
     0
300
1:1
140
1.0
141
1.0
290
     1
  0
SCALE
  5
1EA
102
{ACAD_REACTORS
330
1E8
102
}
330
1E8
100
AcDbScale
 70
     0
300
1:2
140
1.0
141
2.0
290
     0
  0
SCALE
  5
1EB
102
{ACAD_REACTORS
330
1E8
102
}
330
1E8
100
AcDbScale
 70
     0
300
1:4
140
1.0
141
4.0
290
     0
  0
SCALE
  5
1EC
102
{ACAD_REACTORS
330
1E8
102
}
330
1E8
100
AcDbScale
 70
     0
300
1:5
140
1.0
141
5.0
290
     0
  0
SCALE
  5
1ED
102
{ACAD_REACTORS
330
1E8
102
}
330
1E8
100
AcDbScale
 70
     0
300
1:8
140
1.0
141
8.0
290
     0
  0
SCALE
  5
1EE
102
{ACAD_REACTORS
330
1E8
102
}
330
1E8
100
AcDbScale
 70
     0
300
1:10
140
1.0
141
10.0
290
     0
  0
SCALE
  5
1EF
102
{ACAD_REACTORS
330
1E8
102
}
330
1E8
100
AcDbScale
 70
     0
300
1:16
140
1.0
141
16.0
290
     0
  0
SCALE
  5
1F0
102
{ACAD_REACTORS
330
1E8
102
}
330
1E8
100
AcDbScale
 70
     0
300
1:20
140
1.0
141
20.0
290
     0
  0
SCALE
  5
1F1
102
{ACAD_REACTORS
330
1E8
102
}
330
1E8
100
AcDbScale
 70
     0
300
1:30
140
1.0
141
30.0
290
     0
  0
SCALE
  5
1F2
102
{ACAD_REACTORS
330
1E8
102
}
330
1E8
100
AcDbScale
 70
     0
300
1:40
140
1.0
141
40.0
290
     0
  0
SCALE
  5
1F3
102
{ACAD_REACTORS
330
1E8
102
}
330
1E8
100
AcDbScale
 70
     0
300
1:50
140
1.0
141
50.0
290
     0
  0
SCALE
  5
1F4
102
{ACAD_REACTORS
330
1E8
102
}
330
1E8
100
AcDbScale
 70
     0
300
1:100
140
1.0
141
100.0
290
     0
  0
SCALE
  5
1F5
102
{ACAD_REACTORS
330
1E8
102
}
330
1E8
100
AcDbScale
 70
     0
300
2:1
140
2.0
141
1.0
290
     0
  0
SCALE
  5
1F6
102
{ACAD_REACTORS
330
1E8
102
}
330
1E8
100
AcDbScale
 70
     0
300
4:1
140
4.0
141
1.0
290
     0
  0
SCALE
  5
1F7
102
{ACAD_REACTORS
330
1E8
102
}
330
1E8
100
AcDbScale
 70
     0
300
8:1
140
8.0
141
1.0
290
     0
  0
SCALE
  5
1F8
102
{ACAD_REACTORS
330
1E8
102
}
330
1E8
100
AcDbScale
 70
     0
300
10:1
140
10.0
141
1.0
290
     0
  0
SCALE
  5
1F9
102
{ACAD_REACTORS
330
1E8
102
}
330
1E8
100
AcDbScale
 70
     0
300
100:1
140
100.0
141
1.0
290
     0
  0
SCALE
  5
1FA
102
{ACAD_REACTORS
330
1E8
102
}
330
1E8
100
AcDbScale
 70
     0
300
1/128" = 1'-0"
140
0.0078125
141
12.0
290
     0
  0
SCALE
  5
1FB
102
{ACAD_REACTORS
330
1E8
102
}
330
1E8
100
AcDbScale
 70
     0
300
1/64" = 1'-0"
140
0.015625
141
12.0
290
     0
  0
SCALE
  5
1FC
102
{ACAD_REACTORS
330
1E8
102
}
330
1E8
100
AcDbScale
 70
     0
300
1/32" = 1'-0"
140
0.03125
141
12.0
290
     0
  0
SCALE
  5
1FD
102
{ACAD_REACTORS
330
1E8
102
}
330
1E8
100
AcDbScale
 70
     0
300
1/16" = 1'-0"
140
0.0625
141
12.0
290
     0
  0
SCALE
  5
1FE
102
{ACAD_REACTORS
330
1E8
102
}
330
1E8
100
AcDbScale
 70
     0
300
3/32" = 1'-0"
140
0.09375
141
12.0
290
     0
  0
SCALE
  5
1FF
102
{ACAD_REACTORS
330
1E8
102
}
330
1E8
100
AcDbScale
 70
     0
300
1/8" = 1'-0"
140
0.125
141
12.0
290
     0
  0
SCALE
  5
200
102
{ACAD_REACTORS
330
1E8
102
}
330
1E8
100
AcDbScale
 70
     0
300
3/16" = 1'-0"
140
0.1875
141
12.0
290
     0
  0
SCALE
  5
201
102
{ACAD_REACTORS
330
1E8
102
}
330
1E8
100
AcDbScale
 70
     0
300
1/4" = 1'-0"
140
0.25
141
12.0
290
     0
  0
SCALE
  5
202
102
{ACAD_REACTORS
330
1E8
102
}
330
1E8
100
AcDbScale
 70
     0
300
3/8" = 1'-0"
140
0.375
141
12.0
290
     0
  0
SCALE
  5
203
102
{ACAD_REACTORS
330
1E8
102
}
330
1E8
100
AcDbScale
 70
     0
300
1/2" = 1'-0"
140
0.5
141
12.0
290
     0
  0
SCALE
  5
204
102
{ACAD_REACTORS
330
1E8
102
}
330
1E8
100
AcDbScale
 70
     0
300
3/4" = 1'-0"
140
0.75
141
12.0
290
     0
  0
SCALE
  5
205
102
{ACAD_REACTORS
330
1E8
102
}
330
1E8
100
AcDbScale
 70
     0
300
1" = 1'-0"
140
1.0
141
12.0
290
     0
  0
SCALE
  5
206
102
{ACAD_REACTORS
330
1E8
102
}
330
1E8
100
AcDbScale
 70
     0
300
1-1/2" = 1'-0"
140
1.5
141
12.0
290
     0
  0
SCALE
  5
207
102
{ACAD_REACTORS
330
1E8
102
}
330
1E8
100
AcDbScale
 70
     0
300
3" = 1'-0"
140
3.0
141
12.0
290
     0
  0
SCALE
  5
208
102
{ACAD_REACTORS
330
1E8
102
}
330
1E8
100
AcDbScale
 70
     0
300
6" = 1'-0"
140
6.0
141
12.0
290
     0
  0
SCALE
  5
209
102
{ACAD_REACTORS
330
1E8
102
}
330
1E8
100
AcDbScale
 70
     0
300
1'-0" = 1'-0"
140
12.0
141
12.0
290
     0
  0
TABLESTYLE
  5
228
102
{ACAD_REACTORS
330
227
102
}
102
{ACAD_XDICTIONARY
360
237
102
}
330
227
100
AcDbTableStyle
  3
Standard
 70
     0
 71
     0
 40
0.06
 41
0.06
280
     0
281
     0
  7
Standard
140
4.5
170
     2
 62
     0
 63
   257
283
     0
 90
        4
 91
        0
  1

274
    -2
284
     1
 64
     0
275
    -2
285
     1
 65
     0
276
    -2
286
     1
 66
     0
277
    -2
287
     1
 67
     0
278
    -2
288
     1
 68
     0
279
    -2
289
     1
 69
     0
  7
Standard
140
6.0
170
     5
 62
     0
 63
   257
283
     0
 90
        4
 91
        0
  1

274
    -2
284
     1
 64
     0
275
    -2
285
     1
 65
     0
276
    -2
286
     1
 66
     0
277
    -2
287
     1
 67
     0
278
    -2
288
     1
 68
     0
279
    -2
289
     1
 69
     0
  7
Standard
140
4.5
170
     5
 62
     0
 63
   257
283
     0
 90
        4
 91
        0
  1

274
    -2
284
     1
 64
     0
275
    -2
285
     1
 65
     0
276
    -2
286
     1
 66
     0
277
    -2
287
     1
 67
     0
278
    -2
288
     1
 68
     0
279
    -2
289
     1
 69
     0
  0
VISUALSTYLE
  5
20F
102
{ACAD_REACTORS
330
20A
102
}
330
20A
100
AcDbVisualStyle
  2
2dWireframe
 70
     4
 71
     0
 72
     2
 73
     0
 90
        0
 40
0.6
 41
30.0
 62
     5
 63
     7
421
 16777215
 74
     1
 91
        4
 64
     7
 65
   257
 75
     1
175
     1
 42
1.0
 92
        0
 66
   257
 43
1.0
 76
     1
 77
     6
 78
     2
 67
     7
 79
     5
170
     0
171
     0
290
     0
174
     0
 93
        1
 44
0.0
173
     0
291
     0
 45
0.0
  0
VISUALSTYLE
  5
212
102
{ACAD_REACTORS
330
20A
102
}
330
20A
100
AcDbVisualStyle
  2
Basic
 70
     7
 71
     1
 72
     0
 73
     1
 90
        0
 40
0.6
 41
30.0
 62
     5
 63
     7
421
 16777215
 74
     0
 91
        4
 64
     7
 65
   257
 75
     1
175
     1
 42
1.0
 92
        8
 66
     7
 43
1.0
 76
     1
 77
     6
 78
     2
 67
     7
 79
     5
170
     0
171
     0
290
     0
174
     0
 93
        1
 44
0.0
173
     0
291
     1
 45
0.0
  0
VISUALSTYLE
  5
216
102
{ACAD_REACTORS
330
20A
102
}
330
20A
100
AcDbVisualStyle
  2
Brighten
 70
    12
 71
     2
 72
     2
 73
     0
 90
        0
 40
0.6
 41
30.0
 62
     5
 63
     7
421
 16777215
 74
     1
 91
        4
 64
     7
 65
   257
 75
     1
175
     1
 42
1.0
 92
        8
 66
     7
 43
1.0
 76
     1
 77
     6
 78
     2
 67
     7
 79
     5
170
     0
171
     0
290
     0
174
     0
 93
        1
 44
50.0
173
     0
291
     1
 45
0.0
  0
VISUALSTYLE
  5
21A
102
{ACAD_REACTORS
330
20A
102
}
330
20A
100
AcDbVisualStyle
  2
ColorChange
 70
    16
 71
     2
 72
     2
 73
     3
 90
        0
 40
0.6
 41
30.0
 62
     5
 63
     8
421
  8421504
 74
     1
 91
        4
 64
     7
 65
   257
 75
     1
175
     1
 42
1.0
 92
        8
 66
     8
424
  8421504
 43
1.0
 76
     1
 77
     6
 78
     2
 67
     7
 79
     5
170
     0
171
     0
290
     0
174
     0
 93
        1
 44
0.0
173
     0
291
     1
 45
0.0
  0
VISUALSTYLE
  5
214
102
{ACAD_REACTORS
330
20A
102
}
330
20A
100
AcDbVisualStyle
  2
Conceptual
 70
     9
 71
     3
 72
     2
 73
     0
 90
        0
 40
0.6
 41
30.0
 62
     5
 63
     7
421
 16777215
 74
     2
 91
        2
 64
     7
 65
   257
 75
     1
175
     1
 42
179.0
 92
        8
 66
     7
 43
1.0
 76
     1
 77
     6
 78
     2
 67
     7
 79
     3
170
     0
171
     0
290
     0
174
     0
 93
        1
 44
0.0
173
     0
291
     0
 45
0.0
  0
VISUALSTYLE
  5
215
102
{ACAD_REACTORS
330
20A
102
}
330
20A
100
AcDbVisualStyle
  2
Dim
 70
    11
 71
     2
 72
     2
 73
     0
 90
        0
 40
0.6
 41
30.0
 62
     5
 63
     7
421
 16777215
 74
     1
 91
        4
 64
     7
 65
   257
 75
     1
175
     1
 42
1.0
 92
        8
 66
     7
 43
1.0
 76
     1
 77
     6
 78
     2
 67
     7
 79
     5
170
     0
171
     0
290
     0
174
     0
 93
        1
 44
-50.0
173
     0
291
     1
 45
0.0
  0
VISUALSTYLE
  5
21D
102
{ACAD_REACTORS
330
20A
102
}
330
20A
100
AcDbVisualStyle
  2
EdgeColorOff
 70
    22
 71
     2
 72
     2
 73
     0
 90
        0
 40
0.6
 41
30.0
 62
     5
 63
     7
421
 16777215
 74
     1
 91
        4
 64
     7
 65
   257
 75
     1
175
     1
 42
1.0
 92
        8
 66
     7
 43
1.0
 76
     1
 77
     6
 78
     2
 67
     7
 79
     5
170
     0
171
     0
290
     0
174
     0
 93
        1
 44
0.0
173
     0
291
     1
 45
0.0
  0
VISUALSTYLE
  5
219
102
{ACAD_REACTORS
330
20A
102
}
330
20A
100
AcDbVisualStyle
  2
Facepattern
 70
    15
 71
     2
 72
     2
 73
     0
 90
        0
 40
0.6
 41
30.0
 62
     5
 63
     7
421
 16777215
 74
     1
 91
        4
 64
     7
 65
   257
 75
     1
175
     1
 42
1.0
 92
        8
 66
     7
 43
1.0
 76
     1
 77
     6
 78
     2
 67
     7
 79
     5
170
     0
171
     0
290
     0
174
     0
 93
        1
 44
0.0
173
     0
291
     1
 45
0.0
  0
VISUALSTYLE
  5
20B
102
{ACAD_REACTORS
330
20A
102
}
330
20A
100
AcDbVisualStyle
  2
Flat
 70
     0
 71
     2
 72
     1
 73
     1
 90
        2
 40
0.6
 41
30.0
 62
     5
 63
     7
421
 16777215
 74
     0
 91
        0
 64
     7
 65
   257
 75
     1
175
     1
 42
1.0
 92
        8
 66
     7
 43
1.0
 76
     1
 77
     6
 78
     2
 67
     7
 79
     5
170
     0
171
     0
290
     0
174
     0
 93
       13
 44
0.0
173
     0
291
     1
 45
0.0
  0
VISUALSTYLE
  5
20C
102
{ACAD_REACTORS
330
20A
102
}
330
20A
100
AcDbVisualStyle
  2
FlatWithEdges
 70
     1
 71
     2
 72
     1
 73
     1
 90
        2
 40
0.6
 41
30.0
 62
     5
 63
     7
421
 16777215
 74
     1
 91
        0
 64
     7
 65
   257
 75
     1
175
     1
 42
1.0
 92
        0
 66
   257
 43
1.0
 76
     1
 77
     6
 78
     2
 67
     7
 79
     5
170
     0
171
     0
290
     0
174
     0
 93
       13
 44
0.0
173
     0
291
     1
 45
0.0
  0
VISUALSTYLE
  5
20D
102
{ACAD_REACTORS
330
20A
102
}
330
20A
100
AcDbVisualStyle
  2
Gouraud
 70
     2
 71
     2
 72
     2
 73
     1
 90
        2
 40
0.6
 41
30.0
 62
     5
 63
     7
421
 16777215
 74
     0
 91
        0
 64
     7
 65
   257
 75
     1
175
     1
 42
1.0
 92
        0
 66
     7
 43
1.0
 76
     1
 77
     6
 78
     2
 67
     7
 79
     5
170
     0
171
     0
290
     0
174
     0
 93
       13
 44
0.0
173
     0
291
     1
 45
0.0
  0
VISUALSTYLE
  5
20E
102
{ACAD_REACTORS
330
20A
102
}
330
20A
100
AcDbVisualStyle
  2
GouraudWithEdges
 70
     3
 71
     2
 72
     2
 73
     1
 90
        2
 40
0.6
 41
30.0
 62
     5
 63
     7
421
 16777215
 74
     1
 91
        0
 64
     7
 65
   257
 75
     1
175
     1
 42
1.0
 92
        0
 66
   257
 43
1.0
 76
     1
 77
     6
 78
     2
 67
     7
 79
     5
170
     0
171
     0
290
     0
174
     0
 93
       13
 44
0.0
173
     0
291
     1
 45
0.0
  0
VISUALSTYLE
  5
211
102
{ACAD_REACTORS
330
20A
102
}
330
20A
100
AcDbVisualStyle
  2
Hidden
 70
     6
 71
     1
 72
     2
 73
     2
 90
        0
 40
0.6
 41
30.0
 62
     5
 63
     7
421
 16777215
 74
     2
 91
        2
 64
     7
 65
   257
 75
     2
175
     1
 42
40.0
 92
        0
 66
   257
 43
1.0
 76
     1
 77
     6
 78
     2
 67
     7
 79
     3
170
     0
171
     0
290
     0
174
     0
 93
        1
 44
0.0
173
     0
291
     0
 45
0.0
  0
VISUALSTYLE
  5
21B
102
{ACAD_REACTORS
330
20A
102
}
330
20A
100
AcDbVisualStyle
  2
JitterOff
 70
    20
 71
     2
 72
     2
 73
     0
 90
        0
 40
0.6
 41
30.0
 62
     5
 63
     7
421
 16777215
 74
     1
 91
        4
 64
     7
 65
   257
 75
     1
175
     1
 42
1.0
 92
       10
 66
     7
 43
1.0
 76
     1
 77
     6
 78
     2
 67
     7
 79
     5
170
     0
171
     0
290
     0
174
     0
 93
        1
 44
0.0
173
     0
291
     1
 45
0.0
  0
VISUALSTYLE
  5
218
102
{ACAD_REACTORS
330
20A
102
}
330
20A
100
AcDbVisualStyle
  2
Linepattern
 70
    14
 71
     2
 72
     2
 73
     0
 90
        0
 40
0.6
 41
30.0
 62
     5
 63
     7
421
 16777215
 74
     1
 91
        4
 64
     7
 65
   257
 75
     7
175
     7
 42
1.0
 92
        8
 66
     7
 43
1.0
 76
     1
 77
     6
 78
     2
 67
     7
 79
     5
170
     0
171
     0
290
     0
174
     0
 93
        1
 44
0.0
173
     0
291
     1
 45
0.0
  0
VISUALSTYLE
  5
21C
102
{ACAD_REACTORS
330
20A
102
}
330
20A
100
AcDbVisualStyle
  2
OverhangOff
 70
    21
 71
     2
 72
     2
 73
     0
 90
        0
 40
0.6
 41
30.0
 62
     5
 63
     7
421
 16777215
 74
     1
 91
        4
 64
     7
 65
   257
 75
     1
175
     1
 42
1.0
 92
        9
 66
     7
 43
1.0
 76
     1
 77
     6
 78
     2
 67
     7
 79
     5
170
     0
171
     0
290
     0
174
     0
 93
        1
 44
0.0
173
     0
291
     1
 45
0.0
  0
VISUALSTYLE
  5
213
102
{ACAD_REACTORS
330
20A
102
}
330
20A
100
AcDbVisualStyle
  2
Realistic
 70
     8
 71
     2
 72
     3
 73
     0
 90
        2
 40
0.6
 41
30.0
 62
     5
 63
     7
421
 16777215
 74
     0
 91
        0
 64
     7
 65
   257
 75
     1
175
     1
 42
1.0
 92
        8
 66
   257
 43
1.0
 76
     1
 77
     6
 78
     2
 67
     7
 79
     3
170
     0
171
     0
290
     0
174
     0
 93
       13
 44
0.0
173
     0
291
     0
 45
0.0
  0
VISUALSTYLE
  5
222
102
{ACAD_REACTORS
330
20A
102
}
330
20A
100
AcDbVisualStyle
  2
Shaded
 70
    27
 71
     2
 72
     2
 73
     1
 90
        2
 40
0.6
 41
30.0
 62
     5
 63
     7
421
 16777215
 74
     0
 91
        4
 64
     7
 65
   257
 75
     1
175
     1
 42
1.0
 92
        8
 66
   257
 43
1.0
 76
     1
 77
     6
 78
     2
 67
     8
425
  7895160
 79
     3
170
     0
171
     0
290
     0
174
     0
 93
        5
 44
0.0
173
     0
291
     0
 45
0.0
  0
VISUALSTYLE
  5
221
102
{ACAD_REACTORS
330
20A
102
}
330
20A
100
AcDbVisualStyle
  2
Shaded with edges
 70
    26
 71
     2
 72
     2
 73
     1
 90
        2
 40
0.6
 41
30.0
 62
     5
 63
     7
421
 16777215
 74
     1
 91
       10
 64
     7
 65
   257
 75
     2
175
     1
 42
1.0
 92
        8
 66
   257
 43
1.0
 76
     1
 77
     6
 78
     2
 67
     7
 79
     3
170
     0
171
     0
290
     0
174
     0
 93
        5
 44
0.0
173
     0
291
     0
 45
0.0
  0
VISUALSTYLE
  5
21E
102
{ACAD_REACTORS
330
20A
102
}
330
20A
100
AcDbVisualStyle
  2
Shades of Gray
 70
    23
 71
     2
 72
     2
 73
     3
 90
        0
 40
0.6
 41
30.0
 62
     5
 63
     7
421
 16777215
 74
     2
 91
        2
 64
     7
 65
     7
 75
     1
175
     1
 42
40.0
 92
        8
 66
     7
 43
1.0
 76
     1
 77
     6
 78
     2
 67
     7
 79
     3
170
     0
171
     0
290
     0
174
     0
 93
        1
 44
0.0
173
     0
291
     0
 45
0.0
  0
VISUALSTYLE
  5
21F
102
{ACAD_REACTORS
330
20A
102
}
330
20A
100
AcDbVisualStyle
  2
Sketchy
 70
    24
 71
     1
 72
     2
 73
     2
 90
        0
 40
0.6
 41
30.0
 62
     5
 63
     7
421
 16777215
 74
     2
 91
        2
 64
     7
 65
     7
 75
     1
175
     1
 42
40.0
 92
       11
 66
     7
 43
1.0
 76
     1
 77
     6
 78
     2
 67
     7
 79
     6
170
     0
171
     0
290
     0
174
     0
 93
        1
 44
0.0
173
     0
291
     0
 45
0.0
  0
VISUALSTYLE
  5
217
102
{ACAD_REACTORS
330
20A
102
}
330
20A
100
AcDbVisualStyle
  2
Thicken
 70
    13
 71
     2
 72
     2
 73
     0
 90
        0
 40
0.6
 41
30.0
 62
     5
 63
     7
421
 16777215
 74
     1
 91
        4
 64
     7
 65
   257
 75
     1
175
     1
 42
1.0
 92
       12
 66
     7
 43
1.0
 76
     1
 77
     6
 78
     2
 67
     7
 79
     5
170
     0
171
     0
290
     0
174
     0
 93
        1
 44
0.0
173
     0
291
     1
 45
0.0
  0
VISUALSTYLE
  5
210
102
{ACAD_REACTORS
330
20A
102
}
330
20A
100
AcDbVisualStyle
  2
Wireframe
 70
     5
 71
     0
 72
     2
 73
     0
 90
        0
 40
0.6
 41
30.0
 62
     5
 63
     7
421
 16777215
 74
     1
 91
        4
 64
     7
 65
   257
 75
     1
175
     1
 42
1.0
 92
        0
 66
   257
 43
1.0
 76
     1
 77
     6
 78
     2
 67
     7
 79
     3
170
     0
171
     0
290
     0
174
     0
 93
        1
 44
0.0
173
     0
291
     0
 45
0.0
  0
VISUALSTYLE
  5
220
102
{ACAD_REACTORS
330
20A
102
}
330
20A
100
AcDbVisualStyle
  2
X-Ray
 70
    25
 71
     2
 72
     2
 73
     1
 90
        1
 40
0.5
 41
30.0
 62
     5
 63
     7
421
 16777215
 74
     1
 91
        0
 64
     7
 65
   257
 75
     1
175
     1
 42
1.0
 92
        8
 66
     7
 43
1.0
 76
     1
 77
     6
 78
     2
 67
     7
 79
     3
170
     0
171
     0
290
     0
174
     0
 93
       13
 44
0.0
173
     0
291
     0
 45
0.0
  0
DICTIONARYVAR
  5
235
102
{ACAD_REACTORS
330
234
102
}
330
234
100
DictionaryVariables
280
     0
  1
1:1
  0
DICTIONARYVAR
  5
23A
102
{ACAD_REACTORS
330
234
102
}
330
234
100
DictionaryVariables
280
     0
  1
Standard
  0
DICTIONARYVAR
  5
236
102
{ACAD_REACTORS
330
234
102
}
330
234
100
DictionaryVariables
280
     0
  1
0
  0
DICTIONARYVAR
  5
23C
102
{ACAD_REACTORS
330
234
102
}
330
234
100
DictionaryVariables
280
     0
  1
0
  0
XRECORD
  5
22F
102
{ACAD_REACTORS
330
22E
102
}
330
22E
100
AcDbXrecord
280
     1
 91
     1023
301

290
     0
302
FAA70-2215
330
14
 90
        8
 62
     7
370
    -3
331
13
  1
Color_7
330
46
 90
        0
 62
     7
370
    -3
331
13
  1
Color_7
330
47
 90
        8
 62
     7
370
    -3
331
13
  1
Color_7
330
48
 90
        8
 62
     7
370
    -3
331
13
  1
Color_7
330
49
 90
        8
 62
     7
370
    -3
331
13
  1
Color_7
  0
XRECORD
  5
233
102
{ACAD_REACTORS
330
22E
102
}
330
22E
100
AcDbXrecord
280
     1
 91
     1023
301

290
     0
302
FAA70-2215
330
14
 90
        8
 62
     7
370
    -3
331
13
  1
Color_7
330
46
 90
        0
 62
     7
370
    -3
331
13
  1
Color_7
330
47
 90
        8
 62
     7
370
    -3
331
13
  1
Color_7
330
48
 90
        8
 62
     7
370
    -3
331
13
  1
Color_7
330
49
 90
        8
 62
     7
370
    -3
331
13
  1
Color_7
330
230
 90
        8
 62
     7
370
    -3
331
13
  1
Color_7
  0
DICTIONARY
  5
237
330
228
100
AcDbDictionary
280
     1
281
     1
  3
ACAD_ROUNDTRIP_2008_TABLESTYLE_CELLSTYLEMAP
360
238
  0
CELLSTYLEMAP
  5
238
102
{ACAD_REACTORS
330
237
102
}
330
237
100
AcDbCellStyleMap
 90
        3
300
CELLSTYLE
  1
TABLEFORMAT_BEGIN
 90
        5
170
     1
 91
        0
 92
        0
 62
   257
 93
        1
300
CONTENTFORMAT
  1
CONTENTFORMAT_BEGIN
 90
        0
 91
        0
 92
        4
 93
        0
300

 40
0.0
140
1.0
 94
        5
 62
     0
340
17
144
6.0
309
CONTENTFORMAT_END
171
     1
301
MARGIN
  1
CELLMARGIN_BEGIN
 40
1.5
 40
1.5
 40
1.5
 40
1.5
 40
1.5
 40
1.5
309
CELLMARGIN_END
 94
        6
 95
        1
302
GRIDFORMAT
  1
GRIDFORMAT_BEGIN
 90
        0
 91
        1
 62
     0
 92
       -2
340
11
 93
        0
 40
0.045
309
GRIDFORMAT_END
 95
        2
302
GRIDFORMAT
  1
GRIDFORMAT_BEGIN
 90
        0
 91
        1
 62
     0
 92
       -2
340
11
 93
        0
 40
0.045
309
GRIDFORMAT_END
 95
        4
302
GRIDFORMAT
  1
GRIDFORMAT_BEGIN
 90
        0
 91
        1
 62
     0
 92
       -2
340
11
 93
        0
 40
0.045
309
GRIDFORMAT_END
 95
        8
302
GRIDFORMAT
  1
GRIDFORMAT_BEGIN
 90
        0
 91
        1
 62
     0
 92
       -2
340
11
 93
        0
 40
0.045
309
GRIDFORMAT_END
 95
       16
302
GRIDFORMAT
  1
GRIDFORMAT_BEGIN
 90
        0
 91
        1
 62
     0
 92
       -2
340
11
 93
        0
 40
0.045
309
GRIDFORMAT_END
 95
       32
302
GRIDFORMAT
  1
GRIDFORMAT_BEGIN
 90
        0
 91
        1
 62
     0
 92
       -2
340
11
 93
        0
 40
0.045
309
GRIDFORMAT_END
309
TABLEFORMAT_END
  1
CELLSTYLE_BEGIN
 90
        1
 91
        1
300
_TITLE
309
CELLSTYLE_END
300
CELLSTYLE
  1
TABLEFORMAT_BEGIN
 90
        5
170
     1
 91
        0
 92
        0
 62
   257
 93
        1
300
CONTENTFORMAT
  1
CONTENTFORMAT_BEGIN
 90
        0
 91
        0
 92
        4
 93
        0
300

 40
0.0
140
1.0
 94
        5
 62
     0
340
17
144
4.5
309
CONTENTFORMAT_END
171
     1
301
MARGIN
  1
CELLMARGIN_BEGIN
 40
1.5
 40
1.5
 40
1.5
 40
1.5
 40
1.5
 40
1.5
309
CELLMARGIN_END
 94
        6
 95
        1
302
GRIDFORMAT
  1
GRIDFORMAT_BEGIN
 90
        0
 91
        1
 62
     0
 92
       -2
340
11
 93
        0
 40
0.045
309
GRIDFORMAT_END
 95
        2
302
GRIDFORMAT
  1
GRIDFORMAT_BEGIN
 90
        0
 91
        1
 62
     0
 92
       -2
340
11
 93
        0
 40
0.045
309
GRIDFORMAT_END
 95
        4
302
GRIDFORMAT
  1
GRIDFORMAT_BEGIN
 90
        0
 91
        1
 62
     0
 92
       -2
340
11
 93
        0
 40
0.045
309
GRIDFORMAT_END
 95
        8
302
GRIDFORMAT
  1
GRIDFORMAT_BEGIN
 90
        0
 91
        1
 62
     0
 92
       -2
340
11
 93
        0
 40
0.045
309
GRIDFORMAT_END
 95
       16
302
GRIDFORMAT
  1
GRIDFORMAT_BEGIN
 90
        0
 91
        1
 62
     0
 92
       -2
340
11
 93
        0
 40
0.045
309
GRIDFORMAT_END
 95
       32
302
GRIDFORMAT
  1
GRIDFORMAT_BEGIN
 90
        0
 91
        1
 62
     0
 92
       -2
340
11
 93
        0
 40
0.045
309
GRIDFORMAT_END
309
TABLEFORMAT_END
  1
CELLSTYLE_BEGIN
 90
        2
 91
        1
300
_HEADER
309
CELLSTYLE_END
300
CELLSTYLE
  1
TABLEFORMAT_BEGIN
 90
        5
170
     1
 91
        0
 92
        0
 62
   257
 93
        1
300
CONTENTFORMAT
  1
CONTENTFORMAT_BEGIN
 90
        0
 91
        0
 92
        4
 93
        0
300

 40
0.0
140
1.0
 94
        2
 62
     0
340
17
144
4.5
309
CONTENTFORMAT_END
171
     1
301
MARGIN
  1
CELLMARGIN_BEGIN
 40
1.5
 40
1.5
 40
1.5
 40
1.5
 40
1.5
 40
1.5
309
CELLMARGIN_END
 94
        6
 95
        1
302
GRIDFORMAT
  1
GRIDFORMAT_BEGIN
 90
        0
 91
        1
 62
     0
 92
       -2
340
11
 93
        0
 40
0.045
309
GRIDFORMAT_END
 95
        2
302
GRIDFORMAT
  1
GRIDFORMAT_BEGIN
 90
        0
 91
        1
 62
     0
 92
       -2
340
11
 93
        0
 40
0.045
309
GRIDFORMAT_END
 95
        4
302
GRIDFORMAT
  1
GRIDFORMAT_BEGIN
 90
        0
 91
        1
 62
     0
 92
       -2
340
11
 93
        0
 40
0.045
309
GRIDFORMAT_END
 95
        8
302
GRIDFORMAT
  1
GRIDFORMAT_BEGIN
 90
        0
 91
        1
 62
     0
 92
       -2
340
11
 93
        0
 40
0.045
309
GRIDFORMAT_END
 95
       16
302
GRIDFORMAT
  1
GRIDFORMAT_BEGIN
 90
        0
 91
        1
 62
     0
 92
       -2
340
11
 93
        0
 40
0.045
309
GRIDFORMAT_END
 95
       32
302
GRIDFORMAT
  1
GRIDFORMAT_BEGIN
 90
        0
 91
        1
 62
     0
 92
       -2
340
11
 93
        0
 40
0.045
309
GRIDFORMAT_END
309
TABLEFORMAT_END
  1
CELLSTYLE_BEGIN
 90
        3
 91
        2
300
_DATA
309
CELLSTYLE_END
  0
ENDSEC
  0
EOF
