  0
SECTION
  2
HEADER
  9
$ACADVER
  1
AC1015
  9
$ACADMAINTVER
 70
               6
  9
$DWGCODEPAGE
  3
ANSI_932
  9
$INSBASE
 10
0.0
 20
0.0
 30
0.0
  9
$EXTMIN
 10
-975.00000000024102
 20
-1431.5255224711132
 30
0.0
  9
$EXTMAX
 10
975.00000000024124
 20
1405.9972926412995
 30
0.0
  9
$LIMMIN
 10
0.0
 20
0.0
  9
$LIMMAX
 10
0.0
 20
0.0
  9
$ORTHOMODE
 70
               0
  9
$REGENMODE
 70
               1
  9
$FILLMODE
 70
               1
  9
$QTEXTMODE
 70
               0
  9
$MIRRTEXT
 70
               1
  9
$LTSCALE
 40
50.799999999999997
  9
$ATTMODE
 70
               1
  9
$TEXTSIZE
 40
0.2
  9
$TRACEWID
 40
1.0
  9
$TEXTSTYLE
  7
Standard
  9
$CLAYER
  8
FAA70-2216
  9
$CELTYPE
  6
Continuous
  9
$CECOLOR
 62
             256
  9
$CELTSCALE
 40
1.0
  9
$DISPSILH
 70
               0
  9
$DIMSCALE
 40
1.0
  9
$DIMASZ
 40
31.75
  9
$DIMEXO
 40
0.0
  9
$DIMDLI
 40
6.9999999999999396
  9
$DIMRND
 40
0.0
  9
$DIMDLE
 40
0.0
  9
$DIMEXE
 40
19.999999999996199
  9
$DIMTP
 40
0.0
  9
$DIMTM
 40
0.0
  9
$DIMTXT
 40
24.432617187500004
  9
$DIMCEN
 40
0.0
  9
$DIMTSZ
 40
0.0
  9
$DIMTOL
 70
               0
  9
$DIMLIM
 70
               0
  9
$DIMTIH
 70
               0
  9
$DIMTOH
 70
               0
  9
$DIMSE1
 70
               0
  9
$DIMSE2
 70
               0
  9
$DIMTAD
 70
               1
  9
$DIMZIN
 70
              11
  9
$DIMBLK
  1
VW_FILLEDARROW
  9
$DIMASO
 70
               1
  9
$DIMSHO
 70
               1
  9
$DIMPOST
  1
<>
  9
$DIMAPOST
  1
[]
  9
$DIMALT
 70
               0
  9
$DIMALTD
 70
               1
  9
$DIMALTF
 40
1.0
  9
$DIMLFAC
 40
1.0
  9
$DIMTOFL
 70
               0
  9
$DIMTVP
 40
0.0
  9
$DIMTIX
 70
               1
  9
$DIMSOXD
 70
               0
  9
$DIMSAH
 70
               0
  9
$DIMBLK1
  1

  9
$DIMBLK2
  1

  9
$DIMSTYLE
  2
JIS
  9
$DIMCLRD
 70
               0
  9
$DIMCLRE
 70
               0
  9
$DIMCLRT
 70
               0
  9
$DIMTFAC
 40
1.0
  9
$DIMGAP
 40
1.00000000000108
  9
$DIMJUST
 70
               0
  9
$DIMSD1
 70
               0
  9
$DIMSD2
 70
               0
  9
$DIMTOLJ
 70
               1
  9
$DIMTZIN
 70
              11
  9
$DIMALTZ
 70
              11
  9
$DIMALTTZ
 70
              11
  9
$DIMUPT
 70
               0
  9
$DIMDEC
 70
               1
  9
$DIMTDEC
 70
               1
  9
$DIMALTU
 70
               2
  9
$DIMALTTD
 70
               2
  9
$DIMTXSTY
  7
ＭＳ ゴシック
  9
$DIMAUNIT
 70
               0
  9
$DIMADEC
 70
               2
  9
$DIMALTRND
 40
0.0
  9
$DIMAZIN
 70
               0
  9
$DIMDSEP
 70
              46
  9
$DIMATFIT
 70
               0
  9
$DIMFRAC
 70
               2
  9
$DIMLDRBLK
  1

  9
$DIMLUNIT
 70
               2
  9
$DIMLWD
 70
              -2
  9
$DIMLWE
 70
              -2
  9
$DIMTMOVE
 70
               0
  9
$LUNITS
 70
               2
  9
$LUPREC
 70
               4
  9
$SKETCHINC
 40
0.1
  9
$FILLETRAD
 40
0.0
  9
$AUNITS
 70
               0
  9
$AUPREC
 70
               0
  9
$MENU
  1
acad
  9
$ELEVATION
 40
0.0
  9
$PELEVATION
 40
0.0
  9
$THICKNESS
 40
0.0
  9
$LIMCHECK
 70
               0
  9
$CHAMFERA
 40
0.0
  9
$CHAMFERB
 40
0.0
  9
$CHAMFERC
 40
0.0
  9
$CHAMFERD
 40
0.0
  9
$SKPOLY
 70
               0
  9
$TDCREATE
 40
2456645.590717593
  9
$TDUCREATE
 40
0.000000000
  9
$TDUPDATE
 40
2456645.590717593
  9
$TDUUPDATE
 40
0.000000000
  9
$TDINDWG
 40
0.0000000000
  9
$TDUSRTIMER
 40
0.0000000000
  9
$USRTIMER
 70
               1
  9
$ANGBASE
 50
0.0
  9
$ANGDIR
 70
               0
  9
$PDMODE
 70
               1
  9
$PDSIZE
 40
-2.0
  9
$PLINEWID
 40
0.0
  9
$SPLFRAME
 70
               0
  9
$SPLINETYPE
 70
               6
  9
$SPLINESEGS
 70
               8
  9
$HANDSEED
  5
1CE
  9
$SURFTAB1
 70
               6
  9
$SURFTAB2
 70
               6
  9
$SURFTYPE
 70
               6
  9
$SURFU
 70
               6
  9
$SURFV
 70
               6
  9
$UCSBASE
  2

  9
$UCSNAME
  2

  9
$UCSORG
 10
0.0
 20
0.0
 30
0.0
  9
$UCSXDIR
 10
1.0
 20
0.0
 30
0.0
  9
$UCSYDIR
 10
0.0
 20
1.0
 30
0.0
  9
$UCSORTHOREF
  2

  9
$UCSORTHOVIEW
 70
               0
  9
$UCSORGTOP
 10
0.0
 20
0.0
 30
0.0
  9
$UCSORGBOTTOM
 10
0.0
 20
0.0
 30
0.0
  9
$UCSORGLEFT
 10
0.0
 20
0.0
 30
0.0
  9
$UCSORGRIGHT
 10
0.0
 20
0.0
 30
0.0
  9
$UCSORGFRONT
 10
0.0
 20
0.0
 30
0.0
  9
$UCSORGBACK
 10
0.0
 20
0.0
 30
0.0
  9
$PUCSBASE
  2

  9
$PUCSNAME
  2

  9
$PUCSORG
 10
0.0
 20
0.0
 30
0.0
  9
$PUCSXDIR
 10
1.0
 20
0.0
 30
0.0
  9
$PUCSYDIR
 10
0.0
 20
1.0
 30
0.0
  9
$PUCSORTHOREF
  2

  9
$PUCSORTHOVIEW
 70
               0
  9
$PUCSORGTOP
 10
0.0
 20
0.0
 30
0.0
  9
$PUCSORGBOTTOM
 10
0.0
 20
0.0
 30
0.0
  9
$PUCSORGLEFT
 10
0.0
 20
0.0
 30
0.0
  9
$PUCSORGRIGHT
 10
0.0
 20
0.0
 30
0.0
  9
$PUCSORGFRONT
 10
0.0
 20
0.0
 30
0.0
  9
$PUCSORGBACK
 10
0.0
 20
0.0
 30
0.0
  9
$USERI1
 70
               0
  9
$USERI2
 70
               0
  9
$USERI3
 70
               0
  9
$USERI4
 70
               0
  9
$USERI5
 70
               0
  9
$USERR1
 40
0.0
  9
$USERR2
 40
0.0
  9
$USERR3
 40
0.0
  9
$USERR4
 40
0.0
  9
$USERR5
 40
0.0
  9
$WORLDVIEW
 70
               1
  9
$SHADEDGE
 70
               3
  9
$SHADEDIF
 70
              70
  9
$TILEMODE
 70
               1
  9
$MAXACTVP
 70
              64
  9
$PINSBASE
 10
0.0
 20
0.0
 30
0.0
  9
$PLIMCHECK
 70
               0
  9
$PEXTMIN
 10
1.0000000000000000E+20
 20
1.0000000000000000E+20
 30
1.0000000000000000E+20
  9
$PEXTMAX
 10
-1.0000000000000000E+20
 20
-1.0000000000000000E+20
 30
-1.0000000000000000E+20
  9
$PLIMMIN
 10
0.0
 20
0.0
  9
$PLIMMAX
 10
12.0
 20
9.0
  9
$UNITMODE
 70
               0
  9
$VISRETAIN
 70
               0
  9
$PLINEGEN
 70
               1
  9
$PSLTSCALE
 70
               0
  9
$TREEDEPTH
 70
            3020
  9
$CMLSTYLE
  2
Standard
  9
$CMLJUST
 70
               0
  9
$CMLSCALE
 40
1.0
  9
$PROXYGRAPHICS
 70
               0
  9
$MEASUREMENT
 70
               1
  9
$CELWEIGHT
370
               0
  9
$ENDCAPS
280
               0
  9
$JOINSTYLE
280
               0
  9
$LWDISPLAY
290
               1
  9
$INSUNITS
 70
               4
  9
$HYPERLINKBASE
  1

  9
$STYLESHEET
  1

  9
$XEDIT
290
               1
  9
$CEPSNTYPE
380
               0
  9
$PSTYLEMODE
290
               1
  9
$FINGERPRINTGUID
  2

  9
$VERSIONGUID
  2

  9
$EXTNAMES
290
               1
  9
$PSVPSCALE
 40
0.0
  0
ENDSEC
  0
SECTION
  2
CLASSES
  0
CLASS
  1
LWPOLYLINE
  2
AcDbPolyline
  3
AutoCAD 2000
 90
        0
280
               0
281
               1
  0
CLASS
  1
IMAGE
  2
AcDbRasterImage
  3
ISM
 90
      127
280
               0
281
               1
  0
CLASS
  1
OLE2FRAME
  2
AcDbOle2Frame
  3
AutoCAD 2000
 90
        0
280
               0
281
               1
  0
CLASS
  1
HATCH
  2
AcDbHatch
  3
AutoCAD 2000
 90
        0
280
               0
281
               1
  0
CLASS
  1
DICTIONARYVAR
  2
AcDbDictionaryVar
  3
AutoCAD 2000
 90
        0
280
               0
281
               0
  0
CLASS
  1
RASTERVARIABLES
  2
AcDbRasterVariables
  3
ISM
 90
        0
280
               0
281
               0
  0
CLASS
  1
IMAGEDEF
  2
AcDbRasterImageDef
  3
ISM
 90
        0
280
               0
281
               0
  0
CLASS
  1
IMAGEDEF_REACTOR
  2
AcDbRasterImageDefReactor
  3
ISM
 90
        1
280
               0
281
               0
  0
CLASS
  1
IDBUFFER
  2
AcDbIdBuffer
  3
AutoCAD 2000
 90
        0
280
               0
281
               0
  0
CLASS
  1
SPATIAL_FILTER
  2
AcDbSpatialFilter
  3
AutoCAD 2000
 90
        0
280
               0
281
               0
  0
CLASS
  1
XRECORD
  2
AcDbXrecord
  3
AutoCAD 2000
 90
        0
280
               0
281
               0
  0
CLASS
  1
SORTENTSTABLE
  2
AcDbSortentsTable
  3
AutoCAD 2000
 90
        0
280
               0
281
               0
  0
CLASS
  1
LAYER_INDEX
  2
AcDbLayerIndex
  3
AutoCAD 2000
 90
        0
280
               0
281
               0
  0
CLASS
  1
SPATIAL_INDEX
  2
AcDbSpatialIndex
  3
AutoCAD 2000
 90
        0
280
               0
281
               0
  0
CLASS
  1
OBJECT_PTR
  2
CAseDLPNTableRecord
  3
"ASE-LPNTableRecord"
 90
        1
280
               0
281
               0
  0
CLASS
  1
LAYOUT
  2
AcDbLayout
  3
AutoCAD 2000
 90
        0
280
               0
281
               0
  0
CLASS
  1
PLOTSETTINGS
  2
AcDbPlotSettings
  3
AutoCAD 2000
 90
        0
280
               0
281
               0
  0
CLASS
  1
ACDBDICTIONARYWDFLT
  2
AcDbDictionaryWithDefault
  3
AutoCAD 2000
 90
        0
280
               0
281
               0
  0
CLASS
  1
ACDBPLACEHOLDER
  2
AcDbPlaceHolder
  3
AutoCAD 2000
 90
        0
280
               0
281
               0
  0
ENDSEC
  0
SECTION
  2
TABLES
  0
TABLE
  2
VPORT
  5
7
100
AcDbSymbolTable
 70
               1
  0
VPORT
  5
15
100
AcDbSymbolTableRecord
100
AcDbViewportTableRecord
  2
*ACTIVE
 70
               0
 10
0.0
 20
0.0
 11
1.0
 21
1.0
 12
0.0000000000001137
 22
-12.764114914906713
 13
0.0
 23
0.0
 14
1.0
 24
1.0
 15
0.0
 25
0.0
 16
0.0
 26
0.0
 36
1.0
 17
0.0
 27
0.0
 37
0.0
 40
2837.5228151124129
 41
0.688564
 42
50.0
 43
0.0
 44
0.0
 50
0.0
 51
0.0
 71
               0
 72
            2000
 73
               1
 74
               1
 75
               0
 76
               0
 77
               0
 78
               0
281
               0
 65
               0
110
0.0
120
0.0
130
0.0
111
1.0
121
0.0
131
0.0
112
0.0
122
1.0
132
0.0
345
0
346
0
 79
               0
146
0.0
  0
ENDTAB
  0
TABLE
  2
LTYPE
  5
4
100
AcDbSymbolTable
 70
              29
  0
LTYPE
  5
11
100
AcDbSymbolTableRecord
100
AcDbLinetypeTableRecord
  2
ByBlock
 70
              64
  3

 72
              65
 73
               0
 40
0.0
  0
LTYPE
  5
12
100
AcDbSymbolTableRecord
100
AcDbLinetypeTableRecord
  2
ByLayer
 70
              64
  3

 72
              65
 73
               0
 40
0.0
  0
LTYPE
  5
13
100
AcDbSymbolTableRecord
100
AcDbLinetypeTableRecord
  2
Continuous
 70
              64
  3
Solid line
 72
              65
 73
               0
 40
0.0
  0
LTYPE
  5
35
100
AcDbSymbolTableRecord
100
AcDbLinetypeTableRecord
  2
STYLE_01
 70
               0
  3

 72
              65
 73
               4
 40
1.6873451946420586
 49
1.1248968188570609
 74
               0
 49
-0.1874827919283326
 74
               0
 49
0.1874827919283326
 74
               0
 49
-0.1874827919283326
 74
               0
  0
LTYPE
  5
36
100
AcDbSymbolTableRecord
100
AcDbLinetypeTableRecord
  2
STYLE_02
 70
               0
  3

 72
              65
 73
               4
 40
1.6873451946420586
 49
1.1248968188570609
 74
               0
 49
-0.1874827919283326
 74
               0
 49
0.1874827919283326
 74
               0
 49
-0.1874827919283326
 74
               0
  0
LTYPE
  5
37
100
AcDbSymbolTableRecord
100
AcDbLinetypeTableRecord
  2
STYLE_03
 70
               0
  3

 72
              65
 73
               4
 40
1.6873451946420586
 49
1.1248968188570609
 74
               0
 49
-0.1874827919283326
 74
               0
 49
0.1874827919283326
 74
               0
 49
-0.1874827919283326
 74
               0
  0
LTYPE
  5
38
100
AcDbSymbolTableRecord
100
AcDbLinetypeTableRecord
  2
STYLE_04
 70
               0
  3

 72
              65
 73
               4
 40
1.6873451946420586
 49
1.1248968188570609
 74
               0
 49
-0.1874827919283326
 74
               0
 49
0.1874827919283326
 74
               0
 49
-0.1874827919283326
 74
               0
  0
LTYPE
  5
39
100
AcDbSymbolTableRecord
100
AcDbLinetypeTableRecord
  2
STYLE_05
 70
               0
  3

 72
              65
 73
               4
 40
1.6873451946420586
 49
1.1248968188570609
 74
               0
 49
-0.1874827919283326
 74
               0
 49
0.1874827919283326
 74
               0
 49
-0.1874827919283326
 74
               0
  0
LTYPE
  5
3A
100
AcDbSymbolTableRecord
100
AcDbLinetypeTableRecord
  2
STYLE_06
 70
               0
  3

 72
              65
 73
               4
 40
1.6873451946420586
 49
1.1248968188570609
 74
               0
 49
-0.1874827919283326
 74
               0
 49
0.1874827919283326
 74
               0
 49
-0.1874827919283326
 74
               0
  0
LTYPE
  5
3B
100
AcDbSymbolTableRecord
100
AcDbLinetypeTableRecord
  2
STYLE_07
 70
               0
  3

 72
              65
 73
               4
 40
1.6873451946420586
 49
1.1248968188570609
 74
               0
 49
-0.1874827919283326
 74
               0
 49
0.1874827919283326
 74
               0
 49
-0.1874827919283326
 74
               0
  0
LTYPE
  5
3C
100
AcDbSymbolTableRecord
100
AcDbLinetypeTableRecord
  2
STYLE_08
 70
               0
  3

 72
              65
 73
               4
 40
1.6873451946420586
 49
1.1248968188570609
 74
               0
 49
-0.1874827919283326
 74
               0
 49
0.1874827919283326
 74
               0
 49
-0.1874827919283326
 74
               0
  0
LTYPE
  5
3D
100
AcDbSymbolTableRecord
100
AcDbLinetypeTableRecord
  2
STYLE_09
 70
               0
  3

 72
              65
 73
               6
 40
0.2952584999999999
 49
0.1968384999999999
 74
               0
 49
-0.019684
 74
               0
 49
0.019684
 74
               0
 49
-0.019684
 74
               0
 49
0.019684
 74
               0
 49
-0.019684
 74
               0
  0
LTYPE
  5
3E
100
AcDbSymbolTableRecord
100
AcDbLinetypeTableRecord
  2
STYLE_10
 70
               0
  3

 72
              65
 73
               4
 40
0.2706692913385827
 49
0.1919291338582677
 74
               0
 49
-0.0295275590551181
 74
               0
 49
0.0196850393700787
 74
               0
 49
-0.0295275590551181
 74
               0
  0
LTYPE
  5
3F
100
AcDbSymbolTableRecord
100
AcDbLinetypeTableRecord
  2
STYLE_11
 70
               0
  3

 72
              65
 73
               2
 40
0.1230314960629921
 49
0.093503937007874
 74
               0
 49
-0.0295275590551181
 74
               0
  0
LTYPE
  5
40
100
AcDbSymbolTableRecord
100
AcDbLinetypeTableRecord
  2
STYLE_12
 70
               0
  3

 72
              65
 73
               2
 40
0.9524999999999997
 49
0.6349999999999999
 74
               0
 49
-0.3174999999999999
 74
               0
  0
LTYPE
  5
41
100
AcDbSymbolTableRecord
100
AcDbLinetypeTableRecord
  2
STYLE_13
 70
               0
  3

 72
              65
 73
               6
 40
3.1749999999999998
 49
1.5874999999999999
 74
               0
 49
-0.3175
 74
               0
 49
0.3175
 74
               0
 49
-0.3175
 74
               0
 49
0.3175
 74
               0
 49
-0.3175
 74
               0
  0
LTYPE
  5
42
100
AcDbSymbolTableRecord
100
AcDbLinetypeTableRecord
  2
STYLE_14
 70
               0
  3

 72
              65
 73
               4
 40
5.0800000000000001
 49
3.1749999999999998
 74
               0
 49
-0.635
 74
               0
 49
0.635
 74
               0
 49
-0.635
 74
               0
  0
LTYPE
  5
43
100
AcDbSymbolTableRecord
100
AcDbLinetypeTableRecord
  2
STYLE_15
 70
               0
  3

 72
              65
 73
               2
 40
0.3005000000000001
 49
0.3
 74
               0
 49
-0.0005
 74
               0
  0
LTYPE
  5
44
100
AcDbSymbolTableRecord
100
AcDbLinetypeTableRecord
  2
STYLE_16
 70
               0
  3

 72
              65
 73
               2
 40
0.075
 49
0.05
 74
               0
 49
-0.025
 74
               0
  0
LTYPE
  5
45
100
AcDbSymbolTableRecord
100
AcDbLinetypeTableRecord
  2
STYLE_17
 70
               0
  3

 72
              65
 73
               2
 40
0.75
 49
0.6
 74
               0
 49
-0.15
 74
               0
  0
LTYPE
  5
46
100
AcDbSymbolTableRecord
100
AcDbLinetypeTableRecord
  2
STYLE_18
 70
               0
  3

 72
              65
 73
               4
 40
1.7999999999999998
 49
1.2
 74
               0
 49
-0.1500000000000001
 74
               0
 49
0.3
 74
               0
 49
-0.1499999999999999
 74
               0
  0
LTYPE
  5
47
100
AcDbSymbolTableRecord
100
AcDbLinetypeTableRecord
  2
STYLE_19
 70
               0
  3

 72
              65
 73
               6
 40
2.25
 49
1.2
 74
               0
 49
-0.1500000000000001
 74
               0
 49
0.3
 74
               0
 49
-0.1499999999999999
 74
               0
 49
0.3
 74
               0
 49
-0.1499999999999999
 74
               0
  0
LTYPE
  5
48
100
AcDbSymbolTableRecord
100
AcDbLinetypeTableRecord
  2
STYLE_20
 70
               0
  3

 72
              65
 73
               4
 40
0.8999999999999999
 49
0.6
 74
               0
 49
-0.0750000000000001
 74
               0
 49
0.15
 74
               0
 49
-0.0749999999999999
 74
               0
  0
LTYPE
  5
49
100
AcDbSymbolTableRecord
100
AcDbLinetypeTableRecord
  2
STYLE_21
 70
               0
  3

 72
              65
 73
               2
 40
0.375
 49
0.3
 74
               0
 49
-0.075
 74
               0
  0
LTYPE
  5
4A
100
AcDbSymbolTableRecord
100
AcDbLinetypeTableRecord
  2
STYLE_22
 70
               0
  3

 72
              65
 73
               2
 40
1.1000099999999999
 49
0.0005
 74
               0
 49
-1.09951
 74
               0
  0
LTYPE
  5
4B
100
AcDbSymbolTableRecord
100
AcDbLinetypeTableRecord
  2
STYLE_23
 70
               0
  3

 72
              65
 73
               2
 40
0.625
 49
0.475
 74
               0
 49
-0.15
 74
               0
  0
LTYPE
  5
4C
100
AcDbSymbolTableRecord
100
AcDbLinetypeTableRecord
  2
STYLE_24
 70
               0
  3

 72
              65
 73
               4
 40
1.375
 49
0.9750000000000002
 74
               0
 49
-0.15
 74
               0
 49
0.1
 74
               0
 49
-0.15
 74
               0
  0
LTYPE
  5
4D
100
AcDbSymbolTableRecord
100
AcDbLinetypeTableRecord
  2
STYLE_25
 70
               0
  3

 72
              65
 73
               2
 40
0.516732283464567
 49
0.344488188976378
 74
               0
 49
-0.172244094488189
 74
               0
  0
LTYPE
  5
4E
100
AcDbSymbolTableRecord
100
AcDbLinetypeTableRecord
  2
STYLE_26
 70
               0
  3

 72
              65
 73
               2
 40
0.3937007874015748
 49
0.1968503937007874
 74
               0
 49
-0.1968503937007874
 74
               0
  0
ENDTAB
  0
TABLE
  2
LAYER
  5
2
100
AcDbSymbolTable
 70
               5
  0
LAYER
  5
14
100
AcDbSymbolTableRecord
100
AcDbLayerTableRecord
  2
0
 70
               0
 62
               7
  6
Continuous
290
               1
370
              -3
390
1D
  0
LAYER
  5
4F
100
AcDbSymbolTableRecord
100
AcDbLayerTableRecord
  2
Defpoints
 70
               0
 62
               7
  6
Continuous
290
               0
370
              -3
390
1D
  0
LAYER
  5
50
100
AcDbSymbolTableRecord
100
AcDbLayerTableRecord
  2
template
 70
               0
 62
               7
  6
Continuous
290
               1
370
              -3
390
1D
  0
LAYER
  5
51
100
AcDbSymbolTableRecord
100
AcDbLayerTableRecord
  2
notes
 70
               0
 62
               7
  6
Continuous
290
               1
370
              -3
390
1D
  0
LAYER
  5
52
100
AcDbSymbolTableRecord
100
AcDbLayerTableRecord
  2
FAA70-2216
 70
               0
 62
               7
  6
Continuous
290
               1
370
              -3
390
1D
  0
ENDTAB
  0
TABLE
  2
STYLE
  5
3
100
AcDbSymbolTable
 70
               2
  0
STYLE
  5
17
100
AcDbSymbolTableRecord
100
AcDbTextStyleTableRecord
  2
Standard
 70
               0
 40
0.0
 41
1.0
 50
0.0
 71
               0
 42
0.0
  3
txt
  4
BIGFONT.SHX
  0
STYLE
  5
34
100
AcDbSymbolTableRecord
100
AcDbTextStyleTableRecord
  2
ＭＳ ゴシック
 70
               0
 40
0.0
 41
1.0
 50
0.0
 71
               0
 42
0.0
  3

  4
ＭＳ ゴシック
1001
ACAD
1000
ＭＳ ゴシック
1071
        0
  0
ENDTAB
  0
TABLE
  2
VIEW
  5
5
100
AcDbSymbolTable
 70
               0
  0
ENDTAB
  0
TABLE
  2
UCS
  5
6
100
AcDbSymbolTable
 70
               0
  0
ENDTAB
  0
TABLE
  2
APPID
  5
8
100
AcDbSymbolTable
 70
               1
  0
APPID
  5
16
100
AcDbSymbolTableRecord
100
AcDbRegAppTableRecord
  2
ACAD
 70
               0
  0
ENDTAB
  0
TABLE
  2
DIMSTYLE
  5
9
100
AcDbSymbolTable
 70
               3
100
AcDbDimStyleTable
 71
               0
  0
DIMSTYLE
105
18
100
AcDbSymbolTableRecord
100
AcDbDimStyleTableRecord
  2
Standard
 70
               0
  3

  4

 40
1.0
 41
0.18
 42
0.0625
 43
0.38
 44
0.18
 45
0.0
 46
0.0
 47
0.0
 48
0.0
 71
               0
 72
               0
 73
               1
 74
               1
 75
               0
 76
               0
 77
               0
 78
               0
 79
               0
140
0.18
141
0.09
142
0.0
143
25.399999999999999
144
1.0
145
0.0
146
1.0
147
0.09
148
0.0
170
               0
171
               2
172
               0
173
               0
174
               0
175
               0
176
               0
177
               0
178
               0
179
               0
271
               4
272
               4
273
               2
274
               2
275
               0
276
               0
277
               2
278
              46
279
               0
280
               0
281
               0
282
               0
283
               1
284
               0
285
               0
286
               0
288
               0
289
               3
340
17
341
0
342
0
343
0
344
0
371
              -2
372
              -2
  0
DIMSTYLE
105
5B
100
AcDbSymbolTableRecord
100
AcDbDimStyleTableRecord
  2
tfrom線あり
 70
               0
  3
<>
  4
[]
 40
1.0
 41
3.999755859375
 42
24.999999999999996
 43
0.9999999999999999
 44
0.0
 45
0.0
 46
0.0
 47
0.0
 48
0.0
 71
               0
 72
               0
 73
               0
 74
               0
 75
               0
 76
               0
 77
               1
 78
              11
 79
               0
140
24.432617187500004
141
0.0
142
0.0
143
1.0
144
1.0
145
0.0
146
1.0
147
0.4999999999999999
148
0.0
170
               0
171
               1
172
               0
173
               0
174
               1
175
               0
176
               0
177
               0
178
               0
179
               2
271
               1
272
               1
273
               2
274
               2
275
               0
276
               2
277
               2
278
              46
279
               0
280
               0
281
               0
282
               0
283
               1
284
              11
285
              11
286
              11
288
               0
289
               0
340
34
341
53
342
53
343
0
344
0
371
              -2
372
              -2
  0
DIMSTYLE
105
60
100
AcDbSymbolTableRecord
100
AcDbDimStyleTableRecord
  2
JIS
 70
               0
  3
<>
  4
[]
 40
1.0
 41
31.75
 42
0.0
 43
6.9999999999999396
 44
19.999999999996199
 45
0.0
 46
0.0
 47
0.0
 48
0.0
 71
               0
 72
               0
 73
               0
 74
               0
 75
               0
 76
               0
 77
               1
 78
              11
 79
               0
140
24.432617187500004
141
0.0
142
0.0
143
1.0
144
1.0
145
0.0
146
1.0
147
1.00000000000108
148
0.0
170
               0
171
               1
172
               0
173
               0
174
               1
175
               0
176
               0
177
               0
178
               0
179
               2
271
               1
272
               1
273
               2
274
               2
275
               0
276
               2
277
               2
278
              46
279
               0
280
               0
281
               0
282
               0
283
               1
284
              11
285
              11
286
              11
288
               0
289
               0
340
34
341
5C
342
5C
343
0
344
0
371
              -2
372
              -2
  0
ENDTAB
  0
TABLE
  2
BLOCK_RECORD
  5
1
100
AcDbSymbolTable
 70
              19
  0
BLOCK_RECORD
  5
A
100
AcDbSymbolTableRecord
100
AcDbBlockTableRecord
  2
*MODEL_SPACE
340
20
  0
BLOCK_RECORD
  5
B
100
AcDbSymbolTableRecord
100
AcDbBlockTableRecord
  2
*PAPER_SPACE
340
21
  0
BLOCK_RECORD
  5
53
100
AcDbSymbolTableRecord
100
AcDbBlockTableRecord
  2
_DOT
340
0
  0
BLOCK_RECORD
  5
5C
100
AcDbSymbolTableRecord
100
AcDbBlockTableRecord
  2
VW_FILLEDARROW
340
0
  0
BLOCK_RECORD
  5
23
100
AcDbSymbolTableRecord
100
AcDbBlockTableRecord
  2
*D2
340
0
  0
BLOCK_RECORD
  5
24
100
AcDbSymbolTableRecord
100
AcDbBlockTableRecord
  2
*D3
340
0
  0
BLOCK_RECORD
  5
25
100
AcDbSymbolTableRecord
100
AcDbBlockTableRecord
  2
*D4
340
0
  0
BLOCK_RECORD
  5
26
100
AcDbSymbolTableRecord
100
AcDbBlockTableRecord
  2
*D5
340
0
  0
BLOCK_RECORD
  5
27
100
AcDbSymbolTableRecord
100
AcDbBlockTableRecord
  2
*D6
340
0
  0
BLOCK_RECORD
  5
28
100
AcDbSymbolTableRecord
100
AcDbBlockTableRecord
  2
*D7
340
0
  0
BLOCK_RECORD
  5
29
100
AcDbSymbolTableRecord
100
AcDbBlockTableRecord
  2
*D8
340
0
  0
BLOCK_RECORD
  5
2A
100
AcDbSymbolTableRecord
100
AcDbBlockTableRecord
  2
*D9
340
0
  0
BLOCK_RECORD
  5
2B
100
AcDbSymbolTableRecord
100
AcDbBlockTableRecord
  2
*D10
340
0
  0
BLOCK_RECORD
  5
2C
100
AcDbSymbolTableRecord
100
AcDbBlockTableRecord
  2
*D11
340
0
  0
BLOCK_RECORD
  5
2D
100
AcDbSymbolTableRecord
100
AcDbBlockTableRecord
  2
*D12
340
0
  0
BLOCK_RECORD
  5
2E
100
AcDbSymbolTableRecord
100
AcDbBlockTableRecord
  2
*D13
340
0
  0
BLOCK_RECORD
  5
2F
100
AcDbSymbolTableRecord
100
AcDbBlockTableRecord
  2
*D14
340
0
  0
BLOCK_RECORD
  5
30
100
AcDbSymbolTableRecord
100
AcDbBlockTableRecord
  2
*D15
340
0
  0
BLOCK_RECORD
  5
31
100
AcDbSymbolTableRecord
100
AcDbBlockTableRecord
  2
*D16
340
0
  0
BLOCK_RECORD
  5
32
100
AcDbSymbolTableRecord
100
AcDbBlockTableRecord
  2
*D17
340
0
  0
BLOCK_RECORD
  5
33
100
AcDbSymbolTableRecord
100
AcDbBlockTableRecord
  2
*D18
340
0
  0
ENDTAB
  0
ENDSEC
  0
SECTION
  2
BLOCKS
  0
BLOCK
  5
D
100
AcDbEntity
  8
0
390
0
100
AcDbBlockBegin
  2
*MODEL_SPACE
 70
               0
 10
0.0
 20
0.0
 30
0.0
  3
*MODEL_SPACE
  1

  0
ENDBLK
  5
E
100
AcDbEntity
  8
0
390
0
100
AcDbBlockEnd
  0
BLOCK
  5
F
100
AcDbEntity
 67
               1
  8
0
390
0
100
AcDbBlockBegin
  2
*PAPER_SPACE
 70
               0
 10
0.0
 20
0.0
 30
0.0
  3
*PAPER_SPACE
  1

  0
ENDBLK
  5
10
100
AcDbEntity
 67
               1
  8
0
390
0
100
AcDbBlockEnd
  0
BLOCK
  5
54
100
AcDbEntity
  8
0
390
0
100
AcDbBlockBegin
  2
_DOT
 70
               0
 10
0.0
 20
0.0
 30
0.0
  3
_DOT
  1

  0
POLYLINE
  5
55
100
AcDbEntity
  8
0
370
              -2
390
0
  6
ByBlock
 62
               0
100
AcDb2dPolyline
 66
               1
 10
0.0
 20
0.0
 30
0.0
 70
               1
 40
0.5
 41
0.5
  0
VERTEX
  5
56
100
AcDbEntity
  8
0
370
              -2
390
0
  6
ByBlock
 62
               0
100
AcDbVertex
100
AcDb2dVertex
 10
-0.25
 20
0.0
 30
0.0
 42
1.0
  0
VERTEX
  5
57
100
AcDbEntity
  8
0
370
              -2
390
0
  6
ByBlock
 62
               0
100
AcDbVertex
100
AcDb2dVertex
 10
0.25
 20
0.0
 30
0.0
 42
1.0
  0
SEQEND
  5
58
100
AcDbEntity
  8
0
390
0
  0
LINE
  5
59
100
AcDbEntity
  8
0
370
              -2
390
0
  6
ByBlock
 62
               0
100
AcDbLine
 10
-0.5
 20
0.0
 30
0.0
 11
-1.0
 21
0.0
 31
0.0
  0
ENDBLK
  5
5A
100
AcDbEntity
  8
0
390
0
100
AcDbBlockEnd
  0
BLOCK
  5
5D
100
AcDbEntity
  8
0
370
              -2
390
0
  6
ByBlock
 62
               0
100
AcDbBlockBegin
  2
VW_FILLEDARROW
 70
               0
 10
0.0
 20
0.0
 30
0.0
  3
VW_FILLEDARROW
  1

  0
SOLID
  5
5E
100
AcDbEntity
  8
0
370
              -2
390
0
 62
               0
100
AcDbTrace
 10
0.0
 20
0.0
 30
0.0
 11
-0.9921874999999999
 21
-0.2658558393652545
 31
0.0
 12
-0.9921874999999999
 22
0.2658558393652548
 32
0.0
 13
-0.9921874999999999
 23
0.2658558393652548
 33
0.0
  0
ENDBLK
  5
5F
100
AcDbEntity
  8
0
390
0
100
AcDbBlockEnd
  0
BLOCK
  5
61
100
AcDbEntity
  8
FAA70-2216
390
0
100
AcDbBlockBegin
  2
*D2
 70
               1
 10
0.0
 20
0.0
 30
0.0
  3
*D2
  1

  0
LINE
  5
62
100
AcDbEntity
  8
0
370
              -2
390
0
  6
Continuous
 62
               0
100
AcDbLine
 10
-140.71510791911896
 20
860.00000000147782
 30
0.0
 11
-60.715107919118964
 21
860.00000000147782
 31
0.0
  0
LINE
  5
63
100
AcDbEntity
  8
0
370
              -2
390
0
  6
Continuous
 62
               0
100
AcDbLine
 10
-234.69196669045277
 20
400.00000000147782
 30
0.0
 11
-60.715107919118964
 21
400.00000000147782
 31
0.0
  0
LINE
  5
64
100
AcDbEntity
  8
0
370
              -2
390
0
  6
Continuous
 62
               0
100
AcDbLine
 10
-60.715107919118964
 20
860.00000000147782
 30
0.0
 11
-60.715107919118964
 21
400.00000000147782
 31
0.0
  0
CIRCLE
  5
65
102
{ACAD_REACTORS
330
66
102
}
100
AcDbEntity
  8
0
370
              -2
390
0
  6
Continuous
 62
               0
100
AcDbCircle
 10
-60.715107919118964
 20
860.00000000147782
 30
0.0
 40
1.9998779296875
  0
HATCH
  5
66
100
AcDbEntity
  8
0
370
              -2
390
0
  6
Continuous
 62
               0
100
AcDbHatch
 10
0.0
 20
0.0
 30
0.0
210
0.0
220
0.0
230
1.0
  2
SOLID
 70
               1
 71
               1
 91
        1
 92
        1
 93
        1
 72
               2
 10
-60.715107919118964
 20
860.00000000147782
 40
1.9998779296875
 50
0.0
 51
360.0
 73
               0
 97
        1
330
65
 75
               0
 76
               1
 98
        1
 10
0.0
 20
0.0
  0
CIRCLE
  5
67
102
{ACAD_REACTORS
330
68
102
}
100
AcDbEntity
  8
0
370
              -2
390
0
  6
Continuous
 62
               0
100
AcDbCircle
 10
-60.715107919118964
 20
400.00000000147782
 30
0.0
 40
1.9998779296875
  0
HATCH
  5
68
100
AcDbEntity
  8
0
370
              -2
390
0
  6
Continuous
 62
               0
100
AcDbHatch
 10
0.0
 20
0.0
 30
0.0
210
0.0
220
0.0
230
1.0
  2
SOLID
 70
               1
 71
               1
 91
        1
 92
        1
 93
        1
 72
               2
 10
-60.715107919118964
 20
400.00000000147782
 40
1.9998779296875
 50
0.0
 51
360.0
 73
               0
 97
        1
330
67
 75
               0
 76
               1
 98
        1
 10
0.0
 20
0.0
  0
MTEXT
  5
69
100
AcDbEntity
  8
0
390
0
 62
               0
100
AcDbMText
 10
-94.5927251066189
 20
606.18749831930234
 30
0.0
 40
24.432617187500004
 41
0.0
 71
               1
 72
               1
  1
460
  7
ＭＳ ゴシック
 11
0.0
 21
1.0
 31
0.0
 73
               1
 44
0.7828267384257843
  0
POINT
  5
6A
100
AcDbEntity
  8
Defpoints
370
               0
390
0
 62
               0
100
AcDbPoint
 10
-259.69196669045277
 20
400.00000000147782
 30
0.0
  0
POINT
  5
6B
100
AcDbEntity
  8
Defpoints
370
               0
390
0
 62
               0
100
AcDbPoint
 10
-165.71510791911896
 20
860.00000000147782
 30
0.0
  0
POINT
  5
6C
100
AcDbEntity
  8
Defpoints
370
               0
390
0
 62
               0
100
AcDbPoint
 10
-60.715107919118964
 20
860.00000000147782
 30
0.0
  0
ENDBLK
  5
6D
100
AcDbEntity
  8
FAA70-2216
390
0
100
AcDbBlockEnd
  0
BLOCK
  5
6E
100
AcDbEntity
  8
FAA70-2216
390
0
100
AcDbBlockBegin
  2
*D3
 70
               1
 10
0.0
 20
0.0
 30
0.0
  3
*D3
  1

  0
LINE
  5
6F
100
AcDbEntity
  8
0
370
              -2
390
0
  6
Continuous
 62
               0
100
AcDbLine
 10
-160.71510791911874
 20
880.00000000147736
 30
0.0
 11
-160.71510791911874
 21
1009.6000000014774
 31
0.0
  0
LINE
  5
70
100
AcDbEntity
  8
0
370
              -2
390
0
  6
Continuous
 62
               0
100
AcDbLine
 10
-720.71510791911896
 20
880.00000000147736
 30
0.0
 11
-720.71510791911896
 21
1009.6000000014774
 31
0.0
  0
LINE
  5
71
100
AcDbEntity
  8
0
370
              -2
390
0
  6
Continuous
 62
               0
100
AcDbLine
 10
-160.71510791911874
 20
1009.6000000014774
 30
0.0
 11
-720.71510791911896
 21
1009.6000000014774
 31
0.0
  0
CIRCLE
  5
72
102
{ACAD_REACTORS
330
73
102
}
100
AcDbEntity
  8
0
370
              -2
390
0
  6
Continuous
 62
               0
100
AcDbCircle
 10
-160.71510791911874
 20
1009.6000000014774
 30
0.0
 40
1.9998779296875
  0
HATCH
  5
73
100
AcDbEntity
  8
0
370
              -2
390
0
  6
Continuous
 62
               0
100
AcDbHatch
 10
0.0
 20
0.0
 30
0.0
210
0.0
220
0.0
230
1.0
  2
SOLID
 70
               1
 71
               1
 91
        1
 92
        1
 93
        1
 72
               2
 10
-160.71510791911874
 20
1009.6000000014774
 40
1.9998779296875
 50
0.0
 51
360.0
 73
               0
 97
        1
330
72
 75
               0
 76
               1
 98
        1
 10
0.0
 20
0.0
  0
CIRCLE
  5
74
102
{ACAD_REACTORS
330
75
102
}
100
AcDbEntity
  8
0
370
              -2
390
0
  6
Continuous
 62
               0
100
AcDbCircle
 10
-720.71510791911896
 20
1009.6000000014774
 30
0.0
 40
1.9998779296875
  0
HATCH
  5
75
100
AcDbEntity
  8
0
370
              -2
390
0
  6
Continuous
 62
               0
100
AcDbHatch
 10
0.0
 20
0.0
 30
0.0
210
0.0
220
0.0
230
1.0
  2
SOLID
 70
               1
 71
               1
 91
        1
 92
        1
 93
        1
 72
               2
 10
-720.71510791911896
 20
1009.6000000014774
 40
1.9998779296875
 50
0.0
 51
360.0
 73
               0
 97
        1
330
74
 75
               0
 76
               1
 98
        1
 10
0.0
 20
0.0
  0
MTEXT
  5
76
100
AcDbEntity
  8
0
390
0
 62
               0
100
AcDbMText
 10
-464.52760960129444
 20
1043.4776171889773
 30
0.0
 40
24.432617187500004
 41
0.0
 71
               1
 72
               1
  1
560
  7
ＭＳ ゴシック
 73
               1
 44
0.7828267384257843
  0
POINT
  5
77
100
AcDbEntity
  8
Defpoints
370
               0
390
0
 62
               0
100
AcDbPoint
 10
-720.71510791911896
 20
855.00000000147736
 30
0.0
  0
POINT
  5
78
100
AcDbEntity
  8
Defpoints
370
               0
390
0
 62
               0
100
AcDbPoint
 10
-160.71510791911874
 20
855.00000000147736
 30
0.0
  0
POINT
  5
79
100
AcDbEntity
  8
Defpoints
370
               0
390
0
 62
               0
100
AcDbPoint
 10
-160.71510791911874
 20
1009.6000000014774
 30
0.0
  0
ENDBLK
  5
7A
100
AcDbEntity
  8
FAA70-2216
390
0
100
AcDbBlockEnd
  0
BLOCK
  5
7B
100
AcDbEntity
  8
FAA70-2216
390
0
100
AcDbBlockBegin
  2
*D4
 70
               1
 10
0.0
 20
0.0
 30
0.0
  3
*D4
  1

  0
LINE
  5
7C
100
AcDbEntity
  8
0
370
              -2
390
0
  6
Continuous
 62
               0
100
AcDbLine
 10
-147.71510791911942
 20
-355.92219788207649
 30
0.0
 11
-59.0
 21
-355.92219788207649
 31
0.0
  0
LINE
  5
7D
100
AcDbEntity
  8
0
370
              -2
390
0
  6
Continuous
 62
               0
100
AcDbLine
 10
-378.62344430421035
 20
-565.92219788207649
 30
0.0
 11
-59.0
 21
-565.92219788207649
 31
0.0
  0
LINE
  5
7E
100
AcDbEntity
  8
0
370
              -2
390
0
  6
Continuous
 62
               0
100
AcDbLine
 10
-59.0
 20
-355.92219788207649
 30
0.0
 11
-59.0
 21
-565.92219788207649
 31
0.0
  0
CIRCLE
  5
7F
102
{ACAD_REACTORS
330
80
102
}
100
AcDbEntity
  8
0
370
              -2
390
0
  6
Continuous
 62
               0
100
AcDbCircle
 10
-59.0
 20
-355.92219788207649
 30
0.0
 40
1.9998779296875
  0
HATCH
  5
80
100
AcDbEntity
  8
0
370
              -2
390
0
  6
Continuous
 62
               0
100
AcDbHatch
 10
0.0
 20
0.0
 30
0.0
210
0.0
220
0.0
230
1.0
  2
SOLID
 70
               1
 71
               1
 91
        1
 92
        1
 93
        1
 72
               2
 10
-59.0
 20
-355.92219788207649
 40
1.9998779296875
 50
0.0
 51
360.0
 73
               0
 97
        1
330
7F
 75
               0
 76
               1
 98
        1
 10
0.0
 20
0.0
  0
CIRCLE
  5
81
102
{ACAD_REACTORS
330
82
102
}
100
AcDbEntity
  8
0
370
              -2
390
0
  6
Continuous
 62
               0
100
AcDbCircle
 10
-59.0
 20
-565.92219788207649
 30
0.0
 40
1.9998779296875
  0
HATCH
  5
82
100
AcDbEntity
  8
0
370
              -2
390
0
  6
Continuous
 62
               0
100
AcDbHatch
 10
0.0
 20
0.0
 30
0.0
210
0.0
220
0.0
230
1.0
  2
SOLID
 70
               1
 71
               1
 91
        1
 92
        1
 93
        1
 72
               2
 10
-59.0
 20
-565.92219788207649
 40
1.9998779296875
 50
0.0
 51
360.0
 73
               0
 97
        1
330
81
 75
               0
 76
               1
 98
        1
 10
0.0
 20
0.0
  0
MTEXT
  5
83
100
AcDbEntity
  8
0
390
0
 62
               0
100
AcDbMText
 10
-92.877617187499936
 20
-472.44980748337139
 30
0.0
 40
24.432617187500004
 41
0.0
 71
               1
 72
               1
  1
210
  7
ＭＳ ゴシック
 11
0.0
 21
1.0
 31
0.0
 73
               1
 44
0.7828267384257843
  0
POINT
  5
84
100
AcDbEntity
  8
Defpoints
370
               0
390
0
 62
               0
100
AcDbPoint
 10
-403.62344430421035
 20
-565.92219788207649
 30
0.0
  0
POINT
  5
85
100
AcDbEntity
  8
Defpoints
370
               0
390
0
 62
               0
100
AcDbPoint
 10
-172.71510791911942
 20
-355.92219788207649
 30
0.0
  0
POINT
  5
86
100
AcDbEntity
  8
Defpoints
370
               0
390
0
 62
               0
100
AcDbPoint
 10
-59.0
 20
-355.92219788207649
 30
0.0
  0
ENDBLK
  5
87
100
AcDbEntity
  8
FAA70-2216
390
0
100
AcDbBlockEnd
  0
BLOCK
  5
88
100
AcDbEntity
  8
FAA70-2216
390
0
100
AcDbBlockBegin
  2
*D5
 70
               1
 10
0.0
 20
0.0
 30
0.0
  3
*D5
  1

  0
LINE
  5
89
100
AcDbEntity
  8
0
370
              -2
390
0
  6
Continuous
 62
               0
100
AcDbLine
 10
536.98276122857237
 20
-370.95061710770892
 30
0.0
 11
536.98276122857237
 21
-213.125
 31
0.0
  0
LINE
  5
8A
100
AcDbEntity
  8
0
370
              -2
390
0
  6
Continuous
 62
               0
100
AcDbLine
 10
536.98276122857237
 20
-515.95061710770892
 30
0.0
 11
536.98276122857237
 21
-370.95061710770892
 31
0.0
  0
CIRCLE
  5
8B
102
{ACAD_REACTORS
330
8C
102
}
100
AcDbEntity
  8
0
370
              -2
390
0
  6
Continuous
 62
               0
100
AcDbCircle
 10
536.98276122857237
 20
-515.95061710770892
 30
0.0
 40
1.9998779296875
  0
HATCH
  5
8C
100
AcDbEntity
  8
0
370
              -2
390
0
  6
Continuous
 62
               0
100
AcDbHatch
 10
0.0
 20
0.0
 30
0.0
210
0.0
220
0.0
230
1.0
  2
SOLID
 70
               1
 71
               1
 91
        1
 92
        1
 93
        1
 72
               2
 10
536.98276122857237
 20
-515.95061710770892
 40
1.9998779296875
 50
0.0
 51
360.0
 73
               0
 97
        1
330
8B
 75
               0
 76
               1
 98
        1
 10
0.0
 20
0.0
  0
CIRCLE
  5
8D
102
{ACAD_REACTORS
330
8E
102
}
100
AcDbEntity
  8
0
370
              -2
390
0
  6
Continuous
 62
               0
100
AcDbCircle
 10
536.98276122857237
 20
-370.95061710770892
 30
0.0
 40
1.9998779296875
  0
HATCH
  5
8E
100
AcDbEntity
  8
0
370
              -2
390
0
  6
Continuous
 62
               0
100
AcDbHatch
 10
0.0
 20
0.0
 30
0.0
210
0.0
220
0.0
230
1.0
  2
SOLID
 70
               1
 71
               1
 91
        1
 92
        1
 93
        1
 72
               2
 10
536.98276122857237
 20
-370.95061710770892
 40
1.9998779296875
 50
0.0
 51
360.0
 73
               0
 97
        1
330
8D
 75
               0
 76
               1
 98
        1
 10
0.0
 20
0.0
  0
MTEXT
  5
8F
100
AcDbEntity
  8
0
390
0
 62
               0
100
AcDbMText
 10
503.10514404107244
 20
-356.0
 30
0.0
 40
24.432617187500004
 41
0.0
 71
               1
 72
               1
  1
145(深さ)
  7
ＭＳ ゴシック
 11
0.0
 21
1.0
 31
0.0
 73
               1
 44
0.7828267384257843
  0
POINT
  5
90
100
AcDbEntity
  8
Defpoints
370
               0
390
0
 62
               0
100
AcDbPoint
 10
561.98276122857237
 20
-370.95061710770892
 30
0.0
  0
POINT
  5
91
100
AcDbEntity
  8
Defpoints
370
               0
390
0
 62
               0
100
AcDbPoint
 10
561.98276122857237
 20
-515.95061710770892
 30
0.0
  0
POINT
  5
92
100
AcDbEntity
  8
Defpoints
370
               0
390
0
 62
               0
100
AcDbPoint
 10
536.98276122857237
 20
-515.95061710770892
 30
0.0
  0
ENDBLK
  5
93
100
AcDbEntity
  8
FAA70-2216
390
0
100
AcDbBlockEnd
  0
BLOCK
  5
94
100
AcDbEntity
  8
FAA70-2216
390
0
100
AcDbBlockBegin
  2
*D6
 70
               1
 10
0.0
 20
0.0
 30
0.0
  3
*D6
  1

  0
LINE
  5
95
100
AcDbEntity
  8
0
370
              -2
390
0
  6
Continuous
 62
               0
100
AcDbLine
 10
-683.21510791911896
 20
382.66064112311994
 30
0.0
 11
-683.21510791911896
 21
294.43958954171046
 31
0.0
  0
LINE
  5
96
100
AcDbEntity
  8
0
370
              -2
390
0
  6
Continuous
 62
               0
100
AcDbLine
 10
-198.21510791911896
 20
382.66064112312029
 30
0.0
 11
-198.21510791911896
 21
294.43958954171046
 31
0.0
  0
LINE
  5
97
100
AcDbEntity
  8
0
370
              -2
390
0
  6
Continuous
 62
               0
100
AcDbLine
 10
-683.21510791911896
 20
294.43958954171046
 30
0.0
 11
-198.21510791911896
 21
294.43958954171046
 31
0.0
  0
CIRCLE
  5
98
102
{ACAD_REACTORS
330
99
102
}
100
AcDbEntity
  8
0
370
              -2
390
0
  6
Continuous
 62
               0
100
AcDbCircle
 10
-683.21510791911896
 20
294.43958954171046
 30
0.0
 40
1.9998779296875
  0
HATCH
  5
99
100
AcDbEntity
  8
0
370
              -2
390
0
  6
Continuous
 62
               0
100
AcDbHatch
 10
0.0
 20
0.0
 30
0.0
210
0.0
220
0.0
230
1.0
  2
SOLID
 70
               1
 71
               1
 91
        1
 92
        1
 93
        1
 72
               2
 10
-683.21510791911896
 20
294.43958954171046
 40
1.9998779296875
 50
0.0
 51
360.0
 73
               0
 97
        1
330
98
 75
               0
 76
               1
 98
        1
 10
0.0
 20
0.0
  0
CIRCLE
  5
9A
102
{ACAD_REACTORS
330
9B
102
}
100
AcDbEntity
  8
0
370
              -2
390
0
  6
Continuous
 62
               0
100
AcDbCircle
 10
-198.21510791911896
 20
294.43958954171046
 30
0.0
 40
1.9998779296875
  0
HATCH
  5
9B
100
AcDbEntity
  8
0
370
              -2
390
0
  6
Continuous
 62
               0
100
AcDbHatch
 10
0.0
 20
0.0
 30
0.0
210
0.0
220
0.0
230
1.0
  2
SOLID
 70
               1
 71
               1
 91
        1
 92
        1
 93
        1
 72
               2
 10
-198.21510791911896
 20
294.43958954171046
 40
1.9998779296875
 50
0.0
 51
360.0
 73
               0
 97
        1
330
9A
 75
               0
 76
               1
 98
        1
 10
0.0
 20
0.0
  0
MTEXT
  5
9C
100
AcDbEntity
  8
0
390
0
 62
               0
100
AcDbMText
 10
-464.52760960129444
 20
328.31720672921051
 30
0.0
 40
24.432617187500004
 41
0.0
 71
               1
 72
               1
  1
485
  7
ＭＳ ゴシック
 73
               1
 44
0.7828267384257843
  0
POINT
  5
9D
100
AcDbEntity
  8
Defpoints
370
               0
390
0
 62
               0
100
AcDbPoint
 10
-198.21510791911896
 20
407.66064112312029
 30
0.0
  0
POINT
  5
9E
100
AcDbEntity
  8
Defpoints
370
               0
390
0
 62
               0
100
AcDbPoint
 10
-683.21510791911896
 20
407.66064112311994
 30
0.0
  0
POINT
  5
9F
100
AcDbEntity
  8
Defpoints
370
               0
390
0
 62
               0
100
AcDbPoint
 10
-683.21510791911896
 20
294.43958954171046
 30
0.0
  0
ENDBLK
  5
A0
100
AcDbEntity
  8
FAA70-2216
390
0
100
AcDbBlockEnd
  0
BLOCK
  5
A1
100
AcDbEntity
  8
FAA70-2216
390
0
100
AcDbBlockBegin
  2
*D7
 70
               1
 10
0.0
 20
0.0
 30
0.0
  3
*D7
  1

  0
LINE
  5
A2
100
AcDbEntity
  8
0
370
              -2
390
0
  6
Continuous
 62
               0
100
AcDbLine
 10
-740.71510791911896
 20
860.00000000147782
 30
0.0
 11
-820.71510791911896
 21
860.00000000147782
 31
0.0
  0
LINE
  5
A3
100
AcDbEntity
  8
0
370
              -2
390
0
  6
Continuous
 62
               0
100
AcDbLine
 10
-745.71510791911896
 20
710.00000000147782
 30
0.0
 11
-820.71510791911896
 21
710.00000000147782
 31
0.0
  0
LINE
  5
A4
100
AcDbEntity
  8
0
370
              -2
390
0
  6
Continuous
 62
               0
100
AcDbLine
 10
-820.71510791911896
 20
860.00000000147782
 30
0.0
 11
-820.71510791911896
 21
710.00000000147782
 31
0.0
  0
CIRCLE
  5
A5
102
{ACAD_REACTORS
330
A6
102
}
100
AcDbEntity
  8
0
370
              -2
390
0
  6
Continuous
 62
               0
100
AcDbCircle
 10
-820.71510791911896
 20
860.00000000147782
 30
0.0
 40
1.9998779296875
  0
HATCH
  5
A6
100
AcDbEntity
  8
0
370
              -2
390
0
  6
Continuous
 62
               0
100
AcDbHatch
 10
0.0
 20
0.0
 30
0.0
210
0.0
220
0.0
230
1.0
  2
SOLID
 70
               1
 71
               1
 91
        1
 92
        1
 93
        1
 72
               2
 10
-820.71510791911896
 20
860.00000000147782
 40
1.9998779296875
 50
0.0
 51
360.0
 73
               0
 97
        1
330
A5
 75
               0
 76
               1
 98
        1
 10
0.0
 20
0.0
  0
CIRCLE
  5
A7
102
{ACAD_REACTORS
330
A8
102
}
100
AcDbEntity
  8
0
370
              -2
390
0
  6
Continuous
 62
               0
100
AcDbCircle
 10
-820.71510791911896
 20
710.00000000147782
 30
0.0
 40
1.9998779296875
  0
HATCH
  5
A8
100
AcDbEntity
  8
0
370
              -2
390
0
  6
Continuous
 62
               0
100
AcDbHatch
 10
0.0
 20
0.0
 30
0.0
210
0.0
220
0.0
230
1.0
  2
SOLID
 70
               1
 71
               1
 91
        1
 92
        1
 93
        1
 72
               2
 10
-820.71510791911896
 20
710.00000000147782
 40
1.9998779296875
 50
0.0
 51
360.0
 73
               0
 97
        1
330
A7
 75
               0
 76
               1
 98
        1
 10
0.0
 20
0.0
  0
MTEXT
  5
A9
100
AcDbEntity
  8
0
390
0
 62
               0
100
AcDbMText
 10
-854.59272510661913
 20
761.18749831930222
 30
0.0
 40
24.432617187500004
 41
0.0
 71
               1
 72
               1
  1
150
  7
ＭＳ ゴシック
 11
0.0
 21
1.0
 31
0.0
 73
               1
 44
0.7828267384257843
  0
POINT
  5
AA
100
AcDbEntity
  8
Defpoints
370
               0
390
0
 62
               0
100
AcDbPoint
 10
-720.71510791911896
 20
710.00000000147782
 30
0.0
  0
POINT
  5
AB
100
AcDbEntity
  8
Defpoints
370
               0
390
0
 62
               0
100
AcDbPoint
 10
-715.71510791911896
 20
860.00000000147782
 30
0.0
  0
POINT
  5
AC
100
AcDbEntity
  8
Defpoints
370
               0
390
0
 62
               0
100
AcDbPoint
 10
-820.71510791911896
 20
860.00000000147782
 30
0.0
  0
ENDBLK
  5
AD
100
AcDbEntity
  8
FAA70-2216
390
0
100
AcDbBlockEnd
  0
BLOCK
  5
AE
100
AcDbEntity
  8
FAA70-2216
390
0
100
AcDbBlockBegin
  2
*D8
 70
               1
 10
0.0
 20
0.0
 30
0.0
  3
*D8
  1

  0
LINE
  5
AF
100
AcDbEntity
  8
0
370
              -2
390
0
  6
Continuous
 62
               0
100
AcDbLine
 10
-745.71510791911896
 20
710.00000000147782
 30
0.0
 11
-820.71510791911896
 21
710.00000000147782
 31
0.0
  0
LINE
  5
B0
100
AcDbEntity
  8
0
370
              -2
390
0
  6
Continuous
 62
               0
100
AcDbLine
 10
-745.86068123420637
 20
435.00000000147782
 30
0.0
 11
-820.71510791911896
 21
435.00000000147782
 31
0.0
  0
LINE
  5
B1
100
AcDbEntity
  8
0
370
              -2
390
0
  6
Continuous
 62
               0
100
AcDbLine
 10
-820.71510791911896
 20
710.00000000147782
 30
0.0
 11
-820.71510791911896
 21
435.00000000147782
 31
0.0
  0
CIRCLE
  5
B2
102
{ACAD_REACTORS
330
B3
102
}
100
AcDbEntity
  8
0
370
              -2
390
0
  6
Continuous
 62
               0
100
AcDbCircle
 10
-820.71510791911896
 20
710.00000000147782
 30
0.0
 40
1.9998779296875
  0
HATCH
  5
B3
100
AcDbEntity
  8
0
370
              -2
390
0
  6
Continuous
 62
               0
100
AcDbHatch
 10
0.0
 20
0.0
 30
0.0
210
0.0
220
0.0
230
1.0
  2
SOLID
 70
               1
 71
               1
 91
        1
 92
        1
 93
        1
 72
               2
 10
-820.71510791911896
 20
710.00000000147782
 40
1.9998779296875
 50
0.0
 51
360.0
 73
               0
 97
        1
330
B2
 75
               0
 76
               1
 98
        1
 10
0.0
 20
0.0
  0
CIRCLE
  5
B4
102
{ACAD_REACTORS
330
B5
102
}
100
AcDbEntity
  8
0
370
              -2
390
0
  6
Continuous
 62
               0
100
AcDbCircle
 10
-820.71510791911896
 20
435.00000000147782
 30
0.0
 40
1.9998779296875
  0
HATCH
  5
B5
100
AcDbEntity
  8
0
370
              -2
390
0
  6
Continuous
 62
               0
100
AcDbHatch
 10
0.0
 20
0.0
 30
0.0
210
0.0
220
0.0
230
1.0
  2
SOLID
 70
               1
 71
               1
 91
        1
 92
        1
 93
        1
 72
               2
 10
-820.71510791911896
 20
435.00000000147782
 40
1.9998779296875
 50
0.0
 51
360.0
 73
               0
 97
        1
330
B4
 75
               0
 76
               1
 98
        1
 10
0.0
 20
0.0
  0
MTEXT
  5
B6
100
AcDbEntity
  8
0
390
0
 62
               0
100
AcDbMText
 10
-854.59272510661913
 20
548.68749831930234
 30
0.0
 40
24.432617187500004
 41
0.0
 71
               1
 72
               1
  1
275
  7
ＭＳ ゴシック
 11
0.0
 21
1.0
 31
0.0
 73
               1
 44
0.7828267384257843
  0
POINT
  5
B7
100
AcDbEntity
  8
Defpoints
370
               0
390
0
 62
               0
100
AcDbPoint
 10
-720.86068123420637
 20
435.00000000147782
 30
0.0
  0
POINT
  5
B8
100
AcDbEntity
  8
Defpoints
370
               0
390
0
 62
               0
100
AcDbPoint
 10
-720.71510791911896
 20
710.00000000147782
 30
0.0
  0
POINT
  5
B9
100
AcDbEntity
  8
Defpoints
370
               0
390
0
 62
               0
100
AcDbPoint
 10
-820.71510791911896
 20
710.00000000147782
 30
0.0
  0
ENDBLK
  5
BA
100
AcDbEntity
  8
FAA70-2216
390
0
100
AcDbBlockEnd
  0
BLOCK
  5
BB
100
AcDbEntity
  8
FAA70-2216
390
0
100
AcDbBlockBegin
  2
*D9
 70
               1
 10
0.0
 20
0.0
 30
0.0
  3
*D9
  1

  0
LINE
  5
BC
100
AcDbEntity
  8
0
370
              -2
390
0
  6
Continuous
 62
               0
100
AcDbLine
 10
-743.67712555014032
 20
435.00049092693905
 30
0.0
 11
-820.71510791911896
 21
435.00049092693905
 31
0.0
  0
LINE
  5
BD
100
AcDbEntity
  8
0
370
              -2
390
0
  6
Continuous
 62
               0
100
AcDbLine
 10
-652.69196669045277
 20
395.00048703519349
 30
0.0
 11
-820.71510791911896
 21
395.00048703519349
 31
0.0
  0
LINE
  5
BE
100
AcDbEntity
  8
0
370
              -2
390
0
  6
Continuous
 62
               0
100
AcDbLine
 10
-820.71510791911896
 20
435.00049092693905
 30
0.0
 11
-820.71510791911896
 21
395.00048703519349
 31
0.0
  0
CIRCLE
  5
BF
102
{ACAD_REACTORS
330
C0
102
}
100
AcDbEntity
  8
0
370
              -2
390
0
  6
Continuous
 62
               0
100
AcDbCircle
 10
-820.71510791911896
 20
435.00049092693905
 30
0.0
 40
1.9998779296875
  0
HATCH
  5
C0
100
AcDbEntity
  8
0
370
              -2
390
0
  6
Continuous
 62
               0
100
AcDbHatch
 10
0.0
 20
0.0
 30
0.0
210
0.0
220
0.0
230
1.0
  2
SOLID
 70
               1
 71
               1
 91
        1
 92
        1
 93
        1
 72
               2
 10
-820.71510791911896
 20
435.00049092693905
 40
1.9998779296875
 50
0.0
 51
360.0
 73
               0
 97
        1
330
BF
 75
               0
 76
               1
 98
        1
 10
0.0
 20
0.0
  0
CIRCLE
  5
C1
102
{ACAD_REACTORS
330
C2
102
}
100
AcDbEntity
  8
0
370
              -2
390
0
  6
Continuous
 62
               0
100
AcDbCircle
 10
-820.71510791911896
 20
395.00048703519349
 30
0.0
 40
1.9998779296875
  0
HATCH
  5
C2
100
AcDbEntity
  8
0
370
              -2
390
0
  6
Continuous
 62
               0
100
AcDbHatch
 10
0.0
 20
0.0
 30
0.0
210
0.0
220
0.0
230
1.0
  2
SOLID
 70
               1
 71
               1
 91
        1
 92
        1
 93
        1
 72
               2
 10
-820.71510791911896
 20
395.00048703519349
 40
1.9998779296875
 50
0.0
 51
360.0
 73
               0
 97
        1
330
C1
 75
               0
 76
               1
 98
        1
 10
0.0
 20
0.0
  0
MTEXT
  5
C3
100
AcDbEntity
  8
0
390
0
 62
               0
100
AcDbMText
 10
-854.59272510661913
 20
399.12548898106627
 30
0.0
 40
24.432617187500004
 41
0.0
 71
               1
 72
               1
  1
40
  7
ＭＳ ゴシック
 11
0.0
 21
1.0
 31
0.0
 73
               1
 44
0.7828267384257843
  0
POINT
  5
C4
100
AcDbEntity
  8
Defpoints
370
               0
390
0
 62
               0
100
AcDbPoint
 10
-627.69196669045277
 20
395.00048703519349
 30
0.0
  0
POINT
  5
C5
100
AcDbEntity
  8
Defpoints
370
               0
390
0
 62
               0
100
AcDbPoint
 10
-718.67712555014032
 20
435.00049092693905
 30
0.0
  0
POINT
  5
C6
100
AcDbEntity
  8
Defpoints
370
               0
390
0
 62
               0
100
AcDbPoint
 10
-820.71510791911896
 20
435.00049092693905
 30
0.0
  0
ENDBLK
  5
C7
100
AcDbEntity
  8
FAA70-2216
390
0
100
AcDbBlockEnd
  0
BLOCK
  5
C8
100
AcDbEntity
  8
FAA70-2216
390
0
100
AcDbBlockBegin
  2
*D10
 70
               1
 10
0.0
 20
0.0
 30
0.0
  3
*D10
  1

  0
LINE
  5
C9
100
AcDbEntity
  8
0
370
              -2
390
0
  6
Continuous
 62
               0
100
AcDbLine
 10
279.08721360041409
 20
-370.95061710770892
 30
0.0
 11
197.85289089455114
 21
-370.95061710770892
 31
0.0
  0
LINE
  5
CA
100
AcDbEntity
  8
0
370
              -2
390
0
  6
Continuous
 62
               0
100
AcDbLine
 10
271.99282723859278
 20
-390.9224304017448
 30
0.0
 11
197.85289089455114
 21
-390.9224304017448
 31
0.0
  0
LINE
  5
CB
100
AcDbEntity
  8
0
370
              -2
390
0
  6
Continuous
 62
               0
100
AcDbLine
 10
197.85289089455114
 20
-370.95061710770892
 30
0.0
 11
197.85289089455114
 21
-325.9598324180065
 31
0.0
  0
LINE
  5
CC
100
AcDbEntity
  8
0
370
              -2
390
0
  6
Continuous
 62
               0
100
AcDbLine
 10
197.85289089455114
 20
-370.95061710770892
 30
0.0
 11
197.85289089455114
 21
-390.9224304017448
 31
0.0
  0
CIRCLE
  5
CD
102
{ACAD_REACTORS
330
CE
102
}
100
AcDbEntity
  8
0
370
              -2
390
0
  6
Continuous
 62
               0
100
AcDbCircle
 10
197.85289089455114
 20
-370.95061710770892
 30
0.0
 40
1.9998779296875
  0
HATCH
  5
CE
100
AcDbEntity
  8
0
370
              -2
390
0
  6
Continuous
 62
               0
100
AcDbHatch
 10
0.0
 20
0.0
 30
0.0
210
0.0
220
0.0
230
1.0
  2
SOLID
 70
               1
 71
               1
 91
        1
 92
        1
 93
        1
 72
               2
 10
197.85289089455114
 20
-370.95061710770892
 40
1.9998779296875
 50
0.0
 51
360.0
 73
               0
 97
        1
330
CD
 75
               0
 76
               1
 98
        1
 10
0.0
 20
0.0
  0
CIRCLE
  5
CF
102
{ACAD_REACTORS
330
D0
102
}
100
AcDbEntity
  8
0
370
              -2
390
0
  6
Continuous
 62
               0
100
AcDbCircle
 10
197.85289089455114
 20
-390.9224304017448
 30
0.0
 40
1.9998779296875
  0
HATCH
  5
D0
100
AcDbEntity
  8
0
370
              -2
390
0
  6
Continuous
 62
               0
100
AcDbHatch
 10
0.0
 20
0.0
 30
0.0
210
0.0
220
0.0
230
1.0
  2
SOLID
 70
               1
 71
               1
 91
        1
 92
        1
 93
        1
 72
               2
 10
197.85289089455114
 20
-390.9224304017448
 40
1.9998779296875
 50
0.0
 51
360.0
 73
               0
 97
        1
330
CF
 75
               0
 76
               1
 98
        1
 10
0.0
 20
0.0
  0
MTEXT
  5
D1
100
AcDbEntity
  8
0
390
0
 62
               0
100
AcDbMText
 10
163.9752737070512
 20
-357.7098324180065
 30
0.0
 40
24.432617187500004
 41
0.0
 71
               1
 72
               1
  1
20
  7
ＭＳ ゴシック
 11
0.0
 21
1.0
 31
0.0
 73
               1
 44
0.7828267384257843
  0
POINT
  5
D2
100
AcDbEntity
  8
Defpoints
370
               0
390
0
 62
               0
100
AcDbPoint
 10
296.99282723859278
 20
-390.9224304017448
 30
0.0
  0
POINT
  5
D3
100
AcDbEntity
  8
Defpoints
370
               0
390
0
 62
               0
100
AcDbPoint
 10
304.08721360041409
 20
-370.95061710770892
 30
0.0
  0
POINT
  5
D4
100
AcDbEntity
  8
Defpoints
370
               0
390
0
 62
               0
100
AcDbPoint
 10
197.85289089455114
 20
-370.95061710770892
 30
0.0
  0
ENDBLK
  5
D5
100
AcDbEntity
  8
FAA70-2216
390
0
100
AcDbBlockEnd
  0
BLOCK
  5
D6
100
AcDbEntity
  8
FAA70-2216
390
0
100
AcDbBlockBegin
  2
*D11
 70
               1
 10
0.0
 20
0.0
 30
0.0
  3
*D11
  1

  0
LINE
  5
D7
100
AcDbEntity
  8
0
370
              -2
390
0
  6
Continuous
 62
               0
100
AcDbLine
 10
672.03149459203723
 20
-350.95061710770892
 30
0.0
 11
672.03149459203723
 21
-255.92219788207649
 31
0.0
  0
LINE
  5
D8
100
AcDbEntity
  8
0
370
              -2
390
0
  6
Continuous
 62
               0
100
AcDbLine
 10
762.03149459203723
 20
-335.71773610157788
 30
0.0
 11
762.03149459203723
 21
-255.92219788207649
 31
0.0
  0
LINE
  5
D9
100
AcDbEntity
  8
0
370
              -2
390
0
  6
Continuous
 62
               0
100
AcDbLine
 10
672.03149459203723
 20
-255.92219788207649
 30
0.0
 11
762.03149459203723
 21
-255.92219788207649
 31
0.0
  0
CIRCLE
  5
DA
102
{ACAD_REACTORS
330
DB
102
}
100
AcDbEntity
  8
0
370
              -2
390
0
  6
Continuous
 62
               0
100
AcDbCircle
 10
672.03149459203723
 20
-255.92219788207649
 30
0.0
 40
1.9998779296875
  0
HATCH
  5
DB
100
AcDbEntity
  8
0
370
              -2
390
0
  6
Continuous
 62
               0
100
AcDbHatch
 10
0.0
 20
0.0
 30
0.0
210
0.0
220
0.0
230
1.0
  2
SOLID
 70
               1
 71
               1
 91
        1
 92
        1
 93
        1
 72
               2
 10
672.03149459203723
 20
-255.92219788207649
 40
1.9998779296875
 50
0.0
 51
360.0
 73
               0
 97
        1
330
DA
 75
               0
 76
               1
 98
        1
 10
0.0
 20
0.0
  0
CIRCLE
  5
DC
102
{ACAD_REACTORS
330
DD
102
}
100
AcDbEntity
  8
0
370
              -2
390
0
  6
Continuous
 62
               0
100
AcDbCircle
 10
762.03149459203723
 20
-255.92219788207649
 30
0.0
 40
1.9998779296875
  0
HATCH
  5
DD
100
AcDbEntity
  8
0
370
              -2
390
0
  6
Continuous
 62
               0
100
AcDbHatch
 10
0.0
 20
0.0
 30
0.0
210
0.0
220
0.0
230
1.0
  2
SOLID
 70
               1
 71
               1
 91
        1
 92
        1
 93
        1
 72
               2
 10
762.03149459203723
 20
-255.92219788207649
 40
1.9998779296875
 50
0.0
 51
360.0
 73
               0
 97
        1
330
DC
 75
               0
 76
               1
 98
        1
 10
0.0
 20
0.0
  0
MTEXT
  5
DE
100
AcDbEntity
  8
0
390
0
 62
               0
100
AcDbMText
 10
701.15649459203723
 20
-222.04458069457655
 30
0.0
 40
24.432617187500004
 41
0.0
 71
               1
 72
               1
  1
90
  7
ＭＳ ゴシック
 73
               1
 44
0.7828267384257843
  0
POINT
  5
DF
100
AcDbEntity
  8
Defpoints
370
               0
390
0
 62
               0
100
AcDbPoint
 10
762.03149459203723
 20
-360.71773610157788
 30
0.0
  0
POINT
  5
E0
100
AcDbEntity
  8
Defpoints
370
               0
390
0
 62
               0
100
AcDbPoint
 10
672.03149459203723
 20
-375.95061710770892
 30
0.0
  0
POINT
  5
E1
100
AcDbEntity
  8
Defpoints
370
               0
390
0
 62
               0
100
AcDbPoint
 10
672.03149459203723
 20
-255.92219788207649
 30
0.0
  0
ENDBLK
  5
E2
100
AcDbEntity
  8
FAA70-2216
390
0
100
AcDbBlockEnd
  0
BLOCK
  5
E3
100
AcDbEntity
  8
FAA70-2216
390
0
100
AcDbBlockBegin
  2
*D12
 70
               1
 10
0.0
 20
0.0
 30
0.0
  3
*D12
  1

  0
LINE
  5
E4
100
AcDbEntity
  8
0
370
              -2
390
0
  6
Continuous
 62
               0
100
AcDbLine
 10
761.99683174394204
 20
-415.9224304017448
 30
0.0
 11
761.99683174394204
 21
-652.97404816469907
 31
0.0
  0
LINE
  5
E5
100
AcDbEntity
  8
0
370
              -2
390
0
  6
Continuous
 62
               0
100
AcDbLine
 10
551.99683174394204
 20
-577.97404816469907
 30
0.0
 11
551.99683174394204
 21
-652.97404816469907
 31
0.0
  0
LINE
  5
E6
100
AcDbEntity
  8
0
370
              -2
390
0
  6
Continuous
 62
               0
100
AcDbLine
 10
761.99683174394204
 20
-652.97404816469907
 30
0.0
 11
551.99683174394204
 21
-652.97404816469907
 31
0.0
  0
CIRCLE
  5
E7
102
{ACAD_REACTORS
330
E8
102
}
100
AcDbEntity
  8
0
370
              -2
390
0
  6
Continuous
 62
               0
100
AcDbCircle
 10
761.99683174394204
 20
-652.97404816469907
 30
0.0
 40
1.9998779296875
  0
HATCH
  5
E8
100
AcDbEntity
  8
0
370
              -2
390
0
  6
Continuous
 62
               0
100
AcDbHatch
 10
0.0
 20
0.0
 30
0.0
210
0.0
220
0.0
230
1.0
  2
SOLID
 70
               1
 71
               1
 91
        1
 92
        1
 93
        1
 72
               2
 10
761.99683174394204
 20
-652.97404816469907
 40
1.9998779296875
 50
0.0
 51
360.0
 73
               0
 97
        1
330
E7
 75
               0
 76
               1
 98
        1
 10
0.0
 20
0.0
  0
CIRCLE
  5
E9
102
{ACAD_REACTORS
330
EA
102
}
100
AcDbEntity
  8
0
370
              -2
390
0
  6
Continuous
 62
               0
100
AcDbCircle
 10
551.99683174394204
 20
-652.97404816469907
 30
0.0
 40
1.9998779296875
  0
HATCH
  5
EA
100
AcDbEntity
  8
0
370
              -2
390
0
  6
Continuous
 62
               0
100
AcDbHatch
 10
0.0
 20
0.0
 30
0.0
210
0.0
220
0.0
230
1.0
  2
SOLID
 70
               1
 71
               1
 91
        1
 92
        1
 93
        1
 72
               2
 10
551.99683174394204
 20
-652.97404816469907
 40
1.9998779296875
 50
0.0
 51
360.0
 73
               0
 97
        1
330
E9
 75
               0
 76
               1
 98
        1
 10
0.0
 20
0.0
  0
MTEXT
  5
EB
100
AcDbEntity
  8
0
390
0
 62
               0
100
AcDbMText
 10
633.18433006176656
 20
-619.09643097719913
 30
0.0
 40
24.432617187500004
 41
0.0
 71
               1
 72
               1
  1
210
  7
ＭＳ ゴシック
 73
               1
 44
0.7828267384257843
  0
POINT
  5
EC
100
AcDbEntity
  8
Defpoints
370
               0
390
0
 62
               0
100
AcDbPoint
 10
551.99683174394204
 20
-552.97404816469907
 30
0.0
  0
POINT
  5
ED
100
AcDbEntity
  8
Defpoints
370
               0
390
0
 62
               0
100
AcDbPoint
 10
761.99683174394204
 20
-390.9224304017448
 30
0.0
  0
POINT
  5
EE
100
AcDbEntity
  8
Defpoints
370
               0
390
0
 62
               0
100
AcDbPoint
 10
761.99683174394204
 20
-652.97404816469907
 30
0.0
  0
ENDBLK
  5
EF
100
AcDbEntity
  8
FAA70-2216
390
0
100
AcDbBlockEnd
  0
BLOCK
  5
F0
100
AcDbEntity
  8
FAA70-2216
390
0
100
AcDbBlockBegin
  2
*D13
 70
               1
 10
0.0
 20
0.0
 30
0.0
  3
*D13
  1

  0
LINE
  5
F1
100
AcDbEntity
  8
0
370
              -2
390
0
  6
Continuous
 62
               0
100
AcDbLine
 10
-431.46466829604833
 20
755.14471923065639
 30
0.0
 11
-370.69196669045368
 21
657.54983916670221
 31
0.0
  0
CIRCLE
  5
F2
102
{ACAD_REACTORS
330
F3
102
}
100
AcDbEntity
  8
0
370
              -2
390
0
  6
Continuous
 62
               0
100
AcDbCircle
 10
-431.46466829604833
 20
755.14471923065639
 30
0.0
 40
1.9998779296875
  0
HATCH
  5
F3
100
AcDbEntity
  8
0
370
              -2
390
0
  6
Continuous
 62
               0
100
AcDbHatch
 10
0.0
 20
0.0
 30
0.0
210
0.0
220
0.0
230
1.0
  2
SOLID
 70
               1
 71
               1
 91
        1
 92
        1
 93
        1
 72
               2
 10
-431.46466829604833
 20
755.14471923065639
 40
1.9998779296875
 50
0.0
 51
360.0
 73
               0
 97
        1
330
F2
 75
               0
 76
               1
 98
        1
 10
0.0
 20
0.0
  0
LINE
  5
F4
100
AcDbEntity
  8
0
370
              -2
390
0
  6
Continuous
 62
               0
100
AcDbLine
 10
-370.69196669045368
 20
657.54983916670221
 30
0.0
 11
-247.19196669045368
 21
657.54983916670221
 31
0.0
  0
MTEXT
  5
F5
100
AcDbEntity
  8
0
390
0
 62
               0
100
AcDbMText
 10
-310.69196669045368
 20
691.42745635420226
 30
0.0
 40
24.432617187500004
 41
0.0
 71
               1
 72
               1
  1
φ35
  7
ＭＳ ゴシック
 73
               1
 44
0.7828267384257843
  0
POINT
  5
F6
100
AcDbEntity
  8
Defpoints
370
               0
390
0
 62
               0
100
AcDbPoint
 10
-449.9655475421896
 20
784.85528077229833
 30
0.0
  0
POINT
  5
F7
100
AcDbEntity
  8
Defpoints
370
               0
390
0
 62
               0
100
AcDbPoint
 10
-431.46466829604833
 20
755.14471923065639
 30
0.0
  0
ENDBLK
  5
F8
100
AcDbEntity
  8
FAA70-2216
390
0
100
AcDbBlockEnd
  0
BLOCK
  5
F9
100
AcDbEntity
  8
FAA70-2216
390
0
100
AcDbBlockBegin
  2
*D14
 70
               1
 10
0.0
 20
0.0
 30
0.0
  3
*D14
  1

  0
LINE
  5
FA
100
AcDbEntity
  8
0
370
              -2
390
0
  6
Continuous
 62
               0
100
AcDbLine
 10
-540.71510791911896
 20
823.24032841676978
 30
0.0
 11
-540.71510791911896
 21
960.04032841676985
 31
0.0
  0
LINE
  5
FB
100
AcDbEntity
  8
0
370
              -2
390
0
  6
Continuous
 62
               0
100
AcDbLine
 10
-440.71510791911896
 20
823.24032841676978
 30
0.0
 11
-440.71510791911896
 21
960.04032841676985
 31
0.0
  0
LINE
  5
FC
100
AcDbEntity
  8
0
370
              -2
390
0
  6
Continuous
 62
               0
100
AcDbLine
 10
-540.71510791911896
 20
960.04032841676985
 30
0.0
 11
-440.71510791911896
 21
960.04032841676985
 31
0.0
  0
CIRCLE
  5
FD
102
{ACAD_REACTORS
330
FE
102
}
100
AcDbEntity
  8
0
370
              -2
390
0
  6
Continuous
 62
               0
100
AcDbCircle
 10
-540.71510791911896
 20
960.04032841676985
 30
0.0
 40
1.9998779296875
  0
HATCH
  5
FE
100
AcDbEntity
  8
0
370
              -2
390
0
  6
Continuous
 62
               0
100
AcDbHatch
 10
0.0
 20
0.0
 30
0.0
210
0.0
220
0.0
230
1.0
  2
SOLID
 70
               1
 71
               1
 91
        1
 92
        1
 93
        1
 72
               2
 10
-540.71510791911896
 20
960.04032841676985
 40
1.9998779296875
 50
0.0
 51
360.0
 73
               0
 97
        1
330
FD
 75
               0
 76
               1
 98
        1
 10
0.0
 20
0.0
  0
CIRCLE
  5
FF
102
{ACAD_REACTORS
330
100
102
}
100
AcDbEntity
  8
0
370
              -2
390
0
  6
Continuous
 62
               0
100
AcDbCircle
 10
-440.71510791911896
 20
960.04032841676985
 30
0.0
 40
1.9998779296875
  0
HATCH
  5
100
100
AcDbEntity
  8
0
370
              -2
390
0
  6
Continuous
 62
               0
100
AcDbHatch
 10
0.0
 20
0.0
 30
0.0
210
0.0
220
0.0
230
1.0
  2
SOLID
 70
               1
 71
               1
 91
        1
 92
        1
 93
        1
 72
               2
 10
-440.71510791911896
 20
960.04032841676985
 40
1.9998779296875
 50
0.0
 51
360.0
 73
               0
 97
        1
330
FF
 75
               0
 76
               1
 98
        1
 10
0.0
 20
0.0
  0
MTEXT
  5
101
100
AcDbEntity
  8
0
390
0
 62
               0
100
AcDbMText
 10
-514.52760960129444
 20
993.91794560426979
 30
0.0
 40
24.432617187500004
 41
0.0
 71
               1
 72
               1
  1
100
  7
ＭＳ ゴシック
 73
               1
 44
0.7828267384257843
  0
POINT
  5
102
100
AcDbEntity
  8
Defpoints
370
               0
390
0
 62
               0
100
AcDbPoint
 10
-440.71510791911896
 20
798.24032841676978
 30
0.0
  0
POINT
  5
103
100
AcDbEntity
  8
Defpoints
370
               0
390
0
 62
               0
100
AcDbPoint
 10
-540.71510791911896
 20
798.24032841676978
 30
0.0
  0
POINT
  5
104
100
AcDbEntity
  8
Defpoints
370
               0
390
0
 62
               0
100
AcDbPoint
 10
-540.71510791911896
 20
960.04032841676985
 30
0.0
  0
ENDBLK
  5
105
100
AcDbEntity
  8
FAA70-2216
390
0
100
AcDbBlockEnd
  0
BLOCK
  5
106
100
AcDbEntity
  8
FAA70-2216
390
0
100
AcDbBlockBegin
  2
*D15
 70
               1
 10
0.0
 20
0.0
 30
0.0
  3
*D15
  1

  0
LINE
  5
107
100
AcDbEntity
  8
0
370
              -2
390
0
  6
Continuous
 62
               0
100
AcDbLine
 10
-440.71510791911896
 20
823.24032841676978
 30
0.0
 11
-440.71510791911896
 21
960.04032841676985
 31
0.0
  0
LINE
  5
108
100
AcDbEntity
  8
0
370
              -2
390
0
  6
Continuous
 62
               0
100
AcDbLine
 10
-340.71510791911896
 20
823.24032841676978
 30
0.0
 11
-340.71510791911896
 21
960.04032841676985
 31
0.0
  0
LINE
  5
109
100
AcDbEntity
  8
0
370
              -2
390
0
  6
Continuous
 62
               0
100
AcDbLine
 10
-440.71510791911896
 20
960.04032841676985
 30
0.0
 11
-340.71510791911896
 21
960.04032841676985
 31
0.0
  0
CIRCLE
  5
10A
102
{ACAD_REACTORS
330
10B
102
}
100
AcDbEntity
  8
0
370
              -2
390
0
  6
Continuous
 62
               0
100
AcDbCircle
 10
-440.71510791911896
 20
960.04032841676985
 30
0.0
 40
1.9998779296875
  0
HATCH
  5
10B
100
AcDbEntity
  8
0
370
              -2
390
0
  6
Continuous
 62
               0
100
AcDbHatch
 10
0.0
 20
0.0
 30
0.0
210
0.0
220
0.0
230
1.0
  2
SOLID
 70
               1
 71
               1
 91
        1
 92
        1
 93
        1
 72
               2
 10
-440.71510791911896
 20
960.04032841676985
 40
1.9998779296875
 50
0.0
 51
360.0
 73
               0
 97
        1
330
10A
 75
               0
 76
               1
 98
        1
 10
0.0
 20
0.0
  0
CIRCLE
  5
10C
102
{ACAD_REACTORS
330
10D
102
}
100
AcDbEntity
  8
0
370
              -2
390
0
  6
Continuous
 62
               0
100
AcDbCircle
 10
-340.71510791911896
 20
960.04032841676985
 30
0.0
 40
1.9998779296875
  0
HATCH
  5
10D
100
AcDbEntity
  8
0
370
              -2
390
0
  6
Continuous
 62
               0
100
AcDbHatch
 10
0.0
 20
0.0
 30
0.0
210
0.0
220
0.0
230
1.0
  2
SOLID
 70
               1
 71
               1
 91
        1
 92
        1
 93
        1
 72
               2
 10
-340.71510791911896
 20
960.04032841676985
 40
1.9998779296875
 50
0.0
 51
360.0
 73
               0
 97
        1
330
10C
 75
               0
 76
               1
 98
        1
 10
0.0
 20
0.0
  0
MTEXT
  5
10E
100
AcDbEntity
  8
0
390
0
 62
               0
100
AcDbMText
 10
-414.52760960129444
 20
993.91794560426979
 30
0.0
 40
24.432617187500004
 41
0.0
 71
               1
 72
               1
  1
100
  7
ＭＳ ゴシック
 73
               1
 44
0.7828267384257843
  0
POINT
  5
10F
100
AcDbEntity
  8
Defpoints
370
               0
390
0
 62
               0
100
AcDbPoint
 10
-340.71510791911896
 20
798.24032841676978
 30
0.0
  0
POINT
  5
110
100
AcDbEntity
  8
Defpoints
370
               0
390
0
 62
               0
100
AcDbPoint
 10
-440.71510791911896
 20
798.24032841676978
 30
0.0
  0
POINT
  5
111
100
AcDbEntity
  8
Defpoints
370
               0
390
0
 62
               0
100
AcDbPoint
 10
-440.71510791911896
 20
960.04032841676985
 30
0.0
  0
ENDBLK
  5
112
100
AcDbEntity
  8
FAA70-2216
390
0
100
AcDbBlockEnd
  0
BLOCK
  5
113
100
AcDbEntity
  8
FAA70-2216
390
0
100
AcDbBlockBegin
  2
*D16
 70
               1
 10
0.0
 20
0.0
 30
0.0
  3
*D16
  1

  0
LINE
  5
114
100
AcDbEntity
  8
0
370
              -2
390
0
  6
Continuous
 62
               0
100
AcDbLine
 10
214.0
 20
400.00000000000011
 30
0.0
 11
214.0
 21
297.0
 31
0.0
  0
LINE
  5
115
100
AcDbEntity
  8
0
370
              -2
390
0
  6
Continuous
 62
               0
100
AcDbLine
 10
734.0
 20
400.00000000000011
 30
0.0
 11
734.0
 21
297.0
 31
0.0
  0
LINE
  5
116
100
AcDbEntity
  8
0
370
              -2
390
0
  6
Continuous
 62
               0
100
AcDbLine
 10
214.0
 20
297.0
 30
0.0
 11
734.0
 21
297.0
 31
0.0
  0
CIRCLE
  5
117
102
{ACAD_REACTORS
330
118
102
}
100
AcDbEntity
  8
0
370
              -2
390
0
  6
Continuous
 62
               0
100
AcDbCircle
 10
214.0
 20
297.0
 30
0.0
 40
1.9998779296875
  0
HATCH
  5
118
100
AcDbEntity
  8
0
370
              -2
390
0
  6
Continuous
 62
               0
100
AcDbHatch
 10
0.0
 20
0.0
 30
0.0
210
0.0
220
0.0
230
1.0
  2
SOLID
 70
               1
 71
               1
 91
        1
 92
        1
 93
        1
 72
               2
 10
214.0
 20
297.0
 40
1.9998779296875
 50
0.0
 51
360.0
 73
               0
 97
        1
330
117
 75
               0
 76
               1
 98
        1
 10
0.0
 20
0.0
  0
CIRCLE
  5
119
102
{ACAD_REACTORS
330
11A
102
}
100
AcDbEntity
  8
0
370
              -2
390
0
  6
Continuous
 62
               0
100
AcDbCircle
 10
734.0
 20
297.0
 30
0.0
 40
1.9998779296875
  0
HATCH
  5
11A
100
AcDbEntity
  8
0
370
              -2
390
0
  6
Continuous
 62
               0
100
AcDbHatch
 10
0.0
 20
0.0
 30
0.0
210
0.0
220
0.0
230
1.0
  2
SOLID
 70
               1
 71
               1
 91
        1
 92
        1
 93
        1
 72
               2
 10
734.0
 20
297.0
 40
1.9998779296875
 50
0.0
 51
360.0
 73
               0
 97
        1
330
119
 75
               0
 76
               1
 98
        1
 10
0.0
 20
0.0
  0
MTEXT
  5
11B
100
AcDbEntity
  8
0
390
0
 62
               0
100
AcDbMText
 10
450.18749831782452
 20
330.87761718750005
 30
0.0
 40
24.432617187500004
 41
0.0
 71
               1
 72
               1
  1
520
  7
ＭＳ ゴシック
 73
               1
 44
0.7828267384257843
  0
POINT
  5
11C
100
AcDbEntity
  8
Defpoints
370
               0
390
0
 62
               0
100
AcDbPoint
 10
734.0
 20
425.00000000000011
 30
0.0
  0
POINT
  5
11D
100
AcDbEntity
  8
Defpoints
370
               0
390
0
 62
               0
100
AcDbPoint
 10
214.0
 20
425.00000000000011
 30
0.0
  0
POINT
  5
11E
100
AcDbEntity
  8
Defpoints
370
               0
390
0
 62
               0
100
AcDbPoint
 10
214.0
 20
297.0
 30
0.0
  0
ENDBLK
  5
11F
100
AcDbEntity
  8
FAA70-2216
390
0
100
AcDbBlockEnd
  0
BLOCK
  5
120
100
AcDbEntity
  8
FAA70-2216
390
0
100
AcDbBlockBegin
  2
*D17
 70
               1
 10
0.0
 20
0.0
 30
0.0
  3
*D17
  1

  0
LINE
  5
121
100
AcDbEntity
  8
0
370
              -2
390
0
  6
Continuous
 62
               0
100
AcDbLine
 10
759.0
 20
425.00000000000011
 30
0.0
 11
856.0
 21
425.00000000000011
 31
0.0
  0
LINE
  5
122
100
AcDbEntity
  8
0
370
              -2
390
0
  6
Continuous
 62
               0
100
AcDbLine
 10
759.0
 20
845.00000000000011
 30
0.0
 11
856.0
 21
845.00000000000011
 31
0.0
  0
LINE
  5
123
100
AcDbEntity
  8
0
370
              -2
390
0
  6
Continuous
 62
               0
100
AcDbLine
 10
856.0
 20
425.00000000000011
 30
0.0
 11
856.0
 21
845.00000000000011
 31
0.0
  0
CIRCLE
  5
124
102
{ACAD_REACTORS
330
125
102
}
100
AcDbEntity
  8
0
370
              -2
390
0
  6
Continuous
 62
               0
100
AcDbCircle
 10
856.0
 20
425.00000000000011
 30
0.0
 40
1.9998779296875
  0
HATCH
  5
125
100
AcDbEntity
  8
0
370
              -2
390
0
  6
Continuous
 62
               0
100
AcDbHatch
 10
0.0
 20
0.0
 30
0.0
210
0.0
220
0.0
230
1.0
  2
SOLID
 70
               1
 71
               1
 91
        1
 92
        1
 93
        1
 72
               2
 10
856.0
 20
425.00000000000011
 40
1.9998779296875
 50
0.0
 51
360.0
 73
               0
 97
        1
330
124
 75
               0
 76
               1
 98
        1
 10
0.0
 20
0.0
  0
CIRCLE
  5
126
102
{ACAD_REACTORS
330
127
102
}
100
AcDbEntity
  8
0
370
              -2
390
0
  6
Continuous
 62
               0
100
AcDbCircle
 10
856.0
 20
845.00000000000011
 30
0.0
 40
1.9998779296875
  0
HATCH
  5
127
100
AcDbEntity
  8
0
370
              -2
390
0
  6
Continuous
 62
               0
100
AcDbHatch
 10
0.0
 20
0.0
 30
0.0
210
0.0
220
0.0
230
1.0
  2
SOLID
 70
               1
 71
               1
 91
        1
 92
        1
 93
        1
 72
               2
 10
856.0
 20
845.00000000000011
 40
1.9998779296875
 50
0.0
 51
360.0
 73
               0
 97
        1
330
126
 75
               0
 76
               1
 98
        1
 10
0.0
 20
0.0
  0
MTEXT
  5
128
100
AcDbEntity
  8
0
390
0
 62
               0
100
AcDbMText
 10
822.12238281250006
 20
611.18749831782463
 30
0.0
 40
24.432617187500004
 41
0.0
 71
               1
 72
               1
  1
420
  7
ＭＳ ゴシック
 11
0.0
 21
1.0
 31
0.0
 73
               1
 44
0.7828267384257843
  0
POINT
  5
129
100
AcDbEntity
  8
Defpoints
370
               0
390
0
 62
               0
100
AcDbPoint
 10
734.0
 20
845.00000000000011
 30
0.0
  0
POINT
  5
12A
100
AcDbEntity
  8
Defpoints
370
               0
390
0
 62
               0
100
AcDbPoint
 10
734.0
 20
425.00000000000011
 30
0.0
  0
POINT
  5
12B
100
AcDbEntity
  8
Defpoints
370
               0
390
0
 62
               0
100
AcDbPoint
 10
856.0
 20
425.00000000000011
 30
0.0
  0
ENDBLK
  5
12C
100
AcDbEntity
  8
FAA70-2216
390
0
100
AcDbBlockEnd
  0
BLOCK
  5
12D
100
AcDbEntity
  8
FAA70-2216
390
0
100
AcDbBlockBegin
  2
*D18
 70
               1
 10
0.0
 20
0.0
 30
0.0
  3
*D18
  1

  0
LINE
  5
12E
100
AcDbEntity
  8
0
370
              -2
390
0
  6
Continuous
 62
               0
100
AcDbLine
 10
771.95651195312303
 20
-355.92219788207649
 30
0.0
 11
823.125
 21
-355.92219788207649
 31
0.0
  0
LINE
  5
12F
100
AcDbEntity
  8
0
370
              -2
390
0
  6
Continuous
 62
               0
100
AcDbLine
 10
771.95651195312303
 20
-390.9224304017448
 30
0.0
 11
823.125
 21
-390.9224304017448
 31
0.0
  0
LINE
  5
130
100
AcDbEntity
  8
0
370
              -2
390
0
  6
Continuous
 62
               0
100
AcDbLine
 10
823.125
 20
-355.92219788207649
 30
0.0
 11
823.125
 21
-312.25
 31
0.0
  0
LINE
  5
131
100
AcDbEntity
  8
0
370
              -2
390
0
  6
Continuous
 62
               0
100
AcDbLine
 10
823.125
 20
-355.92219788207649
 30
0.0
 11
823.125
 21
-390.9224304017448
 31
0.0
  0
CIRCLE
  5
132
102
{ACAD_REACTORS
330
133
102
}
100
AcDbEntity
  8
0
370
              -2
390
0
  6
Continuous
 62
               0
100
AcDbCircle
 10
823.125
 20
-355.92219788207649
 30
0.0
 40
1.9998779296875
  0
HATCH
  5
133
100
AcDbEntity
  8
0
370
              -2
390
0
  6
Continuous
 62
               0
100
AcDbHatch
 10
0.0
 20
0.0
 30
0.0
210
0.0
220
0.0
230
1.0
  2
SOLID
 70
               1
 71
               1
 91
        1
 92
        1
 93
        1
 72
               2
 10
823.125
 20
-355.92219788207649
 40
1.9998779296875
 50
0.0
 51
360.0
 73
               0
 97
        1
330
132
 75
               0
 76
               1
 98
        1
 10
0.0
 20
0.0
  0
CIRCLE
  5
134
102
{ACAD_REACTORS
330
135
102
}
100
AcDbEntity
  8
0
370
              -2
390
0
  6
Continuous
 62
               0
100
AcDbCircle
 10
823.125
 20
-390.9224304017448
 30
0.0
 40
1.9998779296875
  0
HATCH
  5
135
100
AcDbEntity
  8
0
370
              -2
390
0
  6
Continuous
 62
               0
100
AcDbHatch
 10
0.0
 20
0.0
 30
0.0
210
0.0
220
0.0
230
1.0
  2
SOLID
 70
               1
 71
               1
 91
        1
 92
        1
 93
        1
 72
               2
 10
823.125
 20
-390.9224304017448
 40
1.9998779296875
 50
0.0
 51
360.0
 73
               0
 97
        1
330
134
 75
               0
 76
               1
 98
        1
 10
0.0
 20
0.0
  0
MTEXT
  5
136
100
AcDbEntity
  8
0
390
0
 62
               0
100
AcDbMText
 10
789.24738281250006
 20
-344.0
 30
0.0
 40
24.432617187500004
 41
0.0
 71
               1
 72
               1
  1
35
  7
ＭＳ ゴシック
 11
0.0
 21
1.0
 31
0.0
 73
               1
 44
0.7828267384257843
  0
POINT
  5
137
100
AcDbEntity
  8
Defpoints
370
               0
390
0
 62
               0
100
AcDbPoint
 10
746.95651195312303
 20
-390.9224304017448
 30
0.0
  0
POINT
  5
138
100
AcDbEntity
  8
Defpoints
370
               0
390
0
 62
               0
100
AcDbPoint
 10
746.95651195312303
 20
-355.92219788207649
 30
0.0
  0
POINT
  5
139
100
AcDbEntity
  8
Defpoints
370
               0
390
0
 62
               0
100
AcDbPoint
 10
823.125
 20
-355.92219788207649
 30
0.0
  0
ENDBLK
  5
13A
100
AcDbEntity
  8
FAA70-2216
390
0
100
AcDbBlockEnd
  0
ENDSEC
  0
SECTION
  2
ENTITIES
  0
MTEXT
  5
13B
100
AcDbEntity
  8
template
390
0
 62
               7
100
AcDbMText
 10
-967.99999999975898
 20
-1147.4176292337006
 30
0.0
 40
16.288411458333332
 41
0.0
 71
               1
 72
               1
  1
品名
  7
ＭＳ ゴシック
 73
               1
 44
0.7828267384257843
  0
MTEXT
  5
13C
100
AcDbEntity
  8
template
390
0
 62
               7
100
AcDbMText
 10
-967.99999999975898
 20
-1232.4176292337006
 30
0.0
 40
16.288411458333332
 41
0.0
 71
               1
 72
               1
  1
仕様
  7
ＭＳ ゴシック
 73
               1
 44
0.7828267384257843
  0
LINE
  5
13D
100
AcDbEntity
  8
template
370
               5
390
0
  6
Continuous
 62
               7
100
AcDbLine
 10
974.99999999975876
 20
-1224.0027073587007
 30
0.0
 11
-975.00000000024102
 21
-1224.0027073587007
 31
0.0
  0
LWPOLYLINE
  5
13E
100
AcDbEntity
  8
template
370
               5
390
0
  6
Continuous
 62
               7
100
AcDbPolyline
 90
        5
 70
             128
 10
975.00000000024124
 20
1405.9972926412995
 10
-974.99999999975898
 20
1405.9972926412995
 10
-974.99999999975898
 20
-1394.0027073587007
 10
975.00000000024124
 20
-1394.0027073587007
 10
975.00000000024124
 20
1405.9972926412995
  0
LINE
  5
13F
100
AcDbEntity
  8
template
370
               5
390
0
  6
Continuous
 62
               7
100
AcDbLine
 10
974.99999999975876
 20
-1139.0027073587007
 30
0.0
 11
-975.00000000024102
 21
-1139.0027073587007
 31
0.0
  0
LINE
  5
140
100
AcDbEntity
  8
template
370
               5
390
0
  6
Continuous
 62
               7
100
AcDbLine
 10
975.00000000024124
 20
-1309.0027073587007
 30
0.0
 11
222.00000000024124
 21
-1309.0027073587007
 31
0.0
  0
MTEXT
  5
141
100
AcDbEntity
  8
template
390
0
 62
               7
100
AcDbMText
 10
251.87140625250095
 20
-1338.9131018320081
 30
0.0
 40
24.432617187500004
 41
0.0
 71
               1
 72
               1
  1
大洋金物株式会社 ティーフォルム事業部
  7
ＭＳ ゴシック
 73
               1
 44
0.7828267384257843
  0
LWPOLYLINE
  5
142
100
AcDbEntity
  8
template
370
              15
390
0
  6
Continuous
 62
               7
100
AcDbPolyline
 90
        8
 70
             129
 10
887.42850780307481
 20
-1334.4897210236859
 10
887.42850780307481
 20
-1340.4871097172618
 10
877.92731088507139
 20
-1340.4871097172618
 10
877.92731088507139
 20
-1364.9380729807708
 10
869.57193362328871
 20
-1364.9380729807708
 10
869.57193362328871
 20
-1340.4871097172618
 10
860.23897667697929
 20
-1340.4871097172618
 10
860.23897667697929
 20
-1334.4897210236859
  0
LWPOLYLINE
  5
143
100
AcDbEntity
  8
template
370
              15
390
0
  6
Continuous
 62
               7
100
AcDbPolyline
 90
      101
 70
             128
 10
900.15679963363164
 20
-1335.2179695166224
 10
900.17214966241875
 20
-1335.2136087599365
 42
-0.0222221607808226
 10
900.46215423908779
 20
-1335.1449842946927
 10
900.4779480030769
 20
-1335.1419808715964
 42
-0.0146883565591298
 10
900.74065070830557
 20
-1335.0999776846465
 42
-0.0127458844198269
 10
901.00528967544733
 20
-1335.0724407165749
 10
901.06774475377142
 20
-1335.0675472939856
 42
-0.0198099018566722
 10
901.45859386324332
 20
-1335.0524621365889
 10
901.51040533269202
 20
-1335.052515912254
 42
-0.0147617382767857
 10
902.00502879366798
 20
-1335.0676359374993
 10
902.07772024854535
 20
-1335.0720085443872
 42
-0.0162624549000436
 10
902.46787387800578
 20
-1335.108241419659
 10
902.5894062692571
 20
-1335.1235279786542
 42
-0.0080020874677855
 10
902.73498530035647
 20
-1335.1442108259239
 10
902.77330477095586
 20
-1335.1502821037361
 42
-0.0053821929679027
 10
902.84178887626626
 20
-1335.1618896275568
 10
902.11538317706777
 20
-1337.3428180832707
 42
0.0108667757405862
 10
902.04806610692754
 20
-1337.3296309680491
 10
902.01059808374737
 20
-1337.3231332254563
 42
0.0170663203299383
 10
901.86738129683408
 20
-1337.3033036281645
 10
901.79950596414892
 20
-1337.2962564575769
 42
0.0220162375279954
 10
901.51912655629644
 20
-1337.2795740968068
 10
901.44127098924196
 20
-1337.2783747295402
 42
0.0282606915786708
 10
901.10563466566362
 20
-1337.2921780065089
 10
901.06172139188084
 20
-1337.2964779965137
 42
0.0169677213694342
 10
900.81579689693228
 20
-1337.3290150460653
 42
0.0190576269866793
 10
900.57288893435566
 20
-1337.3791619181707
 10
900.56662974624135
 20
-1337.3807048922808
 42
0.0213685642839089
 10
900.31624526176188
 20
-1337.4539051773859
 10
900.31075536684739
 20
-1337.4557681734445
 42
0.0237595297607976
 10
900.0572604819431
 20
-1337.5554526953429
 10
900.05215840791902
 20
-1337.5577444708183
 42
0.0261857468816237
 10
899.79998763168953
 20
-1337.6872808081926
 10
899.78956144260485
 20
-1337.6933462826596
 42
0.0272553062019949
 10
899.55313166736369
 20
-1337.8487184886053
 10
899.51836865385428
 20
-1337.8743796366975
 42
0.0325996893183748
 10
899.36821331020269
 20
-1338.001127509669
 10
899.34450388107552
 20
-1338.0239455381857
 42
0.0138050960643153
 10
899.25262072486953
 20
-1338.1173951997334
 42
0.0125280103810685
 10
899.1657781920353
 20
-1338.2155585263345
 10
899.14209774712765
 20
-1338.2437170245212
 42
0.020521802474099
 10
899.01699767161369
 20
-1338.4055103387504
 10
898.99453133112684
 20
-1338.437170068577
 42
0.0163110129584281
 10
898.83882095187607
 20
-1338.672500503646
 10
898.83609705582455
 20
-1338.6769242656324
 42
0.0131897341897146
 10
898.68929653491989
 20
-1338.9300563579945
 10
898.68759643955218
 20
-1338.9331745971326
 42
0.0107895576055174
 10
898.54981973734164
 20
-1339.1993898067672
 10
898.54908684781628
 20
-1339.2008840394142
 42
0.0091371507221891
 10
898.42060689916752
 20
-1339.4754092371718
 10
898.3908612677576
 20
-1339.5421157443325
 42
0.0135418326352375
 10
898.21914732868436
 20
-1339.9570535296052
 10
898.18554252025206
 20
-1340.0449196718814
 42
0.0092834542412352
 10
898.01431346033075
 20
-1340.5188181701878
 10
897.98869633261552
 20
-1340.5940592399743
 42
0.0054261043583768
 10
897.88105818432018
 20
-1340.9218232130465
 10
897.86353219811201
 20
-1340.9772113753738
 42
0.0008225090818955
 10
897.79486214631265
 20
-1341.1954801334259
 10
896.81017301437919
 20
-1344.2203714266825
 10
900.04279685445317
 20
-1344.2203714266825
 10
899.53860442459973
 20
-1346.1248497250344
 10
896.28254814261641
 20
-1346.1248497250344
 10
890.45339911026258
 20
-1364.9380727910393
 10
888.62830149995216
 20
-1364.9380727910393
 10
894.46297953545309
 20
-1346.1248497250344
 10
892.05786316641274
 20
-1346.1248497250344
 10
892.56205559626619
 20
-1344.2203714266825
 10
894.99060440721632
 20
-1344.2203714266825
 10
895.85075932540485
 20
-1341.5839584259834
 42
-0.0005863560659138
 10
895.88749400356039
 20
-1341.4671320058442
 10
895.96358183726886
 20
-1341.2261397063062
 42
-0.0087522378928461
 10
896.1630499807253
 20
-1340.6308636191611
 10
896.25531425614008
 20
-1340.3707234506442
 42
-0.0077400953827756
 10
896.51324791527031
 20
-1339.6777187730986
 10
896.52901288684836
 20
-1339.6372878897146
 42
-0.0082369946330551
 10
896.77609735746114
 20
-1339.0332088235168
 42
-0.008572523836512
 10
897.04334345346467
 20
-1338.4377827842286
 10
897.14497305447173
 20
-1338.2213616822442
 42
-0.0168109410597139
 10
897.43191748320135
 20
-1337.6601541561404
 10
897.55776087365984
 20
-1337.4331901231435
 42
-0.000781772686708
 10
897.61204522371702
 20
-1337.3356458781118
 10
897.61217352972722
 20
-1337.3354161693878
 42
-0.0036626142150568
 10
897.6670613937556
 20
-1337.2388182894069
 42
-0.0080221150679627
 10
897.72418564916154
 20
-1337.1435390546553
 10
897.75488560052349
 20
-1337.0941481055315
 42
-0.0202139325565557
 10
897.88254134033002
 20
-1336.9061665048503
 10
897.93660880551784
 20
-1336.8330876406094
 42
-0.0249323791798659
 10
898.19577159923722
 20
-1336.5170423984546
 10
898.219911413364
 20
-1336.4904281255422
 42
-0.0242132121534041
 10
898.55959215490577
 20
-1336.1505446393385
 10
898.60750372765528
 20
-1336.1070355031534
 42
-0.0251017527852127
 10
898.8914854282973
 20
-1335.8740427573875
 10
898.89293090510785
 20
-1335.872973499811
 42
-0.0130868069031424
 10
899.19119155506837
 20
-1335.6641930312662
 10
899.19275337421425
 20
-1335.6631595909889
 42
-0.0290329526385854
 10
899.50386451560439
 20
-1335.4823340893618
 10
899.53371007758665
 20
-1335.4672317065242
 42
-0.0160250190051785
 10
899.7996144913551
 20
-1335.3432155963092
 42
-0.0267600374770347
 10
900.07489056882775
 20
-1335.2424672757593
 10
900.10162648834466
 20
-1335.234274716935
 42
-0.0049981587650893
 10
900.15679963363164
 20
-1335.2179695166224
 42
-0.0049981587650893
  0
LWPOLYLINE
  5
144
100
AcDbEntity
  8
template
370
              15
390
0
  6
Continuous
 62
               7
100
AcDbPolyline
 90
      118
 70
             128
 10
919.97116719807855
 20
-1344.2943547545096
 10
921.84628912257813
 20
-1344.2943547545096
 10
921.00825021697824
 20
-1346.9759212809095
 42
-0.0010587229253303
 10
921.03970603253913
 20
-1346.9390167475672
 10
921.09790012318206
 20
-1346.8710344913789
 42
-0.0071874740412862
 10
921.24827534127746
 20
-1346.7003937993527
 10
921.38999811454244
 20
-1346.5441576580361
 42
-0.0148118053514623
 10
921.84012740725814
 20
-1346.0765438120206
 10
921.92734974215841
 20
-1345.9911464911684
 42
-0.0086273358690835
 10
922.26289854316531
 20
-1345.6737708571536
 10
922.30673225938654
 20
-1345.6337212128246
 42
-0.0103138323119064
 10
922.56475596162466
 20
-1345.407558075482
 10
922.61053036794419
 20
-1345.3690760282284
 42
-0.0060206748565472
 10
922.78337843206396
 20
-1345.2272813774675
 10
922.78540956295694
 20
-1345.2256556718307
 42
-0.0067069027286112
 10
922.95770237761246
 20
-1345.0915050380413
 10
922.96025114353654
 20
-1345.0895748681673
 42
-0.0076184352055501
 10
923.13115640940987
 20
-1344.9641999929222
 42
-0.0089652861674792
 10
923.30611737214679
 20
-1344.8445667325882
 10
923.34246909227977
 20
-1344.8206555191132
 42
-0.0156916245943233
 10
923.53842858944938
 20
-1344.7003930326318
 42
-0.0023299011072463
 10
923.73869063341067
 20
-1344.5872150931018
 10
923.75407476580904
 20
-1344.5786150980266
 42
-0.0107669341477676
 10
923.98831159091617
 20
-1344.4542149646741
 10
924.0105763919853
 20
-1344.4429982147271
 42
-0.0078058045900789
 10
924.29416650994119
 20
-1344.3056367590871
 10
924.30407359764718
 20
-1344.3010276312202
 42
-0.0181829330468399
 10
924.61438300225814
 20
-1344.1701638901263
 10
924.66843844482378
 20
-1344.1496487701834
 42
-0.0208411536030825
 10
925.01752341227973
 20
-1344.0335583076881
 10
925.03187951241568
 20
-1344.029439862732
 42
-0.0222799817135114
 10
925.3605993063245
 20
-1343.9507982965943
 10
925.36948826955427
 20
-1343.9490862860107
 42
-0.0215509523883584
 10
925.6859592378413
 20
-1343.9021705974747
 10
925.72844119889385
 20
-1343.8977330706834
 42
-0.0182545924862571
 10
925.96254997819551
 20
-1343.8818892452928
 10
926.00195099453401
 20
-1343.8806647002139
 42
-0.0072962856522938
 10
926.15787387423245
 20
-1343.8780953716914
 10
926.18697354480116
 20
-1343.8780405362877
 42
-0.0059227516311282
 10
926.28472304394938
 20
-1343.8790142480784
 10
926.3139652614841
 20
-1343.879652014683
 42
-0.0011833111972046
 10
926.35321654515383
 20
-1343.8806010189919
 10
925.55782994954666
 20
-1346.4193349640909
 42
0.0143932051684216
 10
925.53142856718978
 20
-1346.4091359940435
 10
925.52415659477867
 20
-1346.4065647751881
 42
0.0234388603492619
 10
925.4823257288482
 20
-1346.3939455394734
 10
925.47364406593385
 20
-1346.3917645774677
 42
0.0199162743012049
 10
925.41335523185228
 20
-1346.3791478421322
 10
925.39254129404765
 20
-1346.3756506427039
 42
0.0293643550674966
 10
925.28946643529082
 20
-1346.3645005970511
 10
925.26478125456822
 20
-1346.3632889800324
 42
0.0214606686879567
 10
925.11164033860996
 20
-1346.3623504196157
 10
925.10226842779787
 20
-1346.3626953311596
 42
0.0167564054193839
 10
924.93074823668337
 20
-1346.3747723735278
 10
924.92228844393037
 20
-1346.3756537139543
 42
0.0137677553229417
 10
924.73493513066308
 20
-1346.4004030224983
 10
924.72758339115785
 20
-1346.4015809424659
 42
0.0118497261500692
 10
924.5270856270497
 20
-1346.4385982926565
 10
924.52093561980928
 20
-1346.4398851553751
 42
0.0106421143880514
 10
924.31005473251651
 20
-1346.4887175309518
 10
924.3051459241351
 20
-1346.489964873635
 42
0.0099746379707873
 10
924.08668745497391
 20
-1346.5501394019493
 10
924.02513941480242
 20
-1346.5684212805804
 42
0.0191613675855885
 10
923.68915495228714
 20
-1346.6823986608674
 10
923.60109517954015
 20
-1346.7160855711918
 42
0.0205274080145493
 10
923.21578840764073
 20
-1346.881913979018
 10
923.15813912566784
 20
-1346.9095819435861
 42
0.0181256912187834
 10
922.89986218499178
 20
-1347.0452657625683
 10
922.84690680167876
 20
-1347.0755833757826
 42
0.0140709242415438
 10
922.70195186704939
 20
-1347.1640780492171
 10
922.67570299843396
 20
-1347.1811348679307
 42
0.0086667884400144
 10
922.58677683688836
 20
-1347.2411375358156
 42
0.0036408192008094
 10
922.49934359885378
 20
-1347.3033183936091
 10
922.46411672438637
 20
-1347.3287593395207
 42
0.0052260781282772
 10
922.30788802698976
 20
-1347.4440917261591
 10
922.29168117073573
 20
-1347.4563198367732
 42
0.0050024435896984
 10
922.10567782767873
 20
-1347.5996024050337
 10
922.09035967116176
 20
-1347.6116484274808
 42
0.0136138710277745
 10
921.87991840283769
 20
-1347.7866149323931
 10
921.8462505270428
 20
-1347.8161939051088
 42
0.0172815186913254
 10
921.5818469853798
 20
-1348.0651905777322
 10
921.57928463953772
 20
-1348.0677763948788
 42
0.0189403857988021
 10
921.32870284095816
 20
-1348.3405816596837
 10
921.29607134742344
 20
-1348.3789255911793
 42
0.018504419949905
 10
921.10411490844263
 20
-1348.6221741723034
 42
0.0088565243903026
 10
920.92565480181531
 20
-1348.875690592452
 10
920.91647682216569
 20
-1348.8892319722136
 42
0.0157195347235955
 10
920.7332562158291
 20
-1349.1787541815333
 10
920.68717327390107
 20
-1349.2569063785495
 42
0.0095451879787822
 10
920.52208772376309
 20
-1349.5495010209065
 10
920.51093980483438
 20
-1349.5701716930366
 42
0.0100351706251661
 10
920.37889605567409
 20
-1349.8272272535296
 42
0.0086935915425987
 10
920.25656490388076
 20
-1350.0890603989319
 10
920.25324416246553
 20
-1350.0965027219054
 42
0.0072580174864623
 10
920.13289771052189
 20
-1350.3770947134853
 10
920.12963607721429
 20
-1350.3850147395065
 42
0.0060005122613569
 10
920.01043540886769
 20
-1350.6846244101216
 10
920.00722443053007
 20
-1350.6929859380161
 42
0.0049017786979578
 10
919.88832427167404
 20
-1351.0119149186175
 10
919.88515846528219
 20
-1351.0206678558516
 42
0.0039415167599061
 10
919.76572218723015
 20
-1351.3592099182511
 10
919.76259108457327
 20
-1351.3683131191406
 42
0.0031035838770599
 10
919.64178629888227
 20
-1351.7267529809073
 10
919.63867625434978
 20
-1351.7361736022885
 42
0.0025070747150632
 10
919.51577490303475
 20
-1352.1148208192321
 10
919.47848100660906
 20
-1352.2317124844858
 42
0.0029081910280588
 10
919.28646270879722
 20
-1352.8458761427805
 10
919.24565954028128
 20
-1352.9790993850534
 42
0.0009266453733089
 10
918.97724216596112
 20
-1353.8613238449948
 10
918.95635469331887
 20
-1353.9304357242358
 42
-0.0005809993665591
 10
918.67901801273467
 20
-1354.8442438308516
 10
918.61273621446026
 20
-1355.0617287630162
 42
-0.0012018708165723
 10
918.46575190503256
 20
-1355.539891427532
 10
918.41343205348744
 20
-1355.7086505683314
 42
-0.0002691059630115
 10
918.36986257229842
 20
-1355.8489181887398
 10
915.53690667400929
 20
-1364.9380727910393
 10
913.71891778203076
 20
-1364.9380727910393
 10
919.97116719807855
 20
-1344.2943547545096
  0
SPLINE
  5
145
100
AcDbEntity
  8
template
370
              15
390
0
  6
Continuous
 62
               7
100
AcDbSpline
210
0.0
220
0.0
230
1.0
 70
              13
 71
               2
 72
             782
 73
             779
 74
               0
 42
0.000001
 43
0.000001
 40
0.0
 40
0.0
 40
0.0
 40
1.0
 40
1.0
 40
2.0
 40
2.0
 40
3.0
 40
3.0
 40
4.0
 40
4.0
 40
5.0
 40
5.0
 40
6.0
 40
6.0
 40
7.0
 40
7.0
 40
8.0
 40
8.0
 40
9.0
 40
9.0
 40
10.0
 40
10.0
 40
11.0
 40
11.0
 40
12.0
 40
12.0
 40
13.0
 40
13.0
 40
14.0
 40
14.0
 40
15.0
 40
15.0
 40
16.0
 40
16.0
 40
17.0
 40
17.0
 40
18.0
 40
18.0
 40
19.0
 40
19.0
 40
20.0
 40
20.0
 40
21.0
 40
21.0
 40
22.0
 40
22.0
 40
23.0
 40
23.0
 40
24.0
 40
24.0
 40
25.0
 40
25.0
 40
26.0
 40
26.0
 40
27.0
 40
27.0
 40
28.0
 40
28.0
 40
29.0
 40
29.0
 40
30.0
 40
30.0
 40
31.0
 40
31.0
 40
32.0
 40
32.0
 40
33.0
 40
33.0
 40
34.0
 40
34.0
 40
35.0
 40
35.0
 40
36.0
 40
36.0
 40
37.0
 40
37.0
 40
38.0
 40
38.0
 40
39.0
 40
39.0
 40
40.0
 40
40.0
 40
41.0
 40
41.0
 40
42.0
 40
42.0
 40
43.0
 40
43.0
 40
44.0
 40
44.0
 40
45.0
 40
45.0
 40
46.0
 40
46.0
 40
47.0
 40
47.0
 40
48.0
 40
48.0
 40
49.0
 40
49.0
 40
50.0
 40
50.0
 40
51.0
 40
51.0
 40
52.0
 40
52.0
 40
53.0
 40
53.0
 40
54.0
 40
54.0
 40
55.0
 40
55.0
 40
56.0
 40
56.0
 40
57.0
 40
57.0
 40
58.0
 40
58.0
 40
59.0
 40
59.0
 40
60.0
 40
60.0
 40
61.0
 40
61.0
 40
62.0
 40
62.0
 40
63.0
 40
63.0
 40
64.0
 40
64.0
 40
65.0
 40
65.0
 40
66.0
 40
66.0
 40
67.0
 40
67.0
 40
68.0
 40
68.0
 40
69.0
 40
69.0
 40
70.0
 40
70.0
 40
71.0
 40
71.0
 40
72.0
 40
72.0
 40
73.0
 40
73.0
 40
74.0
 40
74.0
 40
75.0
 40
75.0
 40
76.0
 40
76.0
 40
77.0
 40
77.0
 40
78.0
 40
78.0
 40
79.0
 40
79.0
 40
80.0
 40
80.0
 40
81.0
 40
81.0
 40
82.0
 40
82.0
 40
83.0
 40
83.0
 40
84.0
 40
84.0
 40
85.0
 40
85.0
 40
86.0
 40
86.0
 40
87.0
 40
87.0
 40
88.0
 40
88.0
 40
89.0
 40
89.0
 40
90.0
 40
90.0
 40
91.0
 40
91.0
 40
92.0
 40
92.0
 40
93.0
 40
93.0
 40
94.0
 40
94.0
 40
95.0
 40
95.0
 40
96.0
 40
96.0
 40
97.0
 40
97.0
 40
98.0
 40
98.0
 40
99.0
 40
99.0
 40
100.0
 40
100.0
 40
101.0
 40
101.0
 40
102.0
 40
102.0
 40
103.0
 40
103.0
 40
104.0
 40
104.0
 40
105.0
 40
105.0
 40
106.0
 40
106.0
 40
107.0
 40
107.0
 40
108.0
 40
108.0
 40
109.0
 40
109.0
 40
110.0
 40
110.0
 40
111.0
 40
111.0
 40
112.0
 40
112.0
 40
113.0
 40
113.0
 40
114.0
 40
114.0
 40
115.0
 40
115.0
 40
116.0
 40
116.0
 40
117.0
 40
117.0
 40
118.0
 40
118.0
 40
119.0
 40
119.0
 40
120.0
 40
120.0
 40
121.0
 40
121.0
 40
122.0
 40
122.0
 40
123.0
 40
123.0
 40
124.0
 40
124.0
 40
125.0
 40
125.0
 40
126.0
 40
126.0
 40
127.0
 40
127.0
 40
128.0
 40
128.0
 40
129.0
 40
129.0
 40
130.0
 40
130.0
 40
131.0
 40
131.0
 40
132.0
 40
132.0
 40
133.0
 40
133.0
 40
134.0
 40
134.0
 40
135.0
 40
135.0
 40
136.0
 40
136.0
 40
137.0
 40
137.0
 40
138.0
 40
138.0
 40
139.0
 40
139.0
 40
140.0
 40
140.0
 40
141.0
 40
141.0
 40
142.0
 40
142.0
 40
143.0
 40
143.0
 40
144.0
 40
144.0
 40
145.0
 40
145.0
 40
146.0
 40
146.0
 40
147.0
 40
147.0
 40
148.0
 40
148.0
 40
149.0
 40
149.0
 40
150.0
 40
150.0
 40
151.0
 40
151.0
 40
152.0
 40
152.0
 40
153.0
 40
153.0
 40
154.0
 40
154.0
 40
155.0
 40
155.0
 40
156.0
 40
156.0
 40
157.0
 40
157.0
 40
158.0
 40
158.0
 40
159.0
 40
159.0
 40
160.0
 40
160.0
 40
161.0
 40
161.0
 40
162.0
 40
162.0
 40
163.0
 40
163.0
 40
164.0
 40
164.0
 40
165.0
 40
165.0
 40
166.0
 40
166.0
 40
167.0
 40
167.0
 40
168.0
 40
168.0
 40
169.0
 40
169.0
 40
170.0
 40
170.0
 40
171.0
 40
171.0
 40
172.0
 40
172.0
 40
173.0
 40
173.0
 40
174.0
 40
174.0
 40
175.0
 40
175.0
 40
176.0
 40
176.0
 40
177.0
 40
177.0
 40
178.0
 40
178.0
 40
179.0
 40
179.0
 40
180.0
 40
180.0
 40
181.0
 40
181.0
 40
182.0
 40
182.0
 40
183.0
 40
183.0
 40
184.0
 40
184.0
 40
185.0
 40
185.0
 40
186.0
 40
186.0
 40
187.0
 40
187.0
 40
188.0
 40
188.0
 40
189.0
 40
189.0
 40
190.0
 40
190.0
 40
191.0
 40
191.0
 40
192.0
 40
192.0
 40
193.0
 40
193.0
 40
194.0
 40
194.0
 40
195.0
 40
195.0
 40
196.0
 40
196.0
 40
197.0
 40
197.0
 40
198.0
 40
198.0
 40
199.0
 40
199.0
 40
200.0
 40
200.0
 40
201.0
 40
201.0
 40
202.0
 40
202.0
 40
203.0
 40
203.0
 40
204.0
 40
204.0
 40
205.0
 40
205.0
 40
206.0
 40
206.0
 40
207.0
 40
207.0
 40
208.0
 40
208.0
 40
209.0
 40
209.0
 40
210.0
 40
210.0
 40
211.0
 40
211.0
 40
212.0
 40
212.0
 40
213.0
 40
213.0
 40
214.0
 40
214.0
 40
215.0
 40
215.0
 40
216.0
 40
216.0
 40
217.0
 40
217.0
 40
218.0
 40
218.0
 40
219.0
 40
219.0
 40
220.0
 40
220.0
 40
221.0
 40
221.0
 40
222.0
 40
222.0
 40
223.0
 40
223.0
 40
224.0
 40
224.0
 40
225.0
 40
225.0
 40
226.0
 40
226.0
 40
227.0
 40
227.0
 40
228.0
 40
228.0
 40
229.0
 40
229.0
 40
230.0
 40
230.0
 40
231.0
 40
231.0
 40
232.0
 40
232.0
 40
233.0
 40
233.0
 40
234.0
 40
234.0
 40
235.0
 40
235.0
 40
236.0
 40
236.0
 40
237.0
 40
237.0
 40
238.0
 40
238.0
 40
239.0
 40
239.0
 40
240.0
 40
240.0
 40
241.0
 40
241.0
 40
242.0
 40
242.0
 40
243.0
 40
243.0
 40
244.0
 40
244.0
 40
245.0
 40
245.0
 40
246.0
 40
246.0
 40
247.0
 40
247.0
 40
248.0
 40
248.0
 40
249.0
 40
249.0
 40
250.0
 40
250.0
 40
251.0
 40
251.0
 40
252.0
 40
252.0
 40
253.0
 40
253.0
 40
254.0
 40
254.0
 40
255.0
 40
255.0
 40
256.0
 40
256.0
 40
257.0
 40
257.0
 40
258.0
 40
258.0
 40
259.0
 40
259.0
 40
260.0
 40
260.0
 40
261.0
 40
261.0
 40
262.0
 40
262.0
 40
263.0
 40
263.0
 40
264.0
 40
264.0
 40
265.0
 40
265.0
 40
266.0
 40
266.0
 40
267.0
 40
267.0
 40
268.0
 40
268.0
 40
269.0
 40
269.0
 40
270.0
 40
270.0
 40
271.0
 40
271.0
 40
272.0
 40
272.0
 40
273.0
 40
273.0
 40
274.0
 40
274.0
 40
275.0
 40
275.0
 40
276.0
 40
276.0
 40
277.0
 40
277.0
 40
278.0
 40
278.0
 40
279.0
 40
279.0
 40
280.0
 40
280.0
 40
281.0
 40
281.0
 40
282.0
 40
282.0
 40
283.0
 40
283.0
 40
284.0
 40
284.0
 40
285.0
 40
285.0
 40
286.0
 40
286.0
 40
287.0
 40
287.0
 40
288.0
 40
288.0
 40
289.0
 40
289.0
 40
290.0
 40
290.0
 40
291.0
 40
291.0
 40
292.0
 40
292.0
 40
293.0
 40
293.0
 40
294.0
 40
294.0
 40
295.0
 40
295.0
 40
296.0
 40
296.0
 40
297.0
 40
297.0
 40
298.0
 40
298.0
 40
299.0
 40
299.0
 40
300.0
 40
300.0
 40
301.0
 40
301.0
 40
302.0
 40
302.0
 40
303.0
 40
303.0
 40
304.0
 40
304.0
 40
305.0
 40
305.0
 40
306.0
 40
306.0
 40
307.0
 40
307.0
 40
308.0
 40
308.0
 40
309.0
 40
309.0
 40
310.0
 40
310.0
 40
311.0
 40
311.0
 40
312.0
 40
312.0
 40
313.0
 40
313.0
 40
314.0
 40
314.0
 40
315.0
 40
315.0
 40
316.0
 40
316.0
 40
317.0
 40
317.0
 40
318.0
 40
318.0
 40
319.0
 40
319.0
 40
320.0
 40
320.0
 40
321.0
 40
321.0
 40
322.0
 40
322.0
 40
323.0
 40
323.0
 40
324.0
 40
324.0
 40
325.0
 40
325.0
 40
326.0
 40
326.0
 40
327.0
 40
327.0
 40
328.0
 40
328.0
 40
329.0
 40
329.0
 40
330.0
 40
330.0
 40
331.0
 40
331.0
 40
332.0
 40
332.0
 40
333.0
 40
333.0
 40
334.0
 40
334.0
 40
335.0
 40
335.0
 40
336.0
 40
336.0
 40
337.0
 40
337.0
 40
338.0
 40
338.0
 40
339.0
 40
339.0
 40
340.0
 40
340.0
 40
341.0
 40
341.0
 40
342.0
 40
342.0
 40
343.0
 40
343.0
 40
344.0
 40
344.0
 40
345.0
 40
345.0
 40
346.0
 40
346.0
 40
347.0
 40
347.0
 40
348.0
 40
348.0
 40
349.0
 40
349.0
 40
350.0
 40
350.0
 40
351.0
 40
351.0
 40
352.0
 40
352.0
 40
353.0
 40
353.0
 40
354.0
 40
354.0
 40
355.0
 40
355.0
 40
356.0
 40
356.0
 40
357.0
 40
357.0
 40
358.0
 40
358.0
 40
359.0
 40
359.0
 40
360.0
 40
360.0
 40
361.0
 40
361.0
 40
362.0
 40
362.0
 40
363.0
 40
363.0
 40
364.0
 40
364.0
 40
365.0
 40
365.0
 40
366.0
 40
366.0
 40
367.0
 40
367.0
 40
368.0
 40
368.0
 40
369.0
 40
369.0
 40
370.0
 40
370.0
 40
371.0
 40
371.0
 40
372.0
 40
372.0
 40
373.0
 40
373.0
 40
374.0
 40
374.0
 40
375.0
 40
375.0
 40
376.0
 40
376.0
 40
377.0
 40
377.0
 40
378.0
 40
378.0
 40
379.0
 40
379.0
 40
380.0
 40
380.0
 40
381.0
 40
381.0
 40
382.0
 40
382.0
 40
383.0
 40
383.0
 40
384.0
 40
384.0
 40
385.0
 40
385.0
 40
386.0
 40
386.0
 40
387.0
 40
387.0
 40
388.0
 40
388.0
 40
389.0
 40
389.0
 40
389.0
 10
930.29987164881118
 20
-1344.283428391147
 30
0.0
 41
1.0
 10
931.11829575753165
 20
-1344.283428391147
 30
0.0
 41
1.0
 10
931.93671986625213
 20
-1344.283428391147
 30
0.0
 41
1.0
 10
931.52296613073543
 20
-1345.6260546553967
 30
0.0
 41
1.0
 10
931.10921239521872
 20
-1346.9686809196464
 30
0.0
 41
1.0
 10
931.1275518903808
 20
-1346.9399801467443
 30
0.0
 41
0.9999957264353815
 10
931.14605888720621
 20
-1346.9113870966016
 30
0.0
 41
1.0
 10
931.17648821134912
 20
-1346.8643742182176
 30
0.0
 41
1.0
 10
931.20691753549193
 20
-1346.817361339833
 30
0.0
 41
1.0
 10
931.286283180596
 20
-1346.6947425329322
 30
0.0
 41
0.9995394069081076
 10
931.3729415721499
 20
-1346.5771644711876
 30
0.0
 41
1.0
 10
931.40869843441033
 20
-1346.5286495785931
 30
0.0
 41
1.0
 10
931.44445529667075
 20
-1346.480134685999
 30
0.0
 41
1.0
 10
931.57818196448716
 20
-1346.2986944108748
 30
0.0
 41
0.9994460617143207
 10
931.72368244577569
 20
-1346.1265520132247
 30
0.0
 41
1.0
 10
931.72807062675042
 20
-1346.1213603328424
 30
0.0
 41
1.0
 10
931.73245880772527
 20
-1346.1161686524601
 30
0.0
 41
1.0
 10
931.86918292706343
 20
-1345.9544096155751
 30
0.0
 41
0.999435939493453
 10
932.01645715741495
 20
-1345.8021934144103
 30
0.0
 41
1.0
 10
932.01884051136881
 20
-1345.7997300840366
 30
0.0
 41
1.0
 10
932.02122386532267
 20
-1345.7972667536628
 30
0.0
 41
1.0
 10
932.16373138776657
 20
-1345.6499772132456
 30
0.0
 41
0.9995293688568158
 10
932.31500306874852
 20
-1345.5117040010814
 30
0.0
 41
1.0
 10
932.33429682801125
 20
-1345.4940681154308
 30
0.0
 41
1.0
 10
932.35359058727397
 20
-1345.4764322297801
 30
0.0
 41
1.0
 10
932.46627474973309
 20
-1345.3734307889154
 30
0.0
 41
0.9997087614803308
 10
932.58379763868572
 20
-1345.2759865081193
 30
0.0
 41
1.0
 10
932.60296371186178
 20
-1345.2600949296111
 30
0.0
 41
1.0
 10
932.62212978503771
 20
-1345.2442033511029
 30
0.0
 41
1.0
 10
932.70132052763802
 20
-1345.1785422273233
 30
0.0
 41
0.9999595338692328
 10
932.78167979849593
 20
-1345.1143164966666
 30
0.0
 41
1.0
 10
932.86203906934725
 20
-1345.0500907660148
 30
0.0
 41
0.9999749417509191
 10
932.94329960368009
 20
-1344.9870092120764
 30
0.0
 41
1.0
 10
932.96428574986214
 20
-1344.9707179247598
 30
0.0
 41
1.0
 10
932.9852718960442
 20
-1344.9544266374428
 30
0.0
 41
1.0
 10
933.06983978133906
 20
-1344.8887776276079
 30
0.0
 41
0.999979203712826
 10
933.15524738109696
 20
-1344.8242248459728
 30
0.0
 41
1.0
 10
933.17607220705941
 20
-1344.8084850236764
 30
0.0
 41
1.0
 10
933.19689703302174
 20
-1344.7927452013805
 30
0.0
 41
1.0
 10
933.24065498095808
 20
-1344.7596720642596
 30
0.0
 41
0.9999993373999181
 10
933.28433666700971
 20
-1344.7264982689048
 30
0.0
 41
1.0
 10
933.32801835314922
 20
-1344.6933244734832
 30
0.0
 41
0.9999160953815088
 10
933.37254476406986
 20
-1344.6612934082846
 30
0.0
 41
1.0
 10
933.40536665149068
 20
-1344.6376822526991
 30
0.0
 41
1.0
 10
933.4381885389115
 20
-1344.6140710971131
 30
0.0
 41
1.0
 10
933.5483587246689
 20
-1344.5348177207457
 30
0.0
 41
0.9980964527231362
 10
933.66744771816855
 20
-1344.4697302478903
 30
0.0
 41
1.0
 10
933.70448032509785
 20
-1344.4494902682964
 30
0.0
 41
1.0
 10
933.74151293202726
 20
-1344.4292502887029
 30
0.0
 41
1.0
 10
933.92083994529958
 20
-1344.3312400380014
 30
0.0
 41
0.9984572810571797
 10
934.10992851165872
 20
-1344.2537177766553
 30
0.0
 41
1.0
 10
934.11357478105492
 20
-1344.2522228843172
 30
0.0
 41
1.0
 10
934.11722105045123
 20
-1344.2507279919791
 30
0.0
 41
1.0
 10
934.29901707801844
 20
-1344.1761955153088
 30
0.0
 41
0.9987838528034005
 10
934.48726973657688
 20
-1344.119929875143
 30
0.0
 41
1.0
 10
934.49150768577579
 20
-1344.1186632214531
 30
0.0
 41
1.0
 10
934.49574563497458
 20
-1344.1173965677626
 30
0.0
 41
1.0
 10
934.67552239513611
 20
-1344.0636642349773
 30
0.0
 41
0.9990652816207406
 10
934.85926832685197
 20
-1344.025660555435
 30
0.0
 41
1.0
 10
934.86445672787988
 20
-1344.0245874523289
 30
0.0
 41
1.0
 10
934.86964512890779
 20
-1344.0235143492232
 30
0.0
 41
1.0
 10
935.04301425856488
 20
-1343.9876568758932
 30
0.0
 41
0.9992909934269831
 10
935.21859002502617
 20
-1343.9649464434265
 30
0.0
 41
1.0
 10
935.39416579148656
 20
-1343.9422360109602
 30
0.0
 41
0.9994553539448863
 10
935.57085722458112
 20
-1343.9311567067534
 30
0.0
 41
1.0
 10
935.60629163237513
 20
-1343.9289348187058
 30
0.0
 41
1.0
 10
935.64172604016926
 20
-1343.9267129306581
 30
0.0
 41
1.0
 10
935.80795180673829
 20
-1343.9162898682462
 30
0.0
 41
0.9990928098292232
 10
935.97446159864091
 20
-1343.920049509481
 30
0.0
 41
1.0
 10
936.01302343390637
 20
-1343.9209202010138
 30
0.0
 41
1.0
 10
936.05158526917182
 20
-1343.9217908925466
 30
0.0
 41
1.0
 10
936.14097139053717
 20
-1343.923809150715
 30
0.0
 41
0.9998382089204774
 10
936.23022707332973
 20
-1343.9290412772434
 30
0.0
 41
1.0
 10
936.23065697954451
 20
-1343.9290664781456
 30
0.0
 41
1.0
 10
936.23108688575928
 20
-1343.9290916790474
 30
0.0
 41
1.0
 10
936.3194827561108
 20
-1343.9342734037714
 30
0.0
 41
0.9997558016758563
 10
936.40756333331672
 20
-1343.9433559191384
 30
0.0
 41
1.0
 10
936.40803947174413
 20
-1343.943405016621
 30
0.0
 41
1.0
 10
936.40851561017143
 20
-1343.9434541141031
 30
0.0
 41
1.0
 10
936.4956439105149
 20
-1343.9524384345041
 30
0.0
 41
0.9996565144180365
 10
936.58218176385969
 20
-1343.9659757411937
 30
0.0
 41
1.0
 10
936.58264768923596
 20
-1343.9660486269249
 30
0.0
 41
1.0
 10
936.58311361461222
 20
-1343.9661215126562
 30
0.0
 41
1.0
 10
936.66871961720051
 20
-1343.9795130478819
 30
0.0
 41
0.9995321806865184
 10
936.75334669752976
 20
-1343.9981135363118
 30
0.0
 41
1.0
 10
936.7537358920988
 20
-1343.9981990787774
 30
0.0
 41
1.0
 10
936.75412508666773
 20
-1343.9982846212424
 30
0.0
 41
1.0
 10
936.83797377785481
 20
-1344.0167140247404
 30
0.0
 41
0.9993819199219145
 10
936.92032031205395
 20
-1344.0409894080021
 30
0.0
 41
1.0
 10
936.92055874555194
 20
-1344.0410596971115
 30
0.0
 41
1.0
 10
936.92079717904983
 20
-1344.0411299862208
 30
0.0
 41
1.0
 10
937.0026668462491
 20
-1344.0652647912621
 30
0.0
 41
0.9992088568504934
 10
937.0823593652384
 20
-1344.0958300270568
 30
0.0
 41
1.0
 10
937.16204035611747
 20
-1344.1263896277901
 30
0.0
 41
0.9990226101774277
 10
937.23871102602459
 20
-1344.1638670594048
 30
0.0
 41
1.0
 10
937.3153701678234
 20
-1344.2013388559585
 30
0.0
 41
0.9988424273972623
 10
937.38807379503771
 20
-1344.2460036312127
 30
0.0
 41
1.0
 10
937.38834150341563
 20
-1344.2461680952838
 30
0.0
 41
1.0
 10
937.38860921179366
 20
-1344.2463325593553
 30
0.0
 41
1.0
 10
937.46184825576347
 20
-1344.2913262627517
 30
0.0
 41
0.9986928844490425
 10
937.53011112247134
 20
-1344.3435619970301
 30
0.0
 41
1.0
 10
937.53069241469552
 20
-1344.3440068102591
 30
0.0
 41
1.0
 10
937.53127370691982
 20
-1344.3444516234881
 30
0.0
 41
1.0
 10
937.60069915807719
 20
-1344.3975769842259
 30
0.0
 41
0.9986007262279928
 10
937.66412532784545
 20
-1344.4577377539208
 30
0.0
 41
1.0
 10
937.66501974330083
 20
-1344.4585861217538
 30
0.0
 41
1.0
 10
937.66591415875621
 20
-1344.4594344895872
 30
0.0
 41
1.0
 10
937.73112915943625
 20
-1344.5212919949495
 30
0.0
 41
0.9985581491380754
 10
937.78933677113764
 20
-1344.5897844852207
 30
0.0
 41
1.0
 10
937.79859522473419
 20
-1344.6006788429231
 30
0.0
 41
1.0
 10
937.80785367833073
 20
-1344.611573200626
 30
0.0
 41
1.0
 10
937.88457819722339
 20
-1344.7018544062998
 30
0.0
 41
0.9970460233519214
 10
937.94657009838249
 20
-1344.8028214904812
 30
0.0
 41
1.0
 10
937.96103946346375
 20
-1344.8263879495653
 30
0.0
 41
1.0
 10
937.975508828545
 20
-1344.8499544086499
 30
0.0
 41
1.0
 10
938.01524552855619
 20
-1344.9146741326804
 30
0.0
 41
0.9988468816638398
 10
938.0485918993063
 20
-1344.982906585105
 30
0.0
 41
1.0
 10
938.05562792179705
 20
-1344.9973035062408
 30
0.0
 41
1.0
 10
938.06266394428781
 20
-1345.0117004273766
 30
0.0
 41
1.0
 10
938.08193827005562
 20
-1345.0511390375277
 30
0.0
 41
0.9998431189997841
 10
938.09980359755275
 20
-1345.0912355919731
 30
0.0
 41
1.0
 10
938.11766892500555
 20
-1345.131332146319
 30
0.0
 41
0.9999989989797227
 10
938.13564764845103
 20
-1345.1713779839561
 30
0.0
 41
1.0
 10
938.14181996005459
 20
-1345.1851262007895
 30
0.0
 41
1.0
 10
938.14799227165815
 20
-1345.1988744176228
 30
0.0
 41
1.0
 10
938.17831561826642
 20
-1345.2664166888262
 30
0.0
 41
0.9998790356323343
 10
938.20652349840736
 20
-1345.3348694407709
 30
0.0
 41
1.0
 10
938.21335867968833
 20
-1345.3514565421901
 30
0.0
 41
1.0
 10
938.2201938609694
 20
-1345.3680436436098
 30
0.0
 41
1.0
 10
938.24375152335199
 20
-1345.4252115984996
 30
0.0
 41
0.9998227574560035
 10
938.26514027174483
 20
-1345.4832259067871
 30
0.0
 41
1.0
 10
938.28652902013505
 20
-1345.5412402150673
 30
0.0
 41
0.999679797104204
 10
938.30495530509518
 20
-1345.6002623341883
 30
0.0
 41
1.0
 10
938.3088591078199
 20
-1345.6127667923543
 30
0.0
 41
1.0
 10
938.31276291054451
 20
-1345.6252712505202
 30
0.0
 41
1.0
 10
938.33899680095465
 20
-1345.7093022859754
 30
0.0
 41
0.9979274938734722
 10
938.35422132443421
 20
-1345.7960066446376
 30
0.0
 41
1.0
 10
938.35644501169543
 20
-1345.8086706454592
 30
0.0
 41
1.0
 10
938.35866869895665
 20
-1345.8213346462808
 30
0.0
 41
1.0
 10
938.36959863865525
 20
-1345.8835811535719
 30
0.0
 41
0.9994985982136596
 10
938.37656680383157
 20
-1345.9463946547112
 30
0.0
 41
1.0
 10
938.38353496900845
 20
-1346.009208155851
 30
0.0
 41
0.9996372611201472
 10
938.38711083477631
 20
-1346.0723057345363
 30
0.0
 41
1.0
 10
938.38727941226557
 20
-1346.0752803516179
 30
0.0
 41
1.0
 10
938.38744798975483
 20
-1346.0782549686996
 30
0.0
 41
1.0
 10
938.39136101050121
 20
-1346.1473017815429
 30
0.0
 41
0.9997730630735909
 10
938.39232932398932
 20
-1346.2164526055785
 30
0.0
 41
1.0
 10
938.39238643040744
 20
-1346.2205307847212
 30
0.0
 41
1.0
 10
938.39244353682557
 20
-1346.2246089638638
 30
0.0
 41
1.0
 10
938.39352606314992
 20
-1346.3019161461862
 30
0.0
 41
0.9998772614070506
 10
938.39218597641809
 20
-1346.3792192927476
 30
0.0
 41
1.0
 10
938.39209671321942
 20
-1346.3843684565818
 30
0.0
 41
1.0
 10
938.39200745002063
 20
-1346.389517620416
 30
0.0
 41
1.0
 10
938.39048883689065
 20
-1346.4771190946672
 30
0.0
 41
0.9999415567328472
 10
938.38707652664493
 20
-1346.564667256338
 30
0.0
 41
1.0
 10
938.38683520596987
 20
-1346.5708587160689
 30
0.0
 41
1.0
 10
938.38659388529481
 20
-1346.5770501757997
 30
0.0
 41
1.0
 10
938.3826989336975
 20
-1346.6769812569596
 30
0.0
 41
0.9999716810426993
 10
938.3773003505803
 20
-1346.776842395167
 30
0.0
 41
1.0
 10
938.37408755179092
 20
-1346.8362716448355
 30
0.0
 41
1.0
 10
938.37087475300154
 20
-1346.8957008945044
 30
0.0
 41
1.0
 10
938.3628008438493
 20
-1347.0450492957807
 30
0.0
 41
0.9999819129906342
 10
938.35293105223286
 20
-1347.1942897734857
 30
0.0
 41
1.0
 10
938.3430612606162
 20
-1347.3435302511971
 30
0.0
 41
1.0
 10
938.34062194005242
 20
-1347.3807232970462
 30
0.0
 41
1.0
 10
938.36332017389623
 20
-1347.3419822996948
 30
0.0
 41
0.9999982128215724
 10
938.38616473267325
 20
-1347.3033274057007
 30
0.0
 41
1.0
 10
938.41307429254084
 20
-1347.2577941916743
 30
0.0
 41
1.0
 10
938.43998385240843
 20
-1347.2122609776484
 30
0.0
 41
1.0
 10
938.51664753093326
 20
-1347.0825396555806
 30
0.0
 41
0.9998609190058166
 10
938.59759484379754
 20
-1346.9554472736468
 30
0.0
 41
1.0
 10
938.62724316527692
 20
-1346.908897540693
 30
0.0
 41
1.0
 10
938.65689148675642
 20
-1346.8623478077398
 30
0.0
 41
1.0
 10
938.73916370699339
 20
-1346.7331752377445
 30
0.0
 41
0.9999067609734061
 10
938.82493271646069
 20
-1346.6062975482982
 30
0.0
 41
1.0
 10
938.82733741966331
 20
-1346.602740282241
 30
0.0
 41
1.0
 10
938.82974212286592
 20
-1346.5991830161834
 30
0.0
 41
1.0
 10
938.91070172592424
 20
-1346.4794198588575
 30
0.0
 41
0.9998784952150619
 10
938.99535533560606
 20
-1346.3622386421484
 30
0.0
 41
1.0
 10
939.08000894528573
 20
-1346.2450574254417
 30
0.0
 41
0.9998532968283519
 10
939.1686265661067
 20
-1346.1308445169734
 30
0.0
 41
1.0
 10
939.18858835510036
 20
-1346.1051171959502
 30
0.0
 41
1.0
 10
939.20855014409392
 20
-1346.0793898749271
 30
0.0
 41
1.0
 10
939.32703419385177
 20
-1345.9266842639595
 30
0.0
 41
0.9991551975794828
 10
939.4576586434747
 20
-1345.7842247018771
 30
0.0
 41
1.0
 10
939.46116825945467
 20
-1345.7803971002522
 30
0.0
 41
1.0
 10
939.46467787543463
 20
-1345.7765694986279
 30
0.0
 41
1.0
 10
939.58828309309956
 20
-1345.6417651397919
 30
0.0
 41
0.9997418144181558
 10
939.71788523279884
 20
-1345.5127157291809
 30
0.0
 41
1.0
 10
939.8474873725005
 20
-1345.3836663185675
 30
0.0
 41
0.9989238204633423
 10
939.98848992074977
 20
-1345.2671813565298
 30
0.0
 41
1.0
 10
940.03373759888905
 20
-1345.2298013649215
 30
0.0
 41
1.0
 10
940.07898527702844
 20
-1345.1924213733128
 30
0.0
 41
1.0
 10
940.21922533425095
 20
-1345.0765663200209
 30
0.0
 41
0.9990825084096852
 10
940.36886526685498
 20
-1344.973137322188
 30
0.0
 41
1.0
 10
940.3789106309132
 20
-1344.9661941091076
 30
0.0
 41
1.0
 10
940.38895599497152
 20
-1344.9592508960272
 30
0.0
 41
1.0
 10
940.51850519946015
 20
-1344.8697083243542
 30
0.0
 41
0.9998164899825892
 10
940.65138940283521
 20
-1344.7851940828386
 30
0.0
 41
1.0
 10
940.66323496335951
 20
-1344.7776603163138
 30
0.0
 41
1.0
 10
940.67508052388382
 20
-1344.7701265497894
 30
0.0
 41
1.0
 10
940.78427360620913
 20
-1344.7006798413236
 30
0.0
 41
0.999747344913124
 10
940.89647756346085
 20
-1344.6362108835065
 30
0.0
 41
1.0
 10
941.0086815207062
 20
-1344.571741925693
 30
0.0
 41
0.999932786114517
 10
941.12235013147506
 20
-1344.5098919340085
 30
0.0
 41
1.0
 10
941.12290213403503
 20
-1344.50959157533
 30
0.0
 41
1.0
 10
941.12345413659511
 20
-1344.509291216651
 30
0.0
 41
1.0
 10
941.23822675248039
 20
-1344.4468405076113
 30
0.0
 41
0.9996956420483339
 10
941.35594007832287
 20
-1344.3901270406354
 30
0.0
 41
1.0
 10
941.38638048321445
 20
-1344.3754610639062
 30
0.0
 41
1.0
 10
941.41682088810592
 20
-1344.3607950871765
 30
0.0
 41
1.0
 10
941.51979799484866
 20
-1344.311181428734
 30
0.0
 41
0.9998070570176459
 10
941.62464438379038
 20
-1344.2656508418322
 30
0.0
 41
1.0
 10
941.72949077273006
 20
-1344.2201202549313
 30
0.0
 41
0.9997827436147317
 10
941.83614370934049
 20
-1344.1789990836196
 30
0.0
 41
1.0
 10
941.85536655897226
 20
-1344.1715875099871
 30
0.0
 41
1.0
 10
941.87458940860404
 20
-1344.1641759363547
 30
0.0
 41
1.0
 10
942.01968804447802
 20
-1344.1082316177781
 30
0.0
 41
0.9988031841977129
 10
942.16955840708385
 20
-1344.0667315536098
 30
0.0
 41
1.0
 10
942.1944756554434
 20
-1344.0598318078037
 30
0.0
 41
1.0
 10
942.21939290380294
 20
-1344.052932061998
 30
0.0
 41
1.0
 10
942.38666292945209
 20
-1344.0066139195901
 30
0.0
 41
0.9984748040549771
 10
942.55801983810409
 20
-1343.9790196873246
 30
0.0
 41
1.0
 10
942.56275897435194
 20
-1343.9782565268115
 30
0.0
 41
1.0
 10
942.56749811059979
 20
-1343.9774933662979
 30
0.0
 41
1.0
 10
942.72937674675211
 20
-1343.95142545506
 30
0.0
 41
0.9984436495479936
 10
942.89315149047775
 20
-1343.9435475012415
 30
0.0
 41
1.0
 10
942.91484869860801
 20
-1343.9425038140416
 30
0.0
 41
1.0
 10
942.93654590673816
 20
-1343.9414601268422
 30
0.0
 41
1.0
 10
943.05692623420123
 20
-1343.9356695474225
 30
0.0
 41
0.9987954789334722
 10
943.17729447911222
 20
-1343.9417060751648
 30
0.0
 41
1.0
 10
943.19725927161312
 20
-1343.9427073195038
 30
0.0
 41
1.0
 10
943.21722406411413
 20
-1343.9437085638428
 30
0.0
 41
1.0
 10
943.29766272402867
 20
-1343.9477426029075
 30
0.0
 41
0.9997941595878036
 10
943.37787150211648
 20
-1343.9550366688281
 30
0.0
 41
1.0
 10
943.45808028021179
 20
-1343.9623307347492
 30
0.0
 41
0.999858946623909
 10
943.53799882706767
 20
-1343.9723145891994
 30
0.0
 41
1.0
 10
943.57040502887503
 20
-1343.9763629461186
 30
0.0
 41
1.0
 10
943.60281123068239
 20
-1343.9804113030377
 30
0.0
 41
1.0
 10
943.74754218115186
 20
-1343.9984918713258
 30
0.0
 41
0.999349506324946
 10
943.89059342491464
 20
-1344.0269575810667
 30
0.0
 41
1.0
 10
943.92352712206923
 20
-1344.033511044282
 30
0.0
 41
1.0
 10
943.95646081922382
 20
-1344.0400645074974
 30
0.0
 41
1.0
 10
944.06575464242917
 20
-1344.0618128416331
 30
0.0
 41
0.9996788715560918
 10
944.17380621438451
 20
-1344.0890706409959
 30
0.0
 41
1.0
 10
944.17586921692339
 20
-1344.089591067569
 30
0.0
 41
1.0
 10
944.17793221946226
 20
-1344.0901114941416
 30
0.0
 41
1.0
 10
944.28185778634145
 20
-1344.1163284403592
 30
0.0
 41
0.999548065449395
 10
944.38402002157034
 20
-1344.1487433969833
 30
0.0
 41
1.0
 10
944.38570966369832
 20
-1344.1492795018967
 30
0.0
 41
1.0
 10
944.38739930582631
 20
-1344.1498156068105
 30
0.0
 41
1.0
 10
944.48618225679911
 20
-1344.1811583536078
 30
0.0
 41
0.9993867959455941
 10
944.58252941524233
 20
-1344.2193377228978
 30
0.0
 41
1.0
 10
944.58377236433057
 20
-1344.2198302647953
 30
0.0
 41
1.0
 10
944.58501531341869
 20
-1344.2203228066928
 30
0.0
 41
1.0
 10
944.67887657368885
 20
-1344.2575170921891
 30
0.0
 41
0.9992050256522274
 10
944.76947624871821
 20
-1344.3020709914263
 30
0.0
 41
1.0
 10
944.77021093143071
 20
-1344.3024322838874
 30
0.0
 41
1.0
 10
944.7709456141431
 20
-1344.302793576348
 30
0.0
 41
1.0
 10
944.86007592375097
 20
-1344.3466248906643
 30
0.0
 41
0.9990222350740993
 10
944.94498598514531
 20
-1344.398158158363
 30
0.0
 41
1.0
 10
944.94516987042857
 20
-1344.3982697612682
 30
0.0
 41
1.0
 10
944.94535375571184
 20
-1344.3983813641735
 30
0.0
 41
1.0
 10
945.02989604653919
 20
-1344.4496914260617
 30
0.0
 41
0.998864274380593
 10
945.10917058115797
 20
-1344.5088156135866
 30
0.0
 41
1.0
 10
945.18844511577799
 20
-1344.5679398011125
 30
0.0
 41
0.998768123330999
 10
945.26146890005373
 20
-1344.6346304925132
 30
0.0
 41
1.0
 10
945.26179782801921
 20
-1344.634930893727
 30
0.0
 41
1.0
 10
945.2621267559847
 20
-1344.6352312949411
 30
0.0
 41
1.0
 10
945.33580839619333
 20
-1344.7025227887711
 30
0.0
 41
0.9987496570899265
 10
945.4024022015218
 20
-1344.7768356028591
 30
0.0
 41
1.0
 10
945.40317437128124
 20
-1344.7776972762158
 30
0.0
 41
1.0
 10
945.40394654104057
 20
-1344.7785589495725
 30
0.0
 41
1.0
 10
945.47208468588667
 20
-1344.8545951103729
 30
0.0
 41
0.9988147669828412
 10
945.53250694011263
 20
-1344.9368961172158
 30
0.0
 41
1.0
 10
945.53362626619082
 20
-1344.9384207485691
 30
0.0
 41
1.0
 10
945.53474559226902
 20
-1344.9399453799224
 30
0.0
 41
1.0
 10
945.59740649864864
 20
-1345.0252956494687
 30
0.0
 41
0.9989452636216587
 10
945.65197341160808
 20
-1345.1160343386232
 30
0.0
 41
1.0
 10
945.65332213769511
 20
-1345.1182771196518
 30
0.0
 41
1.0
 10
945.65467086378214
 20
-1345.1205199006799
 30
0.0
 41
1.0
 10
945.71193522891701
 20
-1345.2157441518948
 30
0.0
 41
0.9991046436072176
 10
945.76094444224111
 20
-1345.3154685849249
 30
0.0
 41
1.0
 10
945.76240830382881
 20
-1345.3184472649928
 30
0.0
 41
1.0
 10
945.7638721654165
 20
-1345.3214259450606
 30
0.0
 41
1.0
 10
945.81580910191758
 20
-1345.4271077382296
 30
0.0
 41
0.9992763831100388
 10
945.85956223047265
 20
-1345.5364318001857
 30
0.0
 41
1.0
 10
945.86104150013625
 20
-1345.5401279877201
 30
0.0
 41
1.0
 10
945.86252076979997
 20
-1345.5438241752545
 30
0.0
 41
1.0
 10
945.90923243768293
 20
-1345.6605406122803
 30
0.0
 41
0.9994163472883197
 10
945.94786546887235
 20
-1345.7801742007441
 30
0.0
 41
1.0
 10
945.94910362111841
 20
-1345.7840083445244
 30
0.0
 41
1.0
 10
945.95034177336436
 20
-1345.7878424883052
 30
0.0
 41
1.0
 10
945.99022533438153
 20
-1345.9113485497824
 30
0.0
 41
0.9997268055891336
 10
946.02429339029436
 20
-1346.0365835817365
 30
0.0
 41
1.0
 10
946.02522357056341
 20
-1346.0400029478433
 30
0.0
 41
1.0
 10
946.02615375083246
 20
-1346.0434223139505
 30
0.0
 41
1.0
 10
946.05836144620662
 20
-1346.1618186136893
 30
0.0
 41
0.9996701319000911
 10
946.08444706297678
 20
-1346.2817125669508
 30
0.0
 41
1.0
 10
946.11053267974648
 20
-1346.4016065202113
 30
0.0
 41
0.9995785451109426
 10
946.12961625708613
 20
-1346.5228122812405
 30
0.0
 41
1.0
 10
946.13383603926059
 20
-1346.5496134360101
 30
0.0
 41
1.0
 10
946.13805582143516
 20
-1346.5764145907797
 30
0.0
 41
1.0
 10
946.16463079737309
 20
-1346.7452005644805
 30
0.0
 41
0.997992510121736
 10
946.16965638329941
 20
-1346.9159918925702
 30
0.0
 41
1.0
 10
946.17048119572405
 20
-1346.944022616055
 30
0.0
 41
1.0
 10
946.1713060081488
 20
-1346.9720533395393
 30
0.0
 41
1.0
 10
946.17468196922573
 20
-1347.0867832206668
 30
0.0
 41
0.9995314902263253
 10
946.17103177708725
 20
-1347.2015047044142
 30
0.0
 41
1.0
 10
946.16738158494877
 20
-1347.3162261881635
 30
0.0
 41
0.999624548694433
 10
946.15745248981784
 20
-1347.4305754592892
 30
0.0
 41
1.0
 10
946.15728944182365
 20
-1347.4324532154251
 30
0.0
 41
1.0
 10
946.15712639382934
 20
-1347.4343309715605
 30
0.0
 41
1.0
 10
946.14687120270946
 20
-1347.5524357549584
 30
0.0
 41
0.9997286095001359
 10
946.13112587913838
 20
-1347.6699346638502
 30
0.0
 41
1.0
 10
946.13073238648803
 20
-1347.6728710885518
 30
0.0
 41
1.0
 10
946.1303388938378
 20
-1347.6758075132529
 30
0.0
 41
1.0
 10
946.11380658496682
 20
-1347.7991792715457
 30
0.0
 41
0.9998265533969164
 10
946.09269112623303
 20
-1347.9218497463403
 30
0.0
 41
1.0
 10
946.09201458409598
 20
-1347.9257801248477
 30
0.0
 41
1.0
 10
946.09133804195881
 20
-1347.9297105033547
 30
0.0
 41
1.0
 10
946.06886949895306
 20
-1348.0602417351533
 30
0.0
 41
0.9999022530851631
 10
946.04276003434268
 20
-1348.1900937037931
 30
0.0
 41
1.0
 10
946.04178139317696
 20
-1348.1949608461823
 30
0.0
 41
1.0
 10
946.04080275201125
 20
-1348.1998279885715
 30
0.0
 41
1.0
 10
946.01273600507216
 20
-1348.3394142419775
 30
0.0
 41
0.9999524761933978
 10
945.98195303623697
 20
-1348.4784267351447
 30
0.0
 41
1.0
 10
945.98067692906091
 20
-1348.4841894944493
 30
0.0
 41
1.0
 10
945.97940082188484
 20
-1348.4899522537544
 30
0.0
 41
1.0
 10
945.94606563870002
 20
-1348.6404902655186
 30
0.0
 41
0.999981358873176
 10
945.91089463790536
 20
-1348.7906099781703
 30
0.0
 41
1.0
 10
945.90934071244783
 20
-1348.7972425685971
 30
0.0
 41
1.0
 10
945.9077867869903
 20
-1348.8038751590238
 30
0.0
 41
1.0
 10
945.86950793528899
 20
-1348.9672600524927
 30
0.0
 41
0.9999955237641309
 10
945.83025205729791
 20
-1349.1304129561436
 30
0.0
 41
1.0
 10
945.817970421665
 20
-1349.1814571466603
 30
0.0
 41
1.0
 10
945.80568878603208
 20
-1349.2325013371774
 30
0.0
 41
1.0
 10
945.74186963677073
 20
-1349.4977426218798
 30
0.0
 41
0.999999360439337
 10
945.67745068960505
 20
-1349.7628388725543
 30
0.0
 41
1.0
 10
945.67273185406293
 20
-1349.7822577805746
 30
0.0
 41
1.0
 10
945.66801301852081
 20
-1349.8016766885944
 30
0.0
 41
1.0
 10
945.59415640025873
 20
-1350.1056107553604
 30
0.0
 41
0.9999659914720898
 10
945.51529680437204
 20
-1350.408285301924
 30
0.0
 41
1.0
 10
945.51034411544288
 20
-1350.4272944391005
 30
0.0
 41
1.0
 10
945.50539142651371
 20
-1350.4463035762774
 30
0.0
 41
1.0
 10
945.41662645276688
 20
-1350.7869963972007
 30
0.0
 41
0.9999441976026718
 10
945.32068341980471
 20
-1351.1257378224959
 30
0.0
 41
1.0
 10
945.30398290137919
 20
-1351.1847015350231
 30
0.0
 41
1.0
 10
945.28728238295378
 20
-1351.2436652475508
 30
0.0
 41
1.0
 10
945.15793831313567
 20
-1351.7003340979168
 30
0.0
 41
0.9999625120739104
 10
945.02070554581644
 20
-1352.1546946318995
 30
0.0
 41
1.0
 10
944.9849156027318
 20
-1352.2731906585323
 30
0.0
 41
1.0
 10
944.94912565964717
 20
-1352.3916866851646
 30
0.0
 41
1.0
 10
944.87460545560532
 20
-1352.6384137632685
 30
0.0
 41
0.9999793386325828
 10
944.79691943247121
 20
-1352.8841624024935
 30
0.0
 41
1.0
 10
944.71923340933358
 20
-1353.1299110417299
 30
0.0
 41
1.0
 10
944.708453850463
 20
-1353.1639289461045
 30
0.0
 41
1.0
 10
942.85808079719379
 20
-1359.0510008685719
 30
0.0
 41
1.0
 10
941.00770774392458
 20
-1364.9380727910393
 30
0.0
 41
1.0
 10
940.04645105390102
 20
-1364.9380727910393
 30
0.0
 41
1.0
 10
939.08519436387746
 20
-1364.9380727910393
 30
0.0
 41
1.0
 10
940.70413914255596
 20
-1359.7900442892501
 30
0.0
 41
1.0
 10
942.32308392123446
 20
-1354.6420157874609
 30
0.0
 41
1.0
 10
942.36824974440538
 20
-1354.4979845652019
 30
0.0
 41
1.0
 10
942.41341556757618
 20
-1354.353953342943
 30
0.0
 41
1.0
 10
942.58371998493919
 20
-1353.8108623137791
 30
0.0
 41
0.9999911657906627
 10
942.74945279662597
 20
-1353.2663587823945
 30
0.0
 41
1.0
 10
942.77914874012538
 20
-1353.1687948423478
 30
0.0
 41
1.0
 10
942.80884468362478
 20
-1353.0712309023006
 30
0.0
 41
1.0
 10
942.91518560830013
 20
-1352.7218552510508
 30
0.0
 41
0.9999952428167706
 10
943.01936919763114
 20
-1352.3718302266816
 30
0.0
 41
1.0
 10
943.02442866796571
 20
-1352.3548319523993
 30
0.0
 41
1.0
 10
943.02948813830028
 20
-1352.337833678117
 30
0.0
 41
1.0
 10
943.12355278696862
 20
-1352.0218052022897
 30
0.0
 41
0.9999931687529914
 10
943.21527862482969
 20
-1351.7050899890614
 30
0.0
 41
1.0
 10
943.2202138892867
 20
-1351.6880492797991
 30
0.0
 41
1.0
 10
943.22514915374359
 20
-1351.6710085705372
 30
0.0
 41
1.0
 10
943.30700446270737
 20
-1351.3883747757768
 30
0.0
 41
0.9999893840817312
 10
943.38625168916019
 20
-1351.1049986465441
 30
0.0
 41
1.0
 10
943.46549891561904
 20
-1350.8216225172896
 30
0.0
 41
0.9999833980073773
 10
943.54147515636146
 20
-1350.5373519342593
 30
0.0
 41
1.0
 10
943.55047909308291
 20
-1350.5036630557838
 30
0.0
 41
1.0
 10
943.55948302980437
 20
-1350.4699741773084
 30
0.0
 41
1.0
 10
943.62844757866947
 20
-1350.2119383450172
 30
0.0
 41
0.9999233658068414
 10
943.69100254989064
 20
-1349.9522741862911
 30
0.0
 41
1.0
 10
943.75355752111091
 20
-1349.6926100275687
 30
0.0
 41
1.0
 10
943.79304093996848
 20
-1349.5288033631427
 30
0.0
 41
1.0
 10
943.79801954394406
 20
-1349.5081484012794
 30
0.0
 41
1.0
 10
943.80299814791965
 20
-1349.4874934394161
 30
0.0
 41
1.0
 10
943.83252435882719
 20
-1349.3649966987114
 30
0.0
 41
0.9999868670872479
 10
943.86079344282223
 20
-1349.2422037530714
 30
0.0
 41
1.0
 10
943.8646909299805
 20
-1349.2252741656521
 30
0.0
 41
1.0
 10
943.86858841713877
 20
-1349.2083445782328
 30
0.0
 41
1.0
 10
943.88906252681636
 20
-1349.1194108074346
 30
0.0
 41
0.9999778173357005
 10
943.9083501249338
 20
-1349.0302121901955
 30
0.0
 41
1.0
 10
943.92763772304727
 20
-1348.9410135729727
 30
0.0
 41
0.999960269286158
 10
943.94533208168048
 20
-1348.851485284536
 30
0.0
 41
1.0
 10
943.94853591375784
 20
-1348.8352748296516
 30
0.0
 41
1.0
 10
943.9517397458352
 20
-1348.8190643747671
 30
0.0
 41
1.0
 10
943.97584176862119
 20
-1348.6971151765688
 30
0.0
 41
0.9995617985320701
 10
943.99268511584012
 20
-1348.5739534288628
 30
0.0
 41
1.0
 10
943.99514960574629
 20
-1348.5559326114972
 30
0.0
 41
1.0
 10
943.99761409565247
 20
-1348.537911794132
 30
0.0
 41
1.0
 10
944.0178973567007
 20
-1348.3895967444328
 30
0.0
 41
0.9991121410639451
 10
944.0256227102891
 20
-1348.2401006456248
 30
0.0
 41
1.0
 10
944.02654150031367
 20
-1348.2223208090491
 30
0.0
 41
1.0
 10
944.02746029033813
 20
-1348.2045409724738
 30
0.0
 41
1.0
 10
944.03334806387716
 20
-1348.0906045468205
 30
0.0
 41
0.998979249490618
 10
944.02892897176002
 20
-1347.97660171092
 30
0.0
 41
1.0
 10
944.02828099989154
 20
-1347.9598854649967
 30
0.0
 41
1.0
 10
944.02763302802305
 20
-1347.9431692190733
 30
0.0
 41
1.0
 10
944.02450987964278
 20
-1347.8625988750255
 30
0.0
 41
0.9997820295394366
 10
944.01802588226701
 20
-1347.7822291532775
 30
0.0
 41
1.0
 10
944.01154188489102
 20
-1347.7018594315286
 30
0.0
 41
0.9998335105973496
 10
944.0021296893799
 20
-1347.621779815086
 30
0.0
 41
1.0
 10
944.00053476470339
 20
-1347.6082100846015
 30
0.0
 41
1.0
 10
943.99893984002688
 20
-1347.5946403541175
 30
0.0
 41
1.0
 10
943.98633779516251
 20
-1347.4874212767008
 30
0.0
 41
0.9996876457878684
 10
943.9683938823639
 20
-1347.380965848984
 30
0.0
 41
1.0
 10
943.96616221921875
 20
-1347.3677261137436
 30
0.0
 41
1.0
 10
943.96393055607359
 20
-1347.3544863785028
 30
0.0
 41
1.0
 10
943.95013473465247
 20
-1347.272640234542
 30
0.0
 41
0.9995547496493938
 10
943.93148141275981
 20
-1347.1917627373523
 30
0.0
 41
1.0
 10
943.93110745588785
 20
-1347.1901413266442
 30
0.0
 41
1.0
 10
943.9307334990159
 20
-1347.188519915936
 30
0.0
 41
1.0
 10
943.91282809086624
 20
-1347.1108852401567
 30
0.0
 41
0.999489942717414
 10
943.89000318218791
 20
-1347.0345519573266
 30
0.0
 41
1.0
 10
943.88954465544759
 20
-1347.0330185075395
 30
0.0
 41
1.0
 10
943.88908612870728
 20
-1347.0314850577524
 30
0.0
 41
1.0
 10
943.86717827350913
 20
-1346.9582186744942
 30
0.0
 41
0.9993784877590376
 10
943.84016263840203
 20
-1346.8866779693335
 30
0.0
 41
1.0
 10
943.83963094742592
 20
-1346.8852699866152
 30
0.0
 41
1.0
 10
943.8390992564498
 20
-1346.8838620038969
 30
0.0
 41
1.0
 10
943.81314700329585
 20
-1346.8151372641751
 30
0.0
 41
0.9992430832252495
 10
943.78193046813601
 20
-1346.7486381121062
 30
0.0
 41
1.0
 10
943.78134835208084
 20
-1346.7473980569921
 30
0.0
 41
1.0
 10
943.78076623602567
 20
-1346.7461580018776
 30
0.0
 41
1.0
 10
943.75071393297901
 20
-1346.6821389600432
 30
0.0
 41
0.9990789632800332
 10
943.71528330619992
 20
-1346.6209323482881
 30
0.0
 41
1.0
 10
943.71468760001676
 20
-1346.6199032624272
 30
0.0
 41
1.0
 10
943.7140918938336
 20
-1346.6188741765659
 30
0.0
 41
1.0
 10
943.67985267942186
 20
-1346.5597257365357
 30
0.0
 41
0.9988874801119637
 10
943.64019340339121
 20
-1346.5040660241202
 30
0.0
 41
1.0
 10
943.639637877327
 20
-1346.5032863724455
 30
0.0
 41
1.0
 10
943.63908235126269
 20
-1346.5025067207707
 30
0.0
 41
1.0
 10
943.60053412736022
 20
-1346.4484063117038
 30
0.0
 41
0.9986762060693689
 10
943.55663165608303
 20
-1346.3985525972635
 30
0.0
 41
1.0
 10
943.55618769575096
 20
-1346.3980484554468
 30
0.0
 41
1.0
 10
943.5557437354189
 20
-1346.3975443136305
 30
0.0
 41
1.0
 10
943.51272918480697
 20
-1346.3486988828245
 30
0.0
 41
0.9984621642488993
 10
943.46457162802903
 20
-1346.3049155823533
 30
0.0
 41
1.0
 10
943.46432499351181
 20
-1346.3046913501894
 30
0.0
 41
1.0
 10
943.4640783589947
 20
-1346.3044671180251
 30
0.0
 41
1.0
 10
943.4164140712503
 20
-1346.2611322818811
 30
0.0
 41
0.9982724693849676
 10
943.36399543940979
 20
-1346.2236879313646
 30
0.0
 41
1.0
 10
943.31157680756769
 20
-1346.1862435808466
 30
0.0
 41
0.9981399180158096
 10
943.25499074417405
 20
-1346.155457061403
 30
0.0
 41
1.0
 10
943.25494508209613
 20
-1346.155432218246
 30
0.0
 41
1.0
 10
943.25489942001809
 20
-1346.155407375089
 30
0.0
 41
1.0
 10
943.19822203246895
 20
-1346.1245711693314
 30
0.0
 41
0.9980927086836448
 10
943.138176681402
 20
-1346.1009543604787
 30
0.0
 41
1.0
 10
943.13773651169004
 20
-1346.1007812346033
 30
0.0
 41
1.0
 10
943.13729634197807
 20
-1346.1006081087285
 30
0.0
 41
1.0
 10
943.07637065149004
 20
-1346.0766450481265
 30
0.0
 41
0.9981411356561207
 10
943.01298213009261
 20
-1346.0602724066216
 30
0.0
 41
1.0
 10
943.01210001338927
 20
-1346.0600445644159
 30
0.0
 41
1.0
 10
943.01121789668605
 20
-1346.0598167222097
 30
0.0
 41
1.0
 10
942.94606514188285
 20
-1346.0429883962934
 30
0.0
 41
0.9983031812936009
 10
942.87939771288711
 20
-1346.0338490351169
 30
0.0
 41
1.0
 10
942.87052668748561
 20
-1346.0326329164459
 30
0.0
 41
1.0
 10
942.8616556620841
 20
-1346.0314167977749
 30
0.0
 41
1.0
 10
942.8073060195785
 20
-1346.0239660677835
 30
0.0
 41
0.9983887708265957
 10
942.75246217028428
 20
-1346.0227213941498
 30
0.0
 41
1.0
 10
942.74439876506506
 20
-1346.0225383962752
 30
0.0
 41
1.0
 10
942.73633535984584
 20
-1346.0223553984001
 30
0.0
 41
1.0
 10
942.6976183209897
 20
-1346.0214767205166
 30
0.0
 41
0.9998869563079658
 10
942.65889236778878
 20
-1346.0217625898763
 30
0.0
 41
1.0
 10
942.62016641451146
 20
-1346.0220484592364
 30
0.0
 41
0.9999972320132946
 10
942.58144223522493
 20
-1346.0225165587672
 30
0.0
 41
1.0
 10
942.56208921872008
 20
-1346.0227504988557
 30
0.0
 41
1.0
 10
942.54273620221534
 20
-1346.0229844389441
 30
0.0
 41
1.0
 10
942.46530598983907
 20
-1346.0239204186519
 30
0.0
 41
0.9997304945087144
 10
942.38800268359637
 20
-1346.0284495124383
 30
0.0
 41
1.0
 10
942.37895304189738
 20
-1346.0289797184278
 30
0.0
 41
1.0
 10
942.3699034001985
 20
-1346.0295099244177
 30
0.0
 41
1.0
 10
942.27450081055213
 20
-1346.0350994301834
 30
0.0
 41
0.9997888306414127
 10
942.17940847470913
 20
-1346.0446043946727
 30
0.0
 41
1.0
 10
942.17068741313665
 20
-1346.0454761093047
 30
0.0
 41
1.0
 10
942.16196635156427
 20
-1346.0463478239367
 30
0.0
 41
1.0
 10
942.04943189257949
 20
-1346.0575962176895
 30
0.0
 41
0.9984170238191193
 10
941.93887274523115
 20
-1346.0814122996244
 30
0.0
 41
1.0
 10
941.90249161424049
 20
-1346.0892493354313
 30
0.0
 41
1.0
 10
941.86611048324994
 20
-1346.0970863712382
 30
0.0
 41
1.0
 10
941.75091941482981
 20
-1346.1219002377475
 30
0.0
 41
0.9976592854198728
 10
941.64019124842537
 20
-1346.1621989148948
 30
0.0
 41
1.0
 10
941.52946308201865
 20
-1346.2024975920426
 30
0.0
 41
0.9993255074352291
 10
941.42199128322727
 20
-1346.2508144905355
 30
0.0
 41
1.0
 10
941.41736610430507
 20
-1346.2528938667347
 30
0.0
 41
1.0
 10
941.41274092538299
 20
-1346.2549732429338
 30
0.0
 41
1.0
 10
941.29601876874585
 20
-1346.3074488938255
 30
0.0
 41
0.9976475078274248
 10
941.18757142443576
 20
-1346.375396883484
 30
0.0
 41
1.0
 10
941.1692290302999
 20
-1346.3868893622994
 30
0.0
 41
1.0
 10
941.15088663616405
 20
-1346.3983818411143
 30
0.0
 41
1.0
 10
941.06668444461354
 20
-1346.451138961882
 30
0.0
 41
0.9995131336406495
 10
940.98593672965615
 20
-1346.5090451738351
 30
0.0
 41
1.0
 10
940.90518901469977
 20
-1346.5669513857874
 30
0.0
 41
0.99958101076054
 10
940.82792736697172
 20
-1346.6294330682526
 30
0.0
 41
1.0
 10
940.8249573357607
 20
-1346.6318349397179
 30
0.0
 41
1.0
 10
940.82198730454979
 20
-1346.6342368111832
 30
0.0
 41
1.0
 10
940.73878559440027
 20
-1346.7015222365785
 30
0.0
 41
0.999661783795493
 10
940.65919490726378
 20
-1346.7730426921394
 30
0.0
 41
1.0
 10
940.64706415638659
 20
-1346.78394342513
 30
0.0
 41
1.0
 10
940.6349334055094
 20
-1346.7948441581211
 30
0.0
 41
1.0
 10
940.56665787811153
 20
-1346.8561967735945
 30
0.0
 41
0.9997267750052267
 10
940.50132436983029
 20
-1346.9206733101178
 30
0.0
 41
1.0
 10
940.43599086153904
 20
-1346.9851498466505
 30
0.0
 41
0.9999667288966394
 10
940.3717179183983
 20
-1347.0506836535392
 30
0.0
 41
1.0
 10
940.30289047062399
 20
-1347.1208613122967
 30
0.0
 41
1.0
 10
940.23406302284968
 20
-1347.1910389710542
 30
0.0
 41
1.0
 10
940.03213518415191
 20
-1347.3969280954661
 30
0.0
 41
0.9988205335174807
 10
939.85112956717364
 20
-1347.6214323275253
 30
0.0
 41
1.0
 10
939.82048960226882
 20
-1347.6594355779553
 30
0.0
 41
1.0
 10
939.789849637364
 20
-1347.6974388283857
 30
0.0
 41
1.0
 10
939.54756409057404
 20
-1347.9979495613075
 30
0.0
 41
0.9997077826755217
 10
939.3200861394705
 20
-1348.3098193555215
 30
0.0
 41
1.0
 10
939.31836272433975
 20
-1348.3121821389013
 30
0.0
 41
1.0
 10
939.31663930920899
 20
-1348.3145449222816
 30
0.0
 41
1.0
 10
939.08571452784361
 20
-1348.6311402832562
 30
0.0
 41
0.9989147567079302
 10
938.88525102495885
 20
-1348.9678497444424
 30
0.0
 41
1.0
 10
938.86050987965302
 20
-1349.0094063249931
 30
0.0
 41
1.0
 10
938.8357687343472
 20
-1349.0509629055437
 30
0.0
 41
1.0
 10
938.68055743570756
 20
-1349.31166429
 30
0.0
 41
0.9997476598181999
 10
938.53721244819849
 20
-1349.5790740385814
 30
0.0
 41
1.0
 10
938.39386746068703
 20
-1349.8464837871675
 30
0.0
 41
0.9996258967110338
 10
938.26535920875722
 20
-1350.121331723788
 30
0.0
 41
1.0
 10
938.25215929930596
 20
-1350.1495631238872
 30
0.0
 41
1.0
 10
938.23895938985459
 20
-1350.1777945239864
 30
0.0
 41
1.0
 10
938.09875066885797
 20
-1350.4776669219323
 30
0.0
 41
0.9998735413943659
 10
937.96814932213738
 20
-1350.7818465214004
 30
0.0
 41
1.0
 10
937.9647064940757
 20
-1350.7898651068681
 30
0.0
 41
1.0
 10
937.96126366601402
 20
-1350.7978836923353
 30
0.0
 41
1.0
 10
937.83754797541621
 20
-1351.08602612087
 30
0.0
 41
0.9999377418857626
 10
937.72029317324223
 20
-1351.3768575885433
 30
0.0
 41
1.0
 10
937.60303837106335
 20
-1351.667689056228
 30
0.0
 41
0.9999508299504447
 10
937.49157442768808
 20
-1351.9607887330449
 30
0.0
 41
1.0
 10
937.4884936590264
 20
-1351.9688897590067
 30
0.0
 41
1.0
 10
937.48541289036473
 20
-1351.9769907849682
 30
0.0
 41
1.0
 10
937.36778740966315
 20
-1352.286292513716
 30
0.0
 41
0.9999609228434099
 10
937.25564880678883
 20
-1352.5976255297319
 30
0.0
 41
1.0
 10
937.25269279643908
 20
-1352.6058323701418
 30
0.0
 41
1.0
 10
937.24973678608922
 20
-1352.6140392105517
 30
0.0
 41
1.0
 10
937.13168616251301
 20
-1352.9417859073938
 30
0.0
 41
0.9999674607395914
 10
937.0189386364458
 20
-1353.2713945273867
 30
0.0
 41
1.0
 10
936.96754024588517
 20
-1353.4216537230732
 30
0.0
 41
1.0
 10
936.91614185532467
 20
-1353.5719129187596
 30
0.0
 41
1.0
 10
936.80013124856703
 20
-1353.9110609012614
 30
0.0
 41
0.9999287532309926
 10
936.69224984459413
 20
-1354.2528816402437
 30
0.0
 41
1.0
 10
936.64577258848476
 20
-1354.4001441845203
 30
0.0
 41
1.0
 10
936.5992953323755
 20
-1354.5474067287964
 30
0.0
 41
1.0
 10
936.58436844064636
 20
-1354.5947023791468
 30
0.0
 41
0.999999822513946
 10
936.56949793189301
 20
-1354.6420157874609
 30
0.0
 41
1.0
 10
934.94884179509756
 20
-1359.7900442892501
 30
0.0
 41
1.0
 10
933.32818565830212
 20
-1364.9380727910393
 30
0.0
 41
1.0
 10
932.42287721441119
 20
-1364.9380727910393
 30
0.0
 41
1.0
 10
931.51756877052026
 20
-1364.9380727910393
 30
0.0
 41
1.0
 10
933.3696531819063
 20
-1359.0510008685719
 30
0.0
 41
1.0
 10
935.22173759329235
 20
-1353.1639289461045
 30
0.0
 41
1.0
 10
935.23185935159495
 20
-1353.1318857326551
 30
0.0
 41
1.0
 10
935.30446702044469
 20
-1352.9015861908292
 30
0.0
 41
1.0
 10
935.37707468929148
 20
-1352.6712866490129
 30
0.0
 41
0.9999825681978516
 10
935.44695772850548
 20
-1352.4401457539398
 30
0.0
 41
1.0
 10
935.49524879066553
 20
-1352.2804211704465
 30
0.0
 41
1.0
 10
935.54353985282546
 20
-1352.1206965869533
 30
0.0
 41
1.0
 10
935.64069220614442
 20
-1351.7993613651715
 30
0.0
 41
0.9999672528964201
 10
935.73263101176678
 20
-1351.4764958195883
 30
0.0
 41
1.0
 10
935.73541989543469
 20
-1351.4667019742051
 30
0.0
 41
1.0
 10
935.73820877910248
 20
-1351.4569081288219
 30
0.0
 41
1.0
 10
935.82456981738505
 20
-1351.1536302740196
 30
0.0
 41
0.9999899749146355
 10
935.90821142692482
 20
-1350.8495911855498
 30
0.0
 41
1.0
 10
935.9183173459428
 20
-1350.8128559478696
 30
0.0
 41
1.0
 10
935.92842326496077
 20
-1350.7761207101894
 30
0.0
 41
1.0
 10
935.99185303645936
 20
-1350.5455520970972
 30
0.0
 41
0.9999214200506019
 10
936.0494824648373
 20
-1350.3134657548881
 30
0.0
 41
1.0
 10
936.06224831701707
 20
-1350.2620548694949
 30
0.0
 41
1.0
 10
936.07501416919695
 20
-1350.2106439841018
 30
0.0
 41
1.0
 10
936.10711189321614
 20
-1350.0813794126743
 30
0.0
 41
0.9999828681652481
 10
936.1376941452105
 20
-1349.9517479382112
 30
0.0
 41
1.0
 10
936.16827639720464
 20
-1349.8221164637489
 30
0.0
 41
0.9999389844482395
 10
936.19598738599723
 20
-1349.6918410078338
 30
0.0
 41
1.0
 10
936.20312512971645
 20
-1349.6582849040014
 30
0.0
 41
1.0
 10
936.21026287343557
 20
-1349.6247288001687
 30
0.0
 41
1.0
 10
936.25224934966366
 20
-1349.4273411366021
 30
0.0
 41
0.9998933699441053
 10
936.28845361406707
 20
-1349.228811528837
 30
0.0
 41
1.0
 10
936.28982643928362
 20
-1349.2212835081391
 30
0.0
 41
1.0
 10
936.29119926450016
 20
-1349.2137554874416
 30
0.0
 41
1.0
 10
936.33014917933474
 20
-1349.0001698382925
 30
0.0
 41
0.9996850305193387
 10
936.35833285559306
 20
-1348.7848988328592
 30
0.0
 41
1.0
 10
936.3603278889625
 20
-1348.769660478737
 30
0.0
 41
1.0
 10
936.36232292233183
 20
-1348.7544221246144
 30
0.0
 41
1.0
 10
936.38973078479114
 20
-1348.5450768974592
 30
0.0
 41
0.9994697936706434
 10
936.40345534401104
 20
-1348.3343917021243
 30
0.0
 41
1.0
 10
936.40393241326058
 20
-1348.3270682299149
 30
0.0
 41
1.0
 10
936.40440948251012
 20
-1348.3197447577054
 30
0.0
 41
1.0
 10
936.41717990323025
 20
-1348.1237065067949
 30
0.0
 41
0.9991804893137728
 10
936.41405158695784
 20
-1347.92727765682
 30
0.0
 41
1.0
 10
936.41396770813571
 20
-1347.9220108554082
 30
0.0
 41
1.0
 10
936.41388382931359
 20
-1347.9167440539964
 30
0.0
 41
1.0
 10
936.41092327068532
 20
-1347.7308488068475
 30
0.0
 41
0.9988448329321118
 10
936.39013172506134
 20
-1347.5460962170132
 30
0.0
 41
1.0
 10
936.38853765135821
 20
-1347.5319313612413
 30
0.0
 41
1.0
 10
936.38694357765507
 20
-1347.5177665054694
 30
0.0
 41
1.0
 10
936.36934017943736
 20
-1347.361343627178
 30
0.0
 41
0.9985503209458214
 10
936.33502390713795
 20
-1347.2077194430904
 30
0.0
 41
1.0
 10
936.3274379150663
 20
-1347.1737591156884
 30
0.0
 41
1.0
 10
936.31985192299464
 20
-1347.1397987882865
 30
0.0
 41
1.0
 10
936.30070763483764
 20
-1347.0540952589986
 30
0.0
 41
0.9991036781370306
 10
936.2743827731872
 20
-1346.9703181716764
 30
0.0
 41
1.0
 10
936.27040054773443
 20
-1346.9576450091758
 30
0.0
 41
1.0
 10
936.26641832228165
 20
-1346.9449718466753
 30
0.0
 41
1.0
 10
936.24805791153813
 20
-1346.8865410843578
 30
0.0
 41
0.99988745043693
 10
936.22795270385757
 20
-1346.8286874821279
 30
0.0
 41
1.0
 10
936.20784749617792
 20
-1346.7708338799021
 30
0.0
 41
0.9994041637544638
 10
936.18379888324102
 20
-1346.7145051760058
 30
0.0
 41
1.0
 10
936.17960209901946
 20
-1346.7046751115295
 30
0.0
 41
1.0
 10
936.1754053147979
 20
-1346.6948450470536
 30
0.0
 41
1.0
 10
936.14752648380249
 20
-1346.6295448810847
 30
0.0
 41
0.9991846840703108
 10
936.11447012710914
 20
-1346.5667068498037
 30
0.0
 41
1.0
 10
936.1133335207154
 20
-1346.5645462333514
 30
0.0
 41
1.0
 10
936.11219691432166
 20
-1346.5623856168991
 30
0.0
 41
1.0
 10
936.08141377041852
 20
-1346.5038688185273
 30
0.0
 41
0.9989253167922726
 10
936.04534434636116
 20
-1346.4484538901334
 30
0.0
 41
1.0
 10
936.04429022168677
 20
-1346.4468343953708
 30
0.0
 41
1.0
 10
936.04323609701237
 20
-1346.4452149006083
 30
0.0
 41
1.0
 10
936.00927492230585
 20
-1346.3930389617421
 30
0.0
 41
0.9986467172834267
 10
935.97007776966882
 20
-1346.3446729281131
 30
0.0
 41
1.0
 10
935.96920364096752
 20
-1346.3435943258341
 30
0.0
 41
1.0
 10
935.96832951226622
 20
-1346.3425157235552
 30
0.0
 41
1.0
 10
935.93088061702986
 20
-1346.2963068944819
 30
0.0
 41
0.9984001104266119
 10
935.88845388651418
 20
-1346.254621787115
 30
0.0
 41
1.0
 10
935.8878667484064
 20
-1346.2540449122353
 30
0.0
 41
1.0
 10
935.88727961029849
 20
-1346.2534680373556
 30
0.0
 41
1.0
 10
935.84602715599817
 20
-1346.2129366797476
 30
0.0
 41
0.9982442159084184
 10
935.80027105466149
 20
-1346.1775681184863
 30
0.0
 41
1.0
 10
935.80005625919898
 20
-1346.1774020858425
 30
0.0
 41
1.0
 10
935.79984146373658
 20
-1346.1772360531986
 30
0.0
 41
1.0
 10
935.75451495332527
 20
-1346.1421995572255
 30
0.0
 41
0.9982450060835035
 10
935.70536397425417
 20
-1346.1127677741924
 30
0.0
 41
1.0
 10
935.65621299518295
 20
-1346.0833359911589
 30
0.0
 41
0.9983922639631681
 10
935.60404668901879
 20
-1346.0596563565055
 30
0.0
 41
1.0
 10
935.60381981169371
 20
-1346.0595533710239
 30
0.0
 41
1.0
 10
935.60359293436863
 20
-1346.0594503855418
 30
0.0
 41
1.0
 10
935.55097287355602
 20
-1346.0355647799256
 30
0.0
 41
0.9986517147152564
 10
935.49615990068946
 20
-1346.017263660804
 30
0.0
 41
1.0
 10
935.49548197926038
 20
-1346.0170373143719
 30
0.0
 41
1.0
 10
935.49480405783117
 20
-1346.0168109679403
 30
0.0
 41
1.0
 10
935.43863524210508
 20
-1345.9980571559545
 30
0.0
 41
0.998943559895444
 10
935.38098185495085
 20
-1345.9845394537197
 30
0.0
 41
1.0
 10
935.37990173537173
 20
-1345.9842862034675
 30
0.0
 41
1.0
 10
935.37882161579273
 20
-1345.9840329532149
 30
0.0
 41
1.0
 10
935.31900798947902
 20
-1345.9700087504748
 30
0.0
 41
0.9992249241241055
 10
935.2582764805818
 20
-1345.9607334077591
 30
0.0
 41
1.0
 10
935.25686279229012
 20
-1345.9605174993512
 30
0.0
 41
1.0
 10
935.25544910399856
 20
-1345.9603015909433
 30
0.0
 41
1.0
 10
935.19189021851344
 20
-1345.9505944314119
 30
0.0
 41
0.9994396597832435
 10
935.12782428197124
 20
-1345.9451615090666
 30
0.0
 41
1.0
 10
935.10868361449889
 20
-1345.9435383413484
 30
0.0
 41
1.0
 10
935.08954294702653
 20
-1345.9419151736302
 30
0.0
 41
1.0
 10
934.98719567553223
 20
-1345.933235915847
 30
0.0
 41
0.9987693403120739
 10
934.88449205194331
 20
-1345.9347389792997
 30
0.0
 41
1.0
 10
934.87423771771819
 20
-1345.9348890510737
 30
0.0
 41
1.0
 10
934.86398338349306
 20
-1345.9350391228481
 30
0.0
 41
1.0
 10
934.7544276173137
 20
-1345.9366424671352
 30
0.0
 41
0.9989753644965886
 10
934.64546561729696
 20
-1345.9481454740603
 30
0.0
 41
1.0
 10
934.53650361727921
 20
-1345.9596484809854
 30
0.0
 41
0.9983190067304966
 10
934.42960480631223
 20
-1345.983683472773
 30
0.0
 41
1.0
 10
934.4207038547072
 20
-1345.9856847513356
 30
0.0
 41
1.0
 10
934.41180290310206
 20
-1345.9876860298978
 30
0.0
 41
1.0
 10
934.28710218892502
 20
-1346.0157235788097
 30
0.0
 41
0.9985539388304129
 10
934.16613243524898
 20
-1346.0569872548544
 30
0.0
 41
1.0
 10
934.16378700428709
 20
-1346.0577872986705
 30
0.0
 41
1.0
 10
934.16144157332508
 20
-1346.058587342487
 30
0.0
 41
1.0
 10
934.03578095772741
 20
-1346.1014511061639
 30
0.0
 41
0.9988468746494036
 10
933.91481061542584
 20
-1346.156169191227
 30
0.0
 41
1.0
 10
933.91162779343745
 20
-1346.1576088657866
 30
0.0
 41
1.0
 10
933.90844497144894
 20
-1346.1590485403467
 30
0.0
 41
1.0
 10
933.78110898517207
 20
-1346.2166459745285
 30
0.0
 41
0.9991322885918841
 10
933.65900840111567
 20
-1346.2846413067105
 30
0.0
 41
1.0
 10
933.64140639007178
 20
-1346.2944435087002
 30
0.0
 41
1.0
 10
933.623804379028
 20
-1346.3042457106899
 30
0.0
 41
1.0
 10
933.52162769797155
 20
-1346.36114582647
 30
0.0
 41
0.9993860037849864
 10
933.423686693896
 20
-1346.4250618420597
 30
0.0
 41
1.0
 10
933.4180683810398
 20
-1346.4287283367571
 30
0.0
 41
1.0
 10
933.41245006818372
 20
-1346.4323948314545
 30
0.0
 41
1.0
 10
933.32574568981522
 20
-1346.4889778576526
 30
0.0
 41
0.9998821494952096
 10
933.24081931400974
 20
-1346.548196087725
 30
0.0
 41
1.0
 10
933.15589293819289
 20
-1346.6074143178043
 30
0.0
 41
0.9997976482742884
 10
933.07341730778819
 20
-1346.6700007258473
 30
0.0
 41
1.0
 10
933.05878104298586
 20
-1346.6811074156249
 30
0.0
 41
1.0
 10
933.04414477818341
 20
-1346.6922141054029
 30
0.0
 41
1.0
 10
932.93239661817495
 20
-1346.7770138930005
 30
0.0
 41
0.9998091630799412
 10
932.82404634014927
 20
-1346.8661142437004
 30
0.0
 41
1.0
 10
932.81104058766846
 20
-1346.8768093441495
 30
0.0
 41
1.0
 10
932.79803483518765
 20
-1346.8875044445981
 30
0.0
 41
1.0
 10
932.66367305220456
 20
-1346.9979949961926
 30
0.0
 41
0.9995035112317731
 10
932.53653717444024
 20
-1347.1167288132083
 30
0.0
 41
1.0
 10
932.52688986405201
 20
-1347.1257385593672
 30
0.0
 41
1.0
 10
932.51724255366389
 20
-1347.1347483055256
 30
0.0
 41
1.0
 10
932.39381949090125
 20
-1347.2500146772786
 30
0.0
 41
0.999463042429883
 10
932.27821108511819
 20
-1347.3731174205132
 30
0.0
 41
1.0
 10
932.27452824634702
 20
-1347.3770390000259
 30
0.0
 41
1.0
 10
932.27084540757585
 20
-1347.3809605795386
 30
0.0
 41
1.0
 10
932.1626026793366
 20
-1347.4962201637459
 30
0.0
 41
0.9995160693750224
 10
932.06173664980236
 20
-1347.617987581621
 30
0.0
 41
1.0
 10
932.05980292972231
 20
-1347.6203220058283
 30
0.0
 41
1.0
 10
932.05786920964238
 20
-1347.6226564300355
 30
0.0
 41
1.0
 10
931.96087062026936
 20
-1347.7397549994953
 30
0.0
 41
0.9996561470514614
 10
931.87014440160453
 20
-1347.8617777619429
 30
0.0
 41
1.0
 10
931.86398673570375
 20
-1347.8700595509836
 30
0.0
 41
1.0
 10
931.85782906980296
 20
-1347.8783413400242
 30
0.0
 41
1.0
 10
931.77941818293789
 20
-1347.9838005243928
 30
0.0
 41
0.9998349055172654
 10
931.70489090100637
 20
-1348.0920391080554
 30
0.0
 41
1.0
 10
931.63036361907837
 20
-1348.2002776917125
 30
0.0
 41
0.9999728109569043
 10
931.55744072316668
 20
-1348.3096036172701
 30
0.0
 41
1.0
 10
931.55612550775356
 20
-1348.3115753867746
 30
0.0
 41
1.0
 10
931.55481029234045
 20
-1348.3135471562791
 30
0.0
 41
1.0
 10
931.47925696562629
 20
-1348.4268166208103
 30
0.0
 41
0.9999972147430429
 10
931.40423915522695
 20
-1348.5404414636837
 30
0.0
 41
1.0
 10
931.39926761260745
 20
-1348.5479715521515
 30
0.0
 41
1.0
 10
931.39429606998806
 20
-1348.5555016406197
 30
0.0
 41
1.0
 10
931.30933517436802
 20
-1348.6841866604018
 30
0.0
 41
0.9999371979010805
 10
931.22727982496838
 20
-1348.8147435741721
 30
0.0
 41
1.0
 10
931.22377094060471
 20
-1348.8203265022403
 30
0.0
 41
1.0
 10
931.22026205624104
 20
-1348.825909430308
 30
0.0
 41
1.0
 10
931.13118893811406
 20
-1348.9676322002142
 30
0.0
 41
0.9998272025610663
 10
931.04744554723038
 20
-1349.1125680769592
 30
0.0
 41
1.0
 10
931.03223037520638
 20
-1349.1389011914157
 30
0.0
 41
1.0
 10
931.01701520318238
 20
-1349.1652343058722
 30
0.0
 41
1.0
 10
930.90284146825309
 20
-1349.3628364115261
 30
0.0
 41
0.9995217214838039
 10
930.80110177869722
 20
-1349.5671187393891
 30
0.0
 41
1.0
 10
930.79345821606137
 20
-1349.5824661890938
 30
0.0
 41
1.0
 10
930.78581465342552
 20
-1349.597813638798
 30
0.0
 41
1.0
 10
930.69890936083664
 20
-1349.7723100968783
 30
0.0
 41
0.9998269762606494
 10
930.61855489456468
 20
-1349.9499183836015
 30
0.0
 41
1.0
 10
930.53820042829511
 20
-1350.1275266703187
 30
0.0
 41
0.9998944747389483
 10
930.46303963372998
 20
-1350.3073943959494
 30
0.0
 41
1.0
 10
930.45808596413622
 20
-1350.3192490508727
 30
0.0
 41
1.0
 10
930.45313229454234
 20
-1350.3311037057965
 30
0.0
 41
1.0
 10
930.37248523399307
 20
-1350.5241006458064
 30
0.0
 41
0.9999506734405587
 10
930.29568770508899
 20
-1350.7186614506645
 30
0.0
 41
1.0
 10
930.28108773981683
 20
-1350.7556493724737
 30
0.0
 41
1.0
 10
930.26648777454466
 20
-1350.7926372942829
 30
0.0
 41
1.0
 10
930.21889017619083
 20
-1350.9132222555063
 30
0.0
 41
0.9999912393922807
 10
930.17230373216285
 20
-1351.0342014582161
 30
0.0
 41
1.0
 10
930.12571728813236
 20
-1351.1551806609323
 30
0.0
 41
0.9999927113997994
 10
930.08005599375065
 20
-1351.2765120684016
 30
0.0
 41
1.0
 10
930.06608756235073
 20
-1351.3136290504067
 30
0.0
 41
1.0
 10
930.0521191309507
 20
-1351.3507460324117
 30
0.0
 41
1.0
 10
929.97852097376085
 20
-1351.5463114039121
 30
0.0
 41
0.9999487550951227
 10
929.90889734878954
 20
-1351.7433267690935
 30
0.0
 41
1.0
 10
929.88530373885192
 20
-1351.8100900793884
 30
0.0
 41
1.0
 10
929.86171012891441
 20
-1351.8768533896832
 30
0.0
 41
1.0
 10
929.76702449455081
 20
-1352.144787224488
 30
0.0
 41
0.9999808436927506
 10
929.67566290590366
 20
-1352.413872655769
 30
0.0
 41
1.0
 10
929.58430131726504
 20
-1352.6829580870249
 30
0.0
 41
0.9999873932924134
 10
929.49564660854423
 20
-1352.9529474420469
 30
0.0
 41
1.0
 10
929.47555425167479
 20
-1353.0141367748001
 30
0.0
 41
1.0
 10
929.45546189480535
 20
-1353.0753261075529
 30
0.0
 41
1.0
 10
929.32662247234703
 20
-1353.4676941280763
 30
0.0
 41
0.9999794883030025
 10
929.20281968739096
 20
-1353.8616803343484
 30
0.0
 41
1.0
 10
929.19166742794812
 20
-1353.8971709446023
 30
0.0
 41
1.0
 10
929.18051516850528
 20
-1353.9326615548566
 30
0.0
 41
1.0
 10
929.03795700460023
 20
-1354.386334306967
 30
0.0
 41
0.9999982761708729
 10
928.89708456460289
 20
-1354.840533329033
 30
0.0
 41
1.0
 10
927.30894423203029
 20
-1359.8893030600361
 30
0.0
 41
1.0
 10
925.72080389945768
 20
-1364.9380727910393
 30
0.0
 41
1.0
 10
924.77205328798129
 20
-1364.9380727910393
 30
0.0
 41
1.0
 10
923.82330267650491
 20
-1364.9380727910393
 30
0.0
 41
1.0
 10
927.06158716265804
 20
-1354.6107505910932
 30
0.0
 41
1.0
 10
930.29987164881118
 20
-1344.283428391147
 30
0.0
 41
1.0
  0
LWPOLYLINE
  5
146
100
AcDbEntity
  8
template
370
              15
390
0
  6
Continuous
 62
               7
100
AcDbPolyline
 90
      232
 70
             128
 10
904.59632587498413
 20
-1345.3677712226627
 42
0.0004370800710851
 10
904.54344870095588
 20
-1345.4364378618616
 10
904.50416446978466
 20
-1345.4875449748151
 42
0.0030481992173349
 10
904.37382575265747
 20
-1345.6592666671704
 10
904.33531408091505
 20
-1345.7106534509476
 42
0.0042058245756245
 10
904.1313290302387
 20
-1345.9876591960301
 10
904.07892390774452
 20
-1346.0600920428019
 42
0.0120948898745397
 10
903.78287999098438
 20
-1346.490841647349
 10
903.68668749185986
 20
-1346.6383223825778
 42
0.0141601263946488
 10
903.38304344493918
 20
-1347.1339917193113
 10
903.34350617751227
 20
-1347.2028356867449
 42
0.0071131081302013
 10
903.13823385427486
 20
-1347.572338485581
 42
0.006845879100069
 10
902.94335432743401
 20
-1347.9474300490529
 10
902.93654246497408
 20
-1347.9609917627808
 42
0.0064120880291431
 10
902.73840021493004
 20
-1348.368416237699
 10
902.73086552941277
 20
-1348.3844280944209
 42
0.0058857236452316
 10
902.52811013754024
 20
-1348.8288042054583
 10
902.51993521124712
 20
-1348.84729435909
 42
0.0053189741889947
 10
902.31123089858465
 20
-1349.333257832996
 10
902.30248309289823
 20
-1349.3542397112042
 42
0.0047503650422553
 10
902.08650936674258
 20
-1349.8864391444263
 10
902.07724111839934
 20
-1349.9099155205217
 42
0.0042071762175085
 10
901.85269373467065
 20
-1350.4930091145939
 10
901.84294433232287
 20
-1350.5189752894612
 42
0.0036680086483123
 10
901.60848968901439
 20
-1351.1576106739822
 10
901.59828190916301
 20
-1351.1860592083367
 42
0.0032573142631407
 10
901.35264962319411
 20
-1351.8849118680964
 10
901.28399910235646
 20
-1352.0843749521405
 42
0.0026133366646324
 10
900.93555390359768
 20
-1353.1142382358148
 10
900.87229711609689
 20
-1353.3044690712081
 42
0.0020592950742058
 10
900.65843404712984
 20
-1353.9565727238214
 10
900.65538225596526
 20
-1353.9660092122358
 42
0.0025609928534334
 10
900.45356175448092
 20
-1354.6011544345965
 10
900.45097038735378
 20
-1354.6094567755385
 42
0.0031362356244456
 10
900.26147960167737
 20
-1355.2302196317169
 10
900.25934855875266
 20
-1355.2373609379192
 42
0.0037229918027327
 10
900.08254817182365
 20
-1355.8463462399022
 10
900.08086958261924
 20
-1355.8522931300695
 42
0.0043077623709103
 10
899.91712878055216
 20
-1356.4521118618454
 42
0.0047654161822903
 10
899.76430005803491
 20
-1357.0547979507533
 10
899.72983544919703
 20
-1357.1963597278977
 42
0.0112969368442566
 10
899.53397109105333
 20
-1358.0880518885219
 10
899.50596470195671
 20
-1358.2308799346197
 42
0.0130056762572268
 10
899.30512745831015
 20
-1359.4178210062646
 10
899.28458770816292
 20
-1359.5618991197425
 42
0.0138721532144365
 10
899.18088470362522
 20
-1360.4687286055673
 10
899.16158921571684
 20
-1360.6922263274973
 42
0.0071254697008154
 10
899.12824256979468
 20
-1361.1554133363397
 10
899.12328159563162
 20
-1361.2414173308944
 42
0.002888179919414
 10
899.10814330234155
 20
-1361.5331590407422
 42
0.0060297297138426
 10
899.09821110256598
 20
-1361.8251079768606
 10
899.09714882089906
 20
-1361.8735003487873
 42
0.0229523164145724
 10
899.10487984868473
 20
-1362.1962551950737
 10
899.1091056222059
 20
-1362.2566587291003
 42
0.0123673300678403
 10
899.12818426872343
 20
-1362.4577794542647
 42
0.012857767446355
 10
899.15737965912922
 20
-1362.6576773041888
 10
899.16450553251673
 20
-1362.6990061187889
 42
0.0285717853767817
 10
899.22899953421245
 20
-1362.977122270102
 10
899.24266805787886
 20
-1363.0237770395793
 42
0.0316283099152028
 10
899.35847863779304
 20
-1363.3427915414049
 10
899.36152732954895
 20
-1363.3497779137315
 42
0.0338984824243108
 10
899.51095904051567
 20
-1363.6373438779196
 10
899.51326776988401
 20
-1363.6411349071932
 42
0.0350228718346556
 10
899.6956280605591
 20
-1363.8981868918727
 10
899.69651331233354
 20
-1363.899265969636
 42
0.0347476747526009
 10
899.91093799957423
 20
-1364.1264510168567
 42
0.0331337701906668
 10
900.15418132531966
 20
-1364.3225796789329
 10
900.15528142383675
 20
-1364.3233523821063
 42
0.0305233319083414
 10
900.42382611941571
 20
-1364.4884805522011
 10
900.4270561639114
 20
-1364.4902045640606
 42
0.0273744481154657
 10
900.71960987547993
 20
-1364.6263427079484
 10
900.72471441062328
 20
-1364.6283862924206
 42
0.0240964406192305
 10
901.04019148626867
 20
-1364.7373700187018
 10
901.0467748154789
 20
-1364.7392947583767
 42
0.0209636179821015
 10
901.38417496813997
 20
-1364.8227629063108
 10
901.39180742858014
 20
-1364.8243148193105
 42
0.0181388704686086
 10
901.75012982057206
 20
-1364.8837309125238
 10
901.7584106689568
 20
-1364.8847970963416
 42
0.015608654758925
 10
902.136598033155
 20
-1364.921533282919
 10
902.17979328547074
 20
-1364.9243717853974
 42
0.0137148329014757
 10
902.50746643077161
 20
-1364.9368920406487
 10
902.55340262068796
 20
-1364.9373864737636
 42
0.005105782388059
 10
902.78954820728984
 20
-1364.9375167281733
 42
0.0052256693305762
 10
903.02564549108877
 20
-1364.9327679037083
 10
903.09587227481791
 20
-1364.9306209376946
 42
0.0161507179042191
 10
903.47160935291549
 20
-1364.9069705673687
 10
903.49162231329217
 20
-1364.9050603720807
 42
0.0101216737831794
 10
903.90564953478452
 20
-1364.8570674417147
 10
903.93970282420958
 20
-1364.8524197449051
 42
0.024529177640179
 10
904.41649247976636
 20
-1364.7633446668278
 10
904.50131579529386
 20
-1364.743148746481
 42
0.0143509212555446
 10
904.85794689922443
 20
-1364.6473441127046
 42
0.015655785704372
 10
905.20816296395253
 20
-1364.5303328968848
 10
905.21566417844633
 20
-1364.5275627351311
 42
0.0170137333630154
 10
905.57226017412461
 20
-1364.3819051202613
 10
905.57936409653519
 20
-1364.3787172846964
 42
0.01831053644136
 10
905.93871376470634
 20
-1364.2013822428694
 10
905.94566052934022
 20
-1364.1976318080001
 42
0.0194899958150644
 10
906.30414127032077
 20
-1363.9856528261116
 10
906.31115514966086
 20
-1363.9811274838144
 42
0.0204869852947551
 10
906.66516945175294
 20
-1363.7316074687296
 10
906.67243506034174
 20
-1363.7260274033802
 42
0.0212516938553254
 10
907.01842499145175
 20
-1363.4361234064841
 10
907.0649416855241
 20
-1363.3936560963934
 42
0.0215248918249178
 10
907.3249678544131
 20
-1363.1348918173971
 10
907.36999758879585
 20
-1363.0860476960452
 42
0.0114578554959654
 10
907.52478974247106
 20
-1362.9102247625892
 10
907.53598427845213
 20
-1362.8969059990504
 42
0.0061531305146731
 10
907.66245892445204
 20
-1362.7426164657381
 42
0.0006325587116899
 10
907.78683740862618
 20
-1362.5866130900345
 10
907.80987754365538
 20
-1362.5576395694029
 42
0.0041897761549569
 10
907.97833294764177
 20
-1362.3421201933234
 10
908.0367950675203
 20
-1362.266018846356
 42
0.0092993880040126
 10
908.31340699474401
 20
-1361.8917400824721
 10
908.39580148794232
 20
-1361.7758030789046
 42
0.0159321727081365
 10
908.74240797058519
 20
-1361.2536288581477
 10
908.78676410597166
 20
-1361.1819492939021
 42
0.0085547317013294
 10
909.02127587130008
 20
-1360.7880743446731
 42
0.0084601156885136
 10
909.24225204874233
 20
-1360.3864474956408
 10
909.25036752257256
 20
-1360.3710878133679
 42
0.0081429654277645
 10
909.47361679300809
 20
-1359.9313663008311
 10
909.48247695719408
 20
-1359.9131874588074
 42
0.0076574581326158
 10
909.70888446776064
 20
-1359.4300045835553
 10
909.71836410848448
 20
-1359.4089401052515
 42
0.0070682724199746
 10
909.94880901629676
 20
-1358.8769028004572
 10
909.95879930027297
 20
-1358.8529136114585
 42
0.0064559514447898
 10
910.19413250845332
 20
-1358.266601344943
 10
910.20454186661959
 20
-1358.2396664194976
 42
0.0058311413909909
 10
910.44558860338248
 20
-1357.5936343251133
 10
910.45634368076981
 20
-1357.5637499839531
 42
0.0052312425818288
 10
910.70392495881174
 20
-1356.8525475701158
 10
910.71496879519054
 20
-1356.8197208580491
 42
0.004668054479421
 10
910.96989722292108
 20
-1356.0378945423072
 10
911.01188937296786
 20
-1355.9049113050046
 42
0.0041666856448455
 10
911.21517538536352
 20
-1355.2419425299968
 10
911.25283782603356
 20
-1355.1153614223222
 42
0.0015170975153067
 10
911.37402440444032
 20
-1354.7034930708492
 42
-0.0004887993112769
 10
911.49436417758545
 20
-1354.2913746587324
 10
911.57084143505858
 20
-1354.0304172728661
 42
0.0002583378926508
 10
911.84405600519563
 20
-1353.0963605694383
 10
911.92582885471154
 20
-1352.8162613100626
 42
0.000663616967508
 10
912.11969661471085
 20
-1352.1489083865172
 10
912.12479326906248
 20
-1352.1312768036214
 42
0.0010589131324966
 10
912.30624196997451
 20
-1351.498545460588
 10
912.31122404045368
 20
-1351.4810325535727
 42
0.0015655524462192
 10
912.47949424763772
 20
-1350.8824158743673
 10
912.48432444804837
 20
-1350.865023715447
 42
0.0021640440475202
 10
912.63861442003872
 20
-1350.299996697413
 10
912.64324863947252
 20
-1350.2827319674047
 42
0.0028763871857454
 10
912.78276435752161
 20
-1349.7507640165722
 10
912.78715022168694
 20
-1349.7336400384252
 42
0.0037310511943129
 10
912.91110691352571
 20
-1349.2341924443936
 10
912.91518213381573
 20
-1349.2172321731441
 42
0.0047652197768624
 10
913.02280603432325
 20
-1348.7497544048433
 10
913.02649663364707
 20
-1348.7329948496908
 42
0.0060276699306996
 10
913.11702673280024
 20
-1348.2969190545491
 10
913.12024542308939
 20
-1348.2804178402403
 42
0.007582433775083
 10
913.1929347325048
 20
-1347.8751506758135
 10
913.19558010988521
 20
-1347.8589957283621
 42
0.0095130624610267
 10
913.24969534551633
 20
-1347.4839063752916
 10
913.25668156939946
 20
-1347.4279728171705
 42
0.0121054653229294
 10
913.28327289997685
 20
-1347.1630769887011
 10
913.28413938973665
 20
-1347.1516735457676
 42
0.006905082738458
 10
913.29922820777404
 20
-1346.9087323189278
 10
913.30036350744297
 20
-1346.8852060618751
 42
0.0169063976705069
 10
913.30319078642287
 20
-1346.6890133345823
 10
913.30202013489168
 20
-1346.6286775732342
 42
0.0052007732877488
 10
913.29976668629865
 20
-1346.553084183081
 42
0.0054038123302902
 10
913.27980317446043
 20
-1346.4330658870749
 10
913.2747173185893
 20
-1346.4044074004896
 42
0.0112050460458822
 10
913.23933295652978
 20
-1346.2280809621461
 10
913.22150799449014
 20
-1346.1485393754301
 42
0.0240764468017423
 10
913.13061062834538
 20
-1345.8183023399333
 10
913.11205186552991
 20
-1345.761682174933
 42
0.025681233183164
 10
912.968688945341
 20
-1345.3899579686777
 10
912.96327951951855
 20
-1345.3778266336853
 42
0.026836050121605
 10
912.79385227866965
 20
-1345.0468334996667
 10
912.78831587103684
 20
-1345.037313829358
 42
0.0274670231729857
 10
912.59611489462134
 20
-1344.7450264544373
 10
912.59073359465708
 20
-1344.7377473068937
 42
0.0275035967103472
 10
912.37916071509687
 20
-1344.4822314165922
 10
912.3740912141277
 20
-1344.4767523289588
 42
0.0269557673532161
 10
912.14668767069077
 20
-1344.2561100429994
 10
912.14194461290708
 20
-1344.2519800885375
 42
0.025912480221696
 10
911.90238978147738
 20
-1344.064289561386
 10
911.89785893629255
 20
-1344.0611040590538
 42
0.0245162153009641
 10
911.64994258320064
 20
-1343.9043710499454
 10
911.64541603688133
 20
-1343.9018108527475
 42
0.0229282588833977
 10
911.39299648004908
 20
-1343.7739426602457
 10
911.38821598620746
 20
-1343.7717903604816
 42
0.021298413570881
 10
911.13517803375066
 20
-1343.6705914432414
 10
911.12987374878276
 20
-1343.668727880482
 42
0.0197555462340822
 10
910.88009541105816
 20
-1343.5919124625166
 42
0.018351189678514
 10
910.62516668559863
 20
-1343.5343295555517
 10
910.53880148887208
 20
-1343.518126765166
 42
0.0338057877147049
 10
910.25329413961174
 20
-1343.4843183600256
 10
910.16228873455623
 20
-1343.4797387047633
 42
0.0091990524519353
 10
910.0564416259358
 20
-1343.4763628488422
 42
0.0028333980756347
 10
909.95052770997131
 20
-1343.4755347413256
 10
909.94961225689349
 20
-1343.4755327715015
 42
-0.0023619827807566
 10
909.8418662417854
 20
-1343.4747919304227
 10
909.80546107161172
 20
-1343.4743696239598
 42
0.0008824598481838
 10
909.62490508184567
 20
-1343.4725938457223
 10
909.58104364935593
 20
-1343.4722398841959
 42
0.0038132665777082
 10
909.31276075343169
 20
-1343.4721209481299
 10
909.29622709868363
 20
-1343.4722397142732
 42
0.0060665569330958
 10
908.99494660709513
 20
-1343.4780600136933
 10
908.98069627506698
 20
-1343.4785083216611
 42
0.0080356953331004
 10
908.65123755872503
 20
-1343.4941760437282
 10
908.6391675436405
 20
-1343.4949446266687
 42
0.0098996399106163
 10
908.28640445899532
 20
-1343.5244298558664
 10
908.27635874961493
 20
-1343.5254701520653
 42
0.0117740981365357
 10
907.90520189127437
 20
-1343.5727623995936
 10
907.89697919478363
 20
-1343.5740075161657
 42
0.0137435215132089
 10
907.51239037530377
 20
-1343.6431044897263
 10
907.50573333617513
 20
-1343.644490385961
 42
0.015835986938798
 10
907.11273624237424
 20
-1343.7393824744408
 10
907.1073230555055
 20
-1343.740872415312
 42
0.0180554124024794
 10
906.71100801089767
 20
-1343.865510431549
 10
906.70645122280973
 20
-1343.8671264678169
 42
0.0203657431284228
 10
906.3119737049999
 20
-1344.0253868093328
 10
906.30783016599105
 20
-1344.0272484307752
 42
0.0226819684652684
 10
905.92039410978975
 20
-1344.2228910094445
 10
905.91619431876927
 20
-1344.2252566013658
 42
0.0248634984609371
 10
905.54101237758255
 20
-1344.4618832473166
 10
905.49281744880432
 20
-1344.4957402891382
 42
0.0267044190880409
 10
905.21852475188757
 20
-1344.7111806650064
 42
0.0139303002194101
 10
904.96235758594969
 20
-1344.9484195059181
 10
904.95750420022785
 20
-1344.953172168779
 42
0.0283460963447519
 10
904.71343160600031
 20
-1345.2209028292245
 10
904.6737631008441
 20
-1345.2697044066972
 42
0.0070695364826069
 10
904.59632587498413
 20
-1345.3677712226627
 42
0.0070695364826069
  0
LWPOLYLINE
  5
147
100
AcDbEntity
  8
template
370
              15
390
0
  6
Continuous
 62
               7
100
AcDbPolyline
 90
      226
 70
             128
 10
901.06750543773774
 20
-1361.0893600288464
 42
-0.0026277636637478
 10
901.06742755393759
 20
-1361.022588103147
 10
901.06764491216973
 20
-1360.9694328856604
 42
-0.0088680296743466
 10
901.07142152846291
 20
-1360.7964171032559
 10
901.07376788757529
 20
-1360.7371370778037
 42
-0.0077381705611504
 10
901.08981399833772
 20
-1360.4458765820154
 10
901.09068190951155
 20
-1360.43358834832
 42
-0.0068872530538203
 10
901.11731398925883
 20
-1360.1183665962608
 10
901.11851821344578
 20
-1360.1061256172325
 42
-0.0062130021479545
 10
901.15611193027416
 20
-1359.767255925989
 10
901.15761583380868
 20
-1359.7550820540778
 42
-0.0056726929659943
 10
901.20653769331057
 20
-1359.3928868319663
 10
901.20831113895531
 20
-1359.3807930317189
 42
-0.0052341884502498
 10
901.26892172521571
 20
-1358.995599776199
 10
901.27093971399199
 20
-1358.9835948462087
 42
-0.004976845016972
 10
901.34367839541869
 20
-1358.5757502787737
 10
901.36792741014017
 20
-1358.4472022957698
 42
-0.0089029805627246
 10
901.50500826193422
 20
-1357.7854268483511
 10
901.53775363725345
 20
-1357.640395417824
 42
-0.0080318257100975
 10
901.76730225159577
 20
-1356.6946857859643
 10
901.77928717804241
 20
-1356.6485551507803
 42
-0.0074265721318011
 10
902.06329871689468
 20
-1355.6184905723912
 10
902.08317826000723
 20
-1355.5503565118161
 42
-0.0069711922701927
 10
902.41048283851558
 20
-1354.4840887714827
 10
902.47043478562045
 20
-1354.298067413114
 42
-0.005207042289485
 10
902.69986001088046
 20
-1353.6107953360806
 10
902.71714120305955
 20
-1353.5607680554435
 42
-0.0009167004448696
 10
902.92023309034209
 20
-1352.9763122073091
 42
-0.0025162726947433
 10
903.1273307206103
 20
-1352.393270943131
 10
903.16455533241844
 20
-1352.2901213972182
 42
-0.0028212681459525
 10
903.4127312513732
 20
-1351.6143907650703
 10
903.42256201413261
 20
-1351.5880833203701
 42
-0.003196491682263
 10
903.65885427178625
 20
-1350.9678785582664
 10
903.66848872578316
 20
-1350.9430685681282
 42
-0.0036281836455503
 10
903.89359468688644
 20
-1350.3756278872297
 10
903.90303309704336
 20
-1350.3523304557284
 42
-0.0041269166833892
 10
904.11765079370309
 20
-1349.8348895597487
 10
904.15028375012582
 20
-1349.758011113383
 42
-0.0047472213055629
 10
904.30732855567749
 20
-1349.3975896455045
 10
904.31422263687136
 20
-1349.3821690482046
 42
-0.0025651659996234
 10
904.46258067073586
 20
-1349.054840992424
 42
-0.0057144635003221
 10
904.61633036451326
 20
-1348.730031319049
 10
904.64436106990729
 20
-1348.6725229366693
 42
-0.0065388068367874
 10
904.82782809764808
 20
-1348.3082904400026
 10
904.83628655342557
 20
-1348.2920308606349
 42
-0.0074510843022412
 10
905.01246879930443
 20
-1347.9653425795104
 10
905.0206484698366
 20
-1347.9507018022396
 42
-0.0084648979856681
 10
905.19028232293556
 20
-1347.6587927912801
 10
905.19813844942121
 20
-1347.6457857996334
 42
-0.0095638542803294
 10
905.36197389701795
 20
-1347.3858969276507
 10
905.36944884068976
 20
-1347.374527566195
 42
-0.0107191626789817
 10
905.52825042107725
 20
-1347.1439163316509
 10
905.53526715480893
 20
-1347.1341802392853
 42
-0.0118458573910574
 10
905.68981525332083
 20
-1346.9301080439759
 42
-0.0129184518193645
 10
905.85426787692143
 20
-1346.7339475278068
 10
905.88441264928611
 20
-1346.6998214489054
 42
-0.0217742579636275
 10
906.06102497162078
 20
-1346.516614678656
 10
906.07177051607516
 20
-1346.5063978454587
 42
-0.0097266568655551
 10
906.23782813493688
 20
-1346.3545502710153
 42
-0.0187720905714991
 10
906.41217571082836
 20
-1346.2124814176245
 10
906.44288170149707
 20
-1346.1893223352326
 42
-0.0179428207519574
 10
906.67530242149678
 20
-1346.0267701581183
 10
906.67895474841782
 20
-1346.0244062232273
 42
-0.0170047877694644
 10
906.91471838594293
 20
-1345.8829457090792
 10
906.91850137468418
 20
-1345.8808474040457
 42
-0.0160190788362418
 10
907.15540992232479
 20
-1345.7591961020548
 42
-0.0151102861489865
 10
907.3994417047769
 20
-1345.6525133259979
 10
907.45182820698324
 20
-1345.6314731931056
 42
-0.0271945441883077
 10
907.81049076603836
 20
-1345.5096083824005
 10
907.87955556653617
 20
-1345.4902588411314
 42
-0.0237596594023426
 10
908.295352413552
 20
-1345.3948081291519
 10
908.3634152672854
 20
-1345.3825534410244
 42
-0.0213715440546022
 10
908.64929019872773
 20
-1345.3436064095149
 10
908.709437364932
 20
-1345.3380166948155
 42
-0.0101465655828891
 10
908.87692989693994
 20
-1345.3258731515502
 10
908.886270283145
 20
-1345.3253862365527
 42
-0.0100375910874931
 10
909.03542438370073
 20
-1345.3206104186279
 10
909.045683653379
 20
-1345.3204879796135
 42
-0.010362563338321
 10
909.17439164803591
 20
-1345.3216194131401
 10
909.19665729929432
 20
-1345.3222767716047
 42
-0.0115689250237192
 10
909.28070803683067
 20
-1345.32670627785
 42
-0.0072438037437987
 10
909.36454631627601
 20
-1345.3342954775999
 10
909.38134682574264
 20
-1345.3360620203234
 42
-0.0217917313110881
 10
909.49791658906304
 20
-1345.3534819130455
 10
909.56351667962201
 20
-1345.3662285214587
 42
-0.0332943556773231
 10
909.7679088446514
 20
-1345.4202688127662
 10
909.79808141320211
 20
-1345.4304368898847
 42
-0.0184824084802389
 10
909.93658646966685
 20
-1345.4828879052711
 42
-0.0198002050708047
 10
910.07066081016205
 20
-1345.5457719654678
 10
910.07254744754312
 20
-1345.54674975235
 42
-0.0212242342970933
 10
910.20468638994726
 20
-1345.6225124911443
 10
910.20650168548855
 20
-1345.6236582933516
 42
-0.0226090605786477
 10
910.33500558671255
 20
-1345.713137936918
 10
910.33685002844766
 20
-1345.7145501899035
 42
-0.0238457052247464
 10
910.46003210973709
 20
-1345.8185460857626
 10
910.4619848382996
 20
-1345.820360963532
 42
-0.024816056415929
 10
910.57818634559874
 20
-1345.9396355647391
 10
910.58028997900237
 20
-1345.9420208984452
 42
-0.0254109591450752
 10
910.68789519687118
 20
-1346.0773092844133
 10
910.6901432187824
 20
-1346.0804508328101
 42
-0.025552848829299
 10
910.78758989757614
 20
-1346.2324778870388
 10
910.78992099749564
 20
-1346.2365594986522
 42
-0.0252146793214191
 10
910.87570202350673
 20
-1346.4060617446535
 10
910.87800426266244
 20
-1346.411243826562
 42
-0.0244265635953284
 10
910.95065895642267
 20
-1346.5989903986042
 10
910.95990535789122
 20
-1346.6268558169427
 42
-0.0231319612904027
 10
911.00582813688436
 20
-1346.7901568637481
 42
-0.0112130424371595
 10
911.04046415942207
 20
-1346.9563604639338
 10
911.04166668453502
 20
-1346.9628570508239
 42
-0.0210527881227547
 10
911.06735315990545
 20
-1347.1439126962619
 10
911.07086375472772
 20
-1347.1793182448127
 42
-0.0190029892427771
 10
911.08630522827252
 20
-1347.4328540910915
 10
911.08711520471638
 20
-1347.4683297054539
 42
-0.0137974553659872
 10
911.08556635188074
 20
-1347.7933611121903
 10
911.08472089692521
 20
-1347.8194798567815
 42
-0.0081336634217513
 10
911.06986156170274
 20
-1348.1248273243796
 42
-0.0073526923574226
 10
911.0455530283283
 20
-1348.4295755686626
 10
911.04429160454538
 20
-1348.4429122433307
 42
-0.0066886138699662
 10
911.00855601849969
 20
-1348.773498286821
 10
911.00689892902892
 20
-1348.7871199058191
 42
-0.0061359187358808
 10
910.9590483269784
 20
-1349.1438838859162
 10
910.95701082590517
 20
-1349.1577786887483
 42
-0.0056698610069324
 10
910.89636049513899
 20
-1349.5410572575815
 10
910.89395506181506
 20
-1349.555216376817
 42
-0.0052721077281815
 10
910.81982286101777
 20
-1349.965343716482
 10
910.81705971217366
 20
-1349.9797603518809
 42
-0.0049289272182374
 10
910.72876559407462
 20
-1350.4170688629993
 10
910.72565309939114
 20
-1350.4317377158195
 42
-0.0047415956709391
 10
910.62241510785896
 20
-1350.8965344732292
 10
910.5876468974991
 20
-1351.0463415686131
 42
-0.0084404470900296
 10
910.39763045392726
 20
-1351.8065655931441
 10
910.39150376594159
 20
-1351.8294297172974
 42
-0.0039635940258395
 10
910.17005008165677
 20
-1352.6304185815484
 10
910.15667328647805
 20
-1352.677350198137
 42
-0.0072475040837903
 10
909.88922639861482
 20
-1353.5665699145279
 10
909.81901407179259
 20
-1353.7883102644837
 42
-0.005134545882987
 10
909.5322546997287
 20
-1354.6626354523105
 10
909.5107284329531
 20
-1354.7260617194643
 42
-0.0019150016597214
 10
909.2551950260945
 20
-1355.4696108396665
 10
909.24872742169919
 20
-1355.4881983045852
 42
-0.0021524362750399
 10
909.00024937063438
 20
-1356.1925241262961
 10
908.99103894993925
 20
-1356.2182777045937
 42
-0.0024331286819729
 10
908.75478369090195
 20
-1356.8688770127155
 10
908.74573573834323
 20
-1356.893420319092
 42
-0.0027449721783874
 10
908.52112116751607
 20
-1357.4925501979942
 10
908.51223116012841
 20
-1357.5158727878347
 42
-0.0031083229768065
 10
908.29868867351388
 20
-1358.0657968254263
 10
908.28995254184474
 20
-1358.0878865412678
 42
-0.0035311343290068
 10
908.08691135624645
 20
-1358.590869667014
 10
908.07832601709993
 20
-1358.6117123905215
 42
-0.0040245640949722
 10
907.88521421330427
 20
-1359.0700217131166
 10
907.87677809969921
 20
-1359.0896010811935
 42
-0.0046015135850045
 10
907.69302180653744
 20
-1359.505506110831
 10
907.6847356287102
 20
-1359.5238032502807
 42
-0.0052768638272682
 10
907.50975810975365
 20
-1359.8995761345532
 10
907.50162589912418
 20
-1359.9165694731018
 42
-0.0060672675641688
 10
907.33484628636074
 20
-1360.2544850962108
 10
907.32687680588117
 20
-1360.2701503552044
 42
-0.0069904648873659
 10
907.1677084118777
 20
-1360.5724861618719
 10
907.15991701226801
 20
-1360.5867967110971
 42
-0.0080637022766794
 10
907.00776515192103
 20
-1360.855832014252
 10
907.00017611929093
 20
-1360.868759879851
 42
-0.0093006455660334
 10
906.85443544275824
 20
-1361.1067742783562
 10
906.84708477601487
 20
-1361.1182922475291
 42
-0.0107060778039676
 10
906.7071362325762
 20
-1361.3275625649085
 10
906.70007446429815
 20
-1361.337648107472
 42
-0.01227231114137
 10
906.56528074609844
 20
-1361.5204414369632
 10
906.56495452254512
 20
-1361.5208618247721
 42
-0.0141836319633484
 10
906.42137291957033
 20
-1361.6954315826024
 10
906.41442516392112
 20
-1361.7034065828639
 42
-0.0175957477203071
 10
906.27451899588368
 20
-1361.8530274712721
 42
-0.0080466359656721
 10
906.12705523085071
 20
-1361.9953499994258
 10
906.08102068633593
 20
-1362.0383704375145
 42
-0.0269600260392668
 10
905.82774044035557
 20
-1362.2506936960217
 10
905.76117330405623
 20
-1362.3006451106471
 42
-0.0178362839754152
 10
905.52122881440027
 20
-1362.4676630368995
 10
905.51398384340075
 20
-1362.4723315491037
 42
-0.0174650732664187
 10
905.2776476459585
 20
-1362.6131925140635
 42
-0.0169240130165524
 10
905.03218140010097
 20
-1362.7374847738411
 10
904.98619524454296
 20
-1362.7588467294081
 42
-0.0318883036843801
 10
904.63584438891996
 20
-1362.8951850389194
 10
904.56747885375546
 20
-1362.9168856593947
 42
-0.0284435909899931
 10
904.19142872746727
 20
-1363.0131030948687
 10
904.15627056697201
 20
-1363.0199966906966
 42
-0.0243909341019108
 10
903.84282710604975
 20
-1363.0657177217272
 10
903.79254637927534
 20
-1363.070563268629
 42
-0.0196639292925798
 10
903.57695080175131
 20
-1363.0828115541422
 10
903.52512673058914
 20
-1363.0837148148789
 42
-0.0100501510672066
 10
903.41270344892359
 20
-1363.083414416526
 10
903.38104358755629
 20
-1363.0826933446406
 42
-0.001975203112959
 10
903.33195125089821
 20
-1363.0813811844309
 10
903.32919094767487
 20
-1363.0812964926045
 42
0.0065378751939909
 10
903.28561437292126
 20
-1363.0805296013896
 42
-0.0167974694621432
 10
903.24208354997722
 20
-1363.0788697028629
 10
903.23800421072735
 20
-1363.0785766919689
 42
-0.008128327632548
 10
903.18644441300046
 20
-1363.0740296983322
 10
903.17470483911029
 20
-1363.0728017807528
 42
-0.012670344019229
 10
903.09998654332526
 20
-1363.0630669896827
 10
903.07719867564003
 20
-1363.0595087337661
 42
-0.0117852088425047
 10
902.95765968979822
 20
-1363.037945738607
 10
902.90227923804468
 20
-1363.0266021983743
 42
-0.0251774592295919
 10
902.67543519903552
 20
-1362.9681041889407
 10
902.63071600917897
 20
-1362.9541373696038
 42
-0.0146525199883495
 10
902.44432302164728
 20
-1362.8898708424076
 42
-0.0166929435862366
 10
902.26234536552113
 20
-1362.8140637093538
 10
902.25768873424738
 20
-1362.8119388087393
 42
-0.0191684358430028
 10
902.07250510299639
 20
-1362.7187027249483
 10
902.06917251724121
 20
-1362.7168614773959
 42
-0.0221181781814691
 10
901.88586221333594
 20
-1362.6047279790228
 10
901.88351240933059
 20
-1362.603143681034
 42
-0.0254984685374831
 10
901.70722225894633
 20
-1362.4707325310656
 10
901.68474011124465
 20
-1362.4519802221294
 42
-0.02924926488183
 10
901.55997117240031
 20
-1362.3348874224853
 42
-0.0159048957512474
 10
901.44613117494782
 20
-1362.206867430883
 10
901.44481238437083
 20
-1362.2052858178658
 42
-0.0343813379570247
 10
901.34217512274631
 20
-1362.0634144920991
 10
901.31068359138249
 20
-1362.0129111000001
 42
-0.0369117275706045
 10
901.22479108948642
 20
-1361.849433859054
 42
-0.0191751379912524
 10
901.15759770393117
 20
-1361.6770292530532
 10
901.15583438016995
 20
-1361.6719359083731
 42
-0.037817804221827
 10
901.10603966138535
 20
-1361.4829951322895
 10
901.10004436565555
 20
-1361.4504345140949
 42
-0.0184846046472138
 10
901.07932716636105
 20
-1361.3086816935497
 42
-0.017986635130914
 10
901.06899416128738
 20
-1361.1657908804664
 10
901.06893771884165
 20
-1361.1642331938565
 42
-0.008549718613921
 10
901.06750543773774
 20
-1361.0893600288464
 42
-0.008549718613921
  0
MTEXT
  5
148
100
AcDbEntity
  8
template
390
0
 62
               7
100
AcDbMText
 10
784.00000000049999
 20
-1261.0000901712006
 30
0.0
 40
24.432617187500004
 41
0.0
 71
               1
 72
               1
  1
1:10
  7
ＭＳ ゴシック
 73
               1
 44
0.7828267384257843
  0
MTEXT
  5
149
100
AcDbEntity
  8
template
390
0
 62
               7
100
AcDbMText
 10
731.00000000049999
 20
-1232.4176292337006
 30
0.0
 40
16.288411458333332
 41
0.0
 71
               1
 72
               1
  1
縮尺
  7
ＭＳ ゴシック
 73
               1
 44
0.7828267384257843
  0
LINE
  5
14A
100
AcDbEntity
  8
template
370
               5
390
0
  6
Continuous
 62
               7
100
AcDbLine
 10
724.00000000049999
 20
-1309.0027073587007
 30
0.0
 11
724.00000000049999
 21
-1224.0027073587007
 31
0.0
  0
MTEXT
  5
14B
100
AcDbEntity
  8
template
390
0
 62
               7
100
AcDbMText
 10
480.00000000049999
 20
-1232.4176292337006
 30
0.0
 40
16.288411458333332
 41
0.0
 71
               1
 72
               1
  1
容量
  7
ＭＳ ゴシック
 73
               1
 44
0.7828267384257843
  0
MTEXT
  5
14C
100
AcDbEntity
  8
template
390
0
 62
               7
100
AcDbMText
 10
533.00000000049999
 20
-1261.0000901712006
 30
0.0
 40
24.432617187500004
 41
0.0
 71
               1
 72
               1
  1
6.5L
  7
ＭＳ ゴシック
 73
               1
 44
0.7828267384257843
  0
LINE
  5
14D
100
AcDbEntity
  8
template
370
               5
390
0
  6
Continuous
 62
               7
100
AcDbLine
 10
473.00000000049999
 20
-1309.0027073587007
 30
0.0
 11
473.00000000049999
 21
-1224.0027073587007
 31
0.0
  0
MTEXT
  5
14E
100
AcDbEntity
  8
template
390
0
 62
               7
100
AcDbMText
 10
229.00000000049999
 20
-1147.4176292337006
 30
0.0
 40
16.288411458333332
 41
0.0
 71
               1
 72
               1
  1
品番
  7
ＭＳ ゴシック
 73
               1
 44
0.7828267384257843
  0
MTEXT
  5
14F
100
AcDbEntity
  8
template
390
0
 62
               7
100
AcDbMText
 10
229.00000000049999
 20
-1232.4176292337006
 30
0.0
 40
16.288411458333332
 41
0.0
 71
               1
 72
               1
  1
重量
  7
ＭＳ ゴシック
 73
               1
 44
0.7828267384257843
  0
MTEXT
  5
150
100
AcDbEntity
  8
template
390
0
 62
               7
100
AcDbMText
 10
282.00000000049999
 20
-1176.0000901712006
 30
0.0
 40
24.432617187500004
 41
0.0
 71
               1
 72
               1
  1
FAA70-2216
  7
ＭＳ ゴシック
 73
               1
 44
0.7828267384257843
  0
MTEXT
  5
151
100
AcDbEntity
  8
template
390
0
 62
               7
100
AcDbMText
 10
282.00000000049999
 20
-1261.0000901712006
 30
0.0
 40
24.432617187500004
 41
0.0
 71
               1
 72
               1
  1
15kg
  7
ＭＳ ゴシック
 73
               1
 44
0.7828267384257843
  0
LINE
  5
152
100
AcDbEntity
  8
template
370
               5
390
0
  6
Continuous
 62
               7
100
AcDbLine
 10
222.00000000049999
 20
-1394.0027073587007
 30
0.0
 11
222.00000000049999
 21
-1139.0027073587007
 31
0.0
  0
MTEXT
  5
153
100
AcDbEntity
  8
template
390
0
 62
               7
100
AcDbMText
 10
-914.99999999975944
 20
-1261.0000901712006
 30
0.0
 40
24.432617187500004
 41
0.0
 71
               1
 72
               1
  1
オーバーカウンター/オーバーフロー付き/型紙付属/\P陶器/ホワイト
  7
ＭＳ ゴシック
 73
               1
 44
1.1307497332816883
  0
MTEXT
  5
154
100
AcDbEntity
  8
template
390
0
 62
               7
100
AcDbMText
 10
-974.99999999955617
 20
-1405.8565294155578
 30
0.0
 40
21.717881944444446
 41
0.0
 71
               1
 72
               1
  1
100709SH
  7
ＭＳ ゴシック
 73
               1
 44
0.7828267384257843
  0
MTEXT
  5
155
100
AcDbEntity
  8
template
390
0
 62
               7
100
AcDbMText
 10
-914.99999999975898
 20
-1176.0000901712006
 30
0.0
 40
24.432617187500004
 41
0.0
 71
               1
 72
               1
  1
洗面器 -DURAVIT,Philippe Starck E3-
  7
ＭＳ ゴシック
 73
               1
 44
0.7828267384257843
  0
ARC
  5
156
100
AcDbEntity
  8
FAA70-2216
370
              15
390
0
  6
Continuous
 62
               7
100
AcDbCircle
 10
-440.71510791911714
 20
4513.7655516314171
 30
0.0
 40
4073.9384850578745
100
AcDbArc
 50
266.67972076355687
 51
273.32027923644296
  0
LINE
  5
157
100
AcDbEntity
  8
FAA70-2216
370
              15
390
0
  6
Continuous
 62
               7
100
AcDbLine
 10
-208.21510791911896
 20
710.00000000147782
 30
0.0
 11
-673.21510791911896
 21
710.00000000147782
 31
0.0
  0
LINE
  5
158
100
AcDbEntity
  8
FAA70-2216
370
              15
390
0
  6
Continuous
 62
               7
100
AcDbLine
 10
-676.21510791911896
 20
825.0000000014777
 30
0.0
 11
-205.21510791911896
 21
825.0000000014777
 31
0.0
  0
LINE
  5
159
100
AcDbEntity
  8
FAA70-2216
370
              15
390
0
  6
Continuous
 62
               7
100
AcDbLine
 10
-707.03523987537938
 20
832.0000000014777
 30
0.0
 11
-174.39497596285855
 21
832.0000000014777
 31
0.0
  0
ARC
  5
15A
100
AcDbEntity
  8
FAA70-2216
370
              15
390
0
  6
Continuous
 62
               7
100
AcDbCircle
 10
-676.21510791911896
 20
818.0000000014777
 30
0.0
 40
7.0
100
AcDbArc
 50
90.0
 51
180.0
  0
LINE
  5
15B
100
AcDbEntity
  8
FAA70-2216
370
              15
390
0
  6
Continuous
 62
               7
100
AcDbLine
 10
-683.21510791911896
 20
818.0000000014777
 30
0.0
 11
-683.21510791911896
 21
453.67966611861436
 31
0.0
  0
ARC
  5
15C
100
AcDbEntity
  8
FAA70-2216
370
              15
390
0
  6
Continuous
 62
               7
100
AcDbCircle
 10
-676.21510791911896
 20
453.67966611861436
 30
0.0
 40
7.0
100
AcDbArc
 50
180.0
 51
266.23075230221997
  0
ARC
  5
15D
100
AcDbEntity
  8
FAA70-2216
370
              15
390
0
  6
Continuous
 62
               7
100
AcDbCircle
 10
-673.21510791911896
 20
700.00000000147782
 30
0.0
 40
10.0
100
AcDbArc
 50
90.0
 51
180.0
  0
LINE
  5
15E
100
AcDbEntity
  8
FAA70-2216
370
              15
390
0
  6
Continuous
 62
               7
100
AcDbLine
 10
-690.45321616121464
 20
825.0000000014777
 30
0.0
 11
-709.08610006890831
 21
825.0000000014777
 31
0.0
  0
CIRCLE
  5
15F
100
AcDbEntity
  8
FAA70-2216
370
              15
390
0
  6
Continuous
 62
               7
100
AcDbCircle
 10
-440.71510791911896
 20
645.0000000014777
 30
0.0
 40
37.5
  0
CIRCLE
  5
160
100
AcDbEntity
  8
FAA70-2216
370
              15
390
0
  6
Continuous
 62
               7
100
AcDbCircle
 10
-440.71510791911896
 20
645.0000000014777
 30
0.0
 40
26.0
  0
ARC
  5
161
100
AcDbEntity
  8
FAA70-2216
370
              15
390
0
  6
Continuous
 62
               7
100
AcDbCircle
 10
-708.18139087785994
 20
822.43918781059938
 30
0.0
 40
9.6292674627790245
100
AcDbArc
 50
83.163999630341138
 51
149.80269476476454
  0
LINE
  5
162
100
AcDbEntity
  8
FAA70-2216
370
              15
390
0
  6
Continuous
 62
               7
100
AcDbLine
 10
-715.71510791911896
 20
860.00000000147782
 30
0.0
 11
-715.71510791911896
 21
832.0000000014777
 31
0.0
  0
ARC
  5
163
100
AcDbEntity
  8
FAA70-2216
370
              15
390
0
  6
Continuous
 62
               7
100
AcDbCircle
 10
-205.21510791911896
 20
818.0000000014777
 30
0.0
 40
7.0
100
AcDbArc
 50
0.0
 51
90.0
  0
LINE
  5
164
100
AcDbEntity
  8
FAA70-2216
370
              15
390
0
  6
Continuous
 62
               7
100
AcDbLine
 10
-198.21510791911896
 20
818.0000000014777
 30
0.0
 11
-198.21510791911896
 21
453.67966611861436
 31
0.0
  0
ARC
  5
165
100
AcDbEntity
  8
FAA70-2216
370
              15
390
0
  6
Continuous
 62
               7
100
AcDbCircle
 10
-205.21510791911896
 20
453.67966611861436
 30
0.0
 40
6.9999999999999432
100
AcDbArc
 50
273.76924769776895
 51
0.0
  0
ARC
  5
166
100
AcDbEntity
  8
FAA70-2216
370
              15
390
0
  6
Continuous
 62
               7
100
AcDbCircle
 10
-208.21510791911896
 20
700.00000000147782
 30
0.0
 40
10.0
100
AcDbArc
 50
0.0
 51
90.0
  0
LINE
  5
167
100
AcDbEntity
  8
FAA70-2216
370
              15
390
0
  6
Continuous
 62
               7
100
AcDbLine
 10
-190.97699967702329
 20
825.0000000014777
 30
0.0
 11
-172.34411576932962
 21
825.0000000014777
 31
0.0
  0
ARC
  5
168
100
AcDbEntity
  8
FAA70-2216
370
              15
390
0
  6
Continuous
 62
               7
100
AcDbCircle
 10
-173.24882496037799
 20
822.43918781059938
 30
0.0
 40
9.629267462778957
100
AcDbArc
 50
30.197305235236151
 51
96.836000369658962
  0
LINE
  5
169
100
AcDbEntity
  8
FAA70-2216
370
              15
390
0
  6
Continuous
 62
               7
100
AcDbLine
 10
-165.71510791911896
 20
860.00000000147782
 30
0.0
 11
-165.71510791911896
 21
832.0000000014777
 31
0.0
  0
LWPOLYLINE
  5
16A
100
AcDbEntity
  8
FAA70-2216
370
              15
390
0
  6
Continuous
 62
               7
100
AcDbPolyline
 90
        8
 70
             129
 10
-160.71510791911874
 20
855.00000000147736
 42
0.4142135623731084
 10
-165.71510791911874
 20
860.00000000147736
 10
-715.71510791911896
 20
860.00000000147736
 42
0.4142135623731018
 10
-720.71510791911896
 20
855.00000000147736
 10
-720.71510791911896
 20
453.69052272192482
 42
0.3950431318699754
 10
-676.80982086105632
 20
406.79251901380303
 42
0.0287703139459767
 10
-204.62039497717933
 20
406.79251901380337
 42
0.3950431318699739
 10
-160.71510791911896
 20
453.69052272192505
  0
CIRCLE
  5
16B
100
AcDbEntity
  8
FAA70-2216
370
              15
390
0
  6
Continuous
 62
               7
100
AcDbCircle
 10
-440.71510791911896
 20
770.00000000147736
 30
0.0
 40
17.5
  0
LINE
  5
16C
100
AcDbEntity
  8
FAA70-2216
370
              15
390
0
  6
Continuous
 62
               7
100
AcDbLine
 10
-552.30312875245181
 20
-524.8600885070764
 30
0.0
 11
-329.12708708578657
 21
-524.8600885070764
 31
0.0
  0
LINE
  5
16D
100
AcDbEntity
  8
FAA70-2216
370
              15
390
0
  6
Continuous
 62
               7
100
AcDbLine
 10
-697.05693960639246
 20
-390.92219788207649
 30
0.0
 11
-184.37327623184592
 21
-390.92219788207649
 31
0.0
  0
LINE
  5
16E
100
AcDbEntity
  8
FAA70-2216
370
              15
390
0
  6
Continuous
 62
               7
100
AcDbLine
 10
-715.71510791911896
 20
-370.92219788207649
 30
0.0
 11
-165.71510791911919
 21
-370.92219788207649
 31
0.0
  0
LINE
  5
16F
100
AcDbEntity
  8
FAA70-2216
370
              15
390
0
  6
Continuous
 62
               7
100
AcDbLine
 10
-406.59036055113165
 20
-539.38214279518752
 30
0.0
 11
-440.71510791911896
 21
-539.38214279518752
 31
0.0
  0
LINE
  5
170
100
AcDbEntity
  8
FAA70-2216
370
              15
390
0
  6
Continuous
 62
               7
100
AcDbLine
 10
-474.83985528710673
 20
-539.38214279518752
 30
0.0
 11
-440.71510791911896
 21
-539.38214279518752
 31
0.0
  0
LWPOLYLINE
  5
171
100
AcDbEntity
  8
FAA70-2216
370
              15
390
0
  6
Continuous
 62
               7
100
AcDbPolyline
 90
       31
 70
             129
 10
-191.09397511152702
 20
-395.96459563221651
 42
-0.3334324444747788
 10
-184.37327623184592
 20
-390.92219788207649
 10
-165.71510791911896
 20
-390.92219788207649
 42
0.414213562373095
 10
-160.71510791911896
 20
-385.92219788207649
 10
-160.71510791911896
 20
-380.92219788207649
 10
-160.71510791911896
 20
-375.92219788207649
 42
0.4142135623731217
 10
-165.71510791911942
 20
-370.92219788207649
 10
-165.71510791911919
 20
-362.92219788207649
 42
0.414213562373095
 10
-172.71510791911942
 20
-355.92219788207649
 10
-708.71510791911896
 20
-355.92219788207649
 42
0.4142135623731141
 10
-715.71510791911896
 20
-362.92219788207649
 10
-715.71510791911896
 20
-370.92219788207649
 42
0.4142135623731217
 10
-720.71510791911896
 20
-375.92219788207649
 10
-720.71510791911896
 20
-380.92219788207649
 10
-720.71510791911896
 20
-385.92219788207649
 42
0.414213562373095
 10
-715.71510791911896
 20
-390.92219788207649
 10
-697.05693960639201
 20
-390.92219788207649
 42
-0.3334324444747875
 10
-690.33624072671137
 20
-395.96459563221674
 10
-658.62955847010562
 20
-519.81769075693637
 42
0.3334324444748395
 10
-651.90885959042498
 20
-524.8600885070764
 10
-552.30312875245272
 20
-524.8600885070764
 42
0.0278431427394703
 10
-484.04742563788341
 20
-536.18098389544184
 42
-0.3827251152329691
 10
-477.80677153402803
 20
-543.13967585657974
 10
-477.80677153402803
 20
-565.92219788207649
 10
-440.71510791911896
 20
-565.92219788207649
 10
-403.62344430421035
 20
-565.92219788207649
 10
-403.62344430421035
 20
-543.13967585657974
 42
-0.38272511523297
 10
-397.38279020035588
 20
-536.18098389544184
 42
0.0278431427394665
 10
-329.12708708578521
 20
-524.8600885070764
 10
-229.52135624781295
 20
-524.8600885070764
 42
0.3334324444747961
 10
-222.80065736813231
 20
-519.8176907569366
  0
SPLINE
  5
172
100
AcDbEntity
  8
FAA70-2216
370
              15
390
0
  6
Continuous
 62
               7
100
AcDbSpline
210
0.0
220
0.0
230
1.0
 70
               8
 71
               2
 72
               8
 73
               5
 74
               0
 42
0.000001
 43
0.000001
 40
0.0
 40
0.0
 40
0.0
 40
1.0
 40
2.0
 40
3.0
 40
3.0
 40
3.0
 10
736.91623522150121
 20
-355.92219788207649
 30
0.0
 10
735.30014396622255
 20
-355.92219788207558
 30
0.0
 10
732.39507756918101
 20
-357.33909343585856
 30
0.0
 10
730.40514731620851
 20
-359.88608801179635
 30
0.0
 10
730.06914305080727
 20
-361.46686379571406
 30
0.0
  0
SPLINE
  5
173
100
AcDbEntity
  8
FAA70-2216
370
              15
390
0
  6
Continuous
 62
               7
100
AcDbSpline
210
0.0
220
0.0
230
1.0
 70
               8
 71
               2
 72
               8
 73
               5
 74
               0
 42
0.000001
 43
0.000001
 40
0.0
 40
0.0
 40
0.0
 40
1.0
 40
2.0
 40
3.0
 40
3.0
 40
3.0
 10
761.97660611282799
 20
-360.47296488272445
 30
0.0
 10
761.85453707385136
 20
-359.22205532126691
 30
0.0
 10
760.46434311916983
 20
-357.1277623395531
 30
0.0
 10
758.25360664759091
 20
-355.93137336512996
 30
0.0
 10
756.99678868474484
 20
-355.92219788207763
 30
0.0
  0
LINE
  5
174
100
AcDbEntity
  8
FAA70-2216
370
              15
390
0
  6
Continuous
 62
               7
100
AcDbLine
 10
761.97660611282799
 20
-360.47296488272445
 30
0.0
 11
761.99683174394204
 21
-390.9224304017448
 31
0.0
  0
LINE
  5
175
100
AcDbEntity
  8
FAA70-2216
370
              15
390
0
  6
Continuous
 62
               7
100
AcDbLine
 10
736.91623522150121
 20
-355.92219788207649
 30
0.0
 11
756.99678868474484
 21
-355.92219788207649
 31
0.0
  0
SPLINE
  5
176
100
AcDbEntity
  8
FAA70-2216
370
              15
390
0
  6
Continuous
 62
               7
100
AcDbSpline
210
0.0
220
0.0
230
1.0
 70
               8
 71
               2
 72
               8
 73
               5
 74
               0
 42
0.000001
 43
0.000001
 40
0.0
 40
0.0
 40
0.0
 40
1.0
 40
2.0
 40
3.0
 40
3.0
 40
3.0
 10
722.95233133806778
 20
-370.95736102289766
 30
0.0
 10
724.5645307754246
 20
-370.94387319252019
 30
0.0
 10
727.45874961215077
 20
-369.52226385283984
 30
0.0
 10
729.45103530887809
 20
-366.98685984319127
 30
0.0
 10
729.79942350875581
 20
-365.41269510925508
 30
0.0
  0
LINE
  5
177
100
AcDbEntity
  8
FAA70-2216
370
              15
390
0
  6
Continuous
 62
               7
100
AcDbLine
 10
730.06914305080954
 20
-361.46686379571452
 30
0.0
 11
729.25341643248021
 21
-370.37763531051019
 31
0.0
  0
LINE
  5
178
100
AcDbEntity
  8
FAA70-2216
370
              15
390
0
  6
Continuous
 62
               7
100
AcDbLine
 10
761.80382487274755
 20
-390.9224304017448
 30
0.0
 11
296.99282723859278
 21
-390.9224304017448
 31
0.0
  0
SPLINE
  5
179
100
AcDbEntity
  8
FAA70-2216
370
              15
390
0
  6
Continuous
 62
               7
100
AcDbSpline
210
0.0
220
0.0
230
1.0
 70
               8
 71
               2
 72
               8
 73
               5
 74
               0
 42
0.000001
 43
0.000001
 40
0.0
 40
0.0
 40
0.0
 40
1.0
 40
2.0
 40
3.0
 40
3.0
 40
3.0
 10
303.36390103950112
 20
-370.95061710770892
 30
0.0
 10
301.61609246022817
 20
-371.12973612324367
 30
0.0
 10
298.69160844520707
 20
-373.07782930682401
 30
0.0
 10
297.01417334389544
 20
-376.16552833472701
 30
0.0
 10
296.99282723859073
 20
-377.92236150702729
 30
0.0
  0
LINE
  5
17A
100
AcDbEntity
  8
FAA70-2216
370
              15
390
0
  6
Continuous
 62
               7
100
AcDbLine
 10
303.36390103950112
 20
-370.95061710770892
 30
0.0
 11
723.21201385231348
 21
-370.95061710770892
 31
0.0
  0
LINE
  5
17B
100
AcDbEntity
  8
FAA70-2216
370
              15
390
0
  6
Continuous
 62
               7
100
AcDbLine
 10
317.0172696128152
 20
-390.9224304017448
 30
0.0
 11
331.58652979823046
 21
-483.6295312881507
 31
0.0
  0
LINE
  5
17C
100
AcDbEntity
  8
FAA70-2216
370
              15
390
0
  6
Continuous
 62
               7
100
AcDbLine
 10
361.36317077691365
 20
-509.88850773270883
 30
0.0
 11
727.64671177009109
 21
-509.88850773270883
 31
0.0
  0
SPLINE
  5
17D
100
AcDbEntity
  8
FAA70-2216
370
              15
390
0
  6
Continuous
 62
               7
100
AcDbSpline
210
0.0
220
0.0
230
1.0
 70
               8
 71
               2
 72
               8
 73
               5
 74
               0
 42
0.000001
 43
0.000001
 40
0.0
 40
0.0
 40
0.0
 40
1.0
 40
2.0
 40
3.0
 40
3.0
 40
3.0
 10
331.58652979823046
 20
-483.6295312881507
 30
0.0
 10
332.35839707759555
 20
-491.00363481668023
 30
0.0
 10
340.70960983147938
 20
-503.25720463633161
 30
0.0
 10
353.87195788914187
 20
-510.08694265434156
 30
0.0
 10
361.28548135874053
 20
-509.97357726220594
 30
0.0
  0
SPLINE
  5
17E
100
AcDbEntity
  8
FAA70-2216
370
              15
390
0
  6
Continuous
 62
               7
100
AcDbSpline
210
0.0
220
0.0
230
1.0
 70
               8
 71
               2
 72
               8
 73
               5
 74
               0
 42
0.000001
 43
0.000001
 40
0.0
 40
0.0
 40
0.0
 40
1.0
 40
2.0
 40
3.0
 40
3.0
 40
3.0
 10
726.87824032077492
 20
-509.86776807270212
 30
0.0
 10
729.54964891042937
 20
-510.0433605710034
 30
0.0
 10
734.2741587848966
 20
-507.52383030537499
 30
0.0
 10
736.95928367335569
 20
-502.8914302096648
 30
0.0
 10
736.87832643916681
 20
-500.21548131169038
 30
0.0
  0
LINE
  5
17F
100
AcDbEntity
  8
FAA70-2216
370
              15
390
0
  6
Continuous
 62
               7
100
AcDbLine
 10
514.49465725447862
 20
-531.41877258662544
 30
0.0
 11
514.49465725447862
 21
-552.97404816469907
 31
0.0
  0
LINE
  5
180
100
AcDbEntity
  8
FAA70-2216
370
              15
390
0
  6
Continuous
 62
               7
100
AcDbLine
 10
589.49530314243839
 20
-531.58405083235425
 30
0.0
 11
589.49530314243839
 21
-552.97404816469907
 31
0.0
  0
LINE
  5
181
100
AcDbEntity
  8
FAA70-2216
370
              15
390
0
  6
Continuous
 62
               7
100
AcDbLine
 10
589.49530314243839
 20
-552.97404816469907
 30
0.0
 11
514.49465725447862
 21
-552.97404816469907
 31
0.0
  0
LINE
  5
182
100
AcDbEntity
  8
FAA70-2216
370
              15
390
0
  6
Continuous
 62
               7
100
AcDbLine
 10
460.63674707089785
 20
-509.97367785560505
 30
0.0
 11
509.51609225246739
 21
-524.71699666162567
 31
0.0
  0
LINE
  5
183
100
AcDbEntity
  8
FAA70-2216
370
              15
390
0
  6
Continuous
 62
               7
100
AcDbLine
 10
509.25510688663121
 20
-524.63827648978349
 30
0.0
 11
595.31065318640049
 21
-524.63827648978349
 31
0.0
  0
LINE
  5
184
100
AcDbEntity
  8
FAA70-2216
370
              15
390
0
  6
Continuous
 62
               7
100
AcDbLine
 10
594.53826011336537
 20
-524.86318908832482
 30
0.0
 11
633.60150545007264
 21
-509.85465123972358
 31
0.0
  0
LINE
  5
185
100
AcDbEntity
  8
FAA70-2216
370
              15
390
0
  6
STYLE_26
 62
               7
100
AcDbLine
 10
525.99475629063249
 20
-520.68180889211135
 30
0.0
 11
525.99475629063249
 21
-552.97404816469907
 31
0.0
  0
LINE
  5
186
100
AcDbEntity
  8
FAA70-2216
370
              15
390
0
  6
STYLE_26
 62
               7
100
AcDbLine
 10
520.87339184308394
 20
-514.3177930560214
 30
0.0
 11
525.11606906714451
 21
-518.56047028008288
 31
0.0
  0
SPLINE
  5
187
100
AcDbEntity
  8
FAA70-2216
370
              15
390
0
  6
STYLE_26
 62
               7
100
AcDbSpline
210
0.0
220
0.0
230
1.0
 70
               8
 71
               2
 72
               6
 73
               3
 74
               0
 42
0.000001
 43
0.000001
 40
0.0
 40
0.0
 40
0.0
 40
1.0
 40
1.0
 40
1.0
 10
525.99475629063249
 20
-520.68180889211135
 30
0.0
 10
525.98918838120653
 20
-519.44146380716847
 30
0.0
 10
525.11606906714246
 20
-518.56047028008356
 30
0.0
  0
LINE
  5
188
100
AcDbEntity
  8
FAA70-2216
370
              15
390
0
  6
STYLE_26
 62
               7
100
AcDbLine
 10
410.02782161998266
 20
-479.54234959743985
 30
0.0
 11
342.52758901117431
 21
-378.25146938320972
 31
0.0
  0
LINE
  5
189
100
AcDbEntity
  8
FAA70-2216
370
              15
390
0
  6
STYLE_26
 62
               7
100
AcDbLine
 10
612.06355861507268
 20
-488.53855613015594
 30
0.0
 11
612.06212191063673
 21
-384.06649414704862
 31
0.0
  0
LINE
  5
18A
100
AcDbEntity
  8
FAA70-2216
370
              15
390
0
  6
STYLE_26
 62
               7
100
AcDbLine
 10
510.60150545007264
 20
-509.88850773270883
 30
0.0
 11
445.19926368630104
 21
-501.39904810848498
 31
0.0
  0
SPLINE
  5
18B
100
AcDbEntity
  8
FAA70-2216
370
              15
390
0
  6
STYLE_26
 62
               7
100
AcDbSpline
210
0.0
220
0.0
230
1.0
 70
               8
 71
               2
 72
               8
 73
               5
 74
               0
 42
0.000001
 43
0.000001
 40
0.0
 40
0.0
 40
0.0
 40
1.0
 40
2.0
 40
3.0
 40
3.0
 40
3.0
 10
588.97775433555262
 20
-509.96370010042847
 30
0.0
 10
595.29057775497381
 20
-509.92954106609682
 30
0.0
 10
606.21346454851073
 20
-503.5969136845722
 30
0.0
 10
612.54609193003898
 20
-492.67402689103801
 30
0.0
 10
612.58025096437336
 20
-486.36120347161727
 30
0.0
  0
LINE
  5
18C
100
AcDbEntity
  8
FAA70-2216
370
              15
390
0
  6
STYLE_26
 62
               7
100
AcDbLine
 10
724.4005141590028
 20
-378.92237011886573
 30
0.0
 11
628.8010924725163
 21
-378.92237011886573
 31
0.0
  0
SPLINE
  5
18D
100
AcDbEntity
  8
FAA70-2216
370
              15
390
0
  6
STYLE_26
 62
               7
100
AcDbSpline
210
0.0
220
0.0
230
1.0
 70
               8
 71
               2
 72
               8
 73
               5
 74
               0
 42
0.000001
 43
0.000001
 40
0.0
 40
0.0
 40
0.0
 40
1.0
 40
2.0
 40
3.0
 40
3.0
 40
3.0
 10
618.95021317795249
 20
-378.92237011886573
 30
0.0
 10
617.09450391687028
 20
-378.95142091051434
 30
0.0
 10
613.89987570932544
 20
-380.84148806704684
 30
0.0
 10
612.06212191063673
 20
-384.06649414704862
 30
0.0
 10
612.06331717839862
 20
-385.9224304017448
 30
0.0
  0
SPLINE
  5
18E
100
AcDbEntity
  8
FAA70-2216
370
              15
390
0
  6
STYLE_26
 62
               7
100
AcDbSpline
210
0.0
220
0.0
230
1.0
 70
               8
 71
               2
 72
               8
 73
               5
 74
               0
 42
0.000001
 43
0.000001
 40
0.0
 40
0.0
 40
0.0
 40
1.0
 40
2.0
 40
3.0
 40
3.0
 40
3.0
 10
724.07596694473023
 20
-378.90966174425716
 30
0.0
 10
725.06686447929542
 20
-378.76092633695794
 30
0.0
 10
726.72998554221203
 20
-377.64287941860061
 30
0.0
 10
727.75352885430902
 20
-375.91998659842079
 30
0.0
 10
727.84676389825449
 20
-374.92233567150697
 30
0.0
  0
LINE
  5
18F
100
AcDbEntity
  8
FAA70-2216
370
              15
390
0
  6
STYLE_26
 62
               7
100
AcDbLine
 10
727.84676389825449
 20
-374.92233567150697
 30
0.0
 11
729.25341643248021
 21
-370.37763531051019
 31
0.0
  0
LINE
  5
190
100
AcDbEntity
  8
FAA70-2216
370
              15
390
0
  6
STYLE_26
 62
               7
100
AcDbLine
 10
654.49594903039724
 20
-385.9224304017448
 30
0.0
 11
654.48381365172872
 21
-381.65283031925446
 31
0.0
  0
LINE
  5
191
100
AcDbEntity
  8
FAA70-2216
370
              15
390
0
  6
STYLE_26
 62
               7
100
AcDbLine
 10
689.49625044477852
 20
-385.9224304017448
 30
0.0
 11
689.50838582344682
 21
-381.65283031925446
 31
0.0
  0
SPLINE
  5
192
100
AcDbEntity
  8
FAA70-2216
370
              15
390
0
  6
STYLE_26
 62
               7
100
AcDbSpline
210
0.0
220
0.0
230
1.0
 70
               8
 71
               2
 72
               8
 73
               5
 74
               0
 42
0.000001
 43
0.000001
 40
0.0
 40
0.0
 40
0.0
 40
1.0
 40
2.0
 40
3.0
 40
3.0
 40
3.0
 10
692.15403338552096
 20
-378.92237011886573
 30
0.0
 10
691.38925252717627
 20
-378.95102383232302
 30
0.0
 10
690.1058884566537
 20
-379.7851820000792
 30
0.0
 10
689.43250880762662
 20
-381.15973757720872
 30
0.0
 10
689.49625044477852
 20
-381.92239595438605
 30
0.0
  0
SPLINE
  5
193
100
AcDbEntity
  8
FAA70-2216
370
              15
390
0
  6
STYLE_26
 62
               7
100
AcDbSpline
210
0.0
220
0.0
230
1.0
 70
               8
 71
               2
 72
               8
 73
               5
 74
               0
 42
0.000001
 43
0.000001
 40
0.0
 40
0.0
 40
0.0
 40
1.0
 40
2.0
 40
3.0
 40
3.0
 40
3.0
 10
654.56673873929617
 20
-381.92239595438605
 30
0.0
 10
654.58099548058181
 20
-381.20030960659051
 30
0.0
 10
653.93279440540687
 20
-379.90946369807921
 30
0.0
 10
652.75745237225556
 20
-379.06980966308265
 30
0.0
 10
652.04181705322549
 20
-378.97245444492955
 30
0.0
  0
LINE
  5
194
100
AcDbEntity
  8
FAA70-2216
370
              15
390
0
  6
Continuous
 62
               7
100
AcDbLine
 10
296.99282723859278
 20
-390.9224304017448
 30
0.0
 11
296.99282723859073
 21
-377.92236150702729
 31
0.0
  0
SPLINE
  5
195
100
AcDbEntity
  8
FAA70-2216
370
              15
390
0
  6
STYLE_26
 62
               7
100
AcDbSpline
210
0.0
220
0.0
230
1.0
 70
               8
 71
               2
 72
               7
 73
               4
 74
               0
 42
0.000001
 43
0.000001
 40
0.0
 40
0.0
 40
0.0
 40
1.0
 40
2.0
 40
2.0
 40
2.0
 10
342.52758901117431
 20
-378.25146938320972
 30
0.0
 10
342.23943435417527
 20
-377.28411566072054
 30
0.0
 10
340.66435749116636
 20
-376.02143668383451
 30
0.0
 10
339.65748564311343
 20
-375.95061710771051
 30
0.0
  0
DIMENSION
  5
196
100
AcDbEntity
  8
FAA70-2216
370
               5
390
0
  6
Continuous
 62
               7
100
AcDbDimension
  2
*D2
 10
-60.715107919118964
 20
860.00000000147782
 30
0.0
 11
-60.715107919118964
 21
630.00000000147782
 31
0.0
 71
               5
 72
               1
 41
1.0
 42
0.0
  3
tfrom線あり
100
AcDbAlignedDimension
 13
-259.69196669045277
 23
400.00000000147782
 33
0.0
 14
-165.71510791911896
 24
860.00000000147782
 34
0.0
 50
90.0
100
AcDbRotatedDimension
1001
ACAD
1000
DSTYLE
1002
{
1070
             279
1070
               2
1070
             340
1005
34
1070
             147
1040
5.0
1002
}
  0
DIMENSION
  5
197
100
AcDbEntity
  8
FAA70-2216
370
               5
390
0
  6
Continuous
 62
               7
100
AcDbDimension
  2
*D3
 10
-160.71510791911874
 20
1009.6000000014774
 30
0.0
 11
-440.71510791911896
 21
1009.6000000014774
 31
0.0
 71
               5
 72
               1
 41
1.0
 42
0.0
  3
tfrom線あり
100
AcDbAlignedDimension
 13
-720.71510791911896
 23
855.00000000147736
 33
0.0
 14
-160.71510791911874
 24
855.00000000147736
 34
0.0
100
AcDbRotatedDimension
1001
ACAD
1000
DSTYLE
1002
{
1070
             279
1070
               2
1070
             340
1005
34
1070
             147
1040
5.0
1002
}
  0
ARC
  5
198
100
AcDbEntity
  8
FAA70-2216
370
              15
390
0
  6
Continuous
 62
               7
100
AcDbCircle
 10
507.49465725447862
 20
-531.41877258662544
 30
0.0
 40
7.0
100
AcDbArc
 50
0.0
 51
73.215283254463714
  0
ARC
  5
199
100
AcDbEntity
  8
FAA70-2216
370
              15
390
0
  6
Continuous
 62
               7
100
AcDbCircle
 10
596.49530314243839
 20
-531.58405083235425
 30
0.0
 40
7.0000000000001199
100
AcDbArc
 50
106.23499472479246
 51
180.0
  0
DIMENSION
  5
19A
100
AcDbEntity
  8
FAA70-2216
370
               5
390
0
  6
Continuous
 62
               7
100
AcDbDimension
  2
*D4
 10
-59.0
 20
-355.92219788207649
 30
0.0
 11
-54.0
 21
-448.63730580119591
 31
0.0
 70
             128
 71
               5
 72
               1
 41
1.0
 42
0.0
  3
tfrom線あり
100
AcDbAlignedDimension
 13
-403.62344430421035
 23
-565.92219788207649
 33
0.0
 14
-172.71510791911942
 24
-355.92219788207649
 34
0.0
 50
90.0
100
AcDbRotatedDimension
1001
ACAD
1000
DSTYLE
1002
{
1070
             279
1070
               2
1070
             340
1005
34
1070
             147
1040
5.0
1002
}
  0
LINE
  5
19B
100
AcDbEntity
  8
FAA70-2216
370
              15
390
0
  6
Continuous
 62
               7
100
AcDbLine
 10
589.49530314243839
 20
-531.41877258662544
 30
0.0
 11
589.49530314243839
 21
-552.97404816469907
 31
0.0
  0
LINE
  5
19C
100
AcDbEntity
  8
FAA70-2216
370
              15
390
0
  6
STYLE_26
 62
               7
100
AcDbLine
 10
577.99520410628452
 20
-520.68180889211135
 30
0.0
 11
577.99520410628452
 21
-552.97404816469907
 31
0.0
  0
LINE
  5
19D
100
AcDbEntity
  8
FAA70-2216
370
              15
390
0
  6
STYLE_26
 62
               7
100
AcDbLine
 10
583.11656855383308
 20
-514.3177930560214
 30
0.0
 11
578.87389132977273
 21
-518.56047028008288
 31
0.0
  0
SPLINE
  5
19E
100
AcDbEntity
  8
FAA70-2216
370
              15
390
0
  6
STYLE_26
 62
               7
100
AcDbSpline
210
0.0
220
0.0
230
1.0
 70
               8
 71
               2
 72
               6
 73
               3
 74
               0
 42
0.000001
 43
0.000001
 40
0.0
 40
0.0
 40
0.0
 40
1.0
 40
1.0
 40
1.0
 10
577.99520410628452
 20
-520.68180889211135
 30
0.0
 10
578.00077201571048
 20
-519.44146380716847
 30
0.0
 10
578.87389132977478
 20
-518.56047028008356
 30
0.0
  0
SPLINE
  5
19F
100
AcDbEntity
  8
FAA70-2216
370
              15
390
0
  6
Continuous
 62
               7
100
AcDbSpline
210
0.0
220
0.0
230
1.0
 70
               8
 71
               2
 72
               7
 73
               4
 74
               0
 42
0.000001
 43
0.000001
 40
0.0
 40
0.0
 40
0.0
 40
1.0
 40
2.0
 40
2.0
 40
2.0
 10
583.1165685538333
 20
-514.3177930560214
 30
0.0
 10
583.50790155740719
 20
-513.85208530495129
 30
0.0
 10
584.63188783650048
 20
-513.38651494423016
 30
0.0
 10
585.23790716586245
 20
-513.43910583253432
 30
0.0
  0
DIMENSION
  5
1A0
100
AcDbEntity
  8
FAA70-2216
370
               5
390
0
  6
Continuous
 62
               7
100
AcDbDimension
  2
*D5
 10
536.98276122857237
 20
-515.95061710770892
 30
0.0
 11
531.98276122857237
 21
-356.0
 31
0.0
 70
             128
 71
               5
 72
               1
 41
1.0
 42
0.0
  3
tfrom線あり
100
AcDbAlignedDimension
 13
561.98276122857237
 23
-370.95061710770892
 33
0.0
 14
561.98276122857237
 24
-515.95061710770892
 34
0.0
 50
90.0
100
AcDbRotatedDimension
1001
ACAD
1000
DSTYLE
1002
{
1070
             279
1070
               2
1070
             340
1005
34
1070
               3
1000
<>(深さ)
1070
             174
1070
               0
1070
             147
1040
5.0
1002
}
  0
DIMENSION
  5
1A1
100
AcDbEntity
  8
FAA70-2216
370
               5
390
0
  6
Continuous
 62
               7
100
AcDbDimension
  2
*D6
 10
-683.21510791911896
 20
294.43958954171046
 30
0.0
 11
-440.71510791911896
 21
294.43958954171046
 31
0.0
 71
               5
 72
               1
 41
1.0
 42
0.0
  3
tfrom線あり
100
AcDbAlignedDimension
 13
-198.21510791911896
 23
407.66064112312029
 33
0.0
 14
-683.21510791911896
 24
407.66064112311994
 34
0.0
100
AcDbRotatedDimension
1001
ACAD
1000
DSTYLE
1002
{
1070
             279
1070
               2
1070
             340
1005
34
1070
             147
1040
5.0
1002
}
  0
DIMENSION
  5
1A2
100
AcDbEntity
  8
FAA70-2216
370
               5
390
0
  6
Continuous
 62
               7
100
AcDbDimension
  2
*D7
 10
-820.71510791911896
 20
860.00000000147782
 30
0.0
 11
-820.71510791911896
 21
785.00000000147782
 31
0.0
 71
               5
 72
               1
 41
1.0
 42
0.0
  3
tfrom線あり
100
AcDbAlignedDimension
 13
-720.71510791911896
 23
710.00000000147782
 33
0.0
 14
-715.71510791911896
 24
860.00000000147782
 34
0.0
 50
90.0
100
AcDbRotatedDimension
1001
ACAD
1000
DSTYLE
1002
{
1070
             279
1070
               2
1070
             340
1005
34
1070
             147
1040
5.0
1002
}
  0
DIMENSION
  5
1A3
100
AcDbEntity
  8
FAA70-2216
370
               5
390
0
  6
Continuous
 62
               7
100
AcDbDimension
  2
*D8
 10
-820.71510791911896
 20
710.00000000147782
 30
0.0
 11
-820.71510791911896
 21
572.50000000147782
 31
0.0
 71
               5
 72
               1
 41
1.0
 42
0.0
  3
tfrom線あり
100
AcDbAlignedDimension
 13
-720.86068123420637
 23
435.00000000147782
 33
0.0
 14
-720.71510791911896
 24
710.00000000147782
 34
0.0
 50
90.0
100
AcDbRotatedDimension
1001
ACAD
1000
DSTYLE
1002
{
1070
             279
1070
               2
1070
             340
1005
34
1070
             147
1040
5.0
1002
}
  0
DIMENSION
  5
1A4
100
AcDbEntity
  8
FAA70-2216
370
               5
390
0
  6
Continuous
 62
               7
100
AcDbDimension
  2
*D9
 10
-820.71510791911896
 20
435.00049092693905
 30
0.0
 11
-820.71510791911896
 21
415.00048898106627
 31
0.0
 71
               5
 72
               1
 41
1.0
 42
0.0
  3
tfrom線あり
100
AcDbAlignedDimension
 13
-627.69196669045277
 23
395.00048703519349
 33
0.0
 14
-718.67712555014032
 24
435.00049092693905
 34
0.0
 50
90.0
100
AcDbRotatedDimension
1001
ACAD
1000
DSTYLE
1002
{
1070
             279
1070
               2
1070
             340
1005
34
1070
             147
1040
5.0
1002
}
  0
DIMENSION
  5
1A5
100
AcDbEntity
  8
FAA70-2216
370
               5
390
0
  6
Continuous
 62
               7
100
AcDbDimension
  2
*D10
 10
197.85289089455114
 20
-370.95061710770892
 30
0.0
 11
192.85289089455114
 21
-357.7098324180065
 31
0.0
 70
             128
 71
               5
 72
               1
 41
1.0
 42
0.0
  3
tfrom線あり
100
AcDbAlignedDimension
 13
296.99282723859278
 23
-390.9224304017448
 33
0.0
 14
304.08721360041409
 24
-370.95061710770892
 34
0.0
 50
90.0
100
AcDbRotatedDimension
1001
ACAD
1000
DSTYLE
1002
{
1070
             279
1070
               2
1070
             340
1005
34
1070
             174
1070
               0
1070
             147
1040
5.0
1002
}
  0
CIRCLE
  5
1A6
100
AcDbEntity
  8
FAA70-2216
370
              15
390
0
  6
STYLE_26
 62
               7
100
AcDbCircle
 10
-859.74377738018438
 20
192.95504278120006
 30
0.0
 40
17.500000000000455
  0
MTEXT
  5
1A7
100
AcDbEntity
  8
FAA70-2216
390
0
 62
               7
100
AcDbMText
 10
-839.6735760220231
 20
207.41172613316826
 30
0.0
 40
27.147352430555557
 41
929.5142809610162
 71
               1
 72
               1
  1
＝φ30もしくはφ35の水栓取付用穴あけ加工を承ります。\P   必要な場合、ご注文の際にご指示ください。
  7
ＭＳ ゴシック
 73
               1
 44
1.1742401076386766
  0
MTEXT
  5
1A8
100
AcDbEntity
  8
FAA70-2216
390
0
 62
               7
100
AcDbMText
 10
157.75684884941052
 20
207.41172613316826
 30
0.0
 40
27.147352430555557
 41
705.55118446013671
 71
               1
 72
               1
  1
※切込寸法は目安としてご参照ください。\P　カウンター強度が不足する場合は、補強\P　するか寸法を調整してください。
  7
ＭＳ ゴシック
 73
               1
 44
1.1742401076386766
  0
MTEXT
  5
1A9
100
AcDbEntity
  8
FAA70-2216
390
0
 62
               7
100
AcDbMText
 10
319.21157039092668
 20
1082.450255957659
 30
0.0
 40
27.147352430555557
 41
0.0
 71
               1
 72
               1
  1
カウンター切込寸法
  7
ＭＳ ゴシック
 73
               1
 44
0.7828267384257843
  0
DIMENSION
  5
1AA
100
AcDbEntity
  8
FAA70-2216
370
               5
390
0
  6
Continuous
 62
               7
100
AcDbDimension
  2
*D11
 10
672.03149459203723
 20
-255.92219788207649
 30
0.0
 11
717.03149459203723
 21
-255.92219788207649
 31
0.0
 71
               5
 72
               1
 41
1.0
 42
0.0
  3
tfrom線あり
100
AcDbAlignedDimension
 13
762.03149459203723
 23
-360.71773610157788
 33
0.0
 14
672.03149459203723
 24
-375.95061710770892
 34
0.0
100
AcDbRotatedDimension
1001
ACAD
1000
DSTYLE
1002
{
1070
             279
1070
               2
1070
             340
1005
34
1070
             147
1040
5.0
1002
}
  0
LINE
  5
1AB
100
AcDbEntity
  8
FAA70-2216
370
              15
390
0
  6
STYLE_26
 62
               7
100
AcDbLine
 10
-414.71305964856765
 20
-521.0
 30
0.0
 11
-414.71497280003541
 21
-565.92219788207649
 31
0.0
  0
SPLINE
  5
1AC
100
AcDbEntity
  8
FAA70-2216
370
              15
390
0
  6
STYLE_26
 62
               7
100
AcDbSpline
210
0.0
220
0.0
230
1.0
 70
               8
 71
               2
 72
               7
 73
               4
 74
               0
 42
0.000001
 43
0.000001
 40
0.0
 40
0.0
 40
0.0
 40
1.0
 40
2.0
 40
2.0
 40
2.0
 10
-202.72523920899312
 20
-378.23699664476726
 30
0.0
 10
-202.4370845519943
 20
-377.26964292227808
 30
0.0
 10
-200.86200768898516
 20
-376.00696394539204
 30
0.0
 10
-199.85513584093223
 20
-375.93614436926828
 30
0.0
  0
LINE
  5
1AD
100
AcDbEntity
  8
FAA70-2216
370
              15
390
0
  6
STYLE_26
 62
               7
100
AcDbLine
 10
-466.71550738374481
 20
-521.0
 30
0.0
 11
-466.71550738374481
 21
-565.92219788207649
 31
0.0
  0
LINE
  5
1AE
100
AcDbEntity
  8
FAA70-2216
370
              15
390
0
  6
STYLE_26
 62
               7
100
AcDbLine
 10
-470.7328068131651
 20
-515.92219788207603
 30
0.0
 11
-467.59419460723302
 21
-519.06081008800857
 31
0.0
  0
LINE
  5
1AF
100
AcDbEntity
  8
FAA70-2216
370
              15
390
0
  6
STYLE_26
 62
               7
100
AcDbLine
 10
-608.66175954637447
 20
-459.75535918683318
 30
0.0
 11
-678.70497662924481
 21
-378.23699664476726
 31
0.0
  0
SPLINE
  5
1B0
100
AcDbEntity
  8
FAA70-2216
370
              15
390
0
  6
STYLE_26
 62
               7
100
AcDbSpline
210
0.0
220
0.0
230
1.0
 70
               8
 71
               2
 72
               7
 73
               4
 74
               0
 42
0.000001
 43
0.000001
 40
0.0
 40
0.0
 40
0.0
 40
1.0
 40
2.0
 40
2.0
 40
2.0
 10
-678.70497662924481
 20
-378.23699664476726
 30
0.0
 10
-678.99313128624362
 20
-377.26964292227808
 30
0.0
 10
-680.56820814925277
 20
-376.00696394539204
 30
0.0
 10
-681.57507999730569
 20
-375.93614436926828
 30
0.0
  0
CIRCLE
  5
1B1
100
AcDbEntity
  8
FAA70-2216
370
               5
390
0
  6
STYLE_26
 62
               7
100
AcDbCircle
 10
474.0
 20
645.00000000000045
 30
0.0
 40
26.0
  0
LWPOLYLINE
  5
1B2
100
AcDbEntity
  8
FAA70-2216
370
               5
390
0
  6
STYLE_26
 62
               7
100
AcDbPolyline
 90
        8
 70
             129
 10
754.00000000000023
 20
855.00000000000011
 42
0.414213562373095
 10
749.00000000000023
 20
860.00000000000011
 10
199.0
 20
860.00000000000011
 42
0.4142135623730884
 10
194.0
 20
855.00000000000011
 10
194.0
 20
448.69052272044587
 42
0.3950431318699739
 10
237.90528705806855
 20
401.7925190123234
 42
0.0287703139459762
 10
710.09471294193963
 20
401.79251901232442
 42
0.3950431318699759
 10
754.0
 20
448.69052272044598
  0
CIRCLE
  5
1B3
100
AcDbEntity
  8
FAA70-2216
370
               5
390
0
  6
STYLE_26
 62
               7
100
AcDbCircle
 10
474.0
 20
780.74032841529254
 30
0.0
 40
17.5
  0
DIMENSION
  5
1B4
100
AcDbEntity
  8
FAA70-2216
370
               5
390
0
  6
Continuous
 62
               7
100
AcDbDimension
  2
*D12
 10
761.99683174394204
 20
-652.97404816469907
 30
0.0
 11
656.99683174394204
 21
-652.97404816469907
 31
0.0
 71
               5
 72
               1
 41
1.0
 42
0.0
  3
tfrom線あり
100
AcDbAlignedDimension
 13
551.99683174394204
 23
-552.97404816469907
 33
0.0
 14
761.99683174394204
 24
-390.9224304017448
 34
0.0
100
AcDbRotatedDimension
1001
ACAD
1000
DSTYLE
1002
{
1070
             279
1070
               2
1070
             340
1005
34
1070
             147
1040
5.0
1002
}
  0
CIRCLE
  5
1B5
100
AcDbEntity
  8
FAA70-2216
370
               5
390
0
  6
STYLE_26
 62
               7
100
AcDbCircle
 10
567.17125079336529
 20
780.74032841529254
 30
0.0
 40
17.5
  0
CIRCLE
  5
1B6
100
AcDbEntity
  8
FAA70-2216
370
               5
390
0
  6
STYLE_26
 62
               7
100
AcDbCircle
 10
380.82874920663471
 20
780.74032841529254
 30
0.0
 40
17.5
  0
DIMENSION
  5
1B7
100
AcDbEntity
  8
FAA70-2216
370
               5
390
0
  6
Continuous
 62
               7
100
AcDbDimension
  2
*D13
 10
-449.9655475421896
 20
784.85528077229833
 30
0.0
 11
-310.69196669045368
 21
657.54983916670199
 31
0.0
 70
               3
 71
               5
 72
               1
 41
1.0
 42
0.0
  3
tfrom線あり
100
AcDbDiametricDimension
 15
-431.46466829604833
 25
755.14471923065639
 35
0.0
 40
114.96991726160489
1001
ACAD
1000
DSTYLE
1002
{
1070
             289
1070
               0
1070
             342
1005
53
1070
             340
1005
34
1070
              73
1070
               1
1070
              74
1070
               1
1070
              75
1070
               1
1070
              76
1070
               1
1070
               3
1000

1070
             174
1070
               0
1070
             147
1040
5.0
1002
}
  0
CIRCLE
  5
1B8
100
AcDbEntity
  8
FAA70-2216
370
              15
390
0
  6
STYLE_26
 62
               7
100
AcDbCircle
 10
-340.71510791911896
 20
770.00000000147736
 30
0.0
 40
17.5
  0
CIRCLE
  5
1B9
100
AcDbEntity
  8
FAA70-2216
370
              15
390
0
  6
STYLE_26
 62
               7
100
AcDbCircle
 10
-540.71510791911896
 20
770.00000000147736
 30
0.0
 40
17.5
  0
DIMENSION
  5
1BA
100
AcDbEntity
  8
FAA70-2216
370
               5
390
0
  6
Continuous
 62
               7
100
AcDbDimension
  2
*D14
 10
-540.71510791911896
 20
960.04032841676985
 30
0.0
 11
-490.71510791911896
 21
960.04032841676985
 31
0.0
 71
               5
 72
               1
 41
1.0
 42
0.0
  3
tfrom線あり
100
AcDbAlignedDimension
 13
-440.71510791911896
 23
798.24032841676978
 33
0.0
 14
-540.71510791911896
 24
798.24032841676978
 34
0.0
100
AcDbRotatedDimension
1001
ACAD
1000
DSTYLE
1002
{
1070
             279
1070
               2
1070
             340
1005
34
1070
             147
1040
5.0
1002
}
  0
DIMENSION
  5
1BB
100
AcDbEntity
  8
FAA70-2216
370
               5
390
0
  6
Continuous
 62
               7
100
AcDbDimension
  2
*D15
 10
-440.71510791911896
 20
960.04032841676985
 30
0.0
 11
-390.71510791911896
 21
960.04032841676985
 31
0.0
 71
               5
 72
               1
 41
1.0
 42
0.0
  3
tfrom線あり
100
AcDbAlignedDimension
 13
-340.71510791911896
 23
798.24032841676978
 33
0.0
 14
-440.71510791911896
 24
798.24032841676978
 34
0.0
100
AcDbRotatedDimension
1001
ACAD
1000
DSTYLE
1002
{
1070
             279
1070
               2
1070
             340
1005
34
1070
             147
1040
5.0
1002
}
  0
LINE
  5
1BC
100
AcDbEntity
  8
FAA70-2216
370
               5
390
0
  6
STYLE_26
 62
               7
100
AcDbLine
 10
-512.57847114710603
 20
-510.95318669376547
 30
0.0
 11
-470.7328068131651
 21
-515.92219788207649
 31
0.0
  0
LINE
  5
1BD
100
AcDbEntity
  8
FAA70-2216
370
              15
390
0
  6
STYLE_26
 62
               7
100
AcDbLine
 10
-410.69740902507283
 20
-515.92219788207603
 30
0.0
 11
-413.83602123100491
 21
-519.06081008800857
 31
0.0
  0
LINE
  5
1BE
100
AcDbEntity
  8
FAA70-2216
370
               5
390
0
  6
Continuous
 62
               7
100
AcDbLine
 10
520.87339184308394
 20
-514.3177930560214
 30
0.0
 11
510.60150545007264
 21
-509.88850773270883
 31
0.0
  0
POLYLINE
  5
1BF
100
AcDbEntity
  8
FAA70-2216
370
               5
390
0
  6
Continuous
 62
               7
100
AcDb2dPolyline
 66
               1
 10
0.0
 20
0.0
 30
0.0
 70
               1
 75
               5
  0
VERTEX
  5
1C0
100
AcDbEntity
  8
FAA70-2216
370
               5
390
0
  6
Continuous
 62
               7
100
AcDbVertex
100
AcDb2dVertex
 10
214.0
 20
845.00000000000011
 30
0.0
  0
VERTEX
  5
1C1
100
AcDbEntity
  8
FAA70-2216
370
               5
390
0
  6
Continuous
 62
               7
100
AcDbVertex
100
AcDb2dVertex
 10
734.0
 20
845.00000000000011
 30
0.0
  0
VERTEX
  5
1C2
100
AcDbEntity
  8
FAA70-2216
370
               5
390
0
  6
Continuous
 62
               7
100
AcDbVertex
100
AcDb2dVertex
 10
734.0
 20
425.00000000000011
 30
0.0
  0
VERTEX
  5
1C3
100
AcDbEntity
  8
FAA70-2216
370
               5
390
0
  6
Continuous
 62
               7
100
AcDbVertex
100
AcDb2dVertex
 10
214.0
 20
425.00000000000011
 30
0.0
  0
SEQEND
  5
1C4
100
AcDbEntity
  8
FAA70-2216
370
               5
390
0
  6
Continuous
 62
               7
  0
DIMENSION
  5
1C5
100
AcDbEntity
  8
FAA70-2216
370
               5
390
0
  6
Continuous
 62
               7
100
AcDbDimension
  2
*D16
 10
214.0
 20
297.0
 30
0.0
 11
474.0
 21
297.0
 31
0.0
 71
               5
 72
               1
 41
1.0
 42
0.0
  3
tfrom線あり
100
AcDbAlignedDimension
 13
734.0
 23
425.00000000000011
 33
0.0
 14
214.0
 24
425.00000000000011
 34
0.0
100
AcDbRotatedDimension
1001
ACAD
1000
DSTYLE
1002
{
1070
             279
1070
               2
1070
             340
1005
34
1070
             147
1040
5.0
1002
}
  0
DIMENSION
  5
1C6
100
AcDbEntity
  8
FAA70-2216
370
               5
390
0
  6
Continuous
 62
               7
100
AcDbDimension
  2
*D17
 10
856.0
 20
425.00000000000011
 30
0.0
 11
856.0
 21
635.00000000000011
 31
0.0
 71
               5
 72
               1
 41
1.0
 42
0.0
  3
tfrom線あり
100
AcDbAlignedDimension
 13
734.0
 23
845.00000000000011
 33
0.0
 14
734.0
 24
425.00000000000011
 34
0.0
 50
90.0
100
AcDbRotatedDimension
1001
ACAD
1000
DSTYLE
1002
{
1070
             279
1070
               2
1070
             340
1005
34
1070
             147
1040
5.0
1002
}
  0
DIMENSION
  5
1C7
100
AcDbEntity
  8
FAA70-2216
370
               5
390
0
  6
Continuous
 62
               7
100
AcDbDimension
  2
*D18
 10
823.125
 20
-355.92219788207649
 30
0.0
 11
828.125
 21
-344.0
 31
0.0
 70
             128
 71
               5
 72
               1
 41
1.0
 42
0.0
  3
tfrom線あり
100
AcDbAlignedDimension
 13
746.95651195312303
 23
-390.9224304017448
 33
0.0
 14
746.95651195312303
 24
-355.92219788207649
 34
0.0
 50
90.0
100
AcDbRotatedDimension
1001
ACAD
1000
DSTYLE
1002
{
1070
             279
1070
               2
1070
             340
1005
34
1070
             174
1070
               0
1070
             147
1040
5.0
1002
}
  0
LINE
  5
1C8
100
AcDbEntity
  8
FAA70-2216
370
               5
390
0
  6
Continuous
 62
               7
100
AcDbLine
 10
736.80382487274755
 20
-390.9224304017448
 30
0.0
 11
736.87685206813444
 21
-500.86407105295848
 31
0.0
  0
ARC
  5
1C9
100
AcDbEntity
  8
FAA70-2216
370
              15
390
0
  6
STYLE_26
 62
               7
100
AcDbCircle
 10
451.63545845655358
 20
-451.81502450330163
 30
0.0
 40
50.000000000000007
100
AcDbArc
 50
213.67948463799218
 51
262.60414265881838
  0
ARC
  5
1CA
100
AcDbEntity
  8
FAA70-2216
370
               5
390
0
  6
STYLE_26
 62
               7
100
AcDbCircle
 10
-494.89081703358534
 20
-361.999680887556
 30
0.0
 40
150.00000000000045
100
AcDbArc
 50
220.67023914301177
 51
263.22805802188054
  0
LINE
  5
1CB
100
AcDbEntity
  8
FAA70-2216
370
              15
390
0
  6
STYLE_26
 62
               7
100
AcDbLine
 10
-271.24830029926716
 20
-459.75535918683318
 30
0.0
 11
-201.20508321639682
 21
-378.23699664476726
 31
0.0
  0
LINE
  5
1CC
100
AcDbEntity
  8
FAA70-2216
370
               5
390
0
  6
STYLE_26
 62
               7
100
AcDbLine
 10
-367.3315886985356
 20
-510.95318669376547
 30
0.0
 11
-409.17725303247653
 21
-515.92219788207649
 31
0.0
  0
ARC
  5
1CD
100
AcDbEntity
  8
FAA70-2216
370
               5
390
0
  6
STYLE_26
 62
               7
100
AcDbCircle
 10
-385.01924281205629
 20
-361.999680887556
 30
0.0
 40
150.00000000000009
100
AcDbArc
 50
276.77194197811946
 51
319.32976085698823
  0
ENDSEC
  0
SECTION
  2
OBJECTS
  0
DICTIONARY
  5
19
100
AcDbDictionary
280
               0
281
               1
  3
ACAD_GROUP
350
1A
  3
ACAD_MLINESTYLE
350
1B
  3
ACAD_LAYOUT
350
1E
  3
ACAD_PLOTSETTINGS
350
22
  3
ACAD_PLOTSTYLENAME
350
1F
  0
DICTIONARY
  5
1A
102
{ACAD_REACTORS
330
19
102
}
100
AcDbDictionary
280
               0
281
               1
  0
DICTIONARY
  5
1B
102
{ACAD_REACTORS
330
19
102
}
100
AcDbDictionary
280
               0
281
               1
  3
Standard
350
1C
  0
MLINESTYLE
  5
1C
102
{ACAD_REACTORS
330
1B
102
}
100
AcDbMlineStyle
  2
Standard
 70
               0
  3

 62
               0
 51
90.0
 52
90.0
 71
               2
 49
0.5
 62
             256
  6
ByLayer
 49
-0.5
 62
             256
  6
ByLayer
  0
ACDBDICTIONARYWDFLT
  5
1F
102
{ACAD_REACTORS
330
19
102
}
100
AcDbDictionary
281
               1
  3
Normal
350
1D
100
AcDbDictionaryWithDefault
340
1D
  0
ACDBPLACEHOLDER
  5
1D
102
{ACAD_REACTORS
330
1F
102
}
  0
LAYOUT
  5
20
102
{ACAD_REACTORS
330
1E
102
}
100
AcDbPlotSettings
  1

  2

  4

  6

 40
0.0
 41
0.0
 42
0.0
 43
0.0
 44
0.0
 45
0.0
 46
0.0
 47
0.0
 48
0.0
 49
0.0
140
0.0
141
0.0
142
1.0
143
1.0
 70
            1024
 72
               0
 73
               0
 74
               0
  7

 75
               0
147
1.0
148
0.0
149
0.0
100
AcDbLayout
  1
Model
 70
               0
 71
               0
 10
0.0
 20
0.0
 11
0.0
 21
0.0
 12
0.0
 22
0.0
 32
0.0
 14
0.0
 24
0.0
 34
0.0
 15
0.0
 25
0.0
 35
0.0
146
0.0
 13
0.0
 23
0.0
 33
0.0
 16
0.0
 26
0.0
 36
0.0
 17
0.0
 27
0.0
 37
0.0
 76
               0
330
A
331
0
345
0
346
0
  0
LAYOUT
  5
21
102
{ACAD_REACTORS
330
1E
102
}
100
AcDbPlotSettings
  1

  2

  4

  6

 40
0.0
 41
0.0
 42
0.0
 43
0.0
 44
0.0
 45
0.0
 46
0.0
 47
0.0
 48
0.0
 49
0.0
140
0.0
141
0.0
142
1.0
143
1.0
 70
               0
 72
               0
 73
               0
 74
               0
  7

 75
               0
147
1.0
148
0.0
149
0.0
100
AcDbLayout
  1
Layout1
 70
               0
 71
               0
 10
0.0
 20
0.0
 11
0.0
 21
0.0
 12
0.0
 22
0.0
 32
0.0
 14
0.0
 24
0.0
 34
0.0
 15
0.0
 25
0.0
 35
0.0
146
0.0
 13
0.0
 23
0.0
 33
0.0
 16
0.0
 26
0.0
 36
0.0
 17
0.0
 27
0.0
 37
0.0
 76
               0
330
B
331
0
345
0
346
0
  0
DICTIONARY
  5
1E
102
{ACAD_REACTORS
330
19
102
}
100
AcDbDictionary
280
               0
281
               1
  3
Layout1
350
21
  3
Model
350
20
  0
DICTIONARY
  5
22
102
{ACAD_REACTORS
330
19
102
}
100
AcDbDictionary
280
               0
281
               1
  0
ENDSEC
  0
EOF
