  0
SECTION
  2
HEADER
  9
$ACADVER
  1
AC1015
  9
$ACADMAINTVER
 70
               6
  9
$DWGCODEPAGE
  3
ANSI_932
  9
$INSBASE
 10
0.0
 20
0.0
 30
0.0
  9
$EXTMIN
 10
-975.00000000024124
 20
-1431.5255224711129
 30
-14.340416666666664
  9
$EXTMAX
 10
975.00000000024124
 20
1405.9972926412995
 30
14.340416666666664
  9
$LIMMIN
 10
0.0
 20
0.0
  9
$LIMMAX
 10
0.0
 20
0.0
  9
$ORTHOMODE
 70
               0
  9
$REGENMODE
 70
               1
  9
$FILLMODE
 70
               1
  9
$QTEXTMODE
 70
               0
  9
$MIRRTEXT
 70
               1
  9
$LTSCALE
 40
25.399999999999999
  9
$ATTMODE
 70
               1
  9
$TEXTSIZE
 40
0.2
  9
$TRACEWID
 40
1.0
  9
$TEXTSTYLE
  7
Standard
  9
$CLAYER
  8
FAA70-2217
  9
$CELTYPE
  6
Continuous
  9
$CECOLOR
 62
             256
  9
$CELTSCALE
 40
1.0
  9
$DISPSILH
 70
               0
  9
$DIMSCALE
 40
1.0
  9
$DIMASZ
 40
31.75
  9
$DIMEXO
 40
0.0
  9
$DIMDLI
 40
6.9999999999999396
  9
$DIMRND
 40
0.0
  9
$DIMDLE
 40
0.0
  9
$DIMEXE
 40
19.999999999996199
  9
$DIMTP
 40
0.0
  9
$DIMTM
 40
0.0
  9
$DIMTXT
 40
24.432617187500004
  9
$DIMCEN
 40
0.0
  9
$DIMTSZ
 40
0.0
  9
$DIMTOL
 70
               0
  9
$DIMLIM
 70
               0
  9
$DIMTIH
 70
               0
  9
$DIMTOH
 70
               0
  9
$DIMSE1
 70
               0
  9
$DIMSE2
 70
               0
  9
$DIMTAD
 70
               1
  9
$DIMZIN
 70
              11
  9
$DIMBLK
  1
VW_FILLEDARROW
  9
$DIMASO
 70
               1
  9
$DIMSHO
 70
               1
  9
$DIMPOST
  1
<>
  9
$DIMAPOST
  1
[]
  9
$DIMALT
 70
               0
  9
$DIMALTD
 70
               1
  9
$DIMALTF
 40
1.0
  9
$DIMLFAC
 40
1.0
  9
$DIMTOFL
 70
               0
  9
$DIMTVP
 40
0.0
  9
$DIMTIX
 70
               1
  9
$DIMSOXD
 70
               0
  9
$DIMSAH
 70
               0
  9
$DIMBLK1
  1

  9
$DIMBLK2
  1

  9
$DIMSTYLE
  2
JIS
  9
$DIMCLRD
 70
               0
  9
$DIMCLRE
 70
               0
  9
$DIMCLRT
 70
               0
  9
$DIMTFAC
 40
1.0
  9
$DIMGAP
 40
1.00000000000108
  9
$DIMJUST
 70
               0
  9
$DIMSD1
 70
               0
  9
$DIMSD2
 70
               0
  9
$DIMTOLJ
 70
               1
  9
$DIMTZIN
 70
              11
  9
$DIMALTZ
 70
              11
  9
$DIMALTTZ
 70
              11
  9
$DIMUPT
 70
               0
  9
$DIMDEC
 70
               1
  9
$DIMTDEC
 70
               1
  9
$DIMALTU
 70
               2
  9
$DIMALTTD
 70
               2
  9
$DIMTXSTY
  7
ＭＳ ゴシック
  9
$DIMAUNIT
 70
               0
  9
$DIMADEC
 70
               2
  9
$DIMALTRND
 40
0.0
  9
$DIMAZIN
 70
               0
  9
$DIMDSEP
 70
              46
  9
$DIMATFIT
 70
               0
  9
$DIMFRAC
 70
               2
  9
$DIMLDRBLK
  1

  9
$DIMLUNIT
 70
               2
  9
$DIMLWD
 70
              -2
  9
$DIMLWE
 70
              -2
  9
$DIMTMOVE
 70
               0
  9
$LUNITS
 70
               2
  9
$LUPREC
 70
               4
  9
$SKETCHINC
 40
0.1
  9
$FILLETRAD
 40
0.0
  9
$AUNITS
 70
               0
  9
$AUPREC
 70
               0
  9
$MENU
  1
acad
  9
$ELEVATION
 40
0.0
  9
$PELEVATION
 40
0.0
  9
$THICKNESS
 40
0.0
  9
$LIMCHECK
 70
               0
  9
$CHAMFERA
 40
0.0
  9
$CHAMFERB
 40
0.0
  9
$CHAMFERC
 40
0.0
  9
$CHAMFERD
 40
0.0
  9
$SKPOLY
 70
               0
  9
$TDCREATE
 40
2456024.606006945
  9
$TDUCREATE
 40
0.000000000
  9
$TDUPDATE
 40
2456024.606006945
  9
$TDUUPDATE
 40
0.000000000
  9
$TDINDWG
 40
0.0000000000
  9
$TDUSRTIMER
 40
0.0000000000
  9
$USRTIMER
 70
               1
  9
$ANGBASE
 50
0.0
  9
$ANGDIR
 70
               0
  9
$PDMODE
 70
               1
  9
$PDSIZE
 40
-2.0
  9
$PLINEWID
 40
0.0
  9
$SPLFRAME
 70
               0
  9
$SPLINETYPE
 70
               6
  9
$SPLINESEGS
 70
               8
  9
$HANDSEED
  5
1EF
  9
$SURFTAB1
 70
               6
  9
$SURFTAB2
 70
               6
  9
$SURFTYPE
 70
               6
  9
$SURFU
 70
               6
  9
$SURFV
 70
               6
  9
$UCSBASE
  2

  9
$UCSNAME
  2

  9
$UCSORG
 10
0.0
 20
0.0
 30
0.0
  9
$UCSXDIR
 10
1.0
 20
0.0
 30
0.0
  9
$UCSYDIR
 10
0.0
 20
1.0
 30
0.0
  9
$UCSORTHOREF
  2

  9
$UCSORTHOVIEW
 70
               0
  9
$UCSORGTOP
 10
0.0
 20
0.0
 30
0.0
  9
$UCSORGBOTTOM
 10
0.0
 20
0.0
 30
0.0
  9
$UCSORGLEFT
 10
0.0
 20
0.0
 30
0.0
  9
$UCSORGRIGHT
 10
0.0
 20
0.0
 30
0.0
  9
$UCSORGFRONT
 10
0.0
 20
0.0
 30
0.0
  9
$UCSORGBACK
 10
0.0
 20
0.0
 30
0.0
  9
$PUCSBASE
  2

  9
$PUCSNAME
  2

  9
$PUCSORG
 10
0.0
 20
0.0
 30
0.0
  9
$PUCSXDIR
 10
1.0
 20
0.0
 30
0.0
  9
$PUCSYDIR
 10
0.0
 20
1.0
 30
0.0
  9
$PUCSORTHOREF
  2

  9
$PUCSORTHOVIEW
 70
               0
  9
$PUCSORGTOP
 10
0.0
 20
0.0
 30
0.0
  9
$PUCSORGBOTTOM
 10
0.0
 20
0.0
 30
0.0
  9
$PUCSORGLEFT
 10
0.0
 20
0.0
 30
0.0
  9
$PUCSORGRIGHT
 10
0.0
 20
0.0
 30
0.0
  9
$PUCSORGFRONT
 10
0.0
 20
0.0
 30
0.0
  9
$PUCSORGBACK
 10
0.0
 20
0.0
 30
0.0
  9
$USERI1
 70
               0
  9
$USERI2
 70
               0
  9
$USERI3
 70
               0
  9
$USERI4
 70
               0
  9
$USERI5
 70
               0
  9
$USERR1
 40
0.0
  9
$USERR2
 40
0.0
  9
$USERR3
 40
0.0
  9
$USERR4
 40
0.0
  9
$USERR5
 40
0.0
  9
$WORLDVIEW
 70
               1
  9
$SHADEDGE
 70
               3
  9
$SHADEDIF
 70
              70
  9
$TILEMODE
 70
               1
  9
$MAXACTVP
 70
              64
  9
$PINSBASE
 10
0.0
 20
0.0
 30
0.0
  9
$PLIMCHECK
 70
               0
  9
$PEXTMIN
 10
1.0000000000000000E+20
 20
1.0000000000000000E+20
 30
1.0000000000000000E+20
  9
$PEXTMAX
 10
-1.0000000000000000E+20
 20
-1.0000000000000000E+20
 30
-1.0000000000000000E+20
  9
$PLIMMIN
 10
0.0
 20
0.0
  9
$PLIMMAX
 10
12.0
 20
9.0
  9
$UNITMODE
 70
               0
  9
$VISRETAIN
 70
               0
  9
$PLINEGEN
 70
               1
  9
$PSLTSCALE
 70
               0
  9
$TREEDEPTH
 70
            3020
  9
$CMLSTYLE
  2
Standard
  9
$CMLJUST
 70
               0
  9
$CMLSCALE
 40
1.0
  9
$PROXYGRAPHICS
 70
               0
  9
$MEASUREMENT
 70
               1
  9
$CELWEIGHT
370
               0
  9
$ENDCAPS
280
               0
  9
$JOINSTYLE
280
               0
  9
$LWDISPLAY
290
               1
  9
$INSUNITS
 70
               4
  9
$HYPERLINKBASE
  1

  9
$STYLESHEET
  1

  9
$XEDIT
290
               1
  9
$CEPSNTYPE
380
               0
  9
$PSTYLEMODE
290
               1
  9
$FINGERPRINTGUID
  2

  9
$VERSIONGUID
  2

  9
$EXTNAMES
290
               1
  9
$PSVPSCALE
 40
0.0
  0
ENDSEC
  0
SECTION
  2
CLASSES
  0
CLASS
  1
LWPOLYLINE
  2
AcDbPolyline
  3
AutoCAD 2000
 90
        0
280
               0
281
               1
  0
CLASS
  1
IMAGE
  2
AcDbRasterImage
  3
ISM
 90
      127
280
               0
281
               1
  0
CLASS
  1
OLE2FRAME
  2
AcDbOle2Frame
  3
AutoCAD 2000
 90
        0
280
               0
281
               1
  0
CLASS
  1
HATCH
  2
AcDbHatch
  3
AutoCAD 2000
 90
        0
280
               0
281
               1
  0
CLASS
  1
DICTIONARYVAR
  2
AcDbDictionaryVar
  3
AutoCAD 2000
 90
        0
280
               0
281
               0
  0
CLASS
  1
RASTERVARIABLES
  2
AcDbRasterVariables
  3
ISM
 90
        0
280
               0
281
               0
  0
CLASS
  1
IMAGEDEF
  2
AcDbRasterImageDef
  3
ISM
 90
        0
280
               0
281
               0
  0
CLASS
  1
IMAGEDEF_REACTOR
  2
AcDbRasterImageDefReactor
  3
ISM
 90
        1
280
               0
281
               0
  0
CLASS
  1
IDBUFFER
  2
AcDbIdBuffer
  3
AutoCAD 2000
 90
        0
280
               0
281
               0
  0
CLASS
  1
SPATIAL_FILTER
  2
AcDbSpatialFilter
  3
AutoCAD 2000
 90
        0
280
               0
281
               0
  0
CLASS
  1
XRECORD
  2
AcDbXrecord
  3
AutoCAD 2000
 90
        0
280
               0
281
               0
  0
CLASS
  1
SORTENTSTABLE
  2
AcDbSortentsTable
  3
AutoCAD 2000
 90
        0
280
               0
281
               0
  0
CLASS
  1
LAYER_INDEX
  2
AcDbLayerIndex
  3
AutoCAD 2000
 90
        0
280
               0
281
               0
  0
CLASS
  1
SPATIAL_INDEX
  2
AcDbSpatialIndex
  3
AutoCAD 2000
 90
        0
280
               0
281
               0
  0
CLASS
  1
OBJECT_PTR
  2
CAseDLPNTableRecord
  3
"ASE-LPNTableRecord"
 90
        1
280
               0
281
               0
  0
CLASS
  1
LAYOUT
  2
AcDbLayout
  3
AutoCAD 2000
 90
        0
280
               0
281
               0
  0
CLASS
  1
PLOTSETTINGS
  2
AcDbPlotSettings
  3
AutoCAD 2000
 90
        0
280
               0
281
               0
  0
CLASS
  1
ACDBDICTIONARYWDFLT
  2
AcDbDictionaryWithDefault
  3
AutoCAD 2000
 90
        0
280
               0
281
               0
  0
CLASS
  1
ACDBPLACEHOLDER
  2
AcDbPlaceHolder
  3
AutoCAD 2000
 90
        0
280
               0
281
               0
  0
ENDSEC
  0
SECTION
  2
TABLES
  0
TABLE
  2
VPORT
  5
7
100
AcDbSymbolTable
 70
               1
  0
VPORT
  5
15
100
AcDbSymbolTableRecord
100
AcDbViewportTableRecord
  2
*ACTIVE
 70
               0
 10
0.0
 20
0.0
 11
1.0
 21
1.0
 12
0.0
 22
-12.764114914906713
 13
0.0
 23
0.0
 14
1.0
 24
1.0
 15
0.0
 25
0.0
 16
0.0
 26
0.0
 36
1.0
 17
0.0
 27
0.0
 37
0.0
 40
2837.5228151124124
 41
0.688564
 42
50.0
 43
0.0
 44
0.0
 50
0.0
 51
0.0
 71
               0
 72
            2000
 73
               1
 74
               1
 75
               0
 76
               0
 77
               0
 78
               0
281
               0
 65
               0
110
0.0
120
0.0
130
0.0
111
1.0
121
0.0
131
0.0
112
0.0
122
1.0
132
0.0
345
0
346
0
 79
               0
146
0.0
  0
ENDTAB
  0
TABLE
  2
LTYPE
  5
4
100
AcDbSymbolTable
 70
              29
  0
LTYPE
  5
11
100
AcDbSymbolTableRecord
100
AcDbLinetypeTableRecord
  2
ByBlock
 70
              64
  3

 72
              65
 73
               0
 40
0.0
  0
LTYPE
  5
12
100
AcDbSymbolTableRecord
100
AcDbLinetypeTableRecord
  2
ByLayer
 70
              64
  3

 72
              65
 73
               0
 40
0.0
  0
LTYPE
  5
13
100
AcDbSymbolTableRecord
100
AcDbLinetypeTableRecord
  2
Continuous
 70
              64
  3
Solid line
 72
              65
 73
               0
 40
0.0
  0
LTYPE
  5
38
100
AcDbSymbolTableRecord
100
AcDbLinetypeTableRecord
  2
STYLE_01
 70
               0
  3

 72
              65
 73
               4
 40
0.4429133858267716
 49
0.2952755905511811
 74
               0
 49
-0.0492125984251969
 74
               0
 49
0.0492125984251968
 74
               0
 49
-0.0492125984251968
 74
               0
  0
LTYPE
  5
39
100
AcDbSymbolTableRecord
100
AcDbLinetypeTableRecord
  2
STYLE_02
 70
               0
  3

 72
              65
 73
               4
 40
0.5413385826771654
 49
0.3838582677165354
 74
               0
 49
-0.0590551181102363
 74
               0
 49
0.0393700787401575
 74
               0
 49
-0.0590551181102362
 74
               0
  0
LTYPE
  5
3A
100
AcDbSymbolTableRecord
100
AcDbLinetypeTableRecord
  2
STYLE_03
 70
               0
  3

 72
              65
 73
               6
 40
0.639763779527559
 49
0.3838582677165354
 74
               0
 49
-0.0590551181102363
 74
               0
 49
0.0393700787401575
 74
               0
 49
-0.0590551181102362
 74
               0
 49
0.0393700787401575
 74
               0
 49
-0.0590551181102362
 74
               0
  0
LTYPE
  5
3B
100
AcDbSymbolTableRecord
100
AcDbLinetypeTableRecord
  2
STYLE_04
 70
               0
  3

 72
              65
 73
               4
 40
0.0442913385826771
 49
0.0295275590551181
 74
               0
 49
-0.0049212598425197
 74
               0
 49
0.0049212598425197
 74
               0
 49
-0.0049212598425197
 74
               0
  0
LTYPE
  5
3C
100
AcDbSymbolTableRecord
100
AcDbLinetypeTableRecord
  2
STYLE_05
 70
               0
  3

 72
              65
 73
               4
 40
0.21074
 49
0.118103
 74
               0
 49
-0.039368
 74
               0
 49
0.013901
 74
               0
 49
-0.039368
 74
               0
  0
LTYPE
  5
3D
100
AcDbSymbolTableRecord
100
AcDbLinetypeTableRecord
  2
STYLE_06
 70
               0
  3

 72
              65
 73
               6
 40
0.368211
 49
0.118103
 74
               0
 49
-0.039368
 74
               0
 49
0.118103
 74
               0
 49
-0.039368
 74
               0
 49
0.013901
 74
               0
 49
-0.039368
 74
               0
  0
LTYPE
  5
3E
100
AcDbSymbolTableRecord
100
AcDbLinetypeTableRecord
  2
STYLE_07
 70
               0
  3

 72
              65
 73
               6
 40
0.264009
 49
0.118103
 74
               0
 49
-0.039368
 74
               0
 49
0.013901
 74
               0
 49
-0.039368
 74
               0
 49
0.013901
 74
               0
 49
-0.039368
 74
               0
  0
LTYPE
  5
3F
100
AcDbSymbolTableRecord
100
AcDbLinetypeTableRecord
  2
STYLE_08
 70
               0
  3

 72
              65
 73
               4
 40
0.5117809999999999
 49
0.3936769999999998
 74
               0
 49
-0.039368
 74
               0
 49
0.039368
 74
               0
 49
-0.039368
 74
               0
  0
LTYPE
  5
40
100
AcDbSymbolTableRecord
100
AcDbLinetypeTableRecord
  2
STYLE_09
 70
               0
  3

 72
              65
 73
               6
 40
0.5905169999999999
 49
0.3936769999999998
 74
               0
 49
-0.039368
 74
               0
 49
0.039368
 74
               0
 49
-0.039368
 74
               0
 49
0.039368
 74
               0
 49
-0.039368
 74
               0
  0
LTYPE
  5
41
100
AcDbSymbolTableRecord
100
AcDbLinetypeTableRecord
  2
STYLE_10
 70
               0
  3

 72
              65
 73
               4
 40
0.5413385826771654
 49
0.3838582677165354
 74
               0
 49
-0.0590551181102363
 74
               0
 49
0.0393700787401575
 74
               0
 49
-0.0590551181102362
 74
               0
  0
LTYPE
  5
42
100
AcDbSymbolTableRecord
100
AcDbLinetypeTableRecord
  2
STYLE_11
 70
               0
  3

 72
              65
 73
               2
 40
0.2460629921259842
 49
0.187007874015748
 74
               0
 49
-0.0590551181102362
 74
               0
  0
LTYPE
  5
43
100
AcDbSymbolTableRecord
100
AcDbLinetypeTableRecord
  2
STYLE_12
 70
               0
  3

 72
              65
 73
               2
 40
1.9049999999999994
 49
1.2699999999999998
 74
               0
 49
-0.6349999999999998
 74
               0
  0
LTYPE
  5
44
100
AcDbSymbolTableRecord
100
AcDbLinetypeTableRecord
  2
STYLE_13
 70
               0
  3

 72
              65
 73
               6
 40
6.3499999999999996
 49
3.1749999999999998
 74
               0
 49
-0.635
 74
               0
 49
0.635
 74
               0
 49
-0.635
 74
               0
 49
0.635
 74
               0
 49
-0.635
 74
               0
  0
LTYPE
  5
45
100
AcDbSymbolTableRecord
100
AcDbLinetypeTableRecord
  2
STYLE_14
 70
               0
  3

 72
              65
 73
               4
 40
10.16
 49
6.3499999999999996
 74
               0
 49
-1.27
 74
               0
 49
1.27
 74
               0
 49
-1.27
 74
               0
  0
LTYPE
  5
46
100
AcDbSymbolTableRecord
100
AcDbLinetypeTableRecord
  2
STYLE_15
 70
               0
  3

 72
              65
 73
               2
 40
0.6010000000000002
 49
0.6000000000000001
 74
               0
 49
-0.001
 74
               0
  0
LTYPE
  5
47
100
AcDbSymbolTableRecord
100
AcDbLinetypeTableRecord
  2
STYLE_16
 70
               0
  3

 72
              65
 73
               2
 40
0.15
 49
0.1
 74
               0
 49
-0.05
 74
               0
  0
LTYPE
  5
48
100
AcDbSymbolTableRecord
100
AcDbLinetypeTableRecord
  2
STYLE_17
 70
               0
  3

 72
              65
 73
               2
 40
1.5
 49
1.2
 74
               0
 49
-0.3
 74
               0
  0
LTYPE
  5
49
100
AcDbSymbolTableRecord
100
AcDbLinetypeTableRecord
  2
STYLE_18
 70
               0
  3

 72
              65
 73
               4
 40
3.5999999999999996
 49
2.3999999999999999
 74
               0
 49
-0.3000000000000003
 74
               0
 49
0.6
 74
               0
 49
-0.2999999999999997
 74
               0
  0
LTYPE
  5
4A
100
AcDbSymbolTableRecord
100
AcDbLinetypeTableRecord
  2
STYLE_19
 70
               0
  3

 72
              65
 73
               6
 40
4.5
 49
2.3999999999999999
 74
               0
 49
-0.3000000000000003
 74
               0
 49
0.6
 74
               0
 49
-0.2999999999999997
 74
               0
 49
0.6
 74
               0
 49
-0.2999999999999997
 74
               0
  0
LTYPE
  5
4B
100
AcDbSymbolTableRecord
100
AcDbLinetypeTableRecord
  2
STYLE_20
 70
               0
  3

 72
              65
 73
               4
 40
1.7999999999999998
 49
1.2
 74
               0
 49
-0.1500000000000001
 74
               0
 49
0.3
 74
               0
 49
-0.1499999999999999
 74
               0
  0
LTYPE
  5
4C
100
AcDbSymbolTableRecord
100
AcDbLinetypeTableRecord
  2
STYLE_21
 70
               0
  3

 72
              65
 73
               2
 40
0.75
 49
0.6
 74
               0
 49
-0.15
 74
               0
  0
LTYPE
  5
4D
100
AcDbSymbolTableRecord
100
AcDbLinetypeTableRecord
  2
STYLE_22
 70
               0
  3

 72
              65
 73
               2
 40
2.2000199999999999
 49
0.001
 74
               0
 49
-2.19902
 74
               0
  0
LTYPE
  5
4E
100
AcDbSymbolTableRecord
100
AcDbLinetypeTableRecord
  2
STYLE_23
 70
               0
  3

 72
              65
 73
               2
 40
1.25
 49
0.95
 74
               0
 49
-0.3
 74
               0
  0
LTYPE
  5
4F
100
AcDbSymbolTableRecord
100
AcDbLinetypeTableRecord
  2
STYLE_24
 70
               0
  3

 72
              65
 73
               4
 40
2.75
 49
1.9500000000000004
 74
               0
 49
-0.3
 74
               0
 49
0.1999999999999999
 74
               0
 49
-0.3
 74
               0
  0
LTYPE
  5
50
100
AcDbSymbolTableRecord
100
AcDbLinetypeTableRecord
  2
STYLE_25
 70
               0
  3

 72
              65
 73
               2
 40
1.033464566929134
 49
0.6889763779527559
 74
               0
 49
-0.344488188976378
 74
               0
  0
LTYPE
  5
51
100
AcDbSymbolTableRecord
100
AcDbLinetypeTableRecord
  2
STYLE_26
 70
               0
  3

 72
              65
 73
               2
 40
0.7874015748031495
 49
0.3937007874015748
 74
               0
 49
-0.3937007874015748
 74
               0
  0
ENDTAB
  0
TABLE
  2
LAYER
  5
2
100
AcDbSymbolTable
 70
               5
  0
LAYER
  5
14
100
AcDbSymbolTableRecord
100
AcDbLayerTableRecord
  2
0
 70
               0
 62
               7
  6
Continuous
290
               1
370
              -3
390
1D
  0
LAYER
  5
52
100
AcDbSymbolTableRecord
100
AcDbLayerTableRecord
  2
Defpoints
 70
               0
 62
               7
  6
Continuous
290
               0
370
              -3
390
1D
  0
LAYER
  5
53
100
AcDbSymbolTableRecord
100
AcDbLayerTableRecord
  2
template
 70
               0
 62
               7
  6
Continuous
290
               1
370
              -3
390
1D
  0
LAYER
  5
54
100
AcDbSymbolTableRecord
100
AcDbLayerTableRecord
  2
notes
 70
               0
 62
               7
  6
Continuous
290
               1
370
              -3
390
1D
  0
LAYER
  5
55
100
AcDbSymbolTableRecord
100
AcDbLayerTableRecord
  2
FAA70-2217
 70
               0
 62
               7
  6
Continuous
290
               1
370
              -3
390
1D
  0
ENDTAB
  0
TABLE
  2
STYLE
  5
3
100
AcDbSymbolTable
 70
               2
  0
STYLE
  5
17
100
AcDbSymbolTableRecord
100
AcDbTextStyleTableRecord
  2
Standard
 70
               0
 40
0.0
 41
1.0
 50
0.0
 71
               0
 42
0.0
  3
txt
  4
BIGFONT.SHX
  0
STYLE
  5
37
100
AcDbSymbolTableRecord
100
AcDbTextStyleTableRecord
  2
ＭＳ ゴシック
 70
               0
 40
0.0
 41
1.0
 50
0.0
 71
               0
 42
0.0
  3

  4
ＭＳ ゴシック
1001
ACAD
1000
ＭＳ ゴシック
1071
        0
  0
ENDTAB
  0
TABLE
  2
VIEW
  5
5
100
AcDbSymbolTable
 70
               0
  0
ENDTAB
  0
TABLE
  2
UCS
  5
6
100
AcDbSymbolTable
 70
               0
  0
ENDTAB
  0
TABLE
  2
APPID
  5
8
100
AcDbSymbolTable
 70
               1
  0
APPID
  5
16
100
AcDbSymbolTableRecord
100
AcDbRegAppTableRecord
  2
ACAD
 70
               0
  0
ENDTAB
  0
TABLE
  2
DIMSTYLE
  5
9
100
AcDbSymbolTable
 70
               3
100
AcDbDimStyleTable
 71
               0
  0
DIMSTYLE
105
18
100
AcDbSymbolTableRecord
100
AcDbDimStyleTableRecord
  2
Standard
 70
               0
  3

  4

 40
1.0
 41
0.18
 42
0.0625
 43
0.38
 44
0.18
 45
0.0
 46
0.0
 47
0.0
 48
0.0
 71
               0
 72
               0
 73
               1
 74
               1
 75
               0
 76
               0
 77
               0
 78
               0
 79
               0
140
0.18
141
0.09
142
0.0
143
25.399999999999999
144
1.0
145
0.0
146
1.0
147
0.09
148
0.0
170
               0
171
               2
172
               0
173
               0
174
               0
175
               0
176
               0
177
               0
178
               0
179
               0
271
               4
272
               4
273
               2
274
               2
275
               0
276
               0
277
               2
278
              46
279
               0
280
               0
281
               0
282
               0
283
               1
284
               0
285
               0
286
               0
288
               0
289
               3
340
17
341
0
342
0
343
0
344
0
371
              -2
372
              -2
  0
DIMSTYLE
105
5E
100
AcDbSymbolTableRecord
100
AcDbDimStyleTableRecord
  2
tfrom線あり
 70
               0
  3
<>
  4
[]
 40
1.0
 41
3.999755859375
 42
24.999999999999996
 43
0.9999999999999999
 44
0.0
 45
0.0
 46
0.0
 47
0.0
 48
0.0
 71
               0
 72
               0
 73
               0
 74
               0
 75
               0
 76
               0
 77
               1
 78
              11
 79
               0
140
24.432617187500004
141
0.0
142
0.0
143
1.0
144
1.0
145
0.0
146
1.0
147
0.4999999999999999
148
0.0
170
               0
171
               1
172
               0
173
               0
174
               1
175
               0
176
               0
177
               0
178
               0
179
               2
271
               1
272
               1
273
               2
274
               2
275
               0
276
               2
277
               2
278
              46
279
               0
280
               0
281
               0
282
               0
283
               1
284
              11
285
              11
286
              11
288
               0
289
               0
340
37
341
56
342
56
343
0
344
0
371
              -2
372
              -2
  0
DIMSTYLE
105
63
100
AcDbSymbolTableRecord
100
AcDbDimStyleTableRecord
  2
JIS
 70
               0
  3
<>
  4
[]
 40
1.0
 41
31.75
 42
0.0
 43
6.9999999999999396
 44
19.999999999996199
 45
0.0
 46
0.0
 47
0.0
 48
0.0
 71
               0
 72
               0
 73
               0
 74
               0
 75
               0
 76
               0
 77
               1
 78
              11
 79
               0
140
24.432617187500004
141
0.0
142
0.0
143
1.0
144
1.0
145
0.0
146
1.0
147
1.00000000000108
148
0.0
170
               0
171
               1
172
               0
173
               0
174
               1
175
               0
176
               0
177
               0
178
               0
179
               2
271
               1
272
               1
273
               2
274
               2
275
               0
276
               2
277
               2
278
              46
279
               0
280
               0
281
               0
282
               0
283
               1
284
              11
285
              11
286
              11
288
               0
289
               0
340
37
341
5F
342
5F
343
0
344
0
371
              -2
372
              -2
  0
ENDTAB
  0
TABLE
  2
BLOCK_RECORD
  5
1
100
AcDbSymbolTable
 70
              22
  0
BLOCK_RECORD
  5
A
100
AcDbSymbolTableRecord
100
AcDbBlockTableRecord
  2
*MODEL_SPACE
340
20
  0
BLOCK_RECORD
  5
B
100
AcDbSymbolTableRecord
100
AcDbBlockTableRecord
  2
*PAPER_SPACE
340
21
  0
BLOCK_RECORD
  5
56
100
AcDbSymbolTableRecord
100
AcDbBlockTableRecord
  2
_DOT
340
0
  0
BLOCK_RECORD
  5
5F
100
AcDbSymbolTableRecord
100
AcDbBlockTableRecord
  2
VW_FILLEDARROW
340
0
  0
BLOCK_RECORD
  5
23
100
AcDbSymbolTableRecord
100
AcDbBlockTableRecord
  2
グループ
340
0
102
{BLKREFS
331
15E
102
}
  0
BLOCK_RECORD
  5
24
100
AcDbSymbolTableRecord
100
AcDbBlockTableRecord
  2
*D3
340
0
  0
BLOCK_RECORD
  5
25
100
AcDbSymbolTableRecord
100
AcDbBlockTableRecord
  2
*D4
340
0
  0
BLOCK_RECORD
  5
26
100
AcDbSymbolTableRecord
100
AcDbBlockTableRecord
  2
*D5
340
0
  0
BLOCK_RECORD
  5
27
100
AcDbSymbolTableRecord
100
AcDbBlockTableRecord
  2
*D6
340
0
  0
BLOCK_RECORD
  5
28
100
AcDbSymbolTableRecord
100
AcDbBlockTableRecord
  2
*D7
340
0
  0
BLOCK_RECORD
  5
29
100
AcDbSymbolTableRecord
100
AcDbBlockTableRecord
  2
*D8
340
0
  0
BLOCK_RECORD
  5
2A
100
AcDbSymbolTableRecord
100
AcDbBlockTableRecord
  2
*D9
340
0
  0
BLOCK_RECORD
  5
2B
100
AcDbSymbolTableRecord
100
AcDbBlockTableRecord
  2
*D10
340
0
  0
BLOCK_RECORD
  5
2C
100
AcDbSymbolTableRecord
100
AcDbBlockTableRecord
  2
*D11
340
0
  0
BLOCK_RECORD
  5
2D
100
AcDbSymbolTableRecord
100
AcDbBlockTableRecord
  2
*D12
340
0
  0
BLOCK_RECORD
  5
2E
100
AcDbSymbolTableRecord
100
AcDbBlockTableRecord
  2
*D13
340
0
  0
BLOCK_RECORD
  5
2F
100
AcDbSymbolTableRecord
100
AcDbBlockTableRecord
  2
*D14
340
0
  0
BLOCK_RECORD
  5
30
100
AcDbSymbolTableRecord
100
AcDbBlockTableRecord
  2
*D15
340
0
  0
BLOCK_RECORD
  5
31
100
AcDbSymbolTableRecord
100
AcDbBlockTableRecord
  2
*D16
340
0
  0
BLOCK_RECORD
  5
32
100
AcDbSymbolTableRecord
100
AcDbBlockTableRecord
  2
*D17
340
0
  0
BLOCK_RECORD
  5
33
100
AcDbSymbolTableRecord
100
AcDbBlockTableRecord
  2
*D18
340
0
  0
BLOCK_RECORD
  5
34
100
AcDbSymbolTableRecord
100
AcDbBlockTableRecord
  2
*D19
340
0
  0
BLOCK_RECORD
  5
35
100
AcDbSymbolTableRecord
100
AcDbBlockTableRecord
  2
*D20
340
0
  0
BLOCK_RECORD
  5
36
100
AcDbSymbolTableRecord
100
AcDbBlockTableRecord
  2
グループ-1
340
0
102
{BLKREFS
331
1E8
102
}
  0
ENDTAB
  0
ENDSEC
  0
SECTION
  2
BLOCKS
  0
BLOCK
  5
D
100
AcDbEntity
  8
0
390
0
100
AcDbBlockBegin
  2
*MODEL_SPACE
 70
               0
 10
0.0
 20
0.0
 30
0.0
  3
*MODEL_SPACE
  1

  0
ENDBLK
  5
E
100
AcDbEntity
  8
0
390
0
100
AcDbBlockEnd
  0
BLOCK
  5
F
100
AcDbEntity
 67
               1
  8
0
390
0
100
AcDbBlockBegin
  2
*PAPER_SPACE
 70
               0
 10
0.0
 20
0.0
 30
0.0
  3
*PAPER_SPACE
  1

  0
ENDBLK
  5
10
100
AcDbEntity
 67
               1
  8
0
390
0
100
AcDbBlockEnd
  0
BLOCK
  5
57
100
AcDbEntity
  8
0
390
0
100
AcDbBlockBegin
  2
_DOT
 70
               0
 10
0.0
 20
0.0
 30
0.0
  3
_DOT
  1

  0
POLYLINE
  5
58
100
AcDbEntity
  8
0
370
              -2
390
0
  6
ByBlock
 62
               0
100
AcDb2dPolyline
 66
               1
 10
0.0
 20
0.0
 30
0.0
 70
               1
 40
0.5
 41
0.5
  0
VERTEX
  5
59
100
AcDbEntity
  8
0
370
              -2
390
0
  6
ByBlock
 62
               0
100
AcDbVertex
100
AcDb2dVertex
 10
-0.25
 20
0.0
 30
0.0
 42
1.0
  0
VERTEX
  5
5A
100
AcDbEntity
  8
0
370
              -2
390
0
  6
ByBlock
 62
               0
100
AcDbVertex
100
AcDb2dVertex
 10
0.25
 20
0.0
 30
0.0
 42
1.0
  0
SEQEND
  5
5B
100
AcDbEntity
  8
0
390
0
  0
LINE
  5
5C
100
AcDbEntity
  8
0
370
              -2
390
0
  6
ByBlock
 62
               0
100
AcDbLine
 10
-0.5
 20
0.0
 30
0.0
 11
-1.0
 21
0.0
 31
0.0
  0
ENDBLK
  5
5D
100
AcDbEntity
  8
0
390
0
100
AcDbBlockEnd
  0
BLOCK
  5
60
100
AcDbEntity
  8
0
370
              -2
390
0
  6
ByBlock
 62
               0
100
AcDbBlockBegin
  2
VW_FILLEDARROW
 70
               0
 10
0.0
 20
0.0
 30
0.0
  3
VW_FILLEDARROW
  1

  0
SOLID
  5
61
100
AcDbEntity
  8
0
370
              -2
390
0
 62
               0
100
AcDbTrace
 10
0.0
 20
0.0
 30
0.0
 11
-0.9921874999999999
 21
-0.2658558393652545
 31
0.0
 12
-0.9921874999999999
 22
0.2658558393652548
 32
0.0
 13
-0.9921874999999999
 23
0.2658558393652548
 33
0.0
  0
ENDBLK
  5
62
100
AcDbEntity
  8
0
390
0
100
AcDbBlockEnd
  0
BLOCK
  5
64
100
AcDbEntity
  8
template
390
0
100
AcDbBlockBegin
  2
グループ
 70
               0
 10
0.0
 20
0.0
 30
0.0
  3
グループ
  1

  0
LWPOLYLINE
  5
65
100
AcDbEntity
  8
0
370
              15
390
0
  6
Continuous
 62
               7
100
AcDbPolyline
 90
        8
 70
             129
 10
887.42850780307481
 20
-1131.0508267094497
 10
887.42850780307481
 20
-1137.0482154030256
 10
877.92731088507151
 20
-1137.0482154030256
 10
877.92731088507151
 20
-1161.4991786665344
 10
869.57193362328871
 20
-1161.4991786665344
 10
869.57193362328871
 20
-1137.0482154030256
 10
860.23897667697929
 20
-1137.0482154030256
 10
860.23897667697929
 20
-1131.0508267094497
  0
LWPOLYLINE
  5
66
100
AcDbEntity
  8
0
370
              15
390
0
  6
Continuous
 62
               7
100
AcDbPolyline
 90
      101
 70
             128
 10
900.15679963363175
 20
-1131.7790752023861
 10
900.17214966241681
 20
-1131.774714445701
 42
-0.0222221607812452
 10
900.46215423908779
 20
-1131.7060899804565
 10
900.47794800307383
 20
-1131.7030865573608
 42
-0.0146883565588939
 10
900.74065070830557
 20
-1131.6610833704101
 42
-0.0127458844187221
 10
901.00528967545358
 20
-1131.633546402338
 10
901.06774475377142
 20
-1131.6286529797494
 42
-0.0198099018564252
 10
901.45859386324787
 20
-1131.6135678223527
 10
901.51040533269202
 20
-1131.6136215980177
 42
-0.0147617382763275
 10
902.00502879366297
 20
-1131.6287416232626
 10
902.07772024854614
 20
-1131.6331142301508
 42
-0.0162624549002042
 10
902.46787387800578
 20
-1131.6693471054227
 10
902.58940626926312
 20
-1131.6846336644189
 42
-0.0080020874663803
 10
902.73498530035658
 20
-1131.7053165116877
 10
902.77330477094858
 20
-1131.7113877894983
 42
-0.0053821929678317
 10
902.84178887626638
 20
-1131.7229953133203
 10
902.11538317706777
 20
-1133.9039237690342
 42
0.0108667757398726
 10
902.04806610693811
 20
-1133.8907366538147
 10
902.01059808374748
 20
-1133.8842389112199
 42
0.0170663203307674
 10
901.8673812968334
 20
-1133.8644093139283
 10
901.79950596414892
 20
-1133.8573621433407
 42
0.0220162375277008
 10
901.51912655629246
 20
-1133.8406797825705
 10
901.44127098924127
 20
-1133.839480415304
 42
0.0282606915787672
 10
901.10563466566362
 20
-1133.8532836922732
 10
901.06172139189073
 20
-1133.857583682277
 42
0.0169677213689588
 10
900.8157968969324
 20
-1133.8901207318286
 42
0.0190576269861447
 10
900.57288893435577
 20
-1133.9402676039342
 10
900.56662974624146
 20
-1133.9418105780444
 42
0.0213685642848026
 10
900.31624526176222
 20
-1134.0150108631497
 10
900.3107553668475
 20
-1134.0168738592083
 42
0.0237595297595475
 10
900.05726048195015
 20
-1134.1165583811032
 10
900.05215840791914
 20
-1134.1188501565821
 42
0.0261857468820483
 10
899.79998763169021
 20
-1134.2483864939561
 10
899.78956144260201
 20
-1134.2544519684252
 42
0.0272553062022719
 10
899.55313166736369
 20
-1134.4098241743691
 10
899.51836865385451
 20
-1134.4354853224611
 42
0.03259968931689
 10
899.36821331020269
 20
-1134.5622331954328
 10
899.34450388107882
 20
-1134.5850512239463
 42
0.0138050960634597
 10
899.25262072486953
 20
-1134.6785008854972
 42
0.0125280103795566
 10
899.16577819203962
 20
-1134.776664212093
 10
899.14209774712765
 20
-1134.8048227102847
 42
0.0205218024743723
 10
899.01699767161176
 20
-1134.966616024517
 10
898.99453133112684
 20
-1134.9982757543407
 42
0.0163110129583144
 10
898.8388209518755
 20
-1135.2336061894107
 10
898.83609705582455
 20
-1135.2380299513961
 42
0.0131897341894377
 10
898.68929653492035
 20
-1135.4911620437576
 10
898.68759643955218
 20
-1135.4942802828964
 42
0.0107895576065353
 10
898.54981973734141
 20
-1135.7604954925314
 10
898.5490868478164
 20
-1135.761989725178
 42
0.0091371507219953
 10
898.42060689916912
 20
-1136.0365149229324
 10
898.3908612677576
 20
-1136.1032214300963
 42
0.0135418326351088
 10
898.21914732868436
 20
-1136.5181592153692
 10
898.1855425202524
 20
-1136.6060253576445
 42
0.0092834542408008
 10
898.01431346033087
 20
-1137.0799238559516
 10
897.98869633261779
 20
-1137.1551649257315
 42
0.005426104357676
 10
897.88105818432018
 20
-1137.4829288988103
 10
897.86353219812088
 20
-1137.5383170611096
 42
0.0008225090824692
 10
897.79486214631277
 20
-1137.7565858191895
 10
896.8101730143793
 20
-1140.7814771124461
 10
900.04279685445317
 20
-1140.7814771124461
 10
899.53860442459973
 20
-1142.6859554107984
 10
896.28254814261641
 20
-1142.6859554107984
 10
890.45339911026258
 20
-1161.4991784768033
 10
888.62830149995227
 20
-1161.4991784768033
 10
894.4629795354532
 20
-1142.6859554107984
 10
892.05786316641286
 20
-1142.6859554107984
 10
892.5620555962663
 20
-1140.7814771124461
 10
894.99060440721632
 20
-1140.7814771124461
 10
895.85075932540497
 20
-1138.1450641117472
 42
-0.0005863560658428
 10
895.88749400356585
 20
-1138.0282376915907
 10
895.96358183726886
 20
-1137.78724539207
 42
-0.0087522378926788
 10
896.16304998072587
 20
-1137.1919693049231
 10
896.25531425613769
 20
-1136.9318291364145
 42
-0.0077400953831728
 10
896.51324791527031
 20
-1136.2388244588624
 10
896.52901288685291
 20
-1136.1983935754668
 42
-0.0082369946330585
 10
896.77609735746114
 20
-1135.5943145092806
 42
-0.0085725238367371
 10
897.04334345346331
 20
-1134.9988884699949
 10
897.1449730544731
 20
-1134.7824673680047
 42
-0.0168109410594301
 10
897.43191748320146
 20
-1134.2212598419039
 10
897.55776087362358
 20
-1133.9942958089728
 42
-0.0007817726869565
 10
897.61204522371713
 20
-1133.8967515638756
 10
897.6121735297304
 20
-1133.8965218551464
 42
-0.003662614216385
 10
897.6670613937556
 20
-1133.7999239751705
 42
-0.008022115068256
 10
897.72418564915733
 20
-1133.7046447404257
 10
897.75488560052349
 20
-1133.6552537912953
 42
-0.0202139325582883
 10
897.88254134032798
 20
-1133.4672721906172
 10
897.93660880551784
 20
-1133.3941933263732
 42
-0.0249323791800498
 10
898.19577159923779
 20
-1133.0781480842181
 10
898.219911413364
 20
-1133.0515338113064
 42
-0.0242132121540895
 10
898.55959215490702
 20
-1132.7116503251016
 10
898.60750372765608
 20
-1132.6681411889167
 42
-0.0251017527857077
 10
898.8914854282973
 20
-1132.4351484431513
 10
898.89293090511035
 20
-1132.434079185573
 42
-0.0130868069035934
 10
899.19119155506837
 20
-1132.22529871703
 10
899.19275337421232
 20
-1132.2242652767543
 42
-0.0290329526388077
 10
899.50386451560439
 20
-1132.0434397751255
 10
899.53371007759426
 20
-1132.0283373922841
 42
-0.0160250190047949
 10
899.79961449135521
 20
-1131.9043212820729
 42
-0.0267600374780309
 10
900.07489056882525
 20
-1131.8035729615237
 10
900.10162648834478
 20
-1131.7953804026986
 42
-0.0049981587669928
 10
900.15679963363175
 20
-1131.7790752023861
 42
-0.0049981587669928
  0
LWPOLYLINE
  5
67
100
AcDbEntity
  8
0
370
              15
390
0
  6
Continuous
 62
               7
100
AcDbPolyline
 90
      118
 70
             128
 10
919.97116719807866
 20
-1140.8554604402734
 10
921.84628912257813
 20
-1140.8554604402734
 10
921.00825021697824
 20
-1143.5370269666735
 42
-0.0010587229260512
 10
921.0397060324857
 20
-1143.5001224333932
 10
921.09790012318217
 20
-1143.4321401771424
 42
-0.0071874740413046
 10
921.24827534127417
 20
-1143.2614994851201
 10
921.38999811454244
 20
-1143.1052633438003
 42
-0.0148118053513779
 10
921.84012740725132
 20
-1142.637649497791
 10
921.92734974215728
 20
-1142.5522521769333
 42
-0.0086273358692718
 10
922.26289854316542
 20
-1142.2348765429172
 10
922.30673225939165
 20
-1142.1948268985839
 42
-0.0103138323115429
 10
922.56475596162477
 20
-1141.9686637612458
 10
922.61053036796045
 20
-1141.9301817139783
 42
-0.0060206748564274
 10
922.78337843206407
 20
-1141.7883870632313
 10
922.78540956295512
 20
-1141.7867613575959
 42
-0.0067069027290416
 10
922.95770237761258
 20
-1141.6526107238051
 10
922.96025114354586
 20
-1141.6506805539243
 42
-0.0076184352049488
 10
923.13115640940987
 20
-1141.525305678686
 42
-0.0089652861668072
 10
923.30611737214338
 20
-1141.4056724183538
 10
923.34246909228841
 20
-1141.3817612048708
 42
-0.0156916245939222
 10
923.5384285894495
 20
-1141.2614987183961
 42
-0.0023299011069693
 10
923.73869063340589
 20
-1141.1483207788681
 10
923.75407476580915
 20
-1141.1397207837904
 42
-0.0107669341481016
 10
923.98831159091708
 20
-1141.0153206504374
 10
924.0105763919853
 20
-1141.0041039004909
 42
-0.0078058045897393
 10
924.29416650993721
 20
-1140.8667424448529
 10
924.30407359764718
 20
-1140.862133316984
 42
-0.0181829330470019
 10
924.61438300226393
 20
-1140.7312695758878
 10
924.66843844482628
 20
-1140.710754455946
 42
-0.0208411536031712
 10
925.01752341227984
 20
-1140.5946639934518
 10
925.03187951240784
 20
-1140.5905455484981
 42
-0.0222799817138781
 10
925.3605993063245
 20
-1140.511903982358
 10
925.369488269567
 20
-1140.510191971772
 42
-0.0215509523880826
 10
925.68595923784142
 20
-1140.4632762832384
 10
925.72844119889055
 20
-1140.4588387564477
 42
-0.0182545924872384
 10
925.96254997819551
 20
-1140.4429949310568
 10
926.00195099454572
 20
-1140.4417703859774
 42
-0.0072962856529064
 10
926.15787387423256
 20
-1140.4392010574554
 10
926.18697354480855
 20
-1140.4391462220517
 42
-0.0059227516318816
 10
926.2847230439495
 20
-1140.4401199338422
 10
926.31396526146034
 20
-1140.4407577004463
 42
-0.0011833111901795
 10
926.35321654515383
 20
-1140.4417067047555
 10
925.55782994954666
 20
-1142.9804406498545
 42
0.0143932051600522
 10
925.53142856719546
 20
-1142.9702416798091
 10
925.52415659477879
 20
-1142.9676704609519
 42
0.0234388603528566
 10
925.48232572884706
 20
-1142.9550512252367
 10
925.47364406593397
 20
-1142.9528702632315
 42
0.0199162742981718
 10
925.41335523185228
 20
-1142.9402535278959
 10
925.39254129404776
 20
-1142.9367563284679
 42
0.0293643550666415
 10
925.28946643528752
 20
-1142.9256062828147
 10
925.26478125456833
 20
-1142.9243946657962
 42
0.0214606686863766
 10
925.11164033861519
 20
-1142.9234561053786
 10
925.10226842779787
 20
-1142.9238010169229
 42
0.0167564054174138
 10
924.93074823668678
 20
-1142.9358780592911
 10
924.92228844393048
 20
-1142.9367593997181
 42
0.0137677553240781
 10
924.73493513066455
 20
-1142.9615087082618
 10
924.72758339115785
 20
-1142.9626866282297
 42
0.0118497261482271
 10
924.52708562705527
 20
-1142.9997039784189
 10
924.52093561980928
 20
-1143.0009908411389
 42
0.0106421143889724
 10
924.31005473252526
 20
-1143.0498232167135
 10
924.30514592413522
 20
-1143.0510705593988
 42
0.0099746379706321
 10
924.08668745497073
 20
-1143.1112450877142
 10
924.02513941480242
 20
-1143.1295269663442
 42
0.0191613675859732
 10
923.68915495228691
 20
-1143.2435043466312
 10
923.60109517953742
 20
-1143.2771912569567
 42
0.0205274080144368
 10
923.21578840764073
 20
-1143.4430196647818
 10
923.15813912565829
 20
-1143.4706876293544
 42
0.0181256912196064
 10
922.89986218499178
 20
-1143.6063714483321
 10
922.84690680168444
 20
-1143.6366890615429
 42
0.0140709242402873
 10
922.7019518670495
 20
-1143.7251837349811
 10
922.67570299843271
 20
-1143.7422405536954
 42
0.0086667884395987
 10
922.58677683688848
 20
-1143.8022432215794
 42
0.0036408192034625
 10
922.49934359883844
 20
-1143.8644240793838
 10
922.46411672438649
 20
-1143.8898650252845
 42
0.0052260781272892
 10
922.30788802701056
 20
-1144.0051974119074
 10
922.29168117073573
 20
-1144.017425522537
 42
0.0050024435898219
 10
922.10567782767976
 20
-1144.160708090797
 10
922.09035967116176
 20
-1144.172754113245
 42
0.013613871027649
 10
921.87991840284246
 20
-1144.3477206181531
 10
921.84625052704291
 20
-1144.3772995908726
 42
0.017281518691684
 10
921.58184698537809
 20
-1144.6262962634983
 10
921.57928463953772
 20
-1144.6288820806431
 42
0.0189403857990072
 10
921.32870284096271
 20
-1144.9016873454425
 10
921.29607134741798
 20
-1144.9400312769501
 42
0.0185044199512008
 10
921.10411490844263
 20
-1145.1832798580672
 42
0.0088565243898951
 10
920.9256548018152
 20
-1145.436796278216
 10
920.91647682216569
 20
-1145.4503376579773
 42
0.0157195347228722
 10
920.73325621583217
 20
-1145.7398598672919
 10
920.68717327389618
 20
-1145.8180120643217
 42
0.009545187978644
 10
920.52208772376309
 20
-1146.1106067066703
 10
920.51093980482949
 20
-1146.1312773788097
 42
0.0100351706264769
 10
920.3788960556742
 20
-1146.3883329392932
 42
0.0086935915418291
 10
920.25656490388019
 20
-1146.6501660846973
 10
920.25324416246565
 20
-1146.6576084076694
 42
0.0072580174867635
 10
920.13289771051802
 20
-1146.9382003992589
 10
920.1296360772144
 20
-1146.9461204252702
 42
0.0060005122617259
 10
920.01043540886576
 20
-1147.2457300958911
 10
920.00722443053007
 20
-1147.2540916237804
 42
0.0049017786975175
 10
919.88832427167199
 20
-1147.5730206043861
 10
919.88515846528219
 20
-1147.5817735416149
 42
0.0039415167601086
 10
919.7657221872247
 20
-1147.9203156040307
 10
919.76259108457339
 20
-1147.9294188049043
 42
0.003103583876767
 10
919.64178629888283
 20
-1148.2878586666702
 10
919.63867625434989
 20
-1148.2972792880528
 42
0.0025070747154479
 10
919.51577490303816
 20
-1148.6759265049852
 10
919.47848100660917
 20
-1148.7928181702496
 42
0.0029081910283976
 10
919.28646270880085
 20
-1149.4069818285327
 10
919.24565954028128
 20
-1149.5402050708171
 42
0.0009266453733913
 10
918.97724216592735
 20
-1150.4224295308704
 10
918.95635469334707
 20
-1150.4915414099069
 42
-0.0005809993666308
 10
918.67901801273479
 20
-1151.4053495166154
 10
918.61273621446242
 20
-1151.6228344487733
 42
-0.001201870816757
 10
918.46575190503268
 20
-1152.1009971132958
 10
918.4134320534522
 20
-1152.2697562542091
 42
-0.0002691059607682
 10
918.36986257229853
 20
-1152.4100238745036
 10
915.53690667400929
 20
-1161.4991784768033
 10
913.71891778203076
 20
-1161.4991784768033
 10
919.97116719807866
 20
-1140.8554604402734
  0
SPLINE
  5
68
100
AcDbEntity
  8
0
370
              15
390
0
  6
Continuous
 62
               7
100
AcDbSpline
210
0.0
220
0.0
230
1.0
 70
              13
 71
               2
 72
             782
 73
             779
 74
               0
 42
0.000001
 43
0.000001
 40
0.0
 40
0.0
 40
0.0
 40
1.0
 40
1.0
 40
2.0
 40
2.0
 40
3.0
 40
3.0
 40
4.0
 40
4.0
 40
5.0
 40
5.0
 40
6.0
 40
6.0
 40
7.0
 40
7.0
 40
8.0
 40
8.0
 40
9.0
 40
9.0
 40
10.0
 40
10.0
 40
11.0
 40
11.0
 40
12.0
 40
12.0
 40
13.0
 40
13.0
 40
14.0
 40
14.0
 40
15.0
 40
15.0
 40
16.0
 40
16.0
 40
17.0
 40
17.0
 40
18.0
 40
18.0
 40
19.0
 40
19.0
 40
20.0
 40
20.0
 40
21.0
 40
21.0
 40
22.0
 40
22.0
 40
23.0
 40
23.0
 40
24.0
 40
24.0
 40
25.0
 40
25.0
 40
26.0
 40
26.0
 40
27.0
 40
27.0
 40
28.0
 40
28.0
 40
29.0
 40
29.0
 40
30.0
 40
30.0
 40
31.0
 40
31.0
 40
32.0
 40
32.0
 40
33.0
 40
33.0
 40
34.0
 40
34.0
 40
35.0
 40
35.0
 40
36.0
 40
36.0
 40
37.0
 40
37.0
 40
38.0
 40
38.0
 40
39.0
 40
39.0
 40
40.0
 40
40.0
 40
41.0
 40
41.0
 40
42.0
 40
42.0
 40
43.0
 40
43.0
 40
44.0
 40
44.0
 40
45.0
 40
45.0
 40
46.0
 40
46.0
 40
47.0
 40
47.0
 40
48.0
 40
48.0
 40
49.0
 40
49.0
 40
50.0
 40
50.0
 40
51.0
 40
51.0
 40
52.0
 40
52.0
 40
53.0
 40
53.0
 40
54.0
 40
54.0
 40
55.0
 40
55.0
 40
56.0
 40
56.0
 40
57.0
 40
57.0
 40
58.0
 40
58.0
 40
59.0
 40
59.0
 40
60.0
 40
60.0
 40
61.0
 40
61.0
 40
62.0
 40
62.0
 40
63.0
 40
63.0
 40
64.0
 40
64.0
 40
65.0
 40
65.0
 40
66.0
 40
66.0
 40
67.0
 40
67.0
 40
68.0
 40
68.0
 40
69.0
 40
69.0
 40
70.0
 40
70.0
 40
71.0
 40
71.0
 40
72.0
 40
72.0
 40
73.0
 40
73.0
 40
74.0
 40
74.0
 40
75.0
 40
75.0
 40
76.0
 40
76.0
 40
77.0
 40
77.0
 40
78.0
 40
78.0
 40
79.0
 40
79.0
 40
80.0
 40
80.0
 40
81.0
 40
81.0
 40
82.0
 40
82.0
 40
83.0
 40
83.0
 40
84.0
 40
84.0
 40
85.0
 40
85.0
 40
86.0
 40
86.0
 40
87.0
 40
87.0
 40
88.0
 40
88.0
 40
89.0
 40
89.0
 40
90.0
 40
90.0
 40
91.0
 40
91.0
 40
92.0
 40
92.0
 40
93.0
 40
93.0
 40
94.0
 40
94.0
 40
95.0
 40
95.0
 40
96.0
 40
96.0
 40
97.0
 40
97.0
 40
98.0
 40
98.0
 40
99.0
 40
99.0
 40
100.0
 40
100.0
 40
101.0
 40
101.0
 40
102.0
 40
102.0
 40
103.0
 40
103.0
 40
104.0
 40
104.0
 40
105.0
 40
105.0
 40
106.0
 40
106.0
 40
107.0
 40
107.0
 40
108.0
 40
108.0
 40
109.0
 40
109.0
 40
110.0
 40
110.0
 40
111.0
 40
111.0
 40
112.0
 40
112.0
 40
113.0
 40
113.0
 40
114.0
 40
114.0
 40
115.0
 40
115.0
 40
116.0
 40
116.0
 40
117.0
 40
117.0
 40
118.0
 40
118.0
 40
119.0
 40
119.0
 40
120.0
 40
120.0
 40
121.0
 40
121.0
 40
122.0
 40
122.0
 40
123.0
 40
123.0
 40
124.0
 40
124.0
 40
125.0
 40
125.0
 40
126.0
 40
126.0
 40
127.0
 40
127.0
 40
128.0
 40
128.0
 40
129.0
 40
129.0
 40
130.0
 40
130.0
 40
131.0
 40
131.0
 40
132.0
 40
132.0
 40
133.0
 40
133.0
 40
134.0
 40
134.0
 40
135.0
 40
135.0
 40
136.0
 40
136.0
 40
137.0
 40
137.0
 40
138.0
 40
138.0
 40
139.0
 40
139.0
 40
140.0
 40
140.0
 40
141.0
 40
141.0
 40
142.0
 40
142.0
 40
143.0
 40
143.0
 40
144.0
 40
144.0
 40
145.0
 40
145.0
 40
146.0
 40
146.0
 40
147.0
 40
147.0
 40
148.0
 40
148.0
 40
149.0
 40
149.0
 40
150.0
 40
150.0
 40
151.0
 40
151.0
 40
152.0
 40
152.0
 40
153.0
 40
153.0
 40
154.0
 40
154.0
 40
155.0
 40
155.0
 40
156.0
 40
156.0
 40
157.0
 40
157.0
 40
158.0
 40
158.0
 40
159.0
 40
159.0
 40
160.0
 40
160.0
 40
161.0
 40
161.0
 40
162.0
 40
162.0
 40
163.0
 40
163.0
 40
164.0
 40
164.0
 40
165.0
 40
165.0
 40
166.0
 40
166.0
 40
167.0
 40
167.0
 40
168.0
 40
168.0
 40
169.0
 40
169.0
 40
170.0
 40
170.0
 40
171.0
 40
171.0
 40
172.0
 40
172.0
 40
173.0
 40
173.0
 40
174.0
 40
174.0
 40
175.0
 40
175.0
 40
176.0
 40
176.0
 40
177.0
 40
177.0
 40
178.0
 40
178.0
 40
179.0
 40
179.0
 40
180.0
 40
180.0
 40
181.0
 40
181.0
 40
182.0
 40
182.0
 40
183.0
 40
183.0
 40
184.0
 40
184.0
 40
185.0
 40
185.0
 40
186.0
 40
186.0
 40
187.0
 40
187.0
 40
188.0
 40
188.0
 40
189.0
 40
189.0
 40
190.0
 40
190.0
 40
191.0
 40
191.0
 40
192.0
 40
192.0
 40
193.0
 40
193.0
 40
194.0
 40
194.0
 40
195.0
 40
195.0
 40
196.0
 40
196.0
 40
197.0
 40
197.0
 40
198.0
 40
198.0
 40
199.0
 40
199.0
 40
200.0
 40
200.0
 40
201.0
 40
201.0
 40
202.0
 40
202.0
 40
203.0
 40
203.0
 40
204.0
 40
204.0
 40
205.0
 40
205.0
 40
206.0
 40
206.0
 40
207.0
 40
207.0
 40
208.0
 40
208.0
 40
209.0
 40
209.0
 40
210.0
 40
210.0
 40
211.0
 40
211.0
 40
212.0
 40
212.0
 40
213.0
 40
213.0
 40
214.0
 40
214.0
 40
215.0
 40
215.0
 40
216.0
 40
216.0
 40
217.0
 40
217.0
 40
218.0
 40
218.0
 40
219.0
 40
219.0
 40
220.0
 40
220.0
 40
221.0
 40
221.0
 40
222.0
 40
222.0
 40
223.0
 40
223.0
 40
224.0
 40
224.0
 40
225.0
 40
225.0
 40
226.0
 40
226.0
 40
227.0
 40
227.0
 40
228.0
 40
228.0
 40
229.0
 40
229.0
 40
230.0
 40
230.0
 40
231.0
 40
231.0
 40
232.0
 40
232.0
 40
233.0
 40
233.0
 40
234.0
 40
234.0
 40
235.0
 40
235.0
 40
236.0
 40
236.0
 40
237.0
 40
237.0
 40
238.0
 40
238.0
 40
239.0
 40
239.0
 40
240.0
 40
240.0
 40
241.0
 40
241.0
 40
242.0
 40
242.0
 40
243.0
 40
243.0
 40
244.0
 40
244.0
 40
245.0
 40
245.0
 40
246.0
 40
246.0
 40
247.0
 40
247.0
 40
248.0
 40
248.0
 40
249.0
 40
249.0
 40
250.0
 40
250.0
 40
251.0
 40
251.0
 40
252.0
 40
252.0
 40
253.0
 40
253.0
 40
254.0
 40
254.0
 40
255.0
 40
255.0
 40
256.0
 40
256.0
 40
257.0
 40
257.0
 40
258.0
 40
258.0
 40
259.0
 40
259.0
 40
260.0
 40
260.0
 40
261.0
 40
261.0
 40
262.0
 40
262.0
 40
263.0
 40
263.0
 40
264.0
 40
264.0
 40
265.0
 40
265.0
 40
266.0
 40
266.0
 40
267.0
 40
267.0
 40
268.0
 40
268.0
 40
269.0
 40
269.0
 40
270.0
 40
270.0
 40
271.0
 40
271.0
 40
272.0
 40
272.0
 40
273.0
 40
273.0
 40
274.0
 40
274.0
 40
275.0
 40
275.0
 40
276.0
 40
276.0
 40
277.0
 40
277.0
 40
278.0
 40
278.0
 40
279.0
 40
279.0
 40
280.0
 40
280.0
 40
281.0
 40
281.0
 40
282.0
 40
282.0
 40
283.0
 40
283.0
 40
284.0
 40
284.0
 40
285.0
 40
285.0
 40
286.0
 40
286.0
 40
287.0
 40
287.0
 40
288.0
 40
288.0
 40
289.0
 40
289.0
 40
290.0
 40
290.0
 40
291.0
 40
291.0
 40
292.0
 40
292.0
 40
293.0
 40
293.0
 40
294.0
 40
294.0
 40
295.0
 40
295.0
 40
296.0
 40
296.0
 40
297.0
 40
297.0
 40
298.0
 40
298.0
 40
299.0
 40
299.0
 40
300.0
 40
300.0
 40
301.0
 40
301.0
 40
302.0
 40
302.0
 40
303.0
 40
303.0
 40
304.0
 40
304.0
 40
305.0
 40
305.0
 40
306.0
 40
306.0
 40
307.0
 40
307.0
 40
308.0
 40
308.0
 40
309.0
 40
309.0
 40
310.0
 40
310.0
 40
311.0
 40
311.0
 40
312.0
 40
312.0
 40
313.0
 40
313.0
 40
314.0
 40
314.0
 40
315.0
 40
315.0
 40
316.0
 40
316.0
 40
317.0
 40
317.0
 40
318.0
 40
318.0
 40
319.0
 40
319.0
 40
320.0
 40
320.0
 40
321.0
 40
321.0
 40
322.0
 40
322.0
 40
323.0
 40
323.0
 40
324.0
 40
324.0
 40
325.0
 40
325.0
 40
326.0
 40
326.0
 40
327.0
 40
327.0
 40
328.0
 40
328.0
 40
329.0
 40
329.0
 40
330.0
 40
330.0
 40
331.0
 40
331.0
 40
332.0
 40
332.0
 40
333.0
 40
333.0
 40
334.0
 40
334.0
 40
335.0
 40
335.0
 40
336.0
 40
336.0
 40
337.0
 40
337.0
 40
338.0
 40
338.0
 40
339.0
 40
339.0
 40
340.0
 40
340.0
 40
341.0
 40
341.0
 40
342.0
 40
342.0
 40
343.0
 40
343.0
 40
344.0
 40
344.0
 40
345.0
 40
345.0
 40
346.0
 40
346.0
 40
347.0
 40
347.0
 40
348.0
 40
348.0
 40
349.0
 40
349.0
 40
350.0
 40
350.0
 40
351.0
 40
351.0
 40
352.0
 40
352.0
 40
353.0
 40
353.0
 40
354.0
 40
354.0
 40
355.0
 40
355.0
 40
356.0
 40
356.0
 40
357.0
 40
357.0
 40
358.0
 40
358.0
 40
359.0
 40
359.0
 40
360.0
 40
360.0
 40
361.0
 40
361.0
 40
362.0
 40
362.0
 40
363.0
 40
363.0
 40
364.0
 40
364.0
 40
365.0
 40
365.0
 40
366.0
 40
366.0
 40
367.0
 40
367.0
 40
368.0
 40
368.0
 40
369.0
 40
369.0
 40
370.0
 40
370.0
 40
371.0
 40
371.0
 40
372.0
 40
372.0
 40
373.0
 40
373.0
 40
374.0
 40
374.0
 40
375.0
 40
375.0
 40
376.0
 40
376.0
 40
377.0
 40
377.0
 40
378.0
 40
378.0
 40
379.0
 40
379.0
 40
380.0
 40
380.0
 40
381.0
 40
381.0
 40
382.0
 40
382.0
 40
383.0
 40
383.0
 40
384.0
 40
384.0
 40
385.0
 40
385.0
 40
386.0
 40
386.0
 40
387.0
 40
387.0
 40
388.0
 40
388.0
 40
389.0
 40
389.0
 40
389.0
 10
930.29987164881129
 20
-1140.844534076911
 30
0.0
 41
1.0
 10
931.11829575753177
 20
-1140.844534076911
 30
0.0
 41
1.0
 10
931.93671986625225
 20
-1140.844534076911
 30
0.0
 41
1.0
 10
931.52296613073554
 20
-1142.1871603411607
 30
0.0
 41
1.0
 10
931.10921239521872
 20
-1143.5297866054104
 30
0.0
 41
1.0
 10
931.12755189039547
 20
-1143.5010858324854
 30
0.0
 41
0.9999957264340823
 10
931.14605888723577
 20
-1143.4724927823197
 30
0.0
 41
1.0
 10
931.1764882113639
 20
-1143.4254799039581
 30
0.0
 41
1.0
 10
931.20691753549204
 20
-1143.3784670255966
 30
0.0
 41
1.0
 10
931.28628318059884
 20
-1143.2558482186921
 30
0.0
 41
0.9995394069081464
 10
931.37294157215183
 20
-1143.1382701569489
 30
0.0
 41
1.0
 10
931.40869843441101
 20
-1143.0897552643564
 30
0.0
 41
1.0
 10
931.44445529667007
 20
-1143.0412403717637
 30
0.0
 41
1.0
 10
931.57818196448875
 20
-1142.8598000966365
 30
0.0
 41
0.9994460617143494
 10
931.72368244577569
 20
-1142.687657698988
 30
0.0
 41
1.0
 10
931.72807062674997
 20
-1142.6824660186062
 30
0.0
 41
1.0
 10
931.73245880772436
 20
-1142.6772743382246
 30
0.0
 41
1.0
 10
931.86918292706207
 20
-1142.5155153013402
 30
0.0
 41
0.9994359394933763
 10
932.01645715741506
 20
-1142.3632991001739
 30
0.0
 41
1.0
 10
932.01884051136881
 20
-1142.3608357698004
 30
0.0
 41
1.0
 10
932.02122386532244
 20
-1142.3583724394268
 30
0.0
 41
1.0
 10
932.16373138776714
 20
-1142.2110828990087
 30
0.0
 41
0.9995293688568033
 10
932.31500306874864
 20
-1142.0728096868452
 30
0.0
 41
1.0
 10
932.33429682801261
 20
-1142.0551738011934
 30
0.0
 41
1.0
 10
932.35359058727659
 20
-1142.0375379155416
 30
0.0
 41
1.0
 10
932.46627474973218
 20
-1141.9345364746798
 30
0.0
 41
0.999708761480295
 10
932.58379763868584
 20
-1141.8370921938831
 30
0.0
 41
1.0
 10
932.60296371186064
 20
-1141.8212006153758
 30
0.0
 41
1.0
 10
932.62212978503555
 20
-1141.8053090368683
 30
0.0
 41
1.0
 10
932.70132052763734
 20
-1141.739647913088
 30
0.0
 41
0.9999595338694274
 10
932.78167979849604
 20
-1141.6754221824303
 30
0.0
 41
1.0
 10
932.86203906935839
 20
-1141.6111964517695
 30
0.0
 41
0.9999749417504894
 10
932.94329960371101
 20
-1141.548114897816
 30
0.0
 41
1.0
 10
932.96428574986476
 20
-1141.5318236105213
 30
0.0
 41
1.0
 10
932.9852718960185
 20
-1141.5155323232264
 30
0.0
 41
1.0
 10
933.06983978132166
 20
-1141.4498833133844
 30
0.0
 41
0.9999792037115057
 10
933.15524738109707
 20
-1141.3853305317361
 30
0.0
 41
1.0
 10
933.17607220695675
 20
-1141.3695907095175
 30
0.0
 41
1.0
 10
933.19689703281642
 20
-1141.3538508872991
 30
0.0
 41
1.0
 10
933.24065498081166
 20
-1141.3207777501341
 30
0.0
 41
0.9999993373798038
 10
933.28433666700971
 20
-1141.2876039546686
 30
0.0
 41
1.0
 10
933.3280183531507
 20
-1141.2544301592461
 30
0.0
 41
0.9999160953816699
 10
933.37254476406838
 20
-1141.2223990940493
 30
0.0
 41
1.0
 10
933.40536665148989
 20
-1141.1987879384628
 30
0.0
 41
1.0
 10
933.4381885389115
 20
-1141.1751767828764
 30
0.0
 41
1.0
 10
933.54835872466924
 20
-1141.095923406509
 30
0.0
 41
0.9980964527231613
 10
933.66744771817002
 20
-1141.030835933653
 30
0.0
 41
1.0
 10
933.70448032509717
 20
-1141.0105959540601
 30
0.0
 41
1.0
 10
933.74151293202442
 20
-1140.9903559744675
 30
0.0
 41
1.0
 10
933.92083994529833
 20
-1140.8923457237659
 30
0.0
 41
0.9984572810572789
 10
934.10992851165884
 20
-1140.8148234624186
 30
0.0
 41
1.0
 10
934.1135747810539
 20
-1140.813328570081
 30
0.0
 41
1.0
 10
934.11722105044896
 20
-1140.8118336777434
 30
0.0
 41
1.0
 10
934.29901707801707
 20
-1140.7373012010726
 30
0.0
 41
0.9987838528033893
 10
934.48726973657699
 20
-1140.6810355609066
 30
0.0
 41
1.0
 10
934.49150768577658
 20
-1140.6797689072162
 30
0.0
 41
1.0
 10
934.49574563497617
 20
-1140.6785022535257
 30
0.0
 41
1.0
 10
934.67552239513714
 20
-1140.6247699207406
 30
0.0
 41
0.999065281620722
 10
934.85926832685209
 20
-1140.5867662411988
 30
0.0
 41
1.0
 10
934.86445672788182
 20
-1140.5856931380927
 30
0.0
 41
1.0
 10
934.86964512891166
 20
-1140.5846200349865
 30
0.0
 41
1.0
 10
935.0430142585667
 20
-1140.548762561657
 30
0.0
 41
0.9992909934270202
 10
935.21859002502629
 20
-1140.5260521291902
 30
0.0
 41
1.0
 10
935.39416579148281
 20
-1140.5033416967237
 30
0.0
 41
0.9994553539448665
 10
935.57085722457441
 20
-1140.4922623925177
 30
0.0
 41
1.0
 10
935.60629163237172
 20
-1140.4900405044698
 30
0.0
 41
1.0
 10
935.64172604016903
 20
-1140.4878186164219
 30
0.0
 41
1.0
 10
935.8079518067384
 20
-1140.4773955540102
 30
0.0
 41
0.999092809829274
 10
935.97446159864103
 20
-1140.4811551952448
 30
0.0
 41
1.0
 10
936.01302343391387
 20
-1140.4820258867778
 30
0.0
 41
1.0
 10
936.05158526918672
 20
-1140.4828965783108
 30
0.0
 41
1.0
 10
936.14097139054468
 20
-1140.4849148364792
 30
0.0
 41
0.9998382089205528
 10
936.23022707332984
 20
-1140.4901469630072
 30
0.0
 41
1.0
 10
936.23065697954735
 20
-1140.4901721639094
 30
0.0
 41
1.0
 10
936.23108688576485
 20
-1140.4901973648114
 30
0.0
 41
1.0
 10
936.31948275611376
 20
-1140.4953790895352
 30
0.0
 41
0.9997558016758769
 10
936.40756333331683
 20
-1140.5044616049017
 30
0.0
 41
1.0
 10
936.40803947174481
 20
-1140.5045107023841
 30
0.0
 41
1.0
 10
936.40851561017269
 20
-1140.5045597998665
 30
0.0
 41
1.0
 10
936.49564391051615
 20
-1140.5135441202681
 30
0.0
 41
0.9996565144181719
 10
936.58218176385981
 20
-1140.5270814269575
 30
0.0
 41
1.0
 10
936.58264768923823
 20
-1140.5271543126889
 30
0.0
 41
1.0
 10
936.58311361461654
 20
-1140.5272271984204
 30
0.0
 41
1.0
 10
936.66871961720267
 20
-1140.5406187336466
 30
0.0
 41
0.9995321806866808
 10
936.75334669752976
 20
-1140.5592192220756
 30
0.0
 41
1.0
 10
936.75373589210187
 20
-1140.5593047645416
 30
0.0
 41
1.0
 10
936.75412508667398
 20
-1140.5593903070076
 30
0.0
 41
1.0
 10
936.83797377785822
 20
-1140.5778197105051
 30
0.0
 41
0.9993819199220118
 10
936.92032031205395
 20
-1140.6020950937655
 30
0.0
 41
1.0
 10
936.92055874555149
 20
-1140.6021653828748
 30
0.0
 41
1.0
 10
936.92079717904892
 20
-1140.6022356719839
 30
0.0
 41
1.0
 10
937.00266684624955
 20
-1140.6263704770258
 30
0.0
 41
0.9992088568505697
 10
937.0823593652384
 20
-1140.6569357128205
 30
0.0
 41
1.0
 10
937.16204035611736
 20
-1140.6874953135539
 30
0.0
 41
0.9990226101773254
 10
937.23871102602459
 20
-1140.7249727451685
 30
0.0
 41
1.0
 10
937.31537016782204
 20
-1140.7624445417214
 30
0.0
 41
0.9988424273972177
 10
937.38807379503419
 20
-1140.8071093169742
 30
0.0
 41
1.0
 10
937.38834150341393
 20
-1140.8072737810467
 30
0.0
 41
1.0
 10
937.38860921179366
 20
-1140.8074382451191
 30
0.0
 41
1.0
 10
937.46184825576449
 20
-1140.8524319485166
 30
0.0
 41
0.9986928844491282
 10
937.53011112247418
 20
-1140.9046676827961
 30
0.0
 41
1.0
 10
937.530692414697
 20
-1140.905112496024
 30
0.0
 41
1.0
 10
937.53127370691982
 20
-1140.9055573092519
 30
0.0
 41
1.0
 10
937.60069915807514
 20
-1140.9586826699876
 30
0.0
 41
0.9986007262279025
 10
937.66412532784193
 20
-1141.0188434396809
 30
0.0
 41
1.0
 10
937.66501974329913
 20
-1141.019691807516
 30
0.0
 41
1.0
 10
937.66591415875632
 20
-1141.020540175351
 30
0.0
 41
1.0
 10
937.73112915943716
 20
-1141.0823976807146
 30
0.0
 41
0.998558149138214
 10
937.78933677113901
 20
-1141.1508901709863
 30
0.0
 41
1.0
 10
937.79859522473487
 20
-1141.161784528688
 30
0.0
 41
1.0
 10
937.80785367833073
 20
-1141.1726788863898
 30
0.0
 41
1.0
 10
937.8845781972235
 20
-1141.2629600920643
 30
0.0
 41
0.9970460233520153
 10
937.94657009838295
 20
-1141.3639271762461
 30
0.0
 41
1.0
 10
937.96103946346238
 20
-1141.3874936353272
 30
0.0
 41
1.0
 10
937.97550882854193
 20
-1141.4110600944082
 30
0.0
 41
1.0
 10
938.0152455285546
 20
-1141.4757798184405
 30
0.0
 41
0.9988468816636342
 10
938.0485918993063
 20
-1141.5440122708685
 30
0.0
 41
1.0
 10
938.05562792179842
 20
-1141.5584091920073
 30
0.0
 41
1.0
 10
938.06266394429053
 20
-1141.5728061131458
 30
0.0
 41
1.0
 10
938.08193827005812
 20
-1141.612244723297
 30
0.0
 41
0.9998431189996929
 10
938.09980359755286
 20
-1141.6523412777369
 30
0.0
 41
1.0
 10
938.11766892508149
 20
-1141.6924378322531
 30
0.0
 41
0.9999989990028213
 10
938.13564764851083
 20
-1141.7324836698529
 30
0.0
 41
1.0
 10
938.1418199600846
 20
-1141.7462318866196
 30
0.0
 41
1.0
 10
938.14799227165827
 20
-1141.7599801033866
 30
0.0
 41
1.0
 10
938.17831561826858
 20
-1141.8275223745952
 30
0.0
 41
0.9998790356321278
 10
938.20652349840657
 20
-1141.8959751265329
 30
0.0
 41
1.0
 10
938.2133586796906
 20
-1141.9125622279594
 30
0.0
 41
1.0
 10
938.22019386097452
 20
-1141.9291493293858
 30
0.0
 41
1.0
 10
938.24375152335631
 20
-1141.9863172842749
 30
0.0
 41
0.9998227574561287
 10
938.26514027174494
 20
-1142.0443315925509
 30
0.0
 41
1.0
 10
938.28652902013437
 20
-1142.1023459008284
 30
0.0
 41
0.9996797971040683
 10
938.30495530509347
 20
-1142.1613680199464
 30
0.0
 41
1.0
 10
938.30885910781899
 20
-1142.1738724781153
 30
0.0
 41
1.0
 10
938.31276291054451
 20
-1142.1863769362842
 30
0.0
 41
1.0
 10
938.33899680095465
 20
-1142.2704079717391
 30
0.0
 41
0.9979274938733868
 10
938.35422132443364
 20
-1142.357112330398
 30
0.0
 41
1.0
 10
938.3564450116944
 20
-1142.3697763312171
 30
0.0
 41
1.0
 10
938.35866869895528
 20
-1142.3824403320361
 30
0.0
 41
1.0
 10
938.36959863865457
 20
-1142.4446868393316
 30
0.0
 41
0.9994985982137018
 10
938.37656680383157
 20
-1142.507500340475
 30
0.0
 41
1.0
 10
938.38353496900845
 20
-1142.5703138416138
 30
0.0
 41
0.9996372611200211
 10
938.38711083477597
 20
-1142.6334114202937
 30
0.0
 41
1.0
 10
938.38727941226546
 20
-1142.6363860373785
 30
0.0
 41
1.0
 10
938.38744798975495
 20
-1142.6393606544636
 30
0.0
 41
1.0
 10
938.39136101050121
 20
-1142.7084074673096
 30
0.0
 41
0.999773063073618
 10
938.39232932398932
 20
-1142.7775582913428
 30
0.0
 41
1.0
 10
938.39238643040744
 20
-1142.7816364704852
 30
0.0
 41
1.0
 10
938.39244353682557
 20
-1142.7857146496276
 30
0.0
 41
1.0
 10
938.39352606314992
 20
-1142.8630218319486
 30
0.0
 41
0.9998772614069496
 10
938.39218597641809
 20
-1142.9403249785087
 30
0.0
 41
1.0
 10
938.39209671321942
 20
-1142.9454741423442
 30
0.0
 41
1.0
 10
938.39200745002063
 20
-1142.9506233061798
 30
0.0
 41
1.0
 10
938.39048883689088
 20
-1143.038224780428
 30
0.0
 41
0.9999415567327276
 10
938.38707652664482
 20
-1143.1257729421063
 30
0.0
 41
1.0
 10
938.38683520596987
 20
-1143.1319644018349
 30
0.0
 41
1.0
 10
938.38659388529481
 20
-1143.1381558615637
 30
0.0
 41
1.0
 10
938.38269893369795
 20
-1143.2380869427218
 30
0.0
 41
0.9999716810423037
 10
938.37730035057973
 20
-1143.3379480809422
 30
0.0
 41
1.0
 10
938.37408755179058
 20
-1143.3973773306077
 30
0.0
 41
1.0
 10
938.37087475300132
 20
-1143.4568065802732
 30
0.0
 41
1.0
 10
938.36280084384896
 20
-1143.6061549815458
 30
0.0
 41
0.9999819129910188
 10
938.35293105223286
 20
-1143.7553954592493
 30
0.0
 41
1.0
 10
938.34306126061631
 20
-1143.9046359369606
 30
0.0
 41
1.0
 10
938.34062194005242
 20
-1143.94182898281
 30
0.0
 41
1.0
 10
938.36332017388281
 20
-1143.9030879854813
 30
0.0
 41
0.9999982127994569
 10
938.38616473264733
 20
-1143.8644330915081
 30
0.0
 41
1.0
 10
938.41307429252788
 20
-1143.8188998774599
 30
0.0
 41
1.0
 10
938.43998385240855
 20
-1143.7733666634119
 30
0.0
 41
1.0
 10
938.51664753093405
 20
-1143.6436453413428
 30
0.0
 41
0.9998609190057378
 10
938.59759484379663
 20
-1143.5165529594124
 30
0.0
 41
1.0
 10
938.62724316527442
 20
-1143.4700032264611
 30
0.0
 41
1.0
 10
938.65689148675233
 20
-1143.4234534935099
 30
0.0
 41
1.0
 10
938.73916370699351
 20
-1143.2942809235083
 30
0.0
 41
0.9999067609732804
 10
938.82493271646081
 20
-1143.167403234062
 30
0.0
 41
1.0
 10
938.82733741966047
 20
-1143.1638459680089
 30
0.0
 41
1.0
 10
938.82974212286013
 20
-1143.160288701956
 30
0.0
 41
1.0
 10
938.91070172592117
 20
-1143.0405255446258
 30
0.0
 41
0.9998784952150989
 10
938.99535533560618
 20
-1142.9233443279122
 30
0.0
 41
1.0
 10
939.08000894528709
 20
-1142.8061631112041
 30
0.0
 41
0.9998532968284647
 10
939.16862656610908
 20
-1142.6919502027345
 30
0.0
 41
1.0
 10
939.18858835509923
 20
-1142.6662228817154
 30
0.0
 41
1.0
 10
939.20855014408937
 20
-1142.6404955606965
 30
0.0
 41
1.0
 10
939.32703419384882
 20
-1142.4877899497269
 30
0.0
 41
0.9991551975795042
 10
939.45765864347482
 20
-1142.3453303876406
 30
0.0
 41
1.0
 10
939.46116825945319
 20
-1142.3415027860178
 30
0.0
 41
1.0
 10
939.46467787543156
 20
-1142.337675184395
 30
0.0
 41
1.0
 10
939.58828309309649
 20
-1142.2028708255589
 30
0.0
 41
0.9997418144181018
 10
939.71788523279884
 20
-1142.0738214149446
 30
0.0
 41
1.0
 10
939.84748737249879
 20
-1141.9447720043327
 30
0.0
 41
0.9989238204633436
 10
939.98848992074886
 20
-1141.8282870422945
 30
0.0
 41
1.0
 10
940.03373759888882
 20
-1141.7909070506853
 30
0.0
 41
1.0
 10
940.07898527702889
 20
-1141.7535270590763
 30
0.0
 41
1.0
 10
940.21922533425129
 20
-1141.6376720057847
 30
0.0
 41
0.9990825084096853
 10
940.36886526685498
 20
-1141.5342430079518
 30
0.0
 41
1.0
 10
940.37891063090854
 20
-1141.5272997948746
 30
0.0
 41
1.0
 10
940.38895599496209
 20
-1141.5203565817974
 30
0.0
 41
1.0
 10
940.51850519945401
 20
-1141.430814010122
 30
0.0
 41
0.9998164899825488
 10
940.65138940283521
 20
-1141.3462997686024
 30
0.0
 41
1.0
 10
940.6632349633619
 20
-1141.3387660020762
 30
0.0
 41
1.0
 10
940.67508052388871
 20
-1141.33123223555
 30
0.0
 41
1.0
 10
940.78427360621254
 20
-1141.2617855270855
 30
0.0
 41
0.9997473449130691
 10
940.89647756346085
 20
-1141.1973165692705
 30
0.0
 41
1.0
 10
941.00868152070916
 20
-1141.1328476114554
 30
0.0
 41
0.9999327861147479
 10
941.12235013146881
 20
-1141.0709976197761
 30
0.0
 41
1.0
 10
941.12290213403207
 20
-1141.0706972610956
 30
0.0
 41
1.0
 10
941.12345413659523
 20
-1141.070396902415
 30
0.0
 41
1.0
 10
941.23822675247948
 20
-1141.0079461933756
 30
0.0
 41
0.9996956420483157
 10
941.35594007832071
 20
-1140.9512327264001
 30
0.0
 41
1.0
 10
941.38638048321218
 20
-1140.9365667496709
 30
0.0
 41
1.0
 10
941.41682088810353
 20
-1140.9219007729416
 30
0.0
 41
1.0
 10
941.51979799484729
 20
-1140.872287114498
 30
0.0
 41
0.9998070570175864
 10
941.6246443837905
 20
-1140.826756527596
 30
0.0
 41
1.0
 10
941.72949077273347
 20
-1140.7812259406944
 30
0.0
 41
0.9997827436147611
 10
941.83614370934311
 20
-1140.7401047693825
 30
0.0
 41
1.0
 10
941.85536655897363
 20
-1140.7326931957505
 30
0.0
 41
1.0
 10
941.87458940860415
 20
-1140.7252816221185
 30
0.0
 41
1.0
 10
942.01968804447756
 20
-1140.6693373035416
 30
0.0
 41
0.9988031841976367
 10
942.16955840708204
 20
-1140.627837239374
 30
0.0
 41
1.0
 10
942.19447565544601
 20
-1140.620937493567
 30
0.0
 41
1.0
 10
942.2193929038101
 20
-1140.6140377477598
 30
0.0
 41
1.0
 10
942.38666292945641
 20
-1140.5677196053532
 30
0.0
 41
0.9984748040549967
 10
942.55801983810409
 20
-1140.5401253730886
 30
0.0
 41
1.0
 10
942.56275897435319
 20
-1140.5393622125753
 30
0.0
 41
1.0
 10
942.56749811060229
 20
-1140.5385990520617
 30
0.0
 41
1.0
 10
942.72937674675302
 20
-1140.5125311408237
 30
0.0
 41
0.9984436495479785
 10
942.89315149047775
 20
-1140.504653187005
 30
0.0
 41
1.0
 10
942.91484869860903
 20
-1140.5036094998054
 30
0.0
 41
1.0
 10
942.93654590674032
 20
-1140.5025658126058
 30
0.0
 41
1.0
 10
943.05692623420248
 20
-1140.4967752331863
 30
0.0
 41
0.998795478933512
 10
943.17729447911233
 20
-1140.5028117609286
 30
0.0
 41
1.0
 10
943.19725927160812
 20
-1140.5038130052671
 30
0.0
 41
1.0
 10
943.21722406410402
 20
-1140.5048142496059
 30
0.0
 41
1.0
 10
943.29766272402355
 20
-1140.5088482886711
 30
0.0
 41
0.9997941595877341
 10
943.37787150211659
 20
-1140.5161423545919
 30
0.0
 41
1.0
 10
943.45808028021133
 20
-1140.523436420513
 30
0.0
 41
0.9998589466239382
 10
943.53799882706642
 20
-1140.5334202749632
 30
0.0
 41
1.0
 10
943.57040502887446
 20
-1140.5374686318823
 30
0.0
 41
1.0
 10
943.60281123068251
 20
-1140.5415169888015
 30
0.0
 41
1.0
 10
943.74754218115447
 20
-1140.5595975570902
 30
0.0
 41
0.9993495063249772
 10
943.89059342492089
 20
-1140.5880632668318
 30
0.0
 41
1.0
 10
943.92352712207116
 20
-1140.5946167300463
 30
0.0
 41
1.0
 10
943.95646081922132
 20
-1140.6011701932607
 30
0.0
 41
1.0
 10
944.06575464242655
 20
-1140.6229185273962
 30
0.0
 41
0.9996788715560773
 10
944.17380621438463
 20
-1140.6501763267597
 30
0.0
 41
1.0
 10
944.17586921692418
 20
-1140.6506967533328
 30
0.0
 41
1.0
 10
944.17793221946386
 20
-1140.6512171799059
 30
0.0
 41
1.0
 10
944.28185778634179
 20
-1140.677434126123
 30
0.0
 41
0.9995480654492823
 10
944.38402002157045
 20
-1140.709849082747
 30
0.0
 41
1.0
 10
944.38570966369957
 20
-1140.7103851876609
 30
0.0
 41
1.0
 10
944.38739930582858
 20
-1140.710921292575
 30
0.0
 41
1.0
 10
944.48618225679968
 20
-1140.7422640393715
 30
0.0
 41
0.9993867959456514
 10
944.58252941524245
 20
-1140.7804434086613
 30
0.0
 41
1.0
 10
944.58377236432659
 20
-1140.7809359505573
 30
0.0
 41
1.0
 10
944.58501531341074
 20
-1140.7814284924532
 30
0.0
 41
1.0
 10
944.67887657368453
 20
-1140.8186227779508
 30
0.0
 41
0.9992050256521771
 10
944.76947624871832
 20
-1140.8631766771898
 30
0.0
 41
1.0
 10
944.77021093143173
 20
-1140.8635379696511
 30
0.0
 41
1.0
 10
944.77094561414515
 20
-1140.8638992621125
 30
0.0
 41
1.0
 10
944.86007592375233
 20
-1140.907730576429
 30
0.0
 41
0.9990222350742057
 10
944.94498598514542
 20
-1140.9592638441268
 30
0.0
 41
1.0
 10
944.94516987042812
 20
-1140.9593754470316
 30
0.0
 41
1.0
 10
944.9453537557107
 20
-1140.9594870499363
 30
0.0
 41
1.0
 10
945.0298960465384
 20
-1141.0107971118248
 30
0.0
 41
0.9988642743805113
 10
945.10917058115797
 20
-1141.0699212993504
 30
0.0
 41
1.0
 10
945.18844511577777
 20
-1141.1290454868763
 30
0.0
 41
0.9987681233310948
 10
945.26146890005373
 20
-1141.195736178277
 30
0.0
 41
1.0
 10
945.26179782801933
 20
-1141.196036579491
 30
0.0
 41
1.0
 10
945.26212675598481
 20
-1141.1963369807049
 30
0.0
 41
1.0
 10
945.33580839619253
 20
-1141.263628474534
 30
0.0
 41
0.9987496570898327
 10
945.40240220151964
 20
-1141.3379412886206
 30
0.0
 41
1.0
 10
945.4031743712801
 20
-1141.3388029619787
 30
0.0
 41
1.0
 10
945.40394654104057
 20
-1141.3396646353365
 30
0.0
 41
1.0
 10
945.47208468588769
 20
-1141.4157007961376
 30
0.0
 41
0.9988147669826568
 10
945.53250694011274
 20
-1141.4980018029801
 30
0.0
 41
1.0
 10
945.53362626619094
 20
-1141.4995264343333
 30
0.0
 41
1.0
 10
945.53474559226913
 20
-1141.5010510656864
 30
0.0
 41
1.0
 10
945.59740649865012
 20
-1141.586401335235
 30
0.0
 41
0.9989452636216534
 10
945.65197341161115
 20
-1141.6771400243922
 30
0.0
 41
1.0
 10
945.6533221376967
 20
-1141.6793828054183
 30
0.0
 41
1.0
 10
945.65467086378226
 20
-1141.6816255864442
 30
0.0
 41
1.0
 10
945.71193522891508
 20
-1141.7768498376543
 30
0.0
 41
0.9991046436070149
 10
945.76094444223668
 20
-1141.8765742706798
 30
0.0
 41
1.0
 10
945.76240830382665
 20
-1141.8795529507524
 30
0.0
 41
1.0
 10
945.76387216541661
 20
-1141.8825316308248
 30
0.0
 41
1.0
 10
945.81580910191849
 20
-1141.9882134239954
 30
0.0
 41
0.9992763831100686
 10
945.85956223047356
 20
-1142.0975374859513
 30
0.0
 41
1.0
 10
945.86104150013682
 20
-1142.1012336734848
 30
0.0
 41
1.0
 10
945.86252076980008
 20
-1142.1049298610183
 30
0.0
 41
1.0
 10
945.90923243768202
 20
-1142.2216462980418
 30
0.0
 41
0.9994163472883417
 10
945.94786546887065
 20
-1142.3412798865027
 30
0.0
 41
1.0
 10
945.94910362111762
 20
-1142.3451140302861
 30
0.0
 41
1.0
 10
945.95034177336458
 20
-1142.3489481740696
 30
0.0
 41
1.0
 10
945.99022533438279
 20
-1142.4724542355509
 30
0.0
 41
0.9997268055890305
 10
946.02429339029436
 20
-1142.5976892675001
 30
0.0
 41
1.0
 10
946.02522357056387
 20
-1142.6011086336086
 30
0.0
 41
1.0
 10
946.02615375083337
 20
-1142.6045279997172
 30
0.0
 41
1.0
 10
946.05836144620628
 20
-1142.7229242994501
 30
0.0
 41
0.9996701319000682
 10
946.08444706297678
 20
-1142.8428182527141
 30
0.0
 41
1.0
 10
946.11053267974694
 20
-1142.9627122059765
 30
0.0
 41
0.9995785451108902
 10
946.12961625708681
 20
-1143.0839179670074
 30
0.0
 41
1.0
 10
946.13383603926059
 20
-1143.1107191217732
 30
0.0
 41
1.0
 10
946.13805582143436
 20
-1143.1375202765389
 30
0.0
 41
1.0
 10
946.16463079737298
 20
-1143.3063062502433
 30
0.0
 41
0.9979925101217069
 10
946.16965638329941
 20
-1143.477097578334
 30
0.0
 41
1.0
 10
946.17048119572405
 20
-1143.5051283018101
 30
0.0
 41
1.0
 10
946.17130600814858
 20
-1143.5331590252863
 30
0.0
 41
1.0
 10
946.17468196922607
 20
-1143.6478889064181
 30
0.0
 41
0.9995314902262652
 10
946.17103177708725
 20
-1143.7626103901775
 30
0.0
 41
1.0
 10
946.167381584949
 20
-1143.8773318739277
 30
0.0
 41
0.9996245486944216
 10
946.15745248981818
 20
-1143.9916811450507
 30
0.0
 41
1.0
 10
946.15728944182388
 20
-1143.9935589011875
 30
0.0
 41
1.0
 10
946.15712639382946
 20
-1143.995436657324
 30
0.0
 41
1.0
 10
946.1468712027098
 20
-1144.1135414407208
 30
0.0
 41
0.9997286095000807
 10
946.13112587913815
 20
-1144.2310403496167
 30
0.0
 41
1.0
 10
946.13073238648803
 20
-1144.2339767743169
 30
0.0
 41
1.0
 10
946.13033889383792
 20
-1144.236913199017
 30
0.0
 41
1.0
 10
946.11380658496648
 20
-1144.3602849573108
 30
0.0
 41
0.9998265533969997
 10
946.09269112623474
 20
-1144.4829554320945
 30
0.0
 41
1.0
 10
946.09201458409677
 20
-1144.4868858106067
 30
0.0
 41
1.0
 10
946.09133804195881
 20
-1144.490816189119
 30
0.0
 41
1.0
 10
946.06886949895113
 20
-1144.6213474209262
 30
0.0
 41
0.999902253085345
 10
946.04276003434074
 20
-1144.7511993895666
 30
0.0
 41
1.0
 10
946.04178139317605
 20
-1144.7560665319511
 30
0.0
 41
1.0
 10
946.04080275201125
 20
-1144.7609336743353
 30
0.0
 41
1.0
 10
946.01273600507079
 20
-1144.9005199277469
 30
0.0
 41
0.9999524761934439
 10
945.98195303623663
 20
-1145.0395324209092
 30
0.0
 41
1.0
 10
945.98067692906079
 20
-1145.0452951802135
 30
0.0
 41
1.0
 10
945.97940082188484
 20
-1145.0510579395177
 30
0.0
 41
1.0
 10
945.94606563870423
 20
-1145.201595951266
 30
0.0
 41
0.9999813588725544
 10
945.91089463790843
 20
-1145.3517156639209
 30
0.0
 41
1.0
 10
945.90934071244942
 20
-1145.3583482543543
 30
0.0
 41
1.0
 10
945.9077867869903
 20
-1145.3649808447876
 30
0.0
 41
1.0
 10
945.86950793526876
 20
-1145.5283657383416
 30
0.0
 41
0.9999955237652087
 10
945.83025205728325
 20
-1145.6915186419681
 30
0.0
 41
1.0
 10
945.81797042165772
 20
-1145.7425628324545
 30
0.0
 41
1.0
 10
945.80568878603208
 20
-1145.7936070229409
 30
0.0
 41
1.0
 10
945.7418696367821
 20
-1146.0588483075958
 30
0.0
 41
0.9999993604483736
 10
945.67745068958709
 20
-1146.3239445583918
 30
0.0
 41
1.0
 10
945.67273185405395
 20
-1146.343363466375
 30
0.0
 41
1.0
 10
945.66801301852081
 20
-1146.3627823743582
 30
0.0
 41
1.0
 10
945.59415640026089
 20
-1146.6667164411156
 30
0.0
 41
0.999965991473315
 10
945.51529680437636
 20
-1146.9693909876717
 30
0.0
 41
1.0
 10
945.51034411544515
 20
-1146.9884001248565
 30
0.0
 41
1.0
 10
945.50539142651382
 20
-1147.0074092620414
 30
0.0
 41
1.0
 10
945.41662645276756
 20
-1147.3481020829645
 30
0.0
 41
0.9999441976024684
 10
945.32068341980198
 20
-1147.6868435082702
 30
0.0
 41
1.0
 10
945.30398290137794
 20
-1147.7458072207926
 30
0.0
 41
1.0
 10
945.28728238295389
 20
-1147.804770933315
 30
0.0
 41
1.0
 10
945.1579383131392
 20
-1148.2614397836692
 30
0.0
 41
0.9999625120734386
 10
945.02070554581564
 20
-1148.7158003176658
 30
0.0
 41
1.0
 10
944.98491560272635
 20
-1148.8342963443138
 30
0.0
 41
1.0
 10
944.94912565963705
 20
-1148.9527923709618
 30
0.0
 41
1.0
 10
944.87460545560236
 20
-1149.1995194490419
 30
0.0
 41
0.9999793386325198
 10
944.79691943247121
 20
-1149.4452680882575
 30
0.0
 41
1.0
 10
944.7192334093337
 20
-1149.6910167274937
 30
0.0
 41
1.0
 10
944.708453850463
 20
-1149.7250346318683
 30
0.0
 41
1.0
 10
942.85808079719391
 20
-1155.6121065543357
 30
0.0
 41
1.0
 10
941.0077077439247
 20
-1161.4991784768033
 30
0.0
 41
1.0
 10
940.04645105390114
 20
-1161.4991784768033
 30
0.0
 41
1.0
 10
939.08519436387758
 20
-1161.4991784768033
 30
0.0
 41
1.0
 10
940.70413914255596
 20
-1156.3511499750139
 30
0.0
 41
1.0
 10
942.32308392123446
 20
-1151.2031214732244
 30
0.0
 41
1.0
 10
942.36824974441424
 20
-1151.0590902509373
 30
0.0
 41
1.0
 10
942.41341556759392
 20
-1150.9150590286501
 30
0.0
 41
1.0
 10
942.58371998494715
 20
-1150.3719679995179
 30
0.0
 41
0.9999911657900628
 10
942.74945279662597
 20
-1149.8274644681585
 30
0.0
 41
1.0
 10
942.77914874011481
 20
-1149.7299005281463
 30
0.0
 41
1.0
 10
942.80884468360364
 20
-1149.6323365881342
 30
0.0
 41
1.0
 10
942.91518560829388
 20
-1149.2829609368355
 30
0.0
 41
0.9999952428183114
 10
943.01936919763125
 20
-1148.9329359124454
 30
0.0
 41
1.0
 10
943.02442866796491
 20
-1148.9159376381663
 30
0.0
 41
1.0
 10
943.02948813829846
 20
-1148.8989393638872
 30
0.0
 41
1.0
 10
943.12355278696259
 20
-1148.5829108880739
 30
0.0
 41
0.999993168754954
 10
943.21527862482981
 20
-1148.2661956748252
 30
0.0
 41
1.0
 10
943.2202138892892
 20
-1148.2491549655547
 30
0.0
 41
1.0
 10
943.22514915374848
 20
-1148.2321142562844
 30
0.0
 41
1.0
 10
943.30700446270362
 20
-1147.9494804615542
 30
0.0
 41
0.9999893840779993
 10
943.3862516891603
 20
-1147.6661043323081
 30
0.0
 41
1.0
 10
943.46549891561858
 20
-1147.3827282030566
 30
0.0
 41
0.9999833980078815
 10
943.54147515636419
 20
-1147.0984576200135
 30
0.0
 41
1.0
 10
943.55047909308519
 20
-1147.0647687415396
 30
0.0
 41
1.0
 10
943.5594830298063
 20
-1147.0310798630658
 30
0.0
 41
1.0
 10
943.62844757867163
 20
-1146.7730440307735
 30
0.0
 41
0.9999233658065136
 10
943.69100254989064
 20
-1146.5133798720551
 30
0.0
 41
1.0
 10
943.75355752111091
 20
-1146.2537157133327
 30
0.0
 41
1.0
 10
943.79304093996848
 20
-1146.0899090489065
 30
0.0
 41
1.0
 10
943.7980195439427
 20
-1146.0692540870486
 30
0.0
 41
1.0
 10
943.80299814791692
 20
-1146.0485991251908
 30
0.0
 41
1.0
 10
943.83252435882628
 20
-1145.9261023844797
 30
0.0
 41
0.9999868670855553
 10
943.86079344282223
 20
-1145.803309438835
 30
0.0
 41
1.0
 10
943.86469092998141
 20
-1145.7863798514113
 30
0.0
 41
1.0
 10
943.8685884171407
 20
-1145.7694502639877
 30
0.0
 41
1.0
 10
943.88906252681932
 20
-1145.6805164931857
 30
0.0
 41
0.99997781733509
 10
943.9083501249338
 20
-1145.591317875959
 30
0.0
 41
1.0
 10
943.92763772304772
 20
-1145.5021192587353
 30
0.0
 41
0.9999602692859342
 10
943.94533208167832
 20
-1145.4125909703109
 30
0.0
 41
1.0
 10
943.94853591375681
 20
-1145.3963805154208
 30
0.0
 41
1.0
 10
943.95173974583531
 20
-1145.3801700605309
 30
0.0
 41
1.0
 10
943.97584176862097
 20
-1145.2582208623344
 30
0.0
 41
0.9995617985320809
 10
943.99268511584012
 20
-1145.1350591146263
 30
0.0
 41
1.0
 10
943.99514960574629
 20
-1145.1170382972614
 30
0.0
 41
1.0
 10
943.99761409565235
 20
-1145.0990174798967
 30
0.0
 41
1.0
 10
944.0178973567007
 20
-1144.9507024301959
 30
0.0
 41
0.9991121410639948
 10
944.0256227102891
 20
-1144.8012063313886
 30
0.0
 41
1.0
 10
944.02654150031367
 20
-1144.7834264948117
 30
0.0
 41
1.0
 10
944.02746029033824
 20
-1144.7656466582348
 30
0.0
 41
1.0
 10
944.03334806387738
 20
-1144.6517102325815
 30
0.0
 41
0.9989792494905126
 10
944.02892897176002
 20
-1144.5377073966838
 30
0.0
 41
1.0
 10
944.02828099989131
 20
-1144.5209911507554
 30
0.0
 41
1.0
 10
944.02763302802259
 20
-1144.5042749048271
 30
0.0
 41
1.0
 10
944.02450987964255
 20
-1144.423704560784
 30
0.0
 41
0.999782029539382
 10
944.01802588226701
 20
-1144.3433348390415
 30
0.0
 41
1.0
 10
944.01154188489136
 20
-1144.262965117297
 30
0.0
 41
0.999833510597259
 10
944.00212968938024
 20
-1144.1828855008525
 30
0.0
 41
1.0
 10
944.00053476470362
 20
-1144.1693157703669
 30
0.0
 41
1.0
 10
943.99893984002688
 20
-1144.1557460398813
 30
0.0
 41
1.0
 10
943.98633779516206
 20
-1144.048526962461
 30
0.0
 41
0.9996876457878796
 10
943.96839388236356
 20
-1143.9420715347453
 30
0.0
 41
1.0
 10
943.96616221921863
 20
-1143.9288317995063
 30
0.0
 41
1.0
 10
943.96393055607382
 20
-1143.9155920642672
 30
0.0
 41
1.0
 10
943.95013473465281
 20
-1143.8337459203078
 30
0.0
 41
0.99955474964946
 10
943.93148141275992
 20
-1143.7528684231161
 30
0.0
 41
1.0
 10
943.93110745588865
 20
-1143.7512470124104
 30
0.0
 41
1.0
 10
943.93073349901726
 20
-1143.7496256017048
 30
0.0
 41
1.0
 10
943.91282809086772
 20
-1143.6719909259266
 30
0.0
 41
0.9994899427175575
 10
943.89000318218791
 20
-1143.5956576430904
 30
0.0
 41
1.0
 10
943.88954465544703
 20
-1143.594124193301
 30
0.0
 41
1.0
 10
943.88908612870603
 20
-1143.5925907435119
 30
0.0
 41
1.0
 10
943.8671782735089
 20
-1143.5193243602573
 30
0.0
 41
0.9993784877591198
 10
943.84016263840203
 20
-1143.4477836550971
 30
0.0
 41
1.0
 10
943.83963094742512
 20
-1143.4463756723765
 30
0.0
 41
1.0
 10
943.83909925644821
 20
-1143.4449676896559
 30
0.0
 41
1.0
 10
943.81314700329528
 20
-1143.3762429499375
 30
0.0
 41
0.9992430832254525
 10
943.78193046813612
 20
-1143.3097437978697
 30
0.0
 41
1.0
 10
943.7813483520797
 20
-1143.3085037427527
 30
0.0
 41
1.0
 10
943.78076623602328
 20
-1143.3072636876359
 30
0.0
 41
1.0
 10
943.75071393297708
 20
-1143.243244645802
 30
0.0
 41
0.9990789632797902
 10
943.71528330620004
 20
-1143.1820380340519
 30
0.0
 41
1.0
 10
943.7146876000179
 20
-1143.1810089481924
 30
0.0
 41
1.0
 10
943.71409189383576
 20
-1143.1799798623331
 30
0.0
 41
1.0
 10
943.67985267942322
 20
-1143.1208314223018
 30
0.0
 41
0.9988874801119577
 10
943.64019340339132
 20
-1143.0651717098845
 30
0.0
 41
1.0
 10
943.63963787732678
 20
-1143.0643920582093
 30
0.0
 41
1.0
 10
943.63908235126223
 20
-1143.0636124065343
 30
0.0
 41
1.0
 10
943.60053412735897
 20
-1143.0095119974662
 30
0.0
 41
0.9986762060692752
 10
943.55663165608303
 20
-1142.9596582830272
 30
0.0
 41
1.0
 10
943.55618769575119
 20
-1142.959154141211
 30
0.0
 41
1.0
 10
943.55574373541936
 20
-1142.9586499993948
 30
0.0
 41
1.0
 10
943.51272918480709
 20
-1142.9098045685885
 30
0.0
 41
0.998462164248914
 10
943.46457162802903
 20
-1142.866021268117
 30
0.0
 41
1.0
 10
943.46432499351238
 20
-1142.8657970359536
 30
0.0
 41
1.0
 10
943.46407835899572
 20
-1142.86557280379
 30
0.0
 41
1.0
 10
943.41641407125121
 20
-1142.8222379676458
 30
0.0
 41
0.9982724693850411
 10
943.36399543940979
 20
-1142.7847936171283
 30
0.0
 41
1.0
 10
943.3115768075678
 20
-1142.7473492666102
 30
0.0
 41
0.9981399180157541
 10
943.25499074417451
 20
-1142.7165627471668
 30
0.0
 41
1.0
 10
943.25494508209636
 20
-1142.7165379040098
 30
0.0
 41
1.0
 10
943.25489942001809
 20
-1142.7165130608528
 30
0.0
 41
1.0
 10
943.19822203246781
 20
-1142.6856768550949
 30
0.0
 41
0.9980927086836943
 10
943.13817668140155
 20
-1142.6620600462425
 30
0.0
 41
1.0
 10
943.13773651168981
 20
-1142.6618869203676
 30
0.0
 41
1.0
 10
943.13729634197807
 20
-1142.6617137944925
 30
0.0
 41
1.0
 10
943.07637065148754
 20
-1142.6377507338898
 30
0.0
 41
0.9981411356561456
 10
943.01298213008727
 20
-1142.621378092384
 30
0.0
 41
1.0
 10
943.01210001338666
 20
-1142.6211502501787
 30
0.0
 41
1.0
 10
943.01121789668605
 20
-1142.6209224079735
 30
0.0
 41
1.0
 10
942.94606514188388
 20
-1142.6040940820569
 30
0.0
 41
0.9983031812934746
 10
942.8793977128895
 20
-1142.5949547208809
 30
0.0
 41
1.0
 10
942.87052668748538
 20
-1142.5937386022094
 30
0.0
 41
1.0
 10
942.86165566208138
 20
-1142.592522483538
 30
0.0
 41
1.0
 10
942.80730601957714
 20
-1142.585071753547
 30
0.0
 41
0.9983887708264385
 10
942.75246217028428
 20
-1142.5838270799136
 30
0.0
 41
1.0
 10
942.74439876506869
 20
-1142.5836440820387
 30
0.0
 41
1.0
 10
942.73633535985311
 20
-1142.5834610841639
 30
0.0
 41
1.0
 10
942.69761832099323
 20
-1142.5825824062804
 30
0.0
 41
0.999886956307899
 10
942.65889236778878
 20
-1142.5828682756401
 30
0.0
 41
1.0
 10
942.62016641458081
 20
-1142.5831541449998
 30
0.0
 41
0.9999972320124224
 10
942.58144223536431
 20
-1142.5836222445289
 30
0.0
 41
1.0
 10
942.56208921878988
 20
-1142.5838561846181
 30
0.0
 41
1.0
 10
942.54273620221534
 20
-1142.5840901247075
 30
0.0
 41
1.0
 10
942.46530598984816
 20
-1142.5850261044154
 30
0.0
 41
0.999730494508715
 10
942.38800268361433
 20
-1142.5895551982012
 30
0.0
 41
1.0
 10
942.37895304190647
 20
-1142.5900854041913
 30
0.0
 41
1.0
 10
942.3699034001985
 20
-1142.5906156101814
 30
0.0
 41
1.0
 10
942.27450081055338
 20
-1142.5962051159472
 30
0.0
 41
0.999788830641602
 10
942.1794084747122
 20
-1142.605710080436
 30
0.0
 41
1.0
 10
942.17068741313824
 20
-1142.6065817950682
 30
0.0
 41
1.0
 10
942.16196635156427
 20
-1142.6074535097005
 30
0.0
 41
1.0
 10
942.04943189257574
 20
-1142.6187019034539
 30
0.0
 41
0.9984170238191052
 10
941.93887274522422
 20
-1142.6425179853898
 30
0.0
 41
1.0
 10
941.90249161423799
 20
-1142.650355021196
 30
0.0
 41
1.0
 10
941.86611048325176
 20
-1142.658192057002
 30
0.0
 41
1.0
 10
941.75091941483049
 20
-1142.6830059235115
 30
0.0
 41
0.9976592854199071
 10
941.64019124842548
 20
-1142.7233046006586
 30
0.0
 41
1.0
 10
941.52946308202092
 20
-1142.7636032778057
 30
0.0
 41
0.9993255074352395
 10
941.42199128323045
 20
-1142.8119201762979
 30
0.0
 41
1.0
 10
941.41736610430678
 20
-1142.8139995524978
 30
0.0
 41
1.0
 10
941.4127409253831
 20
-1142.8160789286976
 30
0.0
 41
1.0
 10
941.29601876874676
 20
-1142.8685545795893
 30
0.0
 41
0.9976475078275494
 10
941.18757142443644
 20
-1142.9365025692475
 30
0.0
 41
1.0
 10
941.16922903030184
 20
-1142.9479950480618
 30
0.0
 41
1.0
 10
941.15088663616723
 20
-1142.9594875268763
 30
0.0
 41
1.0
 10
941.06668444461513
 20
-1143.0122446476446
 30
0.0
 41
0.9995131336407198
 10
940.98593672965615
 20
-1143.0701508595987
 30
0.0
 41
1.0
 10
940.9051890147008
 20
-1143.1280570715505
 30
0.0
 41
0.9995810107606381
 10
940.82792736697183
 20
-1143.1905387540164
 30
0.0
 41
1.0
 10
940.82495733576081
 20
-1143.1929406254817
 30
0.0
 41
1.0
 10
940.82198730454979
 20
-1143.195342496947
 30
0.0
 41
1.0
 10
940.73878559439936
 20
-1143.2626279223432
 30
0.0
 41
0.9996617837954935
 10
940.65919490726219
 20
-1143.3341483779047
 30
0.0
 41
1.0
 10
940.64706415638625
 20
-1143.3450491108945
 30
0.0
 41
1.0
 10
940.63493340551031
 20
-1143.3559498438842
 30
0.0
 41
1.0
 10
940.56665787811323
 20
-1143.417302459357
 30
0.0
 41
0.9997267750052307
 10
940.5013243698304
 20
-1143.4817789958815
 30
0.0
 41
1.0
 10
940.43599086154472
 20
-1143.5462555324088
 30
0.0
 41
0.9999667288956335
 10
940.37171791838898
 20
-1143.6117893393125
 30
0.0
 41
1.0
 10
940.30289047061933
 20
-1143.6819669980653
 30
0.0
 41
1.0
 10
940.2340630228498
 20
-1143.752144656818
 30
0.0
 41
1.0
 10
940.03213518415487
 20
-1143.9580337812267
 30
0.0
 41
0.9988205335175038
 10
939.85112956717796
 20
-1144.1825380132839
 30
0.0
 41
1.0
 10
939.82048960227098
 20
-1144.2205412637165
 30
0.0
 41
1.0
 10
939.78984963736411
 20
-1144.2585445141492
 30
0.0
 41
1.0
 10
939.54756409057575
 20
-1144.559055247069
 30
0.0
 41
0.9997077826755053
 10
939.32008613947357
 20
-1144.870925041281
 30
0.0
 41
1.0
 10
939.31836272434134
 20
-1144.8732878246631
 30
0.0
 41
1.0
 10
939.31663930920899
 20
-1144.8756506080451
 30
0.0
 41
1.0
 10
939.08571452784327
 20
-1145.19224596902
 30
0.0
 41
0.9989147567078832
 10
938.88525102496067
 20
-1145.5289554302033
 30
0.0
 41
1.0
 10
938.86050987965166
 20
-1145.5705120107591
 30
0.0
 41
1.0
 10
938.83576873434265
 20
-1145.6120685913149
 30
0.0
 41
1.0
 10
938.68055743570733
 20
-1145.872769975764
 30
0.0
 41
0.99974765981813
 10
938.53721244819849
 20
-1146.1401797243454
 30
0.0
 41
1.0
 10
938.39386746068885
 20
-1146.4075894729278
 30
0.0
 41
0.9996258967109621
 10
938.26535920875722
 20
-1146.682437409552
 30
0.0
 41
1.0
 10
938.25215929930778
 20
-1146.7106688096469
 30
0.0
 41
1.0
 10
938.23895938985834
 20
-1146.738900209742
 30
0.0
 41
1.0
 10
938.09875066885854
 20
-1147.0387726076951
 30
0.0
 41
0.9998735413947596
 10
937.96814932213738
 20
-1147.3429522071642
 30
0.0
 41
1.0
 10
937.96470649407797
 20
-1147.3509707926264
 30
0.0
 41
1.0
 10
937.96126366601868
 20
-1147.3589893780884
 30
0.0
 41
1.0
 10
937.83754797541678
 20
-1147.6471318066324
 30
0.0
 41
0.9999377418858403
 10
937.72029317324223
 20
-1147.9379632743071
 30
0.0
 41
1.0
 10
937.60303837106289
 20
-1148.2287947419932
 30
0.0
 41
0.9999508299506709
 10
937.49157442768296
 20
-1148.5218944188221
 30
0.0
 41
1.0
 10
937.4884936590239
 20
-1148.5299954447769
 30
0.0
 41
1.0
 10
937.48541289036484
 20
-1148.5380964707319
 30
0.0
 41
1.0
 10
937.3677874096627
 20
-1148.8473981994803
 30
0.0
 41
0.999960922843368
 10
937.2556488067878
 20
-1149.1587312154984
 30
0.0
 41
1.0
 10
937.25269279643851
 20
-1149.1669380559069
 30
0.0
 41
1.0
 10
937.24973678608922
 20
-1149.1751448963155
 30
0.0
 41
1.0
 10
937.13168616251528
 20
-1149.5028915931521
 30
0.0
 41
0.9999674607404966
 10
937.01893863644523
 20
-1149.8325002131526
 30
0.0
 41
1.0
 10
936.96754024588699
 20
-1149.982759408832
 30
0.0
 41
1.0
 10
936.91614185532887
 20
-1150.1330186045111
 30
0.0
 41
1.0
 10
936.80013124856634
 20
-1150.4721665870275
 30
0.0
 41
0.9999287532308951
 10
936.69224984459424
 20
-1150.8139873260079
 30
0.0
 41
1.0
 10
936.64577258847748
 20
-1150.9612498703077
 30
0.0
 41
1.0
 10
936.59929533236061
 20
-1151.1085124146077
 30
0.0
 41
1.0
 10
936.58436844067114
 20
-1151.1558080648319
 30
0.0
 41
0.9999998223988177
 10
936.56949793189301
 20
-1151.2031214732244
 30
0.0
 41
1.0
 10
934.94884179509756
 20
-1156.3511499750139
 30
0.0
 41
1.0
 10
933.32818565830212
 20
-1161.4991784768033
 30
0.0
 41
1.0
 10
932.42287721441119
 20
-1161.4991784768033
 30
0.0
 41
1.0
 10
931.51756877052026
 20
-1161.4991784768033
 30
0.0
 41
1.0
 10
933.3696531819063
 20
-1155.6121065543357
 30
0.0
 41
1.0
 10
935.22173759329235
 20
-1149.7250346318683
 30
0.0
 41
1.0
 10
935.23185935159506
 20
-1149.6929914184186
 30
0.0
 41
1.0
 10
935.3044670204448
 20
-1149.4626918765928
 30
0.0
 41
1.0
 10
935.37707468929534
 20
-1149.2323923347644
 30
0.0
 41
0.9999825681977398
 10
935.44695772850218
 20
-1149.0012514397149
 30
0.0
 41
1.0
 10
935.49524879066496
 20
-1148.8415268562123
 30
0.0
 41
1.0
 10
935.54353985282773
 20
-1148.6818022727098
 30
0.0
 41
1.0
 10
935.64069220614351
 20
-1148.360467050938
 30
0.0
 41
0.9999672528956876
 10
935.7326310117669
 20
-1148.0376015053521
 30
0.0
 41
1.0
 10
935.7354198954348
 20
-1148.0278076599686
 30
0.0
 41
1.0
 10
935.73820877910271
 20
-1148.0180138145852
 30
0.0
 41
1.0
 10
935.82456981738937
 20
-1147.7147359597691
 30
0.0
 41
0.9999899749162032
 10
935.90821142692494
 20
-1147.4106968713131
 30
0.0
 41
1.0
 10
935.91831734594325
 20
-1147.373961633632
 30
0.0
 41
1.0
 10
935.92842326496145
 20
-1147.3372263959509
 30
0.0
 41
1.0
 10
935.99185303645868
 20
-1147.1066577828644
 30
0.0
 41
0.9999214200505252
 10
936.04948246483741
 20
-1146.8745714406514
 30
0.0
 41
1.0
 10
936.06224831701729
 20
-1146.8231605552578
 30
0.0
 41
1.0
 10
936.07501416919729
 20
-1146.771749669864
 30
0.0
 41
1.0
 10
936.1071118932141
 20
-1146.6424850984465
 30
0.0
 41
0.999982868167714
 10
936.1376941452105
 20
-1146.5128536239747
 30
0.0
 41
1.0
 10
936.16827639720691
 20
-1146.3832221495036
 30
0.0
 41
0.9999389844473564
 10
936.19598738599461
 20
-1146.2529466936096
 30
0.0
 41
1.0
 10
936.20312512971509
 20
-1146.2193905897711
 30
0.0
 41
1.0
 10
936.21026287343557
 20
-1146.1858344859324
 30
0.0
 41
1.0
 10
936.25224934966673
 20
-1145.9884468223499
 30
0.0
 41
0.9998933699441964
 10
936.28845361407025
 20
-1145.7899172145835
 30
0.0
 41
1.0
 10
936.28982643928521
 20
-1145.7823891938947
 30
0.0
 41
1.0
 10
936.29119926450016
 20
-1145.7748611732056
 30
0.0
 41
1.0
 10
936.33014917933474
 20
-1145.5612755240559
 30
0.0
 41
0.9996850305193248
 10
936.35833285559272
 20
-1145.3460045186257
 30
0.0
 41
1.0
 10
936.36032788896227
 20
-1145.3307661645013
 30
0.0
 41
1.0
 10
936.36232292233194
 20
-1145.315527810377
 30
0.0
 41
1.0
 10
936.38973078479125
 20
-1145.1061825832205
 30
0.0
 41
0.9994697936706946
 10
936.40345534401104
 20
-1144.8954973878881
 30
0.0
 41
1.0
 10
936.40393241326069
 20
-1144.8881739156773
 30
0.0
 41
1.0
 10
936.40440948251035
 20
-1144.8808504434667
 30
0.0
 41
1.0
 10
936.41717990323082
 20
-1144.684812192558
 30
0.0
 41
0.9991804893136702
 10
936.41405158695784
 20
-1144.4883833425838
 30
0.0
 41
1.0
 10
936.41396770813571
 20
-1144.4831165411706
 30
0.0
 41
1.0
 10
936.41388382931359
 20
-1144.4778497397572
 30
0.0
 41
1.0
 10
936.41092327068509
 20
-1144.2919544926099
 30
0.0
 41
0.9988448329321458
 10
936.39013172506134
 20
-1144.107201902777
 30
0.0
 41
1.0
 10
936.38853765135821
 20
-1144.0930370470048
 30
0.0
 41
1.0
 10
936.38694357765507
 20
-1144.0788721912327
 30
0.0
 41
1.0
 10
936.36934017943747
 20
-1143.9224493129429
 30
0.0
 41
0.998550320945869
 10
936.33502390713807
 20
-1143.7688251288544
 30
0.0
 41
1.0
 10
936.32743791506709
 20
-1143.7348648014549
 30
0.0
 41
1.0
 10
936.31985192299601
 20
-1143.7009044740557
 30
0.0
 41
1.0
 10
936.30070763483889
 20
-1143.6152009447674
 30
0.0
 41
0.9991036781370961
 10
936.2743827731872
 20
-1143.5314238574401
 30
0.0
 41
1.0
 10
936.27040054773101
 20
-1143.5187506949289
 30
0.0
 41
1.0
 10
936.26641832227483
 20
-1143.5060775324177
 30
0.0
 41
1.0
 10
936.24805791153585
 20
-1143.4476467701145
 30
0.0
 41
0.9998874504367591
 10
936.22795270385768
 20
-1143.3897931678919
 30
0.0
 41
1.0
 10
936.2078474961794
 20
-1143.3319395656688
 30
0.0
 41
0.9994041637543277
 10
936.18379888324512
 20
-1143.2756108617793
 30
0.0
 41
1.0
 10
936.17960209902094
 20
-1143.2657807972969
 30
0.0
 41
1.0
 10
936.17540531479665
 20
-1143.2559507328144
 30
0.0
 41
1.0
 10
936.14752648380227
 20
-1143.1906505668476
 30
0.0
 41
0.999184684070209
 10
936.11447012710926
 20
-1143.1278125355675
 30
0.0
 41
1.0
 10
936.11333352071415
 20
-1143.1256519191129
 30
0.0
 41
1.0
 10
936.11219691431916
 20
-1143.1234913026581
 30
0.0
 41
1.0
 10
936.08141377041625
 20
-1143.0649745042872
 30
0.0
 41
0.9989253167921961
 10
936.04534434636116
 20
-1143.0095595758971
 30
0.0
 41
1.0
 10
936.04429022168654
 20
-1143.0079400811342
 30
0.0
 41
1.0
 10
936.04323609701191
 20
-1143.0063205863714
 30
0.0
 41
1.0
 10
936.00927492230596
 20
-1142.9541446475064
 30
0.0
 41
0.9986467172835135
 10
935.97007776966893
 20
-1142.9057786138774
 30
0.0
 41
1.0
 10
935.96920364096763
 20
-1142.9047000115984
 30
0.0
 41
1.0
 10
935.96832951226645
 20
-1142.9036214093196
 30
0.0
 41
1.0
 10
935.93088061703031
 20
-1142.8574125802463
 30
0.0
 41
0.9984001104267284
 10
935.8884538865143
 20
-1142.8157274728787
 30
0.0
 41
1.0
 10
935.8878667484048
 20
-1142.8151505979974
 30
0.0
 41
1.0
 10
935.88727961029542
 20
-1142.8145737231162
 30
0.0
 41
1.0
 10
935.84602715599681
 20
-1142.7740423655096
 30
0.0
 41
0.998244215908232
 10
935.80027105466161
 20
-1142.7386738042499
 30
0.0
 41
1.0
 10
935.80005625919955
 20
-1142.7385077716065
 30
0.0
 41
1.0
 10
935.79984146373749
 20
-1142.7383417389631
 30
0.0
 41
1.0
 10
935.75451495332561
 20
-1142.7033052429895
 30
0.0
 41
0.9982450060835437
 10
935.70536397425417
 20
-1142.6738734599562
 30
0.0
 41
1.0
 10
935.65621299518273
 20
-1142.6444416769227
 30
0.0
 41
0.9983922639634958
 10
935.60404668901754
 20
-1142.6207620422683
 30
0.0
 41
1.0
 10
935.60381981169303
 20
-1142.620659056787
 30
0.0
 41
1.0
 10
935.60359293436863
 20
-1142.6205560713056
 30
0.0
 41
1.0
 10
935.55097287355488
 20
-1142.5966704656887
 30
0.0
 41
0.998651714715001
 10
935.49615990068673
 20
-1142.5783693465669
 30
0.0
 41
1.0
 10
935.49548197925901
 20
-1142.5781430001355
 30
0.0
 41
1.0
 10
935.49480405783129
 20
-1142.5779166537041
 30
0.0
 41
1.0
 10
935.43863524210758
 20
-1142.5591628417194
 30
0.0
 41
0.9989435598956132
 10
935.38098185495573
 20
-1142.5456451394848
 30
0.0
 41
1.0
 10
935.37990173537423
 20
-1142.5453918892317
 30
0.0
 41
1.0
 10
935.37882161579273
 20
-1142.5451386389789
 30
0.0
 41
1.0
 10
935.31900798947811
 20
-1142.5311144362383
 30
0.0
 41
0.9992249241239553
 10
935.25827648058089
 20
-1142.5218390935233
 30
0.0
 41
1.0
 10
935.25686279228967
 20
-1142.5216231851155
 30
0.0
 41
1.0
 10
935.25544910399856
 20
-1142.5214072767076
 30
0.0
 41
1.0
 10
935.1918902185206
 20
-1142.5117001171768
 30
0.0
 41
0.9994396597833924
 10
935.12782428198466
 20
-1142.506267194831
 30
0.0
 41
1.0
 10
935.10868361450559
 20
-1142.5046440271121
 30
0.0
 41
1.0
 10
935.08954294702653
 20
-1142.5030208593935
 30
0.0
 41
1.0
 10
934.98719567553383
 20
-1142.4943416016106
 30
0.0
 41
0.9987693403121501
 10
934.88449205194672
 20
-1142.4958446650633
 30
0.0
 41
1.0
 10
934.87423771772069
 20
-1142.4959947368375
 30
0.0
 41
1.0
 10
934.86398338349477
 20
-1142.4961448086117
 30
0.0
 41
1.0
 10
934.75442761731472
 20
-1142.497748152899
 30
0.0
 41
0.9989753644966571
 10
934.64546561729708
 20
-1142.5092511598241
 30
0.0
 41
1.0
 10
934.53650361728069
 20
-1142.5207541667494
 30
0.0
 41
0.9983190067306209
 10
934.42960480631621
 20
-1142.5447891585361
 30
0.0
 41
1.0
 10
934.42070385470925
 20
-1142.5467904370989
 30
0.0
 41
1.0
 10
934.41180290310217
 20
-1142.5487917156615
 30
0.0
 41
1.0
 10
934.28710218892525
 20
-1142.5768292645732
 30
0.0
 41
0.9985539388303673
 10
934.16613243524841
 20
-1142.6180929406182
 30
0.0
 41
1.0
 10
934.16378700428686
 20
-1142.6188929844345
 30
0.0
 41
1.0
 10
934.16144157332519
 20
-1142.6196930282508
 30
0.0
 41
1.0
 10
934.03578095772582
 20
-1142.6625567919284
 30
0.0
 41
0.9988468746493592
 10
933.91481061542436
 20
-1142.7172748769915
 30
0.0
 41
1.0
 10
933.91162779343665
 20
-1142.7187145515509
 30
0.0
 41
1.0
 10
933.90844497144894
 20
-1142.7201542261105
 30
0.0
 41
1.0
 10
933.7811089851715
 20
-1142.7777516602926
 30
0.0
 41
0.9991322885919013
 10
933.65900840111556
 20
-1142.845746992474
 30
0.0
 41
1.0
 10
933.64140639007053
 20
-1142.8555491944644
 30
0.0
 41
1.0
 10
933.6238043790255
 20
-1142.8653513964548
 30
0.0
 41
1.0
 10
933.52162769796894
 20
-1142.9222515122351
 30
0.0
 41
0.9993860037849071
 10
933.423686693896
 20
-1142.9861675278235
 30
0.0
 41
1.0
 10
933.41806838104367
 20
-1142.9898340225184
 30
0.0
 41
1.0
 10
933.41245006819133
 20
-1142.9935005172133
 30
0.0
 41
1.0
 10
933.32574568982091
 20
-1143.0500835434132
 30
0.0
 41
0.9998821494952946
 10
933.24081931400974
 20
-1143.1093017734888
 30
0.0
 41
1.0
 10
933.15589293819937
 20
-1143.1685200035638
 30
0.0
 41
0.9997976482743735
 10
933.07341730780047
 20
-1143.2311064116018
 30
0.0
 41
1.0
 10
933.058781042992
 20
-1143.2422131013843
 30
0.0
 41
1.0
 10
933.04414477818352
 20
-1143.2533197911669
 30
0.0
 41
1.0
 10
932.93239661816938
 20
-1143.3381195787688
 30
0.0
 41
0.999809163080035
 10
932.82404634014154
 20
-1143.4272199294705
 30
0.0
 41
1.0
 10
932.81104058766459
 20
-1143.4379150299162
 30
0.0
 41
1.0
 10
932.79803483518776
 20
-1143.4486101303619
 30
0.0
 41
1.0
 10
932.66367305220547
 20
-1143.5591006819554
 30
0.0
 41
0.9995035112317203
 10
932.53653717444195
 20
-1143.6778344989705
 30
0.0
 41
1.0
 10
932.52688986405633
 20
-1143.6868442451268
 30
0.0
 41
1.0
 10
932.5172425536706
 20
-1143.695853991283
 30
0.0
 41
1.0
 10
932.39381949090489
 20
-1143.8111203630392
 30
0.0
 41
0.9994630424299603
 10
932.2782110851183
 20
-1143.9342231062769
 30
0.0
 41
1.0
 10
932.27452824634543
 20
-1143.9381446857915
 30
0.0
 41
1.0
 10
932.27084540757244
 20
-1143.9420662653063
 30
0.0
 41
1.0
 10
932.16260267933308
 20
-1144.0573258495135
 30
0.0
 41
0.9995160693750003
 10
932.06173664980236
 20
-1144.1790932673848
 30
0.0
 41
1.0
 10
932.05980292972254
 20
-1144.181427691592
 30
0.0
 41
1.0
 10
932.0578692096426
 20
-1144.183762115799
 30
0.0
 41
1.0
 10
931.96087062027175
 20
-1144.3008606852557
 30
0.0
 41
0.999656147051488
 10
931.87014440160453
 20
-1144.4228834477065
 30
0.0
 41
1.0
 10
931.86398673570352
 20
-1144.4311652367476
 30
0.0
 41
1.0
 10
931.85782906980239
 20
-1144.4394470257887
 30
0.0
 41
1.0
 10
931.77941818293914
 20
-1144.544906210155
 30
0.0
 41
0.9998349055173815
 10
931.70489090100637
 20
-1144.6531447938191
 30
0.0
 41
1.0
 10
931.63036361906825
 20
-1144.7613833774913
 30
0.0
 41
0.9999728109574059
 10
931.55744072316054
 20
-1144.8707093030428
 30
0.0
 41
1.0
 10
931.55612550775049
 20
-1144.8726810725427
 30
0.0
 41
1.0
 10
931.55481029234056
 20
-1144.8746528420427
 30
0.0
 41
1.0
 10
931.47925696559014
 20
-1144.987922306628
 30
0.0
 41
0.9999972147430823
 10
931.4042391552199
 20
-1145.1015471494584
 30
0.0
 41
1.0
 10
931.39926761260404
 20
-1145.1090772379209
 30
0.0
 41
1.0
 10
931.39429606998817
 20
-1145.1166073263835
 30
0.0
 41
1.0
 10
931.3093351743662
 20
-1145.2452923461688
 30
0.0
 41
0.999937197900588
 10
931.22727982495553
 20
-1145.3758492599566
 30
0.0
 41
1.0
 10
931.22377094059834
 20
-1145.3814321880143
 30
0.0
 41
1.0
 10
931.22026205624115
 20
-1145.387015116072
 30
0.0
 41
1.0
 10
931.13118893811259
 20
-1145.5287378859805
 30
0.0
 41
0.9998272025611252
 10
931.047445547233
 20
-1145.6736737627186
 30
0.0
 41
1.0
 10
931.03223037520775
 20
-1145.7000068771777
 30
0.0
 41
1.0
 10
931.01701520318238
 20
-1145.7263399916365
 30
0.0
 41
1.0
 10
930.90284146825081
 20
-1145.9239420972949
 30
0.0
 41
0.9995217214838619
 10
930.80110177869392
 20
-1146.1282244251595
 30
0.0
 41
1.0
 10
930.79345821606216
 20
-1146.1435718748558
 30
0.0
 41
1.0
 10
930.78581465343052
 20
-1146.158919324552
 30
0.0
 41
1.0
 10
930.69890936083789
 20
-1146.3334157826396
 30
0.0
 41
0.9998269762606263
 10
930.6185548945648
 20
-1146.511024069365
 30
0.0
 41
1.0
 10
930.53820042829204
 20
-1146.6886323560902
 30
0.0
 41
0.9998944747389746
 10
930.46303963372657
 20
-1146.8685000817213
 30
0.0
 41
1.0
 10
930.45808596413599
 20
-1146.8803547366374
 30
0.0
 41
1.0
 10
930.4531322945453
 20
-1146.8922093915535
 30
0.0
 41
1.0
 10
930.37248523399069
 20
-1147.0852063315765
 30
0.0
 41
0.9999506734408782
 10
930.29568770508899
 20
-1147.2797671364278
 30
0.0
 41
1.0
 10
930.28108773982001
 20
-1147.3167550582291
 30
0.0
 41
1.0
 10
930.26648777455102
 20
-1147.3537429800303
 30
0.0
 41
1.0
 10
930.21889017618446
 20
-1147.4743279412864
 30
0.0
 41
0.9999912393943761
 10
930.17230373216285
 20
-1147.5953071439799
 30
0.0
 41
1.0
 10
930.12571728814714
 20
-1147.7162863466579
 30
0.0
 41
0.9999927113993192
 10
930.0800559937602
 20
-1147.8376177541406
 30
0.0
 41
1.0
 10
930.06608756235551
 20
-1147.8747347361582
 30
0.0
 41
1.0
 10
930.05211913095081
 20
-1147.9118517181755
 30
0.0
 41
1.0
 10
929.97852097376244
 20
-1148.1074170896718
 30
0.0
 41
0.9999487550954084
 10
929.90889734878886
 20
-1148.3044324548594
 30
0.0
 41
1.0
 10
929.88530373885487
 20
-1148.371195765144
 30
0.0
 41
1.0
 10
929.86171012892078
 20
-1148.4379590754288
 30
0.0
 41
1.0
 10
929.76702449454831
 20
-1148.7058929102591
 30
0.0
 41
0.9999808436942507
 10
929.67566290590366
 20
-1148.9749783415327
 30
0.0
 41
1.0
 10
929.58430131727027
 20
-1149.2440637727736
 30
0.0
 41
0.9999873932902742
 10
929.49564660855356
 20
-1149.5140531277825
 30
0.0
 41
1.0
 10
929.47555425167957
 20
-1149.5752424605494
 30
0.0
 41
1.0
 10
929.45546189480547
 20
-1149.6364317933164
 30
0.0
 41
1.0
 10
929.32662247234339
 20
-1150.0287998138517
 30
0.0
 41
0.9999794883029092
 10
929.20281968737845
 20
-1150.4227860201515
 30
0.0
 41
1.0
 10
929.19166742794755
 20
-1150.4582766303677
 30
0.0
 41
1.0
 10
929.18051516851654
 20
-1150.4937672405838
 30
0.0
 41
1.0
 10
929.0379570046133
 20
-1150.9474399926899
 30
0.0
 41
0.9999982761790297
 10
928.89708456460289
 20
-1151.4016390147967
 30
0.0
 41
1.0
 10
927.30894423203029
 20
-1156.4504087457999
 30
0.0
 41
1.0
 10
925.72080389945768
 20
-1161.4991784768033
 30
0.0
 41
1.0
 10
924.77205328798129
 20
-1161.4991784768033
 30
0.0
 41
1.0
 10
923.82330267650491
 20
-1161.4991784768033
 30
0.0
 41
1.0
 10
927.06158716265804
 20
-1151.1718562768572
 30
0.0
 41
1.0
 10
930.29987164881129
 20
-1140.844534076911
 30
0.0
 41
1.0
  0
LWPOLYLINE
  5
69
100
AcDbEntity
  8
0
370
              15
390
0
  6
Continuous
 62
               7
100
AcDbPolyline
 90
      232
 70
             128
 10
904.59632587498425
 20
-1141.9288769084262
 42
0.0004370800700373
 10
904.54344870090779
 20
-1141.9975435476883
 10
904.50416446978477
 20
-1142.0486506605789
 42
0.0030481992175739
 10
904.37382575265565
 20
-1142.2203723529365
 10
904.33531408091517
 20
-1142.2717591367114
 42
0.0042058245754892
 10
904.13132903024484
 20
-1142.5487648817857
 10
904.07892390774464
 20
-1142.6211977285657
 42
0.0120948898744765
 10
903.78287999097893
 20
-1143.0519473331215
 10
903.68668749186099
 20
-1143.1994280683402
 42
0.0141601263949362
 10
903.38304344493929
 20
-1143.6950974050751
 10
903.34350617750795
 20
-1143.7639413725162
 42
0.0071131081304628
 10
903.13823385427486
 20
-1144.133444171345
 42
0.0068458791002373
 10
902.9433543274389
 20
-1144.5085357348071
 10
902.93654246497408
 20
-1144.5220974485446
 42
0.0064120880292524
 10
902.73840021492265
 20
-1144.9295219234789
 10
902.73086552941277
 20
-1144.9455337801849
 42
0.0058857236446821
 10
902.52811013754786
 20
-1145.3899098912045
 10
902.51993521124712
 20
-1145.4084000448538
 42
0.0053189741893691
 10
902.31123089858204
 20
-1145.8943635187661
 10
902.30248309289823
 20
-1145.915345396968
 42
0.0047503650418229
 10
902.08650936674837
 20
-1146.4475448301753
 10
902.07724111839934
 20
-1146.4710212062855
 42
0.0042071762172182
 10
901.85269373466667
 20
-1147.0541148003686
 10
901.84294433232299
 20
-1147.080080975225
 42
0.0036680086484977
 10
901.60848968900757
 20
-1147.7187163597653
 10
901.59828190916312
 20
-1147.7471648941005
 42
0.0032573142627445
 10
901.35264962319718
 20
-1148.4460175538518
 10
901.28399910235566
 20
-1148.645480637907
 42
0.0026133366648846
 10
900.93555390359779
 20
-1149.6753439215788
 10
900.872297116097
 20
-1149.8655747569721
 42
0.0020592950740474
 10
900.65843404712996
 20
-1150.517678409585
 10
900.65538225596333
 20
-1150.5271148980057
 42
0.0025609928533061
 10
900.45356175448103
 20
-1151.1622601203605
 10
900.45097038735116
 20
-1151.1705624613114
 42
0.0031362356243991
 10
900.26147960167737
 20
-1151.7913253174806
 10
900.25934855875448
 20
-1151.7984666236766
 42
0.0037229918028035
 10
900.08254817182365
 20
-1152.407451925666
 10
900.08086958261492
 20
-1152.4133988158487
 42
0.0043077623709554
 10
899.91712878055216
 20
-1153.0132175476092
 42
0.0047654161822277
 10
899.76430005804025
 20
-1153.6159036364952
 10
899.72983544919703
 20
-1153.7574654136615
 42
0.0112969368443776
 10
899.53397109105424
 20
-1154.6491575742821
 10
899.50596470195683
 20
-1154.7919856203835
 42
0.013005676257199
 10
899.30512745831015
 20
-1155.9789266920284
 10
899.28458770816326
 20
-1156.1230048055038
 42
0.0138721532142232
 10
899.18088470362522
 20
-1157.0298342913311
 10
899.16158921571775
 20
-1157.2533320132511
 42
0.0071254697006615
 10
899.12824256979479
 20
-1157.7165190221035
 10
899.12328159563117
 20
-1157.80252301667
 42
0.0028881799199257
 10
899.10814330234166
 20
-1158.094264726506
 42
0.0060297297137172
 10
899.0982111025661
 20
-1158.3862136626215
 10
899.09714882089884
 20
-1158.4346060345595
 42
0.022952316415856
 10
899.10487984868473
 20
-1158.7573608808375
 10
899.10910562220488
 20
-1158.8177644148502
 42
0.0123673300670616
 10
899.12818426872343
 20
-1159.0188851400285
 42
0.012857767447043
 10
899.15737965912979
 20
-1159.2187829899556
 10
899.16450553251673
 20
-1159.2601118045523
 42
0.028571785376387
 10
899.22899953421245
 20
-1159.5382279558658
 10
899.24266805787863
 20
-1159.5848827253419
 42
0.031628309915651
 10
899.35847863779304
 20
-1159.9038972271687
 10
899.36152732954861
 20
-1159.9108835994944
 42
0.0338984824238197
 10
899.51095904051579
 20
-1160.1984495636834
 10
899.51326776988617
 20
-1160.2022405929602
 42
0.0350228718357741
 10
899.69562806055922
 20
-1160.4592925776362
 10
899.6965133123341
 20
-1160.4603716554002
 42
0.0347476747524966
 10
899.91093799957434
 20
-1160.6875567026204
 42
0.033133770191187
 10
900.15418132532056
 20
-1160.8836853646974
 10
900.15528142383687
 20
-1160.8844580678701
 42
0.0305233319080453
 10
900.42382611940991
 20
-1161.0495862379614
 10
900.4270561639114
 20
-1161.0513102498244
 42
0.0273744481151985
 10
900.71960987548573
 20
-1161.1874483937147
 10
900.72471441062328
 20
-1161.1894919781844
 42
0.0240964406196628
 10
901.04019148626901
 20
-1161.2984757044658
 10
901.04677481547901
 20
-1161.3004004441409
 42
0.0209636179808787
 10
901.38417496813179
 20
-1161.383868592073
 10
901.39180742858025
 20
-1161.3854205050743
 42
0.0181388704692062
 10
901.75012982057876
 20
-1161.4448365982882
 10
901.75841066895691
 20
-1161.4459027821053
 42
0.0156086547586086
 10
902.13659803314579
 20
-1161.4826389686821
 10
902.17979328547779
 20
-1161.4854774711612
 42
0.0137148329024635
 10
902.50746643077161
 20
-1161.4979977264124
 10
902.55340262070911
 20
-1161.4984921595276
 42
0.0051057823885184
 10
902.78954820728984
 20
-1161.4986224139366
 42
0.0052256693316546
 10
903.02564549107444
 20
-1161.4938735894723
 10
903.09587227481791
 20
-1161.4917266234584
 42
0.0161507179048272
 10
903.47160935291924
 20
-1161.4680762531318
 10
903.49162231329228
 20
-1161.4661660578442
 42
0.0101216737832239
 10
903.90564953478167
 20
-1161.4181731274789
 10
903.93970282420969
 20
-1161.4135254306691
 42
0.0245291776398455
 10
904.41649247976136
 20
-1161.3244503525927
 10
904.50131579528636
 20
-1161.3042544322466
 42
0.0143509212558649
 10
904.85794689922443
 20
-1161.2084497984683
 42
0.0156557857036023
 10
905.20816296395299
 20
-1161.0914385826491
 10
905.21566417844633
 20
-1161.0886684208954
 42
0.0170137333631044
 10
905.57226017413097
 20
-1160.9430108060226
 10
905.57936409653519
 20
-1160.9398229704605
 42
0.018310536441182
 10
905.93871376469951
 20
-1160.762487928637
 10
905.94566052934022
 20
-1160.7587374937639
 42
0.0194899958151807
 10
906.30414127031997
 20
-1160.5467585118759
 10
906.31115514966086
 20
-1160.5422331695781
 42
0.020486985295494
 10
906.66516945175636
 20
-1160.2927131544911
 10
906.67243506034185
 20
-1160.2871330891439
 42
0.0212516938556666
 10
907.018424991448
 20
-1159.9972290922512
 10
907.0649416855257
 20
-1159.9547617821556
 42
0.0215248918249256
 10
907.32496785441322
 20
-1159.6959975031614
 10
907.36999758880006
 20
-1159.6471533818046
 42
0.0114578554963889
 10
907.52478974247106
 20
-1159.471330448353
 10
907.53598427844713
 20
-1159.4580116848203
 42
0.0061531305123734
 10
907.66245892445215
 20
-1159.3037221515019
 42
0.0006325587126004
 10
907.78683740863642
 20
-1159.1477187757853
 10
907.80987754365538
 20
-1159.1187452551669
 42
0.0041897761560682
 10
907.97833294764951
 20
-1158.9032258790774
 10
908.0367950675203
 20
-1158.8271245321198
 42
0.009299388003935
 10
908.31340699474242
 20
-1158.4528457682381
 10
908.39580148794482
 20
-1158.3369087646647
 42
0.0159321727087168
 10
908.7424079705853
 20
-1157.8147345439113
 10
908.78676410597097
 20
-1157.7430549796668
 42
0.0085547317021902
 10
909.02127587130008
 20
-1157.3491800304366
 42
0.0084601156891101
 10
909.2422520487487
 20
-1156.9475531813925
 10
909.25036752257256
 20
-1156.9321934991315
 42
0.0081429654284728
 10
909.47361679300684
 20
-1156.4924719865971
 10
909.48247695719408
 20
-1156.4742931445712
 42
0.0076574581327635
 10
909.70888446776291
 20
-1155.9911102693138
 10
909.71836410848448
 20
-1155.9700457910153
 42
0.007068272420115
 10
909.94880901629551
 20
-1155.4380084862237
 10
909.95879930027297
 20
-1155.4140192972222
 42
0.0064559514446888
 10
910.19413250845014
 20
-1154.8277070307149
 10
910.20454186661959
 20
-1154.8007721052613
 42
0.0058311413908231
 10
910.44558860338225
 20
-1154.1547400108777
 10
910.45634368076992
 20
-1154.1248556697169
 42
0.0052312425818168
 10
910.70392495880992
 20
-1153.413653255885
 10
910.71496879519054
 20
-1153.3808265438129
 42
0.0046680544796336
 10
910.9698972229213
 20
-1152.5990002280698
 10
911.01188937296979
 20
-1152.4660169907622
 42
0.0041666856444407
 10
911.21517538536364
 20
-1151.8030482157603
 10
911.25283782602662
 20
-1151.6764671081094
 42
0.001517097515421
 10
911.37402440444043
 20
-1151.2645987566129
 42
-0.0004887993113905
 10
911.49436417760489
 20
-1150.8524803444298
 10
911.57084143505858
 20
-1150.5915229586299
 42
0.0002583378927582
 10
911.84405600512594
 20
-1149.6574662554403
 10
911.92582885470006
 20
-1149.3773669958657
 42
0.0006636169672675
 10
912.11969661471085
 20
-1148.7100140722807
 10
912.12479326907135
 20
-1148.692382489354
 42
0.0010589131324704
 10
912.30624196997451
 20
-1148.0596511463518
 10
912.311224040448
 20
-1148.0421382393565
 42
0.0015655524460286
 10
912.47949424763783
 20
-1147.4435215601309
 10
912.4843244480553
 20
-1147.426129401186
 42
0.00216404404803
 10
912.63861442003872
 20
-1146.8611023831768
 10
912.64324863947706
 20
-1146.8438376531515
 42
0.002876387185357
 10
912.78276435752173
 20
-1146.311869702336
 10
912.78715022168694
 20
-1146.2947457241894
 42
0.0037310511942088
 10
912.91110691352583
 20
-1145.7952981301578
 10
912.91518213381391
 20
-1145.7783378589161
 42
0.0047652197768536
 10
913.02280603432325
 20
-1145.3108600906071
 10
913.02649663364787
 20
-1145.2941005354512
 42
0.0060276699303197
 10
913.11702673280024
 20
-1144.8580247403129
 10
913.12024542308882
 20
-1144.8415235260063
 42
0.0075824337760871
 10
913.19293473250491
 20
-1144.4362563615775
 10
913.19558010988521
 20
-1144.4201014141267
 42
0.0095130624605319
 10
913.24969534551633
 20
-1144.0450120610553
 10
913.25668156939855
 20
-1143.9890785029424
 42
0.012105465322696
 10
913.28327289997685
 20
-1143.7241826744648
 10
913.28413938973608
 20
-1143.7127792315396
 42
0.0069050827384208
 10
913.29922820777415
 20
-1143.4698380046916
 10
913.30036350744285
 20
-1143.4463117476432
 42
0.0169063976707214
 10
913.30319078642287
 20
-1143.2501190203461
 10
913.30202013489156
 20
-1143.1897832589952
 42
0.0052007732905069
 10
913.29976668629865
 20
-1143.1141898688447
 42
0.0054038123296879
 10
913.27980317445986
 20
-1142.9941715728351
 10
913.27471731858941
 20
-1142.9655130862536
 42
0.0112050460473351
 10
913.23933295653035
 20
-1142.7891866479124
 10
913.22150799449014
 20
-1142.7096450611939
 42
0.0240764468009334
 10
913.13061062834436
 20
-1142.3794080256937
 10
913.11205186553093
 20
-1142.3227878606997
 42
0.0256812331834335
 10
912.968688945341
 20
-1141.9510636544414
 10
912.96327951951946
 20
-1141.9389323194514
 42
0.026836050121676
 10
912.79385227866976
 20
-1141.6079391854307
 10
912.78831587103434
 20
-1141.5984195151177
 42
0.0274670231729367
 10
912.59611489462145
 20
-1141.306132140201
 10
912.59073359465924
 20
-1141.2988529926602
 42
0.0275035967098132
 10
912.37916071509699
 20
-1141.0433371023557
 10
912.37409121413134
 20
-1141.0378580147262
 42
0.0269557673522201
 10
912.14668767069088
 20
-1140.8172157287631
 10
912.1419446129089
 20
-1140.8130857743029
 42
0.0259124802206829
 10
911.9023897814775
 20
-1140.6253952471498
 10
911.89785893629551
 20
-1140.6222097448194
 42
0.0245162153005547
 10
911.64994258320075
 20
-1140.4654767357092
 10
911.64541603687724
 20
-1140.4629165385088
 42
0.0229282588842202
 10
911.39299648004919
 20
-1140.3350483460094
 10
911.38821598621303
 20
-1140.3328960462477
 42
0.021298413570131
 10
911.13517803375066
 20
-1140.2316971290052
 10
911.12987374878333
 20
-1140.229833566246
 42
0.0197555462347411
 10
910.88009541105816
 20
-1140.1530181482804
 42
0.0183511896789362
 10
910.62516668559556
 20
-1140.0954352413148
 10
910.53880148887163
 20
-1140.0792324509296
 42
0.0338057877144387
 10
910.25329413961174
 20
-1140.0454240457893
 10
910.16228873457169
 20
-1140.040844390528
 42
0.009199052449074
 10
910.0564416259358
 20
-1140.037468534606
 42
0.0028333980789336
 10
909.95052770994016
 20
-1140.0366404270894
 10
909.94961225689349
 20
-1140.0366384572653
 42
-0.0023619827804951
 10
909.84186624179608
 20
-1140.0358976161867
 10
909.80546107161172
 20
-1140.0354753097236
 42
0.000882459847429
 10
909.62490508166582
 20
-1140.0336995314844
 10
909.58104364935593
 20
-1140.0333455699597
 42
0.003813266576387
 10
909.31276075348512
 20
-1140.033226633893
 10
909.29622709868363
 20
-1140.0333454000368
 42
0.0060665569335534
 10
908.9949466070974
 20
-1140.0391656994575
 10
908.98069627506698
 20
-1140.0396140074251
 42
0.0080356953336687
 10
908.65123755872389
 20
-1140.0552817294922
 10
908.6391675436405
 20
-1140.0560503124325
 42
0.0098996399105952
 10
908.28640445898736
 20
-1140.0855355416309
 10
908.27635874961493
 20
-1140.0865758378288
 42
0.0117740981366413
 10
907.90520189126732
 20
-1140.1338680853585
 10
907.89697919478363
 20
-1140.1351132019295
 42
0.01374352151384
 10
907.51239037529592
 20
-1140.2042101754919
 10
907.50573333617513
 20
-1140.2055960717248
 42
0.0158359869388291
 10
907.11273624237162
 20
-1140.3004881602058
 10
907.1073230555055
 20
-1140.301978101076
 42
0.0180554124029835
 10
906.71100801089278
 20
-1140.426616117315
 10
906.70645122280973
 20
-1140.4282321535811
 42
0.0203657431285382
 10
906.31197370499672
 20
-1140.5864924950974
 10
906.30783016599105
 20
-1140.5883541165385
 42
0.0226819684657288
 10
905.92039410978555
 20
-1140.7839966952108
 10
905.91619431876927
 20
-1140.7863622871296
 42
0.024863498460645
 10
905.54101237758812
 20
-1141.0229889330765
 10
905.49281744880375
 20
-1141.0568459749024
 42
0.0267044190884283
 10
905.21852475188757
 20
-1141.2722863507706
 42
0.0139303002197481
 10
904.96235758595094
 20
-1141.5095251916803
 10
904.95750420022785
 20
-1141.5142778545426
 42
0.028346096344563
 10
904.71343160599827
 20
-1141.7820085149904
 10
904.6737631008441
 20
-1141.8308100924608
 42
0.0070695364819168
 10
904.59632587498425
 20
-1141.9288769084262
 42
0.0070695364819168
  0
LWPOLYLINE
  5
6A
100
AcDbEntity
  8
0
370
              15
390
0
  6
Continuous
 62
               7
100
AcDbPolyline
 90
      226
 70
             128
 10
901.06750543773785
 20
-1157.6504657146102
 42
-0.0026277636563829
 10
901.06742755393793
 20
-1157.5836937888059
 10
901.06764491216984
 20
-1157.5305385714241
 42
-0.0088680296731914
 10
901.07142152846279
 20
-1157.3575227890244
 10
901.07376788757529
 20
-1157.2982427635675
 42
-0.007738170561171
 10
901.0898139983392
 20
-1157.0069822677585
 10
901.09068190951155
 20
-1156.9946940340842
 42
-0.006887253052999
 10
901.11731398926122
 20
-1156.6794722819993
 10
901.11851821344578
 20
-1156.6672313029962
 42
-0.0062130021488426
 10
901.15611193027428
 20
-1156.3283616117519
 10
901.15761583380868
 20
-1156.3161877398413
 42
-0.0056726929669155
 10
901.20653769331136
 20
-1155.9539925177255
 10
901.20831113895542
 20
-1155.9418987174827
 42
-0.0052341884493973
 10
901.26892172521252
 20
-1155.5567054619819
 10
901.27093971399199
 20
-1155.5447005319722
 42
-0.0049768450170933
 10
901.34367839541903
 20
-1155.1368559645359
 10
901.36792741014017
 20
-1155.0083079815336
 42
-0.0089029805627792
 10
901.50500826193331
 20
-1154.3465325341185
 10
901.53775363725345
 20
-1154.2015011035878
 42
-0.0080318257100491
 10
901.76730225159281
 20
-1153.2557914717397
 10
901.77928717804241
 20
-1153.2096608365441
 42
-0.0074265721320057
 10
902.06329871689059
 20
-1152.1795962581698
 10
902.08317826000939
 20
-1152.1114621975728
 42
-0.0069711922701737
 10
902.41048283851569
 20
-1151.045194457246
 10
902.47043478562296
 20
-1150.8591730988701
 42
-0.0052070422891838
 10
902.69986001088046
 20
-1150.1719010218442
 10
902.71714120306979
 20
-1150.1218737411775
 42
-0.0009167004447333
 10
902.92023309034221
 20
-1149.5374178930729
 42
-0.0025162726942414
 10
903.1273307206061
 20
-1148.9543766289066
 10
903.16455533240571
 20
-1148.8512270830174
 42
-0.0028212681457336
 10
903.41273125137332
 20
-1148.1754964508341
 10
903.42256201412954
 20
-1148.1491890061423
 42
-0.0031964916822847
 10
903.65885427178625
 20
-1147.5289842440302
 10
903.66848872578259
 20
-1147.5041742538936
 42
-0.0036281836451334
 10
903.89359468688644
 20
-1146.9367335729939
 10
903.9030330970503
 20
-1146.9134361414754
 42
-0.0041269166829974
 10
904.11765079370309
 20
-1146.3959952455127
 10
904.15028375012321
 20
-1146.3191167991531
 42
-0.0047472213056477
 10
904.30732855567749
 20
-1145.9586953312682
 10
904.31422263687284
 20
-1145.9432747339649
 42
-0.0025651659996559
 10
904.46258067073586
 20
-1145.6159466781878
 42
-0.0057144634987555
 10
904.61633036451383
 20
-1145.2911370048116
 10
904.64436106991184
 20
-1145.233628622424
 42
-0.0065388068373659
 10
904.82782809764819
 20
-1144.8693961257661
 10
904.83628655342
 20
-1144.8531365464094
 42
-0.0074510843023083
 10
905.01246879930454
 20
-1144.5264482652738
 10
905.02064846983296
 20
-1144.5118074880097
 42
-0.0084648979860306
 10
905.19028232293567
 20
-1144.2198984770439
 10
905.19813844942382
 20
-1144.206891485393
 42
-0.0095638542805224
 10
905.36197389701795
 20
-1143.9470026134145
 10
905.36944884068544
 20
-1143.9356332519656
 42
-0.0107191626810133
 10
905.52825042107725
 20
-1143.7050220174151
 10
905.53526715480825
 20
-1143.6952859250505
 42
-0.0118458573903881
 10
905.68981525332083
 20
-1143.4912137297397
 42
-0.0129184518192989
 10
905.85426787691836
 20
-1143.2950532135737
 10
905.88441264928611
 20
-1143.2609271346691
 42
-0.0217742579635611
 10
906.06102497162078
 20
-1143.0777203644197
 10
906.07177051608392
 20
-1143.0675035312142
 42
-0.0097266568650406
 10
906.23782813493699
 20
-1142.9156559567793
 42
-0.018772090571699
 10
906.41217571082905
 20
-1142.7735871033883
 10
906.44288170150253
 20
-1142.7504280209926
 42
-0.0179428207517514
 10
906.67530242149678
 20
-1142.5878758438823
 10
906.67895474840714
 20
-1142.5855119089981
 42
-0.0170047877699453
 10
906.91471838594293
 20
-1142.444051394843
 10
906.91850137469044
 20
-1142.4419530898062
 42
-0.0160190788363567
 10
907.15540992232479
 20
-1142.3203017878186
 42
-0.015110286149134
 10
907.39944170477168
 20
-1142.213619011764
 10
907.45182820698324
 20
-1142.1925788788694
 42
-0.027194544188635
 10
907.81049076604165
 20
-1142.0707140681634
 10
907.8795555665323
 20
-1142.0513645268964
 42
-0.0237596594021453
 10
908.29535241355211
 20
-1141.9559138149157
 10
908.3634152672787
 20
-1141.9436591267895
 42
-0.0213715440556538
 10
908.64929019872784
 20
-1141.9047120952789
 10
908.70943736494382
 20
-1141.8991223805781
 42
-0.0101465655820688
 10
908.87692989693994
 20
-1141.886978837314
 10
908.88627028313783
 20
-1141.8864919223167
 42
-0.0100375910882345
 10
909.03542438370073
 20
-1141.8817161043914
 10
909.04568365337718
 20
-1141.8815936653771
 42
-0.0103625633384101
 10
909.17439164803591
 20
-1141.8827250989036
 10
909.19665729930432
 20
-1141.8833824573685
 42
-0.0115689250234906
 10
909.28070803683079
 20
-1141.8878119636138
 42
-0.0072438037434433
 10
909.36454631627225
 20
-1141.8954011633632
 10
909.38134682574275
 20
-1141.8971677060872
 42
-0.0217917313130345
 10
909.49791658905724
 20
-1141.9145875988083
 10
909.56351667962474
 20
-1141.9273342072229
 42
-0.0332943556755577
 10
909.7679088446514
 20
-1141.9813744985299
 10
909.7980814132012
 20
-1141.9915425756483
 42
-0.0184824084806604
 10
909.93658646966696
 20
-1142.0439935910349
 42
-0.0198002050700385
 10
910.07066081016603
 20
-1142.1068776512341
 10
910.07254744754323
 20
-1142.107855438114
 42
-0.0212242342969236
 10
910.20468638994623
 20
-1142.1836181769077
 10
910.20650168548855
 20
-1142.1847639791154
 42
-0.0226090605796727
 10
910.33500558671119
 20
-1142.2742436226806
 10
910.33685002844777
 20
-1142.2756558756673
 42
-0.0238457052220533
 10
910.46003210974118
 20
-1142.37965177153
 10
910.46198483829971
 20
-1142.3814666492958
 42
-0.0248160564147035
 10
910.57818634559999
 20
-1142.5007412505042
 10
910.58028997900237
 20
-1142.503126584209
 42
-0.0254109591447604
 10
910.68789519686857
 20
-1142.6384149701735
 10
910.6901432187824
 20
-1142.6415565185739
 42
-0.0255528488295252
 10
910.78758989757898
 20
-1142.7935835728074
 10
910.78992099749576
 20
-1142.797665184416
 42
-0.0252146793224302
 10
910.87570202350514
 20
-1142.9671674304136
 10
910.87800426266244
 20
-1142.9723495123258
 42
-0.0244265635952732
 10
910.95065895642369
 20
-1143.1600960843718
 10
910.95990535789247
 20
-1143.1879615027108
 42
-0.0231319612898874
 10
911.00582813688436
 20
-1143.3512625495118
 42
-0.0112130424360945
 10
911.04046415942207
 20
-1143.5174661496967
 10
911.04166668453513
 20
-1143.5239627365877
 42
-0.0210527881240268
 10
911.06735315990591
 20
-1143.7050183820293
 10
911.07086375472772
 20
-1143.7404239305763
 42
-0.0190029892426093
 10
911.08630522827229
 20
-1143.9939597768457
 10
911.08711520471638
 20
-1144.0294353912177
 42
-0.0137974553655675
 10
911.08556635188063
 20
-1144.3544667979586
 10
911.08472089692532
 20
-1144.380585542543
 42
-0.0081336634215294
 10
911.06986156170274
 20
-1144.6859330101431
 42
-0.0073526923572111
 10
911.04555302832819
 20
-1144.9906812544275
 10
911.04429160454538
 20
-1145.0040179290943
 42
-0.0066886138692451
 10
911.00855601849867
 20
-1145.3346039725932
 10
911.00689892902892
 20
-1145.3482255915828
 42
-0.0061359187353323
 10
910.95904832697681
 20
-1145.7049895716912
 10
910.95701082590517
 20
-1145.7188843745121
 42
-0.0056698610065946
 10
910.89636049513956
 20
-1146.1021629433426
 10
910.89395506181518
 20
-1146.1163220625808
 42
-0.0052721077275299
 10
910.81982286101379
 20
-1146.5264494022676
 10
910.81705971217377
 20
-1146.5408660376447
 42
-0.0049289272174686
 10
910.72876559407405
 20
-1146.9781745487658
 10
910.72565309939114
 20
-1146.9928434015831
 42
-0.0047415956712874
 10
910.62241510785907
 20
-1147.4576401589923
 10
910.5876468974991
 20
-1147.6074472543769
 42
-0.0084404470903108
 10
910.39763045392783
 20
-1148.3676712789058
 10
910.39150376594159
 20
-1148.3905354030614
 42
-0.0039635940259831
 10
910.17005008165859
 20
-1149.1915242673053
 10
910.15667328647805
 20
-1149.2384558839008
 42
-0.0072475040836294
 10
909.88922639861448
 20
-1150.1276756002926
 10
909.81901407179271
 20
-1150.3494159502468
 42
-0.0051345458828302
 10
909.5322546997287
 20
-1151.223741138074
 10
909.51072843294389
 20
-1151.2871674052549
 42
-0.0019150016601489
 10
909.2551950260945
 20
-1152.0307165254301
 10
909.24872742170942
 20
-1152.0493039903192
 42
-0.0021524362753622
 10
909.00024937063449
 20
-1152.7536298120594
 10
908.99103894993755
 20
-1152.7793833903622
 42
-0.0024331286818731
 10
908.75478369090206
 20
-1153.4299826984793
 10
908.74573573834209
 20
-1153.4545260048592
 42
-0.002744972178572
 10
908.52112116751607
 20
-1154.053655883758
 10
908.51223116013307
 20
-1154.076978473586
 42
-0.0031083229769851
 10
908.29868867351388
 20
-1154.6269025111899
 10
908.28995254182769
 20
-1154.6489922270746
 42
-0.0035311343280085
 10
908.08691135624645
 20
-1155.1519753527778
 10
908.07832601709583
 20
-1155.1728180762952
 42
-0.0040245640950308
 10
907.88521421330438
 20
-1155.6311273988804
 10
907.87677809970262
 20
-1155.6507067669495
 42
-0.0046015135852397
 10
907.69302180653756
 20
-1156.0666117965948
 10
907.68473562871282
 20
-1156.084908936039
 42
-0.0052768638274366
 10
907.50975810975365
 20
-1156.4606818203172
 10
907.5016258991227
 20
-1156.4776751588688
 42
-0.0060672675641825
 10
907.33484628636074
 20
-1156.8155907819746
 10
907.32687680588538
 20
-1156.8312560409597
 42
-0.0069904648875148
 10
907.16770841187781
 20
-1157.1335918476357
 10
907.15991701226631
 20
-1157.1479023968643
 42
-0.0080637022763712
 10
907.00776515192115
 20
-1157.416937700016
 10
907.00017611929297
 20
-1157.4298655656114
 42
-0.0093006455665297
 10
906.85443544275836
 20
-1157.6678799641199
 10
906.84708477601885
 20
-1157.6793979332865
 42
-0.0107060778052431
 10
906.7071362325762
 20
-1157.888668250672
 10
906.70007446429975
 20
-1157.8987537932335
 42
-0.0122723111411047
 10
906.56528074609855
 20
-1158.081547122727
 10
906.56495452254558
 20
-1158.0819675105352
 42
-0.0141836319628715
 10
906.42137291957033
 20
-1158.2565372683662
 10
906.41442516392328
 20
-1158.2645122686254
 42
-0.0175957477212524
 10
906.27451899588368
 20
-1158.4141331570356
 42
-0.0080466359668728
 10
906.12705523084855
 20
-1158.5564556851914
 10
906.08102068633605
 20
-1158.599476123278
 42
-0.0269600260395675
 10
905.82774044035352
 20
-1158.8117993817868
 10
905.76117330406089
 20
-1158.8617507964075
 42
-0.0178362839758901
 10
905.52122881440027
 20
-1159.0287687226635
 10
905.51398384339655
 20
-1159.0334372348705
 42
-0.0174650732648243
 10
905.2776476459585
 20
-1159.1742981998275
 42
-0.0169240130160951
 10
905.03218140009892
 20
-1159.298590459606
 10
904.98619524454307
 20
-1159.3199524151721
 42
-0.0318883036841081
 10
904.63584438892201
 20
-1159.4562907246825
 10
904.56747885375717
 20
-1159.477991345158
 42
-0.0284435909899725
 10
904.19142872746727
 20
-1159.5742087806325
 10
904.15627056696576
 20
-1159.5811023764616
 42
-0.0243909341008996
 10
903.84282710604975
 20
-1159.626823407491
 10
903.79254637928307
 20
-1159.6316689543924
 42
-0.0196639292931326
 10
903.57695080175131
 20
-1159.6439172399062
 10
903.52512673058823
 20
-1159.6448205006429
 42
-0.0100501510681646
 10
903.41270344892359
 20
-1159.6445201022898
 10
903.38104358759097
 20
-1159.6437990304046
 42
-0.0019752031155481
 10
903.33195125089821
 20
-1159.6424868701947
 10
903.32919094766658
 20
-1159.6424021783682
 42
0.006537875200757
 10
903.28561437292137
 20
-1159.6416352871536
 42
-0.0167974694633322
 10
903.24208354998916
 20
-1159.6399753886276
 10
903.23800421072747
 20
-1159.6396823777327
 42
-0.0081283276274008
 10
903.18644441299239
 20
-1159.6351353840951
 10
903.17470483911029
 20
-1159.6339074665163
 42
-0.0126703440182261
 10
903.09998654331741
 20
-1159.6241726754449
 10
903.07719867564015
 20
-1159.6206144195296
 42
-0.0117852088438738
 10
902.95765968981186
 20
-1159.5990514243733
 10
902.90227923804468
 20
-1159.5877078841379
 42
-0.0251774592296002
 10
902.67543519903597
 20
-1159.5292098747045
 10
902.63071600918681
 20
-1159.5152430553699
 42
-0.0146525199894596
 10
902.44432302164728
 20
-1159.4509765281714
 42
-0.0166929435860539
 10
902.26234536552317
 20
-1159.3751693951181
 10
902.25768873424749
 20
-1159.3730444945029
 42
-0.0191684358433095
 10
902.07250510299798
 20
-1159.2798084107128
 10
902.06917251724121
 20
-1159.2779671631597
 42
-0.0221181781806163
 10
901.8858622133373
 20
-1159.1658336647877
 10
901.88351240933059
 20
-1159.1642493667978
 42
-0.0254984685375912
 10
901.70722225894531
 20
-1159.0318382168284
 10
901.68474011124374
 20
-1159.0130859078924
 42
-0.0292492648804605
 10
901.55997117240031
 20
-1158.8959931082488
 42
-0.0159048957498739
 10
901.44613117494964
 20
-1158.767973116649
 10
901.44481238437083
 20
-1158.7663915036296
 42
-0.0343813379558831
 10
901.34217512274449
 20
-1158.6245201778599
 10
901.31068359138328
 20
-1158.5740167857653
 42
-0.0369117275701862
 10
901.22479108948653
 20
-1158.4105395448178
 42
-0.0191751379902623
 10
901.1575977039297
 20
-1158.238134938812
 10
901.15583438017006
 20
-1158.2330415941369
 42
-0.0378178042228332
 10
901.10603966138569
 20
-1158.0441008180551
 10
901.100044365656
 20
-1158.0115401998614
 42
-0.0184846046466747
 10
901.07932716636105
 20
-1157.8697873793137
 42
-0.0179866351308244
 10
901.06899416128738
 20
-1157.7268965662311
 10
901.06893771884165
 20
-1157.72533887962
 42
-0.0085497186138666
 10
901.06750543773785
 20
-1157.6504657146102
 42
-0.0085497186138666
  0
ENDBLK
  5
6B
100
AcDbEntity
  8
template
390
0
100
AcDbBlockEnd
  0
BLOCK
  5
6C
100
AcDbEntity
  8
notes
390
0
100
AcDbBlockBegin
  2
*D3
 70
               1
 10
0.0
 20
0.0
 30
0.0
  3
*D3
  1

  0
LINE
  5
6D
100
AcDbEntity
  8
0
370
              -2
390
0
  6
Continuous
 62
               0
100
AcDbLine
 10
-691.04805109428617
 20
399.29905543528935
 30
0.0
 11
-691.04805109428617
 21
312.91742051786264
 31
0.0
  0
LINE
  5
6E
100
AcDbEntity
  8
0
370
              -2
390
0
  6
Continuous
 62
               0
100
AcDbLine
 10
-201.04805109428614
 20
399.29905543528935
 30
0.0
 11
-201.04805109428614
 21
312.91742051786264
 31
0.0
  0
LINE
  5
6F
100
AcDbEntity
  8
0
370
              -2
390
0
  6
Continuous
 62
               0
100
AcDbLine
 10
-691.04805109428617
 20
312.91742051786264
 30
0.0
 11
-201.04805109428614
 21
312.91742051786264
 31
0.0
  0
CIRCLE
  5
70
102
{ACAD_REACTORS
330
71
102
}
100
AcDbEntity
  8
0
370
              -2
390
0
  6
Continuous
 62
               0
100
AcDbCircle
 10
-691.04805109428617
 20
312.91742051786264
 30
0.0
 40
1.9998779296875
  0
HATCH
  5
71
100
AcDbEntity
  8
0
370
              -2
390
0
  6
Continuous
 62
               0
100
AcDbHatch
 10
0.0
 20
0.0
 30
0.0
210
0.0
220
0.0
230
1.0
  2
SOLID
 70
               1
 71
               1
 91
        1
 92
        1
 93
        1
 72
               2
 10
-691.04805109428617
 20
312.91742051786264
 40
1.9998779296875
 50
0.0
 51
360.0
 73
               0
 97
        1
330
70
 75
               0
 76
               1
 98
        1
 10
0.0
 20
0.0
  0
CIRCLE
  5
72
102
{ACAD_REACTORS
330
73
102
}
100
AcDbEntity
  8
0
370
              -2
390
0
  6
Continuous
 62
               0
100
AcDbCircle
 10
-201.04805109428614
 20
312.91742051786264
 30
0.0
 40
1.9998779296875
  0
HATCH
  5
73
100
AcDbEntity
  8
0
370
              -2
390
0
  6
Continuous
 62
               0
100
AcDbHatch
 10
0.0
 20
0.0
 30
0.0
210
0.0
220
0.0
230
1.0
  2
SOLID
 70
               1
 71
               1
 91
        1
 92
        1
 93
        1
 72
               2
 10
-201.04805109428614
 20
312.91742051786264
 40
1.9998779296875
 50
0.0
 51
360.0
 73
               0
 97
        1
330
72
 75
               0
 76
               1
 98
        1
 10
0.0
 20
0.0
  0
MTEXT
  5
74
100
AcDbEntity
  8
0
390
0
 62
               0
100
AcDbMText
 10
-469.8605527764617
 20
346.79503770536269
 30
0.0
 40
24.432617187500004
 41
0.0
 71
               1
 72
               1
  1
490
  7
ＭＳ ゴシック
 73
               1
 44
0.7828267384257843
  0
POINT
  5
75
100
AcDbEntity
  8
Defpoints
370
               0
390
0
 62
               0
100
AcDbPoint
 10
-201.04805109428614
 20
424.29905543528935
 30
0.0
  0
POINT
  5
76
100
AcDbEntity
  8
Defpoints
370
               0
390
0
 62
               0
100
AcDbPoint
 10
-691.04805109428617
 20
424.29905543528935
 30
0.0
  0
POINT
  5
77
100
AcDbEntity
  8
Defpoints
370
               0
390
0
 62
               0
100
AcDbPoint
 10
-691.04805109428617
 20
312.91742051786264
 30
0.0
  0
ENDBLK
  5
78
100
AcDbEntity
  8
notes
390
0
100
AcDbBlockEnd
  0
BLOCK
  5
79
100
AcDbEntity
  8
notes
390
0
100
AcDbBlockBegin
  2
*D4
 70
               1
 10
0.0
 20
0.0
 30
0.0
  3
*D4
  1

  0
LINE
  5
7A
100
AcDbEntity
  8
0
370
              -2
390
0
  6
Continuous
 62
               0
100
AcDbLine
 10
583.97966066289018
 20
-393.03383926044273
 30
0.0
 11
589.85466066289018
 21
-393.03383926044273
 31
0.0
  0
LINE
  5
7B
100
AcDbEntity
  8
0
370
              -2
390
0
  6
Continuous
 62
               0
100
AcDbLine
 10
583.97966066289018
 20
-528.03383926044307
 30
0.0
 11
589.85466066289018
 21
-528.03383926044307
 31
0.0
  0
LINE
  5
7C
100
AcDbEntity
  8
0
370
              -2
390
0
  6
Continuous
 62
               0
100
AcDbLine
 10
589.85466066289018
 20
-393.03383926044273
 30
0.0
 11
589.85466066289018
 21
-226.00757948213598
 31
0.0
  0
LINE
  5
7D
100
AcDbEntity
  8
0
370
              -2
390
0
  6
Continuous
 62
               0
100
AcDbLine
 10
589.85466066289018
 20
-393.03383926044273
 30
0.0
 11
589.85466066289018
 21
-528.03383926044307
 31
0.0
  0
CIRCLE
  5
7E
102
{ACAD_REACTORS
330
7F
102
}
100
AcDbEntity
  8
0
370
              -2
390
0
  6
Continuous
 62
               0
100
AcDbCircle
 10
589.85466066289018
 20
-393.03383926044273
 30
0.0
 40
1.9998779296875
  0
HATCH
  5
7F
100
AcDbEntity
  8
0
370
              -2
390
0
  6
Continuous
 62
               0
100
AcDbHatch
 10
0.0
 20
0.0
 30
0.0
210
0.0
220
0.0
230
1.0
  2
SOLID
 70
               1
 71
               1
 91
        1
 92
        1
 93
        1
 72
               2
 10
589.85466066289018
 20
-393.03383926044273
 40
1.9998779296875
 50
0.0
 51
360.0
 73
               0
 97
        1
330
7E
 75
               0
 76
               1
 98
        1
 10
0.0
 20
0.0
  0
CIRCLE
  5
80
102
{ACAD_REACTORS
330
81
102
}
100
AcDbEntity
  8
0
370
              -2
390
0
  6
Continuous
 62
               0
100
AcDbCircle
 10
589.85466066289018
 20
-528.03383926044307
 30
0.0
 40
1.9998779296875
  0
HATCH
  5
81
100
AcDbEntity
  8
0
370
              -2
390
0
  6
Continuous
 62
               0
100
AcDbHatch
 10
0.0
 20
0.0
 30
0.0
210
0.0
220
0.0
230
1.0
  2
SOLID
 70
               1
 71
               1
 91
        1
 92
        1
 93
        1
 72
               2
 10
589.85466066289018
 20
-528.03383926044307
 40
1.9998779296875
 50
0.0
 51
360.0
 73
               0
 97
        1
330
80
 75
               0
 76
               1
 98
        1
 10
0.0
 20
0.0
  0
MTEXT
  5
82
100
AcDbEntity
  8
0
390
0
 62
               0
100
AcDbMText
 10
555.97704347539013
 20
-368.88257948213595
 30
0.0
 40
24.432617187500004
 41
0.0
 71
               1
 72
               1
  1
135(深さ)
  7
ＭＳ ゴシック
 11
0.0
 21
1.0
 31
0.0
 73
               1
 44
0.7828267384257843
  0
POINT
  5
83
100
AcDbEntity
  8
Defpoints
370
               0
390
0
 62
               0
100
AcDbPoint
 10
608.97966066289018
 20
-528.03383926044307
 30
0.0
  0
POINT
  5
84
100
AcDbEntity
  8
Defpoints
370
               0
390
0
 62
               0
100
AcDbPoint
 10
608.97966066289018
 20
-393.03383926044273
 30
0.0
  0
POINT
  5
85
100
AcDbEntity
  8
Defpoints
370
               0
390
0
 62
               0
100
AcDbPoint
 10
589.85466066289018
 20
-393.03383926044273
 30
0.0
  0
ENDBLK
  5
86
100
AcDbEntity
  8
notes
390
0
100
AcDbBlockEnd
  0
BLOCK
  5
87
100
AcDbEntity
  8
notes
390
0
100
AcDbBlockBegin
  2
*D5
 70
               1
 10
0.0
 20
0.0
 30
0.0
  3
*D5
  1

  0
LINE
  5
88
100
AcDbEntity
  8
0
370
              -2
390
0
  6
Continuous
 62
               0
100
AcDbLine
 10
768.97509013438219
 20
-373.03383926044273
 30
0.0
 11
768.97509013438219
 21
-291.88257948213595
 31
0.0
  0
LINE
  5
89
100
AcDbEntity
  8
0
370
              -2
390
0
  6
Continuous
 62
               0
100
AcDbLine
 10
698.97509013438219
 20
-387.92695953763376
 30
0.0
 11
698.97509013438219
 21
-291.88257948213595
 31
0.0
  0
LINE
  5
8A
100
AcDbEntity
  8
0
370
              -2
390
0
  6
Continuous
 62
               0
100
AcDbLine
 10
768.97509013438219
 20
-291.88257948213595
 30
0.0
 11
698.97509013438219
 21
-291.88257948213595
 31
0.0
  0
CIRCLE
  5
8B
102
{ACAD_REACTORS
330
8C
102
}
100
AcDbEntity
  8
0
370
              -2
390
0
  6
Continuous
 62
               0
100
AcDbCircle
 10
768.97509013438219
 20
-291.88257948213595
 30
0.0
 40
1.9998779296875
  0
HATCH
  5
8C
100
AcDbEntity
  8
0
370
              -2
390
0
  6
Continuous
 62
               0
100
AcDbHatch
 10
0.0
 20
0.0
 30
0.0
210
0.0
220
0.0
230
1.0
  2
SOLID
 70
               1
 71
               1
 91
        1
 92
        1
 93
        1
 72
               2
 10
768.97509013438219
 20
-291.88257948213595
 40
1.9998779296875
 50
0.0
 51
360.0
 73
               0
 97
        1
330
8B
 75
               0
 76
               1
 98
        1
 10
0.0
 20
0.0
  0
CIRCLE
  5
8D
102
{ACAD_REACTORS
330
8E
102
}
100
AcDbEntity
  8
0
370
              -2
390
0
  6
Continuous
 62
               0
100
AcDbCircle
 10
698.97509013438219
 20
-291.88257948213595
 30
0.0
 40
1.9998779296875
  0
HATCH
  5
8E
100
AcDbEntity
  8
0
370
              -2
390
0
  6
Continuous
 62
               0
100
AcDbHatch
 10
0.0
 20
0.0
 30
0.0
210
0.0
220
0.0
230
1.0
  2
SOLID
 70
               1
 71
               1
 91
        1
 92
        1
 93
        1
 72
               2
 10
698.97509013438219
 20
-291.88257948213595
 40
1.9998779296875
 50
0.0
 51
360.0
 73
               0
 97
        1
330
8D
 75
               0
 76
               1
 98
        1
 10
0.0
 20
0.0
  0
MTEXT
  5
8F
100
AcDbEntity
  8
0
390
0
 62
               0
100
AcDbMText
 10
718.10009013438219
 20
-258.00496229463596
 30
0.0
 40
24.432617187500004
 41
0.0
 71
               1
 72
               1
  1
70
  7
ＭＳ ゴシック
 73
               1
 44
0.7828267384257843
  0
POINT
  5
90
100
AcDbEntity
  8
Defpoints
370
               0
390
0
 62
               0
100
AcDbPoint
 10
698.97509013438219
 20
-412.92695953763376
 30
0.0
  0
POINT
  5
91
100
AcDbEntity
  8
Defpoints
370
               0
390
0
 62
               0
100
AcDbPoint
 10
768.97509013438219
 20
-398.03383926044273
 30
0.0
  0
POINT
  5
92
100
AcDbEntity
  8
Defpoints
370
               0
390
0
 62
               0
100
AcDbPoint
 10
768.97509013438219
 20
-291.88257948213595
 30
0.0
  0
ENDBLK
  5
93
100
AcDbEntity
  8
notes
390
0
100
AcDbBlockEnd
  0
BLOCK
  5
94
100
AcDbEntity
  8
notes
390
0
100
AcDbBlockBegin
  2
*D6
 70
               1
 10
0.0
 20
0.0
 30
0.0
  3
*D6
  1

  0
LINE
  5
95
100
AcDbEntity
  8
0
370
              -2
390
0
  6
Continuous
 62
               0
100
AcDbLine
 10
-708.54805109428605
 20
822.88835862163091
 30
0.0
 11
-708.54805109428605
 21
972.88835862163114
 31
0.0
  0
LINE
  5
96
100
AcDbEntity
  8
0
370
              -2
390
0
  6
Continuous
 62
               0
100
AcDbLine
 10
-183.54805109428617
 20
822.88835862163091
 30
0.0
 11
-183.54805109428617
 21
972.88835862163114
 31
0.0
  0
LINE
  5
97
100
AcDbEntity
  8
0
370
              -2
390
0
  6
Continuous
 62
               0
100
AcDbLine
 10
-708.54805109428605
 20
972.88835862163114
 30
0.0
 11
-183.54805109428617
 21
972.88835862163114
 31
0.0
  0
CIRCLE
  5
98
102
{ACAD_REACTORS
330
99
102
}
100
AcDbEntity
  8
0
370
              -2
390
0
  6
Continuous
 62
               0
100
AcDbCircle
 10
-708.54805109428605
 20
972.88835862163114
 30
0.0
 40
1.9998779296875
  0
HATCH
  5
99
100
AcDbEntity
  8
0
370
              -2
390
0
  6
Continuous
 62
               0
100
AcDbHatch
 10
0.0
 20
0.0
 30
0.0
210
0.0
220
0.0
230
1.0
  2
SOLID
 70
               1
 71
               1
 91
        1
 92
        1
 93
        1
 72
               2
 10
-708.54805109428605
 20
972.88835862163114
 40
1.9998779296875
 50
0.0
 51
360.0
 73
               0
 97
        1
330
98
 75
               0
 76
               1
 98
        1
 10
0.0
 20
0.0
  0
CIRCLE
  5
9A
102
{ACAD_REACTORS
330
9B
102
}
100
AcDbEntity
  8
0
370
              -2
390
0
  6
Continuous
 62
               0
100
AcDbCircle
 10
-183.54805109428617
 20
972.88835862163114
 30
0.0
 40
1.9998779296875
  0
HATCH
  5
9B
100
AcDbEntity
  8
0
370
              -2
390
0
  6
Continuous
 62
               0
100
AcDbHatch
 10
0.0
 20
0.0
 30
0.0
210
0.0
220
0.0
230
1.0
  2
SOLID
 70
               1
 71
               1
 91
        1
 92
        1
 93
        1
 72
               2
 10
-183.54805109428617
 20
972.88835862163114
 40
1.9998779296875
 50
0.0
 51
360.0
 73
               0
 97
        1
330
9A
 75
               0
 76
               1
 98
        1
 10
0.0
 20
0.0
  0
MTEXT
  5
9C
100
AcDbEntity
  8
0
390
0
 62
               0
100
AcDbMText
 10
-469.86055277646165
 20
1006.7659758091311
 30
0.0
 40
24.432617187500004
 41
0.0
 71
               1
 72
               1
  1
525
  7
ＭＳ ゴシック
 73
               1
 44
0.7828267384257843
  0
POINT
  5
9D
100
AcDbEntity
  8
Defpoints
370
               0
390
0
 62
               0
100
AcDbPoint
 10
-183.54805109428617
 20
797.88835862163103
 30
0.0
  0
POINT
  5
9E
100
AcDbEntity
  8
Defpoints
370
               0
390
0
 62
               0
100
AcDbPoint
 10
-708.54805109428605
 20
797.88835862163103
 30
0.0
  0
POINT
  5
9F
100
AcDbEntity
  8
Defpoints
370
               0
390
0
 62
               0
100
AcDbPoint
 10
-708.54805109428605
 20
972.88835862163114
 30
0.0
  0
ENDBLK
  5
A0
100
AcDbEntity
  8
notes
390
0
100
AcDbBlockEnd
  0
BLOCK
  5
A1
100
AcDbEntity
  8
notes
390
0
100
AcDbBlockBegin
  2
*D7
 70
               1
 10
0.0
 20
0.0
 30
0.0
  3
*D7
  1

  0
LINE
  5
A2
100
AcDbEntity
  8
0
370
              -2
390
0
  6
Continuous
 62
               0
100
AcDbLine
 10
-433.63554468197617
 20
765.22447164658524
 30
0.0
 11
-317.02490986561793
 21
881.11742051786109
 31
0.0
  0
CIRCLE
  5
A3
102
{ACAD_REACTORS
330
A4
102
}
100
AcDbEntity
  8
0
370
              -2
390
0
  6
Continuous
 62
               0
100
AcDbCircle
 10
-433.63554468197617
 20
765.22447164658524
 30
0.0
 40
1.9998779296875
  0
HATCH
  5
A4
100
AcDbEntity
  8
0
370
              -2
390
0
  6
Continuous
 62
               0
100
AcDbHatch
 10
0.0
 20
0.0
 30
0.0
210
0.0
220
0.0
230
1.0
  2
SOLID
 70
               1
 71
               1
 91
        1
 92
        1
 93
        1
 72
               2
 10
-433.63554468197617
 20
765.22447164658524
 40
1.9998779296875
 50
0.0
 51
360.0
 73
               0
 97
        1
330
A3
 75
               0
 76
               1
 98
        1
 10
0.0
 20
0.0
  0
LINE
  5
A5
100
AcDbEntity
  8
0
370
              -2
390
0
  6
Continuous
 62
               0
100
AcDbLine
 10
-317.02490986561793
 20
881.11742051786109
 30
0.0
 11
-193.52490986561793
 21
881.11742051786109
 31
0.0
  0
MTEXT
  5
A6
100
AcDbEntity
  8
0
390
0
 62
               0
100
AcDbMText
 10
-257.02490986561793
 20
914.99503770536103
 30
0.0
 40
24.432617187500004
 41
0.0
 71
               1
 72
               1
  1
φ35
  7
ＭＳ ゴシック
 73
               1
 44
0.7828267384257843
  0
POINT
  5
A7
100
AcDbEntity
  8
Defpoints
370
               0
390
0
 62
               0
100
AcDbPoint
 10
-458.46055750659679
 20
740.55224559667681
 30
0.0
  0
POINT
  5
A8
100
AcDbEntity
  8
Defpoints
370
               0
390
0
 62
               0
100
AcDbPoint
 10
-433.63554468197617
 20
765.22447164658524
 30
0.0
  0
ENDBLK
  5
A9
100
AcDbEntity
  8
notes
390
0
100
AcDbBlockEnd
  0
BLOCK
  5
AA
100
AcDbEntity
  8
notes
390
0
100
AcDbBlockBegin
  2
*D8
 70
               1
 10
0.0
 20
0.0
 30
0.0
  3
*D8
  1

  0
LINE
  5
AB
100
AcDbEntity
  8
0
370
              -2
390
0
  6
Continuous
 62
               0
100
AcDbLine
 10
-546.04805109428617
 20
814.94272579617757
 30
0.0
 11
-546.04805109428617
 21
923.45075385120526
 31
0.0
  0
LINE
  5
AC
100
AcDbEntity
  8
0
370
              -2
390
0
  6
Continuous
 62
               0
100
AcDbLine
 10
-446.04805109428639
 20
814.94272579617757
 30
0.0
 11
-446.04805109428639
 21
923.45075385120526
 31
0.0
  0
LINE
  5
AD
100
AcDbEntity
  8
0
370
              -2
390
0
  6
Continuous
 62
               0
100
AcDbLine
 10
-546.04805109428617
 20
923.45075385120526
 30
0.0
 11
-446.04805109428639
 21
923.45075385120526
 31
0.0
  0
CIRCLE
  5
AE
102
{ACAD_REACTORS
330
AF
102
}
100
AcDbEntity
  8
0
370
              -2
390
0
  6
Continuous
 62
               0
100
AcDbCircle
 10
-546.04805109428617
 20
923.45075385120526
 30
0.0
 40
1.9998779296875
  0
HATCH
  5
AF
100
AcDbEntity
  8
0
370
              -2
390
0
  6
Continuous
 62
               0
100
AcDbHatch
 10
0.0
 20
0.0
 30
0.0
210
0.0
220
0.0
230
1.0
  2
SOLID
 70
               1
 71
               1
 91
        1
 92
        1
 93
        1
 72
               2
 10
-546.04805109428617
 20
923.45075385120526
 40
1.9998779296875
 50
0.0
 51
360.0
 73
               0
 97
        1
330
AE
 75
               0
 76
               1
 98
        1
 10
0.0
 20
0.0
  0
CIRCLE
  5
B0
102
{ACAD_REACTORS
330
B1
102
}
100
AcDbEntity
  8
0
370
              -2
390
0
  6
Continuous
 62
               0
100
AcDbCircle
 10
-446.04805109428639
 20
923.45075385120526
 30
0.0
 40
1.9998779296875
  0
HATCH
  5
B1
100
AcDbEntity
  8
0
370
              -2
390
0
  6
Continuous
 62
               0
100
AcDbHatch
 10
0.0
 20
0.0
 30
0.0
210
0.0
220
0.0
230
1.0
  2
SOLID
 70
               1
 71
               1
 91
        1
 92
        1
 93
        1
 72
               2
 10
-446.04805109428639
 20
923.45075385120526
 40
1.9998779296875
 50
0.0
 51
360.0
 73
               0
 97
        1
330
B0
 75
               0
 76
               1
 98
        1
 10
0.0
 20
0.0
  0
MTEXT
  5
B2
100
AcDbEntity
  8
0
390
0
 62
               0
100
AcDbMText
 10
-519.86055277646176
 20
957.3283710387052
 30
0.0
 40
24.432617187500004
 41
0.0
 71
               1
 72
               1
  1
100
  7
ＭＳ ゴシック
 73
               1
 44
0.7828267384257843
  0
POINT
  5
B3
100
AcDbEntity
  8
Defpoints
370
               0
390
0
 62
               0
100
AcDbPoint
 10
-446.04805109428639
 20
789.94272579617757
 30
0.0
  0
POINT
  5
B4
100
AcDbEntity
  8
Defpoints
370
               0
390
0
 62
               0
100
AcDbPoint
 10
-546.04805109428617
 20
789.94272579617757
 30
0.0
  0
POINT
  5
B5
100
AcDbEntity
  8
Defpoints
370
               0
390
0
 62
               0
100
AcDbPoint
 10
-546.04805109428617
 20
923.45075385120526
 30
0.0
  0
ENDBLK
  5
B6
100
AcDbEntity
  8
notes
390
0
100
AcDbBlockEnd
  0
BLOCK
  5
B7
100
AcDbEntity
  8
notes
390
0
100
AcDbBlockBegin
  2
*D9
 70
               1
 10
0.0
 20
0.0
 30
0.0
  3
*D9
  1

  0
LINE
  5
B8
100
AcDbEntity
  8
0
370
              -2
390
0
  6
Continuous
 62
               0
100
AcDbLine
 10
-446.04805109428639
 20
814.94272579617757
 30
0.0
 11
-446.04805109428639
 21
923.45075385120526
 31
0.0
  0
LINE
  5
B9
100
AcDbEntity
  8
0
370
              -2
390
0
  6
Continuous
 62
               0
100
AcDbLine
 10
-346.04805109428639
 20
814.94272579617757
 30
0.0
 11
-346.04805109428639
 21
923.45075385120526
 31
0.0
  0
LINE
  5
BA
100
AcDbEntity
  8
0
370
              -2
390
0
  6
Continuous
 62
               0
100
AcDbLine
 10
-446.04805109428639
 20
923.45075385120526
 30
0.0
 11
-346.04805109428639
 21
923.45075385120526
 31
0.0
  0
CIRCLE
  5
BB
102
{ACAD_REACTORS
330
BC
102
}
100
AcDbEntity
  8
0
370
              -2
390
0
  6
Continuous
 62
               0
100
AcDbCircle
 10
-446.04805109428639
 20
923.45075385120526
 30
0.0
 40
1.9998779296875
  0
HATCH
  5
BC
100
AcDbEntity
  8
0
370
              -2
390
0
  6
Continuous
 62
               0
100
AcDbHatch
 10
0.0
 20
0.0
 30
0.0
210
0.0
220
0.0
230
1.0
  2
SOLID
 70
               1
 71
               1
 91
        1
 92
        1
 93
        1
 72
               2
 10
-446.04805109428639
 20
923.45075385120526
 40
1.9998779296875
 50
0.0
 51
360.0
 73
               0
 97
        1
330
BB
 75
               0
 76
               1
 98
        1
 10
0.0
 20
0.0
  0
CIRCLE
  5
BD
102
{ACAD_REACTORS
330
BE
102
}
100
AcDbEntity
  8
0
370
              -2
390
0
  6
Continuous
 62
               0
100
AcDbCircle
 10
-346.04805109428639
 20
923.45075385120526
 30
0.0
 40
1.9998779296875
  0
HATCH
  5
BE
100
AcDbEntity
  8
0
370
              -2
390
0
  6
Continuous
 62
               0
100
AcDbHatch
 10
0.0
 20
0.0
 30
0.0
210
0.0
220
0.0
230
1.0
  2
SOLID
 70
               1
 71
               1
 91
        1
 92
        1
 93
        1
 72
               2
 10
-346.04805109428639
 20
923.45075385120526
 40
1.9998779296875
 50
0.0
 51
360.0
 73
               0
 97
        1
330
BD
 75
               0
 76
               1
 98
        1
 10
0.0
 20
0.0
  0
MTEXT
  5
BF
100
AcDbEntity
  8
0
390
0
 62
               0
100
AcDbMText
 10
-419.86055277646193
 20
957.3283710387052
 30
0.0
 40
24.432617187500004
 41
0.0
 71
               1
 72
               1
  1
100
  7
ＭＳ ゴシック
 73
               1
 44
0.7828267384257843
  0
POINT
  5
C0
100
AcDbEntity
  8
Defpoints
370
               0
390
0
 62
               0
100
AcDbPoint
 10
-346.04805109428639
 20
789.94272579617757
 30
0.0
  0
POINT
  5
C1
100
AcDbEntity
  8
Defpoints
370
               0
390
0
 62
               0
100
AcDbPoint
 10
-446.04805109428639
 20
789.94272579617757
 30
0.0
  0
POINT
  5
C2
100
AcDbEntity
  8
Defpoints
370
               0
390
0
 62
               0
100
AcDbPoint
 10
-446.04805109428639
 20
923.45075385120526
 30
0.0
  0
ENDBLK
  5
C3
100
AcDbEntity
  8
notes
390
0
100
AcDbBlockEnd
  0
BLOCK
  5
C4
100
AcDbEntity
  8
notes
390
0
100
AcDbBlockBegin
  2
*D10
 70
               1
 10
0.0
 20
0.0
 30
0.0
  3
*D10
  1

  0
LINE
  5
C5
100
AcDbEntity
  8
0
370
              -2
390
0
  6
Continuous
 62
               0
100
AcDbLine
 10
-183.54805109428617
 20
822.88835862163091
 30
0.0
 11
-33.548051094286166
 21
822.88835862163091
 31
0.0
  0
LINE
  5
C6
100
AcDbEntity
  8
0
370
              -2
390
0
  6
Continuous
 62
               0
100
AcDbLine
 10
-389.61093658872676
 20
412.88835862163285
 30
0.0
 11
-33.548051094286166
 21
412.88835862163285
 31
0.0
  0
LINE
  5
C7
100
AcDbEntity
  8
0
370
              -2
390
0
  6
Continuous
 62
               0
100
AcDbLine
 10
-33.548051094286166
 20
822.88835862163091
 30
0.0
 11
-33.548051094286166
 21
412.88835862163285
 31
0.0
  0
CIRCLE
  5
C8
102
{ACAD_REACTORS
330
C9
102
}
100
AcDbEntity
  8
0
370
              -2
390
0
  6
Continuous
 62
               0
100
AcDbCircle
 10
-33.548051094286166
 20
822.88835862163091
 30
0.0
 40
1.9998779296875
  0
HATCH
  5
C9
100
AcDbEntity
  8
0
370
              -2
390
0
  6
Continuous
 62
               0
100
AcDbHatch
 10
0.0
 20
0.0
 30
0.0
210
0.0
220
0.0
230
1.0
  2
SOLID
 70
               1
 71
               1
 91
        1
 92
        1
 93
        1
 72
               2
 10
-33.548051094286166
 20
822.88835862163091
 40
1.9998779296875
 50
0.0
 51
360.0
 73
               0
 97
        1
330
C8
 75
               0
 76
               1
 98
        1
 10
0.0
 20
0.0
  0
CIRCLE
  5
CA
102
{ACAD_REACTORS
330
CB
102
}
100
AcDbEntity
  8
0
370
              -2
390
0
  6
Continuous
 62
               0
100
AcDbCircle
 10
-33.548051094286166
 20
412.88835862163285
 30
0.0
 40
1.9998779296875
  0
HATCH
  5
CB
100
AcDbEntity
  8
0
370
              -2
390
0
  6
Continuous
 62
               0
100
AcDbHatch
 10
0.0
 20
0.0
 30
0.0
210
0.0
220
0.0
230
1.0
  2
SOLID
 70
               1
 71
               1
 91
        1
 92
        1
 93
        1
 72
               2
 10
-33.548051094286166
 20
412.88835862163285
 40
1.9998779296875
 50
0.0
 51
360.0
 73
               0
 97
        1
330
CA
 75
               0
 76
               1
 98
        1
 10
0.0
 20
0.0
  0
MTEXT
  5
CC
100
AcDbEntity
  8
0
390
0
 62
               0
100
AcDbMText
 10
-67.425668281786173
 20
594.07585693945634
 30
0.0
 40
24.432617187500004
 41
0.0
 71
               1
 72
               1
  1
410
  7
ＭＳ ゴシック
 11
0.0
 21
1.0
 31
0.0
 73
               1
 44
0.7828267384257843
  0
POINT
  5
CD
100
AcDbEntity
  8
Defpoints
370
               0
390
0
 62
               0
100
AcDbPoint
 10
-414.61093658872676
 20
412.88835862163285
 30
0.0
  0
POINT
  5
CE
100
AcDbEntity
  8
Defpoints
370
               0
390
0
 62
               0
100
AcDbPoint
 10
-208.54805109428617
 20
822.88835862163091
 30
0.0
  0
POINT
  5
CF
100
AcDbEntity
  8
Defpoints
370
               0
390
0
 62
               0
100
AcDbPoint
 10
-33.548051094286166
 20
822.88835862163091
 30
0.0
  0
ENDBLK
  5
D0
100
AcDbEntity
  8
notes
390
0
100
AcDbBlockEnd
  0
BLOCK
  5
D1
100
AcDbEntity
  8
notes
390
0
100
AcDbBlockBegin
  2
*D11
 70
               1
 10
0.0
 20
0.0
 30
0.0
  3
*D11
  1

  0
LINE
  5
D2
100
AcDbEntity
  8
0
370
              -2
390
0
  6
Continuous
 62
               0
100
AcDbLine
 10
-163.9241897483065
 20
-393.03383926044273
 30
0.0
 11
-25.024909865617815
 21
-393.03383926044273
 31
0.0
  0
LINE
  5
D3
100
AcDbEntity
  8
0
370
              -2
390
0
  6
Continuous
 62
               0
100
AcDbLine
 10
-383.79808534179074
 20
-583.03383926044398
 30
0.0
 11
-25.024909865617815
 21
-583.03383926044398
 31
0.0
  0
LINE
  5
D4
100
AcDbEntity
  8
0
370
              -2
390
0
  6
Continuous
 62
               0
100
AcDbLine
 10
-25.024909865617815
 20
-393.03383926044273
 30
0.0
 11
-25.024909865617815
 21
-583.03383926044398
 31
0.0
  0
CIRCLE
  5
D5
102
{ACAD_REACTORS
330
D6
102
}
100
AcDbEntity
  8
0
370
              -2
390
0
  6
Continuous
 62
               0
100
AcDbCircle
 10
-25.024909865617815
 20
-393.03383926044273
 30
0.0
 40
1.9998779296875
  0
HATCH
  5
D6
100
AcDbEntity
  8
0
370
              -2
390
0
  6
Continuous
 62
               0
100
AcDbHatch
 10
0.0
 20
0.0
 30
0.0
210
0.0
220
0.0
230
1.0
  2
SOLID
 70
               1
 71
               1
 91
        1
 92
        1
 93
        1
 72
               2
 10
-25.024909865617815
 20
-393.03383926044273
 40
1.9998779296875
 50
0.0
 51
360.0
 73
               0
 97
        1
330
D5
 75
               0
 76
               1
 98
        1
 10
0.0
 20
0.0
  0
CIRCLE
  5
D7
102
{ACAD_REACTORS
330
D8
102
}
100
AcDbEntity
  8
0
370
              -2
390
0
  6
Continuous
 62
               0
100
AcDbCircle
 10
-25.024909865617815
 20
-583.03383926044398
 30
0.0
 40
1.9998779296875
  0
HATCH
  5
D8
100
AcDbEntity
  8
0
370
              -2
390
0
  6
Continuous
 62
               0
100
AcDbHatch
 10
0.0
 20
0.0
 30
0.0
210
0.0
220
0.0
230
1.0
  2
SOLID
 70
               1
 71
               1
 91
        1
 92
        1
 93
        1
 72
               2
 10
-25.024909865617815
 20
-583.03383926044398
 40
1.9998779296875
 50
0.0
 51
360.0
 73
               0
 97
        1
330
D7
 75
               0
 76
               1
 98
        1
 10
0.0
 20
0.0
  0
MTEXT
  5
D9
100
AcDbEntity
  8
0
390
0
 62
               0
100
AcDbMText
 10
-58.902527053117829
 20
-511.84634094261889
 30
0.0
 40
24.432617187500004
 41
0.0
 71
               1
 72
               1
  1
190
  7
ＭＳ ゴシック
 11
0.0
 21
1.0
 31
0.0
 73
               1
 44
0.7828267384257843
  0
POINT
  5
DA
100
AcDbEntity
  8
Defpoints
370
               0
390
0
 62
               0
100
AcDbPoint
 10
-408.79808534179074
 20
-583.03383926044398
 30
0.0
  0
POINT
  5
DB
100
AcDbEntity
  8
Defpoints
370
               0
390
0
 62
               0
100
AcDbPoint
 10
-188.9241897483065
 20
-393.03383926044273
 30
0.0
  0
POINT
  5
DC
100
AcDbEntity
  8
Defpoints
370
               0
390
0
 62
               0
100
AcDbPoint
 10
-25.024909865617815
 20
-393.03383926044273
 30
0.0
  0
ENDBLK
  5
DD
100
AcDbEntity
  8
notes
390
0
100
AcDbBlockEnd
  0
BLOCK
  5
DE
100
AcDbEntity
  8
notes
390
0
100
AcDbBlockBegin
  2
*D12
 70
               1
 10
0.0
 20
0.0
 30
0.0
  3
*D12
  1

  0
LINE
  5
DF
100
AcDbEntity
  8
0
370
              -2
390
0
  6
Continuous
 62
               0
100
AcDbLine
 10
-159.54805109428617
 20
804.88835862163103
 30
0.0
 11
-83.548051094286166
 21
804.88835862163103
 31
0.0
  0
LINE
  5
E0
100
AcDbEntity
  8
0
370
              -2
390
0
  6
Continuous
 62
               0
100
AcDbLine
 10
-160.54805109428619
 20
439.88835862163103
 30
0.0
 11
-83.548051094286166
 21
439.88835862163103
 31
0.0
  0
LINE
  5
E1
100
AcDbEntity
  8
0
370
              -2
390
0
  6
Continuous
 62
               0
100
AcDbLine
 10
-83.548051094286166
 20
804.88835862163103
 30
0.0
 11
-83.548051094286166
 21
439.88835862163103
 31
0.0
  0
CIRCLE
  5
E2
102
{ACAD_REACTORS
330
E3
102
}
100
AcDbEntity
  8
0
370
              -2
390
0
  6
Continuous
 62
               0
100
AcDbCircle
 10
-83.548051094286166
 20
804.88835862163103
 30
0.0
 40
1.9998779296875
  0
HATCH
  5
E3
100
AcDbEntity
  8
0
370
              -2
390
0
  6
Continuous
 62
               0
100
AcDbHatch
 10
0.0
 20
0.0
 30
0.0
210
0.0
220
0.0
230
1.0
  2
SOLID
 70
               1
 71
               1
 91
        1
 92
        1
 93
        1
 72
               2
 10
-83.548051094286166
 20
804.88835862163103
 40
1.9998779296875
 50
0.0
 51
360.0
 73
               0
 97
        1
330
E2
 75
               0
 76
               1
 98
        1
 10
0.0
 20
0.0
  0
CIRCLE
  5
E4
102
{ACAD_REACTORS
330
E5
102
}
100
AcDbEntity
  8
0
370
              -2
390
0
  6
Continuous
 62
               0
100
AcDbCircle
 10
-83.548051094286166
 20
439.88835862163103
 30
0.0
 40
1.9998779296875
  0
HATCH
  5
E5
100
AcDbEntity
  8
0
370
              -2
390
0
  6
Continuous
 62
               0
100
AcDbHatch
 10
0.0
 20
0.0
 30
0.0
210
0.0
220
0.0
230
1.0
  2
SOLID
 70
               1
 71
               1
 91
        1
 92
        1
 93
        1
 72
               2
 10
-83.548051094286166
 20
439.88835862163103
 40
1.9998779296875
 50
0.0
 51
360.0
 73
               0
 97
        1
330
E4
 75
               0
 76
               1
 98
        1
 10
0.0
 20
0.0
  0
MTEXT
  5
E6
100
AcDbEntity
  8
0
390
0
 62
               0
100
AcDbMText
 10
-117.42566828178617
 20
598.57585693945555
 30
0.0
 40
24.432617187500004
 41
0.0
 71
               1
 72
               1
  1
365
  7
ＭＳ ゴシック
 11
0.0
 21
1.0
 31
0.0
 73
               1
 44
0.7828267384257843
  0
POINT
  5
E7
100
AcDbEntity
  8
Defpoints
370
               0
390
0
 62
               0
100
AcDbPoint
 10
-185.54805109428619
 20
439.88835862163103
 30
0.0
  0
POINT
  5
E8
100
AcDbEntity
  8
Defpoints
370
               0
390
0
 62
               0
100
AcDbPoint
 10
-184.54805109428617
 20
804.88835862163103
 30
0.0
  0
POINT
  5
E9
100
AcDbEntity
  8
Defpoints
370
               0
390
0
 62
               0
100
AcDbPoint
 10
-83.548051094286166
 20
804.88835862163103
 30
0.0
  0
ENDBLK
  5
EA
100
AcDbEntity
  8
notes
390
0
100
AcDbBlockEnd
  0
BLOCK
  5
EB
100
AcDbEntity
  8
notes
390
0
100
AcDbBlockBegin
  2
*D13
 70
               1
 10
0.0
 20
0.0
 30
0.0
  3
*D13
  1

  0
LINE
  5
EC
100
AcDbEntity
  8
0
370
              -2
390
0
  6
Continuous
 62
               0
100
AcDbLine
 10
-732.79545924486274
 20
804.88835862163103
 30
0.0
 11
-808.54805109428605
 21
804.88835862163103
 31
0.0
  0
LINE
  5
ED
100
AcDbEntity
  8
0
370
              -2
390
0
  6
Continuous
 62
               0
100
AcDbLine
 10
-732.79545924486274
 20
714.88835862163103
 30
0.0
 11
-808.54805109428605
 21
714.88835862163103
 31
0.0
  0
LINE
  5
EE
100
AcDbEntity
  8
0
370
              -2
390
0
  6
Continuous
 62
               0
100
AcDbLine
 10
-808.54805109428605
 20
804.88835862163103
 30
0.0
 11
-808.54805109428605
 21
714.88835862163103
 31
0.0
  0
CIRCLE
  5
EF
102
{ACAD_REACTORS
330
F0
102
}
100
AcDbEntity
  8
0
370
              -2
390
0
  6
Continuous
 62
               0
100
AcDbCircle
 10
-808.54805109428605
 20
804.88835862163103
 30
0.0
 40
1.9998779296875
  0
HATCH
  5
F0
100
AcDbEntity
  8
0
370
              -2
390
0
  6
Continuous
 62
               0
100
AcDbHatch
 10
0.0
 20
0.0
 30
0.0
210
0.0
220
0.0
230
1.0
  2
SOLID
 70
               1
 71
               1
 91
        1
 92
        1
 93
        1
 72
               2
 10
-808.54805109428605
 20
804.88835862163103
 40
1.9998779296875
 50
0.0
 51
360.0
 73
               0
 97
        1
330
EF
 75
               0
 76
               1
 98
        1
 10
0.0
 20
0.0
  0
CIRCLE
  5
F1
102
{ACAD_REACTORS
330
F2
102
}
100
AcDbEntity
  8
0
370
              -2
390
0
  6
Continuous
 62
               0
100
AcDbCircle
 10
-808.54805109428605
 20
714.88835862163103
 30
0.0
 40
1.9998779296875
  0
HATCH
  5
F2
100
AcDbEntity
  8
0
370
              -2
390
0
  6
Continuous
 62
               0
100
AcDbHatch
 10
0.0
 20
0.0
 30
0.0
210
0.0
220
0.0
230
1.0
  2
SOLID
 70
               1
 71
               1
 91
        1
 92
        1
 93
        1
 72
               2
 10
-808.54805109428605
 20
714.88835862163103
 40
1.9998779296875
 50
0.0
 51
360.0
 73
               0
 97
        1
330
F1
 75
               0
 76
               1
 98
        1
 10
0.0
 20
0.0
  0
MTEXT
  5
F3
100
AcDbEntity
  8
0
390
0
 62
               0
100
AcDbMText
 10
-842.4256682817861
 20
744.01335862163103
 30
0.0
 40
24.432617187500004
 41
0.0
 71
               1
 72
               1
  1
90
  7
ＭＳ ゴシック
 11
0.0
 21
1.0
 31
0.0
 73
               1
 44
0.7828267384257843
  0
POINT
  5
F4
100
AcDbEntity
  8
Defpoints
370
               0
390
0
 62
               0
100
AcDbPoint
 10
-707.79545924486274
 20
714.88835862163103
 30
0.0
  0
POINT
  5
F5
100
AcDbEntity
  8
Defpoints
370
               0
390
0
 62
               0
100
AcDbPoint
 10
-707.79545924486274
 20
804.88835862163103
 30
0.0
  0
POINT
  5
F6
100
AcDbEntity
  8
Defpoints
370
               0
390
0
 62
               0
100
AcDbPoint
 10
-808.54805109428605
 20
804.88835862163103
 30
0.0
  0
ENDBLK
  5
F7
100
AcDbEntity
  8
notes
390
0
100
AcDbBlockEnd
  0
BLOCK
  5
F8
100
AcDbEntity
  8
notes
390
0
100
AcDbBlockBegin
  2
*D14
 70
               1
 10
0.0
 20
0.0
 30
0.0
  3
*D14
  1

  0
LINE
  5
F9
100
AcDbEntity
  8
0
370
              -2
390
0
  6
Continuous
 62
               0
100
AcDbLine
 10
-732.79545924486274
 20
714.88835862163103
 30
0.0
 11
-808.54805109428605
 21
714.88835862163103
 31
0.0
  0
LINE
  5
FA
100
AcDbEntity
  8
0
370
              -2
390
0
  6
Continuous
 62
               0
100
AcDbLine
 10
-732.79545924486274
 20
439.88835862163262
 30
0.0
 11
-808.54805109428605
 21
439.88835862163262
 31
0.0
  0
LINE
  5
FB
100
AcDbEntity
  8
0
370
              -2
390
0
  6
Continuous
 62
               0
100
AcDbLine
 10
-808.54805109428605
 20
714.88835862163103
 30
0.0
 11
-808.54805109428605
 21
439.88835862163262
 31
0.0
  0
CIRCLE
  5
FC
102
{ACAD_REACTORS
330
FD
102
}
100
AcDbEntity
  8
0
370
              -2
390
0
  6
Continuous
 62
               0
100
AcDbCircle
 10
-808.54805109428605
 20
714.88835862163103
 30
0.0
 40
1.9998779296875
  0
HATCH
  5
FD
100
AcDbEntity
  8
0
370
              -2
390
0
  6
Continuous
 62
               0
100
AcDbHatch
 10
0.0
 20
0.0
 30
0.0
210
0.0
220
0.0
230
1.0
  2
SOLID
 70
               1
 71
               1
 91
        1
 92
        1
 93
        1
 72
               2
 10
-808.54805109428605
 20
714.88835862163103
 40
1.9998779296875
 50
0.0
 51
360.0
 73
               0
 97
        1
330
FC
 75
               0
 76
               1
 98
        1
 10
0.0
 20
0.0
  0
CIRCLE
  5
FE
102
{ACAD_REACTORS
330
FF
102
}
100
AcDbEntity
  8
0
370
              -2
390
0
  6
Continuous
 62
               0
100
AcDbCircle
 10
-808.54805109428605
 20
439.88835862163262
 30
0.0
 40
1.9998779296875
  0
HATCH
  5
FF
100
AcDbEntity
  8
0
370
              -2
390
0
  6
Continuous
 62
               0
100
AcDbHatch
 10
0.0
 20
0.0
 30
0.0
210
0.0
220
0.0
230
1.0
  2
SOLID
 70
               1
 71
               1
 91
        1
 92
        1
 93
        1
 72
               2
 10
-808.54805109428605
 20
439.88835862163262
 40
1.9998779296875
 50
0.0
 51
360.0
 73
               0
 97
        1
330
FE
 75
               0
 76
               1
 98
        1
 10
0.0
 20
0.0
  0
MTEXT
  5
100
100
AcDbEntity
  8
0
390
0
 62
               0
100
AcDbMText
 10
-842.4256682817861
 20
553.57585693945634
 30
0.0
 40
24.432617187500004
 41
0.0
 71
               1
 72
               1
  1
275
  7
ＭＳ ゴシック
 11
0.0
 21
1.0
 31
0.0
 73
               1
 44
0.7828267384257843
  0
POINT
  5
101
100
AcDbEntity
  8
Defpoints
370
               0
390
0
 62
               0
100
AcDbPoint
 10
-707.79545924486274
 20
439.88835862163262
 30
0.0
  0
POINT
  5
102
100
AcDbEntity
  8
Defpoints
370
               0
390
0
 62
               0
100
AcDbPoint
 10
-707.79545924486274
 20
714.88835862163103
 30
0.0
  0
POINT
  5
103
100
AcDbEntity
  8
Defpoints
370
               0
390
0
 62
               0
100
AcDbPoint
 10
-808.54805109428605
 20
714.88835862163103
 30
0.0
  0
ENDBLK
  5
104
100
AcDbEntity
  8
notes
390
0
100
AcDbBlockEnd
  0
BLOCK
  5
105
100
AcDbEntity
  8
notes
390
0
100
AcDbBlockBegin
  2
*D15
 70
               1
 10
0.0
 20
0.0
 30
0.0
  3
*D15
  1

  0
LINE
  5
106
100
AcDbEntity
  8
0
370
              -2
390
0
  6
Continuous
 62
               0
100
AcDbLine
 10
-732.54805109428764
 20
804.88835862163103
 30
0.0
 11
-808.54805109428605
 21
804.88835862163103
 31
0.0
  0
LINE
  5
107
100
AcDbEntity
  8
0
370
              -2
390
0
  6
Continuous
 62
               0
100
AcDbLine
 10
-708.54805109428605
 20
822.88835862163114
 30
0.0
 11
-808.54805109428605
 21
822.88835862163114
 31
0.0
  0
LINE
  5
108
100
AcDbEntity
  8
0
370
              -2
390
0
  6
Continuous
 62
               0
100
AcDbLine
 10
-808.54805109428605
 20
804.88835862163103
 30
0.0
 11
-808.54805109428605
 21
822.88835862163114
 31
0.0
  0
CIRCLE
  5
109
102
{ACAD_REACTORS
330
10A
102
}
100
AcDbEntity
  8
0
370
              -2
390
0
  6
Continuous
 62
               0
100
AcDbCircle
 10
-808.54805109428605
 20
804.88835862163103
 30
0.0
 40
1.9998779296875
  0
HATCH
  5
10A
100
AcDbEntity
  8
0
370
              -2
390
0
  6
Continuous
 62
               0
100
AcDbHatch
 10
0.0
 20
0.0
 30
0.0
210
0.0
220
0.0
230
1.0
  2
SOLID
 70
               1
 71
               1
 91
        1
 92
        1
 93
        1
 72
               2
 10
-808.54805109428605
 20
804.88835862163103
 40
1.9998779296875
 50
0.0
 51
360.0
 73
               0
 97
        1
330
109
 75
               0
 76
               1
 98
        1
 10
0.0
 20
0.0
  0
CIRCLE
  5
10B
102
{ACAD_REACTORS
330
10C
102
}
100
AcDbEntity
  8
0
370
              -2
390
0
  6
Continuous
 62
               0
100
AcDbCircle
 10
-808.54805109428605
 20
822.88835862163114
 30
0.0
 40
1.9998779296875
  0
HATCH
  5
10C
100
AcDbEntity
  8
0
370
              -2
390
0
  6
Continuous
 62
               0
100
AcDbHatch
 10
0.0
 20
0.0
 30
0.0
210
0.0
220
0.0
230
1.0
  2
SOLID
 70
               1
 71
               1
 91
        1
 92
        1
 93
        1
 72
               2
 10
-808.54805109428605
 20
822.88835862163114
 40
1.9998779296875
 50
0.0
 51
360.0
 73
               0
 97
        1
330
10B
 75
               0
 76
               1
 98
        1
 10
0.0
 20
0.0
  0
MTEXT
  5
10D
100
AcDbEntity
  8
0
390
0
 62
               0
100
AcDbMText
 10
-842.4256682817861
 20
798.01335862163114
 30
0.0
 40
24.432617187500004
 41
0.0
 71
               1
 72
               1
  1
18
  7
ＭＳ ゴシック
 11
0.0
 21
1.0
 31
0.0
 73
               1
 44
0.7828267384257843
  0
POINT
  5
10E
100
AcDbEntity
  8
Defpoints
370
               0
390
0
 62
               0
100
AcDbPoint
 10
-683.54805109428605
 20
822.88835862163114
 30
0.0
  0
POINT
  5
10F
100
AcDbEntity
  8
Defpoints
370
               0
390
0
 62
               0
100
AcDbPoint
 10
-707.54805109428764
 20
804.88835862163103
 30
0.0
  0
POINT
  5
110
100
AcDbEntity
  8
Defpoints
370
               0
390
0
 62
               0
100
AcDbPoint
 10
-808.54805109428605
 20
804.88835862163103
 30
0.0
  0
ENDBLK
  5
111
100
AcDbEntity
  8
notes
390
0
100
AcDbBlockEnd
  0
BLOCK
  5
112
100
AcDbEntity
  8
notes
390
0
100
AcDbBlockBegin
  2
*D16
 70
               1
 10
0.0
 20
0.0
 30
0.0
  3
*D16
  1

  0
LINE
  5
113
100
AcDbEntity
  8
0
370
              -2
390
0
  6
Continuous
 62
               0
100
AcDbLine
 10
348.97509013438207
 20
-393.03383926044273
 30
0.0
 11
293.97966066288996
 21
-393.03383926044273
 31
0.0
  0
LINE
  5
114
100
AcDbEntity
  8
0
370
              -2
390
0
  6
Continuous
 62
               0
100
AcDbLine
 10
348.97509013438207
 20
-428.03383926044251
 30
0.0
 11
293.97966066288996
 21
-428.03383926044251
 31
0.0
  0
LINE
  5
115
100
AcDbEntity
  8
0
370
              -2
390
0
  6
Continuous
 62
               0
100
AcDbLine
 10
293.97966066288996
 20
-393.03383926044273
 30
0.0
 11
293.97966066288996
 21
-428.03383926044251
 31
0.0
  0
CIRCLE
  5
116
102
{ACAD_REACTORS
330
117
102
}
100
AcDbEntity
  8
0
370
              -2
390
0
  6
Continuous
 62
               0
100
AcDbCircle
 10
293.97966066288996
 20
-393.03383926044273
 30
0.0
 40
1.9998779296875
  0
HATCH
  5
117
100
AcDbEntity
  8
0
370
              -2
390
0
  6
Continuous
 62
               0
100
AcDbHatch
 10
0.0
 20
0.0
 30
0.0
210
0.0
220
0.0
230
1.0
  2
SOLID
 70
               1
 71
               1
 91
        1
 92
        1
 93
        1
 72
               2
 10
293.97966066288996
 20
-393.03383926044273
 40
1.9998779296875
 50
0.0
 51
360.0
 73
               0
 97
        1
330
116
 75
               0
 76
               1
 98
        1
 10
0.0
 20
0.0
  0
CIRCLE
  5
118
102
{ACAD_REACTORS
330
119
102
}
100
AcDbEntity
  8
0
370
              -2
390
0
  6
Continuous
 62
               0
100
AcDbCircle
 10
293.97966066288996
 20
-428.03383926044251
 30
0.0
 40
1.9998779296875
  0
HATCH
  5
119
100
AcDbEntity
  8
0
370
              -2
390
0
  6
Continuous
 62
               0
100
AcDbHatch
 10
0.0
 20
0.0
 30
0.0
210
0.0
220
0.0
230
1.0
  2
SOLID
 70
               1
 71
               1
 91
        1
 92
        1
 93
        1
 72
               2
 10
293.97966066288996
 20
-428.03383926044251
 40
1.9998779296875
 50
0.0
 51
360.0
 73
               0
 97
        1
330
118
 75
               0
 76
               1
 98
        1
 10
0.0
 20
0.0
  0
MTEXT
  5
11A
100
AcDbEntity
  8
0
390
0
 62
               0
100
AcDbMText
 10
260.10204347538996
 20
-426.40883926044262
 30
0.0
 40
24.432617187500004
 41
0.0
 71
               1
 72
               1
  1
35
  7
ＭＳ ゴシック
 11
0.0
 21
1.0
 31
0.0
 73
               1
 44
0.7828267384257843
  0
POINT
  5
11B
100
AcDbEntity
  8
Defpoints
370
               0
390
0
 62
               0
100
AcDbPoint
 10
373.97509013438207
 20
-428.03383926044251
 30
0.0
  0
POINT
  5
11C
100
AcDbEntity
  8
Defpoints
370
               0
390
0
 62
               0
100
AcDbPoint
 10
373.97509013438207
 20
-393.03383926044273
 30
0.0
  0
POINT
  5
11D
100
AcDbEntity
  8
Defpoints
370
               0
390
0
 62
               0
100
AcDbPoint
 10
293.97966066288996
 20
-393.03383926044273
 30
0.0
  0
ENDBLK
  5
11E
100
AcDbEntity
  8
notes
390
0
100
AcDbBlockEnd
  0
BLOCK
  5
11F
100
AcDbEntity
  8
notes
390
0
100
AcDbBlockBegin
  2
*D17
 70
               1
 10
0.0
 20
0.0
 30
0.0
  3
*D17
  1

  0
LINE
  5
120
100
AcDbEntity
  8
0
370
              -2
390
0
  6
Continuous
 62
               0
100
AcDbLine
 10
348.97509013438207
 20
-428.03383926044251
 30
0.0
 11
293.97966066288996
 21
-428.03383926044251
 31
0.0
  0
LINE
  5
121
100
AcDbEntity
  8
0
370
              -2
390
0
  6
Continuous
 62
               0
100
AcDbLine
 10
531.74982838188657
 20
-583.03383926044398
 30
0.0
 11
293.97966066288996
 21
-583.03383926044398
 31
0.0
  0
LINE
  5
122
100
AcDbEntity
  8
0
370
              -2
390
0
  6
Continuous
 62
               0
100
AcDbLine
 10
293.97966066288996
 20
-428.03383926044251
 30
0.0
 11
293.97966066288996
 21
-583.03383926044398
 31
0.0
  0
CIRCLE
  5
123
102
{ACAD_REACTORS
330
124
102
}
100
AcDbEntity
  8
0
370
              -2
390
0
  6
Continuous
 62
               0
100
AcDbCircle
 10
293.97966066288996
 20
-428.03383926044251
 30
0.0
 40
1.9998779296875
  0
HATCH
  5
124
100
AcDbEntity
  8
0
370
              -2
390
0
  6
Continuous
 62
               0
100
AcDbHatch
 10
0.0
 20
0.0
 30
0.0
210
0.0
220
0.0
230
1.0
  2
SOLID
 70
               1
 71
               1
 91
        1
 92
        1
 93
        1
 72
               2
 10
293.97966066288996
 20
-428.03383926044251
 40
1.9998779296875
 50
0.0
 51
360.0
 73
               0
 97
        1
330
123
 75
               0
 76
               1
 98
        1
 10
0.0
 20
0.0
  0
CIRCLE
  5
125
102
{ACAD_REACTORS
330
126
102
}
100
AcDbEntity
  8
0
370
              -2
390
0
  6
Continuous
 62
               0
100
AcDbCircle
 10
293.97966066288996
 20
-583.03383926044398
 30
0.0
 40
1.9998779296875
  0
HATCH
  5
126
100
AcDbEntity
  8
0
370
              -2
390
0
  6
Continuous
 62
               0
100
AcDbHatch
 10
0.0
 20
0.0
 30
0.0
210
0.0
220
0.0
230
1.0
  2
SOLID
 70
               1
 71
               1
 91
        1
 92
        1
 93
        1
 72
               2
 10
293.97966066288996
 20
-583.03383926044398
 40
1.9998779296875
 50
0.0
 51
360.0
 73
               0
 97
        1
330
125
 75
               0
 76
               1
 98
        1
 10
0.0
 20
0.0
  0
MTEXT
  5
127
100
AcDbEntity
  8
0
390
0
 62
               0
100
AcDbMText
 10
260.10204347538996
 20
-529.34634094261878
 30
0.0
 40
24.432617187500004
 41
0.0
 71
               1
 72
               1
  1
155
  7
ＭＳ ゴシック
 11
0.0
 21
1.0
 31
0.0
 73
               1
 44
0.7828267384257843
  0
POINT
  5
128
100
AcDbEntity
  8
Defpoints
370
               0
390
0
 62
               0
100
AcDbPoint
 10
556.74982838188657
 20
-583.03383926044398
 30
0.0
  0
POINT
  5
129
100
AcDbEntity
  8
Defpoints
370
               0
390
0
 62
               0
100
AcDbPoint
 10
373.97509013438207
 20
-428.03383926044251
 30
0.0
  0
POINT
  5
12A
100
AcDbEntity
  8
Defpoints
370
               0
390
0
 62
               0
100
AcDbPoint
 10
293.97966066288996
 20
-428.03383926044251
 30
0.0
  0
ENDBLK
  5
12B
100
AcDbEntity
  8
notes
390
0
100
AcDbBlockEnd
  0
BLOCK
  5
12C
100
AcDbEntity
  8
notes
390
0
100
AcDbBlockBegin
  2
*D18
 70
               1
 10
0.0
 20
0.0
 30
0.0
  3
*D18
  1

  0
LINE
  5
12D
100
AcDbEntity
  8
0
370
              -2
390
0
  6
Continuous
 62
               0
100
AcDbLine
 10
593.99979413438246
 20
-608.03383926044387
 30
0.0
 11
593.99979413438246
 21
-670.88257948213709
 31
0.0
  0
LINE
  5
12E
100
AcDbEntity
  8
0
370
              -2
390
0
  6
Continuous
 62
               0
100
AcDbLine
 10
768.97509013438219
 20
-448.03383926044256
 30
0.0
 11
768.97509013438219
 21
-670.88257948213709
 31
0.0
  0
LINE
  5
12F
100
AcDbEntity
  8
0
370
              -2
390
0
  6
Continuous
 62
               0
100
AcDbLine
 10
593.99979413438246
 20
-670.88257948213709
 30
0.0
 11
768.97509013438219
 21
-670.88257948213709
 31
0.0
  0
CIRCLE
  5
130
102
{ACAD_REACTORS
330
131
102
}
100
AcDbEntity
  8
0
370
              -2
390
0
  6
Continuous
 62
               0
100
AcDbCircle
 10
593.99979413438246
 20
-670.88257948213709
 30
0.0
 40
1.9998779296875
  0
HATCH
  5
131
100
AcDbEntity
  8
0
370
              -2
390
0
  6
Continuous
 62
               0
100
AcDbHatch
 10
0.0
 20
0.0
 30
0.0
210
0.0
220
0.0
230
1.0
  2
SOLID
 70
               1
 71
               1
 91
        1
 92
        1
 93
        1
 72
               2
 10
593.99979413438246
 20
-670.88257948213709
 40
1.9998779296875
 50
0.0
 51
360.0
 73
               0
 97
        1
330
130
 75
               0
 76
               1
 98
        1
 10
0.0
 20
0.0
  0
CIRCLE
  5
132
102
{ACAD_REACTORS
330
133
102
}
100
AcDbEntity
  8
0
370
              -2
390
0
  6
Continuous
 62
               0
100
AcDbCircle
 10
768.97509013438219
 20
-670.88257948213709
 30
0.0
 40
1.9998779296875
  0
HATCH
  5
133
100
AcDbEntity
  8
0
370
              -2
390
0
  6
Continuous
 62
               0
100
AcDbHatch
 10
0.0
 20
0.0
 30
0.0
210
0.0
220
0.0
230
1.0
  2
SOLID
 70
               1
 71
               1
 91
        1
 92
        1
 93
        1
 72
               2
 10
768.97509013438219
 20
-670.88257948213709
 40
1.9998779296875
 50
0.0
 51
360.0
 73
               0
 97
        1
330
132
 75
               0
 76
               1
 98
        1
 10
0.0
 20
0.0
  0
MTEXT
  5
134
100
AcDbEntity
  8
0
390
0
 62
               0
100
AcDbMText
 10
657.67494045220678
 20
-637.00496229463704
 30
0.0
 40
24.432617187500004
 41
0.0
 71
               1
 72
               1
  1
175
  7
ＭＳ ゴシック
 73
               1
 44
0.7828267384257843
  0
POINT
  5
135
100
AcDbEntity
  8
Defpoints
370
               0
390
0
 62
               0
100
AcDbPoint
 10
768.97509013438219
 20
-423.03383926044256
 30
0.0
  0
POINT
  5
136
100
AcDbEntity
  8
Defpoints
370
               0
390
0
 62
               0
100
AcDbPoint
 10
593.99979413438246
 20
-583.03383926044387
 30
0.0
  0
POINT
  5
137
100
AcDbEntity
  8
Defpoints
370
               0
390
0
 62
               0
100
AcDbPoint
 10
593.99979413438246
 20
-670.88257948213709
 30
0.0
  0
ENDBLK
  5
138
100
AcDbEntity
  8
notes
390
0
100
AcDbBlockEnd
  0
BLOCK
  5
139
100
AcDbEntity
  8
notes
390
0
100
AcDbBlockBegin
  2
*D19
 70
               1
 10
0.0
 20
0.0
 30
0.0
  3
*D19
  1

  0
LINE
  5
13A
100
AcDbEntity
  8
0
370
              -2
390
0
  6
Continuous
 62
               0
100
AcDbLine
 10
734.37509013438228
 20
792.91742051786105
 30
0.0
 11
831.86365396534734
 21
792.91742051786105
 31
0.0
  0
LINE
  5
13B
100
AcDbEntity
  8
0
370
              -2
390
0
  6
Continuous
 62
               0
100
AcDbLine
 10
734.37509013438228
 20
442.91742051786264
 30
0.0
 11
831.86365396534734
 21
442.91742051786264
 31
0.0
  0
LINE
  5
13C
100
AcDbEntity
  8
0
370
              -2
390
0
  6
Continuous
 62
               0
100
AcDbLine
 10
831.86365396534734
 20
792.91742051786105
 30
0.0
 11
831.86365396534734
 21
442.91742051786264
 31
0.0
  0
CIRCLE
  5
13D
102
{ACAD_REACTORS
330
13E
102
}
100
AcDbEntity
  8
0
370
              -2
390
0
  6
Continuous
 62
               0
100
AcDbCircle
 10
831.86365396534734
 20
792.91742051786105
 30
0.0
 40
1.9998779296875
  0
HATCH
  5
13E
100
AcDbEntity
  8
0
370
              -2
390
0
  6
Continuous
 62
               0
100
AcDbHatch
 10
0.0
 20
0.0
 30
0.0
210
0.0
220
0.0
230
1.0
  2
SOLID
 70
               1
 71
               1
 91
        1
 92
        1
 93
        1
 72
               2
 10
831.86365396534734
 20
792.91742051786105
 40
1.9998779296875
 50
0.0
 51
360.0
 73
               0
 97
        1
330
13D
 75
               0
 76
               1
 98
        1
 10
0.0
 20
0.0
  0
CIRCLE
  5
13F
102
{ACAD_REACTORS
330
140
102
}
100
AcDbEntity
  8
0
370
              -2
390
0
  6
Continuous
 62
               0
100
AcDbCircle
 10
831.86365396534734
 20
442.91742051786264
 30
0.0
 40
1.9998779296875
  0
HATCH
  5
140
100
AcDbEntity
  8
0
370
              -2
390
0
  6
Continuous
 62
               0
100
AcDbHatch
 10
0.0
 20
0.0
 30
0.0
210
0.0
220
0.0
230
1.0
  2
SOLID
 70
               1
 71
               1
 91
        1
 92
        1
 93
        1
 72
               2
 10
831.86365396534734
 20
442.91742051786264
 40
1.9998779296875
 50
0.0
 51
360.0
 73
               0
 97
        1
330
13F
 75
               0
 76
               1
 98
        1
 10
0.0
 20
0.0
  0
MTEXT
  5
141
100
AcDbEntity
  8
0
390
0
 62
               0
100
AcDbMText
 10
797.98603677784729
 20
594.10491883568636
 30
0.0
 40
24.432617187500004
 41
0.0
 71
               1
 72
               1
  1
350
  7
ＭＳ ゴシック
 11
0.0
 21
1.0
 31
0.0
 73
               1
 44
0.7828267384257843
  0
POINT
  5
142
100
AcDbEntity
  8
Defpoints
370
               0
390
0
 62
               0
100
AcDbPoint
 10
709.37509013438228
 20
442.91742051786264
 30
0.0
  0
POINT
  5
143
100
AcDbEntity
  8
Defpoints
370
               0
390
0
 62
               0
100
AcDbPoint
 10
709.37509013438228
 20
792.91742051786105
 30
0.0
  0
POINT
  5
144
100
AcDbEntity
  8
Defpoints
370
               0
390
0
 62
               0
100
AcDbPoint
 10
831.86365396534734
 20
792.91742051786105
 30
0.0
  0
ENDBLK
  5
145
100
AcDbEntity
  8
notes
390
0
100
AcDbBlockEnd
  0
BLOCK
  5
146
100
AcDbEntity
  8
notes
390
0
100
AcDbBlockBegin
  2
*D20
 70
               1
 10
0.0
 20
0.0
 30
0.0
  3
*D20
  1

  0
LINE
  5
147
100
AcDbEntity
  8
0
370
              -2
390
0
  6
Continuous
 62
               0
100
AcDbLine
 10
229.37509013438216
 20
417.91742051786264
 30
0.0
 11
229.37509013438216
 21
312.91742051786264
 31
0.0
  0
LINE
  5
148
100
AcDbEntity
  8
0
370
              -2
390
0
  6
Continuous
 62
               0
100
AcDbLine
 10
709.37509013438228
 20
417.91742051786264
 30
0.0
 11
709.37509013438228
 21
312.91742051786264
 31
0.0
  0
LINE
  5
149
100
AcDbEntity
  8
0
370
              -2
390
0
  6
Continuous
 62
               0
100
AcDbLine
 10
229.37509013438216
 20
312.91742051786264
 30
0.0
 11
709.37509013438228
 21
312.91742051786264
 31
0.0
  0
CIRCLE
  5
14A
102
{ACAD_REACTORS
330
14B
102
}
100
AcDbEntity
  8
0
370
              -2
390
0
  6
Continuous
 62
               0
100
AcDbCircle
 10
229.37509013438216
 20
312.91742051786264
 30
0.0
 40
1.9998779296875
  0
HATCH
  5
14B
100
AcDbEntity
  8
0
370
              -2
390
0
  6
Continuous
 62
               0
100
AcDbHatch
 10
0.0
 20
0.0
 30
0.0
210
0.0
220
0.0
230
1.0
  2
SOLID
 70
               1
 71
               1
 91
        1
 92
        1
 93
        1
 72
               2
 10
229.37509013438216
 20
312.91742051786264
 40
1.9998779296875
 50
0.0
 51
360.0
 73
               0
 97
        1
330
14A
 75
               0
 76
               1
 98
        1
 10
0.0
 20
0.0
  0
CIRCLE
  5
14C
102
{ACAD_REACTORS
330
14D
102
}
100
AcDbEntity
  8
0
370
              -2
390
0
  6
Continuous
 62
               0
100
AcDbCircle
 10
709.37509013438228
 20
312.91742051786264
 30
0.0
 40
1.9998779296875
  0
HATCH
  5
14D
100
AcDbEntity
  8
0
370
              -2
390
0
  6
Continuous
 62
               0
100
AcDbHatch
 10
0.0
 20
0.0
 30
0.0
210
0.0
220
0.0
230
1.0
  2
SOLID
 70
               1
 71
               1
 91
        1
 92
        1
 93
        1
 72
               2
 10
709.37509013438228
 20
312.91742051786264
 40
1.9998779296875
 50
0.0
 51
360.0
 73
               0
 97
        1
330
14C
 75
               0
 76
               1
 98
        1
 10
0.0
 20
0.0
  0
MTEXT
  5
14E
100
AcDbEntity
  8
0
390
0
 62
               0
100
AcDbMText
 10
445.56258845220668
 20
346.79503770536269
 30
0.0
 40
24.432617187500004
 41
0.0
 71
               1
 72
               1
  1
480
  7
ＭＳ ゴシック
 73
               1
 44
0.7828267384257843
  0
POINT
  5
14F
100
AcDbEntity
  8
Defpoints
370
               0
390
0
 62
               0
100
AcDbPoint
 10
709.37509013438228
 20
442.91742051786264
 30
0.0
  0
POINT
  5
150
100
AcDbEntity
  8
Defpoints
370
               0
390
0
 62
               0
100
AcDbPoint
 10
229.37509013438216
 20
442.91742051786264
 30
0.0
  0
POINT
  5
151
100
AcDbEntity
  8
Defpoints
370
               0
390
0
 62
               0
100
AcDbPoint
 10
229.37509013438216
 20
312.91742051786264
 30
0.0
  0
ENDBLK
  5
152
100
AcDbEntity
  8
notes
390
0
100
AcDbBlockEnd
  0
BLOCK
  5
153
100
AcDbEntity
  8
FAA70-2217
390
0
100
AcDbBlockBegin
  2
グループ-1
 70
               0
 10
0.0
 20
0.0
 30
0.0
  3
グループ-1
  1

  0
LINE
  5
154
100
AcDbEntity
  8
0
370
              15
390
0
  6
Continuous
 62
               7
100
AcDbLine
 10
-201.04805109428614
 20
653.32725293586873
 30
0.0
 11
-201.04805109428611
 21
999.32725293586725
 31
0.0
  0
LINE
  5
155
100
AcDbEntity
  8
0
370
              15
390
0
  6
Continuous
 62
               7
100
AcDbLine
 10
-691.04805109428617
 20
653.32725293586873
 30
0.0
 11
-691.04805109428617
 21
999.32725293586725
 31
0.0
  0
ENDBLK
  5
156
100
AcDbEntity
  8
FAA70-2217
390
0
100
AcDbBlockEnd
  0
ENDSEC
  0
SECTION
  2
ENTITIES
  0
MTEXT
  5
157
100
AcDbEntity
  8
template
390
0
 62
               7
100
AcDbMText
 10
-967.99999999975921
 20
-1147.4176292337004
 30
0.0
 40
16.288411458333332
 41
0.0
 71
               1
 72
               1
  1
品名
  7
ＭＳ ゴシック
 73
               1
 44
0.7828267384257843
  0
MTEXT
  5
158
100
AcDbEntity
  8
template
390
0
 62
               7
100
AcDbMText
 10
-967.99999999975921
 20
-1232.4176292337004
 30
0.0
 40
16.288411458333332
 41
0.0
 71
               1
 72
               1
  1
仕様
  7
ＭＳ ゴシック
 73
               1
 44
0.7828267384257843
  0
LINE
  5
159
100
AcDbEntity
  8
template
370
               5
390
0
  6
Continuous
 62
               7
100
AcDbLine
 10
974.99999999975876
 20
-1224.0027073587005
 30
0.0
 11
-975.00000000024124
 21
-1224.0027073587005
 31
0.0
  0
LWPOLYLINE
  5
15A
100
AcDbEntity
  8
template
370
               5
390
0
  6
Continuous
 62
               7
100
AcDbPolyline
 90
        5
 70
             128
 10
975.00000000024124
 20
1405.9972926412995
 10
-974.99999999975921
 20
1405.9972926412995
 10
-974.99999999975921
 20
-1394.0027073587005
 10
975.00000000024124
 20
-1394.0027073587005
 10
975.00000000024124
 20
1405.9972926412995
  0
LINE
  5
15B
100
AcDbEntity
  8
template
370
               5
390
0
  6
Continuous
 62
               7
100
AcDbLine
 10
974.99999999975876
 20
-1139.0027073587005
 30
0.0
 11
-975.00000000024124
 21
-1139.0027073587005
 31
0.0
  0
LINE
  5
15C
100
AcDbEntity
  8
template
370
               5
390
0
  6
Continuous
 62
               7
100
AcDbLine
 10
975.00000000024124
 20
-1309.0027073587005
 30
0.0
 11
222.00000000024124
 21
-1309.0027073587005
 31
0.0
  0
MTEXT
  5
15D
100
AcDbEntity
  8
template
390
0
 62
               7
100
AcDbMText
 10
251.87140625250089
 20
-1338.9131018320081
 30
0.0
 40
24.432617187500004
 41
0.0
 71
               1
 72
               1
  1
大洋金物株式会社 ティーフォルム事業部
  7
ＭＳ ゴシック
 73
               1
 44
0.7828267384257843
  0
INSERT
  5
15E
100
AcDbEntity
  8
template
390
0
 62
               7
100
AcDbBlockReference
  2
グループ
 10
0.0
 20
-203.43889431423619
 30
0.0
  0
MTEXT
  5
15F
100
AcDbEntity
  8
template
390
0
 62
               7
100
AcDbMText
 10
784.00000000049999
 20
-1261.0000901712006
 30
0.0
 40
24.432617187500004
 41
0.0
 71
               1
 72
               1
  1
1:10
  7
ＭＳ ゴシック
 73
               1
 44
0.7828267384257843
  0
MTEXT
  5
160
100
AcDbEntity
  8
template
390
0
 62
               7
100
AcDbMText
 10
731.00000000049999
 20
-1232.4176292337004
 30
0.0
 40
16.288411458333332
 41
0.0
 71
               1
 72
               1
  1
縮尺
  7
ＭＳ ゴシック
 73
               1
 44
0.7828267384257843
  0
LINE
  5
161
100
AcDbEntity
  8
template
370
               5
390
0
  6
Continuous
 62
               7
100
AcDbLine
 10
724.00000000049999
 20
-1309.0027073587005
 30
0.0
 11
724.00000000049999
 21
-1224.0027073587005
 31
0.0
  0
MTEXT
  5
162
100
AcDbEntity
  8
template
390
0
 62
               7
100
AcDbMText
 10
480.00000000049999
 20
-1232.4176292337004
 30
0.0
 40
16.288411458333332
 41
0.0
 71
               1
 72
               1
  1
容量
  7
ＭＳ ゴシック
 73
               1
 44
0.7828267384257843
  0
MTEXT
  5
163
100
AcDbEntity
  8
template
390
0
 62
               7
100
AcDbMText
 10
533.00000000049999
 20
-1261.0000901712006
 30
0.0
 40
24.432617187500004
 41
0.0
 71
               1
 72
               1
  1
4.5L
  7
ＭＳ ゴシック
 73
               1
 44
0.7828267384257843
  0
LINE
  5
164
100
AcDbEntity
  8
template
370
               5
390
0
  6
Continuous
 62
               7
100
AcDbLine
 10
473.00000000049999
 20
-1309.0027073587005
 30
0.0
 11
473.00000000049999
 21
-1224.0027073587005
 31
0.0
  0
MTEXT
  5
165
100
AcDbEntity
  8
template
390
0
 62
               7
100
AcDbMText
 10
229.00000000049999
 20
-1147.4176292337004
 30
0.0
 40
16.288411458333332
 41
0.0
 71
               1
 72
               1
  1
品番
  7
ＭＳ ゴシック
 73
               1
 44
0.7828267384257843
  0
MTEXT
  5
166
100
AcDbEntity
  8
template
390
0
 62
               7
100
AcDbMText
 10
229.00000000049999
 20
-1232.4176292337004
 30
0.0
 40
16.288411458333332
 41
0.0
 71
               1
 72
               1
  1
重量
  7
ＭＳ ゴシック
 73
               1
 44
0.7828267384257843
  0
MTEXT
  5
167
100
AcDbEntity
  8
template
390
0
 62
               7
100
AcDbMText
 10
282.00000000049999
 20
-1175.9055276618064
 30
0.0
 40
23.6282642362643
 41
0.0
 71
               1
 72
               1
  1
FAA70-2217
  7
ＭＳ ゴシック
 73
               1
 44
0.7828267384257843
  0
MTEXT
  5
168
100
AcDbEntity
  8
template
390
0
 62
               7
100
AcDbMText
 10
282.00000000049999
 20
-1261.0000901712006
 30
0.0
 40
24.432617187500004
 41
0.0
 71
               1
 72
               1
  1
9kg
  7
ＭＳ ゴシック
 73
               1
 44
0.7828267384257843
  0
LINE
  5
169
100
AcDbEntity
  8
template
370
               5
390
0
  6
Continuous
 62
               7
100
AcDbLine
 10
222.00000000049999
 20
-1394.0027073587005
 30
0.0
 11
222.00000000049999
 21
-1139.0027073587005
 31
0.0
  0
MTEXT
  5
16A
100
AcDbEntity
  8
template
390
0
 62
               7
100
AcDbMText
 10
-914.99999999975932
 20
-1261.0000901712006
 30
0.0
 40
24.432617187500004
 41
0.0
 71
               1
 72
               1
  1
アンダーカウンター/オーバーフロー付き/カウンター固定金具,型 紙付属/\P陶器/ホワイト
  7
ＭＳ ゴシック
 73
               1
 44
1.1307497332816883
  0
MTEXT
  5
16B
100
AcDbEntity
  8
template
390
0
 62
               7
100
AcDbMText
 10
-974.99999999955605
 20
-1405.8565294155574
 30
0.0
 40
21.717881944444446
 41
0.0
 71
               1
 72
               1
  1
100709SH
  7
ＭＳ ゴシック
 73
               1
 44
0.7828267384257843
  0
MTEXT
  5
16C
100
AcDbEntity
  8
template
390
0
 62
               7
100
AcDbMText
 10
-914.9999999997591
 20
-1176.0000901712003
 30
0.0
 40
24.432617187500004
 41
0.0
 71
               1
 72
               1
  1
手洗器 -DURAVIT,Philippe Starck E3-
  7
ＭＳ ゴシック
 73
               1
 44
0.7828267384257843
  0
CIRCLE
  5
16D
100
AcDbEntity
  8
notes
370
              15
390
0
  6
STYLE_26
 62
               7
100
AcDbCircle
 10
-853.85494076721704
 20
155.84340140283334
 30
0.0
 40
17.5
  0
MTEXT
  5
16E
100
AcDbEntity
  8
notes
390
0
 62
               7
100
AcDbMText
 10
-833.78473940905621
 20
170.61923840063506
 30
0.0
 40
24.432617187500004
 41
919.51428096101836
 71
               1
 72
               1
  1
＝φ30もしくはφ35の水栓取付用穴あけ加工を承ります。\P  必要な場合、ご注文の際にご指示ください。
  7
ＭＳ ゴシック
 73
               1
 44
1.0437689845677123
  0
MTEXT
  5
16F
100
AcDbEntity
  8
notes
390
0
 62
               7
100
AcDbMText
 10
102.97509013438219
 20
170.61923840063506
 30
0.0
 40
24.432617187500004
 41
790.0
 71
               1
 72
               1
  1
※陶器製品には寸法公差があります。\P  洗面器の収め方をご確認の上、必ず現物を合わせて\P  カウンターの切込を行ってください。
  7
ＭＳ ゴシック
 73
               1
 44
1.0437689845677123
  0
DIMENSION
  5
170
100
AcDbEntity
  8
notes
370
               5
390
0
  6
Continuous
 62
               7
100
AcDbDimension
  2
*D3
 10
-691.04805109428617
 20
312.91742051786264
 30
0.0
 11
-446.04805109428617
 21
312.91742051786264
 31
0.0
 71
               5
 72
               1
 41
1.0
 42
0.0
  3
tfrom線あり
100
AcDbAlignedDimension
 13
-201.04805109428614
 23
424.29905543528935
 33
0.0
 14
-691.04805109428617
 24
424.29905543528935
 34
0.0
100
AcDbRotatedDimension
1001
ACAD
1000
DSTYLE
1002
{
1070
             279
1070
               2
1070
             340
1005
37
1070
             147
1040
5.0
1002
}
  0
DIMENSION
  5
171
100
AcDbEntity
  8
notes
370
               5
390
0
  6
Continuous
 62
               7
100
AcDbDimension
  2
*D4
 10
589.85466066289018
 20
-393.03383926044273
 30
0.0
 11
584.85466066289018
 21
-368.88257948213595
 31
0.0
 70
             128
 71
               5
 72
               1
 41
1.0
 42
0.0
  3
tfrom線あり
100
AcDbAlignedDimension
 13
608.97966066289018
 23
-528.03383926044307
 33
0.0
 14
608.97966066289018
 24
-393.03383926044273
 34
0.0
 50
90.0
100
AcDbRotatedDimension
1001
ACAD
1000
DSTYLE
1002
{
1070
             279
1070
               2
1070
             340
1005
37
1070
               3
1000
<>(深さ)
1070
             174
1070
               0
1070
             147
1040
5.0
1002
}
  0
DIMENSION
  5
172
100
AcDbEntity
  8
notes
370
               5
390
0
  6
Continuous
 62
               7
100
AcDbDimension
  2
*D5
 10
768.97509013438219
 20
-291.88257948213595
 30
0.0
 11
733.97509013438219
 21
-291.88257948213595
 31
0.0
 71
               5
 72
               1
 41
1.0
 42
0.0
  3
tfrom線あり
100
AcDbAlignedDimension
 13
698.97509013438219
 23
-412.92695953763376
 33
0.0
 14
768.97509013438219
 24
-398.03383926044273
 34
0.0
100
AcDbRotatedDimension
1001
ACAD
1000
DSTYLE
1002
{
1070
             279
1070
               2
1070
             340
1005
37
1070
             147
1040
5.0
1002
}
  0
DIMENSION
  5
173
100
AcDbEntity
  8
notes
370
               5
390
0
  6
Continuous
 62
               7
100
AcDbDimension
  2
*D6
 10
-708.54805109428605
 20
972.88835862163114
 30
0.0
 11
-446.04805109428611
 21
972.88835862163114
 31
0.0
 71
               5
 72
               1
 41
1.0
 42
0.0
  3
tfrom線あり
100
AcDbAlignedDimension
 13
-183.54805109428617
 23
797.88835862163103
 33
0.0
 14
-708.54805109428605
 24
797.88835862163103
 34
0.0
100
AcDbRotatedDimension
1001
ACAD
1000
DSTYLE
1002
{
1070
             279
1070
               2
1070
             340
1005
37
1070
             147
1040
5.0
1002
}
  0
DIMENSION
  5
174
100
AcDbEntity
  8
notes
370
               5
390
0
  6
Continuous
 62
               7
100
AcDbDimension
  2
*D7
 10
-458.46055750659679
 20
740.55224559667681
 30
0.0
 11
-257.02490986561759
 21
881.11742051786064
 31
0.0
 70
               3
 71
               5
 72
               1
 41
1.0
 42
0.0
  3
tfrom線あり
100
AcDbDiametricDimension
 15
-433.63554468197617
 25
765.22447164658524
 35
0.0
 40
164.40564391271431
1001
ACAD
1000
DSTYLE
1002
{
1070
             289
1070
               0
1070
             342
1005
56
1070
             340
1005
37
1070
              73
1070
               1
1070
              74
1070
               1
1070
              75
1070
               1
1070
              76
1070
               1
1070
               3
1000

1070
             174
1070
               0
1070
             147
1040
5.0
1002
}
  0
DIMENSION
  5
175
100
AcDbEntity
  8
notes
370
               5
390
0
  6
Continuous
 62
               7
100
AcDbDimension
  2
*D8
 10
-546.04805109428617
 20
923.45075385120526
 30
0.0
 11
-496.04805109428628
 21
923.45075385120526
 31
0.0
 71
               5
 72
               1
 41
1.0
 42
0.0
  3
tfrom線あり
100
AcDbAlignedDimension
 13
-446.04805109428639
 23
789.94272579617757
 33
0.0
 14
-546.04805109428617
 24
789.94272579617757
 34
0.0
100
AcDbRotatedDimension
1001
ACAD
1000
DSTYLE
1002
{
1070
             279
1070
               2
1070
             340
1005
37
1070
             147
1040
5.0
1002
}
  0
DIMENSION
  5
176
100
AcDbEntity
  8
notes
370
               5
390
0
  6
Continuous
 62
               7
100
AcDbDimension
  2
*D9
 10
-446.04805109428639
 20
923.45075385120526
 30
0.0
 11
-396.04805109428639
 21
923.45075385120526
 31
0.0
 71
               5
 72
               1
 41
1.0
 42
0.0
  3
tfrom線あり
100
AcDbAlignedDimension
 13
-346.04805109428639
 23
789.94272579617757
 33
0.0
 14
-446.04805109428639
 24
789.94272579617757
 34
0.0
100
AcDbRotatedDimension
1001
ACAD
1000
DSTYLE
1002
{
1070
             279
1070
               2
1070
             340
1005
37
1070
             147
1040
5.0
1002
}
  0
DIMENSION
  5
177
100
AcDbEntity
  8
notes
370
               5
390
0
  6
Continuous
 62
               7
100
AcDbDimension
  2
*D10
 10
-33.548051094286166
 20
822.88835862163091
 30
0.0
 11
-33.548051094286166
 21
617.88835862163182
 31
0.0
 71
               5
 72
               1
 41
1.0
 42
0.0
  3
tfrom線あり
100
AcDbAlignedDimension
 13
-414.61093658872676
 23
412.88835862163285
 33
0.0
 14
-208.54805109428617
 24
822.88835862163091
 34
0.0
 50
90.0
100
AcDbRotatedDimension
1001
ACAD
1000
DSTYLE
1002
{
1070
             279
1070
               2
1070
             340
1005
37
1070
             147
1040
5.0
1002
}
  0
DIMENSION
  5
178
100
AcDbEntity
  8
notes
370
               5
390
0
  6
Continuous
 62
               7
100
AcDbDimension
  2
*D11
 10
-25.024909865617815
 20
-393.03383926044273
 30
0.0
 11
-25.024909865617815
 21
-488.03383926044341
 31
0.0
 71
               5
 72
               1
 41
1.0
 42
0.0
  3
tfrom線あり
100
AcDbAlignedDimension
 13
-408.79808534179074
 23
-583.03383926044398
 33
0.0
 14
-188.9241897483065
 24
-393.03383926044273
 34
0.0
 50
90.0
100
AcDbRotatedDimension
1001
ACAD
1000
DSTYLE
1002
{
1070
             279
1070
               2
1070
             340
1005
37
1070
             147
1040
5.0
1002
}
  0
DIMENSION
  5
179
100
AcDbEntity
  8
notes
370
               5
390
0
  6
Continuous
 62
               7
100
AcDbDimension
  2
*D12
 10
-83.548051094286166
 20
804.88835862163103
 30
0.0
 11
-83.548051094286166
 21
622.38835862163103
 31
0.0
 71
               5
 72
               1
 41
1.0
 42
0.0
  3
tfrom線あり
100
AcDbAlignedDimension
 13
-185.54805109428619
 23
439.88835862163103
 33
0.0
 14
-184.54805109428617
 24
804.88835862163103
 34
0.0
 50
90.0
100
AcDbRotatedDimension
1001
ACAD
1000
DSTYLE
1002
{
1070
             279
1070
               2
1070
             340
1005
37
1070
             147
1040
5.0
1002
}
  0
DIMENSION
  5
17A
100
AcDbEntity
  8
notes
370
               5
390
0
  6
Continuous
 62
               7
100
AcDbDimension
  2
*D13
 10
-808.54805109428605
 20
804.88835862163103
 30
0.0
 11
-808.54805109428605
 21
759.88835862163103
 31
0.0
 71
               5
 72
               1
 41
1.0
 42
0.0
  3
tfrom線あり
100
AcDbAlignedDimension
 13
-707.79545924486274
 23
714.88835862163103
 33
0.0
 14
-707.79545924486274
 24
804.88835862163103
 34
0.0
 50
90.0
100
AcDbRotatedDimension
1001
ACAD
1000
DSTYLE
1002
{
1070
             279
1070
               2
1070
             340
1005
37
1070
             147
1040
5.0
1002
}
  0
DIMENSION
  5
17B
100
AcDbEntity
  8
notes
370
               5
390
0
  6
Continuous
 62
               7
100
AcDbDimension
  2
*D14
 10
-808.54805109428605
 20
714.88835862163103
 30
0.0
 11
-808.54805109428605
 21
577.38835862163182
 31
0.0
 71
               5
 72
               1
 41
1.0
 42
0.0
  3
tfrom線あり
100
AcDbAlignedDimension
 13
-707.79545924486274
 23
439.88835862163262
 33
0.0
 14
-707.79545924486274
 24
714.88835862163103
 34
0.0
 50
90.0
100
AcDbRotatedDimension
1001
ACAD
1000
DSTYLE
1002
{
1070
             279
1070
               2
1070
             340
1005
37
1070
             147
1040
5.0
1002
}
  0
DIMENSION
  5
17C
100
AcDbEntity
  8
notes
370
               5
390
0
  6
Continuous
 62
               7
100
AcDbDimension
  2
*D15
 10
-808.54805109428605
 20
804.88835862163103
 30
0.0
 11
-808.54805109428605
 21
813.88835862163114
 31
0.0
 71
               5
 72
               1
 41
1.0
 42
0.0
  3
tfrom線あり
100
AcDbAlignedDimension
 13
-683.54805109428605
 23
822.88835862163114
 33
0.0
 14
-707.54805109428764
 24
804.88835862163103
 34
0.0
 50
90.0
100
AcDbRotatedDimension
1001
ACAD
1000
DSTYLE
1002
{
1070
             279
1070
               2
1070
             340
1005
37
1070
             147
1040
5.0
1002
}
  0
DIMENSION
  5
17D
100
AcDbEntity
  8
notes
370
               5
390
0
  6
Continuous
 62
               7
100
AcDbDimension
  2
*D16
 10
293.97966066288996
 20
-393.03383926044273
 30
0.0
 11
293.97966066288996
 21
-410.53383926044262
 31
0.0
 71
               5
 72
               1
 41
1.0
 42
0.0
  3
tfrom線あり
100
AcDbAlignedDimension
 13
373.97509013438207
 23
-428.03383926044251
 33
0.0
 14
373.97509013438207
 24
-393.03383926044273
 34
0.0
 50
90.0
100
AcDbRotatedDimension
1001
ACAD
1000
DSTYLE
1002
{
1070
             279
1070
               2
1070
             340
1005
37
1070
             147
1040
5.0
1002
}
  0
DIMENSION
  5
17E
100
AcDbEntity
  8
notes
370
               5
390
0
  6
Continuous
 62
               7
100
AcDbDimension
  2
*D17
 10
293.97966066288996
 20
-428.03383926044251
 30
0.0
 11
293.97966066288996
 21
-505.5338392604433
 31
0.0
 71
               5
 72
               1
 41
1.0
 42
0.0
  3
tfrom線あり
100
AcDbAlignedDimension
 13
556.74982838188657
 23
-583.03383926044398
 33
0.0
 14
373.97509013438207
 24
-428.03383926044251
 34
0.0
 50
90.0
100
AcDbRotatedDimension
1001
ACAD
1000
DSTYLE
1002
{
1070
             279
1070
               2
1070
             340
1005
37
1070
             147
1040
5.0
1002
}
  0
DIMENSION
  5
17F
100
AcDbEntity
  8
notes
370
               5
390
0
  6
Continuous
 62
               7
100
AcDbDimension
  2
*D18
 10
593.99979413438246
 20
-670.88257948213709
 30
0.0
 11
681.48744213438226
 21
-670.88257948213709
 31
0.0
 71
               5
 72
               1
 41
1.0
 42
0.0
  3
tfrom線あり
100
AcDbAlignedDimension
 13
768.97509013438219
 23
-423.03383926044256
 33
0.0
 14
593.99979413438246
 24
-583.03383926044387
 34
0.0
100
AcDbRotatedDimension
1001
ACAD
1000
DSTYLE
1002
{
1070
             279
1070
               2
1070
             340
1005
37
1070
             147
1040
5.0
1002
}
  0
DIMENSION
  5
180
100
AcDbEntity
  8
notes
370
               5
390
0
  6
Continuous
 62
               7
100
AcDbDimension
  2
*D19
 10
831.86365396534734
 20
792.91742051786105
 30
0.0
 11
831.86365396534734
 21
617.91742051786184
 31
0.0
 71
               5
 72
               1
 41
1.0
 42
0.0
  3
tfrom線あり
100
AcDbAlignedDimension
 13
709.37509013438228
 23
442.91742051786264
 33
0.0
 14
709.37509013438228
 24
792.91742051786105
 34
0.0
 50
90.0
100
AcDbRotatedDimension
1001
ACAD
1000
DSTYLE
1002
{
1070
             279
1070
               2
1070
             340
1005
37
1070
             147
1040
5.0
1002
}
  0
DIMENSION
  5
181
100
AcDbEntity
  8
notes
370
               5
390
0
  6
Continuous
 62
               7
100
AcDbDimension
  2
*D20
 10
229.37509013438216
 20
312.91742051786264
 30
0.0
 11
469.37509013438222
 21
312.91742051786264
 31
0.0
 71
               5
 72
               1
 41
1.0
 42
0.0
  3
tfrom線あり
100
AcDbAlignedDimension
 13
709.37509013438228
 23
442.91742051786264
 33
0.0
 14
229.37509013438216
 24
442.91742051786264
 34
0.0
100
AcDbRotatedDimension
1001
ACAD
1000
DSTYLE
1002
{
1070
             279
1070
               2
1070
             340
1005
37
1070
             147
1040
5.0
1002
}
  0
MTEXT
  5
182
100
AcDbEntity
  8
notes
390
0
 62
               7
100
AcDbMText
 10
332.39778223904455
 20
1045.6577682251234
 30
0.0
 40
24.432617187500004
 41
0.0
 71
               1
 72
               1
  1
カウンター切込寸法
  7
ＭＳ ゴシック
 73
               1
 44
0.7828267384257843
  0
LINE
  5
183
100
AcDbEntity
  8
FAA70-2217
370
              15
390
0
  6
Continuous
 62
               7
100
AcDbLine
 10
-471.05668824706424
 20
-483.9457750243314
 30
0.0
 11
-421.055950399842
 21
-483.9457750243314
 31
0.0
  0
LINE
  5
184
100
AcDbEntity
  8
FAA70-2217
370
              15
390
0
  6
Continuous
 62
               7
100
AcDbLine
 10
-483.91102852484198
 20
-395.18268271094041
 30
0.0
 11
-483.91102852484198
 21
-425.00342923871796
 31
0.0
  0
LINE
  5
185
100
AcDbEntity
  8
FAA70-2217
370
              15
390
0
  6
Continuous
 62
               7
100
AcDbLine
 10
-703.92418974830628
 20
-428.03383926044251
 30
0.0
 11
-483.47053373317533
 21
-428.03383926044251
 31
0.0
  0
ARC
  5
186
100
AcDbEntity
  8
FAA70-2217
370
              15
390
0
  6
Continuous
 62
               7
100
AcDbCircle
 10
-483.47053373317533
 20
-433.03383926044251
 30
0.0
 40
5.0
100
AcDbArc
 50
0.0
 51
90.0
  0
LINE
  5
187
100
AcDbEntity
  8
FAA70-2217
370
              15
390
0
  6
Continuous
 62
               7
100
AcDbLine
 10
-478.47053373317533
 20
-574.13946847422653
 30
0.0
 11
-478.47053373317533
 21
-393.03383926044273
 31
0.0
  0
LINE
  5
188
100
AcDbEntity
  8
FAA70-2217
370
              15
390
0
  6
Continuous
 62
               7
100
AcDbLine
 10
-414.37784576343768
 20
-574.09422933562939
 30
0.0
 11
-414.37784576343768
 21
-393.03383926044273
 31
0.0
  0
LINE
  5
189
100
AcDbEntity
  8
FAA70-2217
370
              15
390
0
  6
Continuous
 62
               7
100
AcDbLine
 10
-188.9241897483065
 20
-428.03383926044251
 30
0.0
 11
-409.37784576343768
 21
-428.03383926044251
 31
0.0
  0
ARC
  5
18A
100
AcDbEntity
  8
FAA70-2217
370
              15
390
0
  6
Continuous
 62
               7
100
AcDbCircle
 10
-409.37784576343768
 20
-433.03383926044251
 30
0.0
 40
4.9999999999999716
100
AcDbArc
 50
90.0
 51
180.0
  0
ARC
  5
18B
100
AcDbEntity
  8
FAA70-2217
370
              15
390
0
  6
Continuous
 62
               7
100
AcDbCircle
 10
-446.00978688810108
 20
-1069.6206384559389
 30
0.0
 40
491.24155652639138
100
AcDbArc
 50
86.923612636018817
 51
93.17222327834908
  0
LINE
  5
18C
100
AcDbEntity
  8
FAA70-2217
370
              15
390
0
  6
Continuous
 62
               7
100
AcDbLine
 10
-408.93735097177102
 20
-395.18268271094041
 30
0.0
 11
-408.93735097177102
 21
-425.00342923871796
 31
0.0
  0
LWPOLYLINE
  5
18D
100
AcDbEntity
  8
FAA70-2217
370
              15
390
0
  6
Continuous
 62
               7
100
AcDbPolyline
 90
       21
 70
             129
 10
-196.83781458561691
 20
-428.03383926044251
 10
-188.9241897483065
 20
-428.03383926044251
 42
0.4142135623730934
 10
-183.9241897483065
 20
-423.03383926044256
 10
-183.9241897483065
 20
-398.03383926044273
 42
0.4142135623730967
 10
-188.9241897483065
 20
-393.03383926044273
 10
-703.92418974830628
 20
-393.03383926044273
 42
0.4142135623730967
 10
-708.92418974830628
 20
-398.03383926044273
 10
-708.92418974830628
 20
-423.03383926044256
 42
0.4142135623731018
 10
-703.92418974830616
 20
-428.03383926044251
 10
-695.25828760295519
 20
-428.03383926044336
 42
0.3334604605182902
 10
-581.21574806830154
 20
-539.67506609251473
 42
0.0427434758114524
 10
-510.69890677326771
 20
-548.75963216646289
 42
-0.1248386072036077
 10
-487.24226087123293
 20
-558.73497053139079
 42
-0.2342244145497972
 10
-483.29801684678205
 20
-566.69284836185557
 10
-483.29801684678205
 20
-583.03383926044398
 10
-446.04805109428662
 20
-583.03383926044387
 10
-408.79808534179074
 20
-583.03383926044398
 10
-408.79808534179074
 20
-566.69284836185557
 42
-0.2342244145497992
 10
-404.85384131733986
 20
-558.73497053139079
 42
-0.1248386072036119
 10
-381.39719541530462
 20
-548.75963216646289
 42
0.0427434758114532
 10
-310.88035412027165
 20
-539.67506609251507
 42
0.3334604605182886
  0
ARC
  5
18E
100
AcDbEntity
  8
FAA70-2217
370
              15
390
0
  6
Continuous
 62
               7
100
AcDbCircle
 10
-419.37784576343768
 20
-574.09422933562939
 30
0.0
 40
5.0000000000000684
100
AcDbArc
 50
266.92361263601845
 51
0.0
  0
ARC
  5
18F
100
AcDbEntity
  8
FAA70-2217
370
              15
390
0
  6
Continuous
 62
               7
100
AcDbCircle
 10
-473.47053373317533
 20
-574.13946847422653
 30
0.0
 40
5.0
100
AcDbArc
 50
180.0
 51
273.17222327835015
  0
LWPOLYLINE
  5
190
100
AcDbEntity
  8
FAA70-2217
370
              15
390
0
  6
Continuous
 62
               7
100
AcDbPolyline
 90
       38
 70
             129
 10
-433.95674839674325
 20
456.3160006591836
 10
-434.14675139674341
 20
457.40099165918366
 10
-434.71050239674332
 20
458.45351265918362
 10
-435.63173639674346
 20
459.4410006591836
 10
-436.88173639674346
 20
460.33348665918356
 10
-438.42174539674329
 20
461.10350665918361
 10
-440.20674839674325
 20
461.72850665918361
 10
-442.18175539674326
 20
462.18913865918353
 10
-444.28673539674332
 20
462.47099965918346
 10
-446.45674839674325
 20
462.56600065918349
 10
-448.62676239674352
 20
462.47099965918346
 10
-450.73174239674336
 20
462.18913865918353
 10
-452.70674839674325
 20
461.72850665918361
 10
-454.49175239674332
 20
461.10350665918361
 10
-456.03176139674338
 20
460.33348665918356
 10
-457.28176139674338
 20
459.4410006591836
 10
-458.20299539674329
 20
458.45351265918362
 10
-458.76674639674343
 20
457.40099165918366
 10
-458.95674839674325
 20
456.3160006591836
 10
-458.76674639674343
 20
455.23100865918366
 10
-458.20299539674329
 20
454.17848865918359
 10
-457.28176139674338
 20
453.19100065918371
 10
-456.03176139674338
 20
452.29851365918375
 10
-454.49175239674332
 20
451.52849465918371
 10
-452.70674839674325
 20
450.90349465918371
 10
-450.73174239674336
 20
450.44286165918368
 10
-448.62676239674352
 20
450.16100165918374
 10
-446.45674839674325
 20
450.06600065918371
 10
-444.28673539674332
 20
450.16100165918374
 10
-442.18175539674326
 20
450.44286165918368
 10
-440.20674839674325
 20
450.90349465918371
 10
-438.42174539674329
 20
451.52849465918371
 10
-436.88173639674346
 20
452.29851365918375
 10
-435.63173639674346
 20
453.19100065918371
 10
-434.71050239674332
 20
454.17848865918359
 10
-434.14675139674341
 20
455.23100865918366
 10
-433.95674839674325
 20
456.3160006591836
 10
-433.95674839674325
 20
456.3160006591836
  0
CIRCLE
  5
191
100
AcDbEntity
  8
FAA70-2217
370
              15
390
0
  6
Continuous
 62
               7
100
AcDbCircle
 10
-446.04805109428639
 20
752.88835862163103
 30
0.0
 40
17.5
  0
CIRCLE
  5
192
100
AcDbEntity
  8
FAA70-2217
370
              15
390
0
  6
Continuous
 62
               7
100
AcDbCircle
 10
-446.04805109428639
 20
647.91306262163107
 30
0.0
 40
26.0
  0
CIRCLE
  5
193
100
AcDbEntity
  8
FAA70-2217
370
              15
390
0
  6
Continuous
 62
               7
100
AcDbCircle
 10
-446.04805109428639
 20
647.91306262163107
 30
0.0
 40
37.5
  0
LINE
  5
194
100
AcDbEntity
  8
FAA70-2217
370
              15
390
0
  6
Continuous
 62
               7
100
AcDbLine
 10
-210.04805109428619
 20
440.88835862163262
 30
0.0
 11
-682.04805109428617
 21
440.88835862163262
 31
0.0
  0
LINE
  5
195
100
AcDbEntity
  8
FAA70-2217
370
              15
390
0
  6
Continuous
 62
               7
100
AcDbLine
 10
-210.04805109428617
 20
714.91742051786105
 30
0.0
 11
-682.04805109428617
 21
714.91742051786105
 31
0.0
  0
LWPOLYLINE
  5
196
100
AcDbEntity
  8
FAA70-2217
370
              15
390
0
  6
Continuous
 62
               7
100
AcDbPolyline
 90
       20
 70
             129
 10
-183.54805109428617
 20
797.88835862163103
 42
0.4142135623730934
 10
-208.54805109428617
 20
822.88835862163114
 10
-683.54805109428605
 20
822.88835862163114
 42
0.4142135623730977
 10
-708.54805109428605
 20
797.88835862163103
 10
-708.54805109428605
 20
447.88835862163251
 42
0.4142135623731004
 10
-683.54805109428605
 20
422.88835862163285
 10
-484.4328748232964
 20
422.88835862163285
 42
-0.2969634925523045
 10
-481.68888422616931
 20
421.10100679933225
 10
-480.22490986561792
 20
414.71742051786305
 10
-480.19657295111938
 20
414.65366246024132
 42
0.2963915373637373
 10
-477.52490986561793
 20
412.91742051786298
 10
-446.02490986561793
 20
412.91742051786298
 10
-414.62490986561795
 20
412.91742051786298
 10
-414.57452913288324
 20
412.91742051786298
 42
0.2963915373637489
 10
-411.83309448702255
 20
414.69900511970263
 10
-411.82490986561794
 20
414.71742051786305
 10
-410.40721796240325
 20
421.10100679933214
 42
-0.2969634925523233
 10
-407.66322736527616
 20
422.88835862163285
 10
-208.54805109428617
 20
422.88835862163285
 42
0.4142135623730897
 10
-183.54805109428617
 20
447.88835862163251
  0
ARC
  5
197
100
AcDbEntity
  8
FAA70-2217
370
              15
390
0
  6
Continuous
 62
               7
100
AcDbCircle
 10
-682.04805109428617
 20
449.88835862163251
 30
0.0
 40
9.0
100
AcDbArc
 50
180.0
 51
270.0
  0
ARC
  5
198
100
AcDbEntity
  8
FAA70-2217
370
              15
390
0
  6
Continuous
 62
               7
100
AcDbCircle
 10
-210.04805109428619
 20
449.88835862163251
 30
0.0
 40
8.9999999999998863
100
AcDbArc
 50
270.0
 51
0.0
  0
LINE
  5
199
100
AcDbEntity
  8
FAA70-2217
370
              15
390
0
  6
Continuous
 62
               7
100
AcDbLine
 10
-210.04805109428614
 20
804.88835862163103
 30
0.0
 11
-682.04805109428617
 21
804.88835862163103
 31
0.0
  0
ARC
  5
19A
100
AcDbEntity
  8
FAA70-2217
370
              15
390
0
  6
Continuous
 62
               7
100
AcDbCircle
 10
-210.04805109428614
 20
795.88835862163103
 30
0.0
 40
9.0
100
AcDbArc
 50
0.0
 51
90.0
  0
ARC
  5
19B
100
AcDbEntity
  8
FAA70-2217
370
              15
390
0
  6
Continuous
 62
               7
100
AcDbCircle
 10
-682.04805109428617
 20
795.88835862163103
 30
0.0
 40
9.0
100
AcDbArc
 50
90.0
 51
180.0
  0
ARC
  5
19C
100
AcDbEntity
  8
FAA70-2217
370
              15
390
0
  6
Continuous
 62
               7
100
AcDbCircle
 10
-210.04805109428617
 20
705.91742051786105
 30
0.0
 40
9.0
100
AcDbArc
 50
0.0
 51
90.0
  0
ARC
  5
19D
100
AcDbEntity
  8
FAA70-2217
370
              15
390
0
  6
Continuous
 62
               7
100
AcDbCircle
 10
-682.04805109428617
 20
705.91742051786105
 30
0.0
 40
9.0
100
AcDbArc
 50
90.0
 51
180.0
  0
LINE
  5
19E
100
AcDbEntity
  8
FAA70-2217
370
              15
390
0
  6
Continuous
 62
               7
100
AcDbLine
 10
763.97509013438207
 20
-428.03383926044251
 30
0.0
 11
557.3295888035334
 21
-428.03383926044251
 31
0.0
  0
LINE
  5
19F
100
AcDbEntity
  8
FAA70-2217
370
              15
390
0
  6
Continuous
 62
               7
100
AcDbLine
 10
373.97509013438207
 20
-428.03383926044251
 30
0.0
 11
557.3295888035334
 21
-428.03383926044251
 31
0.0
  0
ARC
  5
1A0
100
AcDbEntity
  8
FAA70-2217
370
              15
390
0
  6
Continuous
 62
               7
100
AcDbCircle
 10
547.12766766913523
 20
-132.52875012946237
 30
0.0
 40
416.61040598352156
100
AcDbArc
 50
257.76405258525722
 51
267.55417634934543
  0
ARC
  5
1A1
100
AcDbEntity
  8
FAA70-2217
370
              15
390
0
  6
Continuous
 62
               7
100
AcDbCircle
 10
521.41211904772445
 20
-599.98916944863959
 30
0.0
 40
51.84070401196314
100
AcDbArc
 50
52.729727176934482
 51
81.193372399012588
  0
ARC
  5
1A2
100
AcDbEntity
  8
FAA70-2217
370
              15
390
0
  6
Continuous
 62
               7
100
AcDbCircle
 10
546.74982838188635
 20
-566.69284836185568
 30
0.0
 40
10.000000000000114
100
AcDbArc
 50
0.0000000000006821
 51
52.729727176933352
  0
LINE
  5
1A3
100
AcDbEntity
  8
FAA70-2217
370
              15
390
0
  6
Continuous
 62
               7
100
AcDbLine
 10
556.74982838188657
 20
-583.03383926044398
 30
0.0
 11
556.74982838188657
 21
-566.69284836185579
 31
0.0
  0
POLYLINE
  5
1A4
100
AcDbEntity
  8
FAA70-2217
370
              15
390
0
  6
Continuous
 62
               7
100
AcDb2dPolyline
 66
               1
 10
0.0
 20
0.0
 30
0.0
 75
               5
  0
VERTEX
  5
1A5
100
AcDbEntity
  8
FAA70-2217
370
              15
390
0
  6
Continuous
 62
               7
100
AcDbVertex
100
AcDb2dVertex
 10
631.24975988687788
 20
-583.03383926044398
 30
0.0
  0
VERTEX
  5
1A6
100
AcDbEntity
  8
FAA70-2217
370
              15
390
0
  6
Continuous
 62
               7
100
AcDbVertex
100
AcDb2dVertex
 10
593.99979413438246
 20
-583.03383926044387
 30
0.0
  0
VERTEX
  5
1A7
100
AcDbEntity
  8
FAA70-2217
370
              15
390
0
  6
Continuous
 62
               7
100
AcDbVertex
100
AcDb2dVertex
 10
556.74982838188657
 20
-583.03383926044398
 30
0.0
  0
SEQEND
  5
1A8
100
AcDbEntity
  8
FAA70-2217
370
              15
390
0
  6
Continuous
 62
               7
  0
LINE
  5
1A9
100
AcDbEntity
  8
FAA70-2217
370
              15
390
0
  6
Continuous
 62
               7
100
AcDbLine
 10
763.97509013438207
 20
-428.03383926044251
 30
0.0
 11
755.30918798903122
 21
-428.03383926044251
 31
0.0
  0
ARC
  5
1AA
100
AcDbEntity
  8
FAA70-2217
370
              15
390
0
  6
Continuous
 62
               7
100
AcDbCircle
 10
763.97509013438219
 20
-423.03383926044256
 30
0.0
 40
4.9999999999999716
100
AcDbArc
 50
269.99999999999869
 51
0.0
  0
LINE
  5
1AB
100
AcDbEntity
  8
FAA70-2217
370
              15
390
0
  6
Continuous
 62
               7
100
AcDbLine
 10
768.97509013438219
 20
-398.03383926044273
 30
0.0
 11
768.97509013438219
 21
-423.03383926044256
 31
0.0
  0
ARC
  5
1AC
100
AcDbEntity
  8
FAA70-2217
370
              15
390
0
  6
Continuous
 62
               7
100
AcDbCircle
 10
763.97509013438219
 20
-398.03383926044273
 30
0.0
 40
5.0
100
AcDbArc
 50
0.0
 51
90.0
  0
LINE
  5
1AD
100
AcDbEntity
  8
FAA70-2217
370
              15
390
0
  6
Continuous
 62
               7
100
AcDbLine
 10
373.97509013438207
 20
-393.03383926044273
 30
0.0
 11
763.97509013438219
 21
-393.03383926044273
 31
0.0
  0
ARC
  5
1AE
100
AcDbEntity
  8
FAA70-2217
370
              15
390
0
  6
Continuous
 62
               7
100
AcDbCircle
 10
373.97509013438207
 20
-398.03383926044273
 30
0.0
 40
4.9999999999999716
100
AcDbArc
 50
90.0
 51
180.0
  0
LINE
  5
1AF
100
AcDbEntity
  8
FAA70-2217
370
              15
390
0
  6
Continuous
 62
               7
100
AcDbLine
 10
368.97509013438207
 20
-423.03383926044256
 30
0.0
 11
368.97509013438207
 21
-398.03383926044273
 31
0.0
  0
ARC
  5
1B0
100
AcDbEntity
  8
FAA70-2217
370
              15
390
0
  6
Continuous
 62
               7
100
AcDbCircle
 10
373.97509013438207
 20
-423.03383926044256
 30
0.0
 40
5.0
100
AcDbArc
 50
180.0
 51
270.0
  0
LINE
  5
1B1
100
AcDbEntity
  8
FAA70-2217
370
              15
390
0
  6
Continuous
 62
               7
100
AcDbLine
 10
381.88871497169248
 20
-428.03383926044251
 30
0.0
 11
373.97509013438207
 21
-428.03383926044251
 31
0.0
  0
CIRCLE
  5
1B2
100
AcDbEntity
  8
FAA70-2217
370
              15
390
0
  6
STYLE_26
 62
               7
100
AcDbCircle
 10
-546.04805109428617
 20
752.91742051786105
 30
0.0
 40
17.499999999999929
  0
CIRCLE
  5
1B3
100
AcDbEntity
  8
FAA70-2217
370
              15
390
0
  6
STYLE_26
 62
               7
100
AcDbCircle
 10
-346.04805109428639
 20
752.91742051786105
 30
0.0
 40
17.499999999999964
  0
LINE
  5
1B4
100
AcDbEntity
  8
FAA70-2217
370
              15
390
0
  6
Continuous
 62
               7
100
AcDbLine
 10
669.99552243445555
 20
-427.81934658960279
 30
0.0
 11
669.99552243445555
 21
-532.78621032449894
 31
0.0
  0
LINE
  5
1B5
100
AcDbEntity
  8
FAA70-2217
370
              15
390
0
  6
Continuous
 62
               7
100
AcDbLine
 10
636.1468541018246
 20
-555.43889658102842
 30
0.0
 11
662.79130081548396
 21
-542.39468736491995
 31
0.0
  0
SPLINE
  5
1B6
100
AcDbEntity
  8
FAA70-2217
370
              15
390
0
  6
STYLE_26
 62
               7
100
AcDbSpline
210
0.0
220
0.0
230
1.0
 70
               8
 71
               2
 72
               8
 73
               5
 74
               0
 42
0.000001
 43
0.000001
 40
0.0
 40
0.0
 40
0.0
 40
1.0
 40
2.0
 40
3.0
 40
3.0
 40
3.0
 10
665.02268765086433
 20
-412.85352869048722
 30
0.0
 10
663.16697838978212
 20
-412.88257948213584
 30
0.0
 10
659.97235018223705
 20
-414.77264663866822
 30
0.0
 10
658.13459638354857
 20
-417.99765271867
 30
0.0
 10
658.13579165131046
 20
-419.85358897336619
 30
0.0
  0
ARC
  5
1B7
100
AcDbEntity
  8
FAA70-2217
370
              15
390
0
  6
Continuous
 62
               7
100
AcDbCircle
 10
638.10389713089785
 20
-562.15975832505785
 30
0.0
 40
7.000000000000238
100
AcDbArc
 50
106.23499472479412
 51
180.0
  0
LINE
  5
1B8
100
AcDbEntity
  8
FAA70-2217
370
              15
390
0
  6
Continuous
 62
               7
100
AcDbLine
 10
631.10389713089785
 20
-561.99448007932904
 30
0.0
 11
631.10389713089785
 21
-583.54975565740301
 31
0.0
  0
LINE
  5
1B9
100
AcDbEntity
  8
FAA70-2217
370
              15
390
0
  6
STYLE_26
 62
               7
100
AcDbLine
 10
739.97966066289018
 20
-412.95630940195025
 30
0.0
 11
665.02268765086433
 21
-412.85352869048722
 31
0.0
  0
SPLINE
  5
1BA
100
AcDbEntity
  8
FAA70-2217
370
              15
390
0
  6
STYLE_26
 62
               7
100
AcDbSpline
210
0.0
220
0.0
230
1.0
 70
               8
 71
               2
 72
               8
 73
               5
 74
               0
 42
0.000001
 43
0.000001
 40
0.0
 40
0.0
 40
0.0
 40
1.0
 40
2.0
 40
3.0
 40
3.0
 40
3.0
 10
754.8113173702983
 20
-392.94028232883045
 30
0.0
 10
753.19522611501964
 20
-392.94028232882943
 30
0.0
 10
750.2901597179781
 20
-394.35717788261252
 30
0.0
 10
748.3002294650056
 20
-396.90417245855031
 30
0.0
 10
747.96422519960436
 20
-398.48494824246791
 30
0.0
  0
SPLINE
  5
1BB
100
AcDbEntity
  8
FAA70-2217
370
              15
390
0
  6
STYLE_26
 62
               7
100
AcDbSpline
210
0.0
220
0.0
230
1.0
 70
               8
 71
               2
 72
               8
 73
               5
 74
               0
 42
0.000001
 43
0.000001
 40
0.0
 40
0.0
 40
0.0
 40
1.0
 40
2.0
 40
3.0
 40
3.0
 40
3.0
 10
740.30140641058927
 20
-412.94038567090661
 30
0.0
 10
741.91360584794586
 20
-412.92689784052914
 30
0.0
 10
744.80782468467225
 20
-411.50528850084879
 30
0.0
 10
746.80011038139958
 20
-408.96988449120011
 30
0.0
 10
747.14849858127729
 20
-407.39571975726409
 30
0.0
  0
LINE
  5
1BC
100
AcDbEntity
  8
FAA70-2217
370
              15
390
0
  6
STYLE_26
 62
               7
100
AcDbLine
 10
747.96422519960663
 20
-398.48494824246848
 30
0.0
 11
747.14849858127729
 21
-407.39571975726409
 31
0.0
  0
ARC
  5
1BD
100
AcDbEntity
  8
FAA70-2217
370
              15
390
0
  6
Continuous
 62
               7
100
AcDbCircle
 10
363.97509013438196
 20
-398.03383926044273
 30
0.0
 40
4.9999999999999716
100
AcDbArc
 50
90.0
 51
180.0
  0
LINE
  5
1BE
100
AcDbEntity
  8
FAA70-2217
370
              15
390
0
  6
Continuous
 62
               7
100
AcDbLine
 10
358.97509013438196
 20
-423.03383926044256
 30
0.0
 11
358.97509013438196
 21
-398.03383926044273
 31
0.0
  0
ARC
  5
1BF
100
AcDbEntity
  8
FAA70-2217
370
              15
390
0
  6
Continuous
 62
               7
100
AcDbCircle
 10
363.97509013438196
 20
-423.03383926044256
 30
0.0
 40
5.0
100
AcDbArc
 50
180.0
 51
270.0
  0
LINE
  5
1C0
100
AcDbEntity
  8
FAA70-2217
370
              15
390
0
  6
Continuous
 62
               7
100
AcDbLine
 10
358.97509013438196
 20
-428.03383926044251
 30
0.0
 11
358.97509013438196
 21
-423.03383926044256
 31
0.0
  0
LINE
  5
1C1
100
AcDbEntity
  8
FAA70-2217
370
              15
390
0
  6
Continuous
 62
               7
100
AcDbLine
 10
631.50011707836234
 20
-583.03383926044387
 30
0.0
 11
556.49947119040257
 21
-583.03383926044387
 31
0.0
  0
LINE
  5
1C2
100
AcDbEntity
  8
FAA70-2217
370
              15
390
0
  6
Continuous
 62
               7
100
AcDbLine
 10
551.25992082255539
 20
-554.69806758552795
 30
0.0
 11
637.31546712232443
 21
-554.69806758552795
 31
0.0
  0
LINE
  5
1C3
100
AcDbEntity
  8
FAA70-2217
370
              15
390
0
  6
STYLE_26
 62
               7
100
AcDbLine
 10
567.99957022655622
 20
-528.1252567061955
 30
0.0
 11
567.99957022655622
 21
-583.03383926044387
 31
0.0
  0
LINE
  5
1C4
100
AcDbEntity
  8
FAA70-2217
370
              15
390
0
  6
STYLE_26
 62
               7
100
AcDbLine
 10
562.87820577900789
 20
-521.76124087010555
 30
0.0
 11
567.12088300306846
 21
-526.00391809416703
 31
0.0
  0
SPLINE
  5
1C5
100
AcDbEntity
  8
FAA70-2217
370
              15
390
0
  6
STYLE_26
 62
               7
100
AcDbSpline
210
0.0
220
0.0
230
1.0
 70
               8
 71
               2
 72
               6
 73
               3
 74
               0
 42
0.000001
 43
0.000001
 40
0.0
 40
0.0
 40
0.0
 40
1.0
 40
1.0
 40
1.0
 10
567.99957022655622
 20
-528.1252567061955
 30
0.0
 10
567.99400231713048
 20
-526.88491162125263
 30
0.0
 10
567.12088300306618
 20
-526.00391809416772
 30
0.0
  0
SPLINE
  5
1C6
100
AcDbEntity
  8
FAA70-2217
370
              15
390
0
  6
STYLE_26
 62
               7
100
AcDbSpline
210
0.0
220
0.0
230
1.0
 70
               8
 71
               2
 72
               7
 73
               4
 74
               0
 42
0.000001
 43
0.000001
 40
0.0
 40
0.0
 40
0.0
 40
1.0
 40
2.0
 40
2.0
 40
2.0
 10
562.87820577900789
 20
-521.76124087010555
 30
0.0
 10
562.48687277543399
 20
-521.29553311903544
 30
0.0
 10
561.36288649634093
 20
-520.82996275831431
 30
0.0
 10
560.75686716697851
 20
-520.88255364661848
 30
0.0
  0
LINE
  5
1C7
100
AcDbEntity
  8
FAA70-2217
370
              15
390
0
  6
STYLE_26
 62
               7
100
AcDbLine
 10
620.00001804220824
 20
-528.1252567061955
 30
0.0
 11
620.00001804220824
 21
-583.03383926044387
 31
0.0
  0
LINE
  5
1C8
100
AcDbEntity
  8
FAA70-2217
370
              15
390
0
  6
STYLE_26
 62
               7
100
AcDbLine
 10
625.12138248975702
 20
-521.76124087010555
 30
0.0
 11
620.87870526569645
 21
-526.00391809416703
 31
0.0
  0
SPLINE
  5
1C9
100
AcDbEntity
  8
FAA70-2217
370
              15
390
0
  6
STYLE_26
 62
               7
100
AcDbSpline
210
0.0
220
0.0
230
1.0
 70
               8
 71
               2
 72
               6
 73
               3
 74
               0
 42
0.000001
 43
0.000001
 40
0.0
 40
0.0
 40
0.0
 40
1.0
 40
1.0
 40
1.0
 10
620.00001804220824
 20
-528.1252567061955
 30
0.0
 10
620.00558595163443
 20
-526.88491162125263
 30
0.0
 10
620.87870526569873
 20
-526.00391809416772
 30
0.0
  0
SPLINE
  5
1CA
100
AcDbEntity
  8
FAA70-2217
370
              15
390
0
  6
STYLE_26
 62
               7
100
AcDbSpline
210
0.0
220
0.0
230
1.0
 70
               8
 71
               2
 72
               7
 73
               4
 74
               0
 42
0.000001
 43
0.000001
 40
0.0
 40
0.0
 40
0.0
 40
1.0
 40
2.0
 40
2.0
 40
2.0
 10
625.12138248975702
 20
-521.76124087010555
 30
0.0
 10
625.51271549333092
 20
-521.29553311903544
 30
0.0
 10
626.63670177242443
 20
-520.82996275831431
 30
0.0
 10
627.2427211017864
 20
-520.88255364661848
 30
0.0
  0
ARC
  5
1CB
100
AcDbEntity
  8
FAA70-2217
370
              15
390
0
  6
Continuous
 62
               7
100
AcDbCircle
 10
659.9955250596654
 20
-532.79345630202079
 30
0.0
 40
10.000000000000131
100
AcDbArc
 50
286.23499472479233
 51
0.0415163966778209
  0
LINE
  5
1CC
100
AcDbEntity
  8
FAA70-2217
370
              15
390
0
  6
STYLE_26
 62
               7
100
AcDbLine
 10
-420.04552098669632
 20
-528.88257948213641
 30
0.0
 11
-420.0478271864601
 21
-583.03383926044387
 31
0.0
  0
LINE
  5
1CD
100
AcDbEntity
  8
FAA70-2217
370
              15
390
0
  6
STYLE_26
 62
               7
100
AcDbLine
 10
-472.04549104739903
 20
-528.1252567061955
 30
0.0
 11
-472.04827500211212
 21
-583.03383926044387
 31
0.0
  0
SPLINE
  5
1CE
100
AcDbEntity
  8
FAA70-2217
370
              15
390
0
  6
STYLE_26
 62
               7
100
AcDbSpline
210
0.0
220
0.0
230
1.0
 70
               8
 71
               2
 72
               8
 73
               5
 74
               0
 42
0.000001
 43
0.000001
 40
0.0
 40
0.0
 40
0.0
 40
1.0
 40
2.0
 40
3.0
 40
3.0
 40
3.0
 10
-198.67213443779571
 20
-393.03383926044376
 30
0.0
 10
-200.28822569307437
 20
-393.03383926044273
 30
0.0
 10
-203.1932920901159
 20
-394.45073481422583
 30
0.0
 10
-205.1832223430884
 20
-396.99772939016361
 30
0.0
 10
-205.51922660848965
 20
-398.57850517408122
 30
0.0
  0
LINE
  5
1CF
100
AcDbEntity
  8
FAA70-2217
370
              15
390
0
  6
STYLE_26
 62
               7
100
AcDbLine
 10
-479.29097806169023
 20
-520.88257948213629
 30
0.0
 11
-590.0691052868176
 21
-516.02633459661058
 31
0.0
  0
SPLINE
  5
1D0
100
AcDbEntity
  8
FAA70-2217
370
              15
390
0
  6
STYLE_26
 62
               7
100
AcDbSpline
210
0.0
220
0.0
230
1.0
 70
               8
 71
               2
 72
               8
 73
               5
 74
               0
 42
0.000001
 43
0.000001
 40
0.0
 40
0.0
 40
0.0
 40
1.0
 40
2.0
 40
3.0
 40
3.0
 40
3.0
 10
-693.42396775077668
 20
-393.03383926044376
 30
0.0
 10
-691.80787649549802
 20
-393.03383926044273
 30
0.0
 10
-688.90281009845648
 20
-394.45073481422583
 30
0.0
 10
-686.91287984548399
 20
-396.99772939016361
 30
0.0
 10
-686.57687558008274
 20
-398.57850517408122
 30
0.0
  0
LINE
  5
1D1
100
AcDbEntity
  8
FAA70-2217
370
              15
390
0
  6
STYLE_26
 62
               7
100
AcDbLine
 10
620.00001804220824
 20
-527.88257948213629
 30
0.0
 11
567.99722143868325
 21
-527.88257948213629
 31
0.0
  0
SPLINE
  5
1D2
100
AcDbEntity
  8
FAA70-2217
370
              15
390
0
  6
STYLE_26
 62
               7
100
AcDbSpline
210
0.0
220
0.0
230
1.0
 70
               8
 71
               2
 72
               8
 73
               5
 74
               0
 42
0.000001
 43
0.000001
 40
0.0
 40
0.0
 40
0.0
 40
1.0
 40
2.0
 40
3.0
 40
3.0
 40
3.0
 10
382.87537424048628
 20
-393.03383926044376
 30
0.0
 10
384.49146549576494
 20
-393.03383926044273
 30
0.0
 10
387.39653189280648
 20
-394.45073481422583
 30
0.0
 10
389.38646214577898
 20
-396.99772939016361
 30
0.0
 10
389.72246641118022
 20
-398.57850517408122
 30
0.0
  0
LINE
  5
1D3
100
AcDbEntity
  8
FAA70-2217
370
              15
390
0
  6
Continuous
 62
               7
100
AcDbLine
 10
681.47509013438219
 20
-412.90008409344591
 30
0.0
 11
681.47509013438219
 21
-428.03383926044251
 31
0.0
  0
LINE
  5
1D4
100
AcDbEntity
  8
FAA70-2217
370
              15
390
0
  6
Continuous
 62
               7
100
AcDbLine
 10
716.47509013438219
 20
-412.90008409344591
 30
0.0
 11
716.47509013438219
 21
-428.03383926044251
 31
0.0
  0
SPLINE
  5
1D5
100
AcDbEntity
  8
FAA70-2217
370
              15
390
0
  6
STYLE_26
 62
               7
100
AcDbSpline
210
0.0
220
0.0
230
1.0
 70
               8
 71
               2
 72
               6
 73
               3
 74
               0
 42
0.000001
 43
0.000001
 40
0.0
 40
0.0
 40
0.0
 40
1.0
 40
1.0
 40
1.0
 10
560.75686716697851
 20
-520.88255364661848
 30
0.0
 10
400.2437471815399
 20
-511.92700794868813
 30
0.0
 10
389.72246641118022
 20
-398.57850517408122
 30
0.0
  0
LWPOLYLINE
  5
1D6
100
AcDbEntity
  8
FAA70-2217
370
              15
390
0
  6
STYLE_26
 62
               7
100
AcDbPolyline
 90
        3
 70
             128
 10
627.2427211017864
 20
-520.88255364661848
 42
0.3439982285940869
 10
654.38537795530885
 20
-489.70217156875196
 10
658.13579165131046
 20
-419.85358897336619
  0
LINE
  5
1D7
100
AcDbEntity
  8
FAA70-2217
370
              15
390
0
  6
STYLE_26
 62
               7
100
AcDbLine
 10
-414.92688240574807
 20
-521.77478474779048
 30
0.0
 11
-419.16955962980865
 21
-526.01746197185196
 31
0.0
  0
SPLINE
  5
1D8
100
AcDbEntity
  8
FAA70-2217
370
              15
390
0
  6
STYLE_26
 62
               7
100
AcDbSpline
210
0.0
220
0.0
230
1.0
 70
               8
 71
               2
 72
               6
 73
               3
 74
               0
 42
0.000001
 43
0.000001
 40
0.0
 40
0.0
 40
0.0
 40
1.0
 40
1.0
 40
1.0
 10
-420.04824685329635
 20
-528.13880058388042
 30
0.0
 10
-420.04267894387061
 20
-526.89845549893755
 30
0.0
 10
-419.16955962980637
 20
-526.01746197185264
 30
0.0
  0
SPLINE
  5
1D9
100
AcDbEntity
  8
FAA70-2217
370
              15
390
0
  6
STYLE_26
 62
               7
100
AcDbSpline
210
0.0
220
0.0
230
1.0
 70
               8
 71
               2
 72
               7
 73
               4
 74
               0
 42
0.000001
 43
0.000001
 40
0.0
 40
0.0
 40
0.0
 40
1.0
 40
2.0
 40
2.0
 40
2.0
 10
-414.92688240574807
 20
-521.77478474779048
 30
0.0
 10
-414.53554940217418
 20
-521.30907699672036
 30
0.0
 10
-413.41156312308112
 20
-520.84350663599923
 30
0.0
 10
-412.8055437937187
 20
-520.8960975243034
 30
0.0
  0
LINE
  5
1DA
100
AcDbEntity
  8
FAA70-2217
370
              15
390
0
  6
STYLE_26
 62
               7
100
AcDbLine
 10
-477.16685549494781
 20
-521.76124087010555
 30
0.0
 11
-472.92417827088724
 21
-526.00391809416703
 31
0.0
  0
SPLINE
  5
1DB
100
AcDbEntity
  8
FAA70-2217
370
              15
390
0
  6
STYLE_26
 62
               7
100
AcDbSpline
210
0.0
220
0.0
230
1.0
 70
               8
 71
               2
 72
               6
 73
               3
 74
               0
 42
0.000001
 43
0.000001
 40
0.0
 40
0.0
 40
0.0
 40
1.0
 40
1.0
 40
1.0
 10
-472.04549104739903
 20
-528.1252567061955
 30
0.0
 10
-472.05105895682522
 20
-526.88491162125263
 30
0.0
 10
-472.92417827088951
 20
-526.00391809416772
 30
0.0
  0
SPLINE
  5
1DC
100
AcDbEntity
  8
FAA70-2217
370
              15
390
0
  6
STYLE_26
 62
               7
100
AcDbSpline
210
0.0
220
0.0
230
1.0
 70
               8
 71
               2
 72
               7
 73
               4
 74
               0
 42
0.000001
 43
0.000001
 40
0.0
 40
0.0
 40
0.0
 40
1.0
 40
2.0
 40
2.0
 40
2.0
 10
-477.16685549494781
 20
-521.76124087010555
 30
0.0
 10
-477.5581884985217
 20
-521.29553311903544
 30
0.0
 10
-478.68217477761522
 20
-520.82996275831431
 30
0.0
 10
-479.28819410697719
 20
-520.88255364661848
 30
0.0
  0
ARC
  5
1DD
100
AcDbEntity
  8
FAA70-2217
370
              15
390
0
  6
STYLE_26
 62
               7
100
AcDbCircle
 10
-545.12848796259414
 20
-380.72379189984434
 30
0.0
 40
142.57081449473631
100
AcDbArc
 50
187.1942691384545
 51
251.626139446991
  0
LINE
  5
1DE
100
AcDbEntity
  8
FAA70-2217
370
              15
390
0
  6
STYLE_26
 62
               7
100
AcDbLine
 10
-412.8025634065869
 20
-520.89393044084227
 30
0.0
 11
-302.02443618145929
 21
-516.03768555531656
 31
0.0
  0
ARC
  5
1DF
100
AcDbEntity
  8
FAA70-2217
370
              15
390
0
  6
STYLE_26
 62
               7
100
AcDbCircle
 10
-346.96505350568276
 20
-380.73514285855032
 30
0.0
 40
142.57081449473645
100
AcDbArc
 50
288.37386055300897
 51
352.8057308615455
  0
ARC
  5
1E0
100
AcDbEntity
  8
FAA70-2217
370
              15
390
0
  6
Continuous
 62
               7
100
AcDbCircle
 10
509.00778040077608
 20
-394.31670068633912
 30
0.0
 40
153.77468446463172
100
AcDbArc
 50
192.66576438815747
 51
250.95603900392186
  0
LINE
  5
1E1
100
AcDbEntity
  8
FAA70-2217
370
              15
390
0
  6
Continuous
 62
               7
100
AcDbLine
 10
363.97509013438196
 20
-393.03383926044273
 30
0.0
 11
373.97509013438207
 21
-393.03383926044273
 31
0.0
  0
LINE
  5
1E2
100
AcDbEntity
  8
FAA70-2217
370
              15
390
0
  6
Continuous
 62
               7
100
AcDbLine
 10
363.97509013438196
 20
-428.03383926044251
 30
0.0
 11
373.97509013438207
 21
-428.03383926044251
 31
0.0
  0
CIRCLE
  5
1E3
100
AcDbEntity
  8
FAA70-2217
370
               5
390
0
  6
STYLE_26
 62
               7
100
AcDbCircle
 10
469.363653965347
 20
752.88835862163103
 30
0.0
 40
17.5
  0
CIRCLE
  5
1E4
100
AcDbEntity
  8
FAA70-2217
370
               5
390
0
  6
STYLE_26
 62
               7
100
AcDbCircle
 10
469.363653965347
 20
647.91306262163107
 30
0.0
 40
26.0
  0
LWPOLYLINE
  5
1E5
100
AcDbEntity
  8
FAA70-2217
370
               5
390
0
  6
STYLE_26
 62
               7
100
AcDbPolyline
 90
       20
 70
             129
 10
731.86365396534734
 20
797.88835862163103
 42
0.4142135623730924
 10
706.86365396534734
 20
822.88835862163114
 10
231.86365396534723
 20
822.88835862163114
 42
0.4142135623730964
 10
206.86365396534723
 20
797.88835862163103
 10
206.86365396534723
 20
447.88835862163251
 42
0.4142135623730997
 10
231.86365396534723
 20
422.88835862163285
 10
430.97883023633693
 20
422.88835862163285
 42
-0.296963492552298
 10
433.72282083346408
 20
421.10100679933225
 10
435.18679519401547
 20
414.71742051786305
 10
435.21513210851396
 20
414.65366246024143
 42
0.2963915373637713
 10
437.88679519401546
 20
412.91742051786298
 10
469.38679519401546
 20
412.91742051786298
 10
500.7867951940155
 20
412.91742051786298
 10
500.83717592675004
 20
412.91742051786298
 42
0.2963915373637509
 10
503.57861057261078
 20
414.69900511970263
 10
503.58679519401551
 20
414.71742051786305
 10
505.00448709723025
 20
421.10100679933214
 42
-0.296963492552317
 10
507.7484776943574
 20
422.88835862163285
 10
706.86365396534734
 20
422.88835862163285
 42
0.4142135623730897
 10
731.86365396534734
 20
447.88835862163251
  0
CIRCLE
  5
1E6
100
AcDbEntity
  8
FAA70-2217
370
               5
390
0
  6
STYLE_26
 62
               7
100
AcDbCircle
 10
369.363653965347
 20
752.91742051786105
 30
0.0
 40
17.499999999999929
  0
CIRCLE
  5
1E7
100
AcDbEntity
  8
FAA70-2217
370
               5
390
0
  6
STYLE_26
 62
               7
100
AcDbCircle
 10
569.36365396534723
 20
752.91742051786105
 30
0.0
 40
17.499999999999929
  0
INSERT
  5
1E8
100
AcDbEntity
  8
FAA70-2217
390
0
 62
               7
100
AcDbBlockReference
  2
グループ-1
 10
0.0
 20
-203.43889431423619
 30
0.0
  0
POLYLINE
  5
1E9
100
AcDbEntity
  8
FAA70-2217
370
              15
390
0
  6
Continuous
 62
               7
100
AcDb2dPolyline
 66
               1
 10
0.0
 20
0.0
 30
0.0
 70
               1
 75
               5
  0
VERTEX
  5
1EA
100
AcDbEntity
  8
FAA70-2217
370
              15
390
0
  6
Continuous
 62
               7
100
AcDbVertex
100
AcDb2dVertex
 10
229.37509013438216
 20
792.91742051786105
 30
0.0
  0
VERTEX
  5
1EB
100
AcDbEntity
  8
FAA70-2217
370
              15
390
0
  6
Continuous
 62
               7
100
AcDbVertex
100
AcDb2dVertex
 10
709.37509013438228
 20
792.91742051786105
 30
0.0
  0
VERTEX
  5
1EC
100
AcDbEntity
  8
FAA70-2217
370
              15
390
0
  6
Continuous
 62
               7
100
AcDbVertex
100
AcDb2dVertex
 10
709.37509013438228
 20
442.91742051786264
 30
0.0
  0
VERTEX
  5
1ED
100
AcDbEntity
  8
FAA70-2217
370
              15
390
0
  6
Continuous
 62
               7
100
AcDbVertex
100
AcDb2dVertex
 10
229.37509013438216
 20
442.91742051786264
 30
0.0
  0
SEQEND
  5
1EE
100
AcDbEntity
  8
FAA70-2217
370
              15
390
0
  6
Continuous
 62
               7
  0
ENDSEC
  0
SECTION
  2
OBJECTS
  0
DICTIONARY
  5
19
100
AcDbDictionary
280
               0
281
               1
  3
ACAD_GROUP
350
1A
  3
ACAD_MLINESTYLE
350
1B
  3
ACAD_LAYOUT
350
1E
  3
ACAD_PLOTSETTINGS
350
22
  3
ACAD_PLOTSTYLENAME
350
1F
  0
DICTIONARY
  5
1A
102
{ACAD_REACTORS
330
19
102
}
100
AcDbDictionary
280
               0
281
               1
  0
DICTIONARY
  5
1B
102
{ACAD_REACTORS
330
19
102
}
100
AcDbDictionary
280
               0
281
               1
  3
Standard
350
1C
  0
MLINESTYLE
  5
1C
102
{ACAD_REACTORS
330
1B
102
}
100
AcDbMlineStyle
  2
Standard
 70
               0
  3

 62
               0
 51
90.0
 52
90.0
 71
               2
 49
0.5
 62
             256
  6
ByLayer
 49
-0.5
 62
             256
  6
ByLayer
  0
ACDBDICTIONARYWDFLT
  5
1F
102
{ACAD_REACTORS
330
19
102
}
100
AcDbDictionary
281
               1
  3
Normal
350
1D
100
AcDbDictionaryWithDefault
340
1D
  0
ACDBPLACEHOLDER
  5
1D
102
{ACAD_REACTORS
330
1F
102
}
  0
LAYOUT
  5
20
102
{ACAD_REACTORS
330
1E
102
}
100
AcDbPlotSettings
  1

  2

  4

  6

 40
0.0
 41
0.0
 42
0.0
 43
0.0
 44
0.0
 45
0.0
 46
0.0
 47
0.0
 48
0.0
 49
0.0
140
0.0
141
0.0
142
1.0
143
1.0
 70
            1024
 72
               0
 73
               0
 74
               0
  7

 75
               0
147
1.0
148
0.0
149
0.0
100
AcDbLayout
  1
Model
 70
               0
 71
               0
 10
0.0
 20
0.0
 11
0.0
 21
0.0
 12
0.0
 22
0.0
 32
0.0
 14
0.0
 24
0.0
 34
0.0
 15
0.0
 25
0.0
 35
0.0
146
0.0
 13
0.0
 23
0.0
 33
0.0
 16
0.0
 26
0.0
 36
0.0
 17
0.0
 27
0.0
 37
0.0
 76
               0
330
A
331
0
345
0
346
0
  0
LAYOUT
  5
21
102
{ACAD_REACTORS
330
1E
102
}
100
AcDbPlotSettings
  1

  2

  4

  6

 40
0.0
 41
0.0
 42
0.0
 43
0.0
 44
0.0
 45
0.0
 46
0.0
 47
0.0
 48
0.0
 49
0.0
140
0.0
141
0.0
142
1.0
143
1.0
 70
               0
 72
               0
 73
               0
 74
               0
  7

 75
               0
147
1.0
148
0.0
149
0.0
100
AcDbLayout
  1
Layout1
 70
               0
 71
               0
 10
0.0
 20
0.0
 11
0.0
 21
0.0
 12
0.0
 22
0.0
 32
0.0
 14
0.0
 24
0.0
 34
0.0
 15
0.0
 25
0.0
 35
0.0
146
0.0
 13
0.0
 23
0.0
 33
0.0
 16
0.0
 26
0.0
 36
0.0
 17
0.0
 27
0.0
 37
0.0
 76
               0
330
B
331
0
345
0
346
0
  0
DICTIONARY
  5
1E
102
{ACAD_REACTORS
330
19
102
}
100
AcDbDictionary
280
               0
281
               1
  3
Layout1
350
21
  3
Model
350
20
  0
DICTIONARY
  5
22
102
{ACAD_REACTORS
330
19
102
}
100
AcDbDictionary
280
               0
281
               1
  0
ENDSEC
  0
EOF
