  0
SECTION
  2
HEADER
  9
$ACADVER
  1
AC1015
  9
$ACADMAINTVER
 70
               6
  9
$DWGCODEPAGE
  3
ANSI_932
  9
$INSBASE
 10
0.0
 20
0.0
 30
0.0
  9
$EXTMIN
 10
-1049.9999999999998
 20
-1485.0
 30
-14.428611111111111
  9
$EXTMAX
 10
1049.9999999999998
 20
1485.0
 30
14.428611111111111
  9
$LIMMIN
 10
0.0
 20
0.0
  9
$LIMMAX
 10
0.0
 20
0.0
  9
$ORTHOMODE
 70
               0
  9
$REGENMODE
 70
               1
  9
$FILLMODE
 70
               1
  9
$QTEXTMODE
 70
               0
  9
$MIRRTEXT
 70
               1
  9
$LTSCALE
 40
50.799999999999997
  9
$ATTMODE
 70
               1
  9
$TEXTSIZE
 40
0.2
  9
$TRACEWID
 40
1.0
  9
$TEXTSTYLE
  7
Standard
  9
$CLAYER
  8
template
  9
$CELTYPE
  6
Continuous
  9
$CECOLOR
 62
             256
  9
$CELTSCALE
 40
1.0
  9
$DISPSILH
 70
               0
  9
$DIMSCALE
 40
1.0
  9
$DIMASZ
 40
31.75
  9
$DIMEXO
 40
0.0
  9
$DIMDLI
 40
6.9999999999999396
  9
$DIMRND
 40
0.0
  9
$DIMDLE
 40
0.0
  9
$DIMEXE
 40
19.999999999996199
  9
$DIMTP
 40
0.0
  9
$DIMTM
 40
0.0
  9
$DIMTXT
 40
24.432617187500004
  9
$DIMCEN
 40
0.0
  9
$DIMTSZ
 40
0.0
  9
$DIMTOL
 70
               0
  9
$DIMLIM
 70
               0
  9
$DIMTIH
 70
               0
  9
$DIMTOH
 70
               0
  9
$DIMSE1
 70
               0
  9
$DIMSE2
 70
               0
  9
$DIMTAD
 70
               1
  9
$DIMZIN
 70
              11
  9
$DIMBLK
  1
VW_FILLEDARROW
  9
$DIMASO
 70
               1
  9
$DIMSHO
 70
               1
  9
$DIMPOST
  1
<>
  9
$DIMAPOST
  1
[]
  9
$DIMALT
 70
               0
  9
$DIMALTD
 70
               1
  9
$DIMALTF
 40
1.0
  9
$DIMLFAC
 40
1.0
  9
$DIMTOFL
 70
               0
  9
$DIMTVP
 40
0.0
  9
$DIMTIX
 70
               1
  9
$DIMSOXD
 70
               0
  9
$DIMSAH
 70
               0
  9
$DIMBLK1
  1

  9
$DIMBLK2
  1

  9
$DIMSTYLE
  2
JIS
  9
$DIMCLRD
 70
               0
  9
$DIMCLRE
 70
               0
  9
$DIMCLRT
 70
               0
  9
$DIMTFAC
 40
1.0
  9
$DIMGAP
 40
1.00000000000108
  9
$DIMJUST
 70
               0
  9
$DIMSD1
 70
               0
  9
$DIMSD2
 70
               0
  9
$DIMTOLJ
 70
               1
  9
$DIMTZIN
 70
              11
  9
$DIMALTZ
 70
              11
  9
$DIMALTTZ
 70
              11
  9
$DIMUPT
 70
               0
  9
$DIMDEC
 70
               1
  9
$DIMTDEC
 70
               1
  9
$DIMALTU
 70
               2
  9
$DIMALTTD
 70
               2
  9
$DIMTXSTY
  7
ＭＳ ゴシック
  9
$DIMAUNIT
 70
               0
  9
$DIMADEC
 70
               2
  9
$DIMALTRND
 40
0.0
  9
$DIMAZIN
 70
               0
  9
$DIMDSEP
 70
              46
  9
$DIMATFIT
 70
               0
  9
$DIMFRAC
 70
               2
  9
$DIMLDRBLK
  1

  9
$DIMLUNIT
 70
               2
  9
$DIMLWD
 70
              -2
  9
$DIMLWE
 70
              -2
  9
$DIMTMOVE
 70
               0
  9
$LUNITS
 70
               2
  9
$LUPREC
 70
               4
  9
$SKETCHINC
 40
0.1
  9
$FILLETRAD
 40
0.0
  9
$AUNITS
 70
               0
  9
$AUPREC
 70
               0
  9
$MENU
  1
acad
  9
$ELEVATION
 40
0.0
  9
$PELEVATION
 40
0.0
  9
$THICKNESS
 40
0.0
  9
$LIMCHECK
 70
               0
  9
$CHAMFERA
 40
0.0
  9
$CHAMFERB
 40
0.0
  9
$CHAMFERC
 40
0.0
  9
$CHAMFERD
 40
0.0
  9
$SKPOLY
 70
               0
  9
$TDCREATE
 40
2455971.731840278
  9
$TDUCREATE
 40
0.000000000
  9
$TDUPDATE
 40
2455971.731840278
  9
$TDUUPDATE
 40
0.000000000
  9
$TDINDWG
 40
0.0000000000
  9
$TDUSRTIMER
 40
0.0000000000
  9
$USRTIMER
 70
               1
  9
$ANGBASE
 50
0.0
  9
$ANGDIR
 70
               0
  9
$PDMODE
 70
               1
  9
$PDSIZE
 40
-2.0
  9
$PLINEWID
 40
0.0
  9
$SPLFRAME
 70
               0
  9
$SPLINETYPE
 70
               6
  9
$SPLINESEGS
 70
               8
  9
$HANDSEED
  5
15A
  9
$SURFTAB1
 70
               6
  9
$SURFTAB2
 70
               6
  9
$SURFTYPE
 70
               6
  9
$SURFU
 70
               6
  9
$SURFV
 70
               6
  9
$UCSBASE
  2

  9
$UCSNAME
  2

  9
$UCSORG
 10
0.0
 20
0.0
 30
0.0
  9
$UCSXDIR
 10
1.0
 20
0.0
 30
0.0
  9
$UCSYDIR
 10
0.0
 20
1.0
 30
0.0
  9
$UCSORTHOREF
  2

  9
$UCSORTHOVIEW
 70
               0
  9
$UCSORGTOP
 10
0.0
 20
0.0
 30
0.0
  9
$UCSORGBOTTOM
 10
0.0
 20
0.0
 30
0.0
  9
$UCSORGLEFT
 10
0.0
 20
0.0
 30
0.0
  9
$UCSORGRIGHT
 10
0.0
 20
0.0
 30
0.0
  9
$UCSORGFRONT
 10
0.0
 20
0.0
 30
0.0
  9
$UCSORGBACK
 10
0.0
 20
0.0
 30
0.0
  9
$PUCSBASE
  2

  9
$PUCSNAME
  2

  9
$PUCSORG
 10
0.0
 20
0.0
 30
0.0
  9
$PUCSXDIR
 10
1.0
 20
0.0
 30
0.0
  9
$PUCSYDIR
 10
0.0
 20
1.0
 30
0.0
  9
$PUCSORTHOREF
  2

  9
$PUCSORTHOVIEW
 70
               0
  9
$PUCSORGTOP
 10
0.0
 20
0.0
 30
0.0
  9
$PUCSORGBOTTOM
 10
0.0
 20
0.0
 30
0.0
  9
$PUCSORGLEFT
 10
0.0
 20
0.0
 30
0.0
  9
$PUCSORGRIGHT
 10
0.0
 20
0.0
 30
0.0
  9
$PUCSORGFRONT
 10
0.0
 20
0.0
 30
0.0
  9
$PUCSORGBACK
 10
0.0
 20
0.0
 30
0.0
  9
$USERI1
 70
               0
  9
$USERI2
 70
               0
  9
$USERI3
 70
               0
  9
$USERI4
 70
               0
  9
$USERI5
 70
               0
  9
$USERR1
 40
0.0
  9
$USERR2
 40
0.0
  9
$USERR3
 40
0.0
  9
$USERR4
 40
0.0
  9
$USERR5
 40
0.0
  9
$WORLDVIEW
 70
               1
  9
$SHADEDGE
 70
               3
  9
$SHADEDIF
 70
              70
  9
$TILEMODE
 70
               1
  9
$MAXACTVP
 70
              64
  9
$PINSBASE
 10
0.0
 20
0.0
 30
0.0
  9
$PLIMCHECK
 70
               0
  9
$PEXTMIN
 10
1.0000000000000000E+20
 20
1.0000000000000000E+20
 30
1.0000000000000000E+20
  9
$PEXTMAX
 10
-1.0000000000000000E+20
 20
-1.0000000000000000E+20
 30
-1.0000000000000000E+20
  9
$PLIMMIN
 10
0.0
 20
0.0
  9
$PLIMMAX
 10
12.0
 20
9.0
  9
$UNITMODE
 70
               0
  9
$VISRETAIN
 70
               0
  9
$PLINEGEN
 70
               1
  9
$PSLTSCALE
 70
               0
  9
$TREEDEPTH
 70
            3020
  9
$CMLSTYLE
  2
Standard
  9
$CMLJUST
 70
               0
  9
$CMLSCALE
 40
1.0
  9
$PROXYGRAPHICS
 70
               0
  9
$MEASUREMENT
 70
               1
  9
$CELWEIGHT
370
               0
  9
$ENDCAPS
280
               0
  9
$JOINSTYLE
280
               0
  9
$LWDISPLAY
290
               1
  9
$INSUNITS
 70
               4
  9
$HYPERLINKBASE
  1

  9
$STYLESHEET
  1

  9
$XEDIT
290
               1
  9
$CEPSNTYPE
380
               0
  9
$PSTYLEMODE
290
               1
  9
$FINGERPRINTGUID
  2

  9
$VERSIONGUID
  2

  9
$EXTNAMES
290
               1
  9
$PSVPSCALE
 40
0.0
  0
ENDSEC
  0
SECTION
  2
CLASSES
  0
CLASS
  1
LWPOLYLINE
  2
AcDbPolyline
  3
AutoCAD 2000
 90
        0
280
               0
281
               1
  0
CLASS
  1
IMAGE
  2
AcDbRasterImage
  3
ISM
 90
      127
280
               0
281
               1
  0
CLASS
  1
OLE2FRAME
  2
AcDbOle2Frame
  3
AutoCAD 2000
 90
        0
280
               0
281
               1
  0
CLASS
  1
HATCH
  2
AcDbHatch
  3
AutoCAD 2000
 90
        0
280
               0
281
               1
  0
CLASS
  1
DICTIONARYVAR
  2
AcDbDictionaryVar
  3
AutoCAD 2000
 90
        0
280
               0
281
               0
  0
CLASS
  1
RASTERVARIABLES
  2
AcDbRasterVariables
  3
ISM
 90
        0
280
               0
281
               0
  0
CLASS
  1
IMAGEDEF
  2
AcDbRasterImageDef
  3
ISM
 90
        0
280
               0
281
               0
  0
CLASS
  1
IMAGEDEF_REACTOR
  2
AcDbRasterImageDefReactor
  3
ISM
 90
        1
280
               0
281
               0
  0
CLASS
  1
IDBUFFER
  2
AcDbIdBuffer
  3
AutoCAD 2000
 90
        0
280
               0
281
               0
  0
CLASS
  1
SPATIAL_FILTER
  2
AcDbSpatialFilter
  3
AutoCAD 2000
 90
        0
280
               0
281
               0
  0
CLASS
  1
XRECORD
  2
AcDbXrecord
  3
AutoCAD 2000
 90
        0
280
               0
281
               0
  0
CLASS
  1
SORTENTSTABLE
  2
AcDbSortentsTable
  3
AutoCAD 2000
 90
        0
280
               0
281
               0
  0
CLASS
  1
LAYER_INDEX
  2
AcDbLayerIndex
  3
AutoCAD 2000
 90
        0
280
               0
281
               0
  0
CLASS
  1
SPATIAL_INDEX
  2
AcDbSpatialIndex
  3
AutoCAD 2000
 90
        0
280
               0
281
               0
  0
CLASS
  1
OBJECT_PTR
  2
CAseDLPNTableRecord
  3
"ASE-LPNTableRecord"
 90
        1
280
               0
281
               0
  0
CLASS
  1
LAYOUT
  2
AcDbLayout
  3
AutoCAD 2000
 90
        0
280
               0
281
               0
  0
CLASS
  1
PLOTSETTINGS
  2
AcDbPlotSettings
  3
AutoCAD 2000
 90
        0
280
               0
281
               0
  0
CLASS
  1
ACDBDICTIONARYWDFLT
  2
AcDbDictionaryWithDefault
  3
AutoCAD 2000
 90
        0
280
               0
281
               0
  0
CLASS
  1
ACDBPLACEHOLDER
  2
AcDbPlaceHolder
  3
AutoCAD 2000
 90
        0
280
               0
281
               0
  0
ENDSEC
  0
SECTION
  2
TABLES
  0
TABLE
  2
VPORT
  5
7
100
AcDbSymbolTable
 70
               1
  0
VPORT
  5
15
100
AcDbSymbolTableRecord
100
AcDbViewportTableRecord
  2
*ACTIVE
 70
               0
 10
0.0
 20
0.0
 11
1.0
 21
1.0
 12
0.0
 22
0.0
 13
0.0
 23
0.0
 14
1.0
 24
1.0
 15
0.0
 25
0.0
 16
0.0
 26
0.0
 36
1.0
 17
0.0
 27
0.0
 37
0.0
 40
2970.0
 41
0.688564
 42
50.0
 43
0.0
 44
0.0
 50
0.0
 51
0.0
 71
               0
 72
            2000
 73
               1
 74
               1
 75
               0
 76
               0
 77
               0
 78
               0
281
               0
 65
               0
110
0.0
120
0.0
130
0.0
111
1.0
121
0.0
131
0.0
112
0.0
122
1.0
132
0.0
345
0
346
0
 79
               0
146
0.0
  0
ENDTAB
  0
TABLE
  2
LTYPE
  5
4
100
AcDbSymbolTable
 70
              17
  0
LTYPE
  5
11
100
AcDbSymbolTableRecord
100
AcDbLinetypeTableRecord
  2
ByBlock
 70
              64
  3

 72
              65
 73
               0
 40
0.0
  0
LTYPE
  5
12
100
AcDbSymbolTableRecord
100
AcDbLinetypeTableRecord
  2
ByLayer
 70
              64
  3

 72
              65
 73
               0
 40
0.0
  0
LTYPE
  5
13
100
AcDbSymbolTableRecord
100
AcDbLinetypeTableRecord
  2
Continuous
 70
              64
  3
Solid line
 72
              65
 73
               0
 40
0.0
  0
LTYPE
  5
30
100
AcDbSymbolTableRecord
100
AcDbLinetypeTableRecord
  2
STYLE_01
 70
               0
  3

 72
              65
 73
               4
 40
0.2214566929133858
 49
0.1476377952755905
 74
               0
 49
-0.0246062992125984
 74
               0
 49
0.0246062992125984
 74
               0
 49
-0.0246062992125984
 74
               0
  0
LTYPE
  5
31
100
AcDbSymbolTableRecord
100
AcDbLinetypeTableRecord
  2
STYLE_02
 70
               0
  3

 72
              65
 73
               4
 40
0.0442913385826772
 49
0.0295275590551181
 74
               0
 49
-0.0049212598425197
 74
               0
 49
0.0049212598425197
 74
               0
 49
-0.0049212598425197
 74
               0
  0
LTYPE
  5
32
100
AcDbSymbolTableRecord
100
AcDbLinetypeTableRecord
  2
STYLE_03
 70
               0
  3

 72
              65
 73
               2
 40
1.25
 49
1.0416400000000001
 74
               0
 49
-0.2083599999999999
 74
               0
  0
LTYPE
  5
33
100
AcDbSymbolTableRecord
100
AcDbLinetypeTableRecord
  2
STYLE_04
 70
               0
  3

 72
              65
 73
               2
 40
1.5277099999999999
 49
1.3194249999999998
 74
               0
 49
-0.208285
 74
               0
  0
LTYPE
  5
34
100
AcDbSymbolTableRecord
100
AcDbLinetypeTableRecord
  2
STYLE_05
 70
               0
  3

 72
              65
 73
               2
 40
0.20828
 49
0.069425
 74
               0
 49
-0.138855
 74
               0
  0
LTYPE
  5
35
100
AcDbSymbolTableRecord
100
AcDbLinetypeTableRecord
  2
STYLE_06
 70
               0
  3

 72
              65
 73
               4
 40
1.0416400000000001
 49
0.625
 74
               0
 49
-0.20828
 74
               0
 49
0.06943
 74
               0
 49
-0.13893
 74
               0
  0
LTYPE
  5
36
100
AcDbSymbolTableRecord
100
AcDbLinetypeTableRecord
  2
STYLE_07
 70
               0
  3

 72
              65
 73
               6
 40
1.875
 49
0.625
 74
               0
 49
-0.20828
 74
               0
 49
0.6250000000000001
 74
               0
 49
-0.2083599999999999
 74
               0
 49
0.06943
 74
               0
 49
-0.1389299999999999
 74
               0
  0
LTYPE
  5
37
100
AcDbSymbolTableRecord
100
AcDbLinetypeTableRecord
  2
STYLE_08
 70
               0
  3

 72
              65
 73
               6
 40
1.25
 49
0.625
 74
               0
 49
-0.20828
 74
               0
 49
0.06943
 74
               0
 49
-0.13893
 74
               0
 49
0.0694299999999999
 74
               0
 49
-0.13893
 74
               0
  0
LTYPE
  5
38
100
AcDbSymbolTableRecord
100
AcDbLinetypeTableRecord
  2
STYLE_09
 70
               0
  3

 72
              65
 73
               4
 40
5.0
 49
3.75
 74
               0
 49
-0.2777849999999998
 74
               0
 49
0.6944300000000003
 74
               0
 49
-0.2777849999999998
 74
               0
  0
LTYPE
  5
39
100
AcDbSymbolTableRecord
100
AcDbLinetypeTableRecord
  2
STYLE_10
 70
               0
  3

 72
              65
 73
               6
 40
5.9375
 49
3.75
 74
               0
 49
-0.2777849999999998
 74
               0
 49
0.6944300000000003
 74
               0
 49
-0.2777849999999998
 74
               0
 49
0.625
 74
               0
 49
-0.3125
 74
               0
  0
LTYPE
  5
3A
100
AcDbSymbolTableRecord
100
AcDbLinetypeTableRecord
  2
STYLE_11
 70
               0
  3

 72
              65
 73
               2
 40
0.0694444881889764
 49
0.0347222440944882
 74
               0
 49
-0.0347222440944882
 74
               0
  0
LTYPE
  5
3B
100
AcDbSymbolTableRecord
100
AcDbLinetypeTableRecord
  2
STYLE_12
 70
               0
  3

 72
              65
 73
               2
 40
0.3937007874015748
 49
0.1968503937007874
 74
               0
 49
-0.1968503937007874
 74
               0
  0
LTYPE
  5
3C
100
AcDbSymbolTableRecord
100
AcDbLinetypeTableRecord
  2
STYLE_13
 70
               0
  3

 72
              65
 73
               2
 40
0.5905511811023622
 49
0.2952755905511811
 74
               0
 49
-0.2952755905511811
 74
               0
  0
LTYPE
  5
3D
100
AcDbSymbolTableRecord
100
AcDbLinetypeTableRecord
  2
STYLE_14
 70
               0
  3

 72
              65
 73
               2
 40
1.9685039370078738
 49
0.9842519685039369
 74
               0
 49
-0.9842519685039369
 74
               0
  0
ENDTAB
  0
TABLE
  2
LAYER
  5
2
100
AcDbSymbolTable
 70
               5
  0
LAYER
  5
14
100
AcDbSymbolTableRecord
100
AcDbLayerTableRecord
  2
0
 70
               0
 62
               7
  6
Continuous
290
               1
370
              -3
390
1D
  0
LAYER
  5
3E
100
AcDbSymbolTableRecord
100
AcDbLayerTableRecord
  2
Defpoints
 70
               0
 62
               7
  6
Continuous
290
               0
370
              -3
390
1D
  0
LAYER
  5
3F
100
AcDbSymbolTableRecord
100
AcDbLayerTableRecord
  2
template
 70
               0
 62
               7
  6
Continuous
290
               1
370
              -3
390
1D
  0
LAYER
  5
40
100
AcDbSymbolTableRecord
100
AcDbLayerTableRecord
  2
notes
 70
               0
 62
               7
  6
Continuous
290
               1
370
              -3
390
1D
  0
LAYER
  5
41
100
AcDbSymbolTableRecord
100
AcDbLayerTableRecord
  2
FAA70-2218
 70
               0
 62
               7
  6
Continuous
290
               1
370
              -3
390
1D
  0
ENDTAB
  0
TABLE
  2
STYLE
  5
3
100
AcDbSymbolTable
 70
               2
  0
STYLE
  5
17
100
AcDbSymbolTableRecord
100
AcDbTextStyleTableRecord
  2
Standard
 70
               0
 40
0.0
 41
1.0
 50
0.0
 71
               0
 42
0.0
  3
txt
  4
BIGFONT.SHX
  0
STYLE
  5
2F
100
AcDbSymbolTableRecord
100
AcDbTextStyleTableRecord
  2
ＭＳ ゴシック
 70
               0
 40
0.0
 41
1.0
 50
0.0
 71
               0
 42
0.0
  3

  4
ＭＳ ゴシック
1001
ACAD
1000
ＭＳ ゴシック
1071
        0
  0
ENDTAB
  0
TABLE
  2
VIEW
  5
5
100
AcDbSymbolTable
 70
               0
  0
ENDTAB
  0
TABLE
  2
UCS
  5
6
100
AcDbSymbolTable
 70
               0
  0
ENDTAB
  0
TABLE
  2
APPID
  5
8
100
AcDbSymbolTable
 70
               1
  0
APPID
  5
16
100
AcDbSymbolTableRecord
100
AcDbRegAppTableRecord
  2
ACAD
 70
               0
  0
ENDTAB
  0
TABLE
  2
DIMSTYLE
  5
9
100
AcDbSymbolTable
 70
               3
100
AcDbDimStyleTable
 71
               0
  0
DIMSTYLE
105
18
100
AcDbSymbolTableRecord
100
AcDbDimStyleTableRecord
  2
Standard
 70
               0
  3

  4

 40
1.0
 41
0.18
 42
0.0625
 43
0.38
 44
0.18
 45
0.0
 46
0.0
 47
0.0
 48
0.0
 71
               0
 72
               0
 73
               1
 74
               1
 75
               0
 76
               0
 77
               0
 78
               0
 79
               0
140
0.18
141
0.09
142
0.0
143
25.399999999999999
144
1.0
145
0.0
146
1.0
147
0.09
148
0.0
170
               0
171
               2
172
               0
173
               0
174
               0
175
               0
176
               0
177
               0
178
               0
179
               0
271
               4
272
               4
273
               2
274
               2
275
               0
276
               0
277
               2
278
              46
279
               0
280
               0
281
               0
282
               0
283
               1
284
               0
285
               0
286
               0
288
               0
289
               3
340
17
341
0
342
0
343
0
344
0
371
              -2
372
              -2
  0
DIMSTYLE
105
4A
100
AcDbSymbolTableRecord
100
AcDbDimStyleTableRecord
  2
tfrom線あり
 70
               0
  3
<>
  4
[]
 40
1.0
 41
3.999755859375
 42
24.999999999999996
 43
0.9999999999999999
 44
0.0
 45
0.0
 46
0.0
 47
0.0
 48
0.0
 71
               0
 72
               0
 73
               0
 74
               0
 75
               0
 76
               0
 77
               1
 78
              11
 79
               0
140
24.432617187500004
141
0.0
142
0.0
143
1.0
144
1.0
145
0.0
146
1.0
147
0.4999999999999999
148
0.0
170
               0
171
               1
172
               0
173
               0
174
               1
175
               0
176
               0
177
               0
178
               0
179
               2
271
               1
272
               1
273
               2
274
               2
275
               0
276
               2
277
               2
278
              46
279
               0
280
               0
281
               0
282
               0
283
               1
284
              11
285
              11
286
              11
288
               0
289
               0
340
2F
341
42
342
42
343
0
344
0
371
              -2
372
              -2
  0
DIMSTYLE
105
4F
100
AcDbSymbolTableRecord
100
AcDbDimStyleTableRecord
  2
JIS
 70
               0
  3
<>
  4
[]
 40
1.0
 41
31.75
 42
0.0
 43
6.9999999999999396
 44
19.999999999996199
 45
0.0
 46
0.0
 47
0.0
 48
0.0
 71
               0
 72
               0
 73
               0
 74
               0
 75
               0
 76
               0
 77
               1
 78
              11
 79
               0
140
24.432617187500004
141
0.0
142
0.0
143
1.0
144
1.0
145
0.0
146
1.0
147
1.00000000000108
148
0.0
170
               0
171
               1
172
               0
173
               0
174
               1
175
               0
176
               0
177
               0
178
               0
179
               2
271
               1
272
               1
273
               2
274
               2
275
               0
276
               2
277
               2
278
              46
279
               0
280
               0
281
               0
282
               0
283
               1
284
              11
285
              11
286
              11
288
               0
289
               0
340
2F
341
4B
342
4B
343
0
344
0
371
              -2
372
              -2
  0
ENDTAB
  0
TABLE
  2
BLOCK_RECORD
  5
1
100
AcDbSymbolTable
 70
              14
  0
BLOCK_RECORD
  5
A
100
AcDbSymbolTableRecord
100
AcDbBlockTableRecord
  2
*MODEL_SPACE
340
20
  0
BLOCK_RECORD
  5
B
100
AcDbSymbolTableRecord
100
AcDbBlockTableRecord
  2
*PAPER_SPACE
340
21
  0
BLOCK_RECORD
  5
42
100
AcDbSymbolTableRecord
100
AcDbBlockTableRecord
  2
_DOT
340
0
  0
BLOCK_RECORD
  5
4B
100
AcDbSymbolTableRecord
100
AcDbBlockTableRecord
  2
VW_FILLEDARROW
340
0
  0
BLOCK_RECORD
  5
23
100
AcDbSymbolTableRecord
100
AcDbBlockTableRecord
  2
グループ
340
0
102
{BLKREFS
331
F0
102
}
  0
BLOCK_RECORD
  5
24
100
AcDbSymbolTableRecord
100
AcDbBlockTableRecord
  2
*D3
340
0
  0
BLOCK_RECORD
  5
25
100
AcDbSymbolTableRecord
100
AcDbBlockTableRecord
  2
*D4
340
0
  0
BLOCK_RECORD
  5
26
100
AcDbSymbolTableRecord
100
AcDbBlockTableRecord
  2
*D5
340
0
  0
BLOCK_RECORD
  5
27
100
AcDbSymbolTableRecord
100
AcDbBlockTableRecord
  2
*D6
340
0
  0
BLOCK_RECORD
  5
28
100
AcDbSymbolTableRecord
100
AcDbBlockTableRecord
  2
*D7
340
0
  0
BLOCK_RECORD
  5
29
100
AcDbSymbolTableRecord
100
AcDbBlockTableRecord
  2
*D8
340
0
  0
BLOCK_RECORD
  5
2A
100
AcDbSymbolTableRecord
100
AcDbBlockTableRecord
  2
*D9
340
0
  0
BLOCK_RECORD
  5
2B
100
AcDbSymbolTableRecord
100
AcDbBlockTableRecord
  2
*D10
340
0
  0
BLOCK_RECORD
  5
2C
100
AcDbSymbolTableRecord
100
AcDbBlockTableRecord
  2
*D11
340
0
  0
BLOCK_RECORD
  5
2D
100
AcDbSymbolTableRecord
100
AcDbBlockTableRecord
  2
*D12
340
0
  0
BLOCK_RECORD
  5
2E
100
AcDbSymbolTableRecord
100
AcDbBlockTableRecord
  2
*D13
340
0
  0
ENDTAB
  0
ENDSEC
  0
SECTION
  2
BLOCKS
  0
BLOCK
  5
D
100
AcDbEntity
  8
0
390
0
100
AcDbBlockBegin
  2
*MODEL_SPACE
 70
               0
 10
0.0
 20
0.0
 30
0.0
  3
*MODEL_SPACE
  1

  0
ENDBLK
  5
E
100
AcDbEntity
  8
0
390
0
100
AcDbBlockEnd
  0
BLOCK
  5
F
100
AcDbEntity
 67
               1
  8
0
390
0
100
AcDbBlockBegin
  2
*PAPER_SPACE
 70
               0
 10
0.0
 20
0.0
 30
0.0
  3
*PAPER_SPACE
  1

  0
ENDBLK
  5
10
100
AcDbEntity
 67
               1
  8
0
390
0
100
AcDbBlockEnd
  0
BLOCK
  5
43
100
AcDbEntity
  8
0
390
0
100
AcDbBlockBegin
  2
_DOT
 70
               0
 10
0.0
 20
0.0
 30
0.0
  3
_DOT
  1

  0
POLYLINE
  5
44
100
AcDbEntity
  8
0
370
              -2
390
0
  6
ByBlock
 62
               0
100
AcDb2dPolyline
 66
               1
 10
0.0
 20
0.0
 30
0.0
 70
               1
 40
0.5
 41
0.5
  0
VERTEX
  5
45
100
AcDbEntity
  8
0
370
              -2
390
0
  6
ByBlock
 62
               0
100
AcDbVertex
100
AcDb2dVertex
 10
-0.25
 20
0.0
 30
0.0
 42
1.0
  0
VERTEX
  5
46
100
AcDbEntity
  8
0
370
              -2
390
0
  6
ByBlock
 62
               0
100
AcDbVertex
100
AcDb2dVertex
 10
0.25
 20
0.0
 30
0.0
 42
1.0
  0
SEQEND
  5
47
100
AcDbEntity
  8
0
390
0
  0
LINE
  5
48
100
AcDbEntity
  8
0
370
              -2
390
0
  6
ByBlock
 62
               0
100
AcDbLine
 10
-0.5
 20
0.0
 30
0.0
 11
-1.0
 21
0.0
 31
0.0
  0
ENDBLK
  5
49
100
AcDbEntity
  8
0
390
0
100
AcDbBlockEnd
  0
BLOCK
  5
4C
100
AcDbEntity
  8
0
370
              -2
390
0
  6
ByBlock
 62
               0
100
AcDbBlockBegin
  2
VW_FILLEDARROW
 70
               0
 10
0.0
 20
0.0
 30
0.0
  3
VW_FILLEDARROW
  1

  0
SOLID
  5
4D
100
AcDbEntity
  8
0
370
              -2
390
0
 62
               0
100
AcDbTrace
 10
0.0
 20
0.0
 30
0.0
 11
-0.9921874999999999
 21
-0.2658558393652545
 31
0.0
 12
-0.9921874999999999
 22
0.2658558393652548
 32
0.0
 13
-0.9921874999999999
 23
0.2658558393652548
 33
0.0
  0
ENDBLK
  5
4E
100
AcDbEntity
  8
0
390
0
100
AcDbBlockEnd
  0
BLOCK
  5
50
100
AcDbEntity
  8
template
390
0
100
AcDbBlockBegin
  2
グループ
 70
               0
 10
0.0
 20
0.0
 30
0.0
  3
グループ
  1

  0
LWPOLYLINE
  5
51
100
AcDbEntity
  8
0
370
              15
390
0
  6
Continuous
 62
               7
100
AcDbPolyline
 90
        8
 70
             129
 10
887.42850780307458
 20
-1329.4897210236891
 10
887.42850780307458
 20
-1335.487109717265
 10
877.92731088507128
 20
-1335.487109717265
 10
877.92731088507128
 20
-1359.9380729807738
 10
869.57193362328849
 20
-1359.9380729807738
 10
869.57193362328849
 20
-1335.487109717265
 10
860.23897667697906
 20
-1335.487109717265
 10
860.23897667697906
 20
-1329.4897210236891
  0
LWPOLYLINE
  5
52
100
AcDbEntity
  8
0
370
              15
390
0
  6
Continuous
 62
               7
100
AcDbPolyline
 90
      101
 70
             128
 10
900.15679963363152
 20
-1330.2179695166255
 10
900.17214966241704
 20
-1330.2136087599404
 42
-0.0222221607814301
 10
900.46215423908757
 20
-1330.1449842946959
 10
900.47794800307406
 20
-1330.1419808716003
 42
-0.0146883565590301
 10
900.74065070830534
 20
-1330.0999776846495
 42
-0.0127458844187711
 10
901.00528967545381
 20
-1330.0724407165774
 10
901.06774475377119
 20
-1330.0675472939888
 42
-0.019809901856401
 10
901.4585938632481
 20
-1330.0524621365921
 10
901.51040533269179
 20
-1330.0525159122571
 42
-0.0147617382762875
 10
902.0050287936632
 20
-1330.067635937502
 10
902.07772024854637
 20
-1330.0720085443902
 42
-0.0162624549001704
 10
902.46787387800555
 20
-1330.1082414196621
 10
902.5894062692704
 20
-1330.1235279786595
 42
-0.0080020874666059
 10
902.73498530035636
 20
-1330.1442108259271
 10
902.77330477094881
 20
-1330.1502821037379
 42
-0.0053821929688787
 10
902.84178887626615
 20
-1330.1618896275597
 10
902.11538317706754
 20
-1332.3428180832736
 42
0.0108667757387719
 10
902.04806610694334
 20
-1332.329630968055
 10
902.01059808374725
 20
-1332.3231332254593
 42
0.0170663203306311
 10
901.86738129683351
 20
-1332.3033036281677
 10
901.79950596414869
 20
-1332.2962564575801
 42
0.0220162375276588
 10
901.51912655629269
 20
-1332.2795740968099
 10
901.4412709892415
 20
-1332.2783747295434
 42
0.0282606915787617
 10
901.10563466566339
 20
-1332.2921780065126
 10
901.06172139189096
 20
-1332.2964779965162
 42
0.0169677213685171
 10
900.81579689693217
 20
-1332.329015046068
 42
0.0190576269868273
 10
900.57288893435032
 20
-1332.379161918175
 10
900.56662974624123
 20
-1332.3807048922838
 42
0.021368564284434
 10
900.31624526176745
 20
-1332.4539051773872
 10
900.31075536684727
 20
-1332.4557681734477
 42
0.0237595297599631
 10
900.0572604819464
 20
-1332.5554526953442
 10
900.05215840791891
 20
-1332.5577444708215
 42
0.0261857468820523
 10
899.79998763169033
 20
-1332.6872808081953
 10
899.78956144260212
 20
-1332.6933462826644
 42
0.0272553062022924
 10
899.55313166736346
 20
-1332.8487184886085
 10
899.5183686538569
 20
-1332.8743796366984
 42
0.0325996893160065
 10
899.36821331020246
 20
-1333.0011275096722
 10
899.34450388107882
 20
-1333.0239455381854
 42
0.0138050960639884
 10
899.2526207248693
 20
-1333.1173951997366
 42
0.0125280103796131
 10
899.16577819203962
 20
-1333.2155585263322
 10
899.14209774712742
 20
-1333.2437170245241
 42
0.0205218024748692
 10
899.01699767161176
 20
-1333.4055103387561
 10
898.99453133112661
 20
-1333.4371700685801
 42
0.0163110129584256
 10
898.83882095187539
 20
-1333.6725005036499
 10
898.83609705582433
 20
-1333.6769242656355
 42
0.0131897341899578
 10
898.68929653491614
 20
-1333.9300563580043
 10
898.68759643955195
 20
-1333.9331745971358
 42
0.0107895576065115
 10
898.54981973734164
 20
-1334.1993898067699
 10
898.54908684781617
 20
-1334.2008840394174
 42
0.0091371507222665
 10
898.42060689916491
 20
-1334.4754092371804
 10
898.39086126775737
 20
-1334.5421157443357
 42
0.0135418326349678
 10
898.21914732868447
 20
-1334.9570535296077
 10
898.18554252024944
 20
-1335.044919671891
 42
0.0092834542415477
 10
898.01431346033064
 20
-1335.518818170191
 10
897.98869633261359
 20
-1335.5940592399827
 42
0.0054261043584063
 10
897.88105818431995
 20
-1335.9218232130497
 10
897.86353219814646
 20
-1335.9772113752674
 42
0.0008225090813978
 10
897.79486214631254
 20
-1336.1954801334289
 10
896.81017301437907
 20
-1339.2203714266855
 10
900.04279685445294
 20
-1339.2203714266855
 10
899.5386044245995
 20
-1341.1248497250378
 10
896.28254814261618
 20
-1341.1248497250378
 10
890.45339911026235
 20
-1359.9380727910427
 10
888.62830149995204
 20
-1359.9380727910427
 10
894.46297953545297
 20
-1341.1248497250378
 10
892.05786316641263
 20
-1341.1248497250378
 10
892.56205559626608
 20
-1339.2203714266855
 10
894.9906044072161
 20
-1339.2203714266855
 10
895.85075932540474
 20
-1336.5839584259866
 42
-0.0005863560650972
 10
895.88749400353117
 20
-1336.4671320059392
 10
895.96358183726863
 20
-1336.2261397063094
 42
-0.0087522378926978
 10
896.1630499807286
 20
-1335.6308636191541
 10
896.25531425614111
 20
-1335.3707234506439
 42
-0.007740095383119
 10
896.51324791527009
 20
-1334.6777187731018
 10
896.52901288684563
 20
-1334.6372878897243
 42
-0.0082369946331731
 10
896.77609735746091
 20
-1334.03320882352
 42
-0.0085725238362594
 10
897.04334345346808
 20
-1333.4377827842236
 10
897.14497305447094
 20
-1333.2213616822485
 42
-0.0168109410597115
 10
897.43191748320123
 20
-1332.6601541561433
 10
897.55776087369247
 20
-1332.4331901230878
 42
-0.0007817726865838
 10
897.6120452237169
 20
-1332.335645878115
 10
897.61217352973028
 20
-1332.3354161693856
 42
-0.003662614215881
 10
897.66706139375538
 20
-1332.2388182894099
 42
-0.0080221150673458
 10
897.72418564916507
 20
-1332.1435390546524
 10
897.75488560052327
 20
-1332.0941481055347
 42
-0.0202139325572048
 10
897.88254134033207
 20
-1331.9061665048505
 10
897.93660880551761
 20
-1331.8330876406126
 42
-0.0249323791804395
 10
898.19577159923449
 20
-1331.5170423984607
 10
898.21991141336377
 20
-1331.4904281255458
 42
-0.02421321215402
 10
898.55959215490236
 20
-1331.1505446393448
 10
898.60750372765631
 20
-1331.1070355031559
 42
-0.0251017527860702
 10
898.89148542829707
 20
-1330.8740427573907
 10
898.89293090511046
 20
-1330.8729734998121
 42
-0.0130868069035355
 10
899.19119155506814
 20
-1330.6641930312694
 10
899.19275337420947
 20
-1330.6631595909953
 42
-0.0290329526389708
 10
899.50386451560416
 20
-1330.4823340893649
 10
899.53371007759461
 20
-1330.4672317065231
 42
-0.0160250190044303
 10
899.79961449135499
 20
-1330.3432155963123
 42
-0.0267600374781979
 10
900.07489056882548
 20
-1330.2424672757631
 10
900.10162648834455
 20
-1330.234274716938
 42
-0.0049981587669678
 10
900.15679963363152
 20
-1330.2179695166255
 42
-0.0049981587669678
  0
LWPOLYLINE
  5
53
100
AcDbEntity
  8
0
370
              15
390
0
  6
Continuous
 62
               7
100
AcDbPolyline
 90
      118
 70
             128
 10
919.97116719807843
 20
-1339.2943547545128
 10
921.8462891225779
 20
-1339.2943547545128
 10
921.00825021697801
 20
-1341.9759212809129
 42
-0.0010587229260709
 10
921.0397060324857
 20
-1341.9390167476326
 10
921.09790012318194
 20
-1341.8710344913818
 42
-0.0071874740410429
 10
921.24827534127462
 20
-1341.7003937993586
 10
921.38999811454221
 20
-1341.5441576580397
 42
-0.0148118053513507
 10
921.84012740725177
 20
-1341.0765438120297
 10
921.92734974215739
 20
-1340.9911464911725
 42
-0.0086273358692589
 10
922.26289854316519
 20
-1340.6737708571566
 10
922.30673225939211
 20
-1340.6337212128226
 42
-0.0103138323114373
 10
922.56475596162454
 20
-1340.4075580754852
 10
922.61053036793828
 20
-1340.3690760282361
 42
-0.0060206748573207
 10
922.78337843206384
 20
-1340.2272813774707
 10
922.78540956296592
 20
-1340.2256556718266
 42
-0.0067069027290996
 10
922.95770237761235
 20
-1340.0915050380445
 10
922.96025114353631
 20
-1340.0895748681708
 42
-0.0076184352053533
 10
923.13115640940964
 20
-1339.9641999929254
 42
-0.0089652861667917
 10
923.30611737215224
 20
-1339.8445667325873
 10
923.34246909228864
 20
-1339.8206555191098
 42
-0.0156916245935947
 10
923.53842858944927
 20
-1339.7003930326355
 42
-0.0023299011067757
 10
923.73869063340601
 20
-1339.5872150931073
 10
923.75407476580892
 20
-1339.5786150980298
 42
-0.0107669341484711
 10
923.98831159091731
 20
-1339.4542149646768
 10
924.01057639198507
 20
-1339.4429982147303
 42
-0.0078058045898637
 10
924.29416650993733
 20
-1339.3056367590921
 10
924.30407359764695
 20
-1339.3010276312234
 42
-0.0181829330472308
 10
924.61438300226416
 20
-1339.1701638901272
 10
924.66843844482639
 20
-1339.1496487701854
 42
-0.020841153603376
 10
925.01752341227962
 20
-1339.0335583076912
 10
925.03187951240807
 20
-1339.0294398627375
 42
-0.0222799817140722
 10
925.36059930632427
 20
-1338.9507982965974
 10
925.36948826956211
 20
-1338.9490862860123
 42
-0.0215509523883655
 10
925.68595923784119
 20
-1338.9021705974778
 10
925.72844119889078
 20
-1338.8977330706869
 42
-0.0182545924868136
 10
925.96254997819528
 20
-1338.8818892452962
 10
926.00195099453049
 20
-1338.8806647002173
 42
-0.007296285653578
 10
926.15787387423234
 20
-1338.8780953716948
 10
926.18697354480878
 20
-1338.8780405362911
 42
-0.0059227516318734
 10
926.28472304394927
 20
-1338.8790142480816
 10
926.31396526146057
 20
-1338.8796520146857
 42
-0.0011833111900505
 10
926.3532165451536
 20
-1338.8806010189949
 10
925.55782994954643
 20
-1341.4193349640939
 42
0.0143932051595803
 10
925.5314285671958
 20
-1341.4091359940487
 10
925.52415659477856
 20
-1341.4065647751913
 42
0.0234388603547365
 10
925.48232572884501
 20
-1341.3939455394757
 10
925.47364406593374
 20
-1341.3917645774709
 42
0.0199162742992211
 10
925.41335523185251
 20
-1341.3791478421356
 10
925.39254129404753
 20
-1341.3756506427073
 42
0.0293643550664213
 10
925.28946643528775
 20
-1341.3645005970541
 10
925.26478125456811
 20
-1341.3632889800356
 42
0.0214606686863461
 10
925.11164033861542
 20
-1341.362350419618
 10
925.10226842779764
 20
-1341.3626953311623
 42
0.0167564054174835
 10
924.93074823668701
 20
-1341.3747723735305
 10
924.92228844393026
 20
-1341.3756537139575
 42
0.0137677553242511
 10
924.73493513066478
 20
-1341.4004030225012
 10
924.72758339115762
 20
-1341.4015809424691
 42
0.0118497261484515
 10
924.5270856270555
 20
-1341.4385982926583
 10
924.52093561980905
 20
-1341.4398851553783
 42
0.0106421143889894
 10
924.31005473251525
 20
-1341.4887175309552
 10
924.30514592413499
 20
-1341.4899648736382
 42
0.0099746379697671
 10
924.08668745498142
 20
-1341.5501394019502
 10
924.0251394148022
 20
-1341.5684212805836
 42
0.0191613675863486
 10
923.68915495228191
 20
-1341.6823986608724
 10
923.60109517954231
 20
-1341.7160855711941
 42
0.0205274080142509
 10
923.2157884076405
 20
-1341.8819139790212
 10
923.15813912566352
 20
-1341.9095819435911
 42
0.018125691219054
 10
922.89986218499155
 20
-1342.0452657625715
 10
922.84690680167876
 20
-1342.0755833757855
 42
0.0140709242406081
 10
922.70195186704927
 20
-1342.1640780492205
 10
922.67570299843283
 20
-1342.1811348679346
 42
0.0086667884403732
 10
922.58677683688825
 20
-1342.2411375358188
 42
0.0036408192021093
 10
922.49934359885935
 20
-1342.3033183936079
 10
922.46411672438626
 20
-1342.3287593395239
 42
0.0052260781276079
 10
922.30788802698305
 20
-1342.4440917261672
 10
922.2916811707355
 20
-1342.4563198367764
 42
0.0050024435901243
 10
922.10567782766589
 20
-1342.5996024050471
 10
922.09035967116154
 20
-1342.6116484274844
 42
0.0136138710282764
 10
921.87991840283291
 20
-1342.7866149324007
 10
921.84625052704268
 20
-1342.816193905112
 42
0.0172815186912619
 10
921.58184698538491
 20
-1343.0651905777304
 10
921.57928463953749
 20
-1343.0677763948825
 42
0.0189403857992394
 10
921.3287028409577
 20
-1343.3405816596874
 10
921.29607134742321
 20
-1343.3789255911829
 42
0.0185044199502399
 10
921.1041149084424
 20
-1343.6221741723066
 42
0.0088565243896443
 10
920.92565480181554
 20
-1343.8756905924545
 10
920.91647682216546
 20
-1343.8892319722167
 42
0.0157195347231965
 10
920.73325621582876
 20
-1344.1787541815368
 10
920.68717327390823
 20
-1344.25690637854
 42
0.0095451879774186
 10
920.52208772376287
 20
-1344.5495010209097
 10
920.51093980483438
 20
-1344.5701716930396
 42
0.0100351706255244
 10
920.37889605567398
 20
-1344.8272272535326
 42
0.0086935915418706
 10
920.25656490388042
 20
-1345.0890603989358
 10
920.25324416246542
 20
-1345.0965027219088
 42
0.0072580174864192
 10
920.13289771052303
 20
-1345.3770947134856
 10
920.12963607721417
 20
-1345.3850147395096
 42
0.0060005122611546
 10
920.01043540887611
 20
-1345.6846244101032
 10
920.00722443052985
 20
-1345.6929859380198
 42
0.0049017786978346
 10
919.88832427167245
 20
-1346.0119149186237
 10
919.88515846528196
 20
-1346.0206678558543
 42
0.0039415167602265
 10
919.76572218721878
 20
-1346.3592099182865
 10
919.76259108457316
 20
-1346.3683131191437
 42
0.0031035838768564
 10
919.64178629888318
 20
-1346.7267529809078
 10
919.63867625434966
 20
-1346.7361736022922
 42
0.0025070747149414
 10
919.51577490305544
 20
-1347.1148208191701
 10
919.47848100660894
 20
-1347.231712484489
 42
0.0029081910285241
 10
919.28646270879426
 20
-1347.845876142793
 10
919.24565954028105
 20
-1347.9790993850565
 42
0.0009266453733089
 10
918.97724216596873
 20
-1348.8613238449725
 10
918.95635469334741
 20
-1348.9304357241444
 42
-0.0005809993666905
 10
918.67901801273456
 20
-1349.8442438308548
 10
918.61273621446264
 20
-1350.0617287630109
 42
-0.001201870816861
 10
918.46575190503245
 20
-1350.5398914275352
 10
918.41343205330372
 20
-1350.7086505689269
 42
-0.0002691059596852
 10
918.3698625722983
 20
-1350.848918188743
 10
915.53690667400906
 20
-1359.9380727910427
 10
913.71891778203053
 20
-1359.9380727910427
 10
919.97116719807843
 20
-1339.2943547545128
  0
SPLINE
  5
54
100
AcDbEntity
  8
0
370
              15
390
0
  6
Continuous
 62
               7
100
AcDbSpline
210
0.0
220
0.0
230
1.0
 70
              13
 71
               2
 72
             782
 73
             779
 74
               0
 42
0.000001
 43
0.000001
 40
0.0
 40
0.0
 40
0.0
 40
1.0
 40
1.0
 40
2.0
 40
2.0
 40
3.0
 40
3.0
 40
4.0
 40
4.0
 40
5.0
 40
5.0
 40
6.0
 40
6.0
 40
7.0
 40
7.0
 40
8.0
 40
8.0
 40
9.0
 40
9.0
 40
10.0
 40
10.0
 40
11.0
 40
11.0
 40
12.0
 40
12.0
 40
13.0
 40
13.0
 40
14.0
 40
14.0
 40
15.0
 40
15.0
 40
16.0
 40
16.0
 40
17.0
 40
17.0
 40
18.0
 40
18.0
 40
19.0
 40
19.0
 40
20.0
 40
20.0
 40
21.0
 40
21.0
 40
22.0
 40
22.0
 40
23.0
 40
23.0
 40
24.0
 40
24.0
 40
25.0
 40
25.0
 40
26.0
 40
26.0
 40
27.0
 40
27.0
 40
28.0
 40
28.0
 40
29.0
 40
29.0
 40
30.0
 40
30.0
 40
31.0
 40
31.0
 40
32.0
 40
32.0
 40
33.0
 40
33.0
 40
34.0
 40
34.0
 40
35.0
 40
35.0
 40
36.0
 40
36.0
 40
37.0
 40
37.0
 40
38.0
 40
38.0
 40
39.0
 40
39.0
 40
40.0
 40
40.0
 40
41.0
 40
41.0
 40
42.0
 40
42.0
 40
43.0
 40
43.0
 40
44.0
 40
44.0
 40
45.0
 40
45.0
 40
46.0
 40
46.0
 40
47.0
 40
47.0
 40
48.0
 40
48.0
 40
49.0
 40
49.0
 40
50.0
 40
50.0
 40
51.0
 40
51.0
 40
52.0
 40
52.0
 40
53.0
 40
53.0
 40
54.0
 40
54.0
 40
55.0
 40
55.0
 40
56.0
 40
56.0
 40
57.0
 40
57.0
 40
58.0
 40
58.0
 40
59.0
 40
59.0
 40
60.0
 40
60.0
 40
61.0
 40
61.0
 40
62.0
 40
62.0
 40
63.0
 40
63.0
 40
64.0
 40
64.0
 40
65.0
 40
65.0
 40
66.0
 40
66.0
 40
67.0
 40
67.0
 40
68.0
 40
68.0
 40
69.0
 40
69.0
 40
70.0
 40
70.0
 40
71.0
 40
71.0
 40
72.0
 40
72.0
 40
73.0
 40
73.0
 40
74.0
 40
74.0
 40
75.0
 40
75.0
 40
76.0
 40
76.0
 40
77.0
 40
77.0
 40
78.0
 40
78.0
 40
79.0
 40
79.0
 40
80.0
 40
80.0
 40
81.0
 40
81.0
 40
82.0
 40
82.0
 40
83.0
 40
83.0
 40
84.0
 40
84.0
 40
85.0
 40
85.0
 40
86.0
 40
86.0
 40
87.0
 40
87.0
 40
88.0
 40
88.0
 40
89.0
 40
89.0
 40
90.0
 40
90.0
 40
91.0
 40
91.0
 40
92.0
 40
92.0
 40
93.0
 40
93.0
 40
94.0
 40
94.0
 40
95.0
 40
95.0
 40
96.0
 40
96.0
 40
97.0
 40
97.0
 40
98.0
 40
98.0
 40
99.0
 40
99.0
 40
100.0
 40
100.0
 40
101.0
 40
101.0
 40
102.0
 40
102.0
 40
103.0
 40
103.0
 40
104.0
 40
104.0
 40
105.0
 40
105.0
 40
106.0
 40
106.0
 40
107.0
 40
107.0
 40
108.0
 40
108.0
 40
109.0
 40
109.0
 40
110.0
 40
110.0
 40
111.0
 40
111.0
 40
112.0
 40
112.0
 40
113.0
 40
113.0
 40
114.0
 40
114.0
 40
115.0
 40
115.0
 40
116.0
 40
116.0
 40
117.0
 40
117.0
 40
118.0
 40
118.0
 40
119.0
 40
119.0
 40
120.0
 40
120.0
 40
121.0
 40
121.0
 40
122.0
 40
122.0
 40
123.0
 40
123.0
 40
124.0
 40
124.0
 40
125.0
 40
125.0
 40
126.0
 40
126.0
 40
127.0
 40
127.0
 40
128.0
 40
128.0
 40
129.0
 40
129.0
 40
130.0
 40
130.0
 40
131.0
 40
131.0
 40
132.0
 40
132.0
 40
133.0
 40
133.0
 40
134.0
 40
134.0
 40
135.0
 40
135.0
 40
136.0
 40
136.0
 40
137.0
 40
137.0
 40
138.0
 40
138.0
 40
139.0
 40
139.0
 40
140.0
 40
140.0
 40
141.0
 40
141.0
 40
142.0
 40
142.0
 40
143.0
 40
143.0
 40
144.0
 40
144.0
 40
145.0
 40
145.0
 40
146.0
 40
146.0
 40
147.0
 40
147.0
 40
148.0
 40
148.0
 40
149.0
 40
149.0
 40
150.0
 40
150.0
 40
151.0
 40
151.0
 40
152.0
 40
152.0
 40
153.0
 40
153.0
 40
154.0
 40
154.0
 40
155.0
 40
155.0
 40
156.0
 40
156.0
 40
157.0
 40
157.0
 40
158.0
 40
158.0
 40
159.0
 40
159.0
 40
160.0
 40
160.0
 40
161.0
 40
161.0
 40
162.0
 40
162.0
 40
163.0
 40
163.0
 40
164.0
 40
164.0
 40
165.0
 40
165.0
 40
166.0
 40
166.0
 40
167.0
 40
167.0
 40
168.0
 40
168.0
 40
169.0
 40
169.0
 40
170.0
 40
170.0
 40
171.0
 40
171.0
 40
172.0
 40
172.0
 40
173.0
 40
173.0
 40
174.0
 40
174.0
 40
175.0
 40
175.0
 40
176.0
 40
176.0
 40
177.0
 40
177.0
 40
178.0
 40
178.0
 40
179.0
 40
179.0
 40
180.0
 40
180.0
 40
181.0
 40
181.0
 40
182.0
 40
182.0
 40
183.0
 40
183.0
 40
184.0
 40
184.0
 40
185.0
 40
185.0
 40
186.0
 40
186.0
 40
187.0
 40
187.0
 40
188.0
 40
188.0
 40
189.0
 40
189.0
 40
190.0
 40
190.0
 40
191.0
 40
191.0
 40
192.0
 40
192.0
 40
193.0
 40
193.0
 40
194.0
 40
194.0
 40
195.0
 40
195.0
 40
196.0
 40
196.0
 40
197.0
 40
197.0
 40
198.0
 40
198.0
 40
199.0
 40
199.0
 40
200.0
 40
200.0
 40
201.0
 40
201.0
 40
202.0
 40
202.0
 40
203.0
 40
203.0
 40
204.0
 40
204.0
 40
205.0
 40
205.0
 40
206.0
 40
206.0
 40
207.0
 40
207.0
 40
208.0
 40
208.0
 40
209.0
 40
209.0
 40
210.0
 40
210.0
 40
211.0
 40
211.0
 40
212.0
 40
212.0
 40
213.0
 40
213.0
 40
214.0
 40
214.0
 40
215.0
 40
215.0
 40
216.0
 40
216.0
 40
217.0
 40
217.0
 40
218.0
 40
218.0
 40
219.0
 40
219.0
 40
220.0
 40
220.0
 40
221.0
 40
221.0
 40
222.0
 40
222.0
 40
223.0
 40
223.0
 40
224.0
 40
224.0
 40
225.0
 40
225.0
 40
226.0
 40
226.0
 40
227.0
 40
227.0
 40
228.0
 40
228.0
 40
229.0
 40
229.0
 40
230.0
 40
230.0
 40
231.0
 40
231.0
 40
232.0
 40
232.0
 40
233.0
 40
233.0
 40
234.0
 40
234.0
 40
235.0
 40
235.0
 40
236.0
 40
236.0
 40
237.0
 40
237.0
 40
238.0
 40
238.0
 40
239.0
 40
239.0
 40
240.0
 40
240.0
 40
241.0
 40
241.0
 40
242.0
 40
242.0
 40
243.0
 40
243.0
 40
244.0
 40
244.0
 40
245.0
 40
245.0
 40
246.0
 40
246.0
 40
247.0
 40
247.0
 40
248.0
 40
248.0
 40
249.0
 40
249.0
 40
250.0
 40
250.0
 40
251.0
 40
251.0
 40
252.0
 40
252.0
 40
253.0
 40
253.0
 40
254.0
 40
254.0
 40
255.0
 40
255.0
 40
256.0
 40
256.0
 40
257.0
 40
257.0
 40
258.0
 40
258.0
 40
259.0
 40
259.0
 40
260.0
 40
260.0
 40
261.0
 40
261.0
 40
262.0
 40
262.0
 40
263.0
 40
263.0
 40
264.0
 40
264.0
 40
265.0
 40
265.0
 40
266.0
 40
266.0
 40
267.0
 40
267.0
 40
268.0
 40
268.0
 40
269.0
 40
269.0
 40
270.0
 40
270.0
 40
271.0
 40
271.0
 40
272.0
 40
272.0
 40
273.0
 40
273.0
 40
274.0
 40
274.0
 40
275.0
 40
275.0
 40
276.0
 40
276.0
 40
277.0
 40
277.0
 40
278.0
 40
278.0
 40
279.0
 40
279.0
 40
280.0
 40
280.0
 40
281.0
 40
281.0
 40
282.0
 40
282.0
 40
283.0
 40
283.0
 40
284.0
 40
284.0
 40
285.0
 40
285.0
 40
286.0
 40
286.0
 40
287.0
 40
287.0
 40
288.0
 40
288.0
 40
289.0
 40
289.0
 40
290.0
 40
290.0
 40
291.0
 40
291.0
 40
292.0
 40
292.0
 40
293.0
 40
293.0
 40
294.0
 40
294.0
 40
295.0
 40
295.0
 40
296.0
 40
296.0
 40
297.0
 40
297.0
 40
298.0
 40
298.0
 40
299.0
 40
299.0
 40
300.0
 40
300.0
 40
301.0
 40
301.0
 40
302.0
 40
302.0
 40
303.0
 40
303.0
 40
304.0
 40
304.0
 40
305.0
 40
305.0
 40
306.0
 40
306.0
 40
307.0
 40
307.0
 40
308.0
 40
308.0
 40
309.0
 40
309.0
 40
310.0
 40
310.0
 40
311.0
 40
311.0
 40
312.0
 40
312.0
 40
313.0
 40
313.0
 40
314.0
 40
314.0
 40
315.0
 40
315.0
 40
316.0
 40
316.0
 40
317.0
 40
317.0
 40
318.0
 40
318.0
 40
319.0
 40
319.0
 40
320.0
 40
320.0
 40
321.0
 40
321.0
 40
322.0
 40
322.0
 40
323.0
 40
323.0
 40
324.0
 40
324.0
 40
325.0
 40
325.0
 40
326.0
 40
326.0
 40
327.0
 40
327.0
 40
328.0
 40
328.0
 40
329.0
 40
329.0
 40
330.0
 40
330.0
 40
331.0
 40
331.0
 40
332.0
 40
332.0
 40
333.0
 40
333.0
 40
334.0
 40
334.0
 40
335.0
 40
335.0
 40
336.0
 40
336.0
 40
337.0
 40
337.0
 40
338.0
 40
338.0
 40
339.0
 40
339.0
 40
340.0
 40
340.0
 40
341.0
 40
341.0
 40
342.0
 40
342.0
 40
343.0
 40
343.0
 40
344.0
 40
344.0
 40
345.0
 40
345.0
 40
346.0
 40
346.0
 40
347.0
 40
347.0
 40
348.0
 40
348.0
 40
349.0
 40
349.0
 40
350.0
 40
350.0
 40
351.0
 40
351.0
 40
352.0
 40
352.0
 40
353.0
 40
353.0
 40
354.0
 40
354.0
 40
355.0
 40
355.0
 40
356.0
 40
356.0
 40
357.0
 40
357.0
 40
358.0
 40
358.0
 40
359.0
 40
359.0
 40
360.0
 40
360.0
 40
361.0
 40
361.0
 40
362.0
 40
362.0
 40
363.0
 40
363.0
 40
364.0
 40
364.0
 40
365.0
 40
365.0
 40
366.0
 40
366.0
 40
367.0
 40
367.0
 40
368.0
 40
368.0
 40
369.0
 40
369.0
 40
370.0
 40
370.0
 40
371.0
 40
371.0
 40
372.0
 40
372.0
 40
373.0
 40
373.0
 40
374.0
 40
374.0
 40
375.0
 40
375.0
 40
376.0
 40
376.0
 40
377.0
 40
377.0
 40
378.0
 40
378.0
 40
379.0
 40
379.0
 40
380.0
 40
380.0
 40
381.0
 40
381.0
 40
382.0
 40
382.0
 40
383.0
 40
383.0
 40
384.0
 40
384.0
 40
385.0
 40
385.0
 40
386.0
 40
386.0
 40
387.0
 40
387.0
 40
388.0
 40
388.0
 40
389.0
 40
389.0
 40
389.0
 10
930.29987164881106
 20
-1339.2834283911504
 30
0.0
 41
1.0
 10
931.11829575753154
 20
-1339.2834283911504
 30
0.0
 41
1.0
 10
931.93671986625202
 20
-1339.2834283911504
 30
0.0
 41
1.0
 10
931.52296613073531
 20
-1340.6260546554001
 30
0.0
 41
1.0
 10
931.10921239521849
 20
-1341.9686809196498
 30
0.0
 41
1.0
 10
931.12755189037239
 20
-1341.9399801467598
 30
0.0
 41
0.999995726443651
 10
931.14605888719007
 20
-1341.9113870966296
 30
0.0
 41
1.0
 10
931.17648821134094
 20
-1341.8643742182328
 30
0.0
 41
1.0
 10
931.20691753549181
 20
-1341.817361339836
 30
0.0
 41
1.0
 10
931.28628318059862
 20
-1341.6947425329315
 30
0.0
 41
0.9995394069080921
 10
931.37294157215183
 20
-1341.5771644711881
 30
0.0
 41
1.0
 10
931.40869843441112
 20
-1341.5286495785954
 30
0.0
 41
1.0
 10
931.44445529667041
 20
-1341.4801346860024
 30
0.0
 41
1.0
 10
931.57818196448795
 20
-1341.2986944108766
 30
0.0
 41
0.9994460617143522
 10
931.72368244577547
 20
-1341.1265520132274
 30
0.0
 41
1.0
 10
931.72807062675008
 20
-1341.1213603328451
 30
0.0
 41
1.0
 10
931.7324588077247
 20
-1341.1161686524631
 30
0.0
 41
1.0
 10
931.86918292706309
 20
-1340.9544096155782
 30
0.0
 41
0.9994359394934449
 10
932.01645715741483
 20
-1340.8021934144133
 30
0.0
 41
1.0
 10
932.01884051136699
 20
-1340.7997300840411
 30
0.0
 41
1.0
 10
932.02122386531926
 20
-1340.7972667536692
 30
0.0
 41
1.0
 10
932.16373138776544
 20
-1340.6499772132495
 30
0.0
 41
0.9995293688567662
 10
932.31500306874841
 20
-1340.5117040010846
 30
0.0
 41
1.0
 10
932.33429682800738
 20
-1340.4940681154374
 30
0.0
 41
1.0
 10
932.35359058726624
 20
-1340.4764322297901
 30
0.0
 41
1.0
 10
932.46627474972786
 20
-1340.3734307889226
 30
0.0
 41
0.9997087614803214
 10
932.58379763868561
 20
-1340.2759865081225
 30
0.0
 41
1.0
 10
932.60296371186826
 20
-1340.2600949296088
 30
0.0
 41
1.0
 10
932.6221297850509
 20
-1340.2442033510949
 30
0.0
 41
1.0
 10
932.70132052764791
 20
-1340.1785422273188
 30
0.0
 41
0.999959533869618
 10
932.78167979849582
 20
-1340.1143164966697
 30
0.0
 41
1.0
 10
932.86203906934861
 20
-1340.0500907660166
 30
0.0
 41
0.9999749417513295
 10
932.94329960369146
 20
-1339.9870092120705
 30
0.0
 41
1.0
 10
932.96428574985521
 20
-1339.970717924768
 30
0.0
 41
1.0
 10
932.98527189601884
 20
-1339.9544266374653
 30
0.0
 41
1.0
 10
933.06983978131734
 20
-1339.888777627627
 30
0.0
 41
0.9999792037116044
 10
933.15524738109684
 20
-1339.8242248459756
 30
0.0
 41
1.0
 10
933.17607220701939
 20
-1339.8084850237094
 30
0.0
 41
1.0
 10
933.19689703294205
 20
-1339.7927452014433
 30
0.0
 41
1.0
 10
933.24065498089749
 20
-1339.7596720643087
 30
0.0
 41
0.9999993374026255
 10
933.28433666700948
 20
-1339.726498268908
 30
0.0
 41
1.0
 10
933.32801835315263
 20
-1339.6933244734839
 30
0.0
 41
0.9999160953814854
 10
933.37254476406849
 20
-1339.6612934082884
 30
0.0
 41
1.0
 10
933.40536665148989
 20
-1339.6376822527022
 30
0.0
 41
1.0
 10
933.43818853891128
 20
-1339.6140710971158
 30
0.0
 41
1.0
 10
933.54835872466913
 20
-1339.5348177207484
 30
0.0
 41
0.9980964527232127
 10
933.66744771817025
 20
-1339.4697302478919
 30
0.0
 41
1.0
 10
933.70448032509898
 20
-1339.4494902682984
 30
0.0
 41
1.0
 10
933.74151293202783
 20
-1339.4292502887049
 30
0.0
 41
1.0
 10
933.92083994530083
 20
-1339.3312400380041
 30
0.0
 41
0.9984572810573166
 10
934.10992851165861
 20
-1339.253717776658
 30
0.0
 41
1.0
 10
934.11357478105379
 20
-1339.2522228843204
 30
0.0
 41
1.0
 10
934.11722105044907
 20
-1339.2507279919826
 30
0.0
 41
1.0
 10
934.2990170780173
 20
-1339.1761955153117
 30
0.0
 41
0.9987838528034195
 10
934.48726973657676
 20
-1339.119929875146
 30
0.0
 41
1.0
 10
934.4915076857742
 20
-1339.1186632214562
 30
0.0
 41
1.0
 10
934.49574563497163
 20
-1339.1173965677663
 30
0.0
 41
1.0
 10
934.67552239513464
 20
-1339.0636642349805
 30
0.0
 41
0.9990652816207285
 10
934.85926832685186
 20
-1339.0256605554382
 30
0.0
 41
1.0
 10
934.86445672788477
 20
-1339.0245874523314
 30
0.0
 41
1.0
 10
934.86964512891768
 20
-1339.0235143492246
 30
0.0
 41
1.0
 10
935.04301425856931
 20
-1338.9876568758959
 30
0.0
 41
0.9992909934270714
 10
935.21859002502606
 20
-1338.9649464434297
 30
0.0
 41
1.0
 10
935.39416579148292
 20
-1338.9422360109631
 30
0.0
 41
0.9994553539448029
 10
935.57085722457464
 20
-1338.9311567067571
 30
0.0
 41
1.0
 10
935.60629163237195
 20
-1338.9289348187092
 30
0.0
 41
1.0
 10
935.64172604016926
 20
-1338.9267129306613
 30
0.0
 41
1.0
 10
935.80795180673852
 20
-1338.9162898682496
 30
0.0
 41
0.9990928098292884
 10
935.9744615986408
 20
-1338.9200495094842
 30
0.0
 41
1.0
 10
936.01302343390751
 20
-1338.920920201017
 30
0.0
 41
1.0
 10
936.05158526917421
 20
-1338.9217908925498
 30
0.0
 41
1.0
 10
936.14097139053831
 20
-1338.9238091507184
 30
0.0
 41
0.9998382089205191
 10
936.23022707332962
 20
-1338.9290412772466
 30
0.0
 41
1.0
 10
936.23065697954735
 20
-1338.9290664781488
 30
0.0
 41
1.0
 10
936.23108688576508
 20
-1338.9290916790508
 30
0.0
 41
1.0
 10
936.31948275611376
 20
-1338.9342734037746
 30
0.0
 41
0.9997558016758109
 10
936.4075633333166
 20
-1338.9433559191411
 30
0.0
 41
1.0
 10
936.40803947174697
 20
-1338.9434050166237
 30
0.0
 41
1.0
 10
936.40851561017735
 20
-1338.9434541141065
 30
0.0
 41
1.0
 10
936.49564391051808
 20
-1338.9524384345077
 30
0.0
 41
0.9996565144180956
 10
936.58218176385958
 20
-1338.9659757411969
 30
0.0
 41
1.0
 10
936.58264768923641
 20
-1338.9660486269281
 30
0.0
 41
1.0
 10
936.58311361461313
 20
-1338.9661215126594
 30
0.0
 41
1.0
 10
936.66871961720085
 20
-1338.9795130478856
 30
0.0
 41
0.9995321806866951
 10
936.75334669752954
 20
-1338.998113536315
 30
0.0
 41
1.0
 10
936.75373589210039
 20
-1338.9981990787805
 30
0.0
 41
1.0
 10
936.75412508667137
 20
-1338.9982846212463
 30
0.0
 41
1.0
 10
936.83797377785663
 20
-1339.016714024744
 30
0.0
 41
0.999381919921959
 10
936.92032031205372
 20
-1339.0409894080049
 30
0.0
 41
1.0
 10
936.92055874555263
 20
-1339.0410596971146
 30
0.0
 41
1.0
 10
936.92079717905165
 20
-1339.0411299862242
 30
0.0
 41
1.0
 10
937.00266684625103
 20
-1339.0652647912659
 30
0.0
 41
0.9992088568505931
 10
937.08235936523818
 20
-1339.0958300270599
 30
0.0
 41
1.0
 10
937.16204035611725
 20
-1339.1263896277933
 30
0.0
 41
0.9990226101773471
 10
937.23871102602436
 20
-1339.1638670594079
 30
0.0
 41
1.0
 10
937.31537016782374
 20
-1339.2013388559621
 30
0.0
 41
0.9988424273972941
 10
937.38807379503623
 20
-1339.246003631215
 30
0.0
 41
1.0
 10
937.38834150341484
 20
-1339.2461680952867
 30
0.0
 41
1.0
 10
937.38860921179344
 20
-1339.2463325593585
 30
0.0
 41
1.0
 10
937.46184825576449
 20
-1339.291326262756
 30
0.0
 41
0.9986928844491567
 10
937.53011112247464
 20
-1339.343561997036
 30
0.0
 41
1.0
 10
937.53069241469711
 20
-1339.3440068102636
 30
0.0
 41
1.0
 10
937.53127370691959
 20
-1339.3444516234913
 30
0.0
 41
1.0
 10
937.60069915807514
 20
-1339.397576984227
 30
0.0
 41
0.998600726227923
 10
937.66412532784216
 20
-1339.4577377539208
 30
0.0
 41
1.0
 10
937.66501974329913
 20
-1339.4585861217556
 30
0.0
 41
1.0
 10
937.6659141587561
 20
-1339.4594344895904
 30
0.0
 41
1.0
 10
937.73112915943727
 20
-1339.5212919949545
 30
0.0
 41
0.99855814913823
 10
937.78933677113923
 20
-1339.5897844852261
 30
0.0
 41
1.0
 10
937.79859522473487
 20
-1339.6006788429277
 30
0.0
 41
1.0
 10
937.8078536783305
 20
-1339.6115732006292
 30
0.0
 41
1.0
 10
937.88457819722362
 20
-1339.7018544063042
 30
0.0
 41
0.9970460233519991
 10
937.94657009838306
 20
-1339.8028214904859
 30
0.0
 41
1.0
 10
937.96103946346261
 20
-1339.8263879495671
 30
0.0
 41
1.0
 10
937.97550882854216
 20
-1339.8499544086485
 30
0.0
 41
1.0
 10
938.0152455285546
 20
-1339.9146741326804
 30
0.0
 41
0.9988468816636182
 10
938.04859189930607
 20
-1339.9829065851079
 30
0.0
 41
1.0
 10
938.05562792179842
 20
-1339.9973035062471
 30
0.0
 41
1.0
 10
938.06266394429076
 20
-1340.0117004273861
 30
0.0
 41
1.0
 10
938.08193827005812
 20
-1340.0511390375368
 30
0.0
 41
0.9998431189997624
 10
938.09980359755264
 20
-1340.0912355919763
 30
0.0
 41
1.0
 10
938.11766892504045
 20
-1340.1313321464008
 30
0.0
 41
0.9999989989870265
 10
938.13564764845751
 20
-1340.171377983974
 30
0.0
 41
1.0
 10
938.14181996005777
 20
-1340.1851262007999
 30
0.0
 41
1.0
 10
938.14799227165804
 20
-1340.198874417626
 30
0.0
 41
1.0
 10
938.1783156182687
 20
-1340.2664166888353
 30
0.0
 41
0.9998790356320676
 10
938.2065234984068
 20
-1340.3348694407732
 30
0.0
 41
1.0
 10
938.21335867969253
 20
-1340.3514565422042
 30
0.0
 41
1.0
 10
938.22019386097827
 20
-1340.3680436436352
 30
0.0
 41
1.0
 10
938.24375152335699
 20
-1340.4252115985166
 30
0.0
 41
0.9998227574560992
 10
938.26514027174471
 20
-1340.4832259067903
 30
0.0
 41
1.0
 10
938.28652902013334
 20
-1340.5412402150657
 30
0.0
 41
0.9996797971041918
 10
938.30495530509211
 20
-1340.6002623341822
 30
0.0
 41
1.0
 10
938.30885910781819
 20
-1340.6127667923529
 30
0.0
 41
1.0
 10
938.31276291054428
 20
-1340.6252712505236
 30
0.0
 41
1.0
 10
938.33899680095431
 20
-1340.7093022859785
 30
0.0
 41
0.9979274938734727
 10
938.35422132443375
 20
-1340.7960066446392
 30
0.0
 41
1.0
 10
938.35644501169531
 20
-1340.8086706454624
 30
0.0
 41
1.0
 10
938.35866869895676
 20
-1340.8213346462855
 30
0.0
 41
1.0
 10
938.36959863865468
 20
-1340.8835811535741
 30
0.0
 41
0.9994985982137913
 10
938.37656680383134
 20
-1340.9463946547144
 30
0.0
 41
1.0
 10
938.38353496900856
 20
-1341.0092081558616
 30
0.0
 41
0.9996372611202472
 10
938.38711083477654
 20
-1341.0723057345458
 30
0.0
 41
1.0
 10
938.38727941226557
 20
-1341.0752803516243
 30
0.0
 41
1.0
 10
938.38744798975472
 20
-1341.078254968703
 30
0.0
 41
1.0
 10
938.39136101050133
 20
-1341.1473017815554
 30
0.0
 41
0.9997730630736491
 10
938.39232932398932
 20
-1341.2164526055949
 30
0.0
 41
1.0
 10
938.39238643040733
 20
-1341.220530784731
 30
0.0
 41
1.0
 10
938.39244353682534
 20
-1341.224608963867
 30
0.0
 41
1.0
 10
938.39352606314969
 20
-1341.3019161461889
 30
0.0
 41
0.9998772614069604
 10
938.39218597641786
 20
-1341.3792192927499
 30
0.0
 41
1.0
 10
938.39209671321919
 20
-1341.3843684565845
 30
0.0
 41
1.0
 10
938.3920074500204
 20
-1341.3895176204192
 30
0.0
 41
1.0
 10
938.39048883689145
 20
-1341.4771190946522
 30
0.0
 41
0.9999415567326768
 10
938.38707652664539
 20
-1341.5646672563257
 30
0.0
 41
1.0
 10
938.38683520596999
 20
-1341.5708587160643
 30
0.0
 41
1.0
 10
938.38659388529459
 20
-1341.5770501758032
 30
0.0
 41
1.0
 10
938.3826989336975
 20
-1341.676981256966
 30
0.0
 41
0.9999716810420031
 10
938.37730035057905
 20
-1341.7768423951907
 30
0.0
 41
1.0
 10
938.37408755179081
 20
-1341.836271644838
 30
0.0
 41
1.0
 10
938.37087475300257
 20
-1341.8957008944853
 30
0.0
 41
1.0
 10
938.36280084384907
 20
-1342.0450492957807
 30
0.0
 41
0.9999819129896134
 10
938.35293105223263
 20
-1342.1942897734887
 30
0.0
 41
1.0
 10
938.34306126061608
 20
-1342.3435302512
 30
0.0
 41
1.0
 10
938.34062194005219
 20
-1342.3807232970494
 30
0.0
 41
1.0
 10
938.36332017388384
 20
-1342.3419822997184
 30
0.0
 41
0.999998212805759
 10
938.38616473264756
 20
-1342.3033274057466
 30
0.0
 41
1.0
 10
938.41307429252788
 20
-1342.2577941916988
 30
0.0
 41
1.0
 10
938.43998385240832
 20
-1342.2122609776513
 30
0.0
 41
1.0
 10
938.51664753093269
 20
-1342.082539655584
 30
0.0
 41
0.9998609190056319
 10
938.59759484379697
 20
-1341.9554472736509
 30
0.0
 41
1.0
 10
938.62724316527965
 20
-1341.9088975406921
 30
0.0
 41
1.0
 10
938.65689148676222
 20
-1341.8623478077336
 30
0.0
 41
1.0
 10
938.73916370699658
 20
-1341.7331752377427
 30
0.0
 41
0.9999067609733957
 10
938.82493271646058
 20
-1341.6062975483014
 30
0.0
 41
1.0
 10
938.82733741966058
 20
-1341.6027402822479
 30
0.0
 41
1.0
 10
938.82974212286047
 20
-1341.5991830161945
 30
0.0
 41
1.0
 10
938.91070172592288
 20
-1341.4794198588625
 30
0.0
 41
0.9998784952150918
 10
938.99535533560595
 20
-1341.3622386421516
 30
0.0
 41
1.0
 10
939.08000894528698
 20
-1341.2450574254431
 30
0.0
 41
0.999853296828318
 10
939.16862656610908
 20
-1341.1308445169736
 30
0.0
 41
1.0
 10
939.18858835509923
 20
-1341.1051171959548
 30
0.0
 41
1.0
 10
939.20855014408937
 20
-1341.0793898749357
 30
0.0
 41
1.0
 10
939.3270341938503
 20
-1340.9266842639645
 30
0.0
 41
0.9991551975795046
 10
939.45765864347459
 20
-1340.78422470188
 30
0.0
 41
1.0
 10
939.4611682594533
 20
-1340.7803971002568
 30
0.0
 41
1.0
 10
939.46467787543202
 20
-1340.7765694986335
 30
0.0
 41
1.0
 10
939.58828309309672
 20
-1340.6417651397978
 30
0.0
 41
0.9997418144180272
 10
939.71788523279861
 20
-1340.512715729184
 30
0.0
 41
1.0
 10
939.84748737249845
 20
-1340.3836663185721
 30
0.0
 41
0.998923820463302
 10
939.98848992074943
 20
-1340.2671813565332
 30
0.0
 41
1.0
 10
940.03373759889087
 20
-1340.2298013649229
 30
0.0
 41
1.0
 10
940.0789852770323
 20
-1340.1924213733128
 30
0.0
 41
1.0
 10
940.219225334253
 20
-1340.0765663200227
 30
0.0
 41
0.9990825084096857
 10
940.36886526685475
 20
-1339.9731373221912
 30
0.0
 41
1.0
 10
940.37891063091251
 20
-1339.966194109111
 30
0.0
 41
1.0
 10
940.38895599497039
 20
-1339.9592508960309
 30
0.0
 41
1.0
 10
940.5185051994597
 20
-1339.8697083243576
 30
0.0
 41
0.9998164899826464
 10
940.65138940283498
 20
-1339.7851940828418
 30
0.0
 41
1.0
 10
940.6632349633619
 20
-1339.7776603163156
 30
0.0
 41
1.0
 10
940.67508052388882
 20
-1339.7701265497892
 30
0.0
 41
1.0
 10
940.78427360621367
 20
-1339.7006798413242
 30
0.0
 41
0.9997473449130205
 10
940.89647756346062
 20
-1339.6362108835099
 30
0.0
 41
1.0
 10
941.00868152070711
 20
-1339.5717419256957
 30
0.0
 41
0.9999327861145791
 10
941.12235013146915
 20
-1339.5098919340151
 30
0.0
 41
1.0
 10
941.12290213403207
 20
-1339.5095915753348
 30
0.0
 41
1.0
 10
941.123454136595
 20
-1339.5092912166544
 30
0.0
 41
1.0
 10
941.23822675247948
 20
-1339.446840507615
 30
0.0
 41
0.999695642048394
 10
941.35594007832094
 20
-1339.3901270406395
 30
0.0
 41
1.0
 10
941.38638048321707
 20
-1339.375461063908
 30
0.0
 41
1.0
 10
941.41682088811319
 20
-1339.3607950871763
 30
0.0
 41
1.0
 10
941.51979799485332
 20
-1339.3111814287349
 30
0.0
 41
0.9998070570176755
 10
941.62464438379027
 20
-1339.2656508418354
 30
0.0
 41
1.0
 10
941.72949077273256
 20
-1339.220120254934
 30
0.0
 41
0.9997827436148332
 10
941.83614370934322
 20
-1339.1789990836219
 30
0.0
 41
1.0
 10
941.85536655897363
 20
-1339.1715875099899
 30
0.0
 41
1.0
 10
941.87458940860392
 20
-1339.1641759363579
 30
0.0
 41
1.0
 10
942.01968804447927
 20
-1339.1082316177803
 30
0.0
 41
0.9988031841977163
 10
942.16955840708647
 20
-1339.066731553612
 30
0.0
 41
1.0
 10
942.1944756554484
 20
-1339.0598318078055
 30
0.0
 41
1.0
 10
942.21939290381033
 20
-1339.0529320619992
 30
0.0
 41
1.0
 10
942.38666292945641
 20
-1339.0066139195926
 30
0.0
 41
0.9984748040549761
 10
942.55801983810386
 20
-1338.979019687328
 30
0.0
 41
1.0
 10
942.56275897435319
 20
-1338.9782565268144
 30
0.0
 41
1.0
 10
942.56749811060251
 20
-1338.9774933663009
 30
0.0
 41
1.0
 10
942.72937674675302
 20
-1338.9514254550631
 30
0.0
 41
0.9984436495480087
 10
942.89315149047752
 20
-1338.9435475012444
 30
0.0
 41
1.0
 10
942.91484869860903
 20
-1338.9425038140448
 30
0.0
 41
1.0
 10
942.93654590674055
 20
-1338.9414601268452
 30
0.0
 41
1.0
 10
943.05692623420236
 20
-1338.9356695474257
 30
0.0
 41
0.9987954789335247
 10
943.17729447911211
 20
-1338.941706075168
 30
0.0
 41
1.0
 10
943.19725927160812
 20
-1338.9427073195066
 30
0.0
 41
1.0
 10
943.21722406410424
 20
-1338.9437085638453
 30
0.0
 41
1.0
 10
943.29766272402367
 20
-1338.9477426029105
 30
0.0
 41
0.9997941595877643
 10
943.37787150211636
 20
-1338.9550366688313
 30
0.0
 41
1.0
 10
943.45808028020815
 20
-1338.962330734752
 30
0.0
 41
0.9998589466236799
 10
943.53799882706005
 20
-1338.9723145892019
 30
0.0
 41
1.0
 10
943.57040502887116
 20
-1338.9763629461213
 30
0.0
 41
1.0
 10
943.60281123068228
 20
-1338.9804113030409
 30
0.0
 41
1.0
 10
943.74754218115618
 20
-1338.9984918713299
 30
0.0
 41
0.9993495063249922
 10
943.8905934249243
 20
-1339.0269575810719
 30
0.0
 41
1.0
 10
943.92352712207503
 20
-1339.0335110442866
 30
0.0
 41
1.0
 10
943.95646081922564
 20
-1339.040064507501
 30
0.0
 41
1.0
 10
944.06575464242883
 20
-1339.0618128416363
 30
0.0
 41
0.9996788715561116
 10
944.1738062143844
 20
-1339.0890706409991
 30
0.0
 41
1.0
 10
944.17586921692066
 20
-1339.0895910675713
 30
0.0
 41
1.0
 10
944.17793221945692
 20
-1339.0901114941437
 30
0.0
 41
1.0
 10
944.28185778633781
 20
-1339.1163284403613
 30
0.0
 41
0.9995480654492208
 10
944.38402002157022
 20
-1339.1487433969864
 30
0.0
 41
1.0
 10
944.38570966370094
 20
-1339.1492795019008
 30
0.0
 41
1.0
 10
944.38739930583154
 20
-1339.1498156068153
 30
0.0
 41
1.0
 10
944.48618225680104
 20
-1339.1811583536114
 30
0.0
 41
0.9993867959456302
 10
944.58252941524222
 20
-1339.2193377229007
 30
0.0
 41
1.0
 10
944.58377236432784
 20
-1339.2198302647973
 30
0.0
 41
1.0
 10
944.58501531341346
 20
-1339.220322806694
 30
0.0
 41
1.0
 10
944.67887657368567
 20
-1339.2575170921909
 30
0.0
 41
0.9992050256521479
 10
944.76947624871809
 20
-1339.3020709914292
 30
0.0
 41
1.0
 10
944.77021093143071
 20
-1339.3024322838901
 30
0.0
 41
1.0
 10
944.77094561414333
 20
-1339.302793576351
 30
0.0
 41
1.0
 10
944.86007592375154
 20
-1339.346624890668
 30
0.0
 41
0.9990222350742037
 10
944.94498598514519
 20
-1339.3981581583662
 30
0.0
 41
1.0
 10
944.94516987042732
 20
-1339.3982697612705
 30
0.0
 41
1.0
 10
944.94535375570945
 20
-1339.3983813641751
 30
0.0
 41
1.0
 10
945.0298960465384
 20
-1339.4496914260642
 30
0.0
 41
0.9988642743805242
 10
945.10917058115774
 20
-1339.5088156135898
 30
0.0
 41
1.0
 10
945.18844511577709
 20
-1339.5679398011152
 30
0.0
 41
0.9987681233310755
 10
945.26146890005259
 20
-1339.6346304925155
 30
0.0
 41
1.0
 10
945.26179782801864
 20
-1339.6349308937299
 30
0.0
 41
1.0
 10
945.26212675598458
 20
-1339.6352312949443
 30
0.0
 41
1.0
 10
945.33580839619231
 20
-1339.7025227887734
 30
0.0
 41
0.9987496570898375
 10
945.40240220151964
 20
-1339.7768356028603
 30
0.0
 41
1.0
 10
945.40317437127999
 20
-1339.7776972762181
 30
0.0
 41
1.0
 10
945.40394654104034
 20
-1339.7785589495759
 30
0.0
 41
1.0
 10
945.47208468588826
 20
-1339.8545951103779
 30
0.0
 41
0.9988147669826463
 10
945.53250694011285
 20
-1339.9368961172199
 30
0.0
 41
1.0
 10
945.53362626619082
 20
-1339.9384207485728
 30
0.0
 41
1.0
 10
945.53474559226891
 20
-1339.9399453799258
 30
0.0
 41
1.0
 10
945.59740649864966
 20
-1340.0252956494737
 30
0.0
 41
0.9989452636215723
 10
945.65197341161127
 20
-1340.1160343386323
 30
0.0
 41
1.0
 10
945.6533221376967
 20
-1340.1182771196579
 30
0.0
 41
1.0
 10
945.65467086378203
 20
-1340.1205199006836
 30
0.0
 41
1.0
 10
945.71193522891451
 20
-1340.2157441518934
 30
0.0
 41
0.9991046436070857
 10
945.76094444223577
 20
-1340.3154685849179
 30
0.0
 41
1.0
 10
945.76240830382608
 20
-1340.3184472649909
 30
0.0
 41
1.0
 10
945.76387216541639
 20
-1340.3214259450642
 30
0.0
 41
1.0
 10
945.81580910191678
 20
-1340.4271077382316
 30
0.0
 41
0.9992763831100524
 10
945.85956223047185
 20
-1340.5364318001871
 30
0.0
 41
1.0
 10
945.8610415001358
 20
-1340.5401279877224
 30
0.0
 41
1.0
 10
945.86252076979986
 20
-1340.5438241752577
 30
0.0
 41
1.0
 10
945.90923243768134
 20
-1340.6605406122799
 30
0.0
 41
0.9994163472883313
 10
945.94786546887076
 20
-1340.780174200743
 30
0.0
 41
1.0
 10
945.94910362111784
 20
-1340.7840083445267
 30
0.0
 41
1.0
 10
945.95034177336493
 20
-1340.7878424883106
 30
0.0
 41
1.0
 10
945.9902253343821
 20
-1340.911348549789
 30
0.0
 41
0.9997268055889886
 10
946.02429339029413
 20
-1341.0365835817395
 30
0.0
 41
1.0
 10
946.02522357056387
 20
-1341.040002947849
 30
0.0
 41
1.0
 10
946.0261537508336
 20
-1341.0434223139584
 30
0.0
 41
1.0
 10
946.05836144620616
 20
-1341.1618186136902
 30
0.0
 41
0.9996701319001015
 10
946.08444706297655
 20
-1341.2817125669535
 30
0.0
 41
1.0
 10
946.11053267974705
 20
-1341.4016065202177
 30
0.0
 41
0.9995785451109405
 10
946.12961625708704
 20
-1341.5228122812505
 30
0.0
 41
1.0
 10
946.13383603926059
 20
-1341.5496134360144
 30
0.0
 41
1.0
 10
946.13805582143414
 20
-1341.5764145907783
 30
0.0
 41
1.0
 10
946.16463079737275
 20
-1341.7452005644825
 30
0.0
 41
0.9979925101217044
 10
946.16965638329918
 20
-1341.9159918925734
 30
0.0
 41
1.0
 10
946.17048119572382
 20
-1341.9440226160505
 30
0.0
 41
1.0
 10
946.17130600814835
 20
-1341.9720533395275
 30
0.0
 41
1.0
 10
946.17468196922584
 20
-1342.0867832206586
 30
0.0
 41
0.9995314902262349
 10
946.17103177708702
 20
-1342.2015047044169
 30
0.0
 41
1.0
 10
946.16738158494877
 20
-1342.316226188166
 30
0.0
 41
0.9996245486943808
 10
946.15745248981784
 20
-1342.430575459292
 30
0.0
 41
1.0
 10
946.15728944182354
 20
-1342.4324532154278
 30
0.0
 41
1.0
 10
946.15712639382923
 20
-1342.4343309715634
 30
0.0
 41
1.0
 10
946.14687120271003
 20
-1342.5524357549564
 30
0.0
 41
0.9997286095001163
 10
946.13112587913963
 20
-1342.6699346638434
 30
0.0
 41
1.0
 10
946.13073238648872
 20
-1342.67287108855
 30
0.0
 41
1.0
 10
946.13033889383769
 20
-1342.6758075132564
 30
0.0
 41
1.0
 10
946.11380658496591
 20
-1342.7991792715529
 30
0.0
 41
0.9998265533969074
 10
946.09269112623258
 20
-1342.9218497463448
 30
0.0
 41
1.0
 10
946.09201458409552
 20
-1342.9257801248516
 30
0.0
 41
1.0
 10
946.09133804195858
 20
-1342.9297105033584
 30
0.0
 41
1.0
 10
946.06886949895113
 20
-1343.0602417351647
 30
0.0
 41
0.9999022530855537
 10
946.04276003434097
 20
-1343.1900937038042
 30
0.0
 41
1.0
 10
946.04178139317605
 20
-1343.1949608461896
 30
0.0
 41
1.0
 10
946.04080275201102
 20
-1343.1998279885747
 30
0.0
 41
1.0
 10
946.01273600507227
 20
-1343.3394142419788
 30
0.0
 41
0.9999524761941051
 10
945.9819530362372
 20
-1343.4784267351449
 30
0.0
 41
1.0
 10
945.98067692906091
 20
-1343.4841894944511
 30
0.0
 41
1.0
 10
945.97940082188461
 20
-1343.4899522537571
 30
0.0
 41
1.0
 10
945.94606563870411
 20
-1343.6404902655047
 30
0.0
 41
0.9999813588727502
 10
945.91089463790865
 20
-1343.7906099781585
 30
0.0
 41
1.0
 10
945.90934071244942
 20
-1343.7972425685928
 30
0.0
 41
1.0
 10
945.90778678699007
 20
-1343.803875159027
 30
0.0
 41
1.0
 10
945.86950793526876
 20
-1343.9672600525801
 30
0.0
 41
0.9999955237749344
 10
945.83025205728347
 20
-1344.1304129562056
 30
0.0
 41
1.0
 10
945.81797042165772
 20
-1344.181457146693
 30
0.0
 41
1.0
 10
945.80568878603185
 20
-1344.2325013371803
 30
0.0
 41
1.0
 10
945.74186963678471
 20
-1344.4977426218238
 30
0.0
 41
0.9999993604413083
 10
945.67745068958732
 20
-1344.7628388726293
 30
0.0
 41
1.0
 10
945.67273185405395
 20
-1344.7822577806135
 30
0.0
 41
1.0
 10
945.66801301852058
 20
-1344.8016766885976
 30
0.0
 41
1.0
 10
945.59415640026077
 20
-1345.1056107553545
 30
0.0
 41
0.999965991472939
 10
945.51529680437659
 20
-1345.4082853019092
 30
0.0
 41
1.0
 10
945.51034411544515
 20
-1345.427294439095
 30
0.0
 41
1.0
 10
945.5053914265136
 20
-1345.4463035762808
 30
0.0
 41
1.0
 10
945.41662645276745
 20
-1345.786996397203
 30
0.0
 41
0.9999441976028278
 10
945.32068341980221
 20
-1346.1257378225077
 30
0.0
 41
1.0
 10
945.30398290137794
 20
-1346.1847015350311
 30
0.0
 41
1.0
 10
945.28728238295366
 20
-1346.2436652475544
 30
0.0
 41
1.0
 10
945.15793831313908
 20
-1346.7003340979081
 30
0.0
 41
0.9999625120736096
 10
945.02070554581587
 20
-1347.1546946319033
 30
0.0
 41
1.0
 10
944.9849156027326
 20
-1347.2731906585318
 30
0.0
 41
1.0
 10
944.94912565964921
 20
-1347.39168668516
 30
0.0
 41
1.0
 10
944.87460545560657
 20
-1347.6384137632672
 30
0.0
 41
0.9999793386322597
 10
944.79691943247099
 20
-1347.8841624024969
 30
0.0
 41
1.0
 10
944.71923340933347
 20
-1348.1299110417331
 30
0.0
 41
1.0
 10
944.70845385046277
 20
-1348.1639289461077
 30
0.0
 41
1.0
 10
942.85808079719368
 20
-1354.0510008685751
 30
0.0
 41
1.0
 10
941.00770774392447
 20
-1359.9380727910427
 30
0.0
 41
1.0
 10
940.04645105390091
 20
-1359.9380727910427
 30
0.0
 41
1.0
 10
939.08519436387735
 20
-1359.9380727910427
 30
0.0
 41
1.0
 10
940.70413914255573
 20
-1354.7900442892533
 30
0.0
 41
1.0
 10
942.32308392123423
 20
-1349.6420157874638
 30
0.0
 41
1.0
 10
942.36824974441424
 20
-1349.4979845651758
 30
0.0
 41
1.0
 10
942.41341556759414
 20
-1349.3539533428877
 30
0.0
 41
1.0
 10
942.58371998494727
 20
-1348.8108623137564
 30
0.0
 41
0.9999911657890068
 10
942.74945279662575
 20
-1348.2663587823979
 30
0.0
 41
1.0
 10
942.77914874011481
 20
-1348.1687948423848
 30
0.0
 41
1.0
 10
942.80884468360387
 20
-1348.0712309023718
 30
0.0
 41
1.0
 10
942.91518560829445
 20
-1347.7218552510726
 30
0.0
 41
0.999995242811402
 10
943.01936919763102
 20
-1347.3718302266848
 30
0.0
 41
1.0
 10
943.02442866796468
 20
-1347.3548319524057
 30
0.0
 41
1.0
 10
943.02948813829835
 20
-1347.3378336781266
 30
0.0
 41
1.0
 10
943.12355278695827
 20
-1347.021805202327
 30
0.0
 41
0.9999931687547051
 10
943.21527862482958
 20
-1346.7050899890646
 30
0.0
 41
1.0
 10
943.2202138892892
 20
-1346.6880492797932
 30
0.0
 41
1.0
 10
943.22514915374882
 20
-1346.671008570522
 30
0.0
 41
1.0
 10
943.30700446270043
 20
-1346.3883747758041
 30
0.0
 41
0.9999893840789693
 10
943.38625168916008
 20
-1346.1049986465475
 30
0.0
 41
1.0
 10
943.46549891561835
 20
-1345.8216225172957
 30
0.0
 41
0.9999833980060638
 10
943.54147515636441
 20
-1345.5373519342511
 30
0.0
 41
1.0
 10
943.55047909308291
 20
-1345.5036630557865
 30
0.0
 41
1.0
 10
943.55948302980153
 20
-1345.4699741773222
 30
0.0
 41
1.0
 10
943.62844757866901
 20
-1345.2119383450211
 30
0.0
 41
0.9999233658063883
 10
943.69100254989041
 20
-1344.9522741862945
 30
0.0
 41
1.0
 10
943.75355752111068
 20
-1344.6926100275721
 30
0.0
 41
1.0
 10
943.79304093996825
 20
-1344.5288033631459
 30
0.0
 41
1.0
 10
943.7980195439427
 20
-1344.5081484012871
 30
0.0
 41
1.0
 10
943.80299814791715
 20
-1344.4874934394284
 30
0.0
 41
1.0
 10
943.83252435882628
 20
-1344.3649966987182
 30
0.0
 41
0.999986867084288
 10
943.860793442822
 20
-1344.2422037530744
 30
0.0
 41
1.0
 10
943.86469092998141
 20
-1344.2252741656498
 30
0.0
 41
1.0
 10
943.86858841714093
 20
-1344.2083445782253
 30
0.0
 41
1.0
 10
943.88906252681932
 20
-1344.1194108074242
 30
0.0
 41
0.9999778173349452
 10
943.90835012493358
 20
-1344.0302121901984
 30
0.0
 41
1.0
 10
943.92763772304761
 20
-1343.941013572974
 30
0.0
 41
0.99996026928569
 10
943.94533208167854
 20
-1343.8514852845485
 30
0.0
 41
1.0
 10
943.94853591375681
 20
-1343.8352748296593
 30
0.0
 41
1.0
 10
943.95173974583508
 20
-1343.8190643747703
 30
0.0
 41
1.0
 10
943.97584176862131
 20
-1343.6971151765708
 30
0.0
 41
0.9995617985320684
 10
943.99268511584023
 20
-1343.5739534288639
 30
0.0
 41
1.0
 10
943.99514960574618
 20
-1343.5559326114999
 30
0.0
 41
1.0
 10
943.99761409565212
 20
-1343.5379117941361
 30
0.0
 41
1.0
 10
944.01789735670047
 20
-1343.3895967444348
 30
0.0
 41
0.9991121410639603
 10
944.02562271028887
 20
-1343.240100645628
 30
0.0
 41
1.0
 10
944.02654150031344
 20
-1343.222320809052
 30
0.0
 41
1.0
 10
944.02746029033801
 20
-1343.204540972476
 30
0.0
 41
1.0
 10
944.03334806387716
 20
-1343.0906045468219
 30
0.0
 41
0.9989792494905594
 10
944.0289289717598
 20
-1342.9766017109232
 30
0.0
 41
1.0
 10
944.02828099989119
 20
-1342.9598854649958
 30
0.0
 41
1.0
 10
944.02763302802248
 20
-1342.9431692190683
 30
0.0
 41
1.0
 10
944.02450987964266
 20
-1342.8625988750271
 30
0.0
 41
0.9997820295393953
 10
944.01802588226678
 20
-1342.7822291532809
 30
0.0
 41
1.0
 10
944.01154188489079
 20
-1342.7018594315327
 30
0.0
 41
0.9998335105974147
 10
944.0021296893791
 20
-1342.6217798150847
 30
0.0
 41
1.0
 10
944.00053476470293
 20
-1342.6082100846027
 30
0.0
 41
1.0
 10
943.99893984002665
 20
-1342.5946403541207
 30
0.0
 41
1.0
 10
943.98633779516285
 20
-1342.4874212767086
 30
0.0
 41
0.9996876457879073
 10
943.96839388236447
 20
-1342.380965848992
 30
0.0
 41
1.0
 10
943.96616221921875
 20
-1342.3677261137475
 30
0.0
 41
1.0
 10
943.96393055607302
 20
-1342.354486378503
 30
0.0
 41
1.0
 10
943.9501347346519
 20
-1342.2726402345438
 30
0.0
 41
0.9995547496494442
 10
943.93148141275969
 20
-1342.1917627373555
 30
0.0
 41
1.0
 10
943.93110745588854
 20
-1342.1901413266507
 30
0.0
 41
1.0
 10
943.93073349901738
 20
-1342.188519915946
 30
0.0
 41
1.0
 10
943.91282809086715
 20
-1342.1108852401651
 30
0.0
 41
0.9994899427175479
 10
943.89000318218768
 20
-1342.0345519573298
 30
0.0
 41
1.0
 10
943.88954465544703
 20
-1342.0330185075413
 30
0.0
 41
1.0
 10
943.88908612870637
 20
-1342.0314850577531
 30
0.0
 41
1.0
 10
943.86717827350867
 20
-1341.9582186744963
 30
0.0
 41
0.9993784877590585
 10
943.84016263840181
 20
-1341.8866779693365
 30
0.0
 41
1.0
 10
943.83963094742512
 20
-1341.8852699866163
 30
0.0
 41
1.0
 10
943.83909925644832
 20
-1341.8838620038962
 30
0.0
 41
1.0
 10
943.81314700329585
 20
-1341.8151372641787
 30
0.0
 41
0.9992430832254443
 10
943.7819304681359
 20
-1341.7486381121091
 30
0.0
 41
1.0
 10
943.78134835207925
 20
-1341.7473980569916
 30
0.0
 41
1.0
 10
943.78076623602249
 20
-1341.7461580018739
 30
0.0
 41
1.0
 10
943.75071393297594
 20
-1341.6821389600395
 30
0.0
 41
0.9990789632798562
 10
943.71528330619981
 20
-1341.6209323482913
 30
0.0
 41
1.0
 10
943.7146876000179
 20
-1341.6199032624322
 30
0.0
 41
1.0
 10
943.71409189383587
 20
-1341.6188741765729
 30
0.0
 41
1.0
 10
943.67985267942367
 20
-1341.5597257365425
 30
0.0
 41
0.9988874801121197
 10
943.64019340339109
 20
-1341.5040660241239
 30
0.0
 41
1.0
 10
943.63963787732678
 20
-1341.5032863724491
 30
0.0
 41
1.0
 10
943.63908235126235
 20
-1341.5025067207741
 30
0.0
 41
1.0
 10
943.60053412735942
 20
-1341.4484063117063
 30
0.0
 41
0.9986762060692465
 10
943.5566316560828
 20
-1341.3985525972666
 30
0.0
 41
1.0
 10
943.55618769575108
 20
-1341.3980484554506
 30
0.0
 41
1.0
 10
943.55574373541947
 20
-1341.3975443136346
 30
0.0
 41
1.0
 10
943.51272918480765
 20
-1341.3486988828286
 30
0.0
 41
0.998462164248848
 10
943.46457162802881
 20
-1341.3049155823564
 30
0.0
 41
1.0
 10
943.46432499351249
 20
-1341.304691350193
 30
0.0
 41
1.0
 10
943.46407835899618
 20
-1341.3044671180298
 30
0.0
 41
1.0
 10
943.41641407125132
 20
-1341.2611322818855
 30
0.0
 41
0.9982724693851083
 10
943.36399543940956
 20
-1341.2236879313677
 30
0.0
 41
1.0
 10
943.31157680756826
 20
-1341.18624358085
 30
0.0
 41
0.9981399180157248
 10
943.25499074417485
 20
-1341.1554570614067
 30
0.0
 41
1.0
 10
943.25494508209636
 20
-1341.1554322182494
 30
0.0
 41
1.0
 10
943.25489942001786
 20
-1341.1554073750922
 30
0.0
 41
1.0
 10
943.19822203246724
 20
-1341.1245711693341
 30
0.0
 41
0.9980927086836718
 10
943.13817668140018
 20
-1341.1009543604814
 30
0.0
 41
1.0
 10
943.13773651168901
 20
-1341.1007812346065
 30
0.0
 41
1.0
 10
943.13729634197784
 20
-1341.1006081087319
 30
0.0
 41
1.0
 10
943.0763706514889
 20
-1341.0766450481296
 30
0.0
 41
0.9981411356562437
 10
943.01298213009056
 20
-1341.0602724066243
 30
0.0
 41
1.0
 10
943.01210001338814
 20
-1341.0600445644186
 30
0.0
 41
1.0
 10
943.01121789668582
 20
-1341.0598167222129
 30
0.0
 41
1.0
 10
942.94606514188524
 20
-1341.0429883962968
 30
0.0
 41
0.9983031812935898
 10
942.87939771289155
 20
-1341.0338490351205
 30
0.0
 41
1.0
 10
942.87052668748561
 20
-1341.0326329164491
 30
0.0
 41
1.0
 10
942.86165566207956
 20
-1341.0314167977774
 30
0.0
 41
1.0
 10
942.80730601957623
 20
-1341.0239660677862
 30
0.0
 41
0.9983887708262796
 10
942.75246217028405
 20
-1341.022721394153
 30
0.0
 41
1.0
 10
942.74439876506869
 20
-1341.0225383962782
 30
0.0
 41
1.0
 10
942.73633535985334
 20
-1341.0223553984033
 30
0.0
 41
1.0
 10
942.69761832099323
 20
-1341.0214767205198
 30
0.0
 41
0.9998869563079249
 10
942.65889236778855
 20
-1341.0217625898795
 30
0.0
 41
1.0
 10
942.62016641458081
 20
-1341.0220484592392
 30
0.0
 41
0.9999972320142953
 10
942.58144223536453
 20
-1341.0225165587683
 30
0.0
 41
1.0
 10
942.56208921878988
 20
-1341.0227504988575
 30
0.0
 41
1.0
 10
942.54273620221511
 20
-1341.0229844389469
 30
0.0
 41
1.0
 10
942.46530598984839
 20
-1341.0239204186548
 30
0.0
 41
0.9997304945087139
 10
942.38800268361456
 20
-1341.0284495124406
 30
0.0
 41
1.0
 10
942.37895304190647
 20
-1341.0289797184307
 30
0.0
 41
1.0
 10
942.36990340019827
 20
-1341.0295099244208
 30
0.0
 41
1.0
 10
942.27450081055338
 20
-1341.0350994301866
 30
0.0
 41
0.9997888306416179
 10
942.17940847471243
 20
-1341.0446043946754
 30
0.0
 41
1.0
 10
942.17068741313824
 20
-1341.0454761093076
 30
0.0
 41
1.0
 10
942.16196635156405
 20
-1341.0463478239399
 30
0.0
 41
1.0
 10
942.04943189257585
 20
-1341.0575962176933
 30
0.0
 41
0.9984170238190913
 10
941.93887274522444
 20
-1341.0814122996292
 30
0.0
 41
1.0
 10
941.90249161423981
 20
-1341.0892493354349
 30
0.0
 41
1.0
 10
941.86611048325528
 20
-1341.0970863712405
 30
0.0
 41
1.0
 10
941.75091941483186
 20
-1341.1219002377507
 30
0.0
 41
0.9976592854200119
 10
941.64019124842525
 20
-1341.162198914898
 30
0.0
 41
1.0
 10
941.52946308201888
 20
-1341.2024975920458
 30
0.0
 41
0.9993255074352369
 10
941.42199128322557
 20
-1341.2508144905394
 30
0.0
 41
1.0
 10
941.41736610430416
 20
-1341.2528938667383
 30
0.0
 41
1.0
 10
941.41274092538288
 20
-1341.254973242937
 30
0.0
 41
1.0
 10
941.29601876874619
 20
-1341.3074488938287
 30
0.0
 41
0.9976475078275334
 10
941.18757142443656
 20
-1341.3753968834867
 30
0.0
 41
1.0
 10
941.16922903029933
 20
-1341.3868893623026
 30
0.0
 41
1.0
 10
941.15088663616211
 20
-1341.3983818411186
 30
0.0
 41
1.0
 10
941.0666844446115
 20
-1341.451138961886
 30
0.0
 41
0.9995131336406592
 10
940.98593672965592
 20
-1341.5090451738381
 30
0.0
 41
1.0
 10
940.9051890146975
 20
-1341.5669513857922
 30
0.0
 41
0.9995810107605387
 10
940.8279273669674
 20
-1341.6294330682592
 30
0.0
 41
1.0
 10
940.82495733575843
 20
-1341.6318349397229
 30
0.0
 41
1.0
 10
940.82198730454957
 20
-1341.6342368111864
 30
0.0
 41
1.0
 10
940.73878559439822
 20
-1341.7015222365833
 30
0.0
 41
0.9996617837954002
 10
940.6591949072623
 20
-1341.7730426921439
 30
0.0
 41
1.0
 10
940.64706415639182
 20
-1341.7839434251287
 30
0.0
 41
1.0
 10
940.63493340552134
 20
-1341.7948441581136
 30
0.0
 41
1.0
 10
940.56665787811994
 20
-1341.8561967735902
 30
0.0
 41
0.9997267750052701
 10
940.50132436983017
 20
-1341.9206733101209
 30
0.0
 41
1.0
 10
940.43599086154131
 20
-1341.9851498466514
 30
0.0
 41
0.9999667288965033
 10
940.37171791838909
 20
-1342.0506836535517
 30
0.0
 41
1.0
 10
940.30289047061933
 20
-1342.1208613123044
 30
0.0
 41
1.0
 10
940.23406302284957
 20
-1342.1910389710574
 30
0.0
 41
1.0
 10
940.03213518415123
 20
-1342.3969280954695
 30
0.0
 41
0.9988205335174816
 10
939.85112956717057
 20
-1342.6214323275319
 30
0.0
 41
1.0
 10
939.82048960226723
 20
-1342.6594355779603
 30
0.0
 41
1.0
 10
939.78984963736389
 20
-1342.6974388283886
 30
0.0
 41
1.0
 10
939.54756409057552
 20
-1342.9979495613084
 30
0.0
 41
0.9997077826755079
 10
939.32008613947357
 20
-1343.3098193555202
 30
0.0
 41
1.0
 10
939.31836272434111
 20
-1343.3121821389022
 30
0.0
 41
1.0
 10
939.31663930920877
 20
-1343.3145449222845
 30
0.0
 41
1.0
 10
939.08571452784133
 20
-1343.6311402832619
 30
0.0
 41
0.9989147567078819
 10
938.88525102495544
 20
-1343.9678497444511
 30
0.0
 41
1.0
 10
938.860509879652
 20
-1344.0094063249976
 30
0.0
 41
1.0
 10
938.83576873434845
 20
-1344.0509629055441
 30
0.0
 41
1.0
 10
938.68055743570915
 20
-1344.3116642900002
 30
0.0
 41
0.9997476598181734
 10
938.53721244819826
 20
-1344.5790740385848
 30
0.0
 41
1.0
 10
938.39386746068885
 20
-1344.846483787167
 30
0.0
 41
0.9996258967110079
 10
938.26535920875745
 20
-1345.1213317237905
 30
0.0
 41
1.0
 10
938.2521592993055
 20
-1345.1495631238909
 30
0.0
 41
1.0
 10
938.23895938985368
 20
-1345.177794523991
 30
0.0
 41
1.0
 10
938.09875066885752
 20
-1345.4776669219364
 30
0.0
 41
0.9998735413942618
 10
937.96814932213715
 20
-1345.7818465214036
 30
0.0
 41
1.0
 10
937.96470649407797
 20
-1345.7898651068654
 30
0.0
 41
1.0
 10
937.96126366601879
 20
-1345.7978836923269
 30
0.0
 41
1.0
 10
937.8375479754186
 20
-1346.0860261208672
 30
0.0
 41
0.9999377418861343
 10
937.720293173242
 20
-1346.3768575885465
 30
0.0
 41
1.0
 10
937.60303837106915
 20
-1346.6676890562167
 30
0.0
 41
0.9999508299507115
 10
937.49157442769524
 20
-1346.9607887330287
 30
0.0
 41
1.0
 10
937.48849365902993
 20
-1346.9688897589999
 30
0.0
 41
1.0
 10
937.48541289036461
 20
-1346.9769907849713
 30
0.0
 41
1.0
 10
937.3677874096627
 20
-1347.2862925137192
 30
0.0
 41
0.9999609228432741
 10
937.25564880678826
 20
-1347.597625529736
 30
0.0
 41
1.0
 10
937.25269279643862
 20
-1347.6058323701454
 30
0.0
 41
1.0
 10
937.24973678608899
 20
-1347.6140392105549
 30
0.0
 41
1.0
 10
937.13168616251448
 20
-1347.9417859073931
 30
0.0
 41
0.9999674607398753
 10
937.01893863643943
 20
-1348.2713945274083
 30
0.0
 41
1.0
 10
936.96754024588438
 20
-1348.4216537230786
 30
0.0
 41
1.0
 10
936.91614185532933
 20
-1348.5719129187487
 30
0.0
 41
1.0
 10
936.80013124856964
 20
-1348.9110609012575
 30
0.0
 41
0.9999287532305976
 10
936.69224984459402
 20
-1349.2528816402473
 30
0.0
 41
1.0
 10
936.64577258847748
 20
-1349.4001441845462
 30
0.0
 41
1.0
 10
936.59929533236084
 20
-1349.5474067288453
 30
0.0
 41
1.0
 10
936.58436844066978
 20
-1349.5947023790752
 30
0.0
 41
0.9999998225073875
 10
936.56949793189278
 20
-1349.6420157874638
 30
0.0
 41
1.0
 10
934.94884179509734
 20
-1354.7900442892533
 30
0.0
 41
1.0
 10
933.32818565830189
 20
-1359.9380727910427
 30
0.0
 41
1.0
 10
932.42287721441096
 20
-1359.9380727910427
 30
0.0
 41
1.0
 10
931.51756877052003
 20
-1359.9380727910427
 30
0.0
 41
1.0
 10
933.36965318190607
 20
-1354.0510008685751
 30
0.0
 41
1.0
 10
935.22173759329212
 20
-1348.1639289461077
 30
0.0
 41
1.0
 10
935.23185935159484
 20
-1348.131885732658
 30
0.0
 41
1.0
 10
935.30446702044458
 20
-1347.9015861908322
 30
0.0
 41
1.0
 10
935.37707468929511
 20
-1347.6712866490036
 30
0.0
 41
0.9999825681974943
 10
935.44695772850241
 20
-1347.4401457539525
 30
0.0
 41
1.0
 10
935.4952487906653
 20
-1347.2804211704499
 30
0.0
 41
1.0
 10
935.54353985282808
 20
-1347.1206965869474
 30
0.0
 41
1.0
 10
935.64069220614567
 20
-1346.7993613651702
 30
0.0
 41
0.999967252896001
 10
935.73263101176667
 20
-1346.4764958195915
 30
0.0
 41
1.0
 10
935.73541989543492
 20
-1346.4667019742071
 30
0.0
 41
1.0
 10
935.73820877910305
 20
-1346.4569081288228
 30
0.0
 41
1.0
 10
935.82456981739233
 20
-1346.1536302739969
 30
0.0
 41
0.9999899749149559
 10
935.90821142692471
 20
-1345.8495911855525
 30
0.0
 41
1.0
 10
935.91831734594325
 20
-1345.8128559478705
 30
0.0
 41
1.0
 10
935.92842326496168
 20
-1345.7761207101885
 30
0.0
 41
1.0
 10
935.99185303645868
 20
-1345.5455520971029
 30
0.0
 41
0.9999214200504109
 10
936.04948246483718
 20
-1345.3134657548908
 30
0.0
 41
1.0
 10
936.06224831701729
 20
-1345.2620548694963
 30
0.0
 41
1.0
 10
936.07501416919752
 20
-1345.2106439841016
 30
0.0
 41
1.0
 10
936.10711189321421
 20
-1345.0813794126846
 30
0.0
 41
0.9999828681659347
 10
936.13769414521028
 20
-1344.9517479382141
 30
0.0
 41
1.0
 10
936.16827639720566
 20
-1344.8221164637471
 30
0.0
 41
0.9999389844480718
 10
936.19598738599473
 20
-1344.6918410078472
 30
0.0
 41
1.0
 10
936.20312512971509
 20
-1344.6582849040096
 30
0.0
 41
1.0
 10
936.21026287343534
 20
-1344.6247288001719
 30
0.0
 41
1.0
 10
936.25224934966593
 20
-1344.4273411365921
 30
0.0
 41
0.999893369944199
 10
936.28845361407036
 20
-1344.2288115288211
 30
0.0
 41
1.0
 10
936.28982643928521
 20
-1344.2212835081332
 30
0.0
 41
1.0
 10
936.29119926449994
 20
-1344.213755487445
 30
0.0
 41
1.0
 10
936.33014917933497
 20
-1344.000169838293
 30
0.0
 41
0.9996850305193332
 10
936.35833285559374
 20
-1343.784898832856
 30
0.0
 41
1.0
 10
936.36032788896307
 20
-1343.7696604787334
 30
0.0
 41
1.0
 10
936.3623229223324
 20
-1343.754422124611
 30
0.0
 41
1.0
 10
936.38973078479137
 20
-1343.545076897457
 30
0.0
 41
0.9994697936706649
 10
936.40345534401081
 20
-1343.3343917021275
 30
0.0
 41
1.0
 10
936.40393241326046
 20
-1343.3270682299158
 30
0.0
 41
1.0
 10
936.40440948251023
 20
-1343.3197447577043
 30
0.0
 41
1.0
 10
936.41717990323059
 20
-1343.1237065067951
 30
0.0
 41
0.9991804893136717
 10
936.41405158695761
 20
-1342.9272776568232
 30
0.0
 41
1.0
 10
936.41396770813549
 20
-1342.9220108554109
 30
0.0
 41
1.0
 10
936.41388382931336
 20
-1342.9167440539984
 30
0.0
 41
1.0
 10
936.41092327068486
 20
-1342.73084880685
 30
0.0
 41
0.9988448329321616
 10
936.39013172506111
 20
-1342.5460962170164
 30
0.0
 41
1.0
 10
936.38853765135809
 20
-1342.5319313612451
 30
0.0
 41
1.0
 10
936.38694357765507
 20
-1342.5177665054739
 30
0.0
 41
1.0
 10
936.36934017943736
 20
-1342.361343627183
 30
0.0
 41
0.9985503209458828
 10
936.33502390713784
 20
-1342.2077194430938
 30
0.0
 41
1.0
 10
936.32743791506664
 20
-1342.1737591156939
 30
0.0
 41
1.0
 10
936.31985192299555
 20
-1342.1397987882942
 30
0.0
 41
1.0
 10
936.30070763483798
 20
-1342.0540952590036
 30
0.0
 41
0.99910367813699
 10
936.27438277318697
 20
-1341.9703181716795
 30
0.0
 41
1.0
 10
936.27040054773101
 20
-1341.9576450091693
 30
0.0
 41
1.0
 10
936.26641832227517
 20
-1341.944971846659
 30
0.0
 41
1.0
 10
936.24805791153483
 20
-1341.8865410843509
 30
0.0
 41
0.9998874504368596
 10
936.22795270385745
 20
-1341.8286874821313
 30
0.0
 41
1.0
 10
936.20784749617872
 20
-1341.7708338799071
 30
0.0
 41
0.9994041637542971
 10
936.18379888324375
 20
-1341.714505176016
 30
0.0
 41
1.0
 10
936.17960209902026
 20
-1341.7046751115354
 30
0.0
 41
1.0
 10
936.17540531479676
 20
-1341.6948450470547
 30
0.0
 41
1.0
 10
936.14752648380181
 20
-1341.6295448810861
 30
0.0
 41
0.9991846840701069
 10
936.11447012710903
 20
-1341.5667068498069
 30
0.0
 41
1.0
 10
936.11333352071426
 20
-1341.5645462333528
 30
0.0
 41
1.0
 10
936.1121969143195
 20
-1341.5623856168984
 30
0.0
 41
1.0
 10
936.0814137704167
 20
-1341.5038688185282
 30
0.0
 41
0.9989253167923472
 10
936.04534434636093
 20
-1341.4484538901365
 30
0.0
 41
1.0
 10
936.04429022168665
 20
-1341.446834395374
 30
0.0
 41
1.0
 10
936.04323609701225
 20
-1341.4452149006115
 30
0.0
 41
1.0
 10
936.00927492230642
 20
-1341.3930389617469
 30
0.0
 41
0.9986467172836995
 10
935.97007776966871
 20
-1341.3446729281168
 30
0.0
 41
1.0
 10
935.96920364096786
 20
-1341.3435943258382
 30
0.0
 41
1.0
 10
935.96832951226691
 20
-1341.3425157235597
 30
0.0
 41
1.0
 10
935.93088061703043
 20
-1341.296306894486
 30
0.0
 41
0.9984001104267949
 10
935.88845388651407
 20
-1341.2546217871181
 30
0.0
 41
1.0
 10
935.8878667484048
 20
-1341.2540449122371
 30
0.0
 41
1.0
 10
935.88727961029542
 20
-1341.2534680373558
 30
0.0
 41
1.0
 10
935.84602715599669
 20
-1341.2129366797492
 30
0.0
 41
0.9982442159082444
 10
935.80027105466138
 20
-1341.1775681184893
 30
0.0
 41
1.0
 10
935.80005625919955
 20
-1341.1774020858461
 30
0.0
 41
1.0
 10
935.79984146373772
 20
-1341.1772360532027
 30
0.0
 41
1.0
 10
935.75451495332584
 20
-1341.1421995572291
 30
0.0
 41
0.9982450060836287
 10
935.70536397425394
 20
-1341.1127677741956
 30
0.0
 41
1.0
 10
935.6562129951825
 20
-1341.0833359911621
 30
0.0
 41
0.9983922639634176
 10
935.60404668901788
 20
-1341.0596563565082
 30
0.0
 41
1.0
 10
935.60381981169314
 20
-1341.0595533710266
 30
0.0
 41
1.0
 10
935.60359293436841
 20
-1341.059450385545
 30
0.0
 41
1.0
 10
935.55097287355522
 20
-1341.0355647799283
 30
0.0
 41
0.9986517147150856
 10
935.49615990068889
 20
-1341.017263660807
 30
0.0
 41
1.0
 10
935.49548197925992
 20
-1341.0170373143751
 30
0.0
 41
1.0
 10
935.49480405783106
 20
-1341.0168109679435
 30
0.0
 41
1.0
 10
935.43863524210633
 20
-1340.9980571559583
 30
0.0
 41
0.9989435598955642
 10
935.38098185495346
 20
-1340.9845394537238
 30
0.0
 41
1.0
 10
935.37990173537298
 20
-1340.9842862034711
 30
0.0
 41
1.0
 10
935.3788216157925
 20
-1340.9840329532183
 30
0.0
 41
1.0
 10
935.31900798947811
 20
-1340.9700087504777
 30
0.0
 41
0.9992249241239816
 10
935.25827648058112
 20
-1340.9607334077627
 30
0.0
 41
1.0
 10
935.25686279228967
 20
-1340.9605174993549
 30
0.0
 41
1.0
 10
935.25544910399833
 20
-1340.960301590947
 30
0.0
 41
1.0
 10
935.19189021852048
 20
-1340.9505944314162
 30
0.0
 41
0.9994396597834228
 10
935.12782428198489
 20
-1340.9451615090704
 30
0.0
 41
1.0
 10
935.10868361450559
 20
-1340.9435383413515
 30
0.0
 41
1.0
 10
935.0895429470263
 20
-1340.9419151736329
 30
0.0
 41
1.0
 10
934.98719567553383
 20
-1340.93323591585
 30
0.0
 41
0.9987693403121647
 10
934.88449205194695
 20
-1340.9347389793027
 30
0.0
 41
1.0
 10
934.87423771772092
 20
-1340.9348890510769
 30
0.0
 41
1.0
 10
934.863983383495
 20
-1340.9350391228511
 30
0.0
 41
1.0
 10
934.75442761731472
 20
-1340.9366424671384
 30
0.0
 41
0.9989753644966303
 10
934.64546561729685
 20
-1340.9481454740635
 30
0.0
 41
1.0
 10
934.53650361728103
 20
-1340.9596484809888
 30
0.0
 41
0.9983190067306552
 10
934.42960480631643
 20
-1340.9836834727753
 30
0.0
 41
1.0
 10
934.42070385470925
 20
-1340.9856847513381
 30
0.0
 41
1.0
 10
934.41180290310194
 20
-1340.9876860299009
 30
0.0
 41
1.0
 10
934.28710218892297
 20
-1341.0157235788131
 30
0.0
 41
0.9985539388303102
 10
934.16613243524489
 20
-1341.0569872548588
 30
0.0
 41
1.0
 10
934.16378700428493
 20
-1341.0577872986746
 30
0.0
 41
1.0
 10
934.16144157332496
 20
-1341.0585873424902
 30
0.0
 41
1.0
 10
934.0357809577273
 20
-1341.1014511061674
 30
0.0
 41
0.9988468746494136
 10
933.91481061542856
 20
-1341.1561691912289
 30
0.0
 41
1.0
 10
933.91162779343858
 20
-1341.1576088657894
 30
0.0
 41
1.0
 10
933.90844497144872
 20
-1341.1590485403499
 30
0.0
 41
1.0
 10
933.78110898516991
 20
-1341.2166459745326
 30
0.0
 41
0.9991322885919373
 10
933.65900840111158
 20
-1341.2846413067155
 30
0.0
 41
1.0
 10
933.64140639006621
 20
-1341.2944435087061
 30
0.0
 41
1.0
 10
933.62380437902084
 20
-1341.3042457106967
 30
0.0
 41
1.0
 10
933.52162769796576
 20
-1341.3611458264763
 30
0.0
 41
0.9993860037849024
 10
933.42368669389577
 20
-1341.4250618420629
 30
0.0
 41
1.0
 10
933.41806838104867
 20
-1341.4287283367544
 30
0.0
 41
1.0
 10
933.41245006820145
 20
-1341.4323948314459
 30
0.0
 41
1.0
 10
933.3257456898275
 20
-1341.488977857648
 30
0.0
 41
0.999882149495301
 10
933.24081931400951
 20
-1341.5481960877282
 30
0.0
 41
1.0
 10
933.15589293819323
 20
-1341.6074143178073
 30
0.0
 41
0.9997976482743879
 10
933.07341730778603
 20
-1341.6700007258519
 30
0.0
 41
1.0
 10
933.05878104298472
 20
-1341.681107415629
 30
0.0
 41
1.0
 10
933.04414477818329
 20
-1341.6922141054063
 30
0.0
 41
1.0
 10
932.93239661816938
 20
-1341.777013893008
 30
0.0
 41
0.9998091630799133
 10
932.82404634014199
 20
-1341.8661142437093
 30
0.0
 41
1.0
 10
932.81104058766482
 20
-1341.8768093441554
 30
0.0
 41
1.0
 10
932.79803483518754
 20
-1341.8875044446013
 30
0.0
 41
1.0
 10
932.66367305220842
 20
-1341.9979949961921
 30
0.0
 41
0.9995035112317565
 10
932.53653717444615
 20
-1342.1167288132056
 30
0.0
 41
1.0
 10
932.52688986405678
 20
-1342.1257385593653
 30
0.0
 41
1.0
 10
932.51724255366742
 20
-1342.1347483055254
 30
0.0
 41
1.0
 10
932.39381949090318
 20
-1342.2500146772802
 30
0.0
 41
0.9994630424299176
 10
932.27821108511807
 20
-1342.3731174205163
 30
0.0
 41
1.0
 10
932.27452824634861
 20
-1342.3770390000273
 30
0.0
 41
1.0
 10
932.27084540757926
 20
-1342.3809605795382
 30
0.0
 41
1.0
 10
932.16260267933637
 20
-1342.4962201637493
 30
0.0
 41
0.9995160693750547
 10
932.06173664980213
 20
-1342.6179875816242
 30
0.0
 41
1.0
 10
932.05980292971913
 20
-1342.6203220058351
 30
0.0
 41
1.0
 10
932.05786920963612
 20
-1342.6226564300459
 30
0.0
 41
1.0
 10
931.96087062026709
 20
-1342.7397549995003
 30
0.0
 41
0.9996561470514601
 10
931.87014440160431
 20
-1342.8617777619459
 30
0.0
 41
1.0
 10
931.86398673570352
 20
-1342.8700595509865
 30
0.0
 41
1.0
 10
931.85782906980285
 20
-1342.8783413400272
 30
0.0
 41
1.0
 10
931.77941818293925
 20
-1342.9838005243939
 30
0.0
 41
0.9998349055171942
 10
931.70489090100614
 20
-1343.0920391080585
 30
0.0
 41
1.0
 10
931.63036361907143
 20
-1343.2002776917257
 30
0.0
 41
0.9999728109558945
 10
931.55744072316043
 20
-1343.3096036172819
 30
0.0
 41
1.0
 10
931.55612550775038
 20
-1343.3115753867819
 30
0.0
 41
1.0
 10
931.55481029234033
 20
-1343.3135471562821
 30
0.0
 41
1.0
 10
931.47925696561072
 20
-1343.4268166208362
 30
0.0
 41
0.9999972147291969
 10
931.4042391552199
 20
-1343.5404414636976
 30
0.0
 41
1.0
 10
931.39926761260392
 20
-1343.5479715521601
 30
0.0
 41
1.0
 10
931.39429606998794
 20
-1343.5555016406229
 30
0.0
 41
1.0
 10
931.30933517437211
 20
-1343.6841866603988
 30
0.0
 41
0.9999371979001365
 10
931.22727982496713
 20
-1343.8147435741771
 30
0.0
 41
1.0
 10
931.22377094060403
 20
-1343.8203265022444
 30
0.0
 41
1.0
 10
931.22026205624093
 20
-1343.8259094303114
 30
0.0
 41
1.0
 10
931.13118893811202
 20
-1343.9676322002206
 30
0.0
 41
0.9998272025610602
 10
931.04744554722663
 20
-1344.1125680769687
 30
0.0
 41
1.0
 10
931.03223037520434
 20
-1344.1389011914223
 30
0.0
 41
1.0
 10
931.01701520318215
 20
-1344.1652343058759
 30
0.0
 41
1.0
 10
930.90284146825309
 20
-1344.3628364115298
 30
0.0
 41
0.9995217214838639
 10
930.80110177869699
 20
-1344.5671187393925
 30
0.0
 41
1.0
 10
930.79345821606148
 20
-1344.5824661890965
 30
0.0
 41
1.0
 10
930.78581465342597
 20
-1344.5978136388003
 30
0.0
 41
1.0
 10
930.69890936083539
 20
-1344.7723100968835
 30
0.0
 41
0.9998269762607841
 10
930.61855489456457
 20
-1344.9499183836044
 30
0.0
 41
1.0
 10
930.53820042829625
 20
-1345.1275266703199
 30
0.0
 41
0.9998944747387062
 10
930.46303963373191
 20
-1345.3073943959473
 30
0.0
 41
1.0
 10
930.45808596413883
 20
-1345.3192490508693
 30
0.0
 41
1.0
 10
930.45313229454575
 20
-1345.3311037057913
 30
0.0
 41
1.0
 10
930.37248523399489
 20
-1345.5241006458054
 30
0.0
 41
0.9999506734410298
 10
930.29568770508877
 20
-1345.7186614506672
 30
0.0
 41
1.0
 10
930.28108773982012
 20
-1345.7556493724676
 30
0.0
 41
1.0
 10
930.26648777455136
 20
-1345.7926372942679
 30
0.0
 41
1.0
 10
930.21889017618014
 20
-1345.9132222555363
 30
0.0
 41
0.9999912393946033
 10
930.17230373216262
 20
-1346.0342014582193
 30
0.0
 41
1.0
 10
930.12571728813464
 20
-1346.1551806609291
 30
0.0
 41
0.9999927113989593
 10
930.08005599374553
 20
-1346.2765120684182
 30
0.0
 41
1.0
 10
930.066087562348
 20
-1346.3136290504167
 30
0.0
 41
1.0
 10
930.05211913095059
 20
-1346.3507460324149
 30
0.0
 41
1.0
 10
929.97852097375971
 20
-1346.5463114039176
 30
0.0
 41
0.9999487550948094
 10
929.90889734878408
 20
-1346.7433267691117
 30
0.0
 41
1.0
 10
929.88530373884851
 20
-1346.8100900794009
 30
0.0
 41
1.0
 10
929.86171012891293
 20
-1346.87685338969
 30
0.0
 41
1.0
 10
929.76702449454751
 20
-1347.1447872245005
 30
0.0
 41
0.9999808436935389
 10
929.67566290590344
 20
-1347.4138726557721
 30
0.0
 41
1.0
 10
929.58430131726197
 20
-1347.6829580870367
 30
0.0
 41
0.9999873932921125
 10
929.4956466085448
 20
-1347.9529474420474
 30
0.0
 41
1.0
 10
929.47555425167502
 20
-1348.0141367748015
 30
0.0
 41
1.0
 10
929.45546189480524
 20
-1348.0753261075558
 30
0.0
 41
1.0
 10
929.32662247234089
 20
-1348.4676941280982
 30
0.0
 41
0.9999794883027693
 10
929.20281968737879
 20
-1348.8616803343891
 30
0.0
 41
1.0
 10
929.19166742794778
 20
-1348.8971709446053
 30
0.0
 41
1.0
 10
929.18051516851688
 20
-1348.9326615548214
 30
0.0
 41
1.0
 10
929.03795700462047
 20
-1349.3863343069052
 30
0.0
 41
0.9999982761744091
 10
928.89708456460266
 20
-1349.8405333290361
 30
0.0
 41
1.0
 10
927.30894423203006
 20
-1354.8893030600393
 30
0.0
 41
1.0
 10
925.72080389945745
 20
-1359.9380727910427
 30
0.0
 41
1.0
 10
924.77205328798107
 20
-1359.9380727910427
 30
0.0
 41
1.0
 10
923.82330267650468
 20
-1359.9380727910427
 30
0.0
 41
1.0
 10
927.06158716265782
 20
-1349.6107505910966
 30
0.0
 41
1.0
 10
930.29987164881106
 20
-1339.2834283911504
 30
0.0
 41
1.0
  0
LWPOLYLINE
  5
55
100
AcDbEntity
  8
0
370
              15
390
0
  6
Continuous
 62
               7
100
AcDbPolyline
 90
      232
 70
             128
 10
904.59632587498402
 20
-1340.3677712226656
 42
0.000437080069942
 10
904.54344870090813
 20
-1340.4364378619268
 10
904.50416446978454
 20
-1340.4875449748183
 42
0.0030481992180588
 10
904.3738257526287
 20
-1340.6592666672116
 10
904.33531408091494
 20
-1340.7106534509508
 42
0.0042058245752335
 10
904.13132903024518
 20
-1340.9876591960242
 10
904.07892390774441
 20
-1341.0600920428051
 42
0.012094889874302
 10
903.78287999098552
 20
-1341.4908416473506
 10
903.68668749185656
 20
-1341.6383223825862
 42
0.0141601263951245
 10
903.38304344493906
 20
-1342.1339917193145
 10
903.34350617751556
 20
-1342.202835686742
 42
0.007113108129853
 10
903.13823385427463
 20
-1342.5723384855844
 42
0.0068458791003002
 10
902.94335432742525
 20
-1342.9474300490729
 10
902.93654246497385
 20
-1342.960991762784
 42
0.0064120880286431
 10
902.73840021493618
 20
-1343.368416237689
 10
902.73086552941254
 20
-1343.3844280944243
 42
0.0058857236450948
 10
902.5281101375349
 20
-1343.8288042054728
 10
902.51993521124689
 20
-1343.8472943590932
 42
0.0053189741892804
 10
902.31123089858249
 20
-1344.3332578330037
 10
902.302483092898
 20
-1344.3542397112074
 42
0.004750365041896
 10
902.08650936674849
 20
-1344.8864391444138
 10
902.07724111839912
 20
-1344.9099155205249
 42
0.0042071762169246
 10
901.85269373467361
 20
-1345.4930091145886
 10
901.84294433232276
 20
-1345.5189752894644
 42
0.0036680086485375
 10
901.60848968901496
 20
-1346.1576106739838
 10
901.59828190916289
 20
-1346.1860592083399
 42
0.0032573142628233
 10
901.35264962319752
 20
-1346.8849118680896
 10
901.28399910235578
 20
-1347.0843749521455
 42
0.0026133366647439
 10
900.93555390359757
 20
-1348.1142382358182
 10
900.87229711609734
 20
-1348.3044690712097
 42
0.002059295074253
 10
900.65843404712973
 20
-1348.9565727238244
 10
900.65538225597186
 20
-1348.9660092122178
 42
0.0025609928533873
 10
900.4535617544808
 20
-1349.6011544345999
 10
900.45097038735139
 20
-1349.609456775549
 42
0.0031362356243062
 10
900.26147960167714
 20
-1350.23021963172
 10
900.25934855875425
 20
-1350.2373609379158
 42
0.0037229918027532
 10
900.08254817182342
 20
-1350.8463462399054
 10
900.08086958261515
 20
-1350.8522931300863
 42
0.0043077623708942
 10
899.91712878055193
 20
-1351.4521118618486
 42
0.0047654161822234
 10
899.76430005804048
 20
-1352.0547979507328
 10
899.7298354491968
 20
-1352.1963597279009
 42
0.011296936844535
 10
899.53397109105288
 20
-1353.0880518885269
 10
899.5059647019566
 20
-1353.2308799346229
 42
0.0130056762572017
 10
899.30512745830993
 20
-1354.4178210062678
 10
899.28458770816258
 20
-1354.5618991197468
 42
0.0138721532143184
 10
899.180884703625
 20
-1355.4687286055705
 10
899.16158921571707
 20
-1355.692226327496
 42
0.0071254697007697
 10
899.12824256979457
 20
-1356.1554133363429
 10
899.12328159563128
 20
-1356.2414173309039
 42
0.0028881799201131
 10
899.10814330234143
 20
-1356.5331590407454
 42
0.0060297297138162
 10
899.09821110256587
 20
-1356.8251079768627
 10
899.09714882089872
 20
-1356.8735003487934
 42
0.0229523164156382
 10
899.1048798486845
 20
-1357.1962551950769
 10
899.10910562220477
 20
-1357.2566587290914
 42
0.0123673300674456
 10
899.1281842687232
 20
-1357.4577794542679
 42
0.012857767446746
 10
899.15737965912865
 20
-1357.6576773041895
 10
899.1645055325165
 20
-1357.6990061187917
 42
0.0285717853763005
 10
899.22899953421199
 20
-1357.9771222701042
 10
899.24266805787806
 20
-1358.0237770395804
 42
0.0316283099156056
 10
899.35847863779281
 20
-1358.3427915414081
 10
899.36152732954884
 20
-1358.3497779137347
 42
0.0338984824240286
 10
899.51095904051556
 20
-1358.6373438779228
 10
899.51326776988537
 20
-1358.6411349071986
 42
0.0350228718354918
 10
899.69562806055899
 20
-1358.8981868918756
 10
899.69651331233433
 20
-1358.8992659696401
 42
0.034747674752931
 10
899.91093799957412
 20
-1359.1264510168598
 42
0.03313377019113
 10
900.15418132532079
 20
-1359.3225796789372
 10
900.15528142383664
 20
-1359.3233523821095
 42
0.0305233319079736
 10
900.4238261194115
 20
-1359.488480552202
 10
900.42705616391117
 20
-1359.4902045640638
 42
0.0273744481149845
 10
900.71960987548425
 20
-1359.6263427079537
 10
900.72471441062305
 20
-1359.6283862924238
 42
0.0240964406199255
 10
901.04019148627128
 20
-1359.7373700187059
 10
901.04677481547878
 20
-1359.7392947583803
 42
0.0209636179807915
 10
901.3841749681294
 20
-1359.8227629063119
 10
901.39180742858002
 20
-1359.8243148193137
 42
0.0181388704693234
 10
901.75012982057899
 20
-1359.8837309125277
 10
901.75841066895669
 20
-1359.8847970963448
 42
0.0156086547583456
 10
902.13659803313874
 20
-1359.921533282921
 10
902.17979328547801
 20
-1359.9243717854008
 42
0.0137148329022134
 10
902.50746643077139
 20
-1359.9368920406519
 10
902.55340262070933
 20
-1359.937386473767
 42
0.005105782388532
 10
902.78954820728961
 20
-1359.937516728176
 42
0.0052256693316466
 10
903.02564549107467
 20
-1359.9327679037117
 10
903.09587227481768
 20
-1359.9306209376978
 42
0.0161507179047881
 10
903.47160935291947
 20
-1359.9069705673712
 10
903.49162231329205
 20
-1359.9050603720837
 42
0.010121673783154
 10
903.9056495347819
 20
-1359.8570674417183
 10
903.93970282420946
 20
-1359.8524197449085
 42
0.0245291776397639
 10
904.41649247976159
 20
-1359.7633446668322
 10
904.50131579528659
 20
-1359.743148746486
 42
0.014350921255742
 10
904.8579468992242
 20
-1359.6473441127077
 42
0.0156557857037017
 10
905.20816296395321
 20
-1359.5303328968882
 10
905.2156641784461
 20
-1359.5275627351348
 42
0.0170137333628761
 10
905.57226017413109
 20
-1359.381905120262
 10
905.57936409653496
 20
-1359.3787172846999
 42
0.0183105364413065
 10
905.93871376469963
 20
-1359.2013822428762
 10
905.94566052933999
 20
-1359.1976318080033
 42
0.0194899958155501
 10
906.30414127032452
 20
-1358.9856528261121
 10
906.31115514966064
 20
-1358.9811274838175
 42
0.0204869852953118
 10
906.66516945175329
 20
-1358.7316074687328
 10
906.67243506034163
 20
-1358.7260274033833
 42
0.0212516938559809
 10
907.0184249914513
 20
-1358.4361234064872
 10
907.0649416855257
 20
-1358.3936560963948
 42
0.0215248918251898
 10
907.32496785441299
 20
-1358.1348918174008
 10
907.36999758879153
 20
-1358.0860476960531
 42
0.0114578554951177
 10
907.52478974247083
 20
-1357.9102247625924
 10
907.53598427846282
 20
-1357.8969059990407
 42
0.0061531305134054
 10
907.66245892445193
 20
-1357.7426164657413
 42
0.0006325587123262
 10
907.78683740863687
 20
-1357.586613090024
 10
907.80987754365515
 20
-1357.5576395694063
 42
0.0041897761561047
 10
907.97833294764985
 20
-1357.3421201933158
 10
908.03679506752007
 20
-1357.2660188463592
 42
0.0092993880041253
 10
908.31340699474276
 20
-1356.8917400824766
 10
908.39580148794516
 20
-1356.7758030789032
 42
0.0159321727090237
 10
908.74240797058508
 20
-1356.2536288581507
 10
908.78676410597836
 20
-1356.1819492938939
 42
0.0085547317021164
 10
909.02127587129985
 20
-1355.788074344676
 42
0.0084601156889328
 10
909.24225204873676
 20
-1355.3864474956538
 10
909.25036752257233
 20
-1355.3710878133709
 42
0.0081429654285615
 10
909.47361679301287
 20
-1354.9313663008238
 10
909.48247695719385
 20
-1354.9131874588106
 42
0.0076574581327408
 10
909.70888446776314
 20
-1354.4300045835523
 10
909.71836410848425
 20
-1354.4089401052547
 42
0.0070682724201042
 10
909.9488090162904
 20
-1353.8769028004747
 10
909.95879930027274
 20
-1353.8529136114616
 42
0.0064559514449178
 10
910.19413250845946
 20
-1353.2666013449298
 10
910.20454186661937
 20
-1353.2396664195007
 42
0.0058311413907422
 10
910.44558860338236
 20
-1352.5936343251162
 10
910.45634368076969
 20
-1352.5637499839563
 42
0.0052312425819999
 10
910.70392495881458
 20
-1351.8525475701099
 10
910.71496879519032
 20
-1351.8197208580523
 42
0.0046680544796574
 10
910.96989722292597
 20
-1351.0378945422938
 10
911.01188937297013
 20
-1350.9049113049998
 42
0.0041666856445373
 10
911.21517538536341
 20
-1350.2419425299997
 10
911.25283782602696
 20
-1350.115361422347
 42
0.0015170975152655
 10
911.37402440444021
 20
-1349.7034930708523
 42
-0.0004887993110356
 10
911.49436417760523
 20
-1349.2913746586673
 10
911.57084143505836
 20
-1349.0304172728693
 42
0.0002583378928119
 10
911.84405600512616
 20
-1348.0963605696779
 10
911.9258288547004
 20
-1347.8162613101033
 42
0.000663616967027
 10
912.11969661471062
 20
-1347.1489083865201
 10
912.12479326907169
 20
-1347.1312768035918
 42
0.0010589131323
 10
912.30624196997428
 20
-1346.4985454605912
 10
912.31122404044822
 20
-1346.4810325535941
 42
0.0015655524460863
 10
912.4794942476376
 20
-1345.8824158743703
 10
912.48432444805553
 20
-1345.8650237154238
 42
0.0021640440476613
 10
912.63861442003849
 20
-1345.2999966974162
 10
912.64324863947741
 20
-1345.2827319673891
 42
0.002876387185398
 10
912.7827643575215
 20
-1344.7507640165754
 10
912.78715022168717
 20
-1344.733640038427
 42
0.0037310511942311
 10
912.9111069135256
 20
-1344.2341924443972
 10
912.91518213381414
 20
-1344.2172321731537
 42
0.0047652197768551
 10
913.02280603432303
 20
-1343.7497544048465
 10
913.02649663364491
 20
-1343.7329948497031
 42
0.0060276699301217
 10
913.11702673280001
 20
-1343.2969190545523
 10
913.12024542308905
 20
-1343.2804178402439
 42
0.0075824337760038
 10
913.19293473250468
 20
-1342.8751506758169
 10
913.19558010988465
 20
-1342.858995728368
 42
0.0095130624609967
 10
913.2496953455161
 20
-1342.4839063752947
 10
913.25668156939889
 20
-1342.4279728171764
 42
0.0121054653233653
 10
913.28327289997662
 20
-1342.1630769887042
 10
913.28413938973551
 20
-1342.1516735457844
 42
0.0069050827374277
 10
913.29922820777392
 20
-1341.908732318931
 10
913.30036350744217
 20
-1341.8852060618917
 42
0.0169063976699958
 10
913.30319078642265
 20
-1341.6890133345855
 10
913.30202013489122
 20
-1341.6286775732292
 42
0.0052007732916945
 10
913.29976668629843
 20
-1341.5530841830841
 42
0.00540381233066
 10
913.2798031744577
 20
-1341.4330658870635
 10
913.27471731858918
 20
-1341.404407400493
 42
0.0112050460471084
 10
913.23933295653057
 20
-1341.2280809621536
 10
913.22150799448991
 20
-1341.1485393754333
 42
0.0240764468009898
 10
913.13061062834379
 20
-1340.8183023399324
 10
913.11205186553002
 20
-1340.7616821749373
 42
0.0256812331836581
 10
912.96868894534077
 20
-1340.3899579686808
 10
912.96327951951969
 20
-1340.3778266336917
 42
0.0268360501215482
 10
912.79385227866953
 20
-1340.0468334996701
 10
912.78831587103457
 20
-1340.037313829358
 42
0.0274670231729535
 10
912.59611489462122
 20
-1339.7450264544404
 10
912.59073359465947
 20
-1339.7377473069002
 42
0.0275035967097677
 10
912.37916071509676
 20
-1339.4822314165951
 10
912.37409121412952
 20
-1339.4767523289638
 42
0.0269557673527803
 10
912.14668767069065
 20
-1339.2561100430025
 10
912.14194461290765
 20
-1339.2519800885414
 42
0.0259124802208996
 10
911.90238978147727
 20
-1339.0642895613892
 10
911.89785893629573
 20
-1339.0611040590591
 42
0.0245162152999354
 10
911.64994258320053
 20
-1338.9043710499486
 10
911.64541603687542
 20
-1338.9018108527473
 42
0.022928258884387
 10
911.39299648004896
 20
-1338.7739426602488
 10
911.38821598621109
 20
-1338.7717903604864
 42
0.0212984135701316
 10
911.13517803375044
 20
-1338.6705914432446
 10
911.1298737487781
 20
-1338.6687278804836
 42
0.0197555462350595
 10
910.88009541105794
 20
-1338.5919124625198
 42
0.0183511896796109
 10
910.62516668558976
 20
-1338.5343295555533
 10
910.53880148887185
 20
-1338.5181267651692
 42
0.0338057877147853
 10
910.25329413961151
 20
-1338.4843183600287
 10
910.16228873457192
 20
-1338.4797387047674
 42
0.0091990524489457
 10
910.05644162593558
 20
-1338.4763628488454
 42
0.0028333980789336
 10
909.95052770994039
 20
-1338.4755347413288
 10
909.94961225689326
 20
-1338.4755327715047
 42
-0.0023619827805392
 10
909.84186624179631
 20
-1338.4747919304261
 10
909.80546107161149
 20
-1338.474369623963
 42
0.0008824598474132
 10
909.62490508166604
 20
-1338.4725938457238
 10
909.58104364935571
 20
-1338.4722398841991
 42
0.0038132665763906
 10
909.31276075348535
 20
-1338.4721209481324
 10
909.2962270986834
 20
-1338.4722397142762
 42
0.0060665569337215
 10
908.99494660707899
 20
-1338.4780600136974
 10
908.98069627506675
 20
-1338.4785083216645
 42
0.0080356953333327
 10
908.65123755873822
 20
-1338.4941760437307
 10
908.63916754364027
 20
-1338.4949446266719
 42
0.0098996399106569
 10
908.28640445898759
 20
-1338.5244298558703
 10
908.2763587496147
 20
-1338.5254701520682
 42
0.0117740981367268
 10
907.90520189126755
 20
-1338.5727623995979
 10
907.8969791947834
 20
-1338.5740075161689
 42
0.0137435215136712
 10
907.51239037529615
 20
-1338.6431044897311
 10
907.5057333361749
 20
-1338.6444903859642
 42
0.0158359869386221
 10
907.11273624237185
 20
-1338.7393824744449
 10
907.10732305550528
 20
-1338.7408724153154
 42
0.0180554124028919
 10
906.71100801089301
 20
-1338.8655104315542
 10
906.70645122280951
 20
-1338.8671264678205
 42
0.0203657431283873
 10
906.31197370499683
 20
-1339.0253868093366
 10
906.30783016599082
 20
-1339.0272484307779
 42
0.022681968465608
 10
905.92039410978566
 20
-1339.22289100945
 10
905.91619431876904
 20
-1339.225256601369
 42
0.0248634984609511
 10
905.54101237758505
 20
-1339.4618832473179
 10
905.49281744880648
 20
-1339.4957402891398
 42
0.0267044190881813
 10
905.21852475188734
 20
-1339.71118066501
 42
0.013930300220256
 10
904.96235758594696
 20
-1339.9484195059235
 10
904.95750420022762
 20
-1339.953172168782
 42
0.0283460963444967
 10
904.71343160599986
 20
-1340.2209028292277
 10
904.67376310084387
 20
-1340.2697044067002
 42
0.0070695364819079
 10
904.59632587498402
 20
-1340.3677712226656
 42
0.0070695364819079
  0
LWPOLYLINE
  5
56
100
AcDbEntity
  8
0
370
              15
390
0
  6
Continuous
 62
               7
100
AcDbPolyline
 90
      226
 70
             128
 10
901.06750543773762
 20
-1356.0893600288496
 42
-0.0026277636660399
 10
901.06742755393748
 20
-1356.0225881031345
 10
901.06764491216961
 20
-1355.9694328856635
 42
-0.0088680296729425
 10
901.07142152846268
 20
-1355.7964171032584
 10
901.07376788757506
 20
-1355.7371370778069
 42
-0.0077381705617908
 10
901.0898139983376
 20
-1355.4458765820179
 10
901.09068190951132
 20
-1355.4335883483236
 42
-0.0068872530530313
 10
901.1173139892594
 20
-1355.1183665962551
 10
901.11851821344555
 20
-1355.1061256172356
 42
-0.0062130021483857
 10
901.15611193027246
 20
-1354.7672559260041
 10
901.15761583380845
 20
-1354.7550820540807
 42
-0.0056726929665411
 10
901.20653769331034
 20
-1354.3928868319704
 10
901.2083111389552
 20
-1354.3807930317221
 42
-0.0052341884494278
 10
901.26892172521707
 20
-1353.9955997761922
 10
901.27093971399177
 20
-1353.9835948462116
 42
-0.0049768450168591
 10
901.34367839541642
 20
-1353.5757502787881
 10
901.36792741013994
 20
-1353.447202295773
 42
-0.0089029805626162
 10
901.50500826193343
 20
-1352.7854268483561
 10
901.53775363725322
 20
-1352.6403954178272
 42
-0.0080318257100214
 10
901.76730225159304
 20
-1351.6946857859773
 10
901.77928717804218
 20
-1351.6485551507835
 42
-0.007426572131959
 10
902.06329871689081
 20
-1350.6184905724074
 10
902.08317826001257
 20
-1350.5503565118006
 42
-0.006971192270112
 10
902.41048283851546
 20
-1349.4840887714854
 10
902.4704347856142
 20
-1349.2980674131359
 42
-0.0052070422894411
 10
902.69986001088023
 20
-1348.6107953360836
 10
902.71714120301681
 20
-1348.5607680555697
 42
-0.0009167004449907
 10
902.92023309034198
 20
-1347.9763122073123
 42
-0.0025162726943297
 10
903.12733072060621
 20
-1347.3932709431451
 10
903.16455533241538
 20
-1347.2901213972293
 42
-0.0028212681456721
 10
903.41273125137309
 20
-1346.6143907650735
 10
903.42256201412977
 20
-1346.5880833203807
 42
-0.0031964916823607
 10
903.65885427178603
 20
-1345.9678785582696
 10
903.66848872578282
 20
-1345.943068568132
 42
-0.0036281836452061
 10
903.89359468688622
 20
-1345.3756278872333
 10
903.90303309704268
 20
-1345.352330455733
 42
-0.0041269166830311
 10
904.11765079370286
 20
-1344.8348895597521
 10
904.15028375012309
 20
-1344.7580111133925
 42
-0.004747221305652
 10
904.30732855567726
 20
-1344.3975896455077
 10
904.31422263688773
 20
-1344.3821690481705
 42
-0.002565165999499
 10
904.46258067073563
 20
-1344.0548409924272
 42
-0.0057144634995036
 10
904.61633036450644
 20
-1343.7300313190658
 10
904.6443610699049
 20
-1343.6725229366771
 42
-0.0065388068374232
 10
904.82782809764797
 20
-1343.3082904400055
 10
904.83628655342693
 20
-1343.2920308606351
 42
-0.0074510843019403
 10
905.01246879930432
 20
-1342.9653425795132
 10
905.02064846983978
 20
-1342.9507018022364
 42
-0.0084648979852909
 10
905.19028232293545
 20
-1342.6587927912833
 10
905.19813844943053
 20
-1342.6457857996209
 42
-0.0095638542798634
 10
905.36197389701772
 20
-1342.3858969276539
 10
905.36944884068578
 20
-1342.3745275662041
 42
-0.0107191626807595
 10
905.52825042107702
 20
-1342.1439163316545
 10
905.53526715481541
 20
-1342.1341802392797
 42
-0.0118458573899954
 10
905.6898152533206
 20
-1341.9301080439791
 42
-0.0129184518193795
 10
905.85426787691881
 20
-1341.7339475278125
 10
905.88441264928645
 20
-1341.6998214489076
 42
-0.0217742579632763
 10
906.06102497162055
 20
-1341.5166146786592
 10
906.07177051607789
 20
-1341.5063978454591
 42
-0.0097266568654716
 10
906.23782813493676
 20
-1341.3545502710188
 42
-0.0187720905722538
 10
906.41217571082188
 20
-1341.2124814176329
 10
906.44288170150253
 20
-1341.1893223352317
 42
-0.0179428207516585
 10
906.67530242149655
 20
-1341.0267701581217
 10
906.67895474841225
 20
-1341.0244062232341
 42
-0.0170047877697312
 10
906.91471838594271
 20
-1340.8829457090824
 10
906.91850137468498
 20
-1340.8808474040484
 42
-0.0160190788364322
 10
907.15540992232457
 20
-1340.759196102058
 42
-0.0151102861491276
 10
907.39944170477179
 20
-1340.6525133260034
 10
907.45182820698301
 20
-1340.6314731931088
 42
-0.0271945441887778
 10
907.81049076604177
 20
-1340.5096083824028
 10
907.87955556653253
 20
-1340.4902588411358
 42
-0.023759659402265
 10
908.29535241355188
 20
-1340.3948081291551
 10
908.36341526727892
 20
-1340.3825534410289
 42
-0.0213715440557712
 10
908.64929019872761
 20
-1340.3436064095183
 10
908.70943736494405
 20
-1340.3380166948175
 42
-0.0101465655821502
 10
908.87692989693971
 20
-1340.3258731515534
 10
908.88627028313806
 20
-1340.3253862365561
 42
-0.0100375910882988
 10
909.0354243837005
 20
-1340.3206104186308
 10
909.04568365337741
 20
-1340.3204879796165
 42
-0.0103625633384081
 10
909.17439164803568
 20
-1340.321619413143
 10
909.19665729930455
 20
-1340.3222767716079
 42
-0.0115689250233886
 10
909.28070803683056
 20
-1340.3267062778532
 42
-0.0072438037431003
 10
909.36454631627248
 20
-1340.3342954776026
 10
909.38134682574253
 20
-1340.3360620203266
 42
-0.0217917313134365
 10
909.49791658905474
 20
-1340.3534819130473
 10
909.56351667962497
 20
-1340.3662285214623
 42
-0.0332943556752368
 10
909.76790884465117
 20
-1340.4202688127693
 10
909.79808141320143
 20
-1340.4304368898877
 42
-0.01848240848011
 10
909.93658646966674
 20
-1340.4828879052743
 42
-0.0198002050695257
 10
910.07066081016637
 20
-1340.5457719654737
 10
910.072547447543
 20
-1340.5467497523534
 42
-0.0212242342976396
 10
910.20468638994237
 20
-1340.6225124911448
 10
910.20650168548832
 20
-1340.6236582933548
 42
-0.0226090605784207
 10
910.33500558670983
 20
-1340.7131379369191
 10
910.33685002844754
 20
-1340.7145501899067
 42
-0.0238457052226206
 10
910.46003210973993
 20
-1340.8185460857685
 10
910.46198483829949
 20
-1340.8203609635352
 42
-0.024816056414555
 10
910.57818634560022
 20
-1340.9396355647441
 10
910.58028997900215
 20
-1340.9420208984484
 42
-0.0254109591441865
 10
910.68789519686868
 20
-1341.0773092844136
 10
910.69014321878217
 20
-1341.0804508328133
 42
-0.0255528488284585
 10
910.78758989757932
 20
-1341.2324778870477
 10
910.78992099749553
 20
-1341.2365594986554
 42
-0.0252146793221353
 10
910.87570202350537
 20
-1341.4060617446539
 10
910.87800426266222
 20
-1341.4112438265652
 42
-0.0244265635958552
 10
910.95065895642381
 20
-1341.5989903986122
 10
910.95990535789201
 20
-1341.6268558169493
 42
-0.0231319612891888
 10
911.00582813688413
 20
-1341.7901568637512
 42
-0.0112130424363057
 10
911.04046415942219
 20
-1341.9563604639379
 10
911.0416666845349
 20
-1341.9628570508271
 42
-0.0210527881233731
 10
911.06735315990613
 20
-1342.1439126962723
 10
911.0708637547275
 20
-1342.1793182448157
 42
-0.0190029892419302
 10
911.08630522827229
 20
-1342.4328540910924
 10
911.08711520471616
 20
-1342.4683297054571
 42
-0.0137974553663768
 10
911.08556635188074
 20
-1342.7933611121853
 10
911.08472089692498
 20
-1342.8194798567843
 42
-0.0081336634217538
 10
911.06986156170251
 20
-1343.1248273243825
 42
-0.0073526923570658
 10
911.04555302832853
 20
-1343.4295755686614
 10
911.04429160454515
 20
-1343.4429122433337
 42
-0.0066886138690698
 10
911.00855601849707
 20
-1343.7734982868435
 10
911.00689892902869
 20
-1343.7871199058222
 42
-0.0061359187356207
 10
910.9590483269784
 20
-1344.1438838859178
 10
910.95701082590494
 20
-1344.1577786887515
 42
-0.0056698610061992
 10
910.89636049513967
 20
-1344.54105725758
 10
910.89395506181495
 20
-1344.5552163768202
 42
-0.0052721077274259
 10
910.8198228610139
 20
-1344.9653437165052
 10
910.81705971217355
 20
-1344.9797603518841
 42
-0.0049289272179107
 10
910.72876559407416
 20
-1345.4170688630034
 10
910.72565309939091
 20
-1345.4317377158225
 42
-0.0047415956712742
 10
910.6224151078593
 20
-1345.8965344732298
 10
910.58764689749887
 20
-1346.0463415686163
 42
-0.0084404470903511
 10
910.39763045392806
 20
-1346.8065655931434
 10
910.39150376594137
 20
-1346.8294297173009
 42
-0.003963594025766
 10
910.17005008165893
 20
-1347.6304185815429
 10
910.15667328647783
 20
-1347.6773501981402
 42
-0.0072475040836686
 10
909.88922639861187
 20
-1348.5665699145393
 10
909.81901407178441
 20
-1348.7883102645117
 42
-0.0051345458826275
 10
909.53225469972847
 20
-1349.6626354523135
 10
909.51072843296902
 20
-1349.7260617194195
 42
-0.0019150016603011
 10
909.25519502609427
 20
-1350.4696108396695
 10
909.24872742170987
 20
-1350.4881983045568
 42
-0.0021524362753429
 10
909.00024937063426
 20
-1351.1925241262988
 10
908.99103894993766
 20
-1351.2182777046007
 42
-0.0024331286819472
 10
908.75478369090183
 20
-1351.8688770127187
 10
908.74573573835255
 20
-1351.8934203190695
 42
-0.0027449721785694
 10
908.52112116751584
 20
-1352.4925501979974
 10
908.51223116012352
 20
-1352.51587278785
 42
-0.0031083229768132
 10
908.29868867351365
 20
-1353.0657968254293
 10
908.28995254184542
 20
-1353.0878865412685
 42
-0.0035311343283465
 10
908.08691135624622
 20
-1353.5908696670172
 10
908.07832601710425
 20
-1353.6117123905137
 42
-0.0040245640951929
 10
907.88521421330415
 20
-1354.0700217131198
 10
907.87677809970285
 20
-1354.089601081188
 42
-0.0046015135851869
 10
907.69302180653733
 20
-1354.5055061108342
 10
907.68473562871304
 20
-1354.5238032502775
 42
-0.005276863827405
 10
907.50975810975342
 20
-1354.8995761345566
 10
907.5016258991302
 20
-1354.9165694730918
 42
-0.0060672675645977
 10
907.33484628636052
 20
-1355.254485096214
 10
907.32687680587844
 20
-1355.2701503552123
 42
-0.0069904648870472
 10
907.16770841187758
 20
-1355.5724861618751
 10
907.1599170122729
 20
-1355.5867967110912
 42
-0.0080637022767233
 10
907.00776515192092
 20
-1355.8558320142554
 10
907.00017611928661
 20
-1355.8687598798613
 42
-0.0093006455661095
 10
906.85443544275813
 20
-1356.1067742783594
 10
906.84708477600645
 20
-1356.118292247545
 42
-0.0107060778044202
 10
906.70713623257598
 20
-1356.3275625649114
 10
906.70007446429372
 20
-1356.3376481074811
 42
-0.0122723111408948
 10
906.56528074609832
 20
-1356.5204414369664
 10
906.56495452253967
 20
-1356.5208618247821
 42
-0.0141836319620353
 10
906.4213729195701
 20
-1356.6954315826056
 10
906.41442516391771
 20
-1356.7034065828707
 42
-0.0175957477207485
 10
906.27451899588345
 20
-1356.853027471275
 42
-0.0080466359673799
 10
906.12705523085606
 20
-1356.9953499994235
 10
906.08102068633582
 20
-1357.0383704375174
 42
-0.0269600260397265
 10
905.82774044035386
 20
-1357.250693696026
 10
905.76117330405691
 20
-1357.3006451106498
 42
-0.0178362839752824
 10
905.52122881440005
 20
-1357.4676630369029
 10
905.51398384340143
 20
-1357.4723315491067
 42
-0.0174650732651664
 10
905.27764764595827
 20
-1357.6131925140669
 42
-0.0169240130170408
 10
905.03218140010472
 20
-1357.7374847738424
 10
904.98619524454284
 20
-1357.7588467294115
 42
-0.0318883036839663
 10
904.63584438892224
 20
-1357.8951850389219
 10
904.56747885375728
 20
-1357.9168856593974
 42
-0.0284435909898881
 10
904.19142872746704
 20
-1358.0131030948719
 10
904.15627056696599
 20
-1358.0199966907007
 42
-0.0243909341011497
 10
903.84282710604953
 20
-1358.0657177217304
 10
903.79254637928329
 20
-1358.0705632686315
 42
-0.0196639292935856
 10
903.57695080175108
 20
-1358.0828115541456
 10
903.52512673058845
 20
-1358.0837148148823
 42
-0.010050151068235
 10
903.41270344892337
 20
-1358.0834144165292
 10
903.38104358759119
 20
-1358.082693344644
 42
-0.0019752031156851
 10
903.33195125089799
 20
-1358.0813811844341
 10
903.3291909476668
 20
-1358.0812964926076
 42
0.0065378752004938
 10
903.28561437292115
 20
-1358.080529601393
 42
-0.016797469463888
 10
903.24208354998939
 20
-1358.078869702867
 10
903.23800421072724
 20
-1358.0785766919721
 42
-0.0081283276279302
 10
903.18644441299261
 20
-1358.0740296983345
 10
903.17470483911006
 20
-1358.0728017807558
 42
-0.0126703440174704
 10
903.09998654331764
 20
-1358.0630669896846
 10
903.07719867563992
 20
-1358.059508733769
 42
-0.0117852088430361
 10
902.95765968980277
 20
-1358.0379457386109
 10
902.90227923804446
 20
-1358.0266021983773
 42
-0.0251774592297961
 10
902.67543519903847
 20
-1357.9681041889448
 10
902.63071600917976
 20
-1357.9541373696072
 42
-0.0146525199885761
 10
902.44432302164705
 20
-1357.8898708424108
 42
-0.0166929435857377
 10
902.26234536552045
 20
-1357.8140637093563
 10
902.25768873424727
 20
-1357.8119388087423
 42
-0.0191684358432062
 10
902.07250510299821
 20
-1357.7187027249527
 10
902.06917251724099
 20
-1357.7168614773991
 42
-0.0221181781810875
 10
901.88586221333946
 20
-1357.6047279790287
 10
901.88351240933036
 20
-1357.6031436810372
 42
-0.0254984685376894
 10
901.7072222589444
 20
-1357.4707325310671
 10
901.68474011124272
 20
-1357.4519802221312
 42
-0.0292492648800444
 10
901.55997117240008
 20
-1357.3348874224882
 42
-0.015904895749204
 10
901.44613117494998
 20
-1357.2068674308891
 10
901.44481238437061
 20
-1357.205285817869
 42
-0.0343813379564164
 10
901.34217512274483
 20
-1357.0634144921003
 10
901.31068359138362
 20
-1357.0129111000056
 42
-0.0369117275700774
 10
901.2247910894863
 20
-1356.8494338590572
 42
-0.0191751379906233
 10
901.15759770392845
 20
-1356.6770292530487
 10
901.15583438016984
 20
-1356.6719359083763
 42
-0.037817804224089
 10
901.10603966138581
 20
-1356.4829951322963
 10
901.10004436565544
 20
-1356.450434514099
 42
-0.0184846046467774
 10
901.07932716636083
 20
-1356.3086816935531
 42
-0.017986635131641
 10
901.06899416128726
 20
-1356.1657908804741
 10
901.06893771884143
 20
-1356.1642331938594
 42
-0.0085497186138658
 10
901.06750543773762
 20
-1356.0893600288496
 42
-0.0085497186138658
  0
ENDBLK
  5
57
100
AcDbEntity
  8
template
390
0
100
AcDbBlockEnd
  0
BLOCK
  5
58
100
AcDbEntity
  8
notes
390
0
100
AcDbBlockBegin
  2
*D3
 70
               1
 10
0.0
 20
0.0
 30
0.0
  3
*D3
  1

  0
LINE
  5
59
100
AcDbEntity
  8
0
370
              -2
390
0
  6
Continuous
 62
               0
100
AcDbLine
 10
435.61202843563774
 20
-650.18671198628556
 30
0.0
 11
435.61202843563774
 21
-725.18671198628556
 31
0.0
  0
LINE
  5
5A
100
AcDbEntity
  8
0
370
              -2
390
0
  6
Continuous
 62
               0
100
AcDbLine
 10
230.61202843564095
 20
-500.1867119862855
 30
0.0
 11
230.61202843564095
 21
-725.18671198628556
 31
0.0
  0
LINE
  5
5B
100
AcDbEntity
  8
0
370
              -2
390
0
  6
Continuous
 62
               0
100
AcDbLine
 10
435.61202843563774
 20
-725.18671198628556
 30
0.0
 11
230.61202843564095
 21
-725.18671198628556
 31
0.0
  0
CIRCLE
  5
5C
102
{ACAD_REACTORS
330
5D
102
}
100
AcDbEntity
  8
0
370
              -2
390
0
  6
Continuous
 62
               0
100
AcDbCircle
 10
435.61202843563774
 20
-725.18671198628556
 30
0.0
 40
1.9998779296875
  0
HATCH
  5
5D
100
AcDbEntity
  8
0
370
              -2
390
0
  6
Continuous
 62
               0
100
AcDbHatch
 10
0.0
 20
0.0
 30
0.0
210
0.0
220
0.0
230
1.0
  2
SOLID
 70
               1
 71
               1
 91
        1
 92
        1
 93
        1
 72
               2
 10
435.61202843563774
 20
-725.18671198628556
 40
1.9998779296875
 50
0.0
 51
360.0
 73
               0
 97
        1
330
5C
 75
               0
 76
               1
 98
        1
 10
0.0
 20
0.0
  0
CIRCLE
  5
5E
102
{ACAD_REACTORS
330
5F
102
}
100
AcDbEntity
  8
0
370
              -2
390
0
  6
Continuous
 62
               0
100
AcDbCircle
 10
230.61202843564095
 20
-725.18671198628556
 30
0.0
 40
1.9998779296875
  0
HATCH
  5
5F
100
AcDbEntity
  8
0
370
              -2
390
0
  6
Continuous
 62
               0
100
AcDbHatch
 10
0.0
 20
0.0
 30
0.0
210
0.0
220
0.0
230
1.0
  2
SOLID
 70
               1
 71
               1
 91
        1
 92
        1
 93
        1
 72
               2
 10
230.61202843564095
 20
-725.18671198628556
 40
1.9998779296875
 50
0.0
 51
360.0
 73
               0
 97
        1
330
5E
 75
               0
 76
               1
 98
        1
 10
0.0
 20
0.0
  0
MTEXT
  5
60
100
AcDbEntity
  8
0
390
0
 62
               0
100
AcDbMText
 10
309.29952675346385
 20
-691.30909479878551
 30
0.0
 40
24.432617187500004
 41
0.0
 71
               1
 72
               1
  1
205
  7
ＭＳ ゴシック
 73
               1
 44
0.7828267384257843
  0
POINT
  5
61
100
AcDbEntity
  8
Defpoints
370
               0
390
0
 62
               0
100
AcDbPoint
 10
230.61202843564095
 20
-475.1867119862855
 30
0.0
  0
POINT
  5
62
100
AcDbEntity
  8
Defpoints
370
               0
390
0
 62
               0
100
AcDbPoint
 10
435.61202843563774
 20
-625.18671198628556
 30
0.0
  0
POINT
  5
63
100
AcDbEntity
  8
Defpoints
370
               0
390
0
 62
               0
100
AcDbPoint
 10
435.61202843563774
 20
-725.18671198628556
 30
0.0
  0
ENDBLK
  5
64
100
AcDbEntity
  8
notes
390
0
100
AcDbBlockEnd
  0
BLOCK
  5
65
100
AcDbEntity
  8
notes
390
0
100
AcDbBlockBegin
  2
*D4
 70
               1
 10
0.0
 20
0.0
 30
0.0
  3
*D4
  1

  0
LINE
  5
66
100
AcDbEntity
  8
0
370
              -2
390
0
  6
Continuous
 62
               0
100
AcDbLine
 10
721.88169521610303
 20
745.70000000000005
 30
0.0
 11
795.61202843564161
 21
745.70000000000005
 31
0.0
  0
LINE
  5
67
100
AcDbEntity
  8
0
370
              -2
390
0
  6
Continuous
 62
               0
100
AcDbLine
 10
721.88169521610303
 20
395.7000000000001
 30
0.0
 11
795.61202843564161
 21
395.7000000000001
 31
0.0
  0
LINE
  5
68
100
AcDbEntity
  8
0
370
              -2
390
0
  6
Continuous
 62
               0
100
AcDbLine
 10
795.61202843564161
 20
745.70000000000005
 30
0.0
 11
795.61202843564161
 21
395.7000000000001
 31
0.0
  0
CIRCLE
  5
69
102
{ACAD_REACTORS
330
6A
102
}
100
AcDbEntity
  8
0
370
              -2
390
0
  6
Continuous
 62
               0
100
AcDbCircle
 10
795.61202843564161
 20
745.70000000000005
 30
0.0
 40
1.9998779296875
  0
HATCH
  5
6A
100
AcDbEntity
  8
0
370
              -2
390
0
  6
Continuous
 62
               0
100
AcDbHatch
 10
0.0
 20
0.0
 30
0.0
210
0.0
220
0.0
230
1.0
  2
SOLID
 70
               1
 71
               1
 91
        1
 92
        1
 93
        1
 72
               2
 10
795.61202843564161
 20
745.70000000000005
 40
1.9998779296875
 50
0.0
 51
360.0
 73
               0
 97
        1
330
69
 75
               0
 76
               1
 98
        1
 10
0.0
 20
0.0
  0
CIRCLE
  5
6B
102
{ACAD_REACTORS
330
6C
102
}
100
AcDbEntity
  8
0
370
              -2
390
0
  6
Continuous
 62
               0
100
AcDbCircle
 10
795.61202843564161
 20
395.7000000000001
 30
0.0
 40
1.9998779296875
  0
HATCH
  5
6C
100
AcDbEntity
  8
0
370
              -2
390
0
  6
Continuous
 62
               0
100
AcDbHatch
 10
0.0
 20
0.0
 30
0.0
210
0.0
220
0.0
230
1.0
  2
SOLID
 70
               1
 71
               1
 91
        1
 92
        1
 93
        1
 72
               2
 10
795.61202843564161
 20
395.7000000000001
 40
1.9998779296875
 50
0.0
 51
360.0
 73
               0
 97
        1
330
6B
 75
               0
 76
               1
 98
        1
 10
0.0
 20
0.0
  0
MTEXT
  5
6D
100
AcDbEntity
  8
0
390
0
 62
               0
100
AcDbMText
 10
761.73441124814156
 20
546.88749831782457
 30
0.0
 40
24.432617187500004
 41
0.0
 71
               1
 72
               1
  1
350
  7
ＭＳ ゴシック
 11
0.0
 21
1.0
 31
0.0
 73
               1
 44
0.7828267384257843
  0
POINT
  5
6E
100
AcDbEntity
  8
Defpoints
370
               0
390
0
 62
               0
100
AcDbPoint
 10
696.88169521610303
 20
395.7000000000001
 30
0.0
  0
POINT
  5
6F
100
AcDbEntity
  8
Defpoints
370
               0
390
0
 62
               0
100
AcDbPoint
 10
696.88169521610303
 20
745.70000000000005
 30
0.0
  0
POINT
  5
70
100
AcDbEntity
  8
Defpoints
370
               0
390
0
 62
               0
100
AcDbPoint
 10
795.61202843564161
 20
745.70000000000005
 30
0.0
  0
ENDBLK
  5
71
100
AcDbEntity
  8
notes
390
0
100
AcDbBlockEnd
  0
BLOCK
  5
72
100
AcDbEntity
  8
notes
390
0
100
AcDbBlockBegin
  2
*D5
 70
               1
 10
0.0
 20
0.0
 30
0.0
  3
*D5
  1

  0
LINE
  5
73
100
AcDbEntity
  8
0
370
              -2
390
0
  6
Continuous
 62
               0
100
AcDbLine
 10
670.65658800393362
 20
346.18889652738824
 30
0.0
 11
670.65658800393362
 21
270.73648589726662
 31
0.0
  0
LINE
  5
74
100
AcDbEntity
  8
0
370
              -2
390
0
  6
Continuous
 62
               0
100
AcDbLine
 10
190.65658800393322
 20
346.18889652738824
 30
0.0
 11
190.65658800393322
 21
270.73648589726662
 31
0.0
  0
LINE
  5
75
100
AcDbEntity
  8
0
370
              -2
390
0
  6
Continuous
 62
               0
100
AcDbLine
 10
670.65658800393362
 20
270.73648589726662
 30
0.0
 11
190.65658800393322
 21
270.73648589726662
 31
0.0
  0
CIRCLE
  5
76
102
{ACAD_REACTORS
330
77
102
}
100
AcDbEntity
  8
0
370
              -2
390
0
  6
Continuous
 62
               0
100
AcDbCircle
 10
670.65658800393362
 20
270.73648589726662
 30
0.0
 40
1.9998779296875
  0
HATCH
  5
77
100
AcDbEntity
  8
0
370
              -2
390
0
  6
Continuous
 62
               0
100
AcDbHatch
 10
0.0
 20
0.0
 30
0.0
210
0.0
220
0.0
230
1.0
  2
SOLID
 70
               1
 71
               1
 91
        1
 92
        1
 93
        1
 72
               2
 10
670.65658800393362
 20
270.73648589726662
 40
1.9998779296875
 50
0.0
 51
360.0
 73
               0
 97
        1
330
76
 75
               0
 76
               1
 98
        1
 10
0.0
 20
0.0
  0
CIRCLE
  5
78
102
{ACAD_REACTORS
330
79
102
}
100
AcDbEntity
  8
0
370
              -2
390
0
  6
Continuous
 62
               0
100
AcDbCircle
 10
190.65658800393322
 20
270.73648589726662
 30
0.0
 40
1.9998779296875
  0
HATCH
  5
79
100
AcDbEntity
  8
0
370
              -2
390
0
  6
Continuous
 62
               0
100
AcDbHatch
 10
0.0
 20
0.0
 30
0.0
210
0.0
220
0.0
230
1.0
  2
SOLID
 70
               1
 71
               1
 91
        1
 92
        1
 93
        1
 72
               2
 10
190.65658800393322
 20
270.73648589726662
 40
1.9998779296875
 50
0.0
 51
360.0
 73
               0
 97
        1
330
78
 75
               0
 76
               1
 98
        1
 10
0.0
 20
0.0
  0
MTEXT
  5
7A
100
AcDbEntity
  8
0
390
0
 62
               0
100
AcDbMText
 10
410.34408632175791
 20
304.61410308476661
 30
0.0
 40
24.432617187500004
 41
0.0
 71
               1
 72
               1
  1
480
  7
ＭＳ ゴシック
 73
               1
 44
0.7828267384257843
  0
POINT
  5
7B
100
AcDbEntity
  8
Defpoints
370
               0
390
0
 62
               0
100
AcDbPoint
 10
190.65658800393322
 20
371.18889652738824
 30
0.0
  0
POINT
  5
7C
100
AcDbEntity
  8
Defpoints
370
               0
390
0
 62
               0
100
AcDbPoint
 10
670.65658800393362
 20
371.18889652738824
 30
0.0
  0
POINT
  5
7D
100
AcDbEntity
  8
Defpoints
370
               0
390
0
 62
               0
100
AcDbPoint
 10
670.65658800393362
 20
270.73648589726662
 30
0.0
  0
ENDBLK
  5
7E
100
AcDbEntity
  8
notes
390
0
100
AcDbBlockEnd
  0
BLOCK
  5
7F
100
AcDbEntity
  8
notes
390
0
100
AcDbBlockBegin
  2
*D6
 70
               1
 10
0.0
 20
0.0
 30
0.0
  3
*D6
  1

  0
LINE
  5
80
100
AcDbEntity
  8
0
370
              -2
390
0
  6
Continuous
 62
               0
100
AcDbLine
 10
-219.39118932298146
 20
765.73648589726656
 30
0.0
 11
-219.39118932298146
 21
870.73648589726656
 31
0.0
  0
LINE
  5
81
100
AcDbEntity
  8
0
370
              -2
390
0
  6
Continuous
 62
               0
100
AcDbLine
 10
-749.39118932298106
 20
765.73648589726656
 30
0.0
 11
-749.39118932298106
 21
870.73648589726656
 31
0.0
  0
LINE
  5
82
100
AcDbEntity
  8
0
370
              -2
390
0
  6
Continuous
 62
               0
100
AcDbLine
 10
-219.39118932298146
 20
870.73648589726656
 30
0.0
 11
-749.39118932298106
 21
870.73648589726656
 31
0.0
  0
CIRCLE
  5
83
102
{ACAD_REACTORS
330
84
102
}
100
AcDbEntity
  8
0
370
              -2
390
0
  6
Continuous
 62
               0
100
AcDbCircle
 10
-219.39118932298146
 20
870.73648589726656
 30
0.0
 40
1.9998779296875
  0
HATCH
  5
84
100
AcDbEntity
  8
0
370
              -2
390
0
  6
Continuous
 62
               0
100
AcDbHatch
 10
0.0
 20
0.0
 30
0.0
210
0.0
220
0.0
230
1.0
  2
SOLID
 70
               1
 71
               1
 91
        1
 92
        1
 93
        1
 72
               2
 10
-219.39118932298146
 20
870.73648589726656
 40
1.9998779296875
 50
0.0
 51
360.0
 73
               0
 97
        1
330
83
 75
               0
 76
               1
 98
        1
 10
0.0
 20
0.0
  0
CIRCLE
  5
85
102
{ACAD_REACTORS
330
86
102
}
100
AcDbEntity
  8
0
370
              -2
390
0
  6
Continuous
 62
               0
100
AcDbCircle
 10
-749.39118932298106
 20
870.73648589726656
 30
0.0
 40
1.9998779296875
  0
HATCH
  5
86
100
AcDbEntity
  8
0
370
              -2
390
0
  6
Continuous
 62
               0
100
AcDbHatch
 10
0.0
 20
0.0
 30
0.0
210
0.0
220
0.0
230
1.0
  2
SOLID
 70
               1
 71
               1
 91
        1
 92
        1
 93
        1
 72
               2
 10
-749.39118932298106
 20
870.73648589726656
 40
1.9998779296875
 50
0.0
 51
360.0
 73
               0
 97
        1
330
85
 75
               0
 76
               1
 98
        1
 10
0.0
 20
0.0
  0
MTEXT
  5
87
100
AcDbEntity
  8
0
390
0
 62
               0
100
AcDbMText
 10
-508.20369100515677
 20
904.61410308476661
 30
0.0
 40
24.432617187500004
 41
0.0
 71
               1
 72
               1
  1
530
  7
ＭＳ ゴシック
 73
               1
 44
0.7828267384257843
  0
POINT
  5
88
100
AcDbEntity
  8
Defpoints
370
               0
390
0
 62
               0
100
AcDbPoint
 10
-749.39118932298106
 20
740.73648589726656
 30
0.0
  0
POINT
  5
89
100
AcDbEntity
  8
Defpoints
370
               0
390
0
 62
               0
100
AcDbPoint
 10
-219.39118932298146
 20
740.73648589726656
 30
0.0
  0
POINT
  5
8A
100
AcDbEntity
  8
Defpoints
370
               0
390
0
 62
               0
100
AcDbPoint
 10
-219.39118932298146
 20
870.73648589726656
 30
0.0
  0
ENDBLK
  5
8B
100
AcDbEntity
  8
notes
390
0
100
AcDbBlockEnd
  0
BLOCK
  5
8C
100
AcDbEntity
  8
notes
390
0
100
AcDbBlockBegin
  2
*D7
 70
               1
 10
0.0
 20
0.0
 30
0.0
  3
*D7
  1

  0
LINE
  5
8D
100
AcDbEntity
  8
0
370
              -2
390
0
  6
Continuous
 62
               0
100
AcDbLine
 10
-224.39118932298146
 20
770.73648589726656
 30
0.0
 11
-119.39118932298146
 21
770.73648589726656
 31
0.0
  0
LINE
  5
8E
100
AcDbEntity
  8
0
370
              -2
390
0
  6
Continuous
 62
               0
100
AcDbLine
 10
-224.39118932298146
 20
370.73648589726662
 30
0.0
 11
-119.39118932298146
 21
370.73648589726662
 31
0.0
  0
LINE
  5
8F
100
AcDbEntity
  8
0
370
              -2
390
0
  6
Continuous
 62
               0
100
AcDbLine
 10
-119.39118932298146
 20
770.73648589726656
 30
0.0
 11
-119.39118932298146
 21
370.73648589726662
 31
0.0
  0
CIRCLE
  5
90
102
{ACAD_REACTORS
330
91
102
}
100
AcDbEntity
  8
0
370
              -2
390
0
  6
Continuous
 62
               0
100
AcDbCircle
 10
-119.39118932298146
 20
770.73648589726656
 30
0.0
 40
1.9998779296875
  0
HATCH
  5
91
100
AcDbEntity
  8
0
370
              -2
390
0
  6
Continuous
 62
               0
100
AcDbHatch
 10
0.0
 20
0.0
 30
0.0
210
0.0
220
0.0
230
1.0
  2
SOLID
 70
               1
 71
               1
 91
        1
 92
        1
 93
        1
 72
               2
 10
-119.39118932298146
 20
770.73648589726656
 40
1.9998779296875
 50
0.0
 51
360.0
 73
               0
 97
        1
330
90
 75
               0
 76
               1
 98
        1
 10
0.0
 20
0.0
  0
CIRCLE
  5
92
102
{ACAD_REACTORS
330
93
102
}
100
AcDbEntity
  8
0
370
              -2
390
0
  6
Continuous
 62
               0
100
AcDbCircle
 10
-119.39118932298146
 20
370.73648589726662
 30
0.0
 40
1.9998779296875
  0
HATCH
  5
93
100
AcDbEntity
  8
0
370
              -2
390
0
  6
Continuous
 62
               0
100
AcDbHatch
 10
0.0
 20
0.0
 30
0.0
210
0.0
220
0.0
230
1.0
  2
SOLID
 70
               1
 71
               1
 91
        1
 92
        1
 93
        1
 72
               2
 10
-119.39118932298146
 20
370.73648589726662
 40
1.9998779296875
 50
0.0
 51
360.0
 73
               0
 97
        1
330
92
 75
               0
 76
               1
 98
        1
 10
0.0
 20
0.0
  0
MTEXT
  5
94
100
AcDbEntity
  8
0
390
0
 62
               0
100
AcDbMText
 10
-153.26880651048148
 20
546.92398421509108
 30
0.0
 40
24.432617187500004
 41
0.0
 71
               1
 72
               1
  1
400
  7
ＭＳ ゴシック
 11
0.0
 21
1.0
 31
0.0
 73
               1
 44
0.7828267384257843
  0
POINT
  5
95
100
AcDbEntity
  8
Defpoints
370
               0
390
0
 62
               0
100
AcDbPoint
 10
-249.39118932298146
 20
370.73648589726662
 30
0.0
  0
POINT
  5
96
100
AcDbEntity
  8
Defpoints
370
               0
390
0
 62
               0
100
AcDbPoint
 10
-249.39118932298146
 20
770.73648589726656
 30
0.0
  0
POINT
  5
97
100
AcDbEntity
  8
Defpoints
370
               0
390
0
 62
               0
100
AcDbPoint
 10
-119.39118932298146
 20
770.73648589726656
 30
0.0
  0
ENDBLK
  5
98
100
AcDbEntity
  8
notes
390
0
100
AcDbBlockEnd
  0
BLOCK
  5
99
100
AcDbEntity
  8
notes
390
0
100
AcDbBlockBegin
  2
*D8
 70
               1
 10
0.0
 20
0.0
 30
0.0
  3
*D8
  1

  0
LINE
  5
9A
100
AcDbEntity
  8
0
370
              -2
390
0
  6
Continuous
 62
               0
100
AcDbLine
 10
-239.39118932298146
 20
348.90871211898508
 30
0.0
 11
-239.39118932298146
 21
270.73648589726662
 31
0.0
  0
LINE
  5
9B
100
AcDbEntity
  8
0
370
              -2
390
0
  6
Continuous
 62
               0
100
AcDbLine
 10
-729.39118932298106
 20
348.90871211898508
 30
0.0
 11
-729.39118932298106
 21
270.73648589726662
 31
0.0
  0
LINE
  5
9C
100
AcDbEntity
  8
0
370
              -2
390
0
  6
Continuous
 62
               0
100
AcDbLine
 10
-239.39118932298146
 20
270.73648589726662
 30
0.0
 11
-729.39118932298106
 21
270.73648589726662
 31
0.0
  0
CIRCLE
  5
9D
102
{ACAD_REACTORS
330
9E
102
}
100
AcDbEntity
  8
0
370
              -2
390
0
  6
Continuous
 62
               0
100
AcDbCircle
 10
-239.39118932298146
 20
270.73648589726662
 30
0.0
 40
1.9998779296875
  0
HATCH
  5
9E
100
AcDbEntity
  8
0
370
              -2
390
0
  6
Continuous
 62
               0
100
AcDbHatch
 10
0.0
 20
0.0
 30
0.0
210
0.0
220
0.0
230
1.0
  2
SOLID
 70
               1
 71
               1
 91
        1
 92
        1
 93
        1
 72
               2
 10
-239.39118932298146
 20
270.73648589726662
 40
1.9998779296875
 50
0.0
 51
360.0
 73
               0
 97
        1
330
9D
 75
               0
 76
               1
 98
        1
 10
0.0
 20
0.0
  0
CIRCLE
  5
9F
102
{ACAD_REACTORS
330
A0
102
}
100
AcDbEntity
  8
0
370
              -2
390
0
  6
Continuous
 62
               0
100
AcDbCircle
 10
-729.39118932298106
 20
270.73648589726662
 30
0.0
 40
1.9998779296875
  0
HATCH
  5
A0
100
AcDbEntity
  8
0
370
              -2
390
0
  6
Continuous
 62
               0
100
AcDbHatch
 10
0.0
 20
0.0
 30
0.0
210
0.0
220
0.0
230
1.0
  2
SOLID
 70
               1
 71
               1
 91
        1
 92
        1
 93
        1
 72
               2
 10
-729.39118932298106
 20
270.73648589726662
 40
1.9998779296875
 50
0.0
 51
360.0
 73
               0
 97
        1
330
9F
 75
               0
 76
               1
 98
        1
 10
0.0
 20
0.0
  0
MTEXT
  5
A1
100
AcDbEntity
  8
0
390
0
 62
               0
100
AcDbMText
 10
-508.20369100515677
 20
304.61410308476661
 30
0.0
 40
24.432617187500004
 41
0.0
 71
               1
 72
               1
  1
490
  7
ＭＳ ゴシック
 73
               1
 44
0.7828267384257843
  0
POINT
  5
A2
100
AcDbEntity
  8
Defpoints
370
               0
390
0
 62
               0
100
AcDbPoint
 10
-729.39118932298106
 20
373.90871211898508
 30
0.0
  0
POINT
  5
A3
100
AcDbEntity
  8
Defpoints
370
               0
390
0
 62
               0
100
AcDbPoint
 10
-239.39118932298146
 20
373.90871211898508
 30
0.0
  0
POINT
  5
A4
100
AcDbEntity
  8
Defpoints
370
               0
390
0
 62
               0
100
AcDbPoint
 10
-239.39118932298146
 20
270.73648589726662
 30
0.0
  0
ENDBLK
  5
A5
100
AcDbEntity
  8
notes
390
0
100
AcDbBlockEnd
  0
BLOCK
  5
A6
100
AcDbEntity
  8
notes
390
0
100
AcDbBlockBegin
  2
*D9
 70
               1
 10
0.0
 20
0.0
 30
0.0
  3
*D9
  1

  0
LINE
  5
A7
100
AcDbEntity
  8
0
370
              -2
390
0
  6
Continuous
 62
               0
100
AcDbLine
 10
-769.33843354243197
 20
393.23648589726662
 30
0.0
 11
-849.39118932298106
 21
393.23648589726662
 31
0.0
  0
LINE
  5
A8
100
AcDbEntity
  8
0
370
              -2
390
0
  6
Continuous
 62
               0
100
AcDbLine
 10
-769.33843354243197
 20
748.23648589726656
 30
0.0
 11
-849.39118932298106
 21
748.23648589726656
 31
0.0
  0
LINE
  5
A9
100
AcDbEntity
  8
0
370
              -2
390
0
  6
Continuous
 62
               0
100
AcDbLine
 10
-849.39118932298106
 20
393.23648589726662
 30
0.0
 11
-849.39118932298106
 21
748.23648589726656
 31
0.0
  0
CIRCLE
  5
AA
102
{ACAD_REACTORS
330
AB
102
}
100
AcDbEntity
  8
0
370
              -2
390
0
  6
Continuous
 62
               0
100
AcDbCircle
 10
-849.39118932298106
 20
393.23648589726662
 30
0.0
 40
1.9998779296875
  0
HATCH
  5
AB
100
AcDbEntity
  8
0
370
              -2
390
0
  6
Continuous
 62
               0
100
AcDbHatch
 10
0.0
 20
0.0
 30
0.0
210
0.0
220
0.0
230
1.0
  2
SOLID
 70
               1
 71
               1
 91
        1
 92
        1
 93
        1
 72
               2
 10
-849.39118932298106
 20
393.23648589726662
 40
1.9998779296875
 50
0.0
 51
360.0
 73
               0
 97
        1
330
AA
 75
               0
 76
               1
 98
        1
 10
0.0
 20
0.0
  0
CIRCLE
  5
AC
102
{ACAD_REACTORS
330
AD
102
}
100
AcDbEntity
  8
0
370
              -2
390
0
  6
Continuous
 62
               0
100
AcDbCircle
 10
-849.39118932298106
 20
748.23648589726656
 30
0.0
 40
1.9998779296875
  0
HATCH
  5
AD
100
AcDbEntity
  8
0
370
              -2
390
0
  6
Continuous
 62
               0
100
AcDbHatch
 10
0.0
 20
0.0
 30
0.0
210
0.0
220
0.0
230
1.0
  2
SOLID
 70
               1
 71
               1
 91
        1
 92
        1
 93
        1
 72
               2
 10
-849.39118932298106
 20
748.23648589726656
 40
1.9998779296875
 50
0.0
 51
360.0
 73
               0
 97
        1
330
AC
 75
               0
 76
               1
 98
        1
 10
0.0
 20
0.0
  0
MTEXT
  5
AE
100
AcDbEntity
  8
0
390
0
 62
               0
100
AcDbMText
 10
-883.26880651048111
 20
546.92398421509108
 30
0.0
 40
24.432617187500004
 41
0.0
 71
               1
 72
               1
  1
355
  7
ＭＳ ゴシック
 11
0.0
 21
1.0
 31
0.0
 73
               1
 44
0.7828267384257843
  0
POINT
  5
AF
100
AcDbEntity
  8
Defpoints
370
               0
390
0
 62
               0
100
AcDbPoint
 10
-744.33843354243197
 20
748.23648589726656
 30
0.0
  0
POINT
  5
B0
100
AcDbEntity
  8
Defpoints
370
               0
390
0
 62
               0
100
AcDbPoint
 10
-744.33843354243197
 20
393.23648589726662
 30
0.0
  0
POINT
  5
B1
100
AcDbEntity
  8
Defpoints
370
               0
390
0
 62
               0
100
AcDbPoint
 10
-849.39118932298106
 20
393.23648589726662
 30
0.0
  0
ENDBLK
  5
B2
100
AcDbEntity
  8
notes
390
0
100
AcDbBlockEnd
  0
BLOCK
  5
B3
100
AcDbEntity
  8
notes
390
0
100
AcDbBlockBegin
  2
*D10
 70
               1
 10
0.0
 20
0.0
 30
0.0
  3
*D10
  1

  0
LINE
  5
B4
100
AcDbEntity
  8
0
370
              -2
390
0
  6
Continuous
 62
               0
100
AcDbLine
 10
-204.84341199606681
 20
-445.18571198628547
 30
0.0
 11
-119.39118932298146
 21
-445.18571198628547
 31
0.0
  0
LINE
  5
B5
100
AcDbEntity
  8
0
370
              -2
390
0
  6
Continuous
 62
               0
100
AcDbLine
 10
-421.76508491646598
 20
-625.18571198628547
 30
0.0
 11
-119.39118932298143
 21
-625.18571198628547
 31
0.0
  0
LINE
  5
B6
100
AcDbEntity
  8
0
370
              -2
390
0
  6
Continuous
 62
               0
100
AcDbLine
 10
-119.39118932298146
 20
-445.18571198628547
 30
0.0
 11
-119.39118932298143
 21
-625.18571198628547
 31
0.0
  0
CIRCLE
  5
B7
102
{ACAD_REACTORS
330
B8
102
}
100
AcDbEntity
  8
0
370
              -2
390
0
  6
Continuous
 62
               0
100
AcDbCircle
 10
-119.39118932298146
 20
-445.18571198628547
 30
0.0
 40
1.9998779296875
  0
HATCH
  5
B8
100
AcDbEntity
  8
0
370
              -2
390
0
  6
Continuous
 62
               0
100
AcDbHatch
 10
0.0
 20
0.0
 30
0.0
210
0.0
220
0.0
230
1.0
  2
SOLID
 70
               1
 71
               1
 91
        1
 92
        1
 93
        1
 72
               2
 10
-119.39118932298146
 20
-445.18571198628547
 40
1.9998779296875
 50
0.0
 51
360.0
 73
               0
 97
        1
330
B7
 75
               0
 76
               1
 98
        1
 10
0.0
 20
0.0
  0
CIRCLE
  5
B9
102
{ACAD_REACTORS
330
BA
102
}
100
AcDbEntity
  8
0
370
              -2
390
0
  6
Continuous
 62
               0
100
AcDbCircle
 10
-119.39118932298143
 20
-625.18571198628547
 30
0.0
 40
1.9998779296875
  0
HATCH
  5
BA
100
AcDbEntity
  8
0
370
              -2
390
0
  6
Continuous
 62
               0
100
AcDbHatch
 10
0.0
 20
0.0
 30
0.0
210
0.0
220
0.0
230
1.0
  2
SOLID
 70
               1
 71
               1
 91
        1
 92
        1
 93
        1
 72
               2
 10
-119.39118932298143
 20
-625.18571198628547
 40
1.9998779296875
 50
0.0
 51
360.0
 73
               0
 97
        1
330
B9
 75
               0
 76
               1
 98
        1
 10
0.0
 20
0.0
  0
MTEXT
  5
BB
100
AcDbEntity
  8
0
390
0
 62
               0
100
AcDbMText
 10
-153.26880651048143
 20
-558.99821366846095
 30
0.0
 40
24.432617187500004
 41
0.0
 71
               1
 72
               1
  1
180
  7
ＭＳ ゴシック
 11
0.0
 21
1.0
 31
0.0
 73
               1
 44
0.7828267384257843
  0
POINT
  5
BC
100
AcDbEntity
  8
Defpoints
370
               0
390
0
 62
               0
100
AcDbPoint
 10
-446.76508491646598
 20
-625.18571198628547
 30
0.0
  0
POINT
  5
BD
100
AcDbEntity
  8
Defpoints
370
               0
390
0
 62
               0
100
AcDbPoint
 10
-229.84341199606681
 20
-445.18571198628547
 30
0.0
  0
POINT
  5
BE
100
AcDbEntity
  8
Defpoints
370
               0
390
0
 62
               0
100
AcDbPoint
 10
-119.39118932298146
 20
-445.18571198628547
 30
0.0
  0
ENDBLK
  5
BF
100
AcDbEntity
  8
notes
390
0
100
AcDbBlockEnd
  0
BLOCK
  5
C0
100
AcDbEntity
  8
notes
390
0
100
AcDbBlockBegin
  2
*D11
 70
               1
 10
0.0
 20
0.0
 30
0.0
  3
*D11
  1

  0
LINE
  5
C1
100
AcDbEntity
  8
0
370
              -2
390
0
  6
Continuous
 62
               0
100
AcDbLine
 10
655.61202843564161
 20
-445.1867119862855
 30
0.0
 11
730.61202843564161
 21
-445.1867119862855
 31
0.0
  0
LINE
  5
C2
100
AcDbEntity
  8
0
370
              -2
390
0
  6
Continuous
 62
               0
100
AcDbLine
 10
650.49833331481864
 20
-480.1867119862855
 30
0.0
 11
730.61202843564161
 21
-480.1867119862855
 31
0.0
  0
LINE
  5
C3
100
AcDbEntity
  8
0
370
              -2
390
0
  6
Continuous
 62
               0
100
AcDbLine
 10
730.61202843564161
 20
-445.1867119862855
 30
0.0
 11
730.61202843564161
 21
-403.25
 31
0.0
  0
LINE
  5
C4
100
AcDbEntity
  8
0
370
              -2
390
0
  6
Continuous
 62
               0
100
AcDbLine
 10
730.61202843564161
 20
-445.1867119862855
 30
0.0
 11
730.61202843564161
 21
-480.1867119862855
 31
0.0
  0
CIRCLE
  5
C5
102
{ACAD_REACTORS
330
C6
102
}
100
AcDbEntity
  8
0
370
              -2
390
0
  6
Continuous
 62
               0
100
AcDbCircle
 10
730.61202843564161
 20
-445.1867119862855
 30
0.0
 40
1.9998779296875
  0
HATCH
  5
C6
100
AcDbEntity
  8
0
370
              -2
390
0
  6
Continuous
 62
               0
100
AcDbHatch
 10
0.0
 20
0.0
 30
0.0
210
0.0
220
0.0
230
1.0
  2
SOLID
 70
               1
 71
               1
 91
        1
 92
        1
 93
        1
 72
               2
 10
730.61202843564161
 20
-445.1867119862855
 40
1.9998779296875
 50
0.0
 51
360.0
 73
               0
 97
        1
330
C5
 75
               0
 76
               1
 98
        1
 10
0.0
 20
0.0
  0
CIRCLE
  5
C7
102
{ACAD_REACTORS
330
C8
102
}
100
AcDbEntity
  8
0
370
              -2
390
0
  6
Continuous
 62
               0
100
AcDbCircle
 10
730.61202843564161
 20
-480.1867119862855
 30
0.0
 40
1.9998779296875
  0
HATCH
  5
C8
100
AcDbEntity
  8
0
370
              -2
390
0
  6
Continuous
 62
               0
100
AcDbHatch
 10
0.0
 20
0.0
 30
0.0
210
0.0
220
0.0
230
1.0
  2
SOLID
 70
               1
 71
               1
 91
        1
 92
        1
 93
        1
 72
               2
 10
730.61202843564161
 20
-480.1867119862855
 40
1.9998779296875
 50
0.0
 51
360.0
 73
               0
 97
        1
330
C7
 75
               0
 76
               1
 98
        1
 10
0.0
 20
0.0
  0
MTEXT
  5
C9
100
AcDbEntity
  8
0
390
0
 62
               0
100
AcDbMText
 10
696.73441124814156
 20
-435.0
 30
0.0
 40
24.432617187500004
 41
0.0
 71
               1
 72
               1
  1
35
  7
ＭＳ ゴシック
 11
0.0
 21
1.0
 31
0.0
 73
               1
 44
0.7828267384257843
  0
POINT
  5
CA
100
AcDbEntity
  8
Defpoints
370
               0
390
0
 62
               0
100
AcDbPoint
 10
625.49833331481864
 20
-480.1867119862855
 30
0.0
  0
POINT
  5
CB
100
AcDbEntity
  8
Defpoints
370
               0
390
0
 62
               0
100
AcDbPoint
 10
630.61202843564161
 20
-445.1867119862855
 30
0.0
  0
POINT
  5
CC
100
AcDbEntity
  8
Defpoints
370
               0
390
0
 62
               0
100
AcDbPoint
 10
730.61202843564161
 20
-445.1867119862855
 30
0.0
  0
ENDBLK
  5
CD
100
AcDbEntity
  8
notes
390
0
100
AcDbBlockEnd
  0
BLOCK
  5
CE
100
AcDbEntity
  8
notes
390
0
100
AcDbBlockBegin
  2
*D12
 70
               1
 10
0.0
 20
0.0
 30
0.0
  3
*D12
  1

  0
LINE
  5
CF
100
AcDbEntity
  8
0
370
              -2
390
0
  6
Continuous
 62
               0
100
AcDbLine
 10
650.61202843564161
 20
-480.1867119862855
 30
0.0
 11
730.61202843564161
 21
-480.1867119862855
 31
0.0
  0
LINE
  5
D0
100
AcDbEntity
  8
0
370
              -2
390
0
  6
Continuous
 62
               0
100
AcDbLine
 10
498.11302843563806
 20
-625.18671198628556
 30
0.0
 11
730.61202843564161
 21
-625.18671198628556
 31
0.0
  0
LINE
  5
D1
100
AcDbEntity
  8
0
370
              -2
390
0
  6
Continuous
 62
               0
100
AcDbLine
 10
730.61202843564161
 20
-480.1867119862855
 30
0.0
 11
730.61202843564161
 21
-625.18671198628556
 31
0.0
  0
CIRCLE
  5
D2
102
{ACAD_REACTORS
330
D3
102
}
100
AcDbEntity
  8
0
370
              -2
390
0
  6
Continuous
 62
               0
100
AcDbCircle
 10
730.61202843564161
 20
-480.1867119862855
 30
0.0
 40
1.9998779296875
  0
HATCH
  5
D3
100
AcDbEntity
  8
0
370
              -2
390
0
  6
Continuous
 62
               0
100
AcDbHatch
 10
0.0
 20
0.0
 30
0.0
210
0.0
220
0.0
230
1.0
  2
SOLID
 70
               1
 71
               1
 91
        1
 92
        1
 93
        1
 72
               2
 10
730.61202843564161
 20
-480.1867119862855
 40
1.9998779296875
 50
0.0
 51
360.0
 73
               0
 97
        1
330
D2
 75
               0
 76
               1
 98
        1
 10
0.0
 20
0.0
  0
CIRCLE
  5
D4
102
{ACAD_REACTORS
330
D5
102
}
100
AcDbEntity
  8
0
370
              -2
390
0
  6
Continuous
 62
               0
100
AcDbCircle
 10
730.61202843564161
 20
-625.18671198628556
 30
0.0
 40
1.9998779296875
  0
HATCH
  5
D5
100
AcDbEntity
  8
0
370
              -2
390
0
  6
Continuous
 62
               0
100
AcDbHatch
 10
0.0
 20
0.0
 30
0.0
210
0.0
220
0.0
230
1.0
  2
SOLID
 70
               1
 71
               1
 91
        1
 92
        1
 93
        1
 72
               2
 10
730.61202843564161
 20
-625.18671198628556
 40
1.9998779296875
 50
0.0
 51
360.0
 73
               0
 97
        1
330
D4
 75
               0
 76
               1
 98
        1
 10
0.0
 20
0.0
  0
MTEXT
  5
D6
100
AcDbEntity
  8
0
390
0
 62
               0
100
AcDbMText
 10
696.73441124814156
 20
-576.49921366846104
 30
0.0
 40
24.432617187500004
 41
0.0
 71
               1
 72
               1
  1
145
  7
ＭＳ ゴシック
 11
0.0
 21
1.0
 31
0.0
 73
               1
 44
0.7828267384257843
  0
POINT
  5
D7
100
AcDbEntity
  8
Defpoints
370
               0
390
0
 62
               0
100
AcDbPoint
 10
473.11302843563806
 20
-625.18671198628556
 30
0.0
  0
POINT
  5
D8
100
AcDbEntity
  8
Defpoints
370
               0
390
0
 62
               0
100
AcDbPoint
 10
625.61202843564161
 20
-480.1867119862855
 30
0.0
  0
POINT
  5
D9
100
AcDbEntity
  8
Defpoints
370
               0
390
0
 62
               0
100
AcDbPoint
 10
730.61202843564161
 20
-480.1867119862855
 30
0.0
  0
ENDBLK
  5
DA
100
AcDbEntity
  8
notes
390
0
100
AcDbBlockEnd
  0
BLOCK
  5
DB
100
AcDbEntity
  8
notes
390
0
100
AcDbBlockBegin
  2
*D13
 70
               1
 10
0.0
 20
0.0
 30
0.0
  3
*D13
  1

  0
LINE
  5
DC
100
AcDbEntity
  8
0
370
              -2
390
0
  6
Continuous
 62
               0
100
AcDbLine
 10
421.15658800393282
 20
-575.18671198628556
 30
0.0
 11
424.15658800393282
 21
-575.18671198628556
 31
0.0
  0
LINE
  5
DD
100
AcDbEntity
  8
0
370
              -2
390
0
  6
Continuous
 62
               0
100
AcDbLine
 10
421.15658800393282
 20
-445.1867119862855
 30
0.0
 11
424.15658800393282
 21
-445.1867119862855
 31
0.0
  0
LINE
  5
DE
100
AcDbEntity
  8
0
370
              -2
390
0
  6
Continuous
 62
               0
100
AcDbLine
 10
424.15658800393282
 20
-445.1867119862855
 30
0.0
 11
424.15658800393282
 21
-259.12599999999998
 31
0.0
  0
LINE
  5
DF
100
AcDbEntity
  8
0
370
              -2
390
0
  6
Continuous
 62
               0
100
AcDbLine
 10
424.15658800393282
 20
-575.18671198628556
 30
0.0
 11
424.15658800393282
 21
-445.1867119862855
 31
0.0
  0
CIRCLE
  5
E0
102
{ACAD_REACTORS
330
E1
102
}
100
AcDbEntity
  8
0
370
              -2
390
0
  6
Continuous
 62
               0
100
AcDbCircle
 10
424.15658800393282
 20
-575.18671198628556
 30
0.0
 40
1.9998779296875
  0
HATCH
  5
E1
100
AcDbEntity
  8
0
370
              -2
390
0
  6
Continuous
 62
               0
100
AcDbHatch
 10
0.0
 20
0.0
 30
0.0
210
0.0
220
0.0
230
1.0
  2
SOLID
 70
               1
 71
               1
 91
        1
 92
        1
 93
        1
 72
               2
 10
424.15658800393282
 20
-575.18671198628556
 40
1.9998779296875
 50
0.0
 51
360.0
 73
               0
 97
        1
330
E0
 75
               0
 76
               1
 98
        1
 10
0.0
 20
0.0
  0
CIRCLE
  5
E2
102
{ACAD_REACTORS
330
E3
102
}
100
AcDbEntity
  8
0
370
              -2
390
0
  6
Continuous
 62
               0
100
AcDbCircle
 10
424.15658800393282
 20
-445.1867119862855
 30
0.0
 40
1.9998779296875
  0
HATCH
  5
E3
100
AcDbEntity
  8
0
370
              -2
390
0
  6
Continuous
 62
               0
100
AcDbHatch
 10
0.0
 20
0.0
 30
0.0
210
0.0
220
0.0
230
1.0
  2
SOLID
 70
               1
 71
               1
 91
        1
 92
        1
 93
        1
 72
               2
 10
424.15658800393282
 20
-445.1867119862855
 40
1.9998779296875
 50
0.0
 51
360.0
 73
               0
 97
        1
330
E2
 75
               0
 76
               1
 98
        1
 10
0.0
 20
0.0
  0
MTEXT
  5
E4
100
AcDbEntity
  8
0
390
0
 62
               0
100
AcDbMText
 10
390.27897081643277
 20
-402.00099999999998
 30
0.0
 40
24.432617187500004
 41
0.0
 71
               1
 72
               1
  1
130(深さ)
  7
ＭＳ ゴシック
 11
0.0
 21
1.0
 31
0.0
 73
               1
 44
0.7828267384257843
  0
POINT
  5
E5
100
AcDbEntity
  8
Defpoints
370
               0
390
0
 62
               0
100
AcDbPoint
 10
446.15658800393282
 20
-445.1867119862855
 30
0.0
  0
POINT
  5
E6
100
AcDbEntity
  8
Defpoints
370
               0
390
0
 62
               0
100
AcDbPoint
 10
446.15658800393282
 20
-575.18671198628556
 30
0.0
  0
POINT
  5
E7
100
AcDbEntity
  8
Defpoints
370
               0
390
0
 62
               0
100
AcDbPoint
 10
424.15658800393282
 20
-575.18671198628556
 30
0.0
  0
ENDBLK
  5
E8
100
AcDbEntity
  8
notes
390
0
100
AcDbBlockEnd
  0
ENDSEC
  0
SECTION
  2
ENTITIES
  0
MTEXT
  5
E9
100
AcDbEntity
  8
template
390
0
 62
               7
100
AcDbMText
 10
-967.99999999975921
 20
-1147.4176292337004
 30
0.0
 40
16.288411458333332
 41
0.0
 71
               1
 72
               1
  1
品名
  7
ＭＳ ゴシック
 73
               1
 44
0.7828267384257843
  0
MTEXT
  5
EA
100
AcDbEntity
  8
template
390
0
 62
               7
100
AcDbMText
 10
-967.99999999975921
 20
-1232.4176292337004
 30
0.0
 40
16.288411458333332
 41
0.0
 71
               1
 72
               1
  1
仕様
  7
ＭＳ ゴシック
 73
               1
 44
0.7828267384257843
  0
LINE
  5
EB
100
AcDbEntity
  8
template
370
               5
390
0
  6
Continuous
 62
               7
100
AcDbLine
 10
974.99999999975876
 20
-1224.0027073587005
 30
0.0
 11
-975.00000000024124
 21
-1224.0027073587005
 31
0.0
  0
LWPOLYLINE
  5
EC
100
AcDbEntity
  8
template
370
               5
390
0
  6
Continuous
 62
               7
100
AcDbPolyline
 90
        5
 70
             128
 10
975.00000000024124
 20
1405.9972926412995
 10
-974.99999999975921
 20
1405.9972926412995
 10
-974.99999999975921
 20
-1394.0027073587005
 10
975.00000000024124
 20
-1394.0027073587005
 10
975.00000000024124
 20
1405.9972926412995
  0
LINE
  5
ED
100
AcDbEntity
  8
template
370
               5
390
0
  6
Continuous
 62
               7
100
AcDbLine
 10
974.99999999975876
 20
-1139.0027073587005
 30
0.0
 11
-975.00000000024124
 21
-1139.0027073587005
 31
0.0
  0
LINE
  5
EE
100
AcDbEntity
  8
template
370
               5
390
0
  6
Continuous
 62
               7
100
AcDbLine
 10
975.00000000024124
 20
-1309.0027073587005
 30
0.0
 11
222.00000000024124
 21
-1309.0027073587005
 31
0.0
  0
MTEXT
  5
EF
100
AcDbEntity
  8
template
390
0
 62
               7
100
AcDbMText
 10
251.87140625250089
 20
-1338.9131018320081
 30
0.0
 40
24.432617187500004
 41
0.0
 71
               1
 72
               1
  1
大洋金物株式会社 ティーフォルム事業部
  7
ＭＳ ゴシック
 73
               1
 44
0.7828267384257843
  0
INSERT
  5
F0
100
AcDbEntity
  8
template
390
0
 62
               7
100
AcDbBlockReference
  2
グループ
 10
0.0000000000002558
 20
-4.9999999999967741
 30
0.0
  0
MTEXT
  5
F1
100
AcDbEntity
  8
template
390
0
 62
               7
100
AcDbMText
 10
784.00000000049999
 20
-1261.0000901712006
 30
0.0
 40
24.432617187500004
 41
0.0
 71
               1
 72
               1
  1
1:10
  7
ＭＳ ゴシック
 73
               1
 44
0.7828267384257843
  0
MTEXT
  5
F2
100
AcDbEntity
  8
template
390
0
 62
               7
100
AcDbMText
 10
731.00000000049999
 20
-1232.4176292337004
 30
0.0
 40
16.288411458333332
 41
0.0
 71
               1
 72
               1
  1
縮尺
  7
ＭＳ ゴシック
 73
               1
 44
0.7828267384257843
  0
LINE
  5
F3
100
AcDbEntity
  8
template
370
               5
390
0
  6
Continuous
 62
               7
100
AcDbLine
 10
724.00000000049999
 20
-1309.0027073587005
 30
0.0
 11
724.00000000049999
 21
-1224.0027073587005
 31
0.0
  0
MTEXT
  5
F4
100
AcDbEntity
  8
template
390
0
 62
               7
100
AcDbMText
 10
480.00000000049999
 20
-1232.4176292337004
 30
0.0
 40
16.288411458333332
 41
0.0
 71
               1
 72
               1
  1
容量
  7
ＭＳ ゴシック
 73
               1
 44
0.7828267384257843
  0
MTEXT
  5
F5
100
AcDbEntity
  8
template
390
0
 62
               7
100
AcDbMText
 10
533.00000000049999
 20
-1261.0000901712006
 30
0.0
 40
24.432617187500004
 41
0.0
 71
               1
 72
               1
  1
4.8L
  7
ＭＳ ゴシック
 73
               1
 44
0.7828267384257843
  0
LINE
  5
F6
100
AcDbEntity
  8
template
370
               5
390
0
  6
Continuous
 62
               7
100
AcDbLine
 10
473.00000000049999
 20
-1309.0027073587005
 30
0.0
 11
473.00000000049999
 21
-1224.0027073587005
 31
0.0
  0
MTEXT
  5
F7
100
AcDbEntity
  8
template
390
0
 62
               7
100
AcDbMText
 10
229.00000000049999
 20
-1147.4176292337004
 30
0.0
 40
16.288411458333332
 41
0.0
 71
               1
 72
               1
  1
品番
  7
ＭＳ ゴシック
 73
               1
 44
0.7828267384257843
  0
MTEXT
  5
F8
100
AcDbEntity
  8
template
390
0
 62
               7
100
AcDbMText
 10
229.00000000049999
 20
-1232.4176292337004
 30
0.0
 40
16.288411458333332
 41
0.0
 71
               1
 72
               1
  1
重量
  7
ＭＳ ゴシック
 73
               1
 44
0.7828267384257843
  0
MTEXT
  5
F9
100
AcDbEntity
  8
template
390
0
 62
               7
100
AcDbMText
 10
282.00000000049999
 20
-1175.6108766676493
 30
0.0
 40
21.121949648658905
 41
0.0
 71
               1
 72
               1
  1
FAA70-2218
  7
ＭＳ ゴシック
 73
               1
 44
0.7828267384257843
  0
MTEXT
  5
FA
100
AcDbEntity
  8
template
390
0
 62
               7
100
AcDbMText
 10
282.00000000049999
 20
-1261.0000901712006
 30
0.0
 40
24.432617187500004
 41
0.0
 71
               1
 72
               1
  1
7.8kg
  7
ＭＳ ゴシック
 73
               1
 44
0.7828267384257843
  0
LINE
  5
FB
100
AcDbEntity
  8
template
370
               5
390
0
  6
Continuous
 62
               7
100
AcDbLine
 10
222.00000000049999
 20
-1394.0027073587005
 30
0.0
 11
222.00000000049999
 21
-1139.0027073587005
 31
0.0
  0
MTEXT
  5
FC
100
AcDbEntity
  8
template
390
0
 62
               7
100
AcDbMText
 10
-914.99999999975932
 20
-1261.0000901712006
 30
0.0
 40
24.432617187500004
 41
0.0
 71
               1
 72
               1
  1
アンダーカウンター/オーバーフロー付き/カウンター固定金具,型 紙付属/\P陶器/ホワイト
  7
ＭＳ ゴシック
 73
               1
 44
1.1307497332816883
  0
MTEXT
  5
FD
100
AcDbEntity
  8
template
390
0
 62
               7
100
AcDbMText
 10
-974.99999999955605
 20
-1405.8565294155574
 30
0.0
 40
21.717881944444446
 41
0.0
 71
               1
 72
               1
  1
100709SH
  7
ＭＳ ゴシック
 73
               1
 44
0.7828267384257843
  0
MTEXT
  5
FE
100
AcDbEntity
  8
template
390
0
 62
               7
100
AcDbMText
 10
-914.9999999997591
 20
-1176.0000901712006
 30
0.0
 40
24.432617187500004
 41
0.0
 71
               1
 72
               1
  1
手洗器 -DURAVIT,Philippe Starck E3-
  7
ＭＳ ゴシック
 73
               1
 44
0.7828267384257843
  0
MTEXT
  5
FF
100
AcDbEntity
  8
notes
390
0
 62
               7
100
AcDbMText
 10
73.064691335388972
 20
118.46736567479175
 30
0.0
 40
24.432617187500004
 41
790.0
 71
               1
 72
               1
  1
※陶器製品には寸法公差があります。\P  洗面器の収め方をご確認の上、必ず現物を合わせて\P  カウンターの切込を行ってください。
  7
ＭＳ ゴシック
 73
               1
 44
1.0437689845677123
  0
MTEXT
  5
100
100
AcDbEntity
  8
notes
390
0
 62
               7
100
AcDbMText
 10
272.40658800393282
 20
993.50589549928191
 30
0.0
 40
24.432617187500004
 41
0.0
 71
               1
 72
               1
  1
カウンター切込寸法
  7
ＭＳ ゴシック
 73
               1
 44
0.7828267384257843
  0
DIMENSION
  5
101
100
AcDbEntity
  8
notes
370
               5
390
0
  6
Continuous
 62
               7
100
AcDbDimension
  2
*D3
 10
435.61202843563774
 20
-725.18671198628556
 30
0.0
 11
333.11202843563933
 21
-725.18671198628556
 31
0.0
 71
               5
 72
               1
 41
1.0
 42
0.0
  3
tfrom線あり
100
AcDbAlignedDimension
 13
230.61202843564095
 23
-475.1867119862855
 33
0.0
 14
435.61202843563774
 24
-625.18671198628556
 34
0.0
100
AcDbRotatedDimension
1001
ACAD
1000
DSTYLE
1002
{
1070
             279
1070
               2
1070
             340
1005
2F
1070
             147
1040
5.0
1002
}
  0
DIMENSION
  5
102
100
AcDbEntity
  8
notes
370
               5
390
0
  6
Continuous
 62
               7
100
AcDbDimension
  2
*D4
 10
795.61202843564161
 20
745.70000000000005
 30
0.0
 11
795.61202843564161
 21
570.70000000000005
 31
0.0
 71
               5
 72
               1
 41
1.0
 42
0.0
  3
tfrom線あり
100
AcDbAlignedDimension
 13
696.88169521610303
 23
395.7000000000001
 33
0.0
 14
696.88169521610303
 24
745.70000000000005
 34
0.0
 50
90.0
100
AcDbRotatedDimension
1001
ACAD
1000
DSTYLE
1002
{
1070
             279
1070
               2
1070
             340
1005
2F
1070
             147
1040
5.0
1002
}
  0
DIMENSION
  5
103
100
AcDbEntity
  8
notes
370
               5
390
0
  6
Continuous
 62
               7
100
AcDbDimension
  2
*D5
 10
670.65658800393362
 20
270.73648589726662
 30
0.0
 11
434.15658800393339
 21
275.73648589726662
 31
0.0
 70
             128
 71
               5
 72
               1
 41
1.0
 42
0.0
  3
tfrom線あり
100
AcDbAlignedDimension
 13
190.65658800393322
 23
371.18889652738824
 33
0.0
 14
670.65658800393362
 24
371.18889652738824
 34
0.0
100
AcDbRotatedDimension
1001
ACAD
1000
DSTYLE
1002
{
1070
             279
1070
               2
1070
             340
1005
2F
1070
             147
1040
5.0
1002
}
  0
DIMENSION
  5
104
100
AcDbEntity
  8
notes
370
               5
390
0
  6
Continuous
 62
               7
100
AcDbDimension
  2
*D6
 10
-219.39118932298146
 20
870.73648589726656
 30
0.0
 11
-484.39118932298129
 21
870.73648589726656
 31
0.0
 71
               5
 72
               1
 41
1.0
 42
0.0
  3
tfrom線あり
100
AcDbAlignedDimension
 13
-749.39118932298106
 23
740.73648589726656
 33
0.0
 14
-219.39118932298146
 24
740.73648589726656
 34
0.0
100
AcDbRotatedDimension
1001
ACAD
1000
DSTYLE
1002
{
1070
             279
1070
               2
1070
             340
1005
2F
1070
             147
1040
5.0
1002
}
  0
DIMENSION
  5
105
100
AcDbEntity
  8
notes
370
               5
390
0
  6
Continuous
 62
               7
100
AcDbDimension
  2
*D7
 10
-119.39118932298146
 20
770.73648589726656
 30
0.0
 11
-119.39118932298146
 21
570.73648589726656
 31
0.0
 71
               5
 72
               1
 41
1.0
 42
0.0
  3
tfrom線あり
100
AcDbAlignedDimension
 13
-249.39118932298146
 23
370.73648589726662
 33
0.0
 14
-249.39118932298146
 24
770.73648589726656
 34
0.0
 50
90.0
100
AcDbRotatedDimension
1001
ACAD
1000
DSTYLE
1002
{
1070
             279
1070
               2
1070
             340
1005
2F
1070
             147
1040
5.0
1002
}
  0
DIMENSION
  5
106
100
AcDbEntity
  8
notes
370
               5
390
0
  6
Continuous
 62
               7
100
AcDbDimension
  2
*D8
 10
-239.39118932298146
 20
270.73648589726662
 30
0.0
 11
-484.39118932298129
 21
270.73648589726662
 31
0.0
 71
               5
 72
               1
 41
1.0
 42
0.0
  3
tfrom線あり
100
AcDbAlignedDimension
 13
-729.39118932298106
 23
373.90871211898508
 33
0.0
 14
-239.39118932298146
 24
373.90871211898508
 34
0.0
100
AcDbRotatedDimension
1001
ACAD
1000
DSTYLE
1002
{
1070
             279
1070
               2
1070
             340
1005
2F
1070
             147
1040
5.0
1002
}
  0
DIMENSION
  5
107
100
AcDbEntity
  8
notes
370
               5
390
0
  6
Continuous
 62
               7
100
AcDbDimension
  2
*D9
 10
-849.39118932298106
 20
393.23648589726662
 30
0.0
 11
-849.39118932298106
 21
570.73648589726656
 31
0.0
 71
               5
 72
               1
 41
1.0
 42
0.0
  3
tfrom線あり
100
AcDbAlignedDimension
 13
-744.33843354243197
 23
748.23648589726656
 33
0.0
 14
-744.33843354243197
 24
393.23648589726662
 34
0.0
 50
90.0
100
AcDbRotatedDimension
1001
ACAD
1000
DSTYLE
1002
{
1070
             279
1070
               2
1070
             340
1005
2F
1070
             147
1040
5.0
1002
}
  0
DIMENSION
  5
108
100
AcDbEntity
  8
notes
370
               5
390
0
  6
Continuous
 62
               7
100
AcDbDimension
  2
*D10
 10
-119.39118932298146
 20
-445.18571198628547
 30
0.0
 11
-119.39118932298146
 21
-535.18571198628547
 31
0.0
 71
               5
 72
               1
 41
1.0
 42
0.0
  3
tfrom線あり
100
AcDbAlignedDimension
 13
-446.76508491646598
 23
-625.18571198628547
 33
0.0
 14
-229.84341199606681
 24
-445.18571198628547
 34
0.0
 50
90.0
100
AcDbRotatedDimension
1001
ACAD
1000
DSTYLE
1002
{
1070
             279
1070
               2
1070
             340
1005
2F
1070
             147
1040
5.0
1002
}
  0
DIMENSION
  5
109
100
AcDbEntity
  8
notes
370
               5
390
0
  6
Continuous
 62
               7
100
AcDbDimension
  2
*D11
 10
730.61202843564161
 20
-445.1867119862855
 30
0.0
 11
735.61202843564161
 21
-435.0
 31
0.0
 70
             128
 71
               5
 72
               1
 41
1.0
 42
0.0
  3
tfrom線あり
100
AcDbAlignedDimension
 13
625.49833331481864
 23
-480.1867119862855
 33
0.0
 14
630.61202843564161
 24
-445.1867119862855
 34
0.0
 50
90.0
100
AcDbRotatedDimension
1001
ACAD
1000
DSTYLE
1002
{
1070
             279
1070
               2
1070
             340
1005
2F
1070
             174
1070
               0
1070
             147
1040
5.0
1002
}
  0
DIMENSION
  5
10A
100
AcDbEntity
  8
notes
370
               5
390
0
  6
Continuous
 62
               7
100
AcDbDimension
  2
*D12
 10
730.61202843564161
 20
-480.1867119862855
 30
0.0
 11
730.61202843564161
 21
-552.68671198628556
 31
0.0
 71
               5
 72
               1
 41
1.0
 42
0.0
  3
tfrom線あり
100
AcDbAlignedDimension
 13
473.11302843563806
 23
-625.18671198628556
 33
0.0
 14
625.61202843564161
 24
-480.1867119862855
 34
0.0
 50
90.0
100
AcDbRotatedDimension
1001
ACAD
1000
DSTYLE
1002
{
1070
             279
1070
               2
1070
             340
1005
2F
1070
             147
1040
5.0
1002
}
  0
DIMENSION
  5
10B
100
AcDbEntity
  8
notes
370
               5
390
0
  6
Continuous
 62
               7
100
AcDbDimension
  2
*D13
 10
424.15658800393282
 20
-575.18671198628556
 30
0.0
 11
419.15658800393282
 21
-402.00099999999998
 31
0.0
 70
             128
 71
               5
 72
               1
 41
1.0
 42
0.0
  3
tfrom線あり
100
AcDbAlignedDimension
 13
446.15658800393282
 23
-445.1867119862855
 33
0.0
 14
446.15658800393282
 24
-575.18671198628556
 34
0.0
 50
90.0
100
AcDbRotatedDimension
1001
ACAD
1000
DSTYLE
1002
{
1070
             279
1070
               2
1070
             340
1005
2F
1070
               3
1000
<>(深さ)
1070
             174
1070
               0
1070
             147
1040
5.0
1002
}
  0
CIRCLE
  5
10C
100
AcDbEntity
  8
FAA70-2218
370
              15
390
0
  6
Continuous
 62
               7
100
AcDbCircle
 10
-484.39118932298186
 20
565.73648589726656
 30
0.0
 40
37.5
  0
CIRCLE
  5
10D
100
AcDbEntity
  8
FAA70-2218
370
              15
390
0
  6
Continuous
 62
               7
100
AcDbCircle
 10
-484.39118932298186
 20
565.73648589726656
 30
0.0
 40
26.0
  0
LINE
  5
10E
100
AcDbEntity
  8
FAA70-2218
370
              15
390
0
  6
Continuous
 62
               7
100
AcDbLine
 10
-239.39118932298146
 20
400.73648589726662
 30
0.0
 11
-239.39118932298146
 21
740.73648589726656
 31
0.0
  0
LINE
  5
10F
100
AcDbEntity
  8
FAA70-2218
370
              15
390
0
  6
Continuous
 62
               7
100
AcDbLine
 10
-721.89118932298106
 20
748.23648589726656
 30
0.0
 11
-246.89118932298146
 21
748.23648589726656
 31
0.0
  0
LINE
  5
110
100
AcDbEntity
  8
FAA70-2218
370
              15
390
0
  6
Continuous
 62
               7
100
AcDbLine
 10
-729.39118932298106
 20
400.73648589726662
 30
0.0
 11
-729.39118932298106
 21
740.73648589726656
 31
0.0
  0
LINE
  5
111
100
AcDbEntity
  8
FAA70-2218
370
              15
390
0
  6
Continuous
 62
               7
100
AcDbLine
 10
-721.89118932298106
 20
393.23648589726662
 30
0.0
 11
-246.89118932298146
 21
393.23648589726662
 31
0.0
  0
LWPOLYLINE
  5
112
100
AcDbEntity
  8
FAA70-2218
370
              15
390
0
  6
Continuous
 62
               7
100
AcDbPolyline
 90
        8
 70
             129
 10
-219.39118932298146
 20
740.73648589726656
 42
0.4142135623730945
 10
-249.39118932298146
 20
770.73648589726656
 10
-719.39118932298106
 20
770.73648589726656
 42
0.414213562373095
 10
-749.39118932298106
 20
740.73648589726656
 10
-749.39118932298106
 20
400.73648589726662
 42
0.4142135623730961
 10
-719.39118932298106
 20
370.73648589726662
 10
-249.39118932298146
 20
370.73648589726662
 42
0.414213562373095
 10
-219.39118932298146
 20
400.73648589726662
  0
SPLINE
  5
113
100
AcDbEntity
  8
FAA70-2218
370
              15
390
0
  6
Continuous
 62
               7
100
AcDbSpline
210
0.0
220
0.0
230
1.0
 70
               9
 71
               2
 72
              34
 73
              31
 74
               0
 42
0.000001
 43
0.000001
 40
0.0
 40
0.0
 40
0.0
 40
1.0
 40
2.0
 40
3.0
 40
4.0
 40
5.0
 40
6.0
 40
6.0
 40
7.0
 40
8.0
 40
9.0
 40
10.0
 40
11.0
 40
12.0
 40
13.0
 40
13.0
 40
14.0
 40
15.0
 40
16.0
 40
17.0
 40
18.0
 40
19.0
 40
19.0
 40
20.0
 40
21.0
 40
22.0
 40
23.0
 40
24.0
 40
25.0
 40
26.0
 40
26.0
 40
26.0
 10
-498.98665534454278
 20
402.63088346458898
 30
0.0
 10
-498.96630671284731
 20
401.76020727919996
 30
0.0
 10
-498.18066868437973
 20
400.42566540443039
 30
0.0
 10
-497.08912248942784
 20
399.3744897632244
 30
0.0
 10
-495.57111075637579
 20
398.4126897960877
 30
0.0
 10
-492.58548229683674
 20
397.13235714464321
 30
0.0
 10
-487.39939620988343
 20
396.12687947631088
 30
0.0
 10
-484.39118932298186
 20
396.13451040447779
 30
0.0
 10
-481.38055653448623
 20
396.12455915537902
 30
0.0
 10
-477.27607480590245
 20
396.9289583749491
 30
0.0
 10
-475.10185291947982
 20
397.58530651225834
 30
0.0
 10
-473.21126788958804
 20
398.41268979608782
 30
0.0
 10
-471.69325615653588
 20
399.37448976322429
 30
0.0
 10
-470.60170996158411
 20
400.4256654044305
 30
0.0
 10
-469.8160719331164
 20
401.76020727919985
 30
0.0
 10
-469.79572330142094
 20
402.63088346458898
 30
0.0
 10
-469.8160719331164
 20
403.50155964997788
 30
0.0
 10
-470.60170996158411
 20
404.83610152474745
 30
0.0
 10
-471.69325615653599
 20
405.88727716595366
 30
0.0
 10
-473.21126788958793
 20
406.84907713309036
 30
0.0
 10
-476.19689634912697
 20
408.12940978453497
 30
0.0
 10
-481.3829824360804
 20
409.13488745286685
 30
0.0
 10
-484.39118932298186
 20
409.12725652470016
 30
0.0
 10
-487.4018221114776
 20
409.13720777379893
 30
0.0
 10
-491.50630384006126
 20
408.33280855422885
 30
0.0
 10
-493.68052572648401
 20
407.67646041691972
 30
0.0
 10
-495.57111075637579
 20
406.84907713309025
 30
0.0
 10
-497.08912248942784
 20
405.88727716595366
 30
0.0
 10
-498.18066868437961
 20
404.83610152474733
 30
0.0
 10
-498.96630671284731
 20
403.50155964997811
 30
0.0
 10
-498.98665534454278
 20
402.63088346458898
 30
0.0
  0
LINE
  5
114
100
AcDbEntity
  8
FAA70-2218
370
              15
390
0
  6
Continuous
 62
               7
100
AcDbLine
 10
457.35583557650796
 20
-616.6221652164536
 30
0.0
 11
457.35583557650796
 21
-596.8867119862856
 31
0.0
  0
LINE
  5
115
100
AcDbEntity
  8
FAA70-2218
370
              15
390
0
  6
STYLE_12
 62
               7
100
AcDbLine
 10
469.055835576508
 20
-585.18671198628556
 30
0.0
 11
500.475905029567
 21
-585.18671198628556
 31
0.0
  0
ARC
  5
116
100
AcDbEntity
  8
FAA70-2218
370
              15
390
0
  6
Continuous
 62
               7
100
AcDbCircle
 10
469.055835576508
 20
-596.8867119862856
 30
0.0
 40
11.700000000000045
100
AcDbArc
 50
90.0
 51
180.0
  0
CIRCLE
  5
117
100
AcDbEntity
  8
FAA70-2218
370
               5
390
0
  6
STYLE_12
 62
               7
100
AcDbCircle
 10
430.61202843564081
 20
565.73648589726656
 30
0.0
 40
26.000000000000057
  0
LWPOLYLINE
  5
118
100
AcDbEntity
  8
FAA70-2218
370
               5
390
0
  6
STYLE_12
 62
               7
100
AcDbPolyline
 90
        8
 70
             129
 10
695.61202843564161
 20
740.73648589726656
 42
0.414213562373095
 10
665.61202843564161
 20
770.73648589726656
 10
195.61202843564121
 20
770.73648589726656
 42
0.414213562373095
 10
165.61202843564121
 20
740.73648589726656
 10
165.61202843564121
 20
400.73648589726662
 42
0.414213562373095
 10
195.61202843564121
 20
370.73648589726662
 10
665.61202843564161
 20
370.73648589726662
 42
0.4142135623730939
 10
695.61202843564161
 20
400.73648589726662
  0
LINE
  5
119
100
AcDbEntity
  8
FAA70-2218
370
              15
390
0
  6
Continuous
 62
               7
100
AcDbLine
 10
-509.0236878217396
 20
-526.09764775017436
 30
0.0
 11
-459.02294997451736
 21
-526.09764775017436
 31
0.0
  0
LINE
  5
11A
100
AcDbEntity
  8
FAA70-2218
370
              15
390
0
  6
Continuous
 62
               7
100
AcDbLine
 10
-744.39118932298084
 20
-480.18571198628541
 30
0.0
 11
-523.43753330785057
 21
-480.18571198628541
 31
0.0
  0
LINE
  5
11B
100
AcDbEntity
  8
FAA70-2218
370
              15
390
0
  6
Continuous
 62
               7
100
AcDbLine
 10
-516.43753330785057
 20
-616.29134120006825
 30
0.0
 11
-516.43753330785057
 21
-487.18571198628541
 31
0.0
  0
LINE
  5
11C
100
AcDbEntity
  8
FAA70-2218
370
              15
390
0
  6
Continuous
 62
               7
100
AcDbLine
 10
-452.34484533811303
 20
-616.24610206147111
 30
0.0
 11
-452.34484533811303
 21
-487.18571198628541
 31
0.0
  0
LINE
  5
11D
100
AcDbEntity
  8
FAA70-2218
370
              15
390
0
  6
Continuous
 62
               7
100
AcDbLine
 10
-224.39118932298152
 20
-480.18571198628541
 30
0.0
 11
-445.34484533811303
 21
-480.18571198628541
 31
0.0
  0
ARC
  5
11E
100
AcDbEntity
  8
FAA70-2218
370
              15
390
0
  6
Continuous
 62
               7
100
AcDbCircle
 10
-483.97678646277643
 20
-1111.7725111817788
 30
0.0
 40
491.24155652638967
100
AcDbArc
 50
86.923612636018788
 51
93.17222327834908
  0
LWPOLYLINE
  5
11F
100
AcDbEntity
  8
FAA70-2218
370
              15
390
0
  6
Continuous
 62
               7
100
AcDbPolyline
 90
       21
 70
             129
 10
-232.30481416029187
 20
-480.18571198628541
 10
-224.39118932298146
 20
-480.18571198628541
 42
0.414213562373095
 10
-219.39118932298146
 20
-475.18571198628541
 10
-219.39118932298146
 20
-450.18571198628547
 42
0.414213562373095
 10
-224.39118932298146
 20
-445.18571198628547
 10
-744.39118932298106
 20
-445.18571198628547
 42
0.4142135623730984
 10
-749.39118932298106
 20
-450.18571198628547
 10
-749.39118932298106
 20
-475.18571198628541
 42
0.4142135623731084
 10
-744.39118932298084
 20
-480.18571198628541
 10
-735.72528717763009
 20
-480.18571198628507
 42
0.3483654607919637
 10
-621.6827476429761
 20
-581.82693881835689
 42
0.0413026938726114
 10
-548.66590634794227
 20
-590.91150489230495
 42
-0.1248386072035981
 10
-525.20926044590783
 20
-600.88684325723273
 42
-0.2342244145497936
 10
-521.26501642145718
 20
-608.84472108769728
 10
-521.26501642145718
 20
-625.18571198628547
 10
-484.01505066896186
 20
-625.18571198628547
 10
-446.76508491646598
 20
-625.18571198628547
 10
-446.76508491646598
 20
-608.84472108769728
 42
-0.2342244145498001
 10
-442.8208408920151
 20
-600.8868432572325
 42
-0.1248386072036077
 10
-419.36419498997986
 20
-590.91150489230495
 42
0.0413026938726086
 10
-346.34735369494695
 20
-581.82693881835712
 42
0.3483654607919627
  0
ARC
  5
120
100
AcDbEntity
  8
FAA70-2218
370
              15
390
0
  6
Continuous
 62
               7
100
AcDbCircle
 10
-457.34484533811303
 20
-616.24610206147111
 30
0.0
 40
5.0000000000000124
100
AcDbArc
 50
266.92361263601839
 51
0.0
  0
ARC
  5
121
100
AcDbEntity
  8
FAA70-2218
370
              15
390
0
  6
Continuous
 62
               7
100
AcDbCircle
 10
-511.43753330785069
 20
-616.29134120006825
 30
0.0
 40
4.9999999999998863
100
AcDbArc
 50
180.0
 51
273.17222327835015
  0
ARC
  5
122
100
AcDbEntity
  8
FAA70-2218
370
              15
390
0
  6
Continuous
 62
               7
100
AcDbCircle
 10
-445.34484533811303
 20
-487.18571198628541
 30
0.0
 40
7.0
100
AcDbArc
 50
90.0
 51
180.0
  0
ARC
  5
123
100
AcDbEntity
  8
FAA70-2218
370
              15
390
0
  6
Continuous
 62
               7
100
AcDbCircle
 10
-523.43753330785057
 20
-487.18571198628541
 30
0.0
 40
7.0
100
AcDbArc
 50
0.0
 51
90.0
  0
LINE
  5
124
100
AcDbEntity
  8
FAA70-2218
370
              15
390
0
  6
STYLE_12
 62
               7
100
AcDbLine
 10
-568.63990252646931
 20
-575.0
 30
0.0
 11
-518.63990252647
 21
-575.0017532507959
 31
0.0
  0
LINE
  5
125
100
AcDbEntity
  8
FAA70-2218
370
              15
390
0
  6
STYLE_12
 62
               7
100
AcDbLine
 10
-458.39012284500939
 20
-585.22665511633022
 30
0.0
 11
-458.39018932298018
 21
-625.18571198628547
 31
0.0
  0
LINE
  5
126
100
AcDbEntity
  8
FAA70-2218
370
              15
390
0
  6
STYLE_12
 62
               7
100
AcDbLine
 10
-399.44350366244009
 20
-575.00195734043984
 30
0.0
 11
-449.44350366244009
 21
-575.00391468087969
 31
0.0
  0
LINE
  5
127
100
AcDbEntity
  8
FAA70-2218
370
              15
390
0
  6
STYLE_12
 62
               7
100
AcDbLine
 10
-509.63997849291422
 20
-585.18671198628556
 30
0.0
 11
-509.63991201494332
 21
-625.18571198628547
 31
0.0
  0
LINE
  5
128
100
AcDbEntity
  8
FAA70-2218
370
              15
390
0
  6
Continuous
 62
               7
100
AcDbLine
 10
230.61202843564095
 20
-445.1867119862855
 30
0.0
 11
230.61202843564095
 21
-475.1867119862855
 31
0.0
  0
LINE
  5
129
100
AcDbEntity
  8
FAA70-2218
370
              15
390
0
  6
Continuous
 62
               7
100
AcDbLine
 10
230.61302843564161
 20
-445.18571198628553
 30
0.0
 11
630.61102843564095
 21
-445.18571198628553
 31
0.0
  0
LINE
  5
12A
100
AcDbEntity
  8
FAA70-2218
370
              15
390
0
  6
Continuous
 62
               7
100
AcDbLine
 10
630.61202843564161
 20
-445.1867119862855
 30
0.0
 11
630.61202843564161
 21
-475.1867119862855
 31
0.0
  0
LINE
  5
12B
100
AcDbEntity
  8
FAA70-2218
370
              15
390
0
  6
STYLE_12
 62
               7
100
AcDbLine
 10
343.66138315614785
 20
-575.0
 30
0.0
 11
514.75768027442086
 21
-575.0
 31
0.0
  0
LINE
  5
12C
100
AcDbEntity
  8
FAA70-2218
370
              15
390
0
  6
STYLE_12
 62
               7
100
AcDbLine
 10
460.86175112760407
 20
-585.18671198628556
 30
0.0
 11
460.86175112760407
 21
-625.19485190810678
 31
0.0
  0
LINE
  5
12D
100
AcDbEntity
  8
FAA70-2218
370
              15
390
0
  6
STYLE_12
 62
               7
100
AcDbLine
 10
462.61911044048475
 20
-580.9840144292109
 30
0.0
 11
467.86075112760216
 21
-575.74237374209372
 31
0.0
  0
ARC
  5
12E
100
AcDbEntity
  8
FAA70-2218
370
              15
390
0
  6
STYLE_12
 62
               7
100
AcDbCircle
 10
469.97133485184952
 20
-578.37128347728049
 30
0.0
 40
3.3713098423042394
100
AcDbArc
 50
92.77067993191072
 51
128.75875566458743
  0
ARC
  5
12F
100
AcDbEntity
  8
FAA70-2218
370
              15
390
0
  6
STYLE_12
 62
               7
100
AcDbCircle
 10
466.86175112760418
 20
-585.22665511633022
 30
0.0
 40
6.0000000000000888
100
AcDbArc
 50
135.00000000000037
 51
180.0
  0
LINE
  5
130
100
AcDbEntity
  8
FAA70-2218
370
              15
390
0
  6
STYLE_12
 62
               7
100
AcDbLine
 10
409.61189547969911
 20
-585.18671198628556
 30
0.0
 11
409.61202843564081
 21
-625.19485190810678
 31
0.0
  0
LINE
  5
131
100
AcDbEntity
  8
FAA70-2218
370
              15
390
0
  6
STYLE_12
 62
               7
100
AcDbLine
 10
407.85466912276001
 20
-580.9840144292109
 30
0.0
 11
402.61302843564272
 21
-575.74237374209372
 31
0.0
  0
ARC
  5
132
100
AcDbEntity
  8
FAA70-2218
370
              15
390
0
  6
STYLE_12
 62
               7
100
AcDbCircle
 10
400.50244471139536
 20
-578.37128347728049
 30
0.0
 40
3.3713098423042673
100
AcDbArc
 50
51.241244335413327
 51
88.138253564589263
  0
ARC
  5
133
100
AcDbEntity
  8
FAA70-2218
370
              15
390
0
  6
STYLE_12
 62
               7
100
AcDbCircle
 10
403.61202843564081
 20
-585.22665511633022
 30
0.0
 40
6.0
100
AcDbArc
 50
0.0
 51
45.000000000000398
  0
LINE
  5
134
100
AcDbEntity
  8
FAA70-2218
370
              15
390
0
  6
Continuous
 62
               7
100
AcDbLine
 10
235.61202843564092
 20
-480.1867119862855
 30
0.0
 11
625.61202843564161
 21
-480.1867119862855
 31
0.0
  0
ARC
  5
135
100
AcDbEntity
  8
FAA70-2218
370
              15
390
0
  6
Continuous
 62
               7
100
AcDbCircle
 10
235.61202843564092
 20
-475.1867119862855
 30
0.0
 40
4.9999999999999716
100
AcDbArc
 50
180.0
 51
270.0
  0
ARC
  5
136
100
AcDbEntity
  8
FAA70-2218
370
              15
390
0
  6
Continuous
 62
               7
100
AcDbCircle
 10
625.61202843564161
 20
-475.1867119862855
 30
0.0
 40
5.0
100
AcDbArc
 50
270.0
 51
0.0
  0
ARC
  5
137
100
AcDbEntity
  8
FAA70-2218
370
              15
390
0
  6
Continuous
 62
               7
100
AcDbCircle
 10
625.43907798521354
 20
-485.12469913662193
 30
0.0
 40
4.9383426664189942
100
AcDbArc
 50
89.312489633987795
 51
178.08225910098361
  0
ARC
  5
138
100
AcDbEntity
  8
FAA70-2218
370
              15
390
0
  6
Continuous
 62
               7
100
AcDbCircle
 10
513.60703011836745
 20
-479.46535269852876
 30
0.0
 40
107.03756598897431
100
AcDbArc
 50
319.74665495027892
 51
357.05779594251743
  0
ARC
  5
139
100
AcDbEntity
  8
FAA70-2218
370
              15
390
0
  6
Continuous
 62
               7
100
AcDbCircle
 10
515.55848723510371
 20
-479.94393496210574
 30
0.0
 40
105.2427911569423
100
AcDbArc
 50
270.02969306216374
 51
319.25900613885494
  0
ARC
  5
13A
100
AcDbEntity
  8
FAA70-2218
370
              15
390
0
  6
Continuous
 62
               7
100
AcDbCircle
 10
235.61202843564092
 20
-475.1867119862855
 30
0.0
 40
4.9999999999999716
100
AcDbArc
 50
180.0
 51
270.0
  0
ARC
  5
13B
100
AcDbEntity
  8
FAA70-2218
370
              15
390
0
  6
Continuous
 62
               7
100
AcDbCircle
 10
235.78497888606898
 20
-485.12469913662193
 30
0.0
 40
4.9383426664188699
100
AcDbArc
 50
1.91774089901645
 51
90.687510366012219
  0
ARC
  5
13C
100
AcDbEntity
  8
FAA70-2218
370
              15
390
0
  6
Continuous
 62
               7
100
AcDbCircle
 10
347.61702675291485
 20
-479.46535269852876
 30
0.0
 40
107.03756598897415
100
AcDbArc
 50
182.9422040574826
 51
220.2533450497211
  0
ARC
  5
13D
100
AcDbEntity
  8
FAA70-2218
370
              15
390
0
  6
Continuous
 62
               7
100
AcDbCircle
 10
345.66556963617859
 20
-479.94393496210574
 30
0.0
 40
105.24279115694235
100
AcDbArc
 50
220.74099386114506
 51
269.97030693783626
  0
LINE
  5
13E
100
AcDbEntity
  8
FAA70-2218
370
              15
390
0
  6
Continuous
 62
               7
100
AcDbLine
 10
398.08534639793061
 20
-589.18671198628556
 30
0.0
 11
398.08534639793061
 21
-625.18671198628874
 31
0.0
  0
ARC
  5
13F
100
AcDbEntity
  8
FAA70-2218
370
              15
390
0
  6
Continuous
 62
               7
100
AcDbCircle
 10
498.40506330558833
 20
-475.36947408723989
 30
0.0
 40
132.20708516317538
100
AcDbArc
 50
356.62184809674898
 51
0.0772077422302573
  0
ARC
  5
140
100
AcDbEntity
  8
FAA70-2218
370
              15
390
0
  6
Continuous
 62
               7
100
AcDbCircle
 10
491.89390337179952
 20
-475.01555246093727
 30
0.0
 40
138.7277004603323
100
AcDbArc
 50
272.36197445667329
 51
356.68623536223879
  0
LINE
  5
141
100
AcDbEntity
  8
FAA70-2218
370
              15
390
0
  6
Continuous
 62
               7
100
AcDbLine
 10
497.6112264648184
 20
-613.6253901048135
 30
0.0
 11
465.79794613188653
 21
-613.6253901048135
 31
0.0
  0
ARC
  5
142
100
AcDbEntity
  8
FAA70-2218
370
              15
390
0
  6
Continuous
 62
               7
100
AcDbCircle
 10
465.91927736664366
 20
-626.34080393987233
 30
0.0
 40
12.715992696810307
100
AcDbArc
 50
90.546703142199121
 51
114.53412579171497
  0
ARC
  5
143
100
AcDbEntity
  8
FAA70-2218
370
              15
390
0
  6
Continuous
 62
               7
100
AcDbCircle
 10
471.51895758371086
 20
-637.92883923770682
 30
0.0
 40
25.584534055535674
100
AcDbArc
 50
115.16644959865006
 51
123.61306015692792
  0
LINE
  5
144
100
AcDbEntity
  8
FAA70-2218
370
              15
390
0
  6
Continuous
 62
               7
100
AcDbLine
 10
398.11102843563776
 20
-625.18671198628556
 30
0.0
 11
473.11302843563806
 21
-625.18671198628556
 31
0.0
  0
LINE
  5
145
100
AcDbEntity
  8
FAA70-2218
370
              15
390
0
  6
Continuous
 62
               7
100
AcDbLine
 10
473.11302843563806
 20
-625.18671198628556
 30
0.0
 11
473.11202843673811
 21
-616.62547692135354
 31
0.0
  0
ARC
  5
146
100
AcDbEntity
  8
FAA70-2218
370
              15
390
0
  6
Continuous
 62
               7
100
AcDbCircle
 10
476.21186629450051
 20
-616.66692045214529
 30
0.0
 40
3.100114886687459
100
AcDbArc
 50
101.15646358684239
 51
179.23402511774458
  0
LINE
  5
147
100
AcDbEntity
  8
FAA70-2218
370
              15
390
0
  6
Continuous
 62
               7
100
AcDbLine
 10
345.61102843564368
 20
-585.18671198628556
 30
0.0
 11
460.86175112760407
 21
-585.18671198628556
 31
0.0
  0
LINE
  5
148
100
AcDbEntity
  8
FAA70-2218
370
              15
390
0
  6
Continuous
 62
               7
100
AcDbLine
 10
460.86175112760407
 20
-585.18671198628556
 30
0.0
 11
515.50394603418658
 21
-585.18671198628556
 31
0.0
  0
ARC
  5
149
100
AcDbEntity
  8
FAA70-2218
370
              15
390
0
  6
Continuous
 62
               7
100
AcDbCircle
 10
394.08534639793061
 20
-589.18671198628556
 30
0.0
 40
4.0
100
AcDbArc
 50
0.0
 51
90.0
  0
ARC
  5
14A
100
AcDbEntity
  8
FAA70-2218
370
              15
390
0
  6
Continuous
 62
               7
100
AcDbCircle
 10
-721.89118932298106
 20
740.73648589726656
 30
0.0
 40
7.5
100
AcDbArc
 50
90.0
 51
180.0
  0
ARC
  5
14B
100
AcDbEntity
  8
FAA70-2218
370
              15
390
0
  6
Continuous
 62
               7
100
AcDbCircle
 10
-246.89118932298146
 20
740.73648589726656
 30
0.0
 40
7.5
100
AcDbArc
 50
0.0
 51
90.0
  0
ARC
  5
14C
100
AcDbEntity
  8
FAA70-2218
370
              15
390
0
  6
Continuous
 62
               7
100
AcDbCircle
 10
-246.89118932298146
 20
400.73648589726662
 30
0.0
 40
7.5
100
AcDbArc
 50
270.0
 51
0.0
  0
ARC
  5
14D
100
AcDbEntity
  8
FAA70-2218
370
              15
390
0
  6
Continuous
 62
               7
100
AcDbCircle
 10
-721.89118932298106
 20
400.73648589726662
 30
0.0
 40
7.5
100
AcDbArc
 50
180.0
 51
270.0
  0
SPLINE
  5
14E
100
AcDbEntity
  8
FAA70-2218
370
              15
390
0
  6
STYLE_12
 62
               7
100
AcDbSpline
210
0.0
220
0.0
230
1.0
 70
               8
 71
               2
 72
               6
 73
               3
 74
               0
 42
0.000001
 43
0.000001
 40
0.0
 40
0.0
 40
0.0
 40
1.0
 40
1.0
 40
1.0
 10
514.75768027442086
 20
-575.0
 30
0.0
 10
605.54030070998817
 20
-564.43919185755112
 30
0.0
 10
610.61134542294019
 20
-445.18552897358398
 30
0.0
  0
SPLINE
  5
14F
100
AcDbEntity
  8
FAA70-2218
370
              15
390
0
  6
STYLE_12
 62
               7
100
AcDbSpline
210
0.0
220
0.0
230
1.0
 70
               8
 71
               2
 72
               6
 73
               3
 74
               0
 42
0.000001
 43
0.000001
 40
0.0
 40
0.0
 40
0.0
 40
1.0
 40
1.0
 40
1.0
 10
346.46637659686155
 20
-575.0
 30
0.0
 10
255.68375616129421
 20
-564.43919185755112
 30
0.0
 10
250.61271144834225
 20
-445.18552897358398
 30
0.0
  0
LINE
  5
150
100
AcDbEntity
  8
FAA70-2218
370
              15
390
0
  6
STYLE_12
 62
               7
100
AcDbLine
 10
-456.63276353212871
 20
-580.9840144292109
 30
0.0
 11
-451.39112284501141
 21
-575.74237374209372
 31
0.0
  0
ARC
  5
151
100
AcDbEntity
  8
FAA70-2218
370
              15
390
0
  6
STYLE_12
 62
               7
100
AcDbCircle
 10
-449.28053912076405
 20
-578.37128347728049
 30
0.0
 40
3.3713098423042394
100
AcDbArc
 50
92.77067993191072
 51
128.75875566458669
  0
ARC
  5
152
100
AcDbEntity
  8
FAA70-2218
370
              15
390
0
  6
STYLE_12
 62
               7
100
AcDbCircle
 10
-452.39012284500939
 20
-585.22665511633022
 30
0.0
 40
6.0000000000000488
100
AcDbArc
 50
135.0
 51
180.0
  0
LINE
  5
153
100
AcDbEntity
  8
FAA70-2218
370
              15
390
0
  6
STYLE_12
 62
               7
100
AcDbLine
 10
-509.63997849291422
 20
-585.18671198628556
 30
0.0
 11
-509.63984553697253
 21
-625.19485190810678
 31
0.0
  0
LINE
  5
154
100
AcDbEntity
  8
FAA70-2218
370
              15
390
0
  6
STYLE_12
 62
               7
100
AcDbLine
 10
-511.39720484985321
 20
-580.9840144292109
 30
0.0
 11
-516.63884553697051
 21
-575.74237374209372
 31
0.0
  0
ARC
  5
155
100
AcDbEntity
  8
FAA70-2218
370
              15
390
0
  6
STYLE_12
 62
               7
100
AcDbCircle
 10
-518.74942926121787
 20
-578.37128347728049
 30
0.0
 40
3.3713098423042673
100
AcDbArc
 50
51.241244335413327
 51
88.138253564589263
  0
ARC
  5
156
100
AcDbEntity
  8
FAA70-2218
370
              15
390
0
  6
STYLE_12
 62
               7
100
AcDbCircle
 10
-515.63984553697253
 20
-585.22665511633022
 30
0.0
 40
6.0
100
AcDbArc
 50
0.0
 51
45.000000000000398
  0
SPLINE
  5
157
100
AcDbEntity
  8
FAA70-2218
370
              15
390
0
  6
STYLE_12
 62
               7
100
AcDbSpline
210
0.0
220
0.0
230
1.0
 70
               8
 71
               2
 72
               6
 73
               3
 74
               0
 42
0.000001
 43
0.000001
 40
0.0
 40
0.0
 40
0.0
 40
1.0
 40
1.0
 40
1.0
 10
-399.44350366244009
 20
-575.00195734043984
 30
0.0
 10
-257.30084439538234
 20
-567.66832057376882
 30
0.0
 10
-240.84341199606681
 20
-445.18571198628547
 30
0.0
  0
SPLINE
  5
158
100
AcDbEntity
  8
FAA70-2218
370
              15
390
0
  6
STYLE_12
 62
               7
100
AcDbSpline
210
0.0
220
0.0
230
1.0
 70
               8
 71
               2
 72
               6
 73
               3
 74
               0
 42
0.000001
 43
0.000001
 40
0.0
 40
0.0
 40
0.0
 40
1.0
 40
1.0
 40
1.0
 10
-568.58659764080562
 20
-575.00285061095553
 30
0.0
 10
-710.72925690786292
 20
-567.66921384428451
 30
0.0
 10
-727.18668930717831
 20
-445.18660525680116
 30
0.0
  0
LWPOLYLINE
  5
159
100
AcDbEntity
  8
FAA70-2218
370
              15
390
0
  6
Continuous
 62
               7
100
AcDbPolyline
 90
        8
 70
             129
 10
190.65658800393322
 20
730.70000000000005
 42
-0.414213562373095
 10
205.65658800393322
 20
745.70000000000005
 10
655.65658800393362
 20
745.70000000000005
 42
-0.414213562373095
 10
670.65658800393362
 20
730.70000000000005
 10
670.65658800393362
 20
410.7000000000001
 42
-0.414213562373095
 10
655.65658800393362
 20
395.7000000000001
 10
205.65658800393322
 20
395.7000000000001
 42
-0.414213562373095
 10
190.65658800393322
 20
410.7000000000001
  0
ENDSEC
  0
SECTION
  2
OBJECTS
  0
DICTIONARY
  5
19
100
AcDbDictionary
280
               0
281
               1
  3
ACAD_GROUP
350
1A
  3
ACAD_MLINESTYLE
350
1B
  3
ACAD_LAYOUT
350
1E
  3
ACAD_PLOTSETTINGS
350
22
  3
ACAD_PLOTSTYLENAME
350
1F
  0
DICTIONARY
  5
1A
102
{ACAD_REACTORS
330
19
102
}
100
AcDbDictionary
280
               0
281
               1
  0
DICTIONARY
  5
1B
102
{ACAD_REACTORS
330
19
102
}
100
AcDbDictionary
280
               0
281
               1
  3
Standard
350
1C
  0
MLINESTYLE
  5
1C
102
{ACAD_REACTORS
330
1B
102
}
100
AcDbMlineStyle
  2
Standard
 70
               0
  3

 62
               0
 51
90.0
 52
90.0
 71
               2
 49
0.5
 62
             256
  6
ByLayer
 49
-0.5
 62
             256
  6
ByLayer
  0
ACDBDICTIONARYWDFLT
  5
1F
102
{ACAD_REACTORS
330
19
102
}
100
AcDbDictionary
281
               1
  3
Normal
350
1D
100
AcDbDictionaryWithDefault
340
1D
  0
ACDBPLACEHOLDER
  5
1D
102
{ACAD_REACTORS
330
1F
102
}
  0
LAYOUT
  5
20
102
{ACAD_REACTORS
330
1E
102
}
100
AcDbPlotSettings
  1

  2

  4

  6

 40
0.0
 41
0.0
 42
0.0
 43
0.0
 44
0.0
 45
0.0
 46
0.0
 47
0.0
 48
0.0
 49
0.0
140
0.0
141
0.0
142
1.0
143
1.0
 70
            1024
 72
               0
 73
               0
 74
               0
  7

 75
               0
147
1.0
148
0.0
149
0.0
100
AcDbLayout
  1
Model
 70
               0
 71
               0
 10
0.0
 20
0.0
 11
0.0
 21
0.0
 12
0.0
 22
0.0
 32
0.0
 14
0.0
 24
0.0
 34
0.0
 15
0.0
 25
0.0
 35
0.0
146
0.0
 13
0.0
 23
0.0
 33
0.0
 16
0.0
 26
0.0
 36
0.0
 17
0.0
 27
0.0
 37
0.0
 76
               0
330
A
331
0
345
0
346
0
  0
LAYOUT
  5
21
102
{ACAD_REACTORS
330
1E
102
}
100
AcDbPlotSettings
  1

  2

  4

  6

 40
0.0
 41
0.0
 42
0.0
 43
0.0
 44
0.0
 45
0.0
 46
0.0
 47
0.0
 48
0.0
 49
0.0
140
0.0
141
0.0
142
1.0
143
1.0
 70
               0
 72
               0
 73
               0
 74
               0
  7

 75
               0
147
1.0
148
0.0
149
0.0
100
AcDbLayout
  1
Layout1
 70
               0
 71
               0
 10
0.0
 20
0.0
 11
0.0
 21
0.0
 12
0.0
 22
0.0
 32
0.0
 14
0.0
 24
0.0
 34
0.0
 15
0.0
 25
0.0
 35
0.0
146
0.0
 13
0.0
 23
0.0
 33
0.0
 16
0.0
 26
0.0
 36
0.0
 17
0.0
 27
0.0
 37
0.0
 76
               0
330
B
331
0
345
0
346
0
  0
DICTIONARY
  5
1E
102
{ACAD_REACTORS
330
19
102
}
100
AcDbDictionary
280
               0
281
               1
  3
Layout1
350
21
  3
Model
350
20
  0
DICTIONARY
  5
22
102
{ACAD_REACTORS
330
19
102
}
100
AcDbDictionary
280
               0
281
               1
  0
ENDSEC
  0
EOF
