  0
SECTION
  2
HEADER
  9
$ACADVER
  1
AC1015
  9
$ACADMAINTVER
 70
               6
  9
$DWGCODEPAGE
  3
ANSI_932
  9
$INSBASE
 10
0.0
 20
0.0
 30
0.0
  9
$EXTMIN
 10
-975.00000000024158
 20
-1431.5255224711127
 30
-14.834305555555554
  9
$EXTMAX
 10
975.00000000024113
 20
1405.9972926412997
 30
14.834305555555554
  9
$LIMMIN
 10
0.0
 20
0.0
  9
$LIMMAX
 10
0.0
 20
0.0
  9
$ORTHOMODE
 70
               0
  9
$REGENMODE
 70
               1
  9
$FILLMODE
 70
               1
  9
$QTEXTMODE
 70
               0
  9
$MIRRTEXT
 70
               1
  9
$LTSCALE
 40
50.799999999999997
  9
$ATTMODE
 70
               1
  9
$TEXTSIZE
 40
0.2
  9
$TRACEWID
 40
1.0
  9
$TEXTSTYLE
  7
Standard
  9
$CLAYER
  8
notes
  9
$CELTYPE
  6
Continuous
  9
$CECOLOR
 62
             256
  9
$CELTSCALE
 40
1.0
  9
$DISPSILH
 70
               0
  9
$DIMSCALE
 40
1.0
  9
$DIMASZ
 40
31.75
  9
$DIMEXO
 40
0.0
  9
$DIMDLI
 40
6.9999999999999396
  9
$DIMRND
 40
0.0
  9
$DIMDLE
 40
0.0
  9
$DIMEXE
 40
19.999999999996199
  9
$DIMTP
 40
0.0
  9
$DIMTM
 40
0.0
  9
$DIMTXT
 40
24.432617187500004
  9
$DIMCEN
 40
0.0
  9
$DIMTSZ
 40
0.0
  9
$DIMTOL
 70
               0
  9
$DIMLIM
 70
               0
  9
$DIMTIH
 70
               0
  9
$DIMTOH
 70
               0
  9
$DIMSE1
 70
               0
  9
$DIMSE2
 70
               0
  9
$DIMTAD
 70
               1
  9
$DIMZIN
 70
              11
  9
$DIMBLK
  1
VW_FILLEDARROW
  9
$DIMASO
 70
               1
  9
$DIMSHO
 70
               1
  9
$DIMPOST
  1
<>
  9
$DIMAPOST
  1
[]
  9
$DIMALT
 70
               0
  9
$DIMALTD
 70
               1
  9
$DIMALTF
 40
1.0
  9
$DIMLFAC
 40
1.0
  9
$DIMTOFL
 70
               0
  9
$DIMTVP
 40
0.0
  9
$DIMTIX
 70
               1
  9
$DIMSOXD
 70
               0
  9
$DIMSAH
 70
               0
  9
$DIMBLK1
  1

  9
$DIMBLK2
  1

  9
$DIMSTYLE
  2
JIS
  9
$DIMCLRD
 70
               0
  9
$DIMCLRE
 70
               0
  9
$DIMCLRT
 70
               0
  9
$DIMTFAC
 40
1.0
  9
$DIMGAP
 40
1.00000000000108
  9
$DIMJUST
 70
               0
  9
$DIMSD1
 70
               0
  9
$DIMSD2
 70
               0
  9
$DIMTOLJ
 70
               1
  9
$DIMTZIN
 70
              11
  9
$DIMALTZ
 70
              11
  9
$DIMALTTZ
 70
              11
  9
$DIMUPT
 70
               0
  9
$DIMDEC
 70
               1
  9
$DIMTDEC
 70
               1
  9
$DIMALTU
 70
               2
  9
$DIMALTTD
 70
               2
  9
$DIMTXSTY
  7
ＭＳ ゴシック
  9
$DIMAUNIT
 70
               0
  9
$DIMADEC
 70
               2
  9
$DIMALTRND
 40
0.0
  9
$DIMAZIN
 70
               0
  9
$DIMDSEP
 70
              46
  9
$DIMATFIT
 70
               0
  9
$DIMFRAC
 70
               2
  9
$DIMLDRBLK
  1

  9
$DIMLUNIT
 70
               2
  9
$DIMLWD
 70
              -2
  9
$DIMLWE
 70
              -2
  9
$DIMTMOVE
 70
               0
  9
$LUNITS
 70
               2
  9
$LUPREC
 70
               4
  9
$SKETCHINC
 40
0.1
  9
$FILLETRAD
 40
0.0
  9
$AUNITS
 70
               0
  9
$AUPREC
 70
               0
  9
$MENU
  1
acad
  9
$ELEVATION
 40
0.0
  9
$PELEVATION
 40
0.0
  9
$THICKNESS
 40
0.0
  9
$LIMCHECK
 70
               0
  9
$CHAMFERA
 40
0.0
  9
$CHAMFERB
 40
0.0
  9
$CHAMFERC
 40
0.0
  9
$CHAMFERD
 40
0.0
  9
$SKPOLY
 70
               0
  9
$TDCREATE
 40
2456478.730972222
  9
$TDUCREATE
 40
0.000000000
  9
$TDUPDATE
 40
2456478.730972222
  9
$TDUUPDATE
 40
0.000000000
  9
$TDINDWG
 40
0.0000000000
  9
$TDUSRTIMER
 40
0.0000000000
  9
$USRTIMER
 70
               1
  9
$ANGBASE
 50
0.0
  9
$ANGDIR
 70
               0
  9
$PDMODE
 70
               1
  9
$PDSIZE
 40
-2.0
  9
$PLINEWID
 40
0.0
  9
$SPLFRAME
 70
               0
  9
$SPLINETYPE
 70
               6
  9
$SPLINESEGS
 70
               8
  9
$HANDSEED
  5
15F
  9
$SURFTAB1
 70
               6
  9
$SURFTAB2
 70
               6
  9
$SURFTYPE
 70
               6
  9
$SURFU
 70
               6
  9
$SURFV
 70
               6
  9
$UCSBASE
  2

  9
$UCSNAME
  2

  9
$UCSORG
 10
0.0
 20
0.0
 30
0.0
  9
$UCSXDIR
 10
1.0
 20
0.0
 30
0.0
  9
$UCSYDIR
 10
0.0
 20
1.0
 30
0.0
  9
$UCSORTHOREF
  2

  9
$UCSORTHOVIEW
 70
               0
  9
$UCSORGTOP
 10
0.0
 20
0.0
 30
0.0
  9
$UCSORGBOTTOM
 10
0.0
 20
0.0
 30
0.0
  9
$UCSORGLEFT
 10
0.0
 20
0.0
 30
0.0
  9
$UCSORGRIGHT
 10
0.0
 20
0.0
 30
0.0
  9
$UCSORGFRONT
 10
0.0
 20
0.0
 30
0.0
  9
$UCSORGBACK
 10
0.0
 20
0.0
 30
0.0
  9
$PUCSBASE
  2

  9
$PUCSNAME
  2

  9
$PUCSORG
 10
0.0
 20
0.0
 30
0.0
  9
$PUCSXDIR
 10
1.0
 20
0.0
 30
0.0
  9
$PUCSYDIR
 10
0.0
 20
1.0
 30
0.0
  9
$PUCSORTHOREF
  2

  9
$PUCSORTHOVIEW
 70
               0
  9
$PUCSORGTOP
 10
0.0
 20
0.0
 30
0.0
  9
$PUCSORGBOTTOM
 10
0.0
 20
0.0
 30
0.0
  9
$PUCSORGLEFT
 10
0.0
 20
0.0
 30
0.0
  9
$PUCSORGRIGHT
 10
0.0
 20
0.0
 30
0.0
  9
$PUCSORGFRONT
 10
0.0
 20
0.0
 30
0.0
  9
$PUCSORGBACK
 10
0.0
 20
0.0
 30
0.0
  9
$USERI1
 70
               0
  9
$USERI2
 70
               0
  9
$USERI3
 70
               0
  9
$USERI4
 70
               0
  9
$USERI5
 70
               0
  9
$USERR1
 40
0.0
  9
$USERR2
 40
0.0
  9
$USERR3
 40
0.0
  9
$USERR4
 40
0.0
  9
$USERR5
 40
0.0
  9
$WORLDVIEW
 70
               1
  9
$SHADEDGE
 70
               3
  9
$SHADEDIF
 70
              70
  9
$TILEMODE
 70
               1
  9
$MAXACTVP
 70
              64
  9
$PINSBASE
 10
0.0
 20
0.0
 30
0.0
  9
$PLIMCHECK
 70
               0
  9
$PEXTMIN
 10
1.0000000000000000E+20
 20
1.0000000000000000E+20
 30
1.0000000000000000E+20
  9
$PEXTMAX
 10
-1.0000000000000000E+20
 20
-1.0000000000000000E+20
 30
-1.0000000000000000E+20
  9
$PLIMMIN
 10
0.0
 20
0.0
  9
$PLIMMAX
 10
12.0
 20
9.0
  9
$UNITMODE
 70
               0
  9
$VISRETAIN
 70
               0
  9
$PLINEGEN
 70
               1
  9
$PSLTSCALE
 70
               0
  9
$TREEDEPTH
 70
            3020
  9
$CMLSTYLE
  2
Standard
  9
$CMLJUST
 70
               0
  9
$CMLSCALE
 40
1.0
  9
$PROXYGRAPHICS
 70
               0
  9
$MEASUREMENT
 70
               1
  9
$CELWEIGHT
370
               0
  9
$ENDCAPS
280
               0
  9
$JOINSTYLE
280
               0
  9
$LWDISPLAY
290
               1
  9
$INSUNITS
 70
               4
  9
$HYPERLINKBASE
  1

  9
$STYLESHEET
  1

  9
$XEDIT
290
               1
  9
$CEPSNTYPE
380
               0
  9
$PSTYLEMODE
290
               1
  9
$FINGERPRINTGUID
  2

  9
$VERSIONGUID
  2

  9
$EXTNAMES
290
               1
  9
$PSVPSCALE
 40
0.0
  0
ENDSEC
  0
SECTION
  2
CLASSES
  0
CLASS
  1
LWPOLYLINE
  2
AcDbPolyline
  3
AutoCAD 2000
 90
        0
280
               0
281
               1
  0
CLASS
  1
IMAGE
  2
AcDbRasterImage
  3
ISM
 90
      127
280
               0
281
               1
  0
CLASS
  1
OLE2FRAME
  2
AcDbOle2Frame
  3
AutoCAD 2000
 90
        0
280
               0
281
               1
  0
CLASS
  1
HATCH
  2
AcDbHatch
  3
AutoCAD 2000
 90
        0
280
               0
281
               1
  0
CLASS
  1
DICTIONARYVAR
  2
AcDbDictionaryVar
  3
AutoCAD 2000
 90
        0
280
               0
281
               0
  0
CLASS
  1
RASTERVARIABLES
  2
AcDbRasterVariables
  3
ISM
 90
        0
280
               0
281
               0
  0
CLASS
  1
IMAGEDEF
  2
AcDbRasterImageDef
  3
ISM
 90
        0
280
               0
281
               0
  0
CLASS
  1
IMAGEDEF_REACTOR
  2
AcDbRasterImageDefReactor
  3
ISM
 90
        1
280
               0
281
               0
  0
CLASS
  1
IDBUFFER
  2
AcDbIdBuffer
  3
AutoCAD 2000
 90
        0
280
               0
281
               0
  0
CLASS
  1
SPATIAL_FILTER
  2
AcDbSpatialFilter
  3
AutoCAD 2000
 90
        0
280
               0
281
               0
  0
CLASS
  1
XRECORD
  2
AcDbXrecord
  3
AutoCAD 2000
 90
        0
280
               0
281
               0
  0
CLASS
  1
SORTENTSTABLE
  2
AcDbSortentsTable
  3
AutoCAD 2000
 90
        0
280
               0
281
               0
  0
CLASS
  1
LAYER_INDEX
  2
AcDbLayerIndex
  3
AutoCAD 2000
 90
        0
280
               0
281
               0
  0
CLASS
  1
SPATIAL_INDEX
  2
AcDbSpatialIndex
  3
AutoCAD 2000
 90
        0
280
               0
281
               0
  0
CLASS
  1
OBJECT_PTR
  2
CAseDLPNTableRecord
  3
"ASE-LPNTableRecord"
 90
        1
280
               0
281
               0
  0
CLASS
  1
LAYOUT
  2
AcDbLayout
  3
AutoCAD 2000
 90
        0
280
               0
281
               0
  0
CLASS
  1
PLOTSETTINGS
  2
AcDbPlotSettings
  3
AutoCAD 2000
 90
        0
280
               0
281
               0
  0
CLASS
  1
ACDBDICTIONARYWDFLT
  2
AcDbDictionaryWithDefault
  3
AutoCAD 2000
 90
        0
280
               0
281
               0
  0
CLASS
  1
ACDBPLACEHOLDER
  2
AcDbPlaceHolder
  3
AutoCAD 2000
 90
        0
280
               0
281
               0
  0
ENDSEC
  0
SECTION
  2
TABLES
  0
TABLE
  2
VPORT
  5
7
100
AcDbSymbolTable
 70
               1
  0
VPORT
  5
15
100
AcDbSymbolTableRecord
100
AcDbViewportTableRecord
  2
*ACTIVE
 70
               0
 10
0.0
 20
0.0
 11
1.0
 21
1.0
 12
-0.0000000000002274
 22
-12.764114914906486
 13
0.0
 23
0.0
 14
1.0
 24
1.0
 15
0.0
 25
0.0
 16
0.0
 26
0.0
 36
1.0
 17
0.0
 27
0.0
 37
0.0
 40
2837.5228151124124
 41
0.688564
 42
50.0
 43
0.0
 44
0.0
 50
0.0
 51
0.0
 71
               0
 72
            2000
 73
               1
 74
               1
 75
               0
 76
               0
 77
               0
 78
               0
281
               0
 65
               0
110
0.0
120
0.0
130
0.0
111
1.0
121
0.0
131
0.0
112
0.0
122
1.0
132
0.0
345
0
346
0
 79
               0
146
0.0
  0
ENDTAB
  0
TABLE
  2
LTYPE
  5
4
100
AcDbSymbolTable
 70
              17
  0
LTYPE
  5
11
100
AcDbSymbolTableRecord
100
AcDbLinetypeTableRecord
  2
ByBlock
 70
              64
  3

 72
              65
 73
               0
 40
0.0
  0
LTYPE
  5
12
100
AcDbSymbolTableRecord
100
AcDbLinetypeTableRecord
  2
ByLayer
 70
              64
  3

 72
              65
 73
               0
 40
0.0
  0
LTYPE
  5
13
100
AcDbSymbolTableRecord
100
AcDbLinetypeTableRecord
  2
Continuous
 70
              64
  3
Solid line
 72
              65
 73
               0
 40
0.0
  0
LTYPE
  5
31
100
AcDbSymbolTableRecord
100
AcDbLinetypeTableRecord
  2
STYLE_01
 70
               0
  3

 72
              65
 73
               4
 40
0.2214566929133858
 49
0.1476377952755905
 74
               0
 49
-0.0246062992125984
 74
               0
 49
0.0246062992125984
 74
               0
 49
-0.0246062992125984
 74
               0
  0
LTYPE
  5
32
100
AcDbSymbolTableRecord
100
AcDbLinetypeTableRecord
  2
STYLE_02
 70
               0
  3

 72
              65
 73
               4
 40
0.0442913385826772
 49
0.0295275590551181
 74
               0
 49
-0.0049212598425197
 74
               0
 49
0.0049212598425197
 74
               0
 49
-0.0049212598425197
 74
               0
  0
LTYPE
  5
33
100
AcDbSymbolTableRecord
100
AcDbLinetypeTableRecord
  2
STYLE_03
 70
               0
  3

 72
              65
 73
               2
 40
1.25
 49
1.0416400000000001
 74
               0
 49
-0.2083599999999999
 74
               0
  0
LTYPE
  5
34
100
AcDbSymbolTableRecord
100
AcDbLinetypeTableRecord
  2
STYLE_04
 70
               0
  3

 72
              65
 73
               2
 40
1.5277099999999999
 49
1.3194249999999998
 74
               0
 49
-0.208285
 74
               0
  0
LTYPE
  5
35
100
AcDbSymbolTableRecord
100
AcDbLinetypeTableRecord
  2
STYLE_05
 70
               0
  3

 72
              65
 73
               2
 40
0.20828
 49
0.069425
 74
               0
 49
-0.138855
 74
               0
  0
LTYPE
  5
36
100
AcDbSymbolTableRecord
100
AcDbLinetypeTableRecord
  2
STYLE_06
 70
               0
  3

 72
              65
 73
               4
 40
1.0416400000000001
 49
0.625
 74
               0
 49
-0.20828
 74
               0
 49
0.06943
 74
               0
 49
-0.13893
 74
               0
  0
LTYPE
  5
37
100
AcDbSymbolTableRecord
100
AcDbLinetypeTableRecord
  2
STYLE_07
 70
               0
  3

 72
              65
 73
               6
 40
1.875
 49
0.625
 74
               0
 49
-0.20828
 74
               0
 49
0.6250000000000001
 74
               0
 49
-0.2083599999999999
 74
               0
 49
0.06943
 74
               0
 49
-0.1389299999999999
 74
               0
  0
LTYPE
  5
38
100
AcDbSymbolTableRecord
100
AcDbLinetypeTableRecord
  2
STYLE_08
 70
               0
  3

 72
              65
 73
               6
 40
1.25
 49
0.625
 74
               0
 49
-0.20828
 74
               0
 49
0.06943
 74
               0
 49
-0.13893
 74
               0
 49
0.0694299999999999
 74
               0
 49
-0.13893
 74
               0
  0
LTYPE
  5
39
100
AcDbSymbolTableRecord
100
AcDbLinetypeTableRecord
  2
STYLE_09
 70
               0
  3

 72
              65
 73
               4
 40
5.0
 49
3.75
 74
               0
 49
-0.2777849999999998
 74
               0
 49
0.6944300000000003
 74
               0
 49
-0.2777849999999998
 74
               0
  0
LTYPE
  5
3A
100
AcDbSymbolTableRecord
100
AcDbLinetypeTableRecord
  2
STYLE_10
 70
               0
  3

 72
              65
 73
               6
 40
5.9375
 49
3.75
 74
               0
 49
-0.2777849999999998
 74
               0
 49
0.6944300000000003
 74
               0
 49
-0.2777849999999998
 74
               0
 49
0.625
 74
               0
 49
-0.3125
 74
               0
  0
LTYPE
  5
3B
100
AcDbSymbolTableRecord
100
AcDbLinetypeTableRecord
  2
STYLE_11
 70
               0
  3

 72
              65
 73
               2
 40
0.0694444881889764
 49
0.0347222440944882
 74
               0
 49
-0.0347222440944882
 74
               0
  0
LTYPE
  5
3C
100
AcDbSymbolTableRecord
100
AcDbLinetypeTableRecord
  2
STYLE_12
 70
               0
  3

 72
              65
 73
               2
 40
0.3937007874015748
 49
0.1968503937007874
 74
               0
 49
-0.1968503937007874
 74
               0
  0
LTYPE
  5
3D
100
AcDbSymbolTableRecord
100
AcDbLinetypeTableRecord
  2
STYLE_13
 70
               0
  3

 72
              65
 73
               2
 40
0.5905511811023622
 49
0.2952755905511811
 74
               0
 49
-0.2952755905511811
 74
               0
  0
LTYPE
  5
3E
100
AcDbSymbolTableRecord
100
AcDbLinetypeTableRecord
  2
STYLE_14
 70
               0
  3

 72
              65
 73
               2
 40
1.9685039370078738
 49
0.9842519685039369
 74
               0
 49
-0.9842519685039369
 74
               0
  0
ENDTAB
  0
TABLE
  2
LAYER
  5
2
100
AcDbSymbolTable
 70
               5
  0
LAYER
  5
14
100
AcDbSymbolTableRecord
100
AcDbLayerTableRecord
  2
0
 70
               0
 62
               7
  6
Continuous
290
               1
370
              -3
390
1D
  0
LAYER
  5
3F
100
AcDbSymbolTableRecord
100
AcDbLayerTableRecord
  2
Defpoints
 70
               0
 62
               7
  6
Continuous
290
               0
370
              -3
390
1D
  0
LAYER
  5
40
100
AcDbSymbolTableRecord
100
AcDbLayerTableRecord
  2
template
 70
               0
 62
               7
  6
Continuous
290
               1
370
              -3
390
1D
  0
LAYER
  5
41
100
AcDbSymbolTableRecord
100
AcDbLayerTableRecord
  2
notes
 70
               0
 62
               7
  6
Continuous
290
               1
370
              -3
390
1D
  0
LAYER
  5
42
100
AcDbSymbolTableRecord
100
AcDbLayerTableRecord
  2
FAA70-2220
 70
               0
 62
               7
  6
Continuous
290
               1
370
              -3
390
1D
  0
ENDTAB
  0
TABLE
  2
STYLE
  5
3
100
AcDbSymbolTable
 70
               2
  0
STYLE
  5
17
100
AcDbSymbolTableRecord
100
AcDbTextStyleTableRecord
  2
Standard
 70
               0
 40
0.0
 41
1.0
 50
0.0
 71
               0
 42
0.0
  3
txt
  4
BIGFONT.SHX
  0
STYLE
  5
30
100
AcDbSymbolTableRecord
100
AcDbTextStyleTableRecord
  2
ＭＳ ゴシック
 70
               0
 40
0.0
 41
1.0
 50
0.0
 71
               0
 42
0.0
  3

  4
ＭＳ ゴシック
1001
ACAD
1000
ＭＳ ゴシック
1071
        0
  0
ENDTAB
  0
TABLE
  2
VIEW
  5
5
100
AcDbSymbolTable
 70
               0
  0
ENDTAB
  0
TABLE
  2
UCS
  5
6
100
AcDbSymbolTable
 70
               0
  0
ENDTAB
  0
TABLE
  2
APPID
  5
8
100
AcDbSymbolTable
 70
               1
  0
APPID
  5
16
100
AcDbSymbolTableRecord
100
AcDbRegAppTableRecord
  2
ACAD
 70
               0
  0
ENDTAB
  0
TABLE
  2
DIMSTYLE
  5
9
100
AcDbSymbolTable
 70
               3
100
AcDbDimStyleTable
 71
               0
  0
DIMSTYLE
105
18
100
AcDbSymbolTableRecord
100
AcDbDimStyleTableRecord
  2
Standard
 70
               0
  3

  4

 40
1.0
 41
0.18
 42
0.0625
 43
0.38
 44
0.18
 45
0.0
 46
0.0
 47
0.0
 48
0.0
 71
               0
 72
               0
 73
               1
 74
               1
 75
               0
 76
               0
 77
               0
 78
               0
 79
               0
140
0.18
141
0.09
142
0.0
143
25.399999999999999
144
1.0
145
0.0
146
1.0
147
0.09
148
0.0
170
               0
171
               2
172
               0
173
               0
174
               0
175
               0
176
               0
177
               0
178
               0
179
               0
271
               4
272
               4
273
               2
274
               2
275
               0
276
               0
277
               2
278
              46
279
               0
280
               0
281
               0
282
               0
283
               1
284
               0
285
               0
286
               0
288
               0
289
               3
340
17
341
0
342
0
343
0
344
0
371
              -2
372
              -2
  0
DIMSTYLE
105
4B
100
AcDbSymbolTableRecord
100
AcDbDimStyleTableRecord
  2
tfrom線あり
 70
               0
  3
<>
  4
[]
 40
1.0
 41
3.999755859375
 42
24.999999999999996
 43
0.9999999999999999
 44
0.0
 45
0.0
 46
0.0
 47
0.0
 48
0.0
 71
               0
 72
               0
 73
               0
 74
               0
 75
               0
 76
               0
 77
               1
 78
              11
 79
               0
140
24.432617187500004
141
0.0
142
0.0
143
1.0
144
1.0
145
0.0
146
1.0
147
0.4999999999999999
148
0.0
170
               0
171
               1
172
               0
173
               0
174
               1
175
               0
176
               0
177
               0
178
               0
179
               2
271
               1
272
               1
273
               2
274
               2
275
               0
276
               2
277
               2
278
              46
279
               0
280
               0
281
               0
282
               0
283
               1
284
              11
285
              11
286
              11
288
               0
289
               0
340
30
341
43
342
43
343
0
344
0
371
              -2
372
              -2
  0
DIMSTYLE
105
50
100
AcDbSymbolTableRecord
100
AcDbDimStyleTableRecord
  2
JIS
 70
               0
  3
<>
  4
[]
 40
1.0
 41
31.75
 42
0.0
 43
6.9999999999999396
 44
19.999999999996199
 45
0.0
 46
0.0
 47
0.0
 48
0.0
 71
               0
 72
               0
 73
               0
 74
               0
 75
               0
 76
               0
 77
               1
 78
              11
 79
               0
140
24.432617187500004
141
0.0
142
0.0
143
1.0
144
1.0
145
0.0
146
1.0
147
1.00000000000108
148
0.0
170
               0
171
               1
172
               0
173
               0
174
               1
175
               0
176
               0
177
               0
178
               0
179
               2
271
               1
272
               1
273
               2
274
               2
275
               0
276
               2
277
               2
278
              46
279
               0
280
               0
281
               0
282
               0
283
               1
284
              11
285
              11
286
              11
288
               0
289
               0
340
30
341
4C
342
4C
343
0
344
0
371
              -2
372
              -2
  0
ENDTAB
  0
TABLE
  2
BLOCK_RECORD
  5
1
100
AcDbSymbolTable
 70
              15
  0
BLOCK_RECORD
  5
A
100
AcDbSymbolTableRecord
100
AcDbBlockTableRecord
  2
*MODEL_SPACE
340
20
  0
BLOCK_RECORD
  5
B
100
AcDbSymbolTableRecord
100
AcDbBlockTableRecord
  2
*PAPER_SPACE
340
21
  0
BLOCK_RECORD
  5
43
100
AcDbSymbolTableRecord
100
AcDbBlockTableRecord
  2
_DOT
340
0
  0
BLOCK_RECORD
  5
4C
100
AcDbSymbolTableRecord
100
AcDbBlockTableRecord
  2
VW_FILLEDARROW
340
0
  0
BLOCK_RECORD
  5
23
100
AcDbSymbolTableRecord
100
AcDbBlockTableRecord
  2
グループ
340
0
102
{BLKREFS
331
FA
102
}
  0
BLOCK_RECORD
  5
24
100
AcDbSymbolTableRecord
100
AcDbBlockTableRecord
  2
*D3
340
0
  0
BLOCK_RECORD
  5
25
100
AcDbSymbolTableRecord
100
AcDbBlockTableRecord
  2
*D4
340
0
  0
BLOCK_RECORD
  5
26
100
AcDbSymbolTableRecord
100
AcDbBlockTableRecord
  2
*D5
340
0
  0
BLOCK_RECORD
  5
27
100
AcDbSymbolTableRecord
100
AcDbBlockTableRecord
  2
*D6
340
0
  0
BLOCK_RECORD
  5
28
100
AcDbSymbolTableRecord
100
AcDbBlockTableRecord
  2
*D7
340
0
  0
BLOCK_RECORD
  5
29
100
AcDbSymbolTableRecord
100
AcDbBlockTableRecord
  2
*D8
340
0
  0
BLOCK_RECORD
  5
2A
100
AcDbSymbolTableRecord
100
AcDbBlockTableRecord
  2
*D9
340
0
  0
BLOCK_RECORD
  5
2B
100
AcDbSymbolTableRecord
100
AcDbBlockTableRecord
  2
*D10
340
0
  0
BLOCK_RECORD
  5
2C
100
AcDbSymbolTableRecord
100
AcDbBlockTableRecord
  2
*D11
340
0
  0
BLOCK_RECORD
  5
2D
100
AcDbSymbolTableRecord
100
AcDbBlockTableRecord
  2
*D12
340
0
  0
BLOCK_RECORD
  5
2E
100
AcDbSymbolTableRecord
100
AcDbBlockTableRecord
  2
*D13
340
0
  0
BLOCK_RECORD
  5
2F
100
AcDbSymbolTableRecord
100
AcDbBlockTableRecord
  2
*D14
340
0
  0
ENDTAB
  0
ENDSEC
  0
SECTION
  2
BLOCKS
  0
BLOCK
  5
D
100
AcDbEntity
  8
0
390
0
100
AcDbBlockBegin
  2
*MODEL_SPACE
 70
               0
 10
0.0
 20
0.0
 30
0.0
  3
*MODEL_SPACE
  1

  0
ENDBLK
  5
E
100
AcDbEntity
  8
0
390
0
100
AcDbBlockEnd
  0
BLOCK
  5
F
100
AcDbEntity
 67
               1
  8
0
390
0
100
AcDbBlockBegin
  2
*PAPER_SPACE
 70
               0
 10
0.0
 20
0.0
 30
0.0
  3
*PAPER_SPACE
  1

  0
ENDBLK
  5
10
100
AcDbEntity
 67
               1
  8
0
390
0
100
AcDbBlockEnd
  0
BLOCK
  5
44
100
AcDbEntity
  8
0
390
0
100
AcDbBlockBegin
  2
_DOT
 70
               0
 10
0.0
 20
0.0
 30
0.0
  3
_DOT
  1

  0
POLYLINE
  5
45
100
AcDbEntity
  8
0
370
              -2
390
0
  6
ByBlock
 62
               0
100
AcDb2dPolyline
 66
               1
 10
0.0
 20
0.0
 30
0.0
 70
               1
 40
0.5
 41
0.5
  0
VERTEX
  5
46
100
AcDbEntity
  8
0
370
              -2
390
0
  6
ByBlock
 62
               0
100
AcDbVertex
100
AcDb2dVertex
 10
-0.25
 20
0.0
 30
0.0
 42
1.0
  0
VERTEX
  5
47
100
AcDbEntity
  8
0
370
              -2
390
0
  6
ByBlock
 62
               0
100
AcDbVertex
100
AcDb2dVertex
 10
0.25
 20
0.0
 30
0.0
 42
1.0
  0
SEQEND
  5
48
100
AcDbEntity
  8
0
390
0
  0
LINE
  5
49
100
AcDbEntity
  8
0
370
              -2
390
0
  6
ByBlock
 62
               0
100
AcDbLine
 10
-0.5
 20
0.0
 30
0.0
 11
-1.0
 21
0.0
 31
0.0
  0
ENDBLK
  5
4A
100
AcDbEntity
  8
0
390
0
100
AcDbBlockEnd
  0
BLOCK
  5
4D
100
AcDbEntity
  8
0
370
              -2
390
0
  6
ByBlock
 62
               0
100
AcDbBlockBegin
  2
VW_FILLEDARROW
 70
               0
 10
0.0
 20
0.0
 30
0.0
  3
VW_FILLEDARROW
  1

  0
SOLID
  5
4E
100
AcDbEntity
  8
0
370
              -2
390
0
 62
               0
100
AcDbTrace
 10
0.0
 20
0.0
 30
0.0
 11
-0.9921874999999999
 21
-0.2658558393652545
 31
0.0
 12
-0.9921874999999999
 22
0.2658558393652548
 32
0.0
 13
-0.9921874999999999
 23
0.2658558393652548
 33
0.0
  0
ENDBLK
  5
4F
100
AcDbEntity
  8
0
390
0
100
AcDbBlockEnd
  0
BLOCK
  5
51
100
AcDbEntity
  8
template
390
0
100
AcDbBlockBegin
  2
グループ
 70
               0
 10
0.0
 20
0.0
 30
0.0
  3
グループ
  1

  0
LWPOLYLINE
  5
52
100
AcDbEntity
  8
0
370
              15
390
0
  6
Continuous
 62
               7
100
AcDbPolyline
 90
        8
 70
             129
 10
887.42850780307481
 20
-1098.5853016666131
 10
887.42850780307481
 20
-1104.582690360189
 10
877.92731088507162
 20
-1104.582690360189
 10
877.92731088507162
 20
-1129.0336536236978
 10
869.57193362328871
 20
-1129.0336536236978
 10
869.57193362328871
 20
-1104.582690360189
 10
860.23897667697929
 20
-1104.582690360189
 10
860.23897667697929
 20
-1098.5853016666131
  0
LWPOLYLINE
  5
53
100
AcDbEntity
  8
0
370
              15
390
0
  6
Continuous
 62
               7
100
AcDbPolyline
 90
      101
 70
             128
 10
900.15679963363164
 20
-1099.3135501595495
 10
900.17214966241863
 20
-1099.3091894028639
 42
-0.0222221607811955
 10
900.46215423908779
 20
-1099.2405649376199
 10
900.47794800308361
 20
-1099.2375615145224
 42
-0.0146883565585152
 10
900.74065070830557
 20
-1099.1955583275735
 42
-0.0127458844187406
 10
901.00528967545358
 20
-1099.1680213595014
 10
901.06774475377142
 20
-1099.1631279369128
 42
-0.0198099018566978
 10
901.45859386324832
 20
-1099.1480427795163
 10
901.51040533269202
 20
-1099.1480965551814
 42
-0.0147617382765651
 10
902.00502879366275
 20
-1099.163216580426
 10
902.0777202485441
 20
-1099.167589187314
 42
-0.0162624549001414
 10
902.46787387800578
 20
-1099.2038220625861
 10
902.58940626926119
 20
-1099.2191086215823
 42
-0.0080020874671211
 10
902.73498530035647
 20
-1099.2397914688511
 10
902.77330477095757
 20
-1099.2458627466633
 42
-0.0053821929678575
 10
902.84178887626649
 20
-1099.2574702704837
 10
902.11538317706777
 20
-1101.4383987261976
 42
0.0108667757385451
 10
902.04806610693652
 20
-1101.4252116109776
 10
902.01059808374737
 20
-1101.4187138683833
 42
0.0170663203308855
 10
901.86738129683181
 20
-1101.3988842710914
 10
901.79950596414892
 20
-1101.3918371005041
 42
0.0220162375274052
 10
901.51912655629496
 20
-1101.3751547397339
 10
901.44127098924173
 20
-1101.3739553724674
 42
0.028260691578391
 10
901.10563466566362
 20
-1101.3877586494364
 10
901.06172139189118
 20
-1101.3920586394402
 42
0.0169677213690595
 10
900.8157968969324
 20
-1101.4245956889922
 42
0.0190576269869648
 10
900.57288893435134
 20
-1101.4747425610988
 10
900.56662974624146
 20
-1101.4762855352078
 42
0.0213685642844698
 10
900.31624526176313
 20
-1101.5494858203126
 10
900.31075536684739
 20
-1101.5513488163715
 42
0.0237595297594327
 10
900.05726048194617
 20
-1101.6510333382682
 10
900.05215840791902
 20
-1101.6533251137453
 42
0.0261857468817637
 10
899.79998763168578
 20
-1101.7828614511218
 10
899.78956144260155
 20
-1101.7889269255886
 42
0.0272553062022296
 10
899.5531316673638
 20
-1101.9442991315327
 10
899.51836865385337
 20
-1101.9699602796256
 42
0.0325996893174768
 10
899.3682133102028
 20
-1102.0967081525962
 10
899.34450388107803
 20
-1102.1195261811106
 42
0.0138050960642816
 10
899.25262072486953
 20
-1102.2129758426609
 42
0.0125280103805281
 10
899.16577819203565
 20
-1102.3111391692612
 10
899.14209774712765
 20
-1102.3392976674481
 42
0.0205218024729119
 10
899.01699767161574
 20
-1102.5010909816747
 10
898.99453133112684
 20
-1102.5327507115041
 42
0.0163110129581913
 10
898.83882095187528
 20
-1102.7680811465743
 10
898.83609705582455
 20
-1102.7725049085595
 42
0.0131897341896935
 10
898.68929653491978
 20
-1103.0256370009217
 10
898.68759643955218
 20
-1103.0287552400596
 42
0.0107895576061042
 10
898.54981973734277
 20
-1103.2949704496918
 10
898.54908684781628
 20
-1103.2964646823414
 42
0.0091371507215707
 10
898.42060689916661
 20
-1103.5709898801015
 10
898.3908612677576
 20
-1103.6376963872599
 42
0.0135418326351206
 10
898.21914732868856
 20
-1104.0526341725219
 10
898.1855425202524
 20
-1104.1405003148082
 42
0.0092834542409608
 10
898.01431346033087
 20
-1104.6143988131153
 10
897.98869633261393
 20
-1104.6896398829065
 42
0.0054261043581901
 10
897.8810581843203
 20
-1105.0174038559735
 10
897.8635321981368
 20
-1105.0727920182228
 42
0.0008225090823089
 10
897.79486214631288
 20
-1105.2910607763529
 10
896.81017301437942
 20
-1108.3159520696095
 10
900.04279685445317
 20
-1108.3159520696095
 10
899.53860442459973
 20
-1110.2204303679619
 10
896.28254814261641
 20
-1110.2204303679619
 10
890.45339911026258
 20
-1129.0336534339667
 10
888.62830149995216
 20
-1129.0336534339667
 10
894.46297953545309
 20
-1110.2204303679619
 10
892.05786316641297
 20
-1110.2204303679619
 10
892.56205559626642
 20
-1108.3159520696095
 10
894.99060440721632
 20
-1108.3159520696095
 10
895.85075932540485
 20
-1105.6795390689106
 42
-0.0005863560637126
 10
895.88749400356267
 20
-1105.5627126487645
 10
895.96358183726886
 20
-1105.3217203492334
 42
-0.0087522378925693
 10
896.16304998072576
 20
-1104.7264442620867
 10
896.25531425613713
 20
-1104.4663040935795
 42
-0.0077400953830536
 10
896.51324791527031
 20
-1103.7732994160256
 10
896.52901288684689
 20
-1103.7328685326454
 42
-0.0082369946330518
 10
896.77609735746114
 20
-1103.1287894664438
 42
-0.0085725238363833
 10
897.0433434534657
 20
-1102.5333634271533
 10
897.14497305447276
 20
-1102.3169423251691
 42
-0.0168109410597693
 10
897.43191748320135
 20
-1101.7557347990673
 10
897.55776087360562
 20
-1101.5287707661685
 42
-0.0007817726864684
 10
897.61204522371702
 20
-1101.4312265210388
 10
897.61217352972051
 20
-1101.4309968123268
 42
-0.0036626142151402
 10
897.6670613937556
 20
-1101.3343989323339
 42
-0.0080221150679748
 10
897.72418564916165
 20
-1101.2391196975823
 10
897.75488560052349
 20
-1101.1897287484589
 42
-0.020213932556849
 10
897.88254134033025
 20
-1101.0017471477775
 10
897.93660880551784
 20
-1100.9286682835366
 42
-0.0249323791798447
 10
898.1957715992371
 20
-1100.612623041382
 10
898.219911413364
 20
-1100.5860087684696
 42
-0.0242132121533685
 10
898.55959215490736
 20
-1100.2461252822643
 10
898.60750372765756
 20
-1100.2026161460788
 42
-0.025101752785879
 10
898.8914854282973
 20
-1099.969623400315
 10
898.89293090511126
 20
-1099.9685541427359
 42
-0.0130868069041441
 10
899.19119155506837
 20
-1099.7597736741934
 10
899.19275337420993
 20
-1099.7587402339191
 42
-0.0290329526391372
 10
899.50386451560439
 20
-1099.5779147322892
 10
899.53371007758813
 20
-1099.5628123494507
 42
-0.016025019004918
 10
899.7996144913551
 20
-1099.4387962392361
 42
-0.0267600374781188
 10
900.07489056882275
 20
-1099.3380479186881
 10
900.10162648834466
 20
-1099.329855359862
 42
-0.0049981587669928
 10
900.15679963363164
 20
-1099.3135501595495
 42
-0.0049981587669928
  0
LWPOLYLINE
  5
54
100
AcDbEntity
  8
0
370
              15
390
0
  6
Continuous
 62
               7
100
AcDbPolyline
 90
      118
 70
             128
 10
919.97116719807855
 20
-1108.3899353974368
 10
921.84628912257813
 20
-1108.3899353974368
 10
921.00825021697824
 20
-1111.0715019238369
 42
-0.0010587229271326
 10
921.03970603252708
 20
-1111.0345973905087
 10
921.09790012318217
 20
-1110.9666151343058
 42
-0.0071874740407281
 10
921.24827534128485
 20
-1110.7959744422717
 10
921.38999811454244
 20
-1110.6397383009635
 42
-0.0148118053512363
 10
921.84012740725746
 20
-1110.1721244549483
 10
921.92734974215796
 20
-1110.086727134096
 42
-0.0086273358692412
 10
922.26289854316542
 20
-1109.7693515000806
 10
922.3067322593937
 20
-1109.7293018557452
 42
-0.0103138323108248
 10
922.56475596162477
 20
-1109.5031387184092
 10
922.61053036795431
 20
-1109.4646566711469
 42
-0.0060206748566913
 10
922.78337843206396
 20
-1109.3228620203945
 10
922.78540956294933
 20
-1109.3212363147638
 42
-0.0067069027288347
 10
922.95770237761246
 20
-1109.1870856809683
 10
922.96025114354279
 20
-1109.1851555110898
 42
-0.0076184352042729
 10
923.13115640940987
 20
-1109.0597806358492
 42
-0.0089652861674684
 10
923.30611737214042
 20
-1108.9401473755195
 10
923.34246909229182
 20
-1108.9162361620322
 42
-0.0156916245935726
 10
923.5384285894495
 20
-1108.7959736755593
 42
-0.0023299011056857
 10
923.73869063342374
 20
-1108.6827957360215
 10
923.75407476580926
 20
-1108.6741957409538
 42
-0.0107669341488083
 10
923.98831159090867
 20
-1108.5497956076051
 10
924.01057639198541
 20
-1108.5385788576543
 42
-0.0078058045893961
 10
924.29416650994597
 20
-1108.4012174020122
 10
924.30407359764729
 20
-1108.3966082741474
 42
-0.0181829330475808
 10
924.61438300225859
 20
-1108.2657445330535
 10
924.66843844482992
 20
-1108.2452294131083
 42
-0.0208411536029628
 10
925.01752341227984
 20
-1108.129138950615
 10
925.03187951240568
 20
-1108.125020505662
 42
-0.0222799817135488
 10
925.3605993063245
 20
-1108.0463789395212
 10
925.36948826956063
 20
-1108.0446669289363
 42
-0.0215509523883926
 10
925.68595923784142
 20
-1107.9977512404021
 10
925.7284411988893
 20
-1107.9933137136113
 42
-0.0182545924874919
 10
925.96254997819563
 20
-1107.9774698882202
 10
926.00195099453856
 20
-1107.976245343141
 42
-0.0072962856532621
 10
926.15787387423245
 20
-1107.9736760146188
 10
926.18697354481083
 20
-1107.9736211792151
 42
-0.0059227516305493
 10
926.2847230439495
 20
-1107.9745948910054
 10
926.31396526148148
 20
-1107.9752326576101
 42
-0.0011833111896635
 10
926.35321654515383
 20
-1107.9761816619189
 10
925.55782994954666
 20
-1110.5149156070179
 42
0.0143932051558806
 10
925.53142856719739
 20
-1110.5047166369729
 10
925.52415659477879
 20
-1110.5021454181151
 42
0.0234388603506462
 10
925.48232572884513
 20
-1110.4895261823997
 10
925.47364406593397
 20
-1110.4873452203949
 42
0.019916274299636
 10
925.41335523185353
 20
-1110.4747284850598
 10
925.39254129404776
 20
-1110.4712312856313
 42
0.0293643550666489
 10
925.28946643528752
 20
-1110.4600812399781
 10
925.26478125456822
 20
-1110.4588696229596
 42
0.0214606686869771
 10
925.11164033861894
 20
-1110.4579310625422
 10
925.10226842779787
 20
-1110.4582759740865
 42
0.0167564054187873
 10
924.93074823669042
 20
-1110.4703530164545
 10
924.92228844393048
 20
-1110.4712343568817
 42
0.0137677553248462
 10
924.7349351306616
 20
-1110.4959836654257
 10
924.72758339115796
 20
-1110.4971615853931
 42
0.0118497261485383
 10
924.52708562705811
 20
-1110.5341789355818
 10
924.52093561980939
 20
-1110.5354657983023
 42
0.0106421143890638
 10
924.31005473252515
 20
-1110.584298173877
 10
924.30514592413533
 20
-1110.5855455165622
 42
0.0099746379704929
 10
924.08668745497062
 20
-1110.6457200448776
 10
924.02513941480254
 20
-1110.6640019235076
 42
0.0191613675862391
 10
923.68915495228384
 20
-1110.7779793037957
 10
923.60109517954061
 20
-1110.811666214119
 42
0.020527408014578
 10
923.21578840764073
 20
-1110.9774946219452
 10
923.15813912565523
 20
-1111.0051625865192
 42
0.0181256912193595
 10
922.89986218499178
 20
-1111.1408464054953
 10
922.84690680167637
 20
-1111.1711640187109
 42
0.0140709242410276
 10
922.70195186704939
 20
-1111.2596586921445
 10
922.67570299844169
 20
-1111.2767155108529
 42
0.0086667884386833
 10
922.58677683688836
 20
-1111.3367181787428
 42
0.0036408192029251
 10
922.49934359885242
 20
-1111.3988990365372
 10
922.46411672438637
 20
-1111.4243399824479
 42
0.0052260781284525
 10
922.30788802698623
 20
-1111.539672369089
 10
922.29168117073573
 20
-1111.5519004797002
 42
0.0050024435892504
 10
922.1056778276743
 20
-1111.6951830479645
 10
922.09035967116176
 20
-1111.7072290704082
 42
0.0136138710275684
 10
921.8799184028361
 20
-1111.8821955753219
 10
921.8462505270428
 20
-1111.9117745480357
 42
0.0172815186913073
 10
921.58184698538014
 20
-1112.1607712206594
 10
921.57928463953772
 20
-1112.1633570378062
 42
0.0189403857991616
 10
921.32870284095702
 20
-1112.4361623026125
 10
921.29607134742253
 20
-1112.474506234108
 42
0.0185044199506342
 10
921.10411490844263
 20
-1112.7177548152308
 42
0.0088565243901835
 10
920.92565480181418
 20
-1112.9712712353808
 10
920.91647682216569
 20
-1112.9848126151408
 42
0.0157195347233255
 10
920.73325621582558
 20
-1113.2743348244667
 10
920.68717327389959
 20
-1113.3524870214792
 42
0.009545187978228
 10
920.52208772376309
 20
-1113.6450816638339
 10
920.51093980483051
 20
-1113.6657523359713
 42
0.0100351706259463
 10
920.3788960556742
 20
-1113.9228078964566
 42
0.0086935915420989
 10
920.25656490388292
 20
-1114.1846410418552
 10
920.25324416246576
 20
-1114.1920833648328
 42
0.0072580174869576
 10
920.13289771051757
 20
-1114.4726753564237
 10
920.1296360772144
 20
-1114.4805953824339
 42
0.0060005122612748
 10
920.01043540887395
 20
-1114.7802050530329
 10
920.00722443053007
 20
-1114.7885665809436
 42
0.0049017786976095
 10
919.88832427167415
 20
-1115.1074955615438
 10
919.88515846528219
 20
-1115.1162484987785
 42
0.0039415167601332
 10
919.76572218722583
 20
-1115.4547905611907
 10
919.76259108457339
 20
-1115.4638937620678
 42
0.0031035838760045
 10
919.64178629888988
 20
-1115.8223336238123
 10
919.63867625435
 20
-1115.831754245216
 42
0.0025070747150604
 10
919.51577490304294
 20
-1116.2104014621339
 10
919.47848100660917
 20
-1116.327293127413
 42
0.0029081910285026
 10
919.28646270879403
 20
-1116.9414567857184
 10
919.24565954028128
 20
-1117.0746800279805
 42
0.0009266453734063
 10
918.97724216596419
 20
-1117.9569044879113
 10
918.95635469324941
 20
-1118.0260163673927
 42
-0.0005809993663083
 10
918.67901801273479
 20
-1118.939824473779
 10
918.61273621448913
 20
-1119.1573094058497
 42
-0.0012018708172016
 10
918.46575190503268
 20
-1119.6354720704594
 10
918.41343205343219
 20
-1119.8042312114374
 42
-0.0002691059601752
 10
918.36986257229864
 20
-1119.9444988316673
 10
915.53690667400929
 20
-1129.0336534339667
 10
913.71891778203076
 20
-1129.0336534339667
 10
919.97116719807855
 20
-1108.3899353974368
  0
SPLINE
  5
55
100
AcDbEntity
  8
0
370
              15
390
0
  6
Continuous
 62
               7
100
AcDbSpline
210
0.0
220
0.0
230
1.0
 70
              13
 71
               2
 72
             782
 73
             779
 74
               0
 42
0.000001
 43
0.000001
 40
0.0
 40
0.0
 40
0.0
 40
1.0
 40
1.0
 40
2.0
 40
2.0
 40
3.0
 40
3.0
 40
4.0
 40
4.0
 40
5.0
 40
5.0
 40
6.0
 40
6.0
 40
7.0
 40
7.0
 40
8.0
 40
8.0
 40
9.0
 40
9.0
 40
10.0
 40
10.0
 40
11.0
 40
11.0
 40
12.0
 40
12.0
 40
13.0
 40
13.0
 40
14.0
 40
14.0
 40
15.0
 40
15.0
 40
16.0
 40
16.0
 40
17.0
 40
17.0
 40
18.0
 40
18.0
 40
19.0
 40
19.0
 40
20.0
 40
20.0
 40
21.0
 40
21.0
 40
22.0
 40
22.0
 40
23.0
 40
23.0
 40
24.0
 40
24.0
 40
25.0
 40
25.0
 40
26.0
 40
26.0
 40
27.0
 40
27.0
 40
28.0
 40
28.0
 40
29.0
 40
29.0
 40
30.0
 40
30.0
 40
31.0
 40
31.0
 40
32.0
 40
32.0
 40
33.0
 40
33.0
 40
34.0
 40
34.0
 40
35.0
 40
35.0
 40
36.0
 40
36.0
 40
37.0
 40
37.0
 40
38.0
 40
38.0
 40
39.0
 40
39.0
 40
40.0
 40
40.0
 40
41.0
 40
41.0
 40
42.0
 40
42.0
 40
43.0
 40
43.0
 40
44.0
 40
44.0
 40
45.0
 40
45.0
 40
46.0
 40
46.0
 40
47.0
 40
47.0
 40
48.0
 40
48.0
 40
49.0
 40
49.0
 40
50.0
 40
50.0
 40
51.0
 40
51.0
 40
52.0
 40
52.0
 40
53.0
 40
53.0
 40
54.0
 40
54.0
 40
55.0
 40
55.0
 40
56.0
 40
56.0
 40
57.0
 40
57.0
 40
58.0
 40
58.0
 40
59.0
 40
59.0
 40
60.0
 40
60.0
 40
61.0
 40
61.0
 40
62.0
 40
62.0
 40
63.0
 40
63.0
 40
64.0
 40
64.0
 40
65.0
 40
65.0
 40
66.0
 40
66.0
 40
67.0
 40
67.0
 40
68.0
 40
68.0
 40
69.0
 40
69.0
 40
70.0
 40
70.0
 40
71.0
 40
71.0
 40
72.0
 40
72.0
 40
73.0
 40
73.0
 40
74.0
 40
74.0
 40
75.0
 40
75.0
 40
76.0
 40
76.0
 40
77.0
 40
77.0
 40
78.0
 40
78.0
 40
79.0
 40
79.0
 40
80.0
 40
80.0
 40
81.0
 40
81.0
 40
82.0
 40
82.0
 40
83.0
 40
83.0
 40
84.0
 40
84.0
 40
85.0
 40
85.0
 40
86.0
 40
86.0
 40
87.0
 40
87.0
 40
88.0
 40
88.0
 40
89.0
 40
89.0
 40
90.0
 40
90.0
 40
91.0
 40
91.0
 40
92.0
 40
92.0
 40
93.0
 40
93.0
 40
94.0
 40
94.0
 40
95.0
 40
95.0
 40
96.0
 40
96.0
 40
97.0
 40
97.0
 40
98.0
 40
98.0
 40
99.0
 40
99.0
 40
100.0
 40
100.0
 40
101.0
 40
101.0
 40
102.0
 40
102.0
 40
103.0
 40
103.0
 40
104.0
 40
104.0
 40
105.0
 40
105.0
 40
106.0
 40
106.0
 40
107.0
 40
107.0
 40
108.0
 40
108.0
 40
109.0
 40
109.0
 40
110.0
 40
110.0
 40
111.0
 40
111.0
 40
112.0
 40
112.0
 40
113.0
 40
113.0
 40
114.0
 40
114.0
 40
115.0
 40
115.0
 40
116.0
 40
116.0
 40
117.0
 40
117.0
 40
118.0
 40
118.0
 40
119.0
 40
119.0
 40
120.0
 40
120.0
 40
121.0
 40
121.0
 40
122.0
 40
122.0
 40
123.0
 40
123.0
 40
124.0
 40
124.0
 40
125.0
 40
125.0
 40
126.0
 40
126.0
 40
127.0
 40
127.0
 40
128.0
 40
128.0
 40
129.0
 40
129.0
 40
130.0
 40
130.0
 40
131.0
 40
131.0
 40
132.0
 40
132.0
 40
133.0
 40
133.0
 40
134.0
 40
134.0
 40
135.0
 40
135.0
 40
136.0
 40
136.0
 40
137.0
 40
137.0
 40
138.0
 40
138.0
 40
139.0
 40
139.0
 40
140.0
 40
140.0
 40
141.0
 40
141.0
 40
142.0
 40
142.0
 40
143.0
 40
143.0
 40
144.0
 40
144.0
 40
145.0
 40
145.0
 40
146.0
 40
146.0
 40
147.0
 40
147.0
 40
148.0
 40
148.0
 40
149.0
 40
149.0
 40
150.0
 40
150.0
 40
151.0
 40
151.0
 40
152.0
 40
152.0
 40
153.0
 40
153.0
 40
154.0
 40
154.0
 40
155.0
 40
155.0
 40
156.0
 40
156.0
 40
157.0
 40
157.0
 40
158.0
 40
158.0
 40
159.0
 40
159.0
 40
160.0
 40
160.0
 40
161.0
 40
161.0
 40
162.0
 40
162.0
 40
163.0
 40
163.0
 40
164.0
 40
164.0
 40
165.0
 40
165.0
 40
166.0
 40
166.0
 40
167.0
 40
167.0
 40
168.0
 40
168.0
 40
169.0
 40
169.0
 40
170.0
 40
170.0
 40
171.0
 40
171.0
 40
172.0
 40
172.0
 40
173.0
 40
173.0
 40
174.0
 40
174.0
 40
175.0
 40
175.0
 40
176.0
 40
176.0
 40
177.0
 40
177.0
 40
178.0
 40
178.0
 40
179.0
 40
179.0
 40
180.0
 40
180.0
 40
181.0
 40
181.0
 40
182.0
 40
182.0
 40
183.0
 40
183.0
 40
184.0
 40
184.0
 40
185.0
 40
185.0
 40
186.0
 40
186.0
 40
187.0
 40
187.0
 40
188.0
 40
188.0
 40
189.0
 40
189.0
 40
190.0
 40
190.0
 40
191.0
 40
191.0
 40
192.0
 40
192.0
 40
193.0
 40
193.0
 40
194.0
 40
194.0
 40
195.0
 40
195.0
 40
196.0
 40
196.0
 40
197.0
 40
197.0
 40
198.0
 40
198.0
 40
199.0
 40
199.0
 40
200.0
 40
200.0
 40
201.0
 40
201.0
 40
202.0
 40
202.0
 40
203.0
 40
203.0
 40
204.0
 40
204.0
 40
205.0
 40
205.0
 40
206.0
 40
206.0
 40
207.0
 40
207.0
 40
208.0
 40
208.0
 40
209.0
 40
209.0
 40
210.0
 40
210.0
 40
211.0
 40
211.0
 40
212.0
 40
212.0
 40
213.0
 40
213.0
 40
214.0
 40
214.0
 40
215.0
 40
215.0
 40
216.0
 40
216.0
 40
217.0
 40
217.0
 40
218.0
 40
218.0
 40
219.0
 40
219.0
 40
220.0
 40
220.0
 40
221.0
 40
221.0
 40
222.0
 40
222.0
 40
223.0
 40
223.0
 40
224.0
 40
224.0
 40
225.0
 40
225.0
 40
226.0
 40
226.0
 40
227.0
 40
227.0
 40
228.0
 40
228.0
 40
229.0
 40
229.0
 40
230.0
 40
230.0
 40
231.0
 40
231.0
 40
232.0
 40
232.0
 40
233.0
 40
233.0
 40
234.0
 40
234.0
 40
235.0
 40
235.0
 40
236.0
 40
236.0
 40
237.0
 40
237.0
 40
238.0
 40
238.0
 40
239.0
 40
239.0
 40
240.0
 40
240.0
 40
241.0
 40
241.0
 40
242.0
 40
242.0
 40
243.0
 40
243.0
 40
244.0
 40
244.0
 40
245.0
 40
245.0
 40
246.0
 40
246.0
 40
247.0
 40
247.0
 40
248.0
 40
248.0
 40
249.0
 40
249.0
 40
250.0
 40
250.0
 40
251.0
 40
251.0
 40
252.0
 40
252.0
 40
253.0
 40
253.0
 40
254.0
 40
254.0
 40
255.0
 40
255.0
 40
256.0
 40
256.0
 40
257.0
 40
257.0
 40
258.0
 40
258.0
 40
259.0
 40
259.0
 40
260.0
 40
260.0
 40
261.0
 40
261.0
 40
262.0
 40
262.0
 40
263.0
 40
263.0
 40
264.0
 40
264.0
 40
265.0
 40
265.0
 40
266.0
 40
266.0
 40
267.0
 40
267.0
 40
268.0
 40
268.0
 40
269.0
 40
269.0
 40
270.0
 40
270.0
 40
271.0
 40
271.0
 40
272.0
 40
272.0
 40
273.0
 40
273.0
 40
274.0
 40
274.0
 40
275.0
 40
275.0
 40
276.0
 40
276.0
 40
277.0
 40
277.0
 40
278.0
 40
278.0
 40
279.0
 40
279.0
 40
280.0
 40
280.0
 40
281.0
 40
281.0
 40
282.0
 40
282.0
 40
283.0
 40
283.0
 40
284.0
 40
284.0
 40
285.0
 40
285.0
 40
286.0
 40
286.0
 40
287.0
 40
287.0
 40
288.0
 40
288.0
 40
289.0
 40
289.0
 40
290.0
 40
290.0
 40
291.0
 40
291.0
 40
292.0
 40
292.0
 40
293.0
 40
293.0
 40
294.0
 40
294.0
 40
295.0
 40
295.0
 40
296.0
 40
296.0
 40
297.0
 40
297.0
 40
298.0
 40
298.0
 40
299.0
 40
299.0
 40
300.0
 40
300.0
 40
301.0
 40
301.0
 40
302.0
 40
302.0
 40
303.0
 40
303.0
 40
304.0
 40
304.0
 40
305.0
 40
305.0
 40
306.0
 40
306.0
 40
307.0
 40
307.0
 40
308.0
 40
308.0
 40
309.0
 40
309.0
 40
310.0
 40
310.0
 40
311.0
 40
311.0
 40
312.0
 40
312.0
 40
313.0
 40
313.0
 40
314.0
 40
314.0
 40
315.0
 40
315.0
 40
316.0
 40
316.0
 40
317.0
 40
317.0
 40
318.0
 40
318.0
 40
319.0
 40
319.0
 40
320.0
 40
320.0
 40
321.0
 40
321.0
 40
322.0
 40
322.0
 40
323.0
 40
323.0
 40
324.0
 40
324.0
 40
325.0
 40
325.0
 40
326.0
 40
326.0
 40
327.0
 40
327.0
 40
328.0
 40
328.0
 40
329.0
 40
329.0
 40
330.0
 40
330.0
 40
331.0
 40
331.0
 40
332.0
 40
332.0
 40
333.0
 40
333.0
 40
334.0
 40
334.0
 40
335.0
 40
335.0
 40
336.0
 40
336.0
 40
337.0
 40
337.0
 40
338.0
 40
338.0
 40
339.0
 40
339.0
 40
340.0
 40
340.0
 40
341.0
 40
341.0
 40
342.0
 40
342.0
 40
343.0
 40
343.0
 40
344.0
 40
344.0
 40
345.0
 40
345.0
 40
346.0
 40
346.0
 40
347.0
 40
347.0
 40
348.0
 40
348.0
 40
349.0
 40
349.0
 40
350.0
 40
350.0
 40
351.0
 40
351.0
 40
352.0
 40
352.0
 40
353.0
 40
353.0
 40
354.0
 40
354.0
 40
355.0
 40
355.0
 40
356.0
 40
356.0
 40
357.0
 40
357.0
 40
358.0
 40
358.0
 40
359.0
 40
359.0
 40
360.0
 40
360.0
 40
361.0
 40
361.0
 40
362.0
 40
362.0
 40
363.0
 40
363.0
 40
364.0
 40
364.0
 40
365.0
 40
365.0
 40
366.0
 40
366.0
 40
367.0
 40
367.0
 40
368.0
 40
368.0
 40
369.0
 40
369.0
 40
370.0
 40
370.0
 40
371.0
 40
371.0
 40
372.0
 40
372.0
 40
373.0
 40
373.0
 40
374.0
 40
374.0
 40
375.0
 40
375.0
 40
376.0
 40
376.0
 40
377.0
 40
377.0
 40
378.0
 40
378.0
 40
379.0
 40
379.0
 40
380.0
 40
380.0
 40
381.0
 40
381.0
 40
382.0
 40
382.0
 40
383.0
 40
383.0
 40
384.0
 40
384.0
 40
385.0
 40
385.0
 40
386.0
 40
386.0
 40
387.0
 40
387.0
 40
388.0
 40
388.0
 40
389.0
 40
389.0
 40
389.0
 10
930.2998716488114
 20
-1108.3790090340744
 30
0.0
 41
1.0
 10
931.11829575753177
 20
-1108.3790090340744
 30
0.0
 41
1.0
 10
931.93671986625213
 20
-1108.3790090340744
 30
0.0
 41
1.0
 10
931.52296613073543
 20
-1109.7216352983241
 30
0.0
 41
1.0
 10
931.10921239521872
 20
-1111.0642615625738
 30
0.0
 41
1.0
 10
931.12755189036329
 20
-1111.0355607896981
 30
0.0
 41
0.9999957264449635
 10
931.14605888718995
 20
-1111.0069677395541
 30
0.0
 41
1.0
 10
931.17648821134094
 20
-1110.959954861157
 30
0.0
 41
1.0
 10
931.20691753549204
 20
-1110.91294198276
 30
0.0
 41
1.0
 10
931.28628318059691
 20
-1110.7903231758582
 30
0.0
 41
0.9995394069080972
 10
931.37294157214797
 20
-1110.672745114118
 30
0.0
 41
1.0
 10
931.4086984344101
 20
-1110.624230221521
 30
0.0
 41
1.0
 10
931.44445529667234
 20
-1110.5757153289242
 30
0.0
 41
1.0
 10
931.57818196448829
 20
-1110.3942750538006
 30
0.0
 41
0.9994460617143433
 10
931.72368244577569
 20
-1110.2221326561516
 30
0.0
 41
1.0
 10
931.72807062675156
 20
-1110.216940975768
 30
0.0
 41
1.0
 10
931.73245880772754
 20
-1110.2117492953844
 30
0.0
 41
1.0
 10
931.86918292706468
 20
-1110.0499902585009
 30
0.0
 41
0.9994359394934497
 10
932.01645715741495
 20
-1109.8977740573373
 30
0.0
 41
1.0
 10
932.01884051136858
 20
-1109.895310726964
 30
0.0
 41
1.0
 10
932.0212238653221
 20
-1109.8928473965905
 30
0.0
 41
1.0
 10
932.16373138776612
 20
-1109.7455578561728
 30
0.0
 41
0.99952936885678
 10
932.31500306874864
 20
-1109.6072846440084
 30
0.0
 41
1.0
 10
932.33429682800966
 20
-1109.5896487583595
 30
0.0
 41
1.0
 10
932.35359058727056
 20
-1109.5720128727105
 30
0.0
 41
1.0
 10
932.46627474972809
 20
-1109.4690114318469
 30
0.0
 41
0.9997087614802914
 10
932.58379763868584
 20
-1109.3715671510465
 30
0.0
 41
1.0
 10
932.6029637118711
 20
-1109.3556755725303
 30
0.0
 41
1.0
 10
932.62212978505647
 20
-1109.3397839940144
 30
0.0
 41
1.0
 10
932.70132052764779
 20
-1109.274122870243
 30
0.0
 41
0.9999595338701152
 10
932.78167979849604
 20
-1109.2098971395935
 30
0.0
 41
1.0
 10
932.86203906935509
 20
-1109.1456714089356
 30
0.0
 41
0.9999749417502568
 10
932.94329960370374
 20
-1109.0825898549854
 30
0.0
 41
1.0
 10
932.96428574985907
 20
-1109.066298567689
 30
0.0
 41
1.0
 10
932.98527189601441
 20
-1109.0500072803929
 30
0.0
 41
1.0
 10
933.06983978131962
 20
-1108.9843582705494
 30
0.0
 41
0.99997920371256
 10
933.15524738109707
 20
-1108.9198054888998
 30
0.0
 41
1.0
 10
933.17607220707259
 20
-1108.9040656665934
 30
0.0
 41
1.0
 10
933.19689703304812
 20
-1108.8883258442872
 30
0.0
 41
1.0
 10
933.2406549809275
 20
-1108.85525270721
 30
0.0
 41
0.9999993373911212
 10
933.28433666700971
 20
-1108.822078911832
 30
0.0
 41
1.0
 10
933.32801835315365
 20
-1108.7889051164075
 30
0.0
 41
0.9999160953814502
 10
933.37254476407406
 20
-1108.7568740512086
 30
0.0
 41
1.0
 10
933.40536665149284
 20
-1108.7332628956242
 30
0.0
 41
1.0
 10
933.4381885389115
 20
-1108.70965174004
 30
0.0
 41
1.0
 10
933.54835872467049
 20
-1108.6303983636717
 30
0.0
 41
0.9980964527231465
 10
933.66744771817071
 20
-1108.5653108908161
 30
0.0
 41
1.0
 10
933.70448032509921
 20
-1108.5450709112229
 30
0.0
 41
1.0
 10
933.7415129320276
 20
-1108.5248309316294
 30
0.0
 41
1.0
 10
933.92083994530026
 20
-1108.4268206809284
 30
0.0
 41
0.9984572810572647
 10
934.10992851165872
 20
-1108.3492984195823
 30
0.0
 41
1.0
 10
934.11357478105572
 20
-1108.3478035272437
 30
0.0
 41
1.0
 10
934.11722105045271
 20
-1108.3463086349054
 30
0.0
 41
1.0
 10
934.29901707801889
 20
-1108.2717761582353
 30
0.0
 41
0.9987838528034255
 10
934.48726973657688
 20
-1108.21551051807
 30
0.0
 41
1.0
 10
934.49150768577397
 20
-1108.2142438643803
 30
0.0
 41
1.0
 10
934.49574563497106
 20
-1108.2129772106905
 30
0.0
 41
1.0
 10
934.67552239513452
 20
-1108.1592448779045
 30
0.0
 41
0.999065281620712
 10
934.85926832685197
 20
-1108.1212411983622
 30
0.0
 41
1.0
 10
934.86445672788477
 20
-1108.1201680952554
 30
0.0
 41
1.0
 10
934.86964512891757
 20
-1108.1190949921486
 30
0.0
 41
1.0
 10
935.04301425856931
 20
-1108.0832375188199
 30
0.0
 41
0.9992909934270214
 10
935.21859002502617
 20
-1108.0605270863537
 30
0.0
 41
1.0
 10
935.39416579148133
 20
-1108.0378166538874
 30
0.0
 41
0.9994553539448328
 10
935.57085722457191
 20
-1108.0267373496813
 30
0.0
 41
1.0
 10
935.60629163237081
 20
-1108.0245154616332
 30
0.0
 41
1.0
 10
935.64172604016983
 20
-1108.0222935735853
 30
0.0
 41
1.0
 10
935.80795180673908
 20
-1108.0118705111736
 30
0.0
 41
0.9990928098292898
 10
935.97446159864103
 20
-1108.015630152408
 30
0.0
 41
1.0
 10
936.0130234339133
 20
-1108.016500843941
 30
0.0
 41
1.0
 10
936.05158526918558
 20
-1108.017371535474
 30
0.0
 41
1.0
 10
936.14097139054411
 20
-1108.0193897936426
 30
0.0
 41
0.9998382089205357
 10
936.23022707332984
 20
-1108.0246219201708
 30
0.0
 41
1.0
 10
936.23065697954985
 20
-1108.024647121073
 30
0.0
 41
1.0
 10
936.23108688576986
 20
-1108.0246723219755
 30
0.0
 41
1.0
 10
936.31948275611614
 20
-1108.0298540466988
 30
0.0
 41
0.9997558016756857
 10
936.40756333331683
 20
-1108.0389365620654
 30
0.0
 41
1.0
 10
936.40803947174686
 20
-1108.038985659548
 30
0.0
 41
1.0
 10
936.40851561017689
 20
-1108.0390347570305
 30
0.0
 41
1.0
 10
936.49564391051808
 20
-1108.0480190774317
 30
0.0
 41
0.9996565144181505
 10
936.58218176385981
 20
-1108.0615563841206
 30
0.0
 41
1.0
 10
936.58264768923755
 20
-1108.0616292698519
 30
0.0
 41
1.0
 10
936.58311361461517
 20
-1108.0617021555834
 30
0.0
 41
1.0
 10
936.66871961720187
 20
-1108.0750936908098
 30
0.0
 41
0.9995321806867643
 10
936.75334669752976
 20
-1108.093694179239
 30
0.0
 41
1.0
 10
936.75373589210108
 20
-1108.0937797217048
 30
0.0
 41
1.0
 10
936.7541250866725
 20
-1108.0938652641705
 30
0.0
 41
1.0
 10
936.83797377785731
 20
-1108.1122946676683
 30
0.0
 41
0.9993819199219232
 10
936.92032031205395
 20
-1108.1365700509291
 30
0.0
 41
1.0
 10
936.92055874555172
 20
-1108.1366403400384
 30
0.0
 41
1.0
 10
936.92079717904949
 20
-1108.1367106291477
 30
0.0
 41
1.0
 10
937.00266684624944
 20
-1108.1608454341892
 30
0.0
 41
0.9992088568504867
 10
937.0823593652384
 20
-1108.1914106699842
 30
0.0
 41
1.0
 10
937.16204035611736
 20
-1108.2219702707173
 30
0.0
 41
0.9990226101773279
 10
937.23871102602459
 20
-1108.2594477023317
 30
0.0
 41
1.0
 10
937.31537016782215
 20
-1108.2969194988848
 30
0.0
 41
0.9988424273972592
 10
937.38807379503442
 20
-1108.3415842741379
 30
0.0
 41
1.0
 10
937.38834150341404
 20
-1108.3417487382103
 30
0.0
 41
1.0
 10
937.38860921179366
 20
-1108.3419132022827
 30
0.0
 41
1.0
 10
937.46184825576529
 20
-1108.3869069056807
 30
0.0
 41
0.9986928844491415
 10
937.53011112247452
 20
-1108.4391426399598
 30
0.0
 41
1.0
 10
937.53069241469723
 20
-1108.4395874531876
 30
0.0
 41
1.0
 10
937.53127370691993
 20
-1108.4400322664155
 30
0.0
 41
1.0
 10
937.6006991580748
 20
-1108.4931576271504
 30
0.0
 41
0.9986007262276522
 10
937.66412532784068
 20
-1108.5533183968435
 30
0.0
 41
1.0
 10
937.66501974329844
 20
-1108.5541667646789
 30
0.0
 41
1.0
 10
937.66591415875632
 20
-1108.5550151325147
 30
0.0
 41
1.0
 10
937.73112915943705
 20
-1108.6168726378778
 30
0.0
 41
0.9985581491380815
 10
937.78933677113957
 20
-1108.6853651281504
 30
0.0
 41
1.0
 10
937.79859522473521
 20
-1108.6962594858519
 30
0.0
 41
1.0
 10
937.80785367833073
 20
-1108.7071538435534
 30
0.0
 41
1.0
 10
937.8845781972243
 20
-1108.7974350492289
 30
0.0
 41
0.9970460233520636
 10
937.9465700983842
 20
-1108.8984021334111
 30
0.0
 41
1.0
 10
937.96103946346375
 20
-1108.9219685924922
 30
0.0
 41
1.0
 10
937.9755088285433
 20
-1108.9455350515736
 30
0.0
 41
1.0
 10
938.01524552855506
 20
-1109.0102547756048
 30
0.0
 41
0.9988468816637008
 10
938.0485918993063
 20
-1109.0784872280319
 30
0.0
 41
1.0
 10
938.05562792179717
 20
-1109.0928841491682
 30
0.0
 41
1.0
 10
938.06266394428803
 20
-1109.1072810703042
 30
0.0
 41
1.0
 10
938.08193827005834
 20
-1109.1467196804604
 30
0.0
 41
0.9998431189998359
 10
938.09980359755275
 20
-1109.1868162349003
 30
0.0
 41
1.0
 10
938.1176689250558
 20
-1109.2269127893596
 30
0.0
 41
0.9999989989953715
 10
938.13564764845887
 20
-1109.2669586269008
 30
0.0
 41
1.0
 10
938.14181996005857
 20
-1109.2807068437255
 30
0.0
 41
1.0
 10
938.14799227165827
 20
-1109.2944550605503
 30
0.0
 41
1.0
 10
938.17831561826961
 20
-1109.3619973317611
 30
0.0
 41
0.9998790356320689
 10
938.206523498406
 20
-1109.4304500836947
 30
0.0
 41
1.0
 10
938.21335867969117
 20
-1109.4470371851244
 30
0.0
 41
1.0
 10
938.22019386097634
 20
-1109.463624286554
 30
0.0
 41
1.0
 10
938.24375152335506
 20
-1109.5207922414356
 30
0.0
 41
0.9998227574561334
 10
938.26514027174494
 20
-1109.578806549714
 30
0.0
 41
1.0
 10
938.28652902013368
 20
-1109.6368208579897
 30
0.0
 41
0.9996797971041392
 10
938.30495530509381
 20
-1109.6958429771105
 30
0.0
 41
1.0
 10
938.30885910781922
 20
-1109.7083474352789
 30
0.0
 41
1.0
 10
938.31276291054462
 20
-1109.7208518934476
 30
0.0
 41
1.0
 10
938.33899680095487
 20
-1109.8048829289044
 30
0.0
 41
0.9979274938735603
 10
938.35422132443421
 20
-1109.891587287565
 30
0.0
 41
1.0
 10
938.35644501169509
 20
-1109.9042512883848
 30
0.0
 41
1.0
 10
938.35866869895608
 20
-1109.9169152892043
 30
0.0
 41
1.0
 10
938.36959863865457
 20
-1109.9791617964954
 30
0.0
 41
0.999498598213714
 10
938.37656680383157
 20
-1110.0419752976386
 30
0.0
 41
1.0
 10
938.38353496900856
 20
-1110.1047887987818
 30
0.0
 41
0.9996372611202018
 10
938.38711083477642
 20
-1110.1678863774655
 30
0.0
 41
1.0
 10
938.38727941226568
 20
-1110.1708609945463
 30
0.0
 41
1.0
 10
938.38744798975495
 20
-1110.1738356116271
 30
0.0
 41
1.0
 10
938.39136101050144
 20
-1110.2428824244764
 30
0.0
 41
0.9997730630736225
 10
938.39232932398954
 20
-1110.312033248513
 30
0.0
 41
1.0
 10
938.39238643040767
 20
-1110.316111427652
 30
0.0
 41
1.0
 10
938.39244353682568
 20
-1110.320189606791
 30
0.0
 41
1.0
 10
938.39352606314981
 20
-1110.397496789112
 30
0.0
 41
0.9998772614071936
 10
938.39218597641809
 20
-1110.4747999356789
 30
0.0
 41
1.0
 10
938.39209671321942
 20
-1110.479949099511
 30
0.0
 41
1.0
 10
938.39200745002074
 20
-1110.4850982633432
 30
0.0
 41
1.0
 10
938.39048883689122
 20
-1110.5726997375823
 30
0.0
 41
0.9999415567325883
 10
938.38707652664527
 20
-1110.660247899262
 30
0.0
 41
1.0
 10
938.3868352059701
 20
-1110.6664393589945
 30
0.0
 41
1.0
 10
938.38659388529493
 20
-1110.6726308187272
 30
0.0
 41
1.0
 10
938.38269893369761
 20
-1110.7725618998888
 30
0.0
 41
0.9999716810426242
 10
938.37730035057939
 20
-1110.8724230381124
 30
0.0
 41
1.0
 10
938.37408755179035
 20
-1110.9318522877743
 30
0.0
 41
1.0
 10
938.37087475300132
 20
-1110.9912815374362
 30
0.0
 41
1.0
 10
938.36280084384907
 20
-1111.1406299387093
 30
0.0
 41
0.9999819129911648
 10
938.35293105223286
 20
-1111.2898704164127
 30
0.0
 41
1.0
 10
938.3430612606162
 20
-1111.439110894124
 30
0.0
 41
1.0
 10
938.34062194005242
 20
-1111.4763039399734
 30
0.0
 41
1.0
 10
938.363320173891
 20
-1111.4375629426308
 30
0.0
 41
0.9999982128016797
 10
938.38616473268883
 20
-1111.3989080486012
 30
0.0
 41
1.0
 10
938.4130742925488
 20
-1111.3533748345883
 30
0.0
 41
1.0
 10
938.43998385240866
 20
-1111.3078416205753
 30
0.0
 41
1.0
 10
938.5166475309353
 20
-1111.1781202985042
 30
0.0
 41
0.99986091900563
 10
938.59759484380231
 20
-1111.0510279165667
 30
0.0
 41
1.0
 10
938.62724316527897
 20
-1111.0044781836173
 30
0.0
 41
1.0
 10
938.65689148675574
 20
-1110.9579284506681
 30
0.0
 41
1.0
 10
938.7391637069951
 20
-1110.8287558806692
 30
0.0
 41
0.9999067609731702
 10
938.82493271646081
 20
-1110.7018781912257
 30
0.0
 41
1.0
 10
938.82733741966308
 20
-1110.6983209251689
 30
0.0
 41
1.0
 10
938.82974212286547
 20
-1110.6947636591119
 30
0.0
 41
1.0
 10
938.91070172592742
 20
-1110.5750005017808
 30
0.0
 41
0.9998784952150879
 10
938.99535533560629
 20
-1110.4578192850754
 30
0.0
 41
1.0
 10
939.08000894528413
 20
-1110.3406380683714
 30
0.0
 41
0.9998532968281306
 10
939.16862656610306
 20
-1110.2264251599058
 30
0.0
 41
1.0
 10
939.18858835509741
 20
-1110.2006978388815
 30
0.0
 41
1.0
 10
939.20855014409165
 20
-1110.1749705178572
 30
0.0
 41
1.0
 10
939.32703419385064
 20
-1110.022264906888
 30
0.0
 41
0.9991551975795078
 10
939.4576586434747
 20
-1109.879805344804
 30
0.0
 41
1.0
 10
939.46116825945955
 20
-1109.8759777431742
 30
0.0
 41
1.0
 10
939.46467787544452
 20
-1109.8721501415441
 30
0.0
 41
1.0
 10
939.58828309310343
 20
-1109.7373457827152
 30
0.0
 41
0.9997418144181147
 10
939.71788523279884
 20
-1109.608296372108
 30
0.0
 41
1.0
 10
939.84748737249856
 20
-1109.4792469614963
 30
0.0
 41
0.9989238204632881
 10
939.98848992074863
 20
-1109.3627619994584
 30
0.0
 41
1.0
 10
940.03373759889155
 20
-1109.3253820078469
 30
0.0
 41
1.0
 10
940.07898527703435
 20
-1109.2880020162354
 30
0.0
 41
1.0
 10
940.21922533425413
 20
-1109.172146962946
 30
0.0
 41
0.9990825084096954
 10
940.36886526685498
 20
-1109.0687179651154
 30
0.0
 41
1.0
 10
940.37891063091308
 20
-1109.061774752035
 30
0.0
 41
1.0
 10
940.38895599497118
 20
-1109.0548315389547
 30
0.0
 41
1.0
 10
940.51850519945867
 20
-1108.9652889672825
 30
0.0
 41
0.9998164899825629
 10
940.65138940283521
 20
-1108.8807747257661
 30
0.0
 41
1.0
 10
940.66323496336304
 20
-1108.8732409592392
 30
0.0
 41
1.0
 10
940.67508052389098
 20
-1108.8657071927123
 30
0.0
 41
1.0
 10
940.78427360621254
 20
-1108.7962604842489
 30
0.0
 41
0.999747344913011
 10
940.89647756346096
 20
-1108.7317915264339
 30
0.0
 41
1.0
 10
941.00868152070541
 20
-1108.6673225686209
 30
0.0
 41
0.9999327861142326
 10
941.12235013146517
 20
-1108.6054725769413
 30
0.0
 41
1.0
 10
941.12290213403026
 20
-1108.6051722182599
 30
0.0
 41
1.0
 10
941.12345413659523
 20
-1108.6048718595785
 30
0.0
 41
1.0
 10
941.23822675248186
 20
-1108.5424211505378
 30
0.0
 41
0.9996956420483348
 10
941.35594007832378
 20
-1108.4857076835624
 30
0.0
 41
1.0
 10
941.38638048321661
 20
-1108.4710417068322
 30
0.0
 41
1.0
 10
941.41682088810944
 20
-1108.4563757301023
 30
0.0
 41
1.0
 10
941.51979799485139
 20
-1108.4067620716598
 30
0.0
 41
0.999807057017692
 10
941.62464438379061
 20
-1108.3612314847596
 30
0.0
 41
1.0
 10
941.72949077272949
 20
-1108.3157008978592
 30
0.0
 41
0.9997827436147467
 10
941.83614370933697
 20
-1108.2745797265484
 30
0.0
 41
1.0
 10
941.85536655897056
 20
-1108.267168152915
 30
0.0
 41
1.0
 10
941.87458940860415
 20
-1108.2597565792819
 30
0.0
 41
1.0
 10
942.01968804447711
 20
-1108.203812260705
 30
0.0
 41
0.9988031841976705
 10
942.16955840708192
 20
-1108.1623121965372
 30
0.0
 41
1.0
 10
942.1944756554459
 20
-1108.1554124507302
 30
0.0
 41
1.0
 10
942.21939290380988
 20
-1108.1485127049232
 30
0.0
 41
1.0
 10
942.38666292945641
 20
-1108.1021945625166
 30
0.0
 41
0.9984748040550251
 10
942.55801983810409
 20
-1108.074600330252
 30
0.0
 41
1.0
 10
942.56275897435216
 20
-1108.0738371697387
 30
0.0
 41
1.0
 10
942.56749811060035
 20
-1108.0730740092254
 30
0.0
 41
1.0
 10
942.72937674675245
 20
-1108.0470060979872
 30
0.0
 41
0.9984436495479865
 10
942.89315149047786
 20
-1108.0391281441684
 30
0.0
 41
1.0
 10
942.91484869861029
 20
-1108.0380844569686
 30
0.0
 41
1.0
 10
942.93654590674259
 20
-1108.037040769769
 30
0.0
 41
1.0
 10
943.05692623420339
 20
-1108.0312501903497
 30
0.0
 41
0.9987954789335591
 10
943.17729447911233
 20
-1108.037286718092
 30
0.0
 41
1.0
 10
943.1972592716055
 20
-1108.0382879624306
 30
0.0
 41
1.0
 10
943.21722406409867
 20
-1108.0392892067691
 30
0.0
 41
1.0
 10
943.29766272402071
 20
-1108.0433232458342
 30
0.0
 41
0.999794159587784
 10
943.37787150211648
 20
-1108.0506173117553
 30
0.0
 41
1.0
 10
943.45808028021122
 20
-1108.0579113776764
 30
0.0
 41
0.9998589466237909
 10
943.53799882706653
 20
-1108.0678952321266
 30
0.0
 41
1.0
 10
943.57040502887446
 20
-1108.0719435890458
 30
0.0
 41
1.0
 10
943.60281123068239
 20
-1108.0759919459649
 30
0.0
 41
1.0
 10
943.74754218115288
 20
-1108.0940725142532
 30
0.0
 41
0.9993495063249217
 10
943.89059342491737
 20
-1108.1225382239948
 30
0.0
 41
1.0
 10
943.92352712207116
 20
-1108.1290916872099
 30
0.0
 41
1.0
 10
943.95646081922484
 20
-1108.135645150425
 30
0.0
 41
1.0
 10
944.06575464242928
 20
-1108.1573934845603
 30
0.0
 41
0.9996788715561237
 10
944.17380621438451
 20
-1108.1846512839231
 30
0.0
 41
1.0
 10
944.17586921692327
 20
-1108.185171710496
 30
0.0
 41
1.0
 10
944.17793221946215
 20
-1108.1856921370688
 30
0.0
 41
1.0
 10
944.28185778634042
 20
-1108.2119090832859
 30
0.0
 41
0.9995480654492251
 10
944.38402002157045
 20
-1108.2443240399107
 30
0.0
 41
1.0
 10
944.38570966369946
 20
-1108.2448601448245
 30
0.0
 41
1.0
 10
944.38739930582847
 20
-1108.2453962497384
 30
0.0
 41
1.0
 10
944.48618225679979
 20
-1108.276738996535
 30
0.0
 41
0.9993867959456004
 10
944.58252941524256
 20
-1108.3149183658247
 30
0.0
 41
1.0
 10
944.58377236432727
 20
-1108.3154109077209
 30
0.0
 41
1.0
 10
944.58501531341199
 20
-1108.3159034496171
 30
0.0
 41
1.0
 10
944.67887657368453
 20
-1108.3530977351143
 30
0.0
 41
0.999205025652209
 10
944.76947624871832
 20
-1108.3976516343532
 30
0.0
 41
1.0
 10
944.77021093143117
 20
-1108.3980129268143
 30
0.0
 41
1.0
 10
944.77094561414401
 20
-1108.3983742192752
 30
0.0
 41
1.0
 10
944.8600759237512
 20
-1108.4422055335917
 30
0.0
 41
0.9990222350741541
 10
944.94498598514531
 20
-1108.4937388012904
 30
0.0
 41
1.0
 10
944.94516987042846
 20
-1108.4938504041957
 30
0.0
 41
1.0
 10
944.94535375571161
 20
-1108.4939620071007
 30
0.0
 41
1.0
 10
945.02989604653942
 20
-1108.5452720689891
 30
0.0
 41
0.9988642743805183
 10
945.10917058115808
 20
-1108.6043962565138
 30
0.0
 41
1.0
 10
945.18844511577629
 20
-1108.6635204440383
 30
0.0
 41
0.9987681233310565
 10
945.26146890005293
 20
-1108.7302111354395
 30
0.0
 41
1.0
 10
945.26179782801887
 20
-1108.7305115366539
 30
0.0
 41
1.0
 10
945.26212675598481
 20
-1108.7308119378681
 30
0.0
 41
1.0
 10
945.33580839619219
 20
-1108.7981034316972
 30
0.0
 41
0.9987496570898646
 10
945.40240220151941
 20
-1108.8724162457838
 30
0.0
 41
1.0
 10
945.40317437127999
 20
-1108.8732779191419
 30
0.0
 41
1.0
 10
945.40394654104057
 20
-1108.8741395924999
 30
0.0
 41
1.0
 10
945.4720846858894
 20
-1108.9501757533035
 30
0.0
 41
0.9988147669827986
 10
945.53250694011433
 20
-1109.0324767601458
 30
0.0
 41
1.0
 10
945.53362626619173
 20
-1109.0340013914979
 30
0.0
 41
1.0
 10
945.53474559226902
 20
-1109.0355260228498
 30
0.0
 41
1.0
 10
945.59740649864943
 20
-1109.1208762923973
 30
0.0
 41
0.9989452636216338
 10
945.6519734116107
 20
-1109.2116149815547
 30
0.0
 41
1.0
 10
945.65332213769648
 20
-1109.213857762581
 30
0.0
 41
1.0
 10
945.65467086378226
 20
-1109.2161005436074
 30
0.0
 41
1.0
 10
945.71193522891497
 20
-1109.3113247948174
 30
0.0
 41
0.999104643607039
 10
945.76094444223645
 20
-1109.4110492278426
 30
0.0
 41
1.0
 10
945.76240830382653
 20
-1109.4140279079152
 30
0.0
 41
1.0
 10
945.76387216541661
 20
-1109.417006587988
 30
0.0
 41
1.0
 10
945.81580910191758
 20
-1109.522688381157
 30
0.0
 41
0.9992763831100932
 10
945.85956223047299
 20
-1109.6320124431136
 30
0.0
 41
1.0
 10
945.86104150013648
 20
-1109.6357086306475
 30
0.0
 41
1.0
 10
945.86252076979997
 20
-1109.6394048181817
 30
0.0
 41
1.0
 10
945.90923243768111
 20
-1109.7561212552027
 30
0.0
 41
0.9994163472882808
 10
945.94786546887121
 20
-1109.8757548436679
 30
0.0
 41
1.0
 10
945.94910362111841
 20
-1109.8795889874518
 30
0.0
 41
1.0
 10
945.95034177336549
 20
-1109.8834231312358
 30
0.0
 41
1.0
 10
945.99022533438188
 20
-1110.0069291927111
 30
0.0
 41
0.9997268055891129
 10
946.02429339029436
 20
-1110.1321642246635
 30
0.0
 41
1.0
 10
946.02522357056432
 20
-1110.1355835907734
 30
0.0
 41
1.0
 10
946.02615375083417
 20
-1110.1390029568836
 30
0.0
 41
1.0
 10
946.0583614462065
 20
-1110.2573992566149
 30
0.0
 41
0.9996701319001214
 10
946.08444706297689
 20
-1110.3772932098777
 30
0.0
 41
1.0
 10
946.11053267974762
 20
-1110.4971871631421
 30
0.0
 41
0.9995785451109226
 10
946.12961625708681
 20
-1110.6183929241711
 30
0.0
 41
1.0
 10
946.13383603926059
 20
-1110.6451940789366
 30
0.0
 41
1.0
 10
946.13805582143448
 20
-1110.6719952337019
 30
0.0
 41
1.0
 10
946.16463079737321
 20
-1110.8407812074056
 30
0.0
 41
0.9979925101216326
 10
946.16965638329941
 20
-1111.0115725354974
 30
0.0
 41
1.0
 10
946.17048119572405
 20
-1111.0396032589806
 30
0.0
 41
1.0
 10
946.1713060081488
 20
-1111.0676339824636
 30
0.0
 41
1.0
 10
946.17468196922573
 20
-1111.1823638635924
 30
0.0
 41
0.9995314902263373
 10
946.17103177708725
 20
-1111.2970853473412
 30
0.0
 41
1.0
 10
946.16738158494911
 20
-1111.4118068310895
 30
0.0
 41
0.9996245486943733
 10
946.15745248981875
 20
-1111.5261561022062
 30
0.0
 41
1.0
 10
946.1572894418241
 20
-1111.5280338583468
 30
0.0
 41
1.0
 10
946.15712639382934
 20
-1111.5299116144874
 30
0.0
 41
1.0
 10
946.14687120270924
 20
-1111.6480163978874
 30
0.0
 41
0.9997286095001257
 10
946.13112587913793
 20
-1111.7655153067815
 30
0.0
 41
1.0
 10
946.13073238648792
 20
-1111.768451731481
 30
0.0
 41
1.0
 10
946.13033889383792
 20
-1111.7713881561804
 30
0.0
 41
1.0
 10
946.11380658496614
 20
-1111.8947599144778
 30
0.0
 41
0.9998265533969359
 10
946.0926911262336
 20
-1112.0174303892647
 30
0.0
 41
1.0
 10
946.0920145840962
 20
-1112.0213607677733
 30
0.0
 41
1.0
 10
946.09133804195892
 20
-1112.0252911462821
 30
0.0
 41
1.0
 10
946.0688694989517
 20
-1112.1558223780876
 30
0.0
 41
0.9999022530854482
 10
946.04276003434154
 20
-1112.2856743467262
 30
0.0
 41
1.0
 10
946.04178139317639
 20
-1112.2905414891125
 30
0.0
 41
1.0
 10
946.04080275201125
 20
-1112.2954086314987
 30
0.0
 41
1.0
 10
946.01273600506806
 20
-1112.4349948849231
 30
0.0
 41
0.9999524761938338
 10
945.98195303623356
 20
-1112.5740073780867
 30
0.0
 41
1.0
 10
945.9806769290592
 20
-1112.579770137384
 30
0.0
 41
1.0
 10
945.97940082188484
 20
-1112.5855328966813
 30
0.0
 41
1.0
 10
945.94606563869854
 20
-1112.7360709084526
 30
0.0
 41
0.999981358872056
 10
945.91089463790593
 20
-1112.8861906210955
 30
0.0
 41
1.0
 10
945.90934071244806
 20
-1112.8928232115231
 30
0.0
 41
1.0
 10
945.9077867869903
 20
-1112.899455801951
 30
0.0
 41
1.0
 10
945.86950793528104
 20
-1113.0628406954529
 30
0.0
 41
0.9999955237689477
 10
945.8302520572995
 20
-1113.2259935990639
 30
0.0
 41
1.0
 10
945.81797042166579
 20
-1113.277037789584
 30
0.0
 41
1.0
 10
945.80568878603208
 20
-1113.3280819801043
 30
0.0
 41
1.0
 10
945.74186963678903
 20
-1113.5933232647303
 30
0.0
 41
0.9999993604774109
 10
945.67745068963688
 20
-1113.8584195153501
 30
0.0
 41
1.0
 10
945.67273185407885
 20
-1113.8778384234361
 30
0.0
 41
1.0
 10
945.66801301852081
 20
-1113.8972573315218
 30
0.0
 41
1.0
 10
945.5941564002585
 20
-1114.2011913982874
 30
0.0
 41
0.9999659914731747
 10
945.51529680437534
 20
-1114.5038659448387
 30
0.0
 41
1.0
 10
945.51034411544447
 20
-1114.5228750820218
 30
0.0
 41
1.0
 10
945.50539142651371
 20
-1114.5418842192048
 30
0.0
 41
1.0
 10
945.41662645276665
 20
-1114.8825770401295
 30
0.0
 41
0.9999441976024747
 10
945.32068341980096
 20
-1115.2213184654368
 30
0.0
 41
1.0
 10
945.30398290137737
 20
-1115.2802821779574
 30
0.0
 41
1.0
 10
945.28728238295378
 20
-1115.3392458904782
 30
0.0
 41
1.0
 10
945.15793831313829
 20
-1115.7959147408358
 30
0.0
 41
0.9999625120735415
 10
945.02070554581019
 20
-1116.2502752748469
 30
0.0
 41
1.0
 10
944.98491560272532
 20
-1116.3687713014804
 30
0.0
 41
1.0
 10
944.94912565964046
 20
-1116.4872673281138
 30
0.0
 41
1.0
 10
944.87460545560702
 20
-1116.733994406191
 30
0.0
 41
0.9999793386312342
 10
944.79691943247133
 20
-1116.9797430454209
 30
0.0
 41
1.0
 10
944.71923340933381
 20
-1117.2254916846571
 30
0.0
 41
1.0
 10
944.708453850463
 20
-1117.2595095890317
 30
0.0
 41
1.0
 10
942.85808079719379
 20
-1123.1465815114993
 30
0.0
 41
1.0
 10
941.00770774392458
 20
-1129.0336534339667
 30
0.0
 41
1.0
 10
940.04645105390114
 20
-1129.0336534339667
 30
0.0
 41
1.0
 10
939.08519436387769
 20
-1129.0336534339667
 30
0.0
 41
1.0
 10
940.70413914255607
 20
-1123.8856249321773
 30
0.0
 41
1.0
 10
942.32308392123446
 20
-1118.7375964303878
 30
0.0
 41
1.0
 10
942.3682497444106
 20
-1118.5935652081123
 30
0.0
 41
1.0
 10
942.41341556758664
 20
-1118.4495339858368
 30
0.0
 41
1.0
 10
942.58371998494408
 20
-1117.9064429566915
 30
0.0
 41
0.9999911657888656
 10
942.74945279662597
 20
-1117.3619394253219
 30
0.0
 41
1.0
 10
942.77914874012822
 20
-1117.2643754852656
 30
0.0
 41
1.0
 10
942.80884468363047
 20
-1117.1668115452092
 30
0.0
 41
1.0
 10
942.91518560830821
 20
-1116.8174358939518
 30
0.0
 41
0.9999952428193707
 10
943.01936919763125
 20
-1116.4674108696086
 30
0.0
 41
1.0
 10
943.02442866796628
 20
-1116.4504125953249
 30
0.0
 41
1.0
 10
943.0294881383013
 20
-1116.433414321041
 30
0.0
 41
1.0
 10
943.12355278696009
 20
-1116.1173858452464
 30
0.0
 41
0.9999931687550323
 10
943.21527862482981
 20
-1115.8006706319886
 30
0.0
 41
1.0
 10
943.22021388928761
 20
-1115.7836299227233
 30
0.0
 41
1.0
 10
943.22514915374552
 20
-1115.766589213458
 30
0.0
 41
1.0
 10
943.30700446270544
 20
-1115.4839554187101
 30
0.0
 41
0.9999893840813193
 10
943.38625168916019
 20
-1115.2005792894715
 30
0.0
 41
1.0
 10
943.46549891562108
 20
-1114.9172031602106
 30
0.0
 41
0.9999833980062017
 10
943.54147515636419
 20
-1114.6329325771765
 30
0.0
 41
1.0
 10
943.55047909308246
 20
-1114.5992436987131
 30
0.0
 41
1.0
 10
943.55948302980084
 20
-1114.5655548202494
 30
0.0
 41
1.0
 10
943.6284475786689
 20
-1114.3075189879469
 30
0.0
 41
0.9999233658064279
 10
943.69100254989064
 20
-1114.0478548292185
 30
0.0
 41
1.0
 10
943.75355752111091
 20
-1113.7881906704961
 30
0.0
 41
1.0
 10
943.79304093996848
 20
-1113.6243840060699
 30
0.0
 41
1.0
 10
943.7980195439427
 20
-1113.6037290442118
 30
0.0
 41
1.0
 10
943.80299814791704
 20
-1113.5830740823537
 30
0.0
 41
1.0
 10
943.83252435882378
 20
-1113.4605773416533
 30
0.0
 41
0.9999868670871406
 10
943.86079344282223
 20
-1113.3377843959984
 30
0.0
 41
1.0
 10
943.86469092998459
 20
-1113.3208548085609
 30
0.0
 41
1.0
 10
943.86858841714707
 20
-1113.3039252211233
 30
0.0
 41
1.0
 10
943.88906252682432
 20
-1113.2149914503273
 30
0.0
 41
0.9999778173348688
 10
943.90835012493392
 20
-1113.1257928331224
 30
0.0
 41
1.0
 10
943.92763772304716
 20
-1113.0365942159031
 30
0.0
 41
0.9999602692863211
 10
943.94533208167923
 20
-1112.9470659274702
 30
0.0
 41
1.0
 10
943.94853591375727
 20
-1112.9308554725822
 30
0.0
 41
1.0
 10
943.95173974583531
 20
-1112.9146450176943
 30
0.0
 41
1.0
 10
943.97584176862063
 20
-1112.7926958194994
 30
0.0
 41
0.9995617985320734
 10
943.99268511583966
 20
-1112.6695340717929
 30
0.0
 41
1.0
 10
943.99514960574584
 20
-1112.6515132544273
 30
0.0
 41
1.0
 10
943.99761409565212
 20
-1112.6334924370617
 30
0.0
 41
1.0
 10
944.01789735670059
 20
-1112.4851773873597
 30
0.0
 41
0.9991121410639567
 10
944.0256227102891
 20
-1112.3356812885518
 30
0.0
 41
1.0
 10
944.02654150031367
 20
-1112.3179014519746
 30
0.0
 41
1.0
 10
944.02746029033835
 20
-1112.3001216153975
 30
0.0
 41
1.0
 10
944.03334806387761
 20
-1112.1861851897436
 30
0.0
 41
0.9989792494904508
 10
944.02892897176002
 20
-1112.0721823538474
 30
0.0
 41
1.0
 10
944.02828099989142
 20
-1112.0554661079204
 30
0.0
 41
1.0
 10
944.02763302802271
 20
-1112.0387498619937
 30
0.0
 41
1.0
 10
944.02450987964266
 20
-1111.958179517952
 30
0.0
 41
0.9997820295394546
 10
944.01802588226701
 20
-1111.8778097962049
 30
0.0
 41
1.0
 10
944.01154188489124
 20
-1111.7974400744597
 30
0.0
 41
0.9998335105971562
 10
944.00212968937922
 20
-1111.7173604580082
 30
0.0
 41
1.0
 10
944.00053476470305
 20
-1111.7037907275267
 30
0.0
 41
1.0
 10
943.99893984002688
 20
-1111.6902209970449
 30
0.0
 41
1.0
 10
943.98633779516274
 20
-1111.5830019196319
 30
0.0
 41
0.9996876457880118
 10
943.96839388236526
 20
-1111.476546491919
 30
0.0
 41
1.0
 10
943.96616221921977
 20
-1111.4633067566756
 30
0.0
 41
1.0
 10
943.96393055607416
 20
-1111.450067021432
 30
0.0
 41
1.0
 10
943.95013473465269
 20
-1111.3682208774701
 30
0.0
 41
0.9995547496494015
 10
943.93148141275992
 20
-1111.2873433802795
 30
0.0
 41
1.0
 10
943.93110745588831
 20
-1111.2857219695729
 30
0.0
 41
1.0
 10
943.9307334990167
 20
-1111.2841005588662
 30
0.0
 41
1.0
 10
943.91282809086692
 20
-1111.2064658830873
 30
0.0
 41
0.9994899427175527
 10
943.89000318218791
 20
-1111.130132600254
 30
0.0
 41
1.0
 10
943.8895446554468
 20
-1111.1285991504642
 30
0.0
 41
1.0
 10
943.88908612870569
 20
-1111.1270657006746
 30
0.0
 41
1.0
 10
943.86717827350833
 20
-1111.0537993174187
 30
0.0
 41
0.9993784877590231
 10
943.84016263840203
 20
-1110.9822586122605
 30
0.0
 41
1.0
 10
943.83963094742512
 20
-1110.9808506295399
 30
0.0
 41
1.0
 10
943.83909925644821
 20
-1110.9794426468193
 30
0.0
 41
1.0
 10
943.81314700329528
 20
-1110.9107179071009
 30
0.0
 41
0.9992430832254525
 10
943.78193046813612
 20
-1110.8442187550331
 30
0.0
 41
1.0
 10
943.78134835207948
 20
-1110.8429786999156
 30
0.0
 41
1.0
 10
943.78076623602271
 20
-1110.8417386447982
 30
0.0
 41
1.0
 10
943.75071393297617
 20
-1110.7777196029638
 30
0.0
 41
0.999078963279831
 10
943.71528330620004
 20
-1110.7165129912153
 30
0.0
 41
1.0
 10
943.71468760001835
 20
-1110.7154839053567
 30
0.0
 41
1.0
 10
943.71409189383667
 20
-1110.7144548194981
 30
0.0
 41
1.0
 10
943.67985267942277
 20
-1110.6553063794649
 30
0.0
 41
0.9988874801121135
 10
943.64019340339121
 20
-1110.5996466670476
 30
0.0
 41
1.0
 10
943.63963787732735
 20
-1110.5988670153733
 30
0.0
 41
1.0
 10
943.63908235126348
 20
-1110.5980873636993
 30
0.0
 41
1.0
 10
943.60053412735954
 20
-1110.5439869546303
 30
0.0
 41
0.99867620606925
 10
943.55663165608314
 20
-1110.4941332401909
 30
0.0
 41
1.0
 10
943.55618769575085
 20
-1110.4936290983742
 30
0.0
 41
1.0
 10
943.55574373541856
 20
-1110.4931249565575
 30
0.0
 41
1.0
 10
943.51272918480686
 20
-1110.4442795257514
 30
0.0
 41
0.9984621642487943
 10
943.46457162802915
 20
-1110.4004962252804
 30
0.0
 41
1.0
 10
943.46432499351249
 20
-1110.4002719931168
 30
0.0
 41
1.0
 10
943.46407835899572
 20
-1110.4000477609532
 30
0.0
 41
1.0
 10
943.41641407125064
 20
-1110.3567129248088
 30
0.0
 41
0.998272469385194
 10
943.3639954394099
 20
-1110.3192685742915
 30
0.0
 41
1.0
 10
943.31157680756883
 20
-1110.281824223774
 30
0.0
 41
0.9981399180158879
 10
943.25499074417507
 20
-1110.2510377043304
 30
0.0
 41
1.0
 10
943.25494508209658
 20
-1110.2510128611734
 30
0.0
 41
1.0
 10
943.25489942001821
 20
-1110.2509880180162
 30
0.0
 41
1.0
 10
943.19822203246792
 20
-1110.2201518122586
 30
0.0
 41
0.9980927086837853
 10
943.13817668140166
 20
-1110.1965350034059
 30
0.0
 41
1.0
 10
943.13773651168992
 20
-1110.1963618775308
 30
0.0
 41
1.0
 10
943.13729634197819
 20
-1110.1961887516559
 30
0.0
 41
1.0
 10
943.07637065148833
 20
-1110.1722256910532
 30
0.0
 41
0.9981411356560738
 10
943.01298213008874
 20
-1110.1558530495479
 30
0.0
 41
1.0
 10
943.01210001338745
 20
-1110.1556252073424
 30
0.0
 41
1.0
 10
943.01121789668616
 20
-1110.1553973651369
 30
0.0
 41
1.0
 10
942.94606514188399
 20
-1110.1385690392203
 30
0.0
 41
0.9983031812934736
 10
942.87939771288961
 20
-1110.1294296780443
 30
0.0
 41
1.0
 10
942.87052668748595
 20
-1110.1282135593729
 30
0.0
 41
1.0
 10
942.86165566208228
 20
-1110.1269974407016
 30
0.0
 41
1.0
 10
942.80730601957771
 20
-1110.1195467107104
 30
0.0
 41
0.998388770826295
 10
942.75246217028428
 20
-1110.1183020370772
 30
0.0
 41
1.0
 10
942.74439876507051
 20
-1110.1181190392024
 30
0.0
 41
1.0
 10
942.73633535985675
 20
-1110.1179360413275
 30
0.0
 41
1.0
 10
942.69761832099505
 20
-1110.1170573634438
 30
0.0
 41
0.9998869563080086
 10
942.65889236778878
 20
-1110.1173432328035
 30
0.0
 41
1.0
 10
942.62016641454193
 20
-1110.1176291021634
 30
0.0
 41
0.999997232014718
 10
942.58144223528654
 20
-1110.1180972016932
 30
0.0
 41
1.0
 10
942.562089218751
 20
-1110.1183311417822
 30
0.0
 41
1.0
 10
942.54273620221534
 20
-1110.1185650818711
 30
0.0
 41
1.0
 10
942.4653059898435
 20
-1110.1195010615788
 30
0.0
 41
0.9997304945087844
 10
942.38800268360478
 20
-1110.1240301553648
 30
0.0
 41
1.0
 10
942.3789530419017
 20
-1110.1245603613547
 30
0.0
 41
1.0
 10
942.3699034001985
 20
-1110.1250905673446
 30
0.0
 41
1.0
 10
942.27450081055133
 20
-1110.1306800731106
 30
0.0
 41
0.9997888306415331
 10
942.17940847470788
 20
-1110.1401850376001
 30
0.0
 41
1.0
 10
942.17068741313608
 20
-1110.1410567522321
 30
0.0
 41
1.0
 10
942.16196635156427
 20
-1110.1419284668641
 30
0.0
 41
1.0
 10
942.0494318925754
 20
-1110.1531768606174
 30
0.0
 41
0.998417023819027
 10
941.93887274522331
 20
-1110.1769929425534
 30
0.0
 41
1.0
 10
941.90249161423708
 20
-1110.1848299783596
 30
0.0
 41
1.0
 10
941.86611048325085
 20
-1110.1926670141656
 30
0.0
 41
1.0
 10
941.75091941482992
 20
-1110.2174808806751
 30
0.0
 41
0.9976592854197985
 10
941.64019124842548
 20
-1110.2577795578222
 30
0.0
 41
1.0
 10
941.52946308201876
 20
-1110.29807823497
 30
0.0
 41
0.9993255074351621
 10
941.42199128322534
 20
-1110.3463951334638
 30
0.0
 41
1.0
 10
941.41736610430416
 20
-1110.3484745096625
 30
0.0
 41
1.0
 10
941.4127409253831
 20
-1110.3505538858612
 30
0.0
 41
1.0
 10
941.2960187687454
 20
-1110.4030295367531
 30
0.0
 41
0.9976475078274902
 10
941.1875714244353
 20
-1110.4709775264112
 30
0.0
 41
1.0
 10
941.16922903029899
 20
-1110.4824700052268
 30
0.0
 41
1.0
 10
941.15088663616257
 20
-1110.4939624840424
 30
0.0
 41
1.0
 10
941.06668444461354
 20
-1110.5467196048089
 30
0.0
 41
0.9995131336406922
 10
940.98593672965615
 20
-1110.6046258167621
 30
0.0
 41
1.0
 10
940.9051890146992
 20
-1110.6625320287148
 30
0.0
 41
0.9995810107606254
 10
940.82792736697081
 20
-1110.7250137111805
 30
0.0
 41
1.0
 10
940.82495733576025
 20
-1110.7274155826453
 30
0.0
 41
1.0
 10
940.82198730454979
 20
-1110.7298174541102
 30
0.0
 41
1.0
 10
940.73878559440129
 20
-1110.797102879505
 30
0.0
 41
0.9996617837954557
 10
940.65919490726583
 20
-1110.868623335065
 30
0.0
 41
1.0
 10
940.64706415638761
 20
-1110.8795240680568
 30
0.0
 41
1.0
 10
940.63493340550951
 20
-1110.8904248010485
 30
0.0
 41
1.0
 10
940.56665787811403
 20
-1110.9517774165199
 30
0.0
 41
0.9997267750053495
 10
940.5013243698304
 20
-1111.0162539530452
 30
0.0
 41
1.0
 10
940.43599086154632
 20
-1111.0807304895707
 30
0.0
 41
0.9999667288965898
 10
940.37171791839887
 20
-1111.1462642964659
 30
0.0
 41
1.0
 10
940.30289047062433
 20
-1111.2164419552237
 30
0.0
 41
1.0
 10
940.2340630228498
 20
-1111.2866196139812
 30
0.0
 41
1.0
 10
940.03213518415316
 20
-1111.492508738392
 30
0.0
 41
0.9988205335175298
 10
939.85112956717455
 20
-1111.7170129704514
 30
0.0
 41
1.0
 10
939.82048960226939
 20
-1111.755016220882
 30
0.0
 41
1.0
 10
939.78984963736411
 20
-1111.7930194713126
 30
0.0
 41
1.0
 10
939.54756409057325
 20
-1112.0935302042355
 30
0.0
 41
0.9997077826754861
 10
939.32008613946687
 20
-1112.4053999984537
 30
0.0
 41
1.0
 10
939.31836272433793
 20
-1112.407762781831
 30
0.0
 41
1.0
 10
939.31663930920899
 20
-1112.4101255652085
 30
0.0
 41
1.0
 10
939.08571452784452
 20
-1112.7267209261818
 30
0.0
 41
0.9989147567078999
 10
938.88525102496089
 20
-1113.0634303873662
 30
0.0
 41
1.0
 10
938.86050987965189
 20
-1113.1049869679223
 30
0.0
 41
1.0
 10
938.83576873434288
 20
-1113.1465435484781
 30
0.0
 41
1.0
 10
938.68055743570767
 20
-1113.4072449329274
 30
0.0
 41
0.9997476598181253
 10
938.53721244819849
 20
-1113.6746546815089
 30
0.0
 41
1.0
 10
938.39386746068806
 20
-1113.9420644300928
 30
0.0
 41
0.9996258967109512
 10
938.26535920875733
 20
-1114.216912366715
 30
0.0
 41
1.0
 10
938.25215929930755
 20
-1114.2451437668108
 30
0.0
 41
1.0
 10
938.23895938985777
 20
-1114.2733751669066
 30
0.0
 41
1.0
 10
938.09875066885945
 20
-1114.5732475648563
 30
0.0
 41
0.9998735413945121
 10
937.96814932213738
 20
-1114.8774271643279
 30
0.0
 41
1.0
 10
937.96470649407593
 20
-1114.8854457497946
 30
0.0
 41
1.0
 10
937.96126366601459
 20
-1114.8934643352613
 30
0.0
 41
1.0
 10
937.8375479754186
 20
-1115.1816067637919
 30
0.0
 41
0.9999377418864015
 10
937.72029317324223
 20
-1115.4724382314703
 30
0.0
 41
1.0
 10
937.60303837106608
 20
-1115.7632696991486
 30
0.0
 41
0.9999508299501182
 10
937.49157442769308
 20
-1116.0563693759589
 30
0.0
 41
1.0
 10
937.4884936590289
 20
-1116.0644704019273
 30
0.0
 41
1.0
 10
937.48541289036473
 20
-1116.0725714278956
 30
0.0
 41
1.0
 10
937.36778740966395
 20
-1116.3818731566407
 30
0.0
 41
0.9999609228429682
 10
937.2556488067944
 20
-1116.6932061726438
 30
0.0
 41
1.0
 10
937.25269279644181
 20
-1116.7014130130615
 30
0.0
 41
1.0
 10
937.24973678608922
 20
-1116.7096198534791
 30
0.0
 41
1.0
 10
937.13168616251278
 20
-1117.0373665503225
 30
0.0
 41
0.9999674607402643
 10
937.01893863644489
 20
-1117.3669751703171
 30
0.0
 41
1.0
 10
936.96754024588495
 20
-1117.5172343660015
 30
0.0
 41
1.0
 10
936.91614185532501
 20
-1117.6674935616859
 30
0.0
 41
1.0
 10
936.80013124856737
 20
-1118.0066415441879
 30
0.0
 41
0.9999287532305646
 10
936.69224984459424
 20
-1118.3484622831713
 30
0.0
 41
1.0
 10
936.64577258840836
 20
-1118.4957248276905
 30
0.0
 41
1.0
 10
936.59929533222248
 20
-1118.6429873722097
 30
0.0
 41
1.0
 10
936.5843684405728
 20
-1118.690283022308
 30
0.0
 41
0.9999998222444756
 10
936.56949793189301
 20
-1118.7375964303878
 30
0.0
 41
1.0
 10
934.94884179509756
 20
-1123.8856249321773
 30
0.0
 41
1.0
 10
933.32818565830212
 20
-1129.0336534339667
 30
0.0
 41
1.0
 10
932.42287721441119
 20
-1129.0336534339667
 30
0.0
 41
1.0
 10
931.51756877052026
 20
-1129.0336534339667
 30
0.0
 41
1.0
 10
933.3696531819063
 20
-1123.1465815114993
 30
0.0
 41
1.0
 10
935.22173759329235
 20
-1117.2595095890317
 30
0.0
 41
1.0
 10
935.23185935159518
 20
-1117.227466375582
 30
0.0
 41
1.0
 10
935.30446702044492
 20
-1116.9971668337562
 30
0.0
 41
1.0
 10
935.37707468929671
 20
-1116.766867291924
 30
0.0
 41
0.999982568197455
 10
935.44695772851037
 20
-1116.5357263968515
 30
0.0
 41
1.0
 10
935.4952487906703
 20
-1116.376001813358
 30
0.0
 41
1.0
 10
935.54353985283035
 20
-1116.2162772298648
 30
0.0
 41
1.0
 10
935.64069220614306
 20
-1115.8949420081044
 30
0.0
 41
0.9999672528970952
 10
935.7326310117669
 20
-1115.5720764625153
 30
0.0
 41
1.0
 10
935.73541989543253
 20
-1115.5622826171398
 30
0.0
 41
1.0
 10
935.73820877909816
 20
-1115.5524887717643
 30
0.0
 41
1.0
 10
935.82456981738687
 20
-1115.2492109169405
 30
0.0
 41
0.9999899749177671
 10
935.90821142692494
 20
-1114.9451718284768
 30
0.0
 41
1.0
 10
935.91831734594462
 20
-1114.9084365907906
 30
0.0
 41
1.0
 10
935.92842326496418
 20
-1114.8717013531045
 30
0.0
 41
1.0
 10
935.99185303646004
 20
-1114.6411327400228
 30
0.0
 41
0.9999214200505213
 10
936.04948246483741
 20
-1114.409046397815
 30
0.0
 41
1.0
 10
936.06224831702048
 20
-1114.3576355124087
 30
0.0
 41
1.0
 10
936.07501416920354
 20
-1114.3062246270024
 30
0.0
 41
1.0
 10
936.10711189321478
 20
-1114.1769600556067
 30
0.0
 41
0.9999828681660192
 10
936.1376941452105
 20
-1114.0473285811381
 30
0.0
 41
1.0
 10
936.16827639720327
 20
-1113.9176971066813
 30
0.0
 41
0.9999389844483548
 10
936.19598738599063
 20
-1113.7874216507917
 30
0.0
 41
1.0
 10
936.20312512971304
 20
-1113.7538655469436
 30
0.0
 41
1.0
 10
936.21026287343557
 20
-1113.7203094430956
 30
0.0
 41
1.0
 10
936.25224934966684
 20
-1113.5229217795131
 30
0.0
 41
0.9998933699440159
 10
936.288453614069
 20
-1113.324392171754
 30
0.0
 41
1.0
 10
936.28982643928452
 20
-1113.3168641510615
 30
0.0
 41
1.0
 10
936.29119926450016
 20
-1113.309336130369
 30
0.0
 41
1.0
 10
936.33014917933508
 20
-1113.0957504812177
 30
0.0
 41
0.9996850305193196
 10
936.35833285559374
 20
-1112.8804794757814
 30
0.0
 41
1.0
 10
936.36032788896284
 20
-1112.8652411216608
 30
0.0
 41
1.0
 10
936.36232292233194
 20
-1112.8500027675402
 30
0.0
 41
1.0
 10
936.38973078479125
 20
-1112.6406575403837
 30
0.0
 41
0.999469793670707
 10
936.40345534401104
 20
-1112.4299723450513
 30
0.0
 41
1.0
 10
936.4039324132608
 20
-1112.4226488728386
 30
0.0
 41
1.0
 10
936.40440948251057
 20
-1112.415325400626
 30
0.0
 41
1.0
 10
936.4171799032307
 20
-1112.2192871497193
 30
0.0
 41
0.9991804893137061
 10
936.41405158695784
 20
-1112.0228582997472
 30
0.0
 41
1.0
 10
936.41396770813571
 20
-1112.0175914983347
 30
0.0
 41
1.0
 10
936.41388382931359
 20
-1112.012324696922
 30
0.0
 41
1.0
 10
936.41092327068509
 20
-1111.8264294497737
 30
0.0
 41
0.9988448329321498
 10
936.39013172506134
 20
-1111.6416768599404
 30
0.0
 41
1.0
 10
936.38853765135832
 20
-1111.6275120041694
 30
0.0
 41
1.0
 10
936.3869435776553
 20
-1111.6133471483984
 30
0.0
 41
1.0
 10
936.36934017943759
 20
-1111.4569242701075
 30
0.0
 41
0.9985503209458699
 10
936.33502390713807
 20
-1111.3033000860178
 30
0.0
 41
1.0
 10
936.32743791506687
 20
-1111.2693397586177
 30
0.0
 41
1.0
 10
936.31985192299567
 20
-1111.2353794312173
 30
0.0
 41
1.0
 10
936.3007076348382
 20
-1111.1496759019271
 30
0.0
 41
0.9991036781369911
 10
936.27438277318731
 20
-1111.0658988146035
 30
0.0
 41
1.0
 10
936.27040054773079
 20
-1111.053225652091
 30
0.0
 41
1.0
 10
936.26641832227415
 20
-1111.0405524895787
 30
0.0
 41
1.0
 10
936.24805791153642
 20
-1110.9821217272797
 30
0.0
 41
0.9998874504368321
 10
936.22795270385757
 20
-1110.9242681250553
 30
0.0
 41
1.0
 10
936.20784749617872
 20
-1110.8664145228315
 30
0.0
 41
0.9994041637544437
 10
936.18379888324432
 20
-1110.8100858189409
 30
0.0
 41
1.0
 10
936.17960209902014
 20
-1110.8002557544587
 30
0.0
 41
1.0
 10
936.17540531479597
 20
-1110.7904256899762
 30
0.0
 41
1.0
 10
936.14752648380136
 20
-1110.7251255240087
 30
0.0
 41
0.9991846840701105
 10
936.11447012710914
 20
-1110.6622874927309
 30
0.0
 41
1.0
 10
936.11333352071426
 20
-1110.6601268762765
 30
0.0
 41
1.0
 10
936.11219691431938
 20
-1110.6579662598219
 30
0.0
 41
1.0
 10
936.08141377041613
 20
-1110.5994494614508
 30
0.0
 41
0.9989253167923984
 10
936.04534434636116
 20
-1110.5440345330603
 30
0.0
 41
1.0
 10
936.04429022168711
 20
-1110.5424150382983
 30
0.0
 41
1.0
 10
936.04323609701316
 20
-1110.5407955435364
 30
0.0
 41
1.0
 10
936.00927492230687
 20
-1110.4886196046714
 30
0.0
 41
0.9986467172838246
 10
935.97007776966893
 20
-1110.4402535710406
 30
0.0
 41
1.0
 10
935.96920364096854
 20
-1110.4391749687627
 30
0.0
 41
1.0
 10
935.96832951226816
 20
-1110.4380963664848
 30
0.0
 41
1.0
 10
935.93088061703179
 20
-1110.3918875374113
 30
0.0
 41
0.9984001104267489
 10
935.8884538865143
 20
-1110.3502024300424
 30
0.0
 41
1.0
 10
935.88786674840503
 20
-1110.3496255551613
 30
0.0
 41
1.0
 10
935.88727961029576
 20
-1110.34904868028
 30
0.0
 41
1.0
 10
935.84602715599692
 20
-1110.3085173226732
 30
0.0
 41
0.9982442159082466
 10
935.80027105466149
 20
-1110.2731487614133
 30
0.0
 41
1.0
 10
935.80005625919944
 20
-1110.2729827287699
 30
0.0
 41
1.0
 10
935.79984146373738
 20
-1110.2728166961265
 30
0.0
 41
1.0
 10
935.75451495332504
 20
-1110.2377802001524
 30
0.0
 41
0.9982450060836395
 10
935.70536397425417
 20
-1110.2083484171194
 30
0.0
 41
1.0
 10
935.65621299518284
 20
-1110.1789166340861
 30
0.0
 41
0.9983922639635626
 10
935.60404668901776
 20
-1110.155236999432
 30
0.0
 41
1.0
 10
935.60381981169326
 20
-1110.1551340139504
 30
0.0
 41
1.0
 10
935.60359293436863
 20
-1110.155031028469
 30
0.0
 41
1.0
 10
935.55097287355557
 20
-1110.1311454228523
 30
0.0
 41
0.9986517147150654
 10
935.49615990068833
 20
-1110.1128443037308
 30
0.0
 41
1.0
 10
935.49548197925969
 20
-1110.1126179572991
 30
0.0
 41
1.0
 10
935.49480405783117
 20
-1110.1123916108675
 30
0.0
 41
1.0
 10
935.43863524210724
 20
-1110.0936377988828
 30
0.0
 41
0.9989435598956521
 10
935.38098185495539
 20
-1110.0801200966482
 30
0.0
 41
1.0
 10
935.37990173537401
 20
-1110.0798668463954
 30
0.0
 41
1.0
 10
935.37882161579273
 20
-1110.0796135961423
 30
0.0
 41
1.0
 10
935.31900798947754
 20
-1110.0655893934018
 30
0.0
 41
0.9992249241240742
 10
935.25827648058032
 20
-1110.0563140506863
 30
0.0
 41
1.0
 10
935.25686279228944
 20
-1110.0560981422786
 30
0.0
 41
1.0
 10
935.25544910399856
 20
-1110.0558822338708
 30
0.0
 41
1.0
 10
935.19189021851855
 20
-1110.04617507434
 30
0.0
 41
0.9994396597833952
 10
935.12782428198057
 20
-1110.0407421519942
 30
0.0
 41
1.0
 10
935.10868361450355
 20
-1110.0391189842758
 30
0.0
 41
1.0
 10
935.08954294702653
 20
-1110.0374958165571
 30
0.0
 41
1.0
 10
934.98719567553246
 20
-1110.0288165587738
 30
0.0
 41
0.9987693403120879
 10
934.88449205194377
 20
-1110.0303196222267
 30
0.0
 41
1.0
 10
934.87423771771887
 20
-1110.0304696940007
 30
0.0
 41
1.0
 10
934.86398338349397
 20
-1110.0306197657749
 30
0.0
 41
1.0
 10
934.75442761731438
 20
-1110.0322231100624
 30
0.0
 41
0.9989753644966392
 10
934.64546561729708
 20
-1110.0437261169877
 30
0.0
 41
1.0
 10
934.5365036172808
 20
-1110.0552291239128
 30
0.0
 41
0.9983190067305746
 10
934.42960480631666
 20
-1110.0792641156993
 30
0.0
 41
1.0
 10
934.42070385470947
 20
-1110.0812653942621
 30
0.0
 41
1.0
 10
934.41180290310217
 20
-1110.0832666728249
 30
0.0
 41
1.0
 10
934.28710218892343
 20
-1110.1113042217371
 30
0.0
 41
0.9985539388303052
 10
934.16613243524614
 20
-1110.1525678977825
 30
0.0
 41
1.0
 10
934.16378700428572
 20
-1110.1533679415984
 30
0.0
 41
1.0
 10
934.16144157332519
 20
-1110.1541679854145
 30
0.0
 41
1.0
 10
934.03578095772764
 20
-1110.1970317490914
 30
0.0
 41
0.9988468746493737
 10
933.91481061542822
 20
-1110.2517498341531
 30
0.0
 41
1.0
 10
933.91162779343858
 20
-1110.2531895087136
 30
0.0
 41
1.0
 10
933.90844497144894
 20
-1110.2546291832739
 30
0.0
 41
1.0
 10
933.78110898517116
 20
-1110.3122266174562
 30
0.0
 41
0.9991322885918755
 10
933.6590084011151
 20
-1110.3802219496379
 30
0.0
 41
1.0
 10
933.64140639006996
 20
-1110.3900241516283
 30
0.0
 41
1.0
 10
933.62380437902482
 20
-1110.3998263536187
 30
0.0
 41
1.0
 10
933.52162769796848
 20
-1110.4567264693987
 30
0.0
 41
0.9993860037849144
 10
933.423686693896
 20
-1110.5206424849869
 30
0.0
 41
1.0
 10
933.41806838104389
 20
-1110.5243089796818
 30
0.0
 41
1.0
 10
933.41245006819179
 20
-1110.5279754743765
 30
0.0
 41
1.0
 10
933.32574568982295
 20
-1110.5845585005752
 30
0.0
 41
0.9998821494953712
 10
933.24081931400985
 20
-1110.643776730652
 30
0.0
 41
1.0
 10
933.1558929381963
 20
-1110.7029949607295
 30
0.0
 41
0.999797648274466
 10
933.0734173077916
 20
-1110.765581368772
 30
0.0
 41
1.0
 10
933.05878104298768
 20
-1110.7766880585511
 30
0.0
 41
1.0
 10
933.04414477818364
 20
-1110.7877947483303
 30
0.0
 41
1.0
 10
932.93239661816767
 20
-1110.8725945359336
 30
0.0
 41
0.9998091630799177
 10
932.82404634013801
 20
-1110.9616948866367
 30
0.0
 41
1.0
 10
932.81104058766289
 20
-1110.972389987081
 30
0.0
 41
1.0
 10
932.79803483518776
 20
-1110.9830850875251
 30
0.0
 41
1.0
 10
932.66367305220285
 20
-1111.0935756391207
 30
0.0
 41
0.9995035112317129
 10
932.53653717443694
 20
-1111.2123094561382
 30
0.0
 41
1.0
 10
932.52688986405212
 20
-1111.2213192022937
 30
0.0
 41
1.0
 10
932.5172425536673
 20
-1111.2303289484494
 30
0.0
 41
1.0
 10
932.39381949090136
 20
-1111.3455953202058
 30
0.0
 41
0.9994630424299164
 10
932.27821108511819
 20
-1111.4686980634403
 30
0.0
 41
1.0
 10
932.27452824634611
 20
-1111.4726196429542
 30
0.0
 41
1.0
 10
932.27084540757403
 20
-1111.4765412224679
 30
0.0
 41
1.0
 10
932.16260267933399
 20
-1111.591800806676
 30
0.0
 41
0.9995160693750356
 10
932.06173664980236
 20
-1111.713568224548
 30
0.0
 41
1.0
 10
932.05980292972504
 20
-1111.715902648752
 30
0.0
 41
1.0
 10
932.05786920964772
 20
-1111.7182370729561
 30
0.0
 41
1.0
 10
931.96087062027323
 20
-1111.8353356424172
 30
0.0
 41
0.9996561470514556
 10
931.87014440160453
 20
-1111.9573584048699
 30
0.0
 41
1.0
 10
931.86398673569738
 20
-1111.9656401939192
 30
0.0
 41
1.0
 10
931.85782906979023
 20
-1111.9739219829685
 30
0.0
 41
1.0
 10
931.77941818293311
 20
-1112.0793811673263
 30
0.0
 41
0.9998349055172047
 10
931.70489090100648
 20
-1112.1876197509823
 30
0.0
 41
1.0
 10
931.63036361907189
 20
-1112.2958583346494
 30
0.0
 41
0.9999728109572463
 10
931.55744072316122
 20
-1112.4051842602053
 30
0.0
 41
1.0
 10
931.55612550775095
 20
-1112.4071560297057
 30
0.0
 41
1.0
 10
931.55481029234056
 20
-1112.4091277992061
 30
0.0
 41
1.0
 10
931.4792569656056
 20
-1112.5223972637682
 30
0.0
 41
0.9999972147436749
 10
931.40423915525059
 20
-1112.6360221065752
 30
0.0
 41
1.0
 10
931.39926761261927
 20
-1112.6435521950609
 30
0.0
 41
1.0
 10
931.39429606998806
 20
-1112.6510822835467
 30
0.0
 41
1.0
 10
931.30933517436711
 20
-1112.7797673033306
 30
0.0
 41
0.9999371979007725
 10
931.2272798249619
 20
-1112.9103242171097
 30
0.0
 41
1.0
 10
931.22377094060153
 20
-1112.9159071451727
 30
0.0
 41
1.0
 10
931.22026205624104
 20
-1112.9214900732354
 30
0.0
 41
1.0
 10
931.13118893811748
 20
-1113.0632128431364
 30
0.0
 41
0.9998272025610169
 10
931.04744554723936
 20
-1113.2081487198711
 30
0.0
 41
1.0
 10
931.03223037521093
 20
-1113.2344818343354
 30
0.0
 41
1.0
 10
931.0170152031825
 20
-1113.2608149487996
 30
0.0
 41
1.0
 10
930.90284146825411
 20
-1113.4584170544529
 30
0.0
 41
0.9995217214838538
 10
930.80110177869824
 20
-1113.6626993823145
 30
0.0
 41
1.0
 10
930.79345821606205
 20
-1113.6780468320198
 30
0.0
 41
1.0
 10
930.78581465342586
 20
-1113.693394281725
 30
0.0
 41
1.0
 10
930.69890936083664
 20
-1113.8678907398053
 30
0.0
 41
0.9998269762607343
 10
930.6185548945648
 20
-1114.0454990265284
 30
0.0
 41
1.0
 10
930.53820042829364
 20
-1114.22310731325
 30
0.0
 41
0.9998944747387397
 10
930.46303963373259
 20
-1114.4029750388706
 30
0.0
 41
1.0
 10
930.45808596413417
 20
-1114.4148296938051
 30
0.0
 41
1.0
 10
930.45313229453575
 20
-1114.4266843487399
 30
0.0
 41
1.0
 10
930.37248523398591
 20
-1114.6196812887515
 30
0.0
 41
0.999950673441223
 10
930.29568770508899
 20
-1114.8142420935915
 30
0.0
 41
1.0
 10
930.28108773981694
 20
-1114.8512300154007
 30
0.0
 41
1.0
 10
930.26648777454477
 20
-1114.8882179372097
 30
0.0
 41
1.0
 10
930.21889017618196
 20
-1115.0088028984565
 30
0.0
 41
0.9999912393919627
 10
930.17230373216296
 20
-1115.1297821011433
 30
0.0
 41
1.0
 10
930.12571728815055
 20
-1115.2507613038133
 30
0.0
 41
0.999992711392694
 10
930.08005599375656
 20
-1115.3720927113136
 30
0.0
 41
1.0
 10
930.06608756235369
 20
-1115.4092096933264
 30
0.0
 41
1.0
 10
930.05211913095081
 20
-1115.4463266753389
 30
0.0
 41
1.0
 10
929.97852097376051
 20
-1115.6418920468402
 30
0.0
 41
0.9999487550947976
 10
929.90889734878874
 20
-1115.8389074120232
 30
0.0
 41
1.0
 10
929.88530373885487
 20
-1115.9056707223076
 30
0.0
 41
1.0
 10
929.861710128921
 20
-1115.9724340325918
 30
0.0
 41
1.0
 10
929.7670244945482
 20
-1116.2403678674232
 30
0.0
 41
0.9999808436942207
 10
929.67566290590366
 20
-1116.5094532986961
 30
0.0
 41
1.0
 10
929.58430131725936
 20
-1116.7785387299689
 30
0.0
 41
0.9999873932898963
 10
929.49564660854514
 20
-1117.0485280849709
 30
0.0
 41
1.0
 10
929.47555425167525
 20
-1117.1097174177253
 30
0.0
 41
1.0
 10
929.45546189480535
 20
-1117.1709067504798
 30
0.0
 41
1.0
 10
929.3266224723435
 20
-1117.5632747710138
 30
0.0
 41
0.9999794883034789
 10
929.20281968738436
 20
-1117.9572609772963
 30
0.0
 41
1.0
 10
929.19166742797233
 20
-1117.9927515874524
 30
0.0
 41
1.0
 10
929.18051516856031
 20
-1118.0282421976085
 30
0.0
 41
1.0
 10
929.03795700464468
 20
-1118.481914949753
 30
0.0
 41
0.999998276183126
 10
928.89708456460289
 20
-1118.9361139719604
 30
0.0
 41
1.0
 10
927.30894423203029
 20
-1123.9848837029635
 30
0.0
 41
1.0
 10
925.72080389945768
 20
-1129.0336534339667
 30
0.0
 41
1.0
 10
924.77205328798129
 20
-1129.0336534339667
 30
0.0
 41
1.0
 10
923.82330267650491
 20
-1129.0336534339667
 30
0.0
 41
1.0
 10
927.06158716265816
 20
-1118.7063312340206
 30
0.0
 41
1.0
 10
930.2998716488114
 20
-1108.3790090340744
 30
0.0
 41
1.0
  0
LWPOLYLINE
  5
56
100
AcDbEntity
  8
0
370
              15
390
0
  6
Continuous
 62
               7
100
AcDbPolyline
 90
      232
 70
             128
 10
904.59632587498436
 20
-1109.4633518655896
 42
0.0004370800682592
 10
904.54344870110572
 20
-1109.5320185045944
 10
904.50416446978488
 20
-1109.5831256177426
 42
0.0030481992178744
 10
904.37382575265212
 20
-1109.7548473101047
 10
904.33531408091517
 20
-1109.8062340938748
 42
0.0042058245758374
 10
904.13132903024882
 20
-1110.0832398389437
 10
904.07892390774464
 20
-1110.1556726857293
 42
0.0120948898738669
 10
903.78287999098734
 20
-1110.5864222902719
 10
903.68668749186259
 20
-1110.7339030255009
 42
0.0141601263947253
 10
903.38304344493918
 20
-1111.2295723622385
 10
903.3435061775125
 20
-1111.2984163296715
 42
0.0071131081303798
 10
903.13823385427486
 20
-1111.6679191285084
 42
0.0068458791003417
 10
902.9433543274306
 20
-1112.0430106919869
 10
902.93654246497408
 20
-1112.0565724057083
 42
0.0064120880289223
 10
902.73840021493447
 20
-1112.4639968806171
 10
902.73086552941277
 20
-1112.4800087373483
 42
0.0058857236448259
 10
902.52811013754138
 20
-1112.9243848483827
 10
902.51993521124712
 20
-1112.9428750020172
 42
0.0053189741896757
 10
902.31123089858136
 20
-1113.4288384759309
 10
902.30248309289823
 20
-1113.4498203541311
 42
0.0047503650419865
 10
902.08650936673723
 20
-1113.9820197873669
 10
902.07724111839946
 20
-1114.0054961634487
 42
0.0042071762170862
 10
901.85269373466781
 20
-1114.5885897575288
 10
901.84294433232299
 20
-1114.6145559323882
 42
0.0036680086482934
 10
901.60848968901712
 20
-1115.2531913169021
 10
901.59828190916301
 20
-1115.2816398512641
 42
0.0032573142627743
 10
901.3526496232007
 20
-1115.9804925110047
 10
901.28399910235737
 20
-1116.1799555950654
 42
0.0026133366649138
 10
900.93555390359768
 20
-1117.2098188787422
 10
900.87229711608893
 20
-1117.4000497141596
 42
0.0020592950743204
 10
900.65843404712996
 20
-1118.0521533667484
 10
900.65538225596856
 20
-1118.061589855153
 42
0.0025609928533521
 10
900.45356175448114
 20
-1118.6967350775242
 10
900.45097038735094
 20
-1118.705037418476
 42
0.0031362356242796
 10
900.26147960167748
 20
-1119.3258002746443
 10
900.25934855874539
 20
-1119.3329415808712
 42
0.003722991803044
 10
900.08254817182365
 20
-1119.9419268828294
 10
900.08086958261526
 20
-1119.9478737730105
 42
0.0043077623706429
 10
899.91712878055216
 20
-1120.5476925047728
 42
0.0047654161820078
 10
899.764300058044
 20
-1121.1503785936434
 10
899.72983544919703
 20
-1121.2919403708249
 42
0.0112969368446597
 10
899.5339710910539
 20
-1122.1836325314468
 10
899.50596470195683
 20
-1122.3264605775469
 42
0.0130056762570143
 10
899.30512745831027
 20
-1123.5134016491918
 10
899.28458770816349
 20
-1123.6574797626668
 42
0.013872153214429
 10
899.18088470362522
 20
-1124.5643092484945
 10
899.16158921571662
 20
-1124.7878069704286
 42
0.0071254697007239
 10
899.12824256979468
 20
-1125.2509939792669
 10
899.12328159563174
 20
-1125.3369979738218
 42
0.0028881799205864
 10
899.10814330234155
 20
-1125.6287396836697
 42
0.0060297297137011
 10
899.0982111025661
 20
-1125.9206886197842
 10
899.09714882089884
 20
-1125.9690809917258
 42
0.0229523164161332
 10
899.10487984868473
 20
-1126.2918358380011
 10
899.10910562220511
 20
-1126.3522393720166
 42
0.0123673300666928
 10
899.12818426872343
 20
-1126.5533600971921
 42
0.0128577674471499
 10
899.15737965912945
 20
-1126.7532579471174
 10
899.16450553251673
 20
-1126.7945867617159
 42
0.0285717853764323
 10
899.22899953421268
 20
-1127.0727029130298
 10
899.24266805787886
 20
-1127.1193576825065
 42
0.031628309916018
 10
899.35847863779304
 20
-1127.4383721843324
 10
899.36152732954884
 20
-1127.4453585566584
 42
0.0338984824238867
 10
899.51095904051567
 20
-1127.7329245208471
 10
899.51326776988526
 20
-1127.7367155501224
 42
0.0350228718354137
 10
899.6956280605591
 20
-1127.9937675347999
 10
899.69651331233456
 20
-1127.9948466125645
 42
0.0347476747535601
 10
899.91093799957434
 20
-1128.2220316597839
 42
0.0331337701908666
 10
900.15418132532102
 20
-1128.4181603218615
 10
900.15528142383687
 20
-1128.4189330250338
 42
0.0305233319086919
 10
900.42382611941048
 20
-1128.5840611951253
 10
900.4270561639114
 20
-1128.5857852069878
 42
0.0273744481151657
 10
900.71960987548573
 20
-1128.7219233508781
 10
900.72471441062328
 20
-1128.7239669353478
 42
0.0240964406192057
 10
901.04019148626855
 20
-1128.8329506616292
 10
901.0467748154789
 20
-1128.8348754013043
 42
0.0209636179815083
 10
901.38417496813099
 20
-1128.9183435492364
 10
901.39180742858025
 20
-1128.9198954622379
 42
0.0181388704692154
 10
901.75012982058149
 20
-1128.9793115554523
 10
901.75841066895691
 20
-1128.980377739269
 42
0.0156086547584408
 10
902.13659803314215
 20
-1129.0171139258455
 10
902.17979328547915
 20
-1129.019952428325
 42
0.0137148329026974
 10
902.50746643077161
 20
-1129.0324726835759
 10
902.55340262070933
 20
-1129.032967116691
 42
0.0051057823880454
 10
902.78954820728984
 20
-1129.0330973711002
 42
0.0052256693316559
 10
903.02564549107444
 20
-1129.0283485466359
 10
903.09587227481791
 20
-1129.026201580622
 42
0.016150717904825
 10
903.47160935291924
 20
-1129.0025512102955
 10
903.49162231329228
 20
-1129.0006410150079
 42
0.0101216737833179
 10
903.9056495347794
 20
-1128.9526480846428
 10
903.93970282420969
 20
-1128.9480003878327
 42
0.0245291776402128
 10
904.41649247976522
 20
-1128.8589253097553
 10
904.50131579528625
 20
-1128.8387293894102
 42
0.0143509212555683
 10
904.85794689922443
 20
-1128.7429247556317
 42
0.0156557857041786
 10
905.20816296395083
 20
-1128.6259135398134
 10
905.21566417844633
 20
-1128.6231433780588
 42
0.0170137333626193
 10
905.57226017412518
 20
-1128.4774857631887
 10
905.57936409653519
 20
-1128.4742979276239
 42
0.0183105364409703
 10
905.93871376470281
 20
-1128.2969628857988
 10
905.94566052934022
 20
-1128.2932124509275
 42
0.0194899958152727
 10
906.30414127032509
 20
-1128.0812334690363
 10
906.31115514966098
 20
-1128.0767081267418
 42
0.0204869852948318
 10
906.6651694517526
 20
-1127.8271881116577
 10
906.67243506034197
 20
-1127.8216080463076
 42
0.0212516938557271
 10
907.01842499145107
 20
-1127.5317040494122
 10
907.06494168552706
 20
-1127.4892367393181
 42
0.0215248918251623
 10
907.32496785441322
 20
-1127.2304724603248
 10
907.36999758879085
 20
-1127.1816283389783
 42
0.0114578554945069
 10
907.52478974247106
 20
-1127.0058054055166
 10
907.53598427845088
 20
-1126.9924866419792
 42
0.0061531305128392
 10
907.66245892445204
 20
-1126.8381971086656
 42
0.0006325587127869
 10
907.78683740873873
 20
-1126.68219373282
 10
907.80987754365538
 20
-1126.6532202123303
 42
0.0041897761554223
 10
907.97833294762052
 20
-1126.4377008362783
 10
908.0367950675203
 20
-1126.3615994892834
 42
0.0092993880039656
 10
908.31340699474424
 20
-1125.9873207253993
 10
908.39580148794494
 20
-1125.8713837218284
 42
0.0159321727087168
 10
908.74240797058542
 20
-1125.3492095010749
 10
908.78676410597814
 20
-1125.2775299368191
 42
0.0085547317022072
 10
909.02127587130019
 20
-1124.8836549876003
 42
0.0084601156887917
 10
909.24225204873676
 20
-1124.4820281385787
 10
909.25036752257256
 20
-1124.4666684562951
 42
0.0081429654285546
 10
909.47361679301264
 20
-1124.026946943749
 10
909.48247695719408
 20
-1124.0087681017349
 42
0.007657458132913
 10
909.70888446776689
 20
-1123.5255852264684
 10
909.71836410848448
 20
-1123.5045207481787
 42
0.0070682724203291
 10
909.9488090162896
 20
-1122.9724834434016
 10
909.95879930027297
 20
-1122.9484942543859
 42
0.0064559514449016
 10
910.19413250845537
 20
-1122.3621819878649
 10
910.20454186661959
 20
-1122.3352470624247
 42
0.0058311413904601
 10
910.44558860337588
 20
-1121.6892149680589
 10
910.45634368076981
 20
-1121.6593306268805
 42
0.0052312425818752
 10
910.70392495881231
 20
-1120.9481282130414
 10
910.71496879519054
 20
-1120.9153015009763
 42
0.0046680544796232
 10
910.9698972229221
 20
-1120.133475185231
 10
911.0118893729699
 20
-1120.0004919479252
 42
0.0041666856442359
 10
911.21517538536364
 20
-1119.3375231729237
 10
911.25283782602889
 20
-1119.210942065265
 42
0.0015170975154759
 10
911.37402440444043
 20
-1118.7990737137764
 42
-0.000488799311504
 10
911.49436417755521
 20
-1118.3869553017628
 10
911.57084143505858
 20
-1118.1259979157933
 42
0.0002583378927851
 10
911.84405600512878
 20
-1117.1919412125942
 10
911.92582885467425
 20
-1116.9118419531178
 42
0.0006636169672048
 10
912.11969661471085
 20
-1116.2444890294441
 10
912.12479326907146
 20
-1116.2268574465172
 42
0.001058913132359
 10
912.30624196997451
 20
-1115.5941261035152
 10
912.311224040453
 20
-1115.5766131965022
 42
0.001565552446104
 10
912.47949424763772
 20
-1114.9779965172943
 10
912.48432444804803
 20
-1114.9606043583753
 42
0.0021640440475715
 10
912.63861442003872
 20
-1114.3955773403404
 10
912.64324863947218
 20
-1114.3783126103335
 42
0.0028763871852605
 10
912.78276435752173
 20
-1113.8463446594994
 10
912.78715022168797
 20
-1113.8292206813489
 42
0.0037310511945807
 10
912.91110691352583
 20
-1113.329773087321
 10
912.91518213381289
 20
-1113.3128128160836
 42
0.0047652197767401
 10
913.02280603432325
 20
-1112.8453350477705
 10
913.02649663364718
 20
-1112.8285754926178
 42
0.0060276699302575
 10
913.11702673280035
 20
-1112.3924996974763
 10
913.1202454230887
 20
-1112.3759984831711
 42
0.0075824337762912
 10
913.19293473250491
 20
-1111.9707313187409
 10
913.19558010988669
 20
-1111.9545763712811
 42
0.0095130624606669
 10
913.24969534551633
 20
-1111.5794870182185
 10
913.25668156939889
 20
-1111.5235534601018
 42
0.0121054653233911
 10
913.28327289997685
 20
-1111.2586576316282
 10
913.28413938973722
 20
-1111.2472541886882
 42
0.0069050827393203
 10
913.29922820777404
 20
-1111.0043129618548
 10
913.3003635074424
 20
-1110.9807867048137
 42
0.0169063976692705
 10
913.30319078642287
 20
-1110.7845939775093
 10
913.3020201348919
 20
-1110.7242582161728
 42
0.0052007732868321
 10
913.29976668629865
 20
-1110.6486648260081
 42
0.0054038123296969
 10
913.27980317446054
 20
-1110.5286465300026
 10
913.2747173185893
 20
-1110.499988043417
 42
0.0112050460451102
 10
913.23933295653137
 20
-1110.3236616050808
 10
913.22150799449014
 20
-1110.2441200183571
 42
0.024076446800975
 10
913.13061062834413
 20
-1109.9138829828564
 10
913.11205186553047
 20
-1109.8572628178617
 42
0.0256812331832596
 10
912.96868894534111
 20
-1109.4855386116049
 10
912.96327951951935
 20
-1109.4734072766144
 42
0.0268360501217546
 10
912.79385227866987
 20
-1109.1424141425941
 10
912.78831587103514
 20
-1109.1328944722823
 42
0.0274670231729867
 10
912.59611489462145
 20
-1108.8406070973647
 10
912.59073359465879
 20
-1108.8333279498233
 42
0.0275035967101781
 10
912.37916071509699
 20
-1108.5778120595191
 10
912.37409121412986
 20
-1108.572332971888
 42
0.0269557673527695
 10
912.14668767069088
 20
-1108.3516906859263
 10
912.14194461290776
 20
-1108.3475607314651
 42
0.0259124802208897
 10
911.9023897814775
 20
-1108.1598702043134
 10
911.89785893629596
 20
-1108.1566847019833
 42
0.0245162153004114
 10
911.64994258320075
 20
-1107.9999516928724
 10
911.6454160368786
 20
-1107.9973914956727
 42
0.0229282588834675
 10
911.39299648004908
 20
-1107.8695233031726
 10
911.38821598621109
 20
-1107.8673710034102
 42
0.0212984135693904
 10
911.13517803375066
 20
-1107.7661720861684
 10
911.12987374878207
 20
-1107.7643085234088
 42
0.0197555462340833
 10
910.88009541105816
 20
-1107.6874931054435
 42
0.0183511896784652
 10
910.62516668559419
 20
-1107.629910198478
 10
910.53880148887231
 20
-1107.6137074080932
 42
0.0338057877150354
 10
910.25329413961174
 20
-1107.579899002953
 10
910.16228873457555
 20
-1107.5753193476917
 42
0.0091990524488401
 10
910.0564416259358
 20
-1107.5719434917694
 42
0.0028333980777286
 10
909.9505277099438
 20
-1107.5711153842526
 10
909.94961225689349
 20
-1107.5711134144285
 42
-0.0023619827799752
 10
909.84186624176084
 20
-1107.5703725733499
 10
909.80546107161172
 20
-1107.5699502668872
 42
0.0008824598485377
 10
909.62490508169446
 20
-1107.5681744886483
 10
909.58104364935593
 20
-1107.5678205271233
 42
0.003813266576811
 10
909.31276075349149
 20
-1107.5677015910564
 10
909.29622709868363
 20
-1107.5678203572002
 42
0.0060665569335591
 10
908.9949466070974
 20
-1107.5736406566209
 10
908.98069627506698
 20
-1107.5740889645886
 42
0.0080356953336903
 10
908.65123755872389
 20
-1107.5897566866556
 10
908.6391675436405
 20
-1107.5905252695959
 42
0.0098996399105945
 10
908.28640445898736
 20
-1107.6200104987943
 10
908.27635874961493
 20
-1107.6210507949922
 42
0.0117740981366489
 10
907.90520189126732
 20
-1107.6683430425219
 10
907.89697919478363
 20
-1107.6695881590929
 42
0.0137435215135065
 10
907.51239037529808
 20
-1107.7386851326546
 10
907.50573333617513
 20
-1107.740071028888
 42
0.0158359869385322
 10
907.11273624237276
 20
-1107.8349631173689
 10
907.1073230555055
 20
-1107.8364530582394
 42
0.018055412402713
 10
906.71100801089335
 20
-1107.961091074478
 10
906.70645122280973
 20
-1107.9627071107443
 42
0.0203657431282945
 10
906.3119737049991
 20
-1108.1209674522599
 10
906.30783016599105
 20
-1108.1228290737022
 42
0.022681968465513
 10
905.92039410978794
 20
-1108.3184716523726
 10
905.91619431876927
 20
-1108.3208372442928
 42
0.0248634984606092
 10
905.5410123775888
 20
-1108.5574638902397
 10
905.49281744880352
 20
-1108.5913209320663
 42
0.0267044190885524
 10
905.21852475188757
 20
-1108.8067613079338
 42
0.0139303002197481
 10
904.9623575859506
 20
-1109.0440001488441
 10
904.95750420022785
 20
-1109.048752811706
 42
0.0283460963442526
 10
904.71343160599974
 20
-1109.3164834721522
 10
904.6737631008441
 20
-1109.3652850496242
 42
0.0070695364826236
 10
904.59632587498436
 20
-1109.4633518655896
 42
0.0070695364826236
  0
LWPOLYLINE
  5
57
100
AcDbEntity
  8
0
370
              15
390
0
  6
Continuous
 62
               7
100
AcDbPolyline
 90
      226
 70
             128
 10
901.06750543773796
 20
-1125.1849406717738
 42
-0.0026277636663594
 10
901.06742755393782
 20
-1125.1181687460632
 10
901.06764491216995
 20
-1125.0650135285875
 42
-0.0088680296730638
 10
901.07142152846291
 20
-1124.8919977461874
 10
901.0737678875754
 20
-1124.8327177207309
 42
-0.0077381705609692
 10
901.08981399833954
 20
-1124.5414572249178
 10
901.09068190951155
 20
-1124.5291689912476
 42
-0.0068872530532731
 10
901.11731398925986
 20
-1124.2139472391768
 10
901.11851821344578
 20
-1124.2017062601599
 42
-0.0062130021488258
 10
901.15611193027132
 20
-1123.8628365689401
 10
901.15761583380879
 20
-1123.8506626970047
 42
-0.0056726929666916
 10
901.20653769330988
 20
-1123.4884674748994
 10
901.20831113895542
 20
-1123.4763736746461
 42
-0.0052341884493681
 10
901.26892172521866
 20
-1123.0911804191087
 10
901.27093971399199
 20
-1123.0791754891359
 42
-0.0049768450167671
 10
901.34367839541892
 20
-1122.6713309217005
 10
901.36792741014017
 20
-1122.5427829386972
 42
-0.0089029805624003
 10
901.5050082619357
 20
-1121.8810074912712
 10
901.53775363725345
 20
-1121.7359760607512
 42
-0.0080318257102116
 10
901.76730225159292
 20
-1120.7902664289027
 10
901.77928717804241
 20
-1120.7441357937075
 42
-0.0074265721318132
 10
902.06329871689161
 20
-1119.71407121533
 10
902.08317826001291
 20
-1119.6459371547246
 42
-0.0069711922701787
 10
902.41048283851569
 20
-1118.5796694144096
 10
902.47043478561955
 20
-1118.393648056044
 42
-0.0052070422895357
 10
902.69986001088046
 20
-1117.7063759790076
 10
902.71714120305626
 20
-1117.6563486983803
 42
-0.0009167004448166
 10
902.92023309034221
 20
-1117.0718928502365
 42
-0.0025162726944207
 10
903.1273307205995
 20
-1116.4888515860885
 10
903.16455533241049
 20
-1116.3857020401676
 42
-0.0028212681457853
 10
903.41273125137332
 20
-1115.7099714079973
 10
903.42256201412999
 20
-1115.6836639633043
 42
-0.00319649168192
 10
903.65885427178625
 20
-1115.0634592011936
 10
903.66848872578657
 20
-1115.0386492110467
 42
-0.0036281836450875
 10
903.89359468688644
 20
-1114.4712085301571
 10
903.90303309704564
 20
-1114.4479110986501
 42
-0.0041269166833236
 10
904.11765079370309
 20
-1113.9304702026761
 10
904.15028375012298
 20
-1113.853591756317
 42
-0.004747221305617
 10
904.30732855567749
 20
-1113.4931702884317
 10
904.31422263688773
 20
-1113.4777496910951
 42
-0.0025651659996072
 10
904.46258067073586
 20
-1113.1504216353512
 42
-0.0057144634997853
 10
904.61633036450633
 20
-1112.8256119619903
 10
904.6443610699115
 20
-1112.7681035795879
 42
-0.0065388068371175
 10
904.82782809764808
 20
-1112.4038710829295
 10
904.83628655342591
 20
-1112.3876115035614
 42
-0.0074510843027414
 10
905.01246879930454
 20
-1112.0609232224374
 10
905.0206484698441
 20
-1112.0462824451533
 42
-0.0084648979855878
 10
905.19028232293567
 20
-1111.7543734342073
 10
905.19813844941734
 20
-1111.7413664425671
 42
-0.0095638542813491
 10
905.36197389701795
 20
-1111.4814775705779
 10
905.36944884069146
 20
-1111.4701082091199
 42
-0.0107191626802504
 10
905.52825042107725
 20
-1111.2394969745783
 10
905.53526715480757
 20
-1111.2297608822146
 42
-0.0118458573901384
 10
905.68981525332083
 20
-1111.0256886869031
 42
-0.0129184518180422
 10
905.85426787693052
 20
-1110.8295281707235
 10
905.88441264928872
 20
-1110.7954020918294
 42
-0.0217742579633803
 10
906.06102497162078
 20
-1110.6121953215829
 10
906.0717705160755
 20
-1110.6019784883854
 42
-0.0097266568651055
 10
906.23782813493699
 20
-1110.4501309139428
 42
-0.0187720905721835
 10
906.41217571082791
 20
-1110.3080620605526
 10
906.44288170149798
 20
-1110.2849029781594
 42
-0.017942820752072
 10
906.67530242149678
 20
-1110.1223508010457
 10
906.67895474841396
 20
-1110.1199868661572
 42
-0.0170047877699502
 10
906.91471838594293
 20
-1109.9785263520066
 10
906.91850137469214
 20
-1109.9764280469687
 42
-0.0160190788367999
 10
907.15540992232479
 20
-1109.8547767449822
 42
-0.0151102861496382
 10
907.39944170477122
 20
-1109.7480939689276
 10
907.45182820698324
 20
-1109.7270538360328
 42
-0.0271945441887305
 10
907.81049076604165
 20
-1109.6051890253268
 10
907.87955556653117
 20
-1109.5858394840602
 42
-0.0237596594021696
 10
908.29535241355211
 20
-1109.4903887720789
 10
908.3634152672812
 20
-1109.4781340839525
 42
-0.0213715440554612
 10
908.64929019872784
 20
-1109.4391870524423
 10
908.70943736494155
 20
-1109.4335973377417
 42
-0.0101465655815797
 10
908.87692989693994
 20
-1109.4214537944772
 10
908.88627028313556
 20
-1109.4209668794801
 42
-0.0100375910879551
 10
909.03542438370073
 20
-1109.4161910615549
 10
909.04568365338343
 20
-1109.4160686225405
 42
-0.0103625633381488
 10
909.17439164803602
 20
-1109.417200056067
 10
909.19665729930307
 20
-1109.4178574145319
 42
-0.0115689250226138
 10
909.2807080368309
 20
-1109.422286920777
 42
-0.007243803742306
 10
909.36454631627078
 20
-1109.4298761205264
 10
909.38134682574287
 20
-1109.4316426632506
 42
-0.0217917313140844
 10
909.49791658905622
 20
-1109.4490625559718
 10
909.56351667962645
 20
-1109.4618091643868
 42
-0.0332943556749213
 10
909.7679088446514
 20
-1109.5158494556931
 10
909.79808141320223
 20
-1109.5260175328119
 42
-0.0184824084790043
 10
909.93658646966685
 20
-1109.5784685481981
 42
-0.0198002050694909
 10
910.07066081016478
 20
-1109.6413526083968
 10
910.07254744754312
 20
-1109.6423303952774
 42
-0.0212242342983729
 10
910.20468638994362
 20
-1109.7180931340697
 10
910.20650168548855
 20
-1109.719238936279
 42
-0.0226090605805313
 10
910.33500558671074
 20
-1109.8087185798438
 10
910.33685002844777
 20
-1109.810130832831
 42
-0.0238457052251276
 10
910.4600321097397
 20
-1109.9141267286923
 10
910.46198483829971
 20
-1109.9159416064595
 42
-0.0248160564157519
 10
910.57818634559885
 20
-1110.0352162076665
 10
910.58028997900237
 20
-1110.0376015413726
 42
-0.0254109591459934
 10
910.68789519686845
 20
-1110.1728899273371
 10
910.6901432187824
 20
-1110.1760314757375
 42
-0.0255528488282633
 10
910.78758989757966
 20
-1110.3280585299717
 10
910.78992099749564
 20
-1110.3321401415792
 42
-0.0252146793218459
 10
910.87570202350526
 20
-1110.5016423875772
 10
910.87800426266244
 20
-1110.5068244694892
 42
-0.0244265635947783
 10
910.95065895642415
 20
-1110.6945710415362
 10
910.95990535789269
 20
-1110.7224364598746
 42
-0.0231319612902914
 10
911.00582813688436
 20
-1110.8857375066752
 42
-0.0112130424358419
 10
911.04046415942298
 20
-1111.0519411068651
 10
911.04166668453513
 20
-1111.0584376937513
 42
-0.0210527881245591
 10
911.06735315990545
 20
-1111.2394933391874
 10
911.07086375472784
 20
-1111.2748988877397
 42
-0.0190029892416004
 10
911.08630522827241
 20
-1111.5284347340123
 10
911.08711520471638
 20
-1111.5639103483809
 42
-0.0137974553662444
 10
911.08556635188086
 20
-1111.8889417551145
 10
911.08472089692543
 20
-1111.9150604997023
 42
-0.0081336634214859
 10
911.06986156170274
 20
-1112.2204079673065
 42
-0.0073526923576519
 10
911.0455530283283
 20
-1112.5251562115905
 10
911.04429160454538
 20
-1112.5384928862577
 42
-0.0066886138686817
 10
911.00855601849901
 20
-1112.8690789297543
 10
911.00689892902903
 20
-1112.8827005487465
 42
-0.00613591873533
 10
910.95904832697863
 20
-1113.239464528843
 10
910.95701082590529
 20
-1113.2533593316757
 42
-0.0056698610063633
 10
910.89636049513865
 20
-1113.6366379005106
 10
910.89395506181506
 20
-1113.6507970197445
 42
-0.0052721077276971
 10
910.81982286101731
 20
-1114.0609243594122
 10
910.81705971217366
 20
-1114.0753409948084
 42
-0.0049289272177742
 10
910.7287655940745
 20
-1114.5126495059267
 10
910.72565309939114
 20
-1114.5273183587465
 42
-0.004741595671182
 10
910.62241510785884
 20
-1114.992115116157
 10
910.5876468974991
 20
-1115.1419222115403
 42
-0.0084404470905304
 10
910.39763045392795
 20
-1115.9021462360688
 10
910.39150376594159
 20
-1115.9250103602249
 42
-0.0039635940257047
 10
910.17005008165768
 20
-1116.7259992244719
 10
910.15667328647805
 20
-1116.772930841064
 42
-0.0072475040837385
 10
909.88922639861846
 20
-1117.6621505574433
 10
909.81901407179146
 20
-1117.8838909074145
 42
-0.0051345458829167
 10
909.5322546997287
 20
-1118.7582160952375
 10
909.51072843295651
 20
-1118.8216423623815
 42
-0.0019150016601091
 10
909.2551950260945
 20
-1119.5651914825935
 10
909.24872742170805
 20
-1119.5837789474865
 42
-0.0021524362753139
 10
909.00024937063438
 20
-1120.2881047692231
 10
908.99103894993607
 20
-1120.3138583475297
 42
-0.0024331286822153
 10
908.75478369090195
 20
-1120.9644576556427
 10
908.74573573835664
 20
-1120.989000961983
 42
-0.0027449721791129
 10
908.52112116751607
 20
-1121.5881308409214
 10
908.51223116013296
 20
-1121.6114534307499
 42
-0.0031083229770231
 10
908.29868867351388
 20
-1122.1613774683533
 10
908.28995254183644
 20
-1122.1834671842157
 42
-0.0035311343283131
 10
908.08691135624645
 20
-1122.6864503099412
 10
908.07832601710095
 20
-1122.7072930334461
 42
-0.0040245640945549
 10
907.88521421330438
 20
-1123.165602356044
 10
907.87677809970455
 20
-1123.1851817241086
 42
-0.0046015135854343
 10
907.69302180653767
 20
-1123.6010867537584
 10
907.68473562870508
 20
-1123.6193838932199
 42
-0.0052768638270907
 10
907.50975810975376
 20
-1123.9951567774808
 10
907.50162589912497
 20
-1124.0121501160279
 42
-0.006067267564417
 10
907.33484628636086
 20
-1124.3500657391382
 10
907.32687680588276
 20
-1124.3657309981288
 42
-0.006990464887486
 10
907.16770841187781
 20
-1124.6680668047991
 10
907.15991701226608
 20
-1124.6823773540282
 42
-0.0080637022763247
 10
907.00776515192115
 20
-1124.9514126571794
 10
907.00017611928911
 20
-1124.9643405227814
 42
-0.0093006455669469
 10
906.85443544275836
 20
-1125.2023549212834
 10
906.84708477601862
 20
-1125.2138728904504
 42
-0.0107060778053566
 10
906.7071362325762
 20
-1125.4231432078357
 10
906.70007446429747
 20
-1125.4332287504003
 42
-0.0122723111412897
 10
906.56528074609855
 20
-1125.6160220798904
 10
906.56495452254944
 20
-1125.6164424676938
 42
-0.0141836319626052
 10
906.42137291957044
 20
-1125.7910122255296
 10
906.4144251639168
 20
-1125.7989872257963
 42
-0.0175957477204678
 10
906.2745189958838
 20
-1125.9486081141993
 42
-0.0080466359667606
 10
906.1270552308481
 20
-1126.0909306423557
 10
906.08102068633616
 20
-1126.1339510804416
 42
-0.0269600260397397
 10
905.82774044035614
 20
-1126.3462743389487
 10
905.7611733040585
 20
-1126.3962257535729
 42
-0.0178362839755621
 10
905.52122881440027
 20
-1126.5632436798271
 10
905.51398384339541
 20
-1126.5679121920348
 42
-0.0174650732650256
 10
905.27764764595861
 20
-1126.7087731569911
 42
-0.0169240130166681
 10
905.0321814001062
 20
-1126.8330654167662
 10
904.98619524454307
 20
-1126.8544273723357
 42
-0.0318883036841081
 10
904.63584438892201
 20
-1126.9907656818461
 10
904.56747885375773
 20
-1127.0124663023214
 42
-0.0284435909902669
 10
904.19142872746727
 20
-1127.1086837377959
 10
904.15627056696576
 20
-1127.115577333625
 42
-0.0243909341009181
 10
903.84282710604975
 20
-1127.1612983646544
 10
903.7925463792825
 20
-1127.1661439115558
 42
-0.0196639292931994
 10
903.57695080175142
 20
-1127.1783921970696
 10
903.52512673058811
 20
-1127.1792954578063
 42
-0.0100501510681577
 10
903.41270344892371
 20
-1127.1789950594532
 10
903.38104358754549
 20
-1127.1782739875671
 42
-0.001975203110131
 10
903.33195125089821
 20
-1127.1769618273584
 10
903.32919094766658
 20
-1127.1768771355319
 42
0.0065378752007857
 10
903.28561437292137
 20
-1127.1761102443172
 42
-0.0167974694652371
 10
903.24208354998848
 20
-1127.174450345791
 10
903.23800421072747
 20
-1127.1741573348961
 42
-0.0081283276273982
 10
903.18644441299239
 20
-1127.1696103412585
 10
903.17470483911029
 20
-1127.1683824236798
 42
-0.0126703440173329
 10
903.0999865433165
 20
-1127.1586476326083
 10
903.07719867564003
 20
-1127.155089376693
 42
-0.0117852088439498
 10
902.9576596898122
 20
-1127.1335263815367
 10
902.90227923804468
 20
-1127.1221828413013
 42
-0.025177459228981
 10
902.67543519903575
 20
-1127.0636848318682
 10
902.63071600918681
 20
-1127.0497180125335
 42
-0.0146525199894823
 10
902.44432302164728
 20
-1126.985451485335
 42
-0.0166929435854701
 10
902.2623453655192
 20
-1126.9096443522797
 10
902.25768873424738
 20
-1126.9075194516663
 42
-0.01916843584346
 10
902.07250510299843
 20
-1126.8142833678764
 10
902.06917251724121
 20
-1126.8124421203231
 42
-0.022118178181394
 10
901.88586221333844
 20
-1126.700308621952
 10
901.88351240933059
 20
-1126.6987243239614
 42
-0.025498468538389
 10
901.70722225894519
 20
-1126.5663131739916
 10
901.68474011124363
 20
-1126.5475608650556
 42
-0.0292492648804722
 10
901.55997117240031
 20
-1126.4304680654122
 42
-0.0159048957495093
 10
901.44613117495066
 20
-1126.3024480738138
 10
901.44481238437095
 20
-1126.3008664607933
 42
-0.0343813379563474
 10
901.34217512274552
 20
-1126.158995135025
 10
901.31068359138362
 20
-1126.1084917429291
 42
-0.0369117275701106
 10
901.22479108948664
 20
-1125.9450145019812
 42
-0.01917513799074
 10
901.15759770392992
 20
-1125.7726098959763
 10
901.15583438017006
 20
-1125.7675165513003
 42
-0.0378178042228349
 10
901.10603966138569
 20
-1125.5785757752185
 10
901.10004436565464
 20
-1125.5460151570171
 42
-0.0184846046474123
 10
901.07932716636105
 20
-1125.4042623364771
 42
-0.0179866351323981
 10
901.06899416128738
 20
-1125.261371523394
 10
901.06893771884165
 20
-1125.2598138367835
 42
-0.008549718612441
 10
901.06750543773796
 20
-1125.1849406717738
 42
-0.008549718612441
  0
ENDBLK
  5
58
100
AcDbEntity
  8
template
390
0
100
AcDbBlockEnd
  0
BLOCK
  5
59
100
AcDbEntity
  8
notes
390
0
100
AcDbBlockBegin
  2
*D3
 70
               1
 10
0.0
 20
0.0
 30
0.0
  3
*D3
  1

  0
LINE
  5
5A
100
AcDbEntity
  8
0
370
              -2
390
0
  6
Continuous
 62
               0
100
AcDbLine
 10
-144.91450860611354
 20
899.2394339267222
 30
0.0
 11
-144.91450860611354
 21
1045.4073673865312
 31
0.0
  0
LINE
  5
5B
100
AcDbEntity
  8
0
370
              -2
390
0
  6
Continuous
 62
               0
100
AcDbLine
 10
-624.91450860611383
 20
899.2394339267222
 30
0.0
 11
-624.91450860611383
 21
1045.4073673865312
 31
0.0
  0
LINE
  5
5C
100
AcDbEntity
  8
0
370
              -2
390
0
  6
Continuous
 62
               0
100
AcDbLine
 10
-144.91450860611354
 20
1045.4073673865312
 30
0.0
 11
-624.91450860611383
 21
1045.4073673865312
 31
0.0
  0
CIRCLE
  5
5D
102
{ACAD_REACTORS
330
5E
102
}
100
AcDbEntity
  8
0
370
              -2
390
0
  6
Continuous
 62
               0
100
AcDbCircle
 10
-144.91450860611354
 20
1045.4073673865312
 30
0.0
 40
1.9998779296875
  0
HATCH
  5
5E
100
AcDbEntity
  8
0
370
              -2
390
0
  6
Continuous
 62
               0
100
AcDbHatch
 10
0.0
 20
0.0
 30
0.0
210
0.0
220
0.0
230
1.0
  2
SOLID
 70
               1
 71
               1
 91
        1
 92
        1
 93
        1
 72
               2
 10
-144.91450860611354
 20
1045.4073673865312
 40
1.9998779296875
 50
0.0
 51
360.0
 73
               0
 97
        1
330
5D
 75
               0
 76
               1
 98
        1
 10
0.0
 20
0.0
  0
CIRCLE
  5
5F
102
{ACAD_REACTORS
330
60
102
}
100
AcDbEntity
  8
0
370
              -2
390
0
  6
Continuous
 62
               0
100
AcDbCircle
 10
-624.91450860611383
 20
1045.4073673865312
 30
0.0
 40
1.9998779296875
  0
HATCH
  5
60
100
AcDbEntity
  8
0
370
              -2
390
0
  6
Continuous
 62
               0
100
AcDbHatch
 10
0.0
 20
0.0
 30
0.0
210
0.0
220
0.0
230
1.0
  2
SOLID
 70
               1
 71
               1
 91
        1
 92
        1
 93
        1
 72
               2
 10
-624.91450860611383
 20
1045.4073673865312
 40
1.9998779296875
 50
0.0
 51
360.0
 73
               0
 97
        1
330
5F
 75
               0
 76
               1
 98
        1
 10
0.0
 20
0.0
  0
MTEXT
  5
61
100
AcDbEntity
  8
0
390
0
 62
               0
100
AcDbMText
 10
-408.72701028828919
 20
1079.2849845740311
 30
0.0
 40
24.432617187500004
 41
0.0
 71
               1
 72
               1
  1
480
  7
ＭＳ ゴシック
 73
               1
 44
0.7828267384257843
  0
POINT
  5
62
100
AcDbEntity
  8
Defpoints
370
               0
390
0
 62
               0
100
AcDbPoint
 10
-624.91450860611383
 20
874.2394339267222
 30
0.0
  0
POINT
  5
63
100
AcDbEntity
  8
Defpoints
370
               0
390
0
 62
               0
100
AcDbPoint
 10
-144.91450860611354
 20
874.2394339267222
 30
0.0
  0
POINT
  5
64
100
AcDbEntity
  8
Defpoints
370
               0
390
0
 62
               0
100
AcDbPoint
 10
-144.91450860611354
 20
1045.4073673865312
 30
0.0
  0
ENDBLK
  5
65
100
AcDbEntity
  8
notes
390
0
100
AcDbBlockEnd
  0
BLOCK
  5
66
100
AcDbEntity
  8
notes
390
0
100
AcDbBlockBegin
  2
*D4
 70
               1
 10
0.0
 20
0.0
 30
0.0
  3
*D4
  1

  0
LINE
  5
67
100
AcDbEntity
  8
0
370
              -2
390
0
  6
Continuous
 62
               0
100
AcDbLine
 10
-124.91450860611356
 20
879.23943392672265
 30
0.0
 11
-44.914508606113216
 21
879.23943392672265
 31
0.0
  0
LINE
  5
68
100
AcDbEntity
  8
0
370
              -2
390
0
  6
Continuous
 62
               0
100
AcDbLine
 10
-195.36673127919863
 20
409.23943392672277
 30
0.0
 11
-44.914508606113216
 21
409.23943392672277
 31
0.0
  0
LINE
  5
69
100
AcDbEntity
  8
0
370
              -2
390
0
  6
Continuous
 62
               0
100
AcDbLine
 10
-44.914508606113216
 20
879.23943392672265
 30
0.0
 11
-44.914508606113216
 21
409.23943392672277
 31
0.0
  0
CIRCLE
  5
6A
102
{ACAD_REACTORS
330
6B
102
}
100
AcDbEntity
  8
0
370
              -2
390
0
  6
Continuous
 62
               0
100
AcDbCircle
 10
-44.914508606113216
 20
879.23943392672265
 30
0.0
 40
1.9998779296875
  0
HATCH
  5
6B
100
AcDbEntity
  8
0
370
              -2
390
0
  6
Continuous
 62
               0
100
AcDbHatch
 10
0.0
 20
0.0
 30
0.0
210
0.0
220
0.0
230
1.0
  2
SOLID
 70
               1
 71
               1
 91
        1
 92
        1
 93
        1
 72
               2
 10
-44.914508606113216
 20
879.23943392672265
 40
1.9998779296875
 50
0.0
 51
360.0
 73
               0
 97
        1
330
6A
 75
               0
 76
               1
 98
        1
 10
0.0
 20
0.0
  0
CIRCLE
  5
6C
102
{ACAD_REACTORS
330
6D
102
}
100
AcDbEntity
  8
0
370
              -2
390
0
  6
Continuous
 62
               0
100
AcDbCircle
 10
-44.914508606113216
 20
409.23943392672277
 30
0.0
 40
1.9998779296875
  0
HATCH
  5
6D
100
AcDbEntity
  8
0
370
              -2
390
0
  6
Continuous
 62
               0
100
AcDbHatch
 10
0.0
 20
0.0
 30
0.0
210
0.0
220
0.0
230
1.0
  2
SOLID
 70
               1
 71
               1
 91
        1
 92
        1
 93
        1
 72
               2
 10
-44.914508606113216
 20
409.23943392672277
 40
1.9998779296875
 50
0.0
 51
360.0
 73
               0
 97
        1
330
6C
 75
               0
 76
               1
 98
        1
 10
0.0
 20
0.0
  0
MTEXT
  5
6E
100
AcDbEntity
  8
0
390
0
 62
               0
100
AcDbMText
 10
-78.792125793613224
 20
620.42693224454717
 30
0.0
 40
24.432617187500004
 41
0.0
 71
               1
 72
               1
  1
470
  7
ＭＳ ゴシック
 11
0.0
 21
1.0
 31
0.0
 73
               1
 44
0.7828267384257843
  0
POINT
  5
6F
100
AcDbEntity
  8
Defpoints
370
               0
390
0
 62
               0
100
AcDbPoint
 10
-220.36673127919863
 20
409.23943392672277
 30
0.0
  0
POINT
  5
70
100
AcDbEntity
  8
Defpoints
370
               0
390
0
 62
               0
100
AcDbPoint
 10
-149.91450860611354
 20
879.23943392672265
 30
0.0
  0
POINT
  5
71
100
AcDbEntity
  8
Defpoints
370
               0
390
0
 62
               0
100
AcDbPoint
 10
-44.914508606113216
 20
879.23943392672265
 30
0.0
  0
ENDBLK
  5
72
100
AcDbEntity
  8
notes
390
0
100
AcDbBlockEnd
  0
BLOCK
  5
73
100
AcDbEntity
  8
notes
390
0
100
AcDbBlockBegin
  2
*D5
 70
               1
 10
0.0
 20
0.0
 30
0.0
  3
*D5
  1

  0
LINE
  5
74
100
AcDbEntity
  8
0
370
              -2
390
0
  6
Continuous
 62
               0
100
AcDbLine
 10
-124.90636527823342
 20
-265.25056847428016
 30
0.0
 11
5.0936347217665769
 21
-265.25056847428016
 31
0.0
  0
LINE
  5
75
100
AcDbEntity
  8
0
370
              -2
390
0
  6
Continuous
 62
               0
100
AcDbLine
 10
-175.36673127919863
 20
-680.25056847428016
 30
0.0
 11
5.0936347217665769
 21
-680.25056847428016
 31
0.0
  0
LINE
  5
76
100
AcDbEntity
  8
0
370
              -2
390
0
  6
Continuous
 62
               0
100
AcDbLine
 10
5.0936347217665769
 20
-265.25056847428016
 30
0.0
 11
5.0936347217665769
 21
-680.25056847428016
 31
0.0
  0
CIRCLE
  5
77
102
{ACAD_REACTORS
330
78
102
}
100
AcDbEntity
  8
0
370
              -2
390
0
  6
Continuous
 62
               0
100
AcDbCircle
 10
5.0936347217665769
 20
-265.25056847428016
 30
0.0
 40
1.9998779296875
  0
HATCH
  5
78
100
AcDbEntity
  8
0
370
              -2
390
0
  6
Continuous
 62
               0
100
AcDbHatch
 10
0.0
 20
0.0
 30
0.0
210
0.0
220
0.0
230
1.0
  2
SOLID
 70
               1
 71
               1
 91
        1
 92
        1
 93
        1
 72
               2
 10
5.0936347217665769
 20
-265.25056847428016
 40
1.9998779296875
 50
0.0
 51
360.0
 73
               0
 97
        1
330
77
 75
               0
 76
               1
 98
        1
 10
0.0
 20
0.0
  0
CIRCLE
  5
79
102
{ACAD_REACTORS
330
7A
102
}
100
AcDbEntity
  8
0
370
              -2
390
0
  6
Continuous
 62
               0
100
AcDbCircle
 10
5.0936347217665769
 20
-680.25056847428016
 30
0.0
 40
1.9998779296875
  0
HATCH
  5
7A
100
AcDbEntity
  8
0
370
              -2
390
0
  6
Continuous
 62
               0
100
AcDbHatch
 10
0.0
 20
0.0
 30
0.0
210
0.0
220
0.0
230
1.0
  2
SOLID
 70
               1
 71
               1
 91
        1
 92
        1
 93
        1
 72
               2
 10
5.0936347217665769
 20
-680.25056847428016
 40
1.9998779296875
 50
0.0
 51
360.0
 73
               0
 97
        1
330
79
 75
               0
 76
               1
 98
        1
 10
0.0
 20
0.0
  0
MTEXT
  5
7B
100
AcDbEntity
  8
0
390
0
 62
               0
100
AcDbMText
 10
-28.78398246573343
 20
-496.56307015645564
 30
0.0
 40
24.432617187500004
 41
0.0
 71
               1
 72
               1
  1
415
  7
ＭＳ ゴシック
 11
0.0
 21
1.0
 31
0.0
 73
               1
 44
0.7828267384257843
  0
POINT
  5
7C
100
AcDbEntity
  8
Defpoints
370
               0
390
0
 62
               0
100
AcDbPoint
 10
-200.36673127919863
 20
-680.25056847428016
 30
0.0
  0
POINT
  5
7D
100
AcDbEntity
  8
Defpoints
370
               0
390
0
 62
               0
100
AcDbPoint
 10
-149.90636527823341
 20
-265.25056847428016
 30
0.0
  0
POINT
  5
7E
100
AcDbEntity
  8
Defpoints
370
               0
390
0
 62
               0
100
AcDbPoint
 10
5.0936347217665769
 20
-265.25056847428016
 30
0.0
  0
ENDBLK
  5
7F
100
AcDbEntity
  8
notes
390
0
100
AcDbBlockEnd
  0
BLOCK
  5
80
100
AcDbEntity
  8
notes
390
0
100
AcDbBlockBegin
  2
*D6
 70
               1
 10
0.0
 20
0.0
 30
0.0
  3
*D6
  1

  0
LINE
  5
81
100
AcDbEntity
  8
0
370
              -2
390
0
  6
Continuous
 62
               0
100
AcDbLine
 10
640.08869518197741
 20
-695.23861615703424
 30
0.0
 11
640.08869518197741
 21
-780.23860226583622
 31
0.0
  0
LINE
  5
82
100
AcDbEntity
  8
0
370
              -2
390
0
  6
Continuous
 62
               0
100
AcDbLine
 10
785.08870915250907
 20
-573.99505156132261
 30
0.0
 11
785.08870915250907
 21
-780.23860226583622
 31
0.0
  0
LINE
  5
83
100
AcDbEntity
  8
0
370
              -2
390
0
  6
Continuous
 62
               0
100
AcDbLine
 10
640.08869518197741
 20
-780.23860226583622
 30
0.0
 11
785.08870915250907
 21
-780.23860226583622
 31
0.0
  0
CIRCLE
  5
84
102
{ACAD_REACTORS
330
85
102
}
100
AcDbEntity
  8
0
370
              -2
390
0
  6
Continuous
 62
               0
100
AcDbCircle
 10
640.08869518197741
 20
-780.23860226583622
 30
0.0
 40
1.9998779296875
  0
HATCH
  5
85
100
AcDbEntity
  8
0
370
              -2
390
0
  6
Continuous
 62
               0
100
AcDbHatch
 10
0.0
 20
0.0
 30
0.0
210
0.0
220
0.0
230
1.0
  2
SOLID
 70
               1
 71
               1
 91
        1
 92
        1
 93
        1
 72
               2
 10
640.08869518197741
 20
-780.23860226583622
 40
1.9998779296875
 50
0.0
 51
360.0
 73
               0
 97
        1
330
84
 75
               0
 76
               1
 98
        1
 10
0.0
 20
0.0
  0
CIRCLE
  5
86
102
{ACAD_REACTORS
330
87
102
}
100
AcDbEntity
  8
0
370
              -2
390
0
  6
Continuous
 62
               0
100
AcDbCircle
 10
785.08870915250907
 20
-780.23860226583622
 30
0.0
 40
1.9998779296875
  0
HATCH
  5
87
100
AcDbEntity
  8
0
370
              -2
390
0
  6
Continuous
 62
               0
100
AcDbHatch
 10
0.0
 20
0.0
 30
0.0
210
0.0
220
0.0
230
1.0
  2
SOLID
 70
               1
 71
               1
 91
        1
 92
        1
 93
        1
 72
               2
 10
785.08870915250907
 20
-780.23860226583622
 40
1.9998779296875
 50
0.0
 51
360.0
 73
               0
 97
        1
330
86
 75
               0
 76
               1
 98
        1
 10
0.0
 20
0.0
  0
MTEXT
  5
88
100
AcDbEntity
  8
0
390
0
 62
               0
100
AcDbMText
 10
688.77620048506776
 20
-746.36098507833628
 30
0.0
 40
24.432617187500004
 41
0.0
 71
               1
 72
               1
  1
145
  7
ＭＳ ゴシック
 73
               1
 44
0.7828267384257843
  0
POINT
  5
89
100
AcDbEntity
  8
Defpoints
370
               0
390
0
 62
               0
100
AcDbPoint
 10
785.08870915250907
 20
-548.99505156132261
 30
0.0
  0
POINT
  5
8A
100
AcDbEntity
  8
Defpoints
370
               0
390
0
 62
               0
100
AcDbPoint
 10
640.08869518197741
 20
-670.23861615703424
 30
0.0
  0
POINT
  5
8B
100
AcDbEntity
  8
Defpoints
370
               0
390
0
 62
               0
100
AcDbPoint
 10
640.08869518197741
 20
-780.23860226583622
 30
0.0
  0
ENDBLK
  5
8C
100
AcDbEntity
  8
notes
390
0
100
AcDbBlockEnd
  0
BLOCK
  5
8D
100
AcDbEntity
  8
notes
390
0
100
AcDbBlockBegin
  2
*D7
 70
               1
 10
0.0
 20
0.0
 30
0.0
  3
*D7
  1

  0
LINE
  5
8E
100
AcDbEntity
  8
0
370
              -2
390
0
  6
Continuous
 62
               0
100
AcDbLine
 10
605.02395098403656
 20
-615.23860226584009
 30
0.0
 11
586.54414958421773
 21
-615.23860226584009
 31
0.0
  0
LINE
  5
8F
100
AcDbEntity
  8
0
370
              -2
390
0
  6
Continuous
 62
               0
100
AcDbLine
 10
605.02395098403656
 20
-510.23860226583656
 30
0.0
 11
586.54414958421773
 21
-510.23860226583656
 31
0.0
  0
LINE
  5
90
100
AcDbEntity
  8
0
370
              -2
390
0
  6
Continuous
 62
               0
100
AcDbLine
 10
586.54414958421773
 20
-510.23860226583656
 30
0.0
 11
586.54414958421773
 21
-346.28543713091892
 31
0.0
  0
LINE
  5
91
100
AcDbEntity
  8
0
370
              -2
390
0
  6
Continuous
 62
               0
100
AcDbLine
 10
586.54414958421773
 20
-615.23860226584009
 30
0.0
 11
586.54414958421773
 21
-510.23860226583656
 31
0.0
  0
CIRCLE
  5
92
102
{ACAD_REACTORS
330
93
102
}
100
AcDbEntity
  8
0
370
              -2
390
0
  6
Continuous
 62
               0
100
AcDbCircle
 10
586.54414958421773
 20
-615.23860226584009
 30
0.0
 40
1.9998779296875
  0
HATCH
  5
93
100
AcDbEntity
  8
0
370
              -2
390
0
  6
Continuous
 62
               0
100
AcDbHatch
 10
0.0
 20
0.0
 30
0.0
210
0.0
220
0.0
230
1.0
  2
SOLID
 70
               1
 71
               1
 91
        1
 92
        1
 93
        1
 72
               2
 10
586.54414958421773
 20
-615.23860226584009
 40
1.9998779296875
 50
0.0
 51
360.0
 73
               0
 97
        1
330
92
 75
               0
 76
               1
 98
        1
 10
0.0
 20
0.0
  0
CIRCLE
  5
94
102
{ACAD_REACTORS
330
95
102
}
100
AcDbEntity
  8
0
370
              -2
390
0
  6
Continuous
 62
               0
100
AcDbCircle
 10
586.54414958421773
 20
-510.23860226583656
 30
0.0
 40
1.9998779296875
  0
HATCH
  5
95
100
AcDbEntity
  8
0
370
              -2
390
0
  6
Continuous
 62
               0
100
AcDbHatch
 10
0.0
 20
0.0
 30
0.0
210
0.0
220
0.0
230
1.0
  2
SOLID
 70
               1
 71
               1
 91
        1
 92
        1
 93
        1
 72
               2
 10
586.54414958421773
 20
-510.23860226583656
 40
1.9998779296875
 50
0.0
 51
360.0
 73
               0
 97
        1
330
94
 75
               0
 76
               1
 98
        1
 10
0.0
 20
0.0
  0
MTEXT
  5
96
100
AcDbEntity
  8
0
390
0
 62
               0
100
AcDbMText
 10
552.66653239671768
 20
-489.16043713091892
 30
0.0
 40
24.432617187500004
 41
0.0
 71
               1
 72
               1
  1
105(深さ)
  7
ＭＳ ゴシック
 11
0.0
 21
1.0
 31
0.0
 73
               1
 44
0.7828267384257843
  0
POINT
  5
97
100
AcDbEntity
  8
Defpoints
370
               0
390
0
 62
               0
100
AcDbPoint
 10
580.02395098403656
 20
-510.23860226583656
 30
0.0
  0
POINT
  5
98
100
AcDbEntity
  8
Defpoints
370
               0
390
0
 62
               0
100
AcDbPoint
 10
580.02395098403656
 20
-615.23860226584009
 30
0.0
  0
POINT
  5
99
100
AcDbEntity
  8
Defpoints
370
               0
390
0
 62
               0
100
AcDbPoint
 10
586.54414958421773
 20
-615.23860226584009
 30
0.0
  0
ENDBLK
  5
9A
100
AcDbEntity
  8
notes
390
0
100
AcDbBlockEnd
  0
BLOCK
  5
9B
100
AcDbEntity
  8
notes
390
0
100
AcDbBlockBegin
  2
*D8
 70
               1
 10
0.0
 20
0.0
 30
0.0
  3
*D8
  1

  0
LINE
  5
9C
100
AcDbEntity
  8
0
370
              -2
390
0
  6
Continuous
 62
               0
100
AcDbLine
 10
-484.91450860611354
 20
-325.25056847428016
 30
0.0
 11
-484.91450860611354
 21
-216.16043713091898
 31
0.0
  0
LINE
  5
9D
100
AcDbEntity
  8
0
370
              -2
390
0
  6
Continuous
 62
               0
100
AcDbLine
 10
-384.91450860611354
 20
-325.25056847428016
 30
0.0
 11
-384.91450860611354
 21
-216.16043713091898
 31
0.0
  0
LINE
  5
9E
100
AcDbEntity
  8
0
370
              -2
390
0
  6
Continuous
 62
               0
100
AcDbLine
 10
-484.91450860611354
 20
-216.16043713091898
 30
0.0
 11
-384.91450860611354
 21
-216.16043713091898
 31
0.0
  0
CIRCLE
  5
9F
102
{ACAD_REACTORS
330
A0
102
}
100
AcDbEntity
  8
0
370
              -2
390
0
  6
Continuous
 62
               0
100
AcDbCircle
 10
-484.91450860611354
 20
-216.16043713091898
 30
0.0
 40
1.9998779296875
  0
HATCH
  5
A0
100
AcDbEntity
  8
0
370
              -2
390
0
  6
Continuous
 62
               0
100
AcDbHatch
 10
0.0
 20
0.0
 30
0.0
210
0.0
220
0.0
230
1.0
  2
SOLID
 70
               1
 71
               1
 91
        1
 92
        1
 93
        1
 72
               2
 10
-484.91450860611354
 20
-216.16043713091898
 40
1.9998779296875
 50
0.0
 51
360.0
 73
               0
 97
        1
330
9F
 75
               0
 76
               1
 98
        1
 10
0.0
 20
0.0
  0
CIRCLE
  5
A1
102
{ACAD_REACTORS
330
A2
102
}
100
AcDbEntity
  8
0
370
              -2
390
0
  6
Continuous
 62
               0
100
AcDbCircle
 10
-384.91450860611354
 20
-216.16043713091898
 30
0.0
 40
1.9998779296875
  0
HATCH
  5
A2
100
AcDbEntity
  8
0
370
              -2
390
0
  6
Continuous
 62
               0
100
AcDbHatch
 10
0.0
 20
0.0
 30
0.0
210
0.0
220
0.0
230
1.0
  2
SOLID
 70
               1
 71
               1
 91
        1
 92
        1
 93
        1
 72
               2
 10
-384.91450860611354
 20
-216.16043713091898
 40
1.9998779296875
 50
0.0
 51
360.0
 73
               0
 97
        1
330
A1
 75
               0
 76
               1
 98
        1
 10
0.0
 20
0.0
  0
MTEXT
  5
A3
100
AcDbEntity
  8
0
390
0
 62
               0
100
AcDbMText
 10
-458.72701028828908
 20
-182.28281994341896
 30
0.0
 40
24.432617187500004
 41
0.0
 71
               1
 72
               1
  1
100
  7
ＭＳ ゴシック
 73
               1
 44
0.7828267384257843
  0
POINT
  5
A4
100
AcDbEntity
  8
Defpoints
370
               0
390
0
 62
               0
100
AcDbPoint
 10
-384.91450860611354
 20
-350.25056847428016
 30
0.0
  0
POINT
  5
A5
100
AcDbEntity
  8
Defpoints
370
               0
390
0
 62
               0
100
AcDbPoint
 10
-484.91450860611354
 20
-350.25056847428016
 30
0.0
  0
POINT
  5
A6
100
AcDbEntity
  8
Defpoints
370
               0
390
0
 62
               0
100
AcDbPoint
 10
-484.91450860611354
 20
-216.16043713091898
 30
0.0
  0
ENDBLK
  5
A7
100
AcDbEntity
  8
notes
390
0
100
AcDbBlockEnd
  0
BLOCK
  5
A8
100
AcDbEntity
  8
notes
390
0
100
AcDbBlockBegin
  2
*D9
 70
               1
 10
0.0
 20
0.0
 30
0.0
  3
*D9
  1

  0
LINE
  5
A9
100
AcDbEntity
  8
0
370
              -2
390
0
  6
Continuous
 62
               0
100
AcDbLine
 10
-384.91450860611354
 20
-325.25056847428016
 30
0.0
 11
-384.91450860611354
 21
-216.16043713091898
 31
0.0
  0
LINE
  5
AA
100
AcDbEntity
  8
0
370
              -2
390
0
  6
Continuous
 62
               0
100
AcDbLine
 10
-284.91450860611354
 20
-325.25056847428016
 30
0.0
 11
-284.91450860611354
 21
-216.16043713091898
 31
0.0
  0
LINE
  5
AB
100
AcDbEntity
  8
0
370
              -2
390
0
  6
Continuous
 62
               0
100
AcDbLine
 10
-384.91450860611354
 20
-216.16043713091898
 30
0.0
 11
-284.91450860611354
 21
-216.16043713091898
 31
0.0
  0
CIRCLE
  5
AC
102
{ACAD_REACTORS
330
AD
102
}
100
AcDbEntity
  8
0
370
              -2
390
0
  6
Continuous
 62
               0
100
AcDbCircle
 10
-384.91450860611354
 20
-216.16043713091898
 30
0.0
 40
1.9998779296875
  0
HATCH
  5
AD
100
AcDbEntity
  8
0
370
              -2
390
0
  6
Continuous
 62
               0
100
AcDbHatch
 10
0.0
 20
0.0
 30
0.0
210
0.0
220
0.0
230
1.0
  2
SOLID
 70
               1
 71
               1
 91
        1
 92
        1
 93
        1
 72
               2
 10
-384.91450860611354
 20
-216.16043713091898
 40
1.9998779296875
 50
0.0
 51
360.0
 73
               0
 97
        1
330
AC
 75
               0
 76
               1
 98
        1
 10
0.0
 20
0.0
  0
CIRCLE
  5
AE
102
{ACAD_REACTORS
330
AF
102
}
100
AcDbEntity
  8
0
370
              -2
390
0
  6
Continuous
 62
               0
100
AcDbCircle
 10
-284.91450860611354
 20
-216.16043713091898
 30
0.0
 40
1.9998779296875
  0
HATCH
  5
AF
100
AcDbEntity
  8
0
370
              -2
390
0
  6
Continuous
 62
               0
100
AcDbHatch
 10
0.0
 20
0.0
 30
0.0
210
0.0
220
0.0
230
1.0
  2
SOLID
 70
               1
 71
               1
 91
        1
 92
        1
 93
        1
 72
               2
 10
-284.91450860611354
 20
-216.16043713091898
 40
1.9998779296875
 50
0.0
 51
360.0
 73
               0
 97
        1
330
AE
 75
               0
 76
               1
 98
        1
 10
0.0
 20
0.0
  0
MTEXT
  5
B0
100
AcDbEntity
  8
0
390
0
 62
               0
100
AcDbMText
 10
-358.72701028828908
 20
-182.28281994341896
 30
0.0
 40
24.432617187500004
 41
0.0
 71
               1
 72
               1
  1
100
  7
ＭＳ ゴシック
 73
               1
 44
0.7828267384257843
  0
POINT
  5
B1
100
AcDbEntity
  8
Defpoints
370
               0
390
0
 62
               0
100
AcDbPoint
 10
-284.91450860611354
 20
-350.25056847428016
 30
0.0
  0
POINT
  5
B2
100
AcDbEntity
  8
Defpoints
370
               0
390
0
 62
               0
100
AcDbPoint
 10
-384.91450860611354
 20
-350.25056847428016
 30
0.0
  0
POINT
  5
B3
100
AcDbEntity
  8
Defpoints
370
               0
390
0
 62
               0
100
AcDbPoint
 10
-384.91450860611354
 20
-216.16043713091898
 30
0.0
  0
ENDBLK
  5
B4
100
AcDbEntity
  8
notes
390
0
100
AcDbBlockEnd
  0
BLOCK
  5
B5
100
AcDbEntity
  8
notes
390
0
100
AcDbBlockBegin
  2
*D10
 70
               1
 10
0.0
 20
0.0
 30
0.0
  3
*D10
  1

  0
LINE
  5
B6
100
AcDbEntity
  8
0
370
              -2
390
0
  6
Continuous
 62
               0
100
AcDbLine
 10
-274.51047118877625
 20
-353.16970182710213
 30
0.0
 11
-198.36673127919858
 21
-228.16043713091901
 31
0.0
  0
CIRCLE
  5
B7
102
{ACAD_REACTORS
330
B8
102
}
100
AcDbEntity
  8
0
370
              -2
390
0
  6
Continuous
 62
               0
100
AcDbCircle
 10
-274.51047118877625
 20
-353.16970182710213
 30
0.0
 40
1.9998779296875
  0
HATCH
  5
B8
100
AcDbEntity
  8
0
370
              -2
390
0
  6
Continuous
 62
               0
100
AcDbHatch
 10
0.0
 20
0.0
 30
0.0
210
0.0
220
0.0
230
1.0
  2
SOLID
 70
               1
 71
               1
 91
        1
 92
        1
 93
        1
 72
               2
 10
-274.51047118877625
 20
-353.16970182710213
 40
1.9998779296875
 50
0.0
 51
360.0
 73
               0
 97
        1
330
B7
 75
               0
 76
               1
 98
        1
 10
0.0
 20
0.0
  0
LINE
  5
B9
100
AcDbEntity
  8
0
370
              -2
390
0
  6
Continuous
 62
               0
100
AcDbLine
 10
-198.36673127919858
 20
-228.16043713091901
 30
0.0
 11
-74.866731279198561
 21
-228.16043713091901
 31
0.0
  0
MTEXT
  5
BA
100
AcDbEntity
  8
0
390
0
 62
               0
100
AcDbMText
 10
-138.36673127919858
 20
-194.28281994341899
 30
0.0
 40
24.432617187500004
 41
0.0
 71
               1
 72
               1
  1
φ40
  7
ＭＳ ゴシック
 73
               1
 44
0.7828267384257843
  0
POINT
  5
BB
100
AcDbEntity
  8
Defpoints
370
               0
390
0
 62
               0
100
AcDbPoint
 10
-295.31854602345078
 20
-387.33143512145824
 30
0.0
  0
POINT
  5
BC
100
AcDbEntity
  8
Defpoints
370
               0
390
0
 62
               0
100
AcDbPoint
 10
-274.51047118877625
 20
-353.16970182710213
 30
0.0
  0
ENDBLK
  5
BD
100
AcDbEntity
  8
notes
390
0
100
AcDbBlockEnd
  0
BLOCK
  5
BE
100
AcDbEntity
  8
notes
390
0
100
AcDbBlockBegin
  2
*D11
 70
               1
 10
0.0
 20
0.0
 30
0.0
  3
*D11
  1

  0
LINE
  5
BF
100
AcDbEntity
  8
0
370
              -2
390
0
  6
Continuous
 62
               0
100
AcDbLine
 10
-644.92265193399373
 20
-265.25056847428016
 30
0.0
 11
-719.92265193399373
 21
-265.25056847428016
 31
0.0
  0
LINE
  5
C0
100
AcDbEntity
  8
0
370
              -2
390
0
  6
Continuous
 62
               0
100
AcDbLine
 10
-644.9145086061136
 20
-510.25056847428016
 30
0.0
 11
-719.92265193399373
 21
-510.25056847428016
 31
0.0
  0
LINE
  5
C1
100
AcDbEntity
  8
0
370
              -2
390
0
  6
Continuous
 62
               0
100
AcDbLine
 10
-719.92265193399373
 20
-265.25056847428016
 30
0.0
 11
-719.92265193399373
 21
-510.25056847428016
 31
0.0
  0
CIRCLE
  5
C2
102
{ACAD_REACTORS
330
C3
102
}
100
AcDbEntity
  8
0
370
              -2
390
0
  6
Continuous
 62
               0
100
AcDbCircle
 10
-719.92265193399373
 20
-265.25056847428016
 30
0.0
 40
1.9998779296875
  0
HATCH
  5
C3
100
AcDbEntity
  8
0
370
              -2
390
0
  6
Continuous
 62
               0
100
AcDbHatch
 10
0.0
 20
0.0
 30
0.0
210
0.0
220
0.0
230
1.0
  2
SOLID
 70
               1
 71
               1
 91
        1
 92
        1
 93
        1
 72
               2
 10
-719.92265193399373
 20
-265.25056847428016
 40
1.9998779296875
 50
0.0
 51
360.0
 73
               0
 97
        1
330
C2
 75
               0
 76
               1
 98
        1
 10
0.0
 20
0.0
  0
CIRCLE
  5
C4
102
{ACAD_REACTORS
330
C5
102
}
100
AcDbEntity
  8
0
370
              -2
390
0
  6
Continuous
 62
               0
100
AcDbCircle
 10
-719.92265193399373
 20
-510.25056847428016
 30
0.0
 40
1.9998779296875
  0
HATCH
  5
C5
100
AcDbEntity
  8
0
370
              -2
390
0
  6
Continuous
 62
               0
100
AcDbHatch
 10
0.0
 20
0.0
 30
0.0
210
0.0
220
0.0
230
1.0
  2
SOLID
 70
               1
 71
               1
 91
        1
 92
        1
 93
        1
 72
               2
 10
-719.92265193399373
 20
-510.25056847428016
 40
1.9998779296875
 50
0.0
 51
360.0
 73
               0
 97
        1
330
C4
 75
               0
 76
               1
 98
        1
 10
0.0
 20
0.0
  0
MTEXT
  5
C6
100
AcDbEntity
  8
0
390
0
 62
               0
100
AcDbMText
 10
-753.80026912149378
 20
-411.56307015645564
 30
0.0
 40
24.432617187500004
 41
0.0
 71
               1
 72
               1
  1
245
  7
ＭＳ ゴシック
 11
0.0
 21
1.0
 31
0.0
 73
               1
 44
0.7828267384257843
  0
POINT
  5
C7
100
AcDbEntity
  8
Defpoints
370
               0
390
0
 62
               0
100
AcDbPoint
 10
-619.9145086061136
 20
-510.25056847428016
 30
0.0
  0
POINT
  5
C8
100
AcDbEntity
  8
Defpoints
370
               0
390
0
 62
               0
100
AcDbPoint
 10
-619.92265193399373
 20
-265.25056847428016
 30
0.0
  0
POINT
  5
C9
100
AcDbEntity
  8
Defpoints
370
               0
390
0
 62
               0
100
AcDbPoint
 10
-719.92265193399373
 20
-265.25056847428016
 30
0.0
  0
ENDBLK
  5
CA
100
AcDbEntity
  8
notes
390
0
100
AcDbBlockEnd
  0
BLOCK
  5
CB
100
AcDbEntity
  8
notes
390
0
100
AcDbBlockBegin
  2
*D12
 70
               1
 10
0.0
 20
0.0
 30
0.0
  3
*D12
  1

  0
LINE
  5
CC
100
AcDbEntity
  8
0
370
              -2
390
0
  6
Continuous
 62
               0
100
AcDbLine
 10
-644.9145086061136
 20
-510.25056847428016
 30
0.0
 11
-719.9145086061136
 21
-510.25056847428016
 31
0.0
  0
LINE
  5
CD
100
AcDbEntity
  8
0
370
              -2
390
0
  6
Continuous
 62
               0
100
AcDbLine
 10
-644.9145086061136
 20
-550.25056847427993
 30
0.0
 11
-719.9145086061136
 21
-550.25056847427993
 31
0.0
  0
LINE
  5
CE
100
AcDbEntity
  8
0
370
              -2
390
0
  6
Continuous
 62
               0
100
AcDbLine
 10
-719.9145086061136
 20
-510.25056847428016
 30
0.0
 11
-719.9145086061136
 21
-550.25056847427993
 31
0.0
  0
CIRCLE
  5
CF
102
{ACAD_REACTORS
330
D0
102
}
100
AcDbEntity
  8
0
370
              -2
390
0
  6
Continuous
 62
               0
100
AcDbCircle
 10
-719.9145086061136
 20
-510.25056847428016
 30
0.0
 40
1.9998779296875
  0
HATCH
  5
D0
100
AcDbEntity
  8
0
370
              -2
390
0
  6
Continuous
 62
               0
100
AcDbHatch
 10
0.0
 20
0.0
 30
0.0
210
0.0
220
0.0
230
1.0
  2
SOLID
 70
               1
 71
               1
 91
        1
 92
        1
 93
        1
 72
               2
 10
-719.9145086061136
 20
-510.25056847428016
 40
1.9998779296875
 50
0.0
 51
360.0
 73
               0
 97
        1
330
CF
 75
               0
 76
               1
 98
        1
 10
0.0
 20
0.0
  0
CIRCLE
  5
D1
102
{ACAD_REACTORS
330
D2
102
}
100
AcDbEntity
  8
0
370
              -2
390
0
  6
Continuous
 62
               0
100
AcDbCircle
 10
-719.9145086061136
 20
-550.25056847427993
 30
0.0
 40
1.9998779296875
  0
HATCH
  5
D2
100
AcDbEntity
  8
0
370
              -2
390
0
  6
Continuous
 62
               0
100
AcDbHatch
 10
0.0
 20
0.0
 30
0.0
210
0.0
220
0.0
230
1.0
  2
SOLID
 70
               1
 71
               1
 91
        1
 92
        1
 93
        1
 72
               2
 10
-719.9145086061136
 20
-550.25056847427993
 40
1.9998779296875
 50
0.0
 51
360.0
 73
               0
 97
        1
330
D1
 75
               0
 76
               1
 98
        1
 10
0.0
 20
0.0
  0
MTEXT
  5
D3
100
AcDbEntity
  8
0
390
0
 62
               0
100
AcDbMText
 10
-753.79212579361365
 20
-546.12556847428004
 30
0.0
 40
24.432617187500004
 41
0.0
 71
               1
 72
               1
  1
40
  7
ＭＳ ゴシック
 11
0.0
 21
1.0
 31
0.0
 73
               1
 44
0.7828267384257843
  0
POINT
  5
D4
100
AcDbEntity
  8
Defpoints
370
               0
390
0
 62
               0
100
AcDbPoint
 10
-619.9145086061136
 20
-550.25056847427993
 30
0.0
  0
POINT
  5
D5
100
AcDbEntity
  8
Defpoints
370
               0
390
0
 62
               0
100
AcDbPoint
 10
-619.9145086061136
 20
-510.25056847428016
 30
0.0
  0
POINT
  5
D6
100
AcDbEntity
  8
Defpoints
370
               0
390
0
 62
               0
100
AcDbPoint
 10
-719.9145086061136
 20
-510.25056847428016
 30
0.0
  0
ENDBLK
  5
D7
100
AcDbEntity
  8
notes
390
0
100
AcDbBlockEnd
  0
BLOCK
  5
D8
100
AcDbEntity
  8
notes
390
0
100
AcDbBlockBegin
  2
*D13
 70
               1
 10
0.0
 20
0.0
 30
0.0
  3
*D13
  1

  0
LINE
  5
D9
100
AcDbEntity
  8
0
370
              -2
390
0
  6
Continuous
 62
               0
100
AcDbLine
 10
-644.9145086061136
 20
-550.25056847427993
 30
0.0
 11
-719.9145086061136
 21
-550.25056847427993
 31
0.0
  0
LINE
  5
DA
100
AcDbEntity
  8
0
370
              -2
390
0
  6
Continuous
 62
               0
100
AcDbLine
 10
-598.90954397857206
 20
-680.25056847427993
 30
0.0
 11
-719.9145086061136
 21
-680.25056847427993
 31
0.0
  0
LINE
  5
DB
100
AcDbEntity
  8
0
370
              -2
390
0
  6
Continuous
 62
               0
100
AcDbLine
 10
-719.9145086061136
 20
-550.25056847427993
 30
0.0
 11
-719.9145086061136
 21
-680.25056847427993
 31
0.0
  0
CIRCLE
  5
DC
102
{ACAD_REACTORS
330
DD
102
}
100
AcDbEntity
  8
0
370
              -2
390
0
  6
Continuous
 62
               0
100
AcDbCircle
 10
-719.9145086061136
 20
-550.25056847427993
 30
0.0
 40
1.9998779296875
  0
HATCH
  5
DD
100
AcDbEntity
  8
0
370
              -2
390
0
  6
Continuous
 62
               0
100
AcDbHatch
 10
0.0
 20
0.0
 30
0.0
210
0.0
220
0.0
230
1.0
  2
SOLID
 70
               1
 71
               1
 91
        1
 92
        1
 93
        1
 72
               2
 10
-719.9145086061136
 20
-550.25056847427993
 40
1.9998779296875
 50
0.0
 51
360.0
 73
               0
 97
        1
330
DC
 75
               0
 76
               1
 98
        1
 10
0.0
 20
0.0
  0
CIRCLE
  5
DE
102
{ACAD_REACTORS
330
DF
102
}
100
AcDbEntity
  8
0
370
              -2
390
0
  6
Continuous
 62
               0
100
AcDbCircle
 10
-719.9145086061136
 20
-680.25056847427993
 30
0.0
 40
1.9998779296875
  0
HATCH
  5
DF
100
AcDbEntity
  8
0
370
              -2
390
0
  6
Continuous
 62
               0
100
AcDbHatch
 10
0.0
 20
0.0
 30
0.0
210
0.0
220
0.0
230
1.0
  2
SOLID
 70
               1
 71
               1
 91
        1
 92
        1
 93
        1
 72
               2
 10
-719.9145086061136
 20
-680.25056847427993
 40
1.9998779296875
 50
0.0
 51
360.0
 73
               0
 97
        1
330
DE
 75
               0
 76
               1
 98
        1
 10
0.0
 20
0.0
  0
MTEXT
  5
E0
100
AcDbEntity
  8
0
390
0
 62
               0
100
AcDbMText
 10
-753.79212579361365
 20
-639.06307015645541
 30
0.0
 40
24.432617187500004
 41
0.0
 71
               1
 72
               1
  1
130
  7
ＭＳ ゴシック
 11
0.0
 21
1.0
 31
0.0
 73
               1
 44
0.7828267384257843
  0
POINT
  5
E1
100
AcDbEntity
  8
Defpoints
370
               0
390
0
 62
               0
100
AcDbPoint
 10
-573.90954397857206
 20
-680.25056847427993
 30
0.0
  0
POINT
  5
E2
100
AcDbEntity
  8
Defpoints
370
               0
390
0
 62
               0
100
AcDbPoint
 10
-619.9145086061136
 20
-550.25056847427993
 30
0.0
  0
POINT
  5
E3
100
AcDbEntity
  8
Defpoints
370
               0
390
0
 62
               0
100
AcDbPoint
 10
-719.9145086061136
 20
-550.25056847427993
 30
0.0
  0
ENDBLK
  5
E4
100
AcDbEntity
  8
notes
390
0
100
AcDbBlockEnd
  0
BLOCK
  5
E5
100
AcDbEntity
  8
notes
390
0
100
AcDbBlockBegin
  2
*D14
 70
               1
 10
0.0
 20
0.0
 30
0.0
  3
*D14
  1

  0
LINE
  5
E6
100
AcDbEntity
  8
0
370
              -2
390
0
  6
Continuous
 62
               0
100
AcDbLine
 10
-239.91450860611354
 20
-370.25056847428016
 30
0.0
 11
-44.914508606113557
 21
-370.25056847428016
 31
0.0
  0
LINE
  5
E7
100
AcDbEntity
  8
0
370
              -2
390
0
  6
Continuous
 62
               0
100
AcDbLine
 10
-124.91450860611356
 20
-510.25056847428016
 30
0.0
 11
-44.914508606113557
 21
-510.25056847428016
 31
0.0
  0
LINE
  5
E8
100
AcDbEntity
  8
0
370
              -2
390
0
  6
Continuous
 62
               0
100
AcDbLine
 10
-44.914508606113557
 20
-370.25056847428016
 30
0.0
 11
-44.914508606113557
 21
-510.25056847428016
 31
0.0
  0
CIRCLE
  5
E9
102
{ACAD_REACTORS
330
EA
102
}
100
AcDbEntity
  8
0
370
              -2
390
0
  6
Continuous
 62
               0
100
AcDbCircle
 10
-44.914508606113557
 20
-370.25056847428016
 30
0.0
 40
1.9998779296875
  0
HATCH
  5
EA
100
AcDbEntity
  8
0
370
              -2
390
0
  6
Continuous
 62
               0
100
AcDbHatch
 10
0.0
 20
0.0
 30
0.0
210
0.0
220
0.0
230
1.0
  2
SOLID
 70
               1
 71
               1
 91
        1
 92
        1
 93
        1
 72
               2
 10
-44.914508606113557
 20
-370.25056847428016
 40
1.9998779296875
 50
0.0
 51
360.0
 73
               0
 97
        1
330
E9
 75
               0
 76
               1
 98
        1
 10
0.0
 20
0.0
  0
CIRCLE
  5
EB
102
{ACAD_REACTORS
330
EC
102
}
100
AcDbEntity
  8
0
370
              -2
390
0
  6
Continuous
 62
               0
100
AcDbCircle
 10
-44.914508606113557
 20
-510.25056847428016
 30
0.0
 40
1.9998779296875
  0
HATCH
  5
EC
100
AcDbEntity
  8
0
370
              -2
390
0
  6
Continuous
 62
               0
100
AcDbHatch
 10
0.0
 20
0.0
 30
0.0
210
0.0
220
0.0
230
1.0
  2
SOLID
 70
               1
 71
               1
 91
        1
 92
        1
 93
        1
 72
               2
 10
-44.914508606113557
 20
-510.25056847428016
 40
1.9998779296875
 50
0.0
 51
360.0
 73
               0
 97
        1
330
EB
 75
               0
 76
               1
 98
        1
 10
0.0
 20
0.0
  0
MTEXT
  5
ED
100
AcDbEntity
  8
0
390
0
 62
               0
100
AcDbMText
 10
-78.792125793613565
 20
-464.06307015645569
 30
0.0
 40
24.432617187500004
 41
0.0
 71
               1
 72
               1
  1
140
  7
ＭＳ ゴシック
 11
0.0
 21
1.0
 31
0.0
 73
               1
 44
0.7828267384257843
  0
POINT
  5
EE
100
AcDbEntity
  8
Defpoints
370
               0
390
0
 62
               0
100
AcDbPoint
 10
-149.91450860611354
 20
-510.25056847428016
 30
0.0
  0
POINT
  5
EF
100
AcDbEntity
  8
Defpoints
370
               0
390
0
 62
               0
100
AcDbPoint
 10
-264.91450860611354
 20
-370.25056847428016
 30
0.0
  0
POINT
  5
F0
100
AcDbEntity
  8
Defpoints
370
               0
390
0
 62
               0
100
AcDbPoint
 10
-44.914508606113557
 20
-370.25056847428016
 30
0.0
  0
ENDBLK
  5
F1
100
AcDbEntity
  8
notes
390
0
100
AcDbBlockEnd
  0
ENDSEC
  0
SECTION
  2
ENTITIES
  0
MTEXT
  5
F2
100
AcDbEntity
  8
template
390
0
 62
               7
100
AcDbMText
 10
-967.99999999975955
 20
-1147.4176292337004
 30
0.0
 40
16.288411458333332
 41
0.0
 71
               1
 72
               1
  1
品名
  7
ＭＳ ゴシック
 73
               1
 44
0.7828267384257843
  0
MTEXT
  5
F3
100
AcDbEntity
  8
template
390
0
 62
               7
100
AcDbMText
 10
-967.99999999975955
 20
-1232.4176292337004
 30
0.0
 40
16.288411458333332
 41
0.0
 71
               1
 72
               1
  1
仕様
  7
ＭＳ ゴシック
 73
               1
 44
0.7828267384257843
  0
LINE
  5
F4
100
AcDbEntity
  8
template
370
               5
390
0
  6
Continuous
 62
               7
100
AcDbLine
 10
974.99999999975864
 20
-1224.0027073587003
 30
0.0
 11
-975.00000000024158
 21
-1224.0027073587003
 31
0.0
  0
LWPOLYLINE
  5
F5
100
AcDbEntity
  8
template
370
               5
390
0
  6
Continuous
 62
               7
100
AcDbPolyline
 90
        5
 70
             128
 10
975.00000000024113
 20
1405.9972926412997
 10
-974.99999999975955
 20
1405.9972926412997
 10
-974.99999999975955
 20
-1394.0027073587003
 10
975.00000000024113
 20
-1394.0027073587003
 10
975.00000000024113
 20
1405.9972926412997
  0
LINE
  5
F6
100
AcDbEntity
  8
template
370
               5
390
0
  6
Continuous
 62
               7
100
AcDbLine
 10
974.99999999975864
 20
-1139.0027073587003
 30
0.0
 11
-975.00000000024158
 21
-1139.0027073587003
 31
0.0
  0
LINE
  5
F7
100
AcDbEntity
  8
template
370
               5
390
0
  6
Continuous
 62
               7
100
AcDbLine
 10
975.00000000024113
 20
-1309.0027073587003
 30
0.0
 11
222.00000000024136
 21
-1309.0027073587003
 31
0.0
  0
MTEXT
  5
F8
100
AcDbEntity
  8
template
390
0
 62
               7
100
AcDbMText
 10
-974.99999999955583
 20
-1405.8565294155571
 30
0.0
 40
21.717881944444446
 41
0.0
 71
               1
 72
               1
  1
100806SH
  7
ＭＳ ゴシック
 73
               1
 44
0.7828267384257843
  0
MTEXT
  5
F9
100
AcDbEntity
  8
template
390
0
 62
               7
100
AcDbMText
 10
251.87140625250083
 20
-1338.9131018320079
 30
0.0
 40
24.432617187500004
 41
0.0
 71
               1
 72
               1
  1
大洋金物株式会社 ティーフォルム事業部
  7
ＭＳ ゴシック
 73
               1
 44
0.7828267384257843
  0
INSERT
  5
FA
100
AcDbEntity
  8
template
390
0
 62
               7
100
AcDbBlockReference
  2
グループ
 10
-0.0000000000000711
 20
-235.9044193570725
 30
0.0
  0
MTEXT
  5
FB
100
AcDbEntity
  8
template
390
0
 62
               7
100
AcDbMText
 10
784.00000000049988
 20
-1261.0000901712003
 30
0.0
 40
24.432617187500004
 41
0.0
 71
               1
 72
               1
  1
1:10
  7
ＭＳ ゴシック
 73
               1
 44
0.7828267384257843
  0
MTEXT
  5
FC
100
AcDbEntity
  8
template
390
0
 62
               7
100
AcDbMText
 10
731.00000000049988
 20
-1232.4176292337004
 30
0.0
 40
16.288411458333332
 41
0.0
 71
               1
 72
               1
  1
縮尺
  7
ＭＳ ゴシック
 73
               1
 44
0.7828267384257843
  0
LINE
  5
FD
100
AcDbEntity
  8
template
370
               5
390
0
  6
Continuous
 62
               7
100
AcDbLine
 10
724.00000000049988
 20
-1309.0027073587003
 30
0.0
 11
724.00000000049988
 21
-1224.0027073587003
 31
0.0
  0
MTEXT
  5
FE
100
AcDbEntity
  8
template
390
0
 62
               7
100
AcDbMText
 10
480.00000000049965
 20
-1232.4176292337004
 30
0.0
 40
16.288411458333332
 41
0.0
 71
               1
 72
               1
  1
容量
  7
ＭＳ ゴシック
 73
               1
 44
0.7828267384257843
  0
LINE
  5
FF
100
AcDbEntity
  8
template
370
               5
390
0
  6
Continuous
 62
               7
100
AcDbLine
 10
473.00000000049965
 20
-1309.0027073587003
 30
0.0
 11
473.00000000049965
 21
-1224.0027073587003
 31
0.0
  0
MTEXT
  5
100
100
AcDbEntity
  8
template
390
0
 62
               7
100
AcDbMText
 10
229.00000000049965
 20
-1147.4176292337004
 30
0.0
 40
16.288411458333332
 41
0.0
 71
               1
 72
               1
  1
品番
  7
ＭＳ ゴシック
 73
               1
 44
0.7828267384257843
  0
MTEXT
  5
101
100
AcDbEntity
  8
template
390
0
 62
               7
100
AcDbMText
 10
229.00000000049965
 20
-1232.4176292337004
 30
0.0
 40
16.288411458333332
 41
0.0
 71
               1
 72
               1
  1
重量
  7
ＭＳ ゴシック
 73
               1
 44
0.7828267384257843
  0
MTEXT
  5
102
100
AcDbEntity
  8
template
390
0
 62
               7
100
AcDbMText
 10
282.00000000049965
 20
-1176.0000901712003
 30
0.0
 40
24.432617187500004
 41
0.0
 71
               1
 72
               1
  1
FAA70-2220
  7
ＭＳ ゴシック
 73
               1
 44
0.7828267384257843
  0
LINE
  5
103
100
AcDbEntity
  8
template
370
               5
390
0
  6
Continuous
 62
               7
100
AcDbLine
 10
222.00000000049965
 20
-1394.0027073587003
 30
0.0
 11
222.00000000049965
 21
-1139.0027073587003
 31
0.0
  0
MTEXT
  5
104
100
AcDbEntity
  8
template
390
0
 62
               7
100
AcDbMText
 10
-914.99999999975887
 20
-1261.0000901712006
 30
0.0
 40
24.432617187500004
 41
0.0
 71
               1
 72
               1
  1
家具収め専用/オーバーフロー付き/陶器/ホワイト
  7
ＭＳ ゴシック
 73
               1
 44
1.1307497332816883
  0
DIMENSION
  5
105
100
AcDbEntity
  8
notes
370
               5
390
0
  6
Continuous
 62
               7
100
AcDbDimension
  2
*D3
 10
-144.91450860611354
 20
1045.4073673865312
 30
0.0
 11
-384.91450860611366
 21
1045.4073673865312
 31
0.0
 71
               5
 72
               1
 41
1.0
 42
0.0
  3
tfrom線あり
100
AcDbAlignedDimension
 13
-624.91450860611383
 23
874.2394339267222
 33
0.0
 14
-144.91450860611354
 24
874.2394339267222
 34
0.0
100
AcDbRotatedDimension
1001
ACAD
1000
DSTYLE
1002
{
1070
             279
1070
               2
1070
             340
1005
30
1070
             147
1040
5.0
1002
}
  0
DIMENSION
  5
106
100
AcDbEntity
  8
notes
370
               5
390
0
  6
Continuous
 62
               7
100
AcDbDimension
  2
*D4
 10
-44.914508606113216
 20
879.23943392672265
 30
0.0
 11
-44.914508606113216
 21
644.23943392672265
 31
0.0
 71
               5
 72
               1
 41
1.0
 42
0.0
  3
tfrom線あり
100
AcDbAlignedDimension
 13
-220.36673127919863
 23
409.23943392672277
 33
0.0
 14
-149.91450860611354
 24
879.23943392672265
 34
0.0
 50
90.0
100
AcDbRotatedDimension
1001
ACAD
1000
DSTYLE
1002
{
1070
             279
1070
               2
1070
             340
1005
30
1070
             147
1040
5.0
1002
}
  0
DIMENSION
  5
107
100
AcDbEntity
  8
notes
370
               5
390
0
  6
Continuous
 62
               7
100
AcDbDimension
  2
*D5
 10
5.0936347217665769
 20
-265.25056847428016
 30
0.0
 11
5.0936347217665769
 21
-472.75056847428016
 31
0.0
 71
               5
 72
               1
 41
1.0
 42
0.0
  3
tfrom線あり
100
AcDbAlignedDimension
 13
-200.36673127919863
 23
-680.25056847428016
 33
0.0
 14
-149.90636527823341
 24
-265.25056847428016
 34
0.0
 50
90.0
100
AcDbRotatedDimension
1001
ACAD
1000
DSTYLE
1002
{
1070
             279
1070
               2
1070
             340
1005
30
1070
             147
1040
5.0
1002
}
  0
DIMENSION
  5
108
100
AcDbEntity
  8
notes
370
               5
390
0
  6
Continuous
 62
               7
100
AcDbDimension
  2
*D6
 10
640.08869518197741
 20
-780.23860226583622
 30
0.0
 11
712.58870216724324
 21
-780.23860226583622
 31
0.0
 71
               5
 72
               1
 41
1.0
 42
0.0
  3
tfrom線あり
100
AcDbAlignedDimension
 13
785.08870915250907
 23
-548.99505156132261
 33
0.0
 14
640.08869518197741
 24
-670.23861615703424
 34
0.0
100
AcDbRotatedDimension
1001
ACAD
1000
DSTYLE
1002
{
1070
             279
1070
               2
1070
             340
1005
30
1070
             147
1040
5.0
1002
}
  0
DIMENSION
  5
109
100
AcDbEntity
  8
notes
370
               5
390
0
  6
Continuous
 62
               7
100
AcDbDimension
  2
*D7
 10
586.54414958421773
 20
-615.23860226584009
 30
0.0
 11
591.54414958421773
 21
-489.16043713091892
 31
0.0
 70
             128
 71
               5
 72
               1
 41
1.0
 42
0.0
  3
tfrom線あり
100
AcDbAlignedDimension
 13
580.02395098403656
 23
-510.23860226583656
 33
0.0
 14
580.02395098403656
 24
-615.23860226584009
 34
0.0
 50
90.0
100
AcDbRotatedDimension
1001
ACAD
1000
DSTYLE
1002
{
1070
             279
1070
               2
1070
             340
1005
30
1070
               3
1000
<>(深さ)
1070
             174
1070
               0
1070
             147
1040
5.0
1002
}
  0
CIRCLE
  5
10A
100
AcDbEntity
  8
notes
370
               5
390
0
  6
Continuous
 62
               7
100
AcDbCircle
 10
-384.91450860611354
 20
-370.25056847428016
 30
0.0
 40
20.0
  0
CIRCLE
  5
10B
100
AcDbEntity
  8
notes
370
               5
390
0
  6
Continuous
 62
               7
100
AcDbCircle
 10
-284.91450860611354
 20
-370.25056847428016
 30
0.0
 40
20.0
  0
CIRCLE
  5
10C
100
AcDbEntity
  8
notes
370
               5
390
0
  6
Continuous
 62
               7
100
AcDbCircle
 10
-484.91450860611354
 20
-370.25056847428016
 30
0.0
 40
20.0
  0
ARC
  5
10D
100
AcDbEntity
  8
notes
370
              15
390
0
  6
Continuous
 62
               7
100
AcDbCircle
 10
-619.9145086061136
 20
-515.25056847428004
 30
0.0
 40
4.9999999999999432
100
AcDbArc
 50
90.0
 51
180.0
  0
ARC
  5
10E
100
AcDbEntity
  8
notes
370
              15
390
0
  6
Continuous
 62
               7
100
AcDbCircle
 10
-149.91450860611354
 20
-515.25056847428004
 30
0.0
 40
5.0
100
AcDbArc
 50
0.0
 51
90.0
  0
DIMENSION
  5
10F
100
AcDbEntity
  8
notes
370
               5
390
0
  6
Continuous
 62
               7
100
AcDbDimension
  2
*D8
 10
-484.91450860611354
 20
-216.16043713091898
 30
0.0
 11
-434.91450860611354
 21
-216.16043713091898
 31
0.0
 71
               5
 72
               1
 41
1.0
 42
0.0
  3
tfrom線あり
100
AcDbAlignedDimension
 13
-384.91450860611354
 23
-350.25056847428016
 33
0.0
 14
-484.91450860611354
 24
-350.25056847428016
 34
0.0
100
AcDbRotatedDimension
1001
ACAD
1000
DSTYLE
1002
{
1070
             279
1070
               2
1070
             340
1005
30
1070
             147
1040
5.0
1002
}
  0
DIMENSION
  5
110
100
AcDbEntity
  8
notes
370
               5
390
0
  6
Continuous
 62
               7
100
AcDbDimension
  2
*D9
 10
-384.91450860611354
 20
-216.16043713091898
 30
0.0
 11
-334.91450860611354
 21
-216.16043713091898
 31
0.0
 71
               5
 72
               1
 41
1.0
 42
0.0
  3
tfrom線あり
100
AcDbAlignedDimension
 13
-284.91450860611354
 23
-350.25056847428016
 33
0.0
 14
-384.91450860611354
 24
-350.25056847428016
 34
0.0
100
AcDbRotatedDimension
1001
ACAD
1000
DSTYLE
1002
{
1070
             279
1070
               2
1070
             340
1005
30
1070
             147
1040
5.0
1002
}
  0
DIMENSION
  5
111
100
AcDbEntity
  8
notes
370
               5
390
0
  6
Continuous
 62
               7
100
AcDbDimension
  2
*D10
 10
-295.31854602345078
 20
-387.33143512145824
 30
0.0
 11
-138.36673127919829
 21
-228.16043713091912
 31
0.0
 70
               3
 71
               5
 72
               1
 41
1.0
 42
0.0
  3
tfrom線あり
100
AcDbDiametricDimension
 15
-274.51047118877625
 25
-353.16970182710213
 35
0.0
 40
146.37344495262042
1001
ACAD
1000
DSTYLE
1002
{
1070
             289
1070
               0
1070
             342
1005
43
1070
             340
1005
30
1070
              73
1070
               1
1070
              74
1070
               1
1070
              75
1070
               1
1070
              76
1070
               1
1070
               3
1000

1070
             174
1070
               0
1070
             147
1040
5.0
1002
}
  0
DIMENSION
  5
112
100
AcDbEntity
  8
notes
370
               5
390
0
  6
Continuous
 62
               7
100
AcDbDimension
  2
*D11
 10
-719.92265193399373
 20
-265.25056847428016
 30
0.0
 11
-719.92265193399373
 21
-387.75056847428016
 31
0.0
 71
               5
 72
               1
 41
1.0
 42
0.0
  3
tfrom線あり
100
AcDbAlignedDimension
 13
-619.9145086061136
 23
-510.25056847428016
 33
0.0
 14
-619.92265193399373
 24
-265.25056847428016
 34
0.0
 50
90.0
100
AcDbRotatedDimension
1001
ACAD
1000
DSTYLE
1002
{
1070
             279
1070
               2
1070
             340
1005
30
1070
             147
1040
5.0
1002
}
  0
DIMENSION
  5
113
100
AcDbEntity
  8
notes
370
               5
390
0
  6
Continuous
 62
               7
100
AcDbDimension
  2
*D12
 10
-719.9145086061136
 20
-510.25056847428016
 30
0.0
 11
-719.9145086061136
 21
-530.25056847428004
 31
0.0
 71
               5
 72
               1
 41
1.0
 42
0.0
  3
tfrom線あり
100
AcDbAlignedDimension
 13
-619.9145086061136
 23
-550.25056847427993
 33
0.0
 14
-619.9145086061136
 24
-510.25056847428016
 34
0.0
 50
90.0
100
AcDbRotatedDimension
1001
ACAD
1000
DSTYLE
1002
{
1070
             279
1070
               2
1070
             340
1005
30
1070
             147
1040
5.0
1002
}
  0
DIMENSION
  5
114
100
AcDbEntity
  8
notes
370
               5
390
0
  6
Continuous
 62
               7
100
AcDbDimension
  2
*D13
 10
-719.9145086061136
 20
-550.25056847427993
 30
0.0
 11
-719.9145086061136
 21
-615.25056847427993
 31
0.0
 71
               5
 72
               1
 41
1.0
 42
0.0
  3
tfrom線あり
100
AcDbAlignedDimension
 13
-573.90954397857206
 23
-680.25056847427993
 33
0.0
 14
-619.9145086061136
 24
-550.25056847427993
 34
0.0
 50
90.0
100
AcDbRotatedDimension
1001
ACAD
1000
DSTYLE
1002
{
1070
             279
1070
               2
1070
             340
1005
30
1070
             147
1040
5.0
1002
}
  0
DIMENSION
  5
115
100
AcDbEntity
  8
notes
370
               5
390
0
  6
Continuous
 62
               7
100
AcDbDimension
  2
*D14
 10
-44.914508606113557
 20
-370.25056847428016
 30
0.0
 11
-44.914508606113557
 21
-440.25056847428016
 31
0.0
 71
               5
 72
               1
 41
1.0
 42
0.0
  3
tfrom線あり
100
AcDbAlignedDimension
 13
-149.91450860611354
 23
-510.25056847428016
 33
0.0
 14
-264.91450860611354
 24
-370.25056847428016
 34
0.0
 50
90.0
100
AcDbRotatedDimension
1001
ACAD
1000
DSTYLE
1002
{
1070
             279
1070
               2
1070
             340
1005
30
1070
             147
1040
5.0
1002
}
  0
MTEXT
  5
116
100
AcDbEntity
  8
notes
390
0
 62
               7
100
AcDbMText
 10
-914.9999999997591
 20
-1176.0000901712003
 30
0.0
 40
24.432617187500004
 41
0.0
 71
               1
 72
               1
  1
洗面器 -DURAVIT,Philippe Starck E3-
  7
ＭＳ ゴシック
 73
               1
 44
0.7828267384257843
  0
ARC
  5
117
100
AcDbEntity
  8
FAA70-2220
370
              15
390
0
  6
Continuous
 62
               7
100
AcDbCircle
 10
-384.91450860611263
 20
3252.8005025642628
 30
0.0
 40
2798.5610686375389
100
AcDbArc
 50
266.0360706064464
 51
273.96392939355343
  0
LINE
  5
118
100
AcDbEntity
  8
FAA70-2220
370
              15
390
0
  6
Continuous
 62
               7
100
AcDbLine
 10
-577.9145086061136
 20
789.23943392672402
 30
0.0
 11
-191.91450860611354
 21
789.23943392672402
 31
0.0
  0
LINE
  5
119
100
AcDbEntity
  8
FAA70-2220
370
              15
390
0
  6
Continuous
 62
               7
100
AcDbLine
 10
-611.23464056237401
 20
851.23943392672265
 30
0.0
 11
-158.59437664985313
 21
851.23943392672265
 31
0.0
  0
ARC
  5
11A
100
AcDbEntity
  8
FAA70-2220
370
              15
390
0
  6
Continuous
 62
               7
100
AcDbCircle
 10
-577.9145086061136
 20
782.23943392672402
 30
0.0
 40
7.0
100
AcDbArc
 50
90.0
 51
180.0
  0
LINE
  5
11B
100
AcDbEntity
  8
FAA70-2220
370
              15
390
0
  6
Continuous
 62
               7
100
AcDbLine
 10
-584.9145086061136
 20
782.23943392672402
 30
0.0
 11
-584.9145086061136
 21
467.91910004385932
 31
0.0
  0
ARC
  5
11C
100
AcDbEntity
  8
FAA70-2220
370
              15
390
0
  6
Continuous
 62
               7
100
AcDbCircle
 10
-577.9145086061136
 20
467.91910004385932
 30
0.0
 40
7.0
100
AcDbArc
 50
180.0
 51
266.23075230221986
  0
LINE
  5
11D
100
AcDbEntity
  8
FAA70-2220
370
              15
390
0
  6
Continuous
 62
               7
100
AcDbLine
 10
-157.36673127919863
 20
844.23943392672265
 30
0.0
 11
-613.28550075590294
 21
844.23943392672265
 31
0.0
  0
CIRCLE
  5
11E
100
AcDbEntity
  8
FAA70-2220
370
              15
390
0
  6
Continuous
 62
               7
100
AcDbCircle
 10
-384.91450860611354
 20
734.2394339267222
 30
0.0
 40
37.5
  0
CIRCLE
  5
11F
100
AcDbEntity
  8
FAA70-2220
370
              15
390
0
  6
Continuous
 62
               7
100
AcDbCircle
 10
-384.91450860611354
 20
734.2394339267222
 30
0.0
 40
26.0
  0
ARC
  5
120
100
AcDbEntity
  8
FAA70-2220
370
              15
390
0
  6
Continuous
 62
               7
100
AcDbCircle
 10
-612.38079156485458
 20
841.67862173584433
 30
0.0
 40
9.6292674627790245
100
AcDbArc
 50
83.163999630341138
 51
149.8026947647657
  0
LINE
  5
121
100
AcDbEntity
  8
FAA70-2220
370
              15
390
0
  6
Continuous
 62
               7
100
AcDbLine
 10
-619.9145086061136
 20
879.23943392672265
 30
0.0
 11
-619.9145086061136
 21
851.23943392672265
 31
0.0
  0
ARC
  5
122
100
AcDbEntity
  8
FAA70-2220
370
              15
390
0
  6
Continuous
 62
               7
100
AcDbCircle
 10
-191.91450860611354
 20
782.23943392672402
 30
0.0
 40
7.0
100
AcDbArc
 50
0.0
 51
90.0
  0
LINE
  5
123
100
AcDbEntity
  8
FAA70-2220
370
              15
390
0
  6
Continuous
 62
               7
100
AcDbLine
 10
-184.91450860611354
 20
782.23943392672402
 30
0.0
 11
-184.91450860611354
 21
467.91910004385932
 31
0.0
  0
ARC
  5
124
100
AcDbEntity
  8
FAA70-2220
370
              15
390
0
  6
Continuous
 62
               7
100
AcDbCircle
 10
-191.91450860611354
 20
467.91910004385932
 30
0.0
 40
6.9999999999999432
100
AcDbArc
 50
273.76924769776895
 51
0.0
  0
ARC
  5
125
100
AcDbEntity
  8
FAA70-2220
370
              15
390
0
  6
Continuous
 62
               7
100
AcDbCircle
 10
-157.44822564737257
 20
841.67862173584433
 30
0.0
 40
9.6292674627790387
100
AcDbArc
 50
30.197305235234296
 51
96.836000369658876
  0
LINE
  5
126
100
AcDbEntity
  8
FAA70-2220
370
              15
390
0
  6
Continuous
 62
               7
100
AcDbLine
 10
-149.91450860611354
 20
879.23943392672265
 30
0.0
 11
-149.91450860611354
 21
851.23943392672265
 31
0.0
  0
LWPOLYLINE
  5
127
100
AcDbEntity
  8
FAA70-2220
370
              15
390
0
  6
Continuous
 62
               7
100
AcDbPolyline
 90
        8
 70
             129
 10
-144.91450860611354
 20
874.2394339267222
 42
0.414213562373095
 10
-149.91450860611354
 20
879.2394339267222
 10
-619.91450860611383
 20
879.2394339267222
 42
0.414213562373095
 10
-624.91450860611383
 20
874.2394339267222
 10
-624.9145086061136
 20
462.92995664716977
 42
0.3950431318699739
 10
-581.00922154805619
 20
416.03195293904776
 42
0.0346389706811513
 10
-188.81979566417391
 20
416.03195293904844
 42
0.3950431318699754
 10
-144.91450860611354
 20
462.92995664717
  0
LINE
  5
128
100
AcDbEntity
  8
FAA70-2220
370
              15
390
0
  6
Continuous
 62
               7
100
AcDbLine
 10
-594.49616447620053
 20
-550.25056847428004
 30
0.0
 11
-175.33285273602638
 21
-550.25056847427982
 31
0.0
  0
LWPOLYLINE
  5
129
100
AcDbEntity
  8
FAA70-2220
370
              15
390
0
  6
Continuous
 62
               7
100
AcDbPolyline
 90
       22
 70
             129
 10
-179.93037071303166
 20
-550.2505684742797
 10
-149.91450860611354
 20
-550.2505684742797
 42
0.414213562373095
 10
-144.91450860611354
 20
-545.2505684742797
 10
-144.91450860611354
 20
-515.25056847428004
 10
-144.91450860611354
 20
-510.25056847428016
 10
-144.91450860611354
 20
-269.96531952158773
 42
0.3975921079079327
 10
-149.90636527823341
 20
-265.25056847428016
 10
-619.92265193399373
 20
-265.25056847428016
 42
0.3975921079079031
 10
-624.9145086061136
 20
-269.96531952158762
 10
-624.91450860611383
 20
-510.25056847428016
 10
-624.9145086061136
 20
-515.25056847428004
 10
-624.9145086061136
 20
-545.25056847427993
 42
0.414213562373095
 10
-619.9145086061136
 20
-550.25056847427993
 10
-589.89864649919525
 20
-550.25056847428004
 10
-578.90954397857206
 20
-675.65056847427979
 10
-578.90666153667428
 20
-675.68371655610417
 42
0.3890307372447023
 10
-573.92545859569589
 20
-680.25056847427993
 10
-573.90954397857206
 20
-680.25056847427993
 10
-195.909543978572
 20
-680.25056847427993
 10
-195.89362936144818
 20
-680.25056847427993
 42
0.3890307372447088
 10
-190.91242642046979
 20
-675.68371655610417
 10
-190.909543978572
 20
-675.65056847427979
  0
LINE
  5
12A
100
AcDbEntity
  8
FAA70-2220
370
              15
390
0
  6
Continuous
 62
               7
100
AcDbLine
 10
-619.9145086061136
 20
-510.25056847428016
 30
0.0
 11
-149.91450860611354
 21
-510.25056847428016
 31
0.0
  0
ARC
  5
12B
100
AcDbEntity
  8
FAA70-2220
370
              15
390
0
  6
STYLE_12
 62
               7
100
AcDbCircle
 10
-569.57189185075924
 20
-522.23104116425816
 30
0.0
 40
7.0113587631700858
100
AcDbArc
 50
23.676939070999175
 51
89.939298713306272
  0
ARC
  5
12C
100
AcDbEntity
  8
FAA70-2220
370
              15
390
0
  6
STYLE_12
 62
               7
100
AcDbCircle
 10
-415.11851080111006
 20
-454.07279304494688
 30
0.0
 40
161.81221923899489
100
AcDbArc
 50
203.81705704170395
 51
236.33320249403286
  0
ARC
  5
12D
100
AcDbEntity
  8
FAA70-2220
370
              15
390
0
  6
STYLE_12
 62
               7
100
AcDbCircle
 10
-416.39397189961443
 20
-454.0990343201666
 30
0.0
 40
161.08671431876263
100
AcDbArc
 50
236.70560073007661
 51
268.74796854071815
  0
LINE
  5
12E
100
AcDbEntity
  8
FAA70-2220
370
              15
390
0
  6
STYLE_12
 62
               7
100
AcDbLine
 10
-419.91450860611377
 20
-615.21968633588801
 30
0.0
 11
-349.91450860611354
 21
-615.21968633588801
 31
0.0
  0
ARC
  5
12F
100
AcDbEntity
  8
FAA70-2220
370
              15
390
0
  6
STYLE_12
 62
               7
100
AcDbCircle
 10
-418.21213379280476
 20
-618.35243066047281
 30
0.0
 40
3.1332268188583345
100
AcDbArc
 50
46.005526145433933
 51
88.994473854550876
  0
LINE
  5
130
100
AcDbEntity
  8
FAA70-2220
370
              15
390
0
  6
STYLE_12
 62
               7
100
AcDbLine
 10
-416.035828949674
 20
-616.09836599232801
 30
0.0
 11
-411.79318826255354
 21
-620.34100667944756
 31
0.0
  0
ARC
  5
131
100
AcDbEntity
  8
FAA70-2220
370
              15
390
0
  6
STYLE_12
 62
               7
100
AcDbCircle
 10
-413.91450860611536
 20
-622.46232702300733
 30
0.0
 40
3.000000000001819
100
AcDbArc
 50
0.0000000000130276
 51
44.99999999997236
  0
LINE
  5
132
100
AcDbEntity
  8
FAA70-2220
370
              15
390
0
  6
STYLE_12
 62
               7
100
AcDbLine
 10
-410.91450860611354
 20
-622.46232702300665
 30
0.0
 11
-410.91450860611354
 21
-670.21968633588779
 31
0.0
  0
LINE
  5
133
100
AcDbEntity
  8
FAA70-2220
370
              15
390
0
  6
STYLE_12
 62
               7
100
AcDbLine
 10
-410.91450860611354
 20
-670.21968633588779
 30
0.0
 11
-358.91450860611536
 21
-670.21968633588779
 31
0.0
  0
ARC
  5
134
100
AcDbEntity
  8
FAA70-2220
370
              15
390
0
  6
STYLE_12
 62
               7
100
AcDbCircle
 10
-200.2571253614679
 20
-522.23104116425816
 30
0.0
 40
7.0113587631702705
100
AcDbArc
 50
90.060701286691867
 51
156.3230609290008
  0
ARC
  5
135
100
AcDbEntity
  8
FAA70-2220
370
              15
390
0
  6
STYLE_12
 62
               7
100
AcDbCircle
 10
-354.71050641111702
 20
-454.07279304494688
 30
0.0
 40
161.8122192389946
100
AcDbArc
 50
303.66679750596722
 51
336.18294295829605
  0
ARC
  5
136
100
AcDbEntity
  8
FAA70-2220
370
              15
390
0
  6
STYLE_12
 62
               7
100
AcDbCircle
 10
-353.43504531261266
 20
-454.0990343201666
 30
0.0
 40
161.08671431876255
100
AcDbArc
 50
271.25203145928185
 51
303.29439926992342
  0
ARC
  5
137
100
AcDbEntity
  8
FAA70-2220
370
              15
390
0
  6
STYLE_12
 62
               7
100
AcDbCircle
 10
-351.61688341942232
 20
-618.35243066047281
 30
0.0
 40
3.1332268188582906
100
AcDbArc
 50
91.005526145449139
 51
133.99447385456608
  0
LINE
  5
138
100
AcDbEntity
  8
FAA70-2220
370
              15
390
0
  6
STYLE_12
 62
               7
100
AcDbLine
 10
-353.79318826255309
 20
-616.09836599232801
 30
0.0
 11
-358.03582894967354
 21
-620.34100667944756
 31
0.0
  0
ARC
  5
139
100
AcDbEntity
  8
FAA70-2220
370
              15
390
0
  6
STYLE_12
 62
               7
100
AcDbCircle
 10
-355.91450860611172
 20
-622.46232702300733
 30
0.0
 40
3.000000000001632
100
AcDbArc
 50
135.00000000002763
 51
179.99999999998701
  0
LINE
  5
13A
100
AcDbEntity
  8
FAA70-2220
370
              15
390
0
  6
STYLE_12
 62
               7
100
AcDbLine
 10
-358.91450860611354
 20
-622.46232702300665
 30
0.0
 11
-358.91450860611354
 21
-670.21968633588779
 31
0.0
  0
LINE
  5
13B
100
AcDbEntity
  8
FAA70-2220
370
              15
390
0
  6
STYLE_12
 62
               7
100
AcDbLine
 10
-410.91450860611354
 20
-622.46232702300665
 30
0.0
 11
-358.91450860611354
 21
-622.46232702300665
 31
0.0
  0
LINE
  5
13C
100
AcDbEntity
  8
FAA70-2220
370
              15
390
0
  6
Continuous
 62
               7
100
AcDbLine
 10
735.03055130442806
 20
-510.23860226583656
 30
0.0
 11
327.08870915251003
 21
-510.23860226583656
 31
0.0
  0
ARC
  5
13D
100
AcDbEntity
  8
FAA70-2220
370
              15
390
0
  6
Continuous
 62
               7
100
AcDbCircle
 10
735.03055130442806
 20
-500.23860226583656
 30
0.0
 40
9.9999999999999432
100
AcDbArc
 50
270.0
 51
353.0228756571006
  0
LINE
  5
13E
100
AcDbEntity
  8
FAA70-2220
370
              15
390
0
  6
Continuous
 62
               7
100
AcDbLine
 10
320.08870915251003
 20
-517.23860226583645
 30
0.0
 11
320.08870915251003
 21
-545.23860226583622
 31
0.0
  0
ARC
  5
13F
100
AcDbEntity
  8
FAA70-2220
370
              15
390
0
  6
Continuous
 62
               7
100
AcDbCircle
 10
327.08870915251003
 20
-517.23860226583645
 30
0.0
 40
6.9999999999999432
100
AcDbArc
 50
90.0
 51
180.0
  0
LINE
  5
140
100
AcDbEntity
  8
FAA70-2220
370
              15
390
0
  6
Continuous
 62
               7
100
AcDbLine
 10
785.08870915250907
 20
-550.23860226583622
 30
0.0
 11
325.08870915251003
 21
-550.23860226583622
 31
0.0
  0
ARC
  5
141
100
AcDbEntity
  8
FAA70-2220
370
              15
390
0
  6
Continuous
 62
               7
100
AcDbCircle
 10
325.08870915251003
 20
-545.23860226583622
 30
0.0
 40
5.0
100
AcDbArc
 50
180.0
 51
270.0
  0
LINE
  5
142
100
AcDbEntity
  8
FAA70-2220
370
              15
390
0
  6
Continuous
 62
               7
100
AcDbLine
 10
370.81110909598368
 20
-556.12207766502206
 30
0.0
 11
383.37674407016669
 21
-658.46096198228258
 31
0.0
  0
LINE
  5
143
100
AcDbEntity
  8
FAA70-2220
370
              15
390
0
  6
Continuous
 62
               7
100
AcDbLine
 10
364.16104987998682
 20
-550.23860226583633
 30
0.0
 11
355.58870915250958
 21
-550.23860226583633
 31
0.0
  0
ARC
  5
144
100
AcDbEntity
  8
FAA70-2220
370
              15
390
0
  6
Continuous
 62
               7
100
AcDbCircle
 10
364.16104987998682
 20
-556.93860226583638
 30
0.0
 40
6.6999999999999833
100
AcDbArc
 50
6.9999999999985567
 51
89.999999999999986
  0
LINE
  5
145
100
AcDbEntity
  8
FAA70-2220
370
              15
390
0
  6
Continuous
 62
               7
100
AcDbLine
 10
708.74083798046354
 20
-680.23860226583622
 30
0.0
 11
407.99188863087187
 21
-680.23860226583622
 31
0.0
  0
ARC
  5
146
100
AcDbEntity
  8
FAA70-2220
370
              15
390
0
  6
Continuous
 62
               7
100
AcDbCircle
 10
407.99188863087187
 20
-655.43860226583627
 30
0.0
 40
24.800000000000225
100
AcDbArc
 50
186.99999999999685
 51
270.0
  0
LINE
  5
147
100
AcDbEntity
  8
FAA70-2220
370
              15
390
0
  6
Continuous
 62
               7
100
AcDbLine
 10
746.6440174588322
 20
-550.23860226583622
 30
0.0
 11
733.3559825411678
 21
-658.46096198228463
 31
0.0
  0
ARC
  5
148
100
AcDbEntity
  8
FAA70-2220
370
              15
390
0
  6
Continuous
 62
               7
100
AcDbCircle
 10
708.74083798046354
 20
-655.43860226583627
 30
0.0
 40
24.799999999999955
100
AcDbArc
 50
270.0
 51
352.99999999999824
  0
ARC
  5
149
100
AcDbEntity
  8
FAA70-2220
370
              15
390
0
  6
STYLE_12
 62
               7
100
AcDbCircle
 10
673.38632036866727
 20
-618.37136048161926
 30
0.0
 40
3.1332268188582906
100
AcDbArc
 50
91.005526145449139
 51
133.99447385456608
  0
LINE
  5
14A
100
AcDbEntity
  8
FAA70-2220
370
              15
390
0
  6
STYLE_12
 62
               7
100
AcDbLine
 10
671.21001552553651
 20
-616.11729581347447
 30
0.0
 11
666.96737483841605
 21
-620.35993650059402
 31
0.0
  0
ARC
  5
14B
100
AcDbEntity
  8
FAA70-2220
370
              15
390
0
  6
STYLE_12
 62
               7
100
AcDbCircle
 10
669.08869518197787
 20
-622.48125684415379
 30
0.0
 40
3.000000000001632
100
AcDbArc
 50
135.00000000002763
 51
179.99999999998701
  0
LINE
  5
14C
100
AcDbEntity
  8
FAA70-2220
370
              15
390
0
  6
STYLE_12
 62
               7
100
AcDbLine
 10
666.08869518197605
 20
-622.48125684415311
 30
0.0
 11
666.08869518197605
 21
-670.23861615703424
 31
0.0
  0
LINE
  5
14D
100
AcDbEntity
  8
FAA70-2220
370
              15
390
0
  6
STYLE_12
 62
               7
100
AcDbLine
 10
666.08869518197605
 20
-670.23861615703424
 30
0.0
 11
614.08869518197832
 21
-670.23861615703424
 31
0.0
  0
ARC
  5
14E
100
AcDbEntity
  8
FAA70-2220
370
              15
390
0
  6
STYLE_12
 62
               7
100
AcDbCircle
 10
606.79106999528483
 20
-618.37136048161926
 30
0.0
 40
3.1332268188583345
100
AcDbArc
 50
46.005526145433933
 51
88.994473854542548
  0
LINE
  5
14F
100
AcDbEntity
  8
FAA70-2220
370
              15
390
0
  6
STYLE_12
 62
               7
100
AcDbLine
 10
608.96737483841559
 20
-616.11729581347447
 30
0.0
 11
613.21001552553651
 21
-620.35993650059402
 31
0.0
  0
ARC
  5
150
100
AcDbEntity
  8
FAA70-2220
370
              15
390
0
  6
STYLE_12
 62
               7
100
AcDbCircle
 10
611.08869518197469
 20
-622.48125684415379
 30
0.0
 40
3.0000000000013642
100
AcDbArc
 50
0.0000000000130276
 51
44.99999999997236
  0
LINE
  5
151
100
AcDbEntity
  8
FAA70-2220
370
              15
390
0
  6
STYLE_12
 62
               7
100
AcDbLine
 10
614.08869518197605
 20
-622.48125684415311
 30
0.0
 11
614.08869518197605
 21
-670.23861615703424
 31
0.0
  0
LINE
  5
152
100
AcDbEntity
  8
FAA70-2220
370
              15
390
0
  6
STYLE_12
 62
               7
100
AcDbLine
 10
666.08869518197605
 20
-622.48125684415311
 30
0.0
 11
614.08869518197605
 21
-622.48125684415311
 31
0.0
  0
LINE
  5
153
100
AcDbEntity
  8
FAA70-2220
370
              15
390
0
  6
STYLE_12
 62
               7
100
AcDbLine
 10
457.77464343038986
 20
-615.23860226584009
 30
0.0
 11
680.5823979059071
 21
-615.23860226584009
 31
0.0
  0
LINE
  5
154
100
AcDbEntity
  8
FAA70-2220
370
              15
390
0
  6
STYLE_12
 62
               7
100
AcDbLine
 10
695.0823979059071
 20
-529.73860226583633
 30
0.0
 11
695.0823979059071
 21
-600.73860226584009
 31
0.0
  0
ARC
  5
155
100
AcDbEntity
  8
FAA70-2220
370
              15
390
0
  6
STYLE_12
 62
               7
100
AcDbCircle
 10
680.5823979059071
 20
-600.73860226584009
 30
0.0
 40
14.5
100
AcDbArc
 50
270.0
 51
0.0
  0
LINE
  5
156
100
AcDbEntity
  8
FAA70-2220
370
              15
390
0
  6
STYLE_12
 62
               7
100
AcDbLine
 10
740.69179622238187
 20
-523.23860226583633
 30
0.0
 11
703.0
 21
-523.23860226583633
 31
0.0
  0
ARC
  5
157
100
AcDbEntity
  8
FAA70-2220
370
              15
390
0
  6
STYLE_12
 62
               7
100
AcDbCircle
 10
701.5823979059071
 20
-529.73860226583633
 30
0.0
 40
6.5
100
AcDbArc
 50
90.0
 51
180.0
  0
ARC
  5
158
100
AcDbEntity
  8
FAA70-2220
370
              15
390
0
  6
STYLE_12
 62
               7
100
AcDbCircle
 10
740.67397269676519
 20
-519.25874809701509
 30
0.0
 40
3.9798940793891666
100
AcDbArc
 50
269.74340618149461
 51
353.25659381850835
  0
ARC
  5
159
100
AcDbEntity
  8
FAA70-2220
370
              15
390
0
  6
STYLE_12
 62
               7
100
AcDbCircle
 10
478.22812747834536
 20
-519.29402403901622
 30
0.0
 40
98.100494906107357
100
AcDbArc
 50
181.62624490597292
 51
257.96581727227749
  0
ARC
  5
15A
100
AcDbEntity
  8
FAA70-2220
370
              15
390
0
  6
STYLE_12
 62
               7
100
AcDbCircle
 10
373.23939876580738
 20
-522.17285364615486
 30
0.0
 40
6.9280448308178224
100
AcDbArc
 50
1.0977962472123139
 51
84.979590868547788
  0
LINE
  5
15B
100
AcDbEntity
  8
FAA70-2220
370
              15
390
0
  6
Continuous
 62
               7
100
AcDbLine
 10
784.95046298753448
 20
-265.25056847428016
 30
0.0
 11
785.08870915250907
 21
-550.23860226583633
 31
0.0
  0
LINE
  5
15C
100
AcDbEntity
  8
FAA70-2220
370
              15
390
0
  6
Continuous
 62
               7
100
AcDbLine
 10
784.95046298753448
 20
-265.25056847428016
 30
0.0
 11
755.52099656041662
 21
-265.25056847428016
 31
0.0
  0
LINE
  5
15D
100
AcDbEntity
  8
FAA70-2220
370
              15
390
0
  6
Continuous
 62
               7
100
AcDbLine
 10
748.57852594088979
 20
-271.40025478057555
 30
0.0
 11
744.62633377751115
 21
-519.72607963945302
 31
0.0
  0
ARC
  5
15E
100
AcDbEntity
  8
FAA70-2220
370
              15
390
0
  6
Continuous
 62
               7
100
AcDbCircle
 10
755.52668904768041
 20
-272.25056615967901
 30
0.0
 40
7.0000000000000426
100
AcDbArc
 50
90.04659364729936
 51
173.02287565710054
  0
ENDSEC
  0
SECTION
  2
OBJECTS
  0
DICTIONARY
  5
19
100
AcDbDictionary
280
               0
281
               1
  3
ACAD_GROUP
350
1A
  3
ACAD_MLINESTYLE
350
1B
  3
ACAD_LAYOUT
350
1E
  3
ACAD_PLOTSETTINGS
350
22
  3
ACAD_PLOTSTYLENAME
350
1F
  0
DICTIONARY
  5
1A
102
{ACAD_REACTORS
330
19
102
}
100
AcDbDictionary
280
               0
281
               1
  0
DICTIONARY
  5
1B
102
{ACAD_REACTORS
330
19
102
}
100
AcDbDictionary
280
               0
281
               1
  3
Standard
350
1C
  0
MLINESTYLE
  5
1C
102
{ACAD_REACTORS
330
1B
102
}
100
AcDbMlineStyle
  2
Standard
 70
               0
  3

 62
               0
 51
90.0
 52
90.0
 71
               2
 49
0.5
 62
             256
  6
ByLayer
 49
-0.5
 62
             256
  6
ByLayer
  0
ACDBDICTIONARYWDFLT
  5
1F
102
{ACAD_REACTORS
330
19
102
}
100
AcDbDictionary
281
               1
  3
Normal
350
1D
100
AcDbDictionaryWithDefault
340
1D
  0
ACDBPLACEHOLDER
  5
1D
102
{ACAD_REACTORS
330
1F
102
}
  0
LAYOUT
  5
20
102
{ACAD_REACTORS
330
1E
102
}
100
AcDbPlotSettings
  1

  2

  4

  6

 40
0.0
 41
0.0
 42
0.0
 43
0.0
 44
0.0
 45
0.0
 46
0.0
 47
0.0
 48
0.0
 49
0.0
140
0.0
141
0.0
142
1.0
143
1.0
 70
            1024
 72
               0
 73
               0
 74
               0
  7

 75
               0
147
1.0
148
0.0
149
0.0
100
AcDbLayout
  1
Model
 70
               0
 71
               0
 10
0.0
 20
0.0
 11
0.0
 21
0.0
 12
0.0
 22
0.0
 32
0.0
 14
0.0
 24
0.0
 34
0.0
 15
0.0
 25
0.0
 35
0.0
146
0.0
 13
0.0
 23
0.0
 33
0.0
 16
0.0
 26
0.0
 36
0.0
 17
0.0
 27
0.0
 37
0.0
 76
               0
330
A
331
0
345
0
346
0
  0
LAYOUT
  5
21
102
{ACAD_REACTORS
330
1E
102
}
100
AcDbPlotSettings
  1

  2

  4

  6

 40
0.0
 41
0.0
 42
0.0
 43
0.0
 44
0.0
 45
0.0
 46
0.0
 47
0.0
 48
0.0
 49
0.0
140
0.0
141
0.0
142
1.0
143
1.0
 70
               0
 72
               0
 73
               0
 74
               0
  7

 75
               0
147
1.0
148
0.0
149
0.0
100
AcDbLayout
  1
Layout1
 70
               0
 71
               0
 10
0.0
 20
0.0
 11
0.0
 21
0.0
 12
0.0
 22
0.0
 32
0.0
 14
0.0
 24
0.0
 34
0.0
 15
0.0
 25
0.0
 35
0.0
146
0.0
 13
0.0
 23
0.0
 33
0.0
 16
0.0
 26
0.0
 36
0.0
 17
0.0
 27
0.0
 37
0.0
 76
               0
330
B
331
0
345
0
346
0
  0
DICTIONARY
  5
1E
102
{ACAD_REACTORS
330
19
102
}
100
AcDbDictionary
280
               0
281
               1
  3
Layout1
350
21
  3
Model
350
20
  0
DICTIONARY
  5
22
102
{ACAD_REACTORS
330
19
102
}
100
AcDbDictionary
280
               0
281
               1
  0
ENDSEC
  0
EOF
