  0
SECTION
  2
HEADER
  9
$ACADVER
  1
AC1015
  9
$ACADMAINTVER
 70
               6
  9
$DWGCODEPAGE
  3
ANSI_932
  9
$INSBASE
 10
0.0
 20
0.0
 30
0.0
  9
$EXTMIN
 10
-975.00000000024124
 20
-1431.5255224711129
 30
-14.834305555555554
  9
$EXTMAX
 10
975.00000000024124
 20
1405.9972926412995
 30
14.834305555555554
  9
$LIMMIN
 10
0.0
 20
0.0
  9
$LIMMAX
 10
0.0
 20
0.0
  9
$ORTHOMODE
 70
               0
  9
$REGENMODE
 70
               1
  9
$FILLMODE
 70
               1
  9
$QTEXTMODE
 70
               0
  9
$MIRRTEXT
 70
               1
  9
$LTSCALE
 40
50.799999999999997
  9
$ATTMODE
 70
               1
  9
$TEXTSIZE
 40
0.2
  9
$TRACEWID
 40
1.0
  9
$TEXTSTYLE
  7
Standard
  9
$CLAYER
  8
FAN70-0101
  9
$CELTYPE
  6
Continuous
  9
$CECOLOR
 62
             256
  9
$CELTSCALE
 40
1.0
  9
$DISPSILH
 70
               0
  9
$DIMSCALE
 40
1.0
  9
$DIMASZ
 40
31.75
  9
$DIMEXO
 40
0.0
  9
$DIMDLI
 40
6.9999999999999396
  9
$DIMRND
 40
0.0
  9
$DIMDLE
 40
0.0
  9
$DIMEXE
 40
19.999999999996199
  9
$DIMTP
 40
0.0
  9
$DIMTM
 40
0.0
  9
$DIMTXT
 40
24.432617187500004
  9
$DIMCEN
 40
0.0
  9
$DIMTSZ
 40
0.0
  9
$DIMTOL
 70
               0
  9
$DIMLIM
 70
               0
  9
$DIMTIH
 70
               0
  9
$DIMTOH
 70
               0
  9
$DIMSE1
 70
               0
  9
$DIMSE2
 70
               0
  9
$DIMTAD
 70
               1
  9
$DIMZIN
 70
              11
  9
$DIMBLK
  1
VW_FILLEDARROW
  9
$DIMASO
 70
               1
  9
$DIMSHO
 70
               1
  9
$DIMPOST
  1
<>
  9
$DIMAPOST
  1
[]
  9
$DIMALT
 70
               0
  9
$DIMALTD
 70
               1
  9
$DIMALTF
 40
1.0
  9
$DIMLFAC
 40
1.0
  9
$DIMTOFL
 70
               0
  9
$DIMTVP
 40
0.0
  9
$DIMTIX
 70
               1
  9
$DIMSOXD
 70
               0
  9
$DIMSAH
 70
               0
  9
$DIMBLK1
  1

  9
$DIMBLK2
  1

  9
$DIMSTYLE
  2
JIS
  9
$DIMCLRD
 70
               0
  9
$DIMCLRE
 70
               0
  9
$DIMCLRT
 70
               0
  9
$DIMTFAC
 40
1.0
  9
$DIMGAP
 40
1.00000000000108
  9
$DIMJUST
 70
               0
  9
$DIMSD1
 70
               0
  9
$DIMSD2
 70
               0
  9
$DIMTOLJ
 70
               1
  9
$DIMTZIN
 70
              11
  9
$DIMALTZ
 70
              11
  9
$DIMALTTZ
 70
              11
  9
$DIMUPT
 70
               0
  9
$DIMDEC
 70
               1
  9
$DIMTDEC
 70
               1
  9
$DIMALTU
 70
               2
  9
$DIMALTTD
 70
               2
  9
$DIMTXSTY
  7
ＭＳ ゴシック
  9
$DIMAUNIT
 70
               0
  9
$DIMADEC
 70
               2
  9
$DIMALTRND
 40
0.0
  9
$DIMAZIN
 70
               0
  9
$DIMDSEP
 70
              46
  9
$DIMATFIT
 70
               0
  9
$DIMFRAC
 70
               2
  9
$DIMLDRBLK
  1

  9
$DIMLUNIT
 70
               2
  9
$DIMLWD
 70
              -2
  9
$DIMLWE
 70
              -2
  9
$DIMTMOVE
 70
               0
  9
$LUNITS
 70
               2
  9
$LUPREC
 70
               4
  9
$SKETCHINC
 40
0.1
  9
$FILLETRAD
 40
0.0
  9
$AUNITS
 70
               0
  9
$AUPREC
 70
               0
  9
$MENU
  1
acad
  9
$ELEVATION
 40
0.0
  9
$PELEVATION
 40
0.0
  9
$THICKNESS
 40
0.0
  9
$LIMCHECK
 70
               0
  9
$CHAMFERA
 40
0.0
  9
$CHAMFERB
 40
0.0
  9
$CHAMFERC
 40
0.0
  9
$CHAMFERD
 40
0.0
  9
$SKPOLY
 70
               0
  9
$TDCREATE
 40
2456049.408182871
  9
$TDUCREATE
 40
0.000000000
  9
$TDUPDATE
 40
2456049.408182871
  9
$TDUUPDATE
 40
0.000000000
  9
$TDINDWG
 40
0.0000000000
  9
$TDUSRTIMER
 40
0.0000000000
  9
$USRTIMER
 70
               1
  9
$ANGBASE
 50
0.0
  9
$ANGDIR
 70
               0
  9
$PDMODE
 70
               1
  9
$PDSIZE
 40
-2.0
  9
$PLINEWID
 40
0.0
  9
$SPLFRAME
 70
               0
  9
$SPLINETYPE
 70
               6
  9
$SPLINESEGS
 70
               8
  9
$HANDSEED
  5
24A
  9
$SURFTAB1
 70
               6
  9
$SURFTAB2
 70
               6
  9
$SURFTYPE
 70
               6
  9
$SURFU
 70
               6
  9
$SURFV
 70
               6
  9
$UCSBASE
  2

  9
$UCSNAME
  2

  9
$UCSORG
 10
0.0
 20
0.0
 30
0.0
  9
$UCSXDIR
 10
1.0
 20
0.0
 30
0.0
  9
$UCSYDIR
 10
0.0
 20
1.0
 30
0.0
  9
$UCSORTHOREF
  2

  9
$UCSORTHOVIEW
 70
               0
  9
$UCSORGTOP
 10
0.0
 20
0.0
 30
0.0
  9
$UCSORGBOTTOM
 10
0.0
 20
0.0
 30
0.0
  9
$UCSORGLEFT
 10
0.0
 20
0.0
 30
0.0
  9
$UCSORGRIGHT
 10
0.0
 20
0.0
 30
0.0
  9
$UCSORGFRONT
 10
0.0
 20
0.0
 30
0.0
  9
$UCSORGBACK
 10
0.0
 20
0.0
 30
0.0
  9
$PUCSBASE
  2

  9
$PUCSNAME
  2

  9
$PUCSORG
 10
0.0
 20
0.0
 30
0.0
  9
$PUCSXDIR
 10
1.0
 20
0.0
 30
0.0
  9
$PUCSYDIR
 10
0.0
 20
1.0
 30
0.0
  9
$PUCSORTHOREF
  2

  9
$PUCSORTHOVIEW
 70
               0
  9
$PUCSORGTOP
 10
0.0
 20
0.0
 30
0.0
  9
$PUCSORGBOTTOM
 10
0.0
 20
0.0
 30
0.0
  9
$PUCSORGLEFT
 10
0.0
 20
0.0
 30
0.0
  9
$PUCSORGRIGHT
 10
0.0
 20
0.0
 30
0.0
  9
$PUCSORGFRONT
 10
0.0
 20
0.0
 30
0.0
  9
$PUCSORGBACK
 10
0.0
 20
0.0
 30
0.0
  9
$USERI1
 70
               0
  9
$USERI2
 70
               0
  9
$USERI3
 70
               0
  9
$USERI4
 70
               0
  9
$USERI5
 70
               0
  9
$USERR1
 40
0.0
  9
$USERR2
 40
0.0
  9
$USERR3
 40
0.0
  9
$USERR4
 40
0.0
  9
$USERR5
 40
0.0
  9
$WORLDVIEW
 70
               1
  9
$SHADEDGE
 70
               3
  9
$SHADEDIF
 70
              70
  9
$TILEMODE
 70
               1
  9
$MAXACTVP
 70
              64
  9
$PINSBASE
 10
0.0
 20
0.0
 30
0.0
  9
$PLIMCHECK
 70
               0
  9
$PEXTMIN
 10
1.0000000000000000E+20
 20
1.0000000000000000E+20
 30
1.0000000000000000E+20
  9
$PEXTMAX
 10
-1.0000000000000000E+20
 20
-1.0000000000000000E+20
 30
-1.0000000000000000E+20
  9
$PLIMMIN
 10
0.0
 20
0.0
  9
$PLIMMAX
 10
12.0
 20
9.0
  9
$UNITMODE
 70
               0
  9
$VISRETAIN
 70
               0
  9
$PLINEGEN
 70
               1
  9
$PSLTSCALE
 70
               0
  9
$TREEDEPTH
 70
            3020
  9
$CMLSTYLE
  2
Standard
  9
$CMLJUST
 70
               0
  9
$CMLSCALE
 40
1.0
  9
$PROXYGRAPHICS
 70
               0
  9
$MEASUREMENT
 70
               1
  9
$CELWEIGHT
370
               0
  9
$ENDCAPS
280
               0
  9
$JOINSTYLE
280
               0
  9
$LWDISPLAY
290
               1
  9
$INSUNITS
 70
               4
  9
$HYPERLINKBASE
  1

  9
$STYLESHEET
  1

  9
$XEDIT
290
               1
  9
$CEPSNTYPE
380
               0
  9
$PSTYLEMODE
290
               1
  9
$FINGERPRINTGUID
  2

  9
$VERSIONGUID
  2

  9
$EXTNAMES
290
               1
  9
$PSVPSCALE
 40
0.0
  0
ENDSEC
  0
SECTION
  2
CLASSES
  0
CLASS
  1
LWPOLYLINE
  2
AcDbPolyline
  3
AutoCAD 2000
 90
        0
280
               0
281
               1
  0
CLASS
  1
IMAGE
  2
AcDbRasterImage
  3
ISM
 90
      127
280
               0
281
               1
  0
CLASS
  1
OLE2FRAME
  2
AcDbOle2Frame
  3
AutoCAD 2000
 90
        0
280
               0
281
               1
  0
CLASS
  1
HATCH
  2
AcDbHatch
  3
AutoCAD 2000
 90
        0
280
               0
281
               1
  0
CLASS
  1
DICTIONARYVAR
  2
AcDbDictionaryVar
  3
AutoCAD 2000
 90
        0
280
               0
281
               0
  0
CLASS
  1
RASTERVARIABLES
  2
AcDbRasterVariables
  3
ISM
 90
        0
280
               0
281
               0
  0
CLASS
  1
IMAGEDEF
  2
AcDbRasterImageDef
  3
ISM
 90
        0
280
               0
281
               0
  0
CLASS
  1
IMAGEDEF_REACTOR
  2
AcDbRasterImageDefReactor
  3
ISM
 90
        1
280
               0
281
               0
  0
CLASS
  1
IDBUFFER
  2
AcDbIdBuffer
  3
AutoCAD 2000
 90
        0
280
               0
281
               0
  0
CLASS
  1
SPATIAL_FILTER
  2
AcDbSpatialFilter
  3
AutoCAD 2000
 90
        0
280
               0
281
               0
  0
CLASS
  1
XRECORD
  2
AcDbXrecord
  3
AutoCAD 2000
 90
        0
280
               0
281
               0
  0
CLASS
  1
SORTENTSTABLE
  2
AcDbSortentsTable
  3
AutoCAD 2000
 90
        0
280
               0
281
               0
  0
CLASS
  1
LAYER_INDEX
  2
AcDbLayerIndex
  3
AutoCAD 2000
 90
        0
280
               0
281
               0
  0
CLASS
  1
SPATIAL_INDEX
  2
AcDbSpatialIndex
  3
AutoCAD 2000
 90
        0
280
               0
281
               0
  0
CLASS
  1
OBJECT_PTR
  2
CAseDLPNTableRecord
  3
"ASE-LPNTableRecord"
 90
        1
280
               0
281
               0
  0
CLASS
  1
LAYOUT
  2
AcDbLayout
  3
AutoCAD 2000
 90
        0
280
               0
281
               0
  0
CLASS
  1
PLOTSETTINGS
  2
AcDbPlotSettings
  3
AutoCAD 2000
 90
        0
280
               0
281
               0
  0
CLASS
  1
ACDBDICTIONARYWDFLT
  2
AcDbDictionaryWithDefault
  3
AutoCAD 2000
 90
        0
280
               0
281
               0
  0
CLASS
  1
ACDBPLACEHOLDER
  2
AcDbPlaceHolder
  3
AutoCAD 2000
 90
        0
280
               0
281
               0
  0
ENDSEC
  0
SECTION
  2
TABLES
  0
TABLE
  2
VPORT
  5
7
100
AcDbSymbolTable
 70
               1
  0
VPORT
  5
15
100
AcDbSymbolTableRecord
100
AcDbViewportTableRecord
  2
*ACTIVE
 70
               0
 10
0.0
 20
0.0
 11
1.0
 21
1.0
 12
0.0
 22
-12.764114914906713
 13
0.0
 23
0.0
 14
1.0
 24
1.0
 15
0.0
 25
0.0
 16
0.0
 26
0.0
 36
1.0
 17
0.0
 27
0.0
 37
0.0
 40
2837.5228151124124
 41
0.688564
 42
50.0
 43
0.0
 44
0.0
 50
0.0
 51
0.0
 71
               0
 72
            2000
 73
               1
 74
               1
 75
               0
 76
               0
 77
               0
 78
               0
281
               0
 65
               0
110
0.0
120
0.0
130
0.0
111
1.0
121
0.0
131
0.0
112
0.0
122
1.0
132
0.0
345
0
346
0
 79
               0
146
0.0
  0
ENDTAB
  0
TABLE
  2
LTYPE
  5
4
100
AcDbSymbolTable
 70
              17
  0
LTYPE
  5
11
100
AcDbSymbolTableRecord
100
AcDbLinetypeTableRecord
  2
ByBlock
 70
              64
  3

 72
              65
 73
               0
 40
0.0
  0
LTYPE
  5
12
100
AcDbSymbolTableRecord
100
AcDbLinetypeTableRecord
  2
ByLayer
 70
              64
  3

 72
              65
 73
               0
 40
0.0
  0
LTYPE
  5
13
100
AcDbSymbolTableRecord
100
AcDbLinetypeTableRecord
  2
Continuous
 70
              64
  3
Solid line
 72
              65
 73
               0
 40
0.0
  0
LTYPE
  5
3C
100
AcDbSymbolTableRecord
100
AcDbLinetypeTableRecord
  2
STYLE_01
 70
               0
  3

 72
              65
 73
               4
 40
0.3999999999999999
 49
0.25
 74
               0
 49
-0.05
 74
               0
 49
0.05
 74
               0
 49
-0.05
 74
               0
  0
LTYPE
  5
3D
100
AcDbSymbolTableRecord
100
AcDbLinetypeTableRecord
  2
STYLE_02
 70
               0
  3

 72
              65
 73
               2
 40
0.6944250000000001
 49
0.48607
 74
               0
 49
-0.2083550000000001
 74
               0
  0
LTYPE
  5
3E
100
AcDbSymbolTableRecord
100
AcDbLinetypeTableRecord
  2
STYLE_03
 70
               0
  3

 72
              65
 73
               2
 40
1.25
 49
1.0416400000000001
 74
               0
 49
-0.2083599999999999
 74
               0
  0
LTYPE
  5
3F
100
AcDbSymbolTableRecord
100
AcDbLinetypeTableRecord
  2
STYLE_04
 70
               0
  3

 72
              65
 73
               2
 40
1.5277099999999999
 49
1.3194249999999998
 74
               0
 49
-0.208285
 74
               0
  0
LTYPE
  5
40
100
AcDbSymbolTableRecord
100
AcDbLinetypeTableRecord
  2
STYLE_05
 70
               0
  3

 72
              65
 73
               2
 40
0.20828
 49
0.069425
 74
               0
 49
-0.138855
 74
               0
  0
LTYPE
  5
41
100
AcDbSymbolTableRecord
100
AcDbLinetypeTableRecord
  2
STYLE_06
 70
               0
  3

 72
              65
 73
               4
 40
1.0416400000000001
 49
0.625
 74
               0
 49
-0.20828
 74
               0
 49
0.06943
 74
               0
 49
-0.13893
 74
               0
  0
LTYPE
  5
42
100
AcDbSymbolTableRecord
100
AcDbLinetypeTableRecord
  2
STYLE_07
 70
               0
  3

 72
              65
 73
               6
 40
1.875
 49
0.625
 74
               0
 49
-0.20828
 74
               0
 49
0.6250000000000001
 74
               0
 49
-0.2083599999999999
 74
               0
 49
0.06943
 74
               0
 49
-0.1389299999999999
 74
               0
  0
LTYPE
  5
43
100
AcDbSymbolTableRecord
100
AcDbLinetypeTableRecord
  2
STYLE_08
 70
               0
  3

 72
              65
 73
               6
 40
1.25
 49
0.625
 74
               0
 49
-0.20828
 74
               0
 49
0.06943
 74
               0
 49
-0.13893
 74
               0
 49
0.0694299999999999
 74
               0
 49
-0.13893
 74
               0
  0
LTYPE
  5
44
100
AcDbSymbolTableRecord
100
AcDbLinetypeTableRecord
  2
STYLE_09
 70
               0
  3

 72
              65
 73
               4
 40
5.0
 49
3.75
 74
               0
 49
-0.2777849999999998
 74
               0
 49
0.6944300000000003
 74
               0
 49
-0.2777849999999998
 74
               0
  0
LTYPE
  5
45
100
AcDbSymbolTableRecord
100
AcDbLinetypeTableRecord
  2
STYLE_10
 70
               0
  3

 72
              65
 73
               6
 40
5.9375
 49
3.75
 74
               0
 49
-0.2777849999999998
 74
               0
 49
0.6944300000000003
 74
               0
 49
-0.2777849999999998
 74
               0
 49
0.625
 74
               0
 49
-0.3125
 74
               0
  0
LTYPE
  5
46
100
AcDbSymbolTableRecord
100
AcDbLinetypeTableRecord
  2
STYLE_11
 70
               0
  3

 72
              65
 73
               2
 40
0.0694444881889764
 49
0.0347222440944882
 74
               0
 49
-0.0347222440944882
 74
               0
  0
LTYPE
  5
47
100
AcDbSymbolTableRecord
100
AcDbLinetypeTableRecord
  2
STYLE_12
 70
               0
  3

 72
              65
 73
               2
 40
0.3937007874015748
 49
0.1968503937007874
 74
               0
 49
-0.1968503937007874
 74
               0
  0
LTYPE
  5
48
100
AcDbSymbolTableRecord
100
AcDbLinetypeTableRecord
  2
STYLE_13
 70
               0
  3

 72
              65
 73
               2
 40
0.5905511811023622
 49
0.2952755905511811
 74
               0
 49
-0.2952755905511811
 74
               0
  0
LTYPE
  5
49
100
AcDbSymbolTableRecord
100
AcDbLinetypeTableRecord
  2
STYLE_14
 70
               0
  3

 72
              65
 73
               2
 40
1.9685039370078738
 49
0.9842519685039369
 74
               0
 49
-0.9842519685039369
 74
               0
  0
ENDTAB
  0
TABLE
  2
LAYER
  5
2
100
AcDbSymbolTable
 70
               5
  0
LAYER
  5
14
100
AcDbSymbolTableRecord
100
AcDbLayerTableRecord
  2
0
 70
               0
 62
               7
  6
Continuous
290
               1
370
              -3
390
1D
  0
LAYER
  5
4A
100
AcDbSymbolTableRecord
100
AcDbLayerTableRecord
  2
Defpoints
 70
               0
 62
               7
  6
Continuous
290
               0
370
              -3
390
1D
  0
LAYER
  5
4B
100
AcDbSymbolTableRecord
100
AcDbLayerTableRecord
  2
template
 70
               0
 62
               7
  6
Continuous
290
               1
370
              -3
390
1D
  0
LAYER
  5
4C
100
AcDbSymbolTableRecord
100
AcDbLayerTableRecord
  2
notes
 70
               0
 62
               7
  6
Continuous
290
               1
370
              -3
390
1D
  0
LAYER
  5
4D
100
AcDbSymbolTableRecord
100
AcDbLayerTableRecord
  2
FAN70-0101
 70
               0
 62
               7
  6
Continuous
290
               1
370
              -3
390
1D
  0
ENDTAB
  0
TABLE
  2
STYLE
  5
3
100
AcDbSymbolTable
 70
               2
  0
STYLE
  5
17
100
AcDbSymbolTableRecord
100
AcDbTextStyleTableRecord
  2
Standard
 70
               0
 40
0.0
 41
1.0
 50
0.0
 71
               0
 42
0.0
  3
txt
  4
BIGFONT.SHX
  0
STYLE
  5
3B
100
AcDbSymbolTableRecord
100
AcDbTextStyleTableRecord
  2
ＭＳ ゴシック
 70
               0
 40
0.0
 41
1.0
 50
0.0
 71
               0
 42
0.0
  3

  4
ＭＳ ゴシック
1001
ACAD
1000
ＭＳ ゴシック
1071
        0
  0
ENDTAB
  0
TABLE
  2
VIEW
  5
5
100
AcDbSymbolTable
 70
               0
  0
ENDTAB
  0
TABLE
  2
UCS
  5
6
100
AcDbSymbolTable
 70
               0
  0
ENDTAB
  0
TABLE
  2
APPID
  5
8
100
AcDbSymbolTable
 70
               1
  0
APPID
  5
16
100
AcDbSymbolTableRecord
100
AcDbRegAppTableRecord
  2
ACAD
 70
               0
  0
ENDTAB
  0
TABLE
  2
DIMSTYLE
  5
9
100
AcDbSymbolTable
 70
               3
100
AcDbDimStyleTable
 71
               0
  0
DIMSTYLE
105
18
100
AcDbSymbolTableRecord
100
AcDbDimStyleTableRecord
  2
Standard
 70
               0
  3

  4

 40
1.0
 41
0.18
 42
0.0625
 43
0.38
 44
0.18
 45
0.0
 46
0.0
 47
0.0
 48
0.0
 71
               0
 72
               0
 73
               1
 74
               1
 75
               0
 76
               0
 77
               0
 78
               0
 79
               0
140
0.18
141
0.09
142
0.0
143
25.399999999999999
144
1.0
145
0.0
146
1.0
147
0.09
148
0.0
170
               0
171
               2
172
               0
173
               0
174
               0
175
               0
176
               0
177
               0
178
               0
179
               0
271
               4
272
               4
273
               2
274
               2
275
               0
276
               0
277
               2
278
              46
279
               0
280
               0
281
               0
282
               0
283
               1
284
               0
285
               0
286
               0
288
               0
289
               3
340
17
341
0
342
0
343
0
344
0
371
              -2
372
              -2
  0
DIMSTYLE
105
56
100
AcDbSymbolTableRecord
100
AcDbDimStyleTableRecord
  2
tfrom線あり
 70
               0
  3
<>
  4
[]
 40
1.0
 41
3.999755859375
 42
24.999999999999996
 43
0.9999999999999999
 44
0.0
 45
0.0
 46
0.0
 47
0.0
 48
0.0
 71
               0
 72
               0
 73
               0
 74
               0
 75
               0
 76
               0
 77
               1
 78
              11
 79
               0
140
24.432617187500004
141
0.0
142
0.0
143
1.0
144
1.0
145
0.0
146
1.0
147
0.4999999999999999
148
0.0
170
               0
171
               1
172
               0
173
               0
174
               1
175
               0
176
               0
177
               0
178
               0
179
               2
271
               1
272
               1
273
               2
274
               2
275
               0
276
               2
277
               2
278
              46
279
               0
280
               0
281
               0
282
               0
283
               1
284
              11
285
              11
286
              11
288
               0
289
               0
340
3B
341
4E
342
4E
343
0
344
0
371
              -2
372
              -2
  0
DIMSTYLE
105
5B
100
AcDbSymbolTableRecord
100
AcDbDimStyleTableRecord
  2
JIS
 70
               0
  3
<>
  4
[]
 40
1.0
 41
31.75
 42
0.0
 43
6.9999999999999396
 44
19.999999999996199
 45
0.0
 46
0.0
 47
0.0
 48
0.0
 71
               0
 72
               0
 73
               0
 74
               0
 75
               0
 76
               0
 77
               1
 78
              11
 79
               0
140
24.432617187500004
141
0.0
142
0.0
143
1.0
144
1.0
145
0.0
146
1.0
147
1.00000000000108
148
0.0
170
               0
171
               1
172
               0
173
               0
174
               1
175
               0
176
               0
177
               0
178
               0
179
               2
271
               1
272
               1
273
               2
274
               2
275
               0
276
               2
277
               2
278
              46
279
               0
280
               0
281
               0
282
               0
283
               1
284
              11
285
              11
286
              11
288
               0
289
               0
340
3B
341
57
342
57
343
0
344
0
371
              -2
372
              -2
  0
ENDTAB
  0
TABLE
  2
BLOCK_RECORD
  5
1
100
AcDbSymbolTable
 70
              26
  0
BLOCK_RECORD
  5
A
100
AcDbSymbolTableRecord
100
AcDbBlockTableRecord
  2
*MODEL_SPACE
340
20
  0
BLOCK_RECORD
  5
B
100
AcDbSymbolTableRecord
100
AcDbBlockTableRecord
  2
*PAPER_SPACE
340
21
  0
BLOCK_RECORD
  5
4E
100
AcDbSymbolTableRecord
100
AcDbBlockTableRecord
  2
_DOT
340
0
  0
BLOCK_RECORD
  5
57
100
AcDbSymbolTableRecord
100
AcDbBlockTableRecord
  2
VW_FILLEDARROW
340
0
  0
BLOCK_RECORD
  5
23
100
AcDbSymbolTableRecord
100
AcDbBlockTableRecord
  2
グループ
340
0
102
{BLKREFS
331
18E
102
}
  0
BLOCK_RECORD
  5
24
100
AcDbSymbolTableRecord
100
AcDbBlockTableRecord
  2
*D3
340
0
  0
BLOCK_RECORD
  5
25
100
AcDbSymbolTableRecord
100
AcDbBlockTableRecord
  2
*D4
340
0
  0
BLOCK_RECORD
  5
26
100
AcDbSymbolTableRecord
100
AcDbBlockTableRecord
  2
*D5
340
0
  0
BLOCK_RECORD
  5
27
100
AcDbSymbolTableRecord
100
AcDbBlockTableRecord
  2
*D6
340
0
  0
BLOCK_RECORD
  5
28
100
AcDbSymbolTableRecord
100
AcDbBlockTableRecord
  2
*D7
340
0
  0
BLOCK_RECORD
  5
29
100
AcDbSymbolTableRecord
100
AcDbBlockTableRecord
  2
*D8
340
0
  0
BLOCK_RECORD
  5
2A
100
AcDbSymbolTableRecord
100
AcDbBlockTableRecord
  2
*D9
340
0
  0
BLOCK_RECORD
  5
2B
100
AcDbSymbolTableRecord
100
AcDbBlockTableRecord
  2
*D10
340
0
  0
BLOCK_RECORD
  5
2C
100
AcDbSymbolTableRecord
100
AcDbBlockTableRecord
  2
*D11
340
0
  0
BLOCK_RECORD
  5
2D
100
AcDbSymbolTableRecord
100
AcDbBlockTableRecord
  2
*D12
340
0
  0
BLOCK_RECORD
  5
2E
100
AcDbSymbolTableRecord
100
AcDbBlockTableRecord
  2
*D13
340
0
  0
BLOCK_RECORD
  5
2F
100
AcDbSymbolTableRecord
100
AcDbBlockTableRecord
  2
*D14
340
0
  0
BLOCK_RECORD
  5
30
100
AcDbSymbolTableRecord
100
AcDbBlockTableRecord
  2
*D15
340
0
  0
BLOCK_RECORD
  5
31
100
AcDbSymbolTableRecord
100
AcDbBlockTableRecord
  2
*D16
340
0
  0
BLOCK_RECORD
  5
32
100
AcDbSymbolTableRecord
100
AcDbBlockTableRecord
  2
*D17
340
0
  0
BLOCK_RECORD
  5
33
100
AcDbSymbolTableRecord
100
AcDbBlockTableRecord
  2
*D18
340
0
  0
BLOCK_RECORD
  5
34
100
AcDbSymbolTableRecord
100
AcDbBlockTableRecord
  2
*D19
340
0
  0
BLOCK_RECORD
  5
35
100
AcDbSymbolTableRecord
100
AcDbBlockTableRecord
  2
*D20
340
0
  0
BLOCK_RECORD
  5
36
100
AcDbSymbolTableRecord
100
AcDbBlockTableRecord
  2
*D21
340
0
  0
BLOCK_RECORD
  5
37
100
AcDbSymbolTableRecord
100
AcDbBlockTableRecord
  2
グループ-1
340
0
102
{BLKREFS
331
1B5
102
}
  0
BLOCK_RECORD
  5
38
100
AcDbSymbolTableRecord
100
AcDbBlockTableRecord
  2
グループ-2
340
0
102
{BLKREFS
331
1B9
102
}
  0
BLOCK_RECORD
  5
39
100
AcDbSymbolTableRecord
100
AcDbBlockTableRecord
  2
*D24
340
0
  0
BLOCK_RECORD
  5
3A
100
AcDbSymbolTableRecord
100
AcDbBlockTableRecord
  2
*D25
340
0
  0
ENDTAB
  0
ENDSEC
  0
SECTION
  2
BLOCKS
  0
BLOCK
  5
D
100
AcDbEntity
  8
0
390
0
100
AcDbBlockBegin
  2
*MODEL_SPACE
 70
               0
 10
0.0
 20
0.0
 30
0.0
  3
*MODEL_SPACE
  1

  0
ENDBLK
  5
E
100
AcDbEntity
  8
0
390
0
100
AcDbBlockEnd
  0
BLOCK
  5
F
100
AcDbEntity
 67
               1
  8
0
390
0
100
AcDbBlockBegin
  2
*PAPER_SPACE
 70
               0
 10
0.0
 20
0.0
 30
0.0
  3
*PAPER_SPACE
  1

  0
ENDBLK
  5
10
100
AcDbEntity
 67
               1
  8
0
390
0
100
AcDbBlockEnd
  0
BLOCK
  5
4F
100
AcDbEntity
  8
0
390
0
100
AcDbBlockBegin
  2
_DOT
 70
               0
 10
0.0
 20
0.0
 30
0.0
  3
_DOT
  1

  0
POLYLINE
  5
50
100
AcDbEntity
  8
0
370
              -2
390
0
  6
ByBlock
 62
               0
100
AcDb2dPolyline
 66
               1
 10
0.0
 20
0.0
 30
0.0
 70
               1
 40
0.5
 41
0.5
  0
VERTEX
  5
51
100
AcDbEntity
  8
0
370
              -2
390
0
  6
ByBlock
 62
               0
100
AcDbVertex
100
AcDb2dVertex
 10
-0.25
 20
0.0
 30
0.0
 42
1.0
  0
VERTEX
  5
52
100
AcDbEntity
  8
0
370
              -2
390
0
  6
ByBlock
 62
               0
100
AcDbVertex
100
AcDb2dVertex
 10
0.25
 20
0.0
 30
0.0
 42
1.0
  0
SEQEND
  5
53
100
AcDbEntity
  8
0
390
0
  0
LINE
  5
54
100
AcDbEntity
  8
0
370
              -2
390
0
  6
ByBlock
 62
               0
100
AcDbLine
 10
-0.5
 20
0.0
 30
0.0
 11
-1.0
 21
0.0
 31
0.0
  0
ENDBLK
  5
55
100
AcDbEntity
  8
0
390
0
100
AcDbBlockEnd
  0
BLOCK
  5
58
100
AcDbEntity
  8
0
370
              -2
390
0
  6
ByBlock
 62
               0
100
AcDbBlockBegin
  2
VW_FILLEDARROW
 70
               0
 10
0.0
 20
0.0
 30
0.0
  3
VW_FILLEDARROW
  1

  0
SOLID
  5
59
100
AcDbEntity
  8
0
370
              -2
390
0
 62
               0
100
AcDbTrace
 10
0.0
 20
0.0
 30
0.0
 11
-0.9921874999999999
 21
-0.2658558393652545
 31
0.0
 12
-0.9921874999999999
 22
0.2658558393652548
 32
0.0
 13
-0.9921874999999999
 23
0.2658558393652548
 33
0.0
  0
ENDBLK
  5
5A
100
AcDbEntity
  8
0
390
0
100
AcDbBlockEnd
  0
BLOCK
  5
5C
100
AcDbEntity
  8
template
390
0
100
AcDbBlockBegin
  2
グループ
 70
               0
 10
0.0
 20
0.0
 30
0.0
  3
グループ
  1

  0
LWPOLYLINE
  5
5D
100
AcDbEntity
  8
0
370
              15
390
0
  6
Continuous
 62
               7
100
AcDbPolyline
 90
        8
 70
             129
 10
887.42850780307481
 20
-1374.4897210236859
 10
887.42850780307481
 20
-1380.4871097172618
 10
877.92731088507162
 20
-1380.4871097172618
 10
877.92731088507162
 20
-1404.9380729807706
 10
869.57193362328871
 20
-1404.9380729807706
 10
869.57193362328871
 20
-1380.4871097172618
 10
860.23897667697929
 20
-1380.4871097172618
 10
860.23897667697929
 20
-1374.4897210236859
  0
LWPOLYLINE
  5
5E
100
AcDbEntity
  8
0
370
              15
390
0
  6
Continuous
 62
               7
100
AcDbPolyline
 90
      101
 70
             128
 10
900.15679963363186
 20
-1375.2179695166224
 10
900.17214966241488
 20
-1375.2136087599379
 42
-0.0222221607815647
 10
900.46215423908791
 20
-1375.1449842946927
 10
900.47794800308111
 20
-1375.1419808715957
 42
-0.0146883565585232
 10
900.74065070830568
 20
-1375.0999776846463
 42
-0.0127458844183822
 10
901.0052896754587
 20
-1375.0724407165737
 10
901.06774475377142
 20
-1375.0675472939856
 42
-0.0198099018564441
 10
901.45859386324742
 20
-1375.0524621365889
 10
901.51040533269213
 20
-1375.052515912254
 42
-0.0147617382762771
 10
902.00502879366104
 20
-1375.0676359374986
 10
902.07772024854614
 20
-1375.072008544387
 42
-0.0162624549002029
 10
902.46787387800578
 20
-1375.108241419659
 10
902.58940626927017
 20
-1375.1235279786561
 42
-0.0080020874659354
 10
902.73498530035658
 20
-1375.1442108259239
 10
902.7733047709321
 20
-1375.1502821037318
 42
-0.0053821929683978
 10
902.84178887626649
 20
-1375.1618896275565
 10
902.11538317706777
 20
-1377.3428180832705
 42
0.0108667757394963
 10
902.04806610693538
 20
-1377.3296309680502
 10
902.01059808374748
 20
-1377.3231332254561
 42
0.0170663203307341
 10
901.8673812968334
 20
-1377.3033036281645
 10
901.79950596414892
 20
-1377.2962564575769
 42
0.022016237527672
 10
901.51912655629246
 20
-1377.2795740968068
 10
901.44127098924127
 20
-1377.2783747295402
 42
0.028260691578763
 10
901.10563466566362
 20
-1377.2921780065094
 10
901.06172139189073
 20
-1377.2964779965132
 42
0.0169677213689564
 10
900.8157968969324
 20
-1377.3290150460648
 42
0.0190576269865196
 10
900.57288893435236
 20
-1377.3791619181713
 10
900.56662974624157
 20
-1377.3807048922806
 42
0.0213685642850924
 10
900.31624526176211
 20
-1377.4539051773861
 10
900.31075536684762
 20
-1377.4557681734445
 42
0.023759529759952
 10
900.05726048195004
 20
-1377.5554526953397
 10
900.05215840791925
 20
-1377.5577444708183
 42
0.0261857468820106
 10
899.79998763168851
 20
-1377.6872808081932
 10
899.78956144260508
 20
-1377.6933462826596
 42
0.0272553062017694
 10
899.5531316673638
 20
-1377.8487184886053
 10
899.5183686538544
 20
-1377.8743796366975
 42
0.0325996893174579
 10
899.3682133102028
 20
-1378.001127509669
 10
899.34450388107825
 20
-1378.0239455381832
 42
0.0138050960636041
 10
899.25262072486953
 20
-1378.1173951997334
 42
0.0125280103795566
 10
899.16577819203962
 20
-1378.2155585263292
 10
899.14209774712765
 20
-1378.2437170245209
 42
0.0205218024740018
 10
899.01699767161551
 20
-1378.4055103387479
 10
898.99453133112684
 20
-1378.437170068577
 42
0.0163110129586428
 10
898.83882095187516
 20
-1378.6725005036476
 10
898.83609705582455
 20
-1378.6769242656324
 42
0.0131897341900631
 10
898.68929653491591
 20
-1378.930056358002
 10
898.68759643955218
 20
-1378.9331745971326
 42
0.0107895576063121
 10
898.54981973734573
 20
-1379.199389806759
 10
898.5490868478164
 20
-1379.2008840394142
 42
0.0091371507217416
 10
898.42060689916673
 20
-1379.4754092371741
 10
898.39086126775771
 20
-1379.5421157443325
 42
0.0135418326356718
 10
898.21914732868277
 20
-1379.9570535296095
 10
898.18554252025513
 20
-1380.0449196718735
 42
0.0092834542406019
 10
898.01431346033087
 20
-1380.5188181701878
 10
897.98869633261779
 20
-1380.5940592399677
 42
0.005426104357676
 10
897.8810581843203
 20
-1380.9218232130465
 10
897.86353219816624
 20
-1380.9772113752024
 42
0.0008225090816255
 10
897.79486214631288
 20
-1381.1954801334257
 10
896.81017301437942
 20
-1384.2203714266823
 10
900.04279685445317
 20
-1384.2203714266823
 10
899.53860442459973
 20
-1386.1248497250347
 10
896.28254814261641
 20
-1386.1248497250347
 10
890.45339911026258
 20
-1404.9380727910395
 10
888.62830149995239
 20
-1404.9380727910395
 10
894.46297953545331
 20
-1386.1248497250347
 10
892.05786316641297
 20
-1386.1248497250347
 10
892.56205559626642
 20
-1384.2203714266823
 10
894.99060440721632
 20
-1384.2203714266823
 10
895.85075932540508
 20
-1381.5839584259834
 42
-0.0005863560650025
 10
895.88749400356892
 20
-1381.4671320058169
 10
895.96358183726886
 20
-1381.2261397063062
 42
-0.0087522378926788
 10
896.16304998072587
 20
-1380.6308636191593
 10
896.25531425614099
 20
-1380.3707234506417
 42
-0.0077400953830383
 10
896.51324791527031
 20
-1379.6777187730986
 10
896.52901288684905
 20
-1379.637287889713
 42
-0.0082369946330594
 10
896.77609735746114
 20
-1379.0332088235168
 42
-0.0085725238362489
 10
897.04334345346786
 20
-1378.4377827842213
 10
897.14497305447071
 20
-1378.2213616822462
 42
-0.0168109410597172
 10
897.43191748320146
 20
-1377.6601541561402
 10
897.55776087368679
 20
-1377.4331901230951
 42
-0.0007817726862376
 10
897.61204522371713
 20
-1377.3356458781118
 10
897.61217352972994
 20
-1377.3354161693833
 42
-0.0036626142161349
 10
897.6670613937556
 20
-1377.2388182894067
 42
-0.0080221150672844
 10
897.72418564916472
 20
-1377.1435390546499
 10
897.75488560052349
 20
-1377.0941481055315
 42
-0.0202139325568902
 10
897.88254134033173
 20
-1376.9061665048482
 10
897.93660880551784
 20
-1376.8330876406094
 42
-0.0249323791798366
 10
898.19577159923824
 20
-1376.5170423984537
 10
898.219911413364
 20
-1376.4904281255426
 42
-0.0242132121540895
 10
898.55959215490702
 20
-1376.1505446393378
 10
898.6075037276546
 20
-1376.1070355031543
 42
-0.0251017527861381
 10
898.89148542829741
 20
-1375.8740427573875
 10
898.89293090511035
 20
-1375.8729734998092
 42
-0.0130868069034236
 10
899.19119155506849
 20
-1375.6641930312662
 10
899.19275337420834
 20
-1375.663159590993
 42
-0.0290329526392245
 10
899.5038645156045
 20
-1375.4823340893618
 10
899.53371007759051
 20
-1375.4672317065222
 42
-0.0160250190048226
 10
899.79961449135521
 20
-1375.3432155963092
 42
-0.0267600374785037
 10
900.07489056882332
 20
-1375.2424672757606
 10
900.10162648834489
 20
-1375.2342747169348
 42
-0.0049981587669928
 10
900.15679963363186
 20
-1375.2179695166224
 42
-0.0049981587669928
  0
LWPOLYLINE
  5
5F
100
AcDbEntity
  8
0
370
              15
390
0
  6
Continuous
 62
               7
100
AcDbPolyline
 90
      118
 70
             128
 10
919.97116719807877
 20
-1384.2943547545096
 10
921.84628912257813
 20
-1384.2943547545096
 10
921.00825021697824
 20
-1386.9759212809097
 42
-0.001058722920454
 10
921.03970603261746
 20
-1386.9390167474758
 10
921.09790012318217
 20
-1386.8710344913786
 42
-0.0071874740413046
 10
921.24827534127417
 20
-1386.7003937993563
 10
921.38999811454244
 20
-1386.5441576580365
 42
-0.0148118053513779
 10
921.84012740725132
 20
-1386.0765438120272
 10
921.92734974215728
 20
-1385.9911464911695
 42
-0.0086273358692718
 10
922.26289854316542
 20
-1385.6737708571534
 10
922.3067322593879
 20
-1385.6337212128235
 42
-0.0103138323115631
 10
922.56475596162488
 20
-1385.407558075482
 10
922.61053036796045
 20
-1385.3690760282147
 42
-0.006020674856825
 10
922.78337843206418
 20
-1385.2272813774675
 10
922.78540956295103
 20
-1385.2256556718355
 42
-0.0067069027297753
 10
922.95770237761258
 20
-1385.0915050380413
 10
922.96025114353631
 20
-1385.0895748681678
 42
-0.0076184352054663
 10
923.13115640940987
 20
-1384.9641999929222
 42
-0.0089652861668072
 10
923.30611737214338
 20
-1384.84456673259
 10
923.34246909228841
 20
-1384.820655519107
 42
-0.0156916245939222
 10
923.5384285894495
 20
-1384.7003930326323
 42
-0.0023299011068919
 10
923.73869063340305
 20
-1384.5872150931059
 10
923.75407476580926
 20
-1384.5786150980266
 42
-0.0107669341484305
 10
923.98831159090867
 20
-1384.4542149646779
 10
924.01057639198541
 20
-1384.4429982147271
 42
-0.0078058045901483
 10
924.29416650993403
 20
-1384.3056367590907
 10
924.30407359764729
 20
-1384.3010276312202
 42
-0.0181829330469664
 10
924.61438300226371
 20
-1384.1701638901243
 10
924.66843844483094
 20
-1384.1496487701806
 42
-0.0208411536030659
 10
925.01752341227996
 20
-1384.0335583076881
 10
925.03187951240284
 20
-1384.0294398627359
 42
-0.0222799817144682
 10
925.36059930632462
 20
-1383.9507982965943
 10
925.36948826956416
 20
-1383.9490862860087
 42
-0.0215509523880939
 10
925.68595923784142
 20
-1383.9021705974747
 10
925.72844119889464
 20
-1383.8977330706834
 42
-0.0182545924868517
 10
925.96254997819563
 20
-1383.881889245293
 10
926.00195099453572
 20
-1383.8806647002141
 42
-0.0072962856538462
 10
926.15787387423256
 20
-1383.8780953716916
 10
926.18697354481185
 20
-1383.8780405362879
 42
-0.0059227516317257
 10
926.28472304394961
 20
-1383.8790142480784
 10
926.31396526150627
 20
-1383.8796520146834
 42
-0.0011833111877694
 10
926.35321654515383
 20
-1383.8806010189917
 10
925.55782994954666
 20
-1386.4193349640907
 42
0.0143932051577483
 10
925.53142856719523
 20
-1386.4091359940451
 10
925.5241565947789
 20
-1386.4065647751881
 42
0.0234388603509833
 10
925.48232572884922
 20
-1386.3939455394734
 10
925.47364406593408
 20
-1386.3917645774677
 42
0.0199162742981114
 10
925.41335523185217
 20
-1386.3791478421322
 10
925.39254129404787
 20
-1386.3756506427042
 42
0.0293643550671276
 10
925.28946643528877
 20
-1386.3645005970511
 10
925.26478125456833
 20
-1386.3632889800324
 42
0.0214606686863714
 10
925.11164033861519
 20
-1386.3623504196148
 10
925.10226842779787
 20
-1386.3626953311591
 42
0.0167564054173993
 10
924.93074823668678
 20
-1386.3747723735273
 10
924.92228844393048
 20
-1386.3756537139543
 42
0.0137677553247413
 10
924.73493513065955
 20
-1386.4004030224989
 10
924.72758339115796
 20
-1386.4015809424659
 42
0.0118497261482781
 10
924.52708562705811
 20
-1386.4385982926547
 10
924.52093561980939
 20
-1386.4398851553751
 42
0.0106421143888609
 10
924.31005473252515
 20
-1386.4887175309498
 10
924.30514592413533
 20
-1386.489964873635
 42
0.0099746379704929
 10
924.08668745497062
 20
-1386.5501394019504
 10
924.02513941480254
 20
-1386.5684212805804
 42
0.0191613675859656
 10
923.68915495228487
 20
-1386.6823986608681
 10
923.60109517954299
 20
-1386.7160855711909
 42
0.0205274080144094
 10
923.21578840764084
 20
-1386.881913979018
 10
923.15813912565704
 20
-1386.9095819435913
 42
0.0181256912198751
 10
922.89986218499178
 20
-1387.0452657625683
 10
922.84690680168444
 20
-1387.0755833757792
 42
0.0140709242402873
 10
922.7019518670495
 20
-1387.1640780492173
 10
922.67570299843157
 20
-1387.1811348679325
 42
0.0086667884409482
 10
922.58677683688848
 20
-1387.2411375358156
 42
0.0036408192034625
 10
922.49934359883844
 20
-1387.30331839362
 10
922.46411672438649
 20
-1387.3287593395207
 42
0.0052260781275083
 10
922.30788802700158
 20
-1387.4440917261504
 10
922.29168117073584
 20
-1387.4563198367732
 42
0.0050024435898413
 10
922.10567782769112
 20
-1387.5996024050241
 10
922.09035967116176
 20
-1387.6116484274812
 42
0.013613871027649
 10
921.87991840284246
 20
-1387.7866149323893
 10
921.84625052704291
 20
-1387.8161939051088
 42
0.0172815186918372
 10
921.58184698537912
 20
-1388.0651905777336
 10
921.57928463953783
 20
-1388.0677763948793
 42
0.018940385799785
 10
921.32870284095929
 20
-1388.3405816596828
 10
921.29607134742764
 20
-1388.3789255911747
 42
0.0185044199499275
 10
921.10411490844263
 20
-1388.6221741723034
 42
0.0088565243898951
 10
920.9256548018152
 20
-1388.8756905924522
 10
920.91647682216569
 20
-1388.8892319722136
 42
0.0157195347234652
 10
920.73325621582853
 20
-1389.1787541815343
 10
920.687173273908
 20
-1389.2569063785377
 42
0.0095451879775554
 10
920.52208772376309
 20
-1389.5495010209065
 10
920.51093980483915
 20
-1389.570171693028
 42
0.0100351706251944
 10
920.3788960556742
 20
-1389.8272272535294
 42
0.0086935915423017
 10
920.25656490387837
 20
-1390.089060398938
 10
920.25324416246576
 20
-1390.0965027219056
 42
0.0072580174868649
 10
920.13289771051575
 20
-1390.3770947135006
 10
920.1296360772144
 20
-1390.3850147395065
 42
0.0060005122616345
 10
920.01043540887065
 20
-1390.6846244101146
 10
920.00722443053007
 20
-1390.6929859380166
 42
0.0049017786975175
 10
919.88832427167199
 20
-1391.0119149186223
 10
919.88515846528219
 20
-1391.0206678558511
 42
0.0039415167599378
 10
919.76572218723106
 20
-1391.3592099182486
 10
919.76259108457339
 20
-1391.3683131191406
 42
0.0031035838760425
 10
919.64178629888772
 20
-1391.7267529808919
 10
919.63867625435
 20
-1391.736173602289
 42
0.0025070747153511
 10
919.51577490304055
 20
-1392.1148208192142
 10
919.47848100660917
 20
-1392.2317124844858
 42
0.0029081910283904
 10
919.28646270880756
 20
-1392.8458761427471
 10
919.24565954028128
 20
-1392.9790993850534
 42
0.0009266453734212
 10
918.97724216592712
 20
-1393.8613238451076
 10
918.95635469331853
 20
-1393.9304357242377
 42
-0.0005809993666069
 10
918.6790180127349
 20
-1394.8442438308516
 10
918.61273621444946
 20
-1395.0617287630523
 42
-0.0012018708168205
 10
918.46575190503268
 20
-1395.539891427532
 10
918.41343205340729
 20
-1395.7086505685909
 42
-0.0002691059601752
 10
918.36986257229864
 20
-1395.8489181887398
 10
915.53690667400929
 20
-1404.9380727910395
 10
913.71891778203076
 20
-1404.9380727910395
 10
919.97116719807877
 20
-1384.2943547545096
  0
SPLINE
  5
60
100
AcDbEntity
  8
0
370
              15
390
0
  6
Continuous
 62
               7
100
AcDbSpline
210
0.0
220
0.0
230
1.0
 70
              13
 71
               2
 72
             782
 73
             779
 74
               0
 42
0.000001
 43
0.000001
 40
0.0
 40
0.0
 40
0.0
 40
1.0
 40
1.0
 40
2.0
 40
2.0
 40
3.0
 40
3.0
 40
4.0
 40
4.0
 40
5.0
 40
5.0
 40
6.0
 40
6.0
 40
7.0
 40
7.0
 40
8.0
 40
8.0
 40
9.0
 40
9.0
 40
10.0
 40
10.0
 40
11.0
 40
11.0
 40
12.0
 40
12.0
 40
13.0
 40
13.0
 40
14.0
 40
14.0
 40
15.0
 40
15.0
 40
16.0
 40
16.0
 40
17.0
 40
17.0
 40
18.0
 40
18.0
 40
19.0
 40
19.0
 40
20.0
 40
20.0
 40
21.0
 40
21.0
 40
22.0
 40
22.0
 40
23.0
 40
23.0
 40
24.0
 40
24.0
 40
25.0
 40
25.0
 40
26.0
 40
26.0
 40
27.0
 40
27.0
 40
28.0
 40
28.0
 40
29.0
 40
29.0
 40
30.0
 40
30.0
 40
31.0
 40
31.0
 40
32.0
 40
32.0
 40
33.0
 40
33.0
 40
34.0
 40
34.0
 40
35.0
 40
35.0
 40
36.0
 40
36.0
 40
37.0
 40
37.0
 40
38.0
 40
38.0
 40
39.0
 40
39.0
 40
40.0
 40
40.0
 40
41.0
 40
41.0
 40
42.0
 40
42.0
 40
43.0
 40
43.0
 40
44.0
 40
44.0
 40
45.0
 40
45.0
 40
46.0
 40
46.0
 40
47.0
 40
47.0
 40
48.0
 40
48.0
 40
49.0
 40
49.0
 40
50.0
 40
50.0
 40
51.0
 40
51.0
 40
52.0
 40
52.0
 40
53.0
 40
53.0
 40
54.0
 40
54.0
 40
55.0
 40
55.0
 40
56.0
 40
56.0
 40
57.0
 40
57.0
 40
58.0
 40
58.0
 40
59.0
 40
59.0
 40
60.0
 40
60.0
 40
61.0
 40
61.0
 40
62.0
 40
62.0
 40
63.0
 40
63.0
 40
64.0
 40
64.0
 40
65.0
 40
65.0
 40
66.0
 40
66.0
 40
67.0
 40
67.0
 40
68.0
 40
68.0
 40
69.0
 40
69.0
 40
70.0
 40
70.0
 40
71.0
 40
71.0
 40
72.0
 40
72.0
 40
73.0
 40
73.0
 40
74.0
 40
74.0
 40
75.0
 40
75.0
 40
76.0
 40
76.0
 40
77.0
 40
77.0
 40
78.0
 40
78.0
 40
79.0
 40
79.0
 40
80.0
 40
80.0
 40
81.0
 40
81.0
 40
82.0
 40
82.0
 40
83.0
 40
83.0
 40
84.0
 40
84.0
 40
85.0
 40
85.0
 40
86.0
 40
86.0
 40
87.0
 40
87.0
 40
88.0
 40
88.0
 40
89.0
 40
89.0
 40
90.0
 40
90.0
 40
91.0
 40
91.0
 40
92.0
 40
92.0
 40
93.0
 40
93.0
 40
94.0
 40
94.0
 40
95.0
 40
95.0
 40
96.0
 40
96.0
 40
97.0
 40
97.0
 40
98.0
 40
98.0
 40
99.0
 40
99.0
 40
100.0
 40
100.0
 40
101.0
 40
101.0
 40
102.0
 40
102.0
 40
103.0
 40
103.0
 40
104.0
 40
104.0
 40
105.0
 40
105.0
 40
106.0
 40
106.0
 40
107.0
 40
107.0
 40
108.0
 40
108.0
 40
109.0
 40
109.0
 40
110.0
 40
110.0
 40
111.0
 40
111.0
 40
112.0
 40
112.0
 40
113.0
 40
113.0
 40
114.0
 40
114.0
 40
115.0
 40
115.0
 40
116.0
 40
116.0
 40
117.0
 40
117.0
 40
118.0
 40
118.0
 40
119.0
 40
119.0
 40
120.0
 40
120.0
 40
121.0
 40
121.0
 40
122.0
 40
122.0
 40
123.0
 40
123.0
 40
124.0
 40
124.0
 40
125.0
 40
125.0
 40
126.0
 40
126.0
 40
127.0
 40
127.0
 40
128.0
 40
128.0
 40
129.0
 40
129.0
 40
130.0
 40
130.0
 40
131.0
 40
131.0
 40
132.0
 40
132.0
 40
133.0
 40
133.0
 40
134.0
 40
134.0
 40
135.0
 40
135.0
 40
136.0
 40
136.0
 40
137.0
 40
137.0
 40
138.0
 40
138.0
 40
139.0
 40
139.0
 40
140.0
 40
140.0
 40
141.0
 40
141.0
 40
142.0
 40
142.0
 40
143.0
 40
143.0
 40
144.0
 40
144.0
 40
145.0
 40
145.0
 40
146.0
 40
146.0
 40
147.0
 40
147.0
 40
148.0
 40
148.0
 40
149.0
 40
149.0
 40
150.0
 40
150.0
 40
151.0
 40
151.0
 40
152.0
 40
152.0
 40
153.0
 40
153.0
 40
154.0
 40
154.0
 40
155.0
 40
155.0
 40
156.0
 40
156.0
 40
157.0
 40
157.0
 40
158.0
 40
158.0
 40
159.0
 40
159.0
 40
160.0
 40
160.0
 40
161.0
 40
161.0
 40
162.0
 40
162.0
 40
163.0
 40
163.0
 40
164.0
 40
164.0
 40
165.0
 40
165.0
 40
166.0
 40
166.0
 40
167.0
 40
167.0
 40
168.0
 40
168.0
 40
169.0
 40
169.0
 40
170.0
 40
170.0
 40
171.0
 40
171.0
 40
172.0
 40
172.0
 40
173.0
 40
173.0
 40
174.0
 40
174.0
 40
175.0
 40
175.0
 40
176.0
 40
176.0
 40
177.0
 40
177.0
 40
178.0
 40
178.0
 40
179.0
 40
179.0
 40
180.0
 40
180.0
 40
181.0
 40
181.0
 40
182.0
 40
182.0
 40
183.0
 40
183.0
 40
184.0
 40
184.0
 40
185.0
 40
185.0
 40
186.0
 40
186.0
 40
187.0
 40
187.0
 40
188.0
 40
188.0
 40
189.0
 40
189.0
 40
190.0
 40
190.0
 40
191.0
 40
191.0
 40
192.0
 40
192.0
 40
193.0
 40
193.0
 40
194.0
 40
194.0
 40
195.0
 40
195.0
 40
196.0
 40
196.0
 40
197.0
 40
197.0
 40
198.0
 40
198.0
 40
199.0
 40
199.0
 40
200.0
 40
200.0
 40
201.0
 40
201.0
 40
202.0
 40
202.0
 40
203.0
 40
203.0
 40
204.0
 40
204.0
 40
205.0
 40
205.0
 40
206.0
 40
206.0
 40
207.0
 40
207.0
 40
208.0
 40
208.0
 40
209.0
 40
209.0
 40
210.0
 40
210.0
 40
211.0
 40
211.0
 40
212.0
 40
212.0
 40
213.0
 40
213.0
 40
214.0
 40
214.0
 40
215.0
 40
215.0
 40
216.0
 40
216.0
 40
217.0
 40
217.0
 40
218.0
 40
218.0
 40
219.0
 40
219.0
 40
220.0
 40
220.0
 40
221.0
 40
221.0
 40
222.0
 40
222.0
 40
223.0
 40
223.0
 40
224.0
 40
224.0
 40
225.0
 40
225.0
 40
226.0
 40
226.0
 40
227.0
 40
227.0
 40
228.0
 40
228.0
 40
229.0
 40
229.0
 40
230.0
 40
230.0
 40
231.0
 40
231.0
 40
232.0
 40
232.0
 40
233.0
 40
233.0
 40
234.0
 40
234.0
 40
235.0
 40
235.0
 40
236.0
 40
236.0
 40
237.0
 40
237.0
 40
238.0
 40
238.0
 40
239.0
 40
239.0
 40
240.0
 40
240.0
 40
241.0
 40
241.0
 40
242.0
 40
242.0
 40
243.0
 40
243.0
 40
244.0
 40
244.0
 40
245.0
 40
245.0
 40
246.0
 40
246.0
 40
247.0
 40
247.0
 40
248.0
 40
248.0
 40
249.0
 40
249.0
 40
250.0
 40
250.0
 40
251.0
 40
251.0
 40
252.0
 40
252.0
 40
253.0
 40
253.0
 40
254.0
 40
254.0
 40
255.0
 40
255.0
 40
256.0
 40
256.0
 40
257.0
 40
257.0
 40
258.0
 40
258.0
 40
259.0
 40
259.0
 40
260.0
 40
260.0
 40
261.0
 40
261.0
 40
262.0
 40
262.0
 40
263.0
 40
263.0
 40
264.0
 40
264.0
 40
265.0
 40
265.0
 40
266.0
 40
266.0
 40
267.0
 40
267.0
 40
268.0
 40
268.0
 40
269.0
 40
269.0
 40
270.0
 40
270.0
 40
271.0
 40
271.0
 40
272.0
 40
272.0
 40
273.0
 40
273.0
 40
274.0
 40
274.0
 40
275.0
 40
275.0
 40
276.0
 40
276.0
 40
277.0
 40
277.0
 40
278.0
 40
278.0
 40
279.0
 40
279.0
 40
280.0
 40
280.0
 40
281.0
 40
281.0
 40
282.0
 40
282.0
 40
283.0
 40
283.0
 40
284.0
 40
284.0
 40
285.0
 40
285.0
 40
286.0
 40
286.0
 40
287.0
 40
287.0
 40
288.0
 40
288.0
 40
289.0
 40
289.0
 40
290.0
 40
290.0
 40
291.0
 40
291.0
 40
292.0
 40
292.0
 40
293.0
 40
293.0
 40
294.0
 40
294.0
 40
295.0
 40
295.0
 40
296.0
 40
296.0
 40
297.0
 40
297.0
 40
298.0
 40
298.0
 40
299.0
 40
299.0
 40
300.0
 40
300.0
 40
301.0
 40
301.0
 40
302.0
 40
302.0
 40
303.0
 40
303.0
 40
304.0
 40
304.0
 40
305.0
 40
305.0
 40
306.0
 40
306.0
 40
307.0
 40
307.0
 40
308.0
 40
308.0
 40
309.0
 40
309.0
 40
310.0
 40
310.0
 40
311.0
 40
311.0
 40
312.0
 40
312.0
 40
313.0
 40
313.0
 40
314.0
 40
314.0
 40
315.0
 40
315.0
 40
316.0
 40
316.0
 40
317.0
 40
317.0
 40
318.0
 40
318.0
 40
319.0
 40
319.0
 40
320.0
 40
320.0
 40
321.0
 40
321.0
 40
322.0
 40
322.0
 40
323.0
 40
323.0
 40
324.0
 40
324.0
 40
325.0
 40
325.0
 40
326.0
 40
326.0
 40
327.0
 40
327.0
 40
328.0
 40
328.0
 40
329.0
 40
329.0
 40
330.0
 40
330.0
 40
331.0
 40
331.0
 40
332.0
 40
332.0
 40
333.0
 40
333.0
 40
334.0
 40
334.0
 40
335.0
 40
335.0
 40
336.0
 40
336.0
 40
337.0
 40
337.0
 40
338.0
 40
338.0
 40
339.0
 40
339.0
 40
340.0
 40
340.0
 40
341.0
 40
341.0
 40
342.0
 40
342.0
 40
343.0
 40
343.0
 40
344.0
 40
344.0
 40
345.0
 40
345.0
 40
346.0
 40
346.0
 40
347.0
 40
347.0
 40
348.0
 40
348.0
 40
349.0
 40
349.0
 40
350.0
 40
350.0
 40
351.0
 40
351.0
 40
352.0
 40
352.0
 40
353.0
 40
353.0
 40
354.0
 40
354.0
 40
355.0
 40
355.0
 40
356.0
 40
356.0
 40
357.0
 40
357.0
 40
358.0
 40
358.0
 40
359.0
 40
359.0
 40
360.0
 40
360.0
 40
361.0
 40
361.0
 40
362.0
 40
362.0
 40
363.0
 40
363.0
 40
364.0
 40
364.0
 40
365.0
 40
365.0
 40
366.0
 40
366.0
 40
367.0
 40
367.0
 40
368.0
 40
368.0
 40
369.0
 40
369.0
 40
370.0
 40
370.0
 40
371.0
 40
371.0
 40
372.0
 40
372.0
 40
373.0
 40
373.0
 40
374.0
 40
374.0
 40
375.0
 40
375.0
 40
376.0
 40
376.0
 40
377.0
 40
377.0
 40
378.0
 40
378.0
 40
379.0
 40
379.0
 40
380.0
 40
380.0
 40
381.0
 40
381.0
 40
382.0
 40
382.0
 40
383.0
 40
383.0
 40
384.0
 40
384.0
 40
385.0
 40
385.0
 40
386.0
 40
386.0
 40
387.0
 40
387.0
 40
388.0
 40
388.0
 40
389.0
 40
389.0
 40
389.0
 10
930.2998716488114
 20
-1384.2834283911473
 30
0.0
 41
1.0
 10
931.11829575753188
 20
-1384.2834283911473
 30
0.0
 41
1.0
 10
931.93671986625236
 20
-1384.2834283911473
 30
0.0
 41
1.0
 10
931.52296613073554
 20
-1385.626054655397
 30
0.0
 41
1.0
 10
931.10921239521872
 20
-1386.9686809196467
 30
0.0
 41
1.0
 10
931.12755189037239
 20
-1386.9399801467571
 30
0.0
 41
0.9999957264353334
 10
931.14605888718984
 20
-1386.9113870966273
 30
0.0
 41
1.0
 10
931.17648821134094
 20
-1386.8643742182301
 30
0.0
 41
1.0
 10
931.20691753549204
 20
-1386.8173613398328
 30
0.0
 41
1.0
 10
931.28628318060032
 20
-1386.6947425329267
 30
0.0
 41
0.9995394069082243
 10
931.37294157215285
 20
-1386.577164471184
 30
0.0
 41
1.0
 10
931.40869843441112
 20
-1386.5286495785926
 30
0.0
 41
1.0
 10
931.44445529666939
 20
-1386.4801346860011
 30
0.0
 41
1.0
 10
931.57818196448648
 20
-1386.2986944108754
 30
0.0
 41
0.999446061714324
 10
931.72368244577569
 20
-1386.1265520132242
 30
0.0
 41
1.0
 10
931.72807062674997
 20
-1386.1213603328424
 30
0.0
 41
1.0
 10
931.73245880772436
 20
-1386.1161686524608
 30
0.0
 41
1.0
 10
931.86918292706207
 20
-1385.9544096155764
 30
0.0
 41
0.9994359394933763
 10
932.01645715741506
 20
-1385.8021934144101
 30
0.0
 41
1.0
 10
932.01884051136835
 20
-1385.799730084037
 30
0.0
 41
1.0
 10
932.02122386532164
 20
-1385.797266753664
 30
0.0
 41
1.0
 10
932.1637313877668
 20
-1385.6499772132452
 30
0.0
 41
0.9995293688567777
 10
932.31500306874875
 20
-1385.5117040010814
 30
0.0
 41
1.0
 10
932.33429682801147
 20
-1385.4940681154308
 30
0.0
 41
1.0
 10
932.35359058727408
 20
-1385.4764322297804
 30
0.0
 41
1.0
 10
932.46627474973093
 20
-1385.3734307889172
 30
0.0
 41
0.9997087614803707
 10
932.58379763868584
 20
-1385.2759865081193
 30
0.0
 41
1.0
 10
932.60296371186837
 20
-1385.2600949296057
 30
0.0
 41
1.0
 10
932.62212978505079
 20
-1385.244203351092
 30
0.0
 41
1.0
 10
932.70132052765098
 20
-1385.1785422273133
 30
0.0
 41
0.9999595338700135
 10
932.78167979849604
 20
-1385.1143164966666
 30
0.0
 41
1.0
 10
932.86203906933724
 20
-1385.0500907660223
 30
0.0
 41
0.999974941750717
 10
932.94329960367634
 20
-1384.9870092120793
 30
0.0
 41
1.0
 10
932.96428574986578
 20
-1384.9707179247566
 30
0.0
 41
1.0
 10
932.98527189605522
 20
-1384.9544266374342
 30
0.0
 41
1.0
 10
933.06983978133621
 20
-1384.8887776276097
 30
0.0
 41
0.9999792037126629
 10
933.15524738109707
 20
-1384.8242248459724
 30
0.0
 41
1.0
 10
933.1760722070195
 20
-1384.8084850237065
 30
0.0
 41
1.0
 10
933.19689703294193
 20
-1384.7927452014403
 30
0.0
 41
1.0
 10
933.24065498087236
 20
-1384.7596720643246
 30
0.0
 41
0.9999993373740191
 10
933.28433666700971
 20
-1384.7264982689048
 30
0.0
 41
1.0
 10
933.3280183531507
 20
-1384.6933244734823
 30
0.0
 41
0.9999160953816699
 10
933.37254476406838
 20
-1384.6612934082855
 30
0.0
 41
1.0
 10
933.40536665148989
 20
-1384.6376822526991
 30
0.0
 41
1.0
 10
933.4381885389115
 20
-1384.6140710971126
 30
0.0
 41
1.0
 10
933.54835872466924
 20
-1384.5348177207452
 30
0.0
 41
0.9980964527231613
 10
933.66744771817002
 20
-1384.4697302478892
 30
0.0
 41
1.0
 10
933.70448032509717
 20
-1384.4494902682964
 30
0.0
 41
1.0
 10
933.74151293202442
 20
-1384.4292502887038
 30
0.0
 41
1.0
 10
933.92083994529833
 20
-1384.3312400380021
 30
0.0
 41
0.9984572810572789
 10
934.10992851165884
 20
-1384.2537177766549
 30
0.0
 41
1.0
 10
934.11357478105242
 20
-1384.2522228843179
 30
0.0
 41
1.0
 10
934.11722105044589
 20
-1384.250727991981
 30
0.0
 41
1.0
 10
934.29901707801582
 20
-1384.1761955153092
 30
0.0
 41
0.9987838528033853
 10
934.48726973657699
 20
-1384.1199298751428
 30
0.0
 41
1.0
 10
934.49150768577658
 20
-1384.1186632214524
 30
0.0
 41
1.0
 10
934.49574563497617
 20
-1384.1173965677619
 30
0.0
 41
1.0
 10
934.67552239513714
 20
-1384.0636642349768
 30
0.0
 41
0.999065281620722
 10
934.85926832685209
 20
-1384.025660555435
 30
0.0
 41
1.0
 10
934.86445672788409
 20
-1384.0245874523284
 30
0.0
 41
1.0
 10
934.86964512891609
 20
-1384.0235143492218
 30
0.0
 41
1.0
 10
935.04301425856852
 20
-1383.987656875893
 30
0.0
 41
0.9992909934270146
 10
935.21859002502629
 20
-1383.9649464434265
 30
0.0
 41
1.0
 10
935.39416579148281
 20
-1383.94223601096
 30
0.0
 41
0.9994553539448302
 10
935.57085722457441
 20
-1383.9311567067539
 30
0.0
 41
1.0
 10
935.60629163237172
 20
-1383.928934818706
 30
0.0
 41
1.0
 10
935.64172604016903
 20
-1383.9267129306581
 30
0.0
 41
1.0
 10
935.80795180673806
 20
-1383.9162898682464
 30
0.0
 41
0.999092809829273
 10
935.97446159864103
 20
-1383.920049509481
 30
0.0
 41
1.0
 10
936.01302343391717
 20
-1383.9209202010143
 30
0.0
 41
1.0
 10
936.0515852691932
 20
-1383.9217908925473
 30
0.0
 41
1.0
 10
936.14097139054797
 20
-1383.9238091507157
 30
0.0
 41
0.9998382089203696
 10
936.23022707332996
 20
-1383.9290412772434
 30
0.0
 41
1.0
 10
936.23065697954735
 20
-1383.9290664781456
 30
0.0
 41
1.0
 10
936.23108688576474
 20
-1383.9290916790476
 30
0.0
 41
1.0
 10
936.31948275611364
 20
-1383.9342734037714
 30
0.0
 41
0.9997558016759265
 10
936.40756333331694
 20
-1383.943355919138
 30
0.0
 41
1.0
 10
936.40803947174527
 20
-1383.9434050166205
 30
0.0
 41
1.0
 10
936.40851561017359
 20
-1383.9434541141029
 30
0.0
 41
1.0
 10
936.49564391051661
 20
-1383.9524384345043
 30
0.0
 41
0.9996565144181171
 10
936.58218176385981
 20
-1383.9659757411937
 30
0.0
 41
1.0
 10
936.58264768923641
 20
-1383.9660486269249
 30
0.0
 41
1.0
 10
936.5831136146129
 20
-1383.9661215126562
 30
0.0
 41
1.0
 10
936.66871961720074
 20
-1383.9795130478824
 30
0.0
 41
0.9995321806866535
 10
936.75334669752976
 20
-1383.9981135363118
 30
0.0
 41
1.0
 10
936.75373589210335
 20
-1383.9981990787783
 30
0.0
 41
1.0
 10
936.75412508667705
 20
-1383.9982846212445
 30
0.0
 41
1.0
 10
936.83797377785925
 20
-1384.0167140247415
 30
0.0
 41
0.9993819199219618
 10
936.92032031205395
 20
-1384.0409894080017
 30
0.0
 41
1.0
 10
936.92055874555274
 20
-1384.0410596971112
 30
0.0
 41
1.0
 10
936.92079717905153
 20
-1384.0411299862208
 30
0.0
 41
1.0
 10
937.00266684625024
 20
-1384.0652647912625
 30
0.0
 41
0.9992088568505916
 10
937.0823593652384
 20
-1384.0958300270568
 30
0.0
 41
1.0
 10
937.16204035611736
 20
-1384.1263896277901
 30
0.0
 41
0.9990226101773474
 10
937.23871102602459
 20
-1384.1638670594048
 30
0.0
 41
1.0
 10
937.31537016782215
 20
-1384.2013388559576
 30
0.0
 41
0.9988424273972117
 10
937.38807379503419
 20
-1384.2460036312104
 30
0.0
 41
1.0
 10
937.38834150341393
 20
-1384.2461680952829
 30
0.0
 41
1.0
 10
937.38860921179366
 20
-1384.2463325593553
 30
0.0
 41
1.0
 10
937.46184825576461
 20
-1384.2913262627528
 30
0.0
 41
0.998692884449142
 10
937.53011112247464
 20
-1384.3435619970326
 30
0.0
 41
1.0
 10
937.53069241469734
 20
-1384.3440068102605
 30
0.0
 41
1.0
 10
937.53127370691993
 20
-1384.3444516234881
 30
0.0
 41
1.0
 10
937.6006991580756
 20
-1384.3975769842239
 30
0.0
 41
0.9986007262278902
 10
937.66412532784193
 20
-1384.4577377539169
 30
0.0
 41
1.0
 10
937.66501974329913
 20
-1384.458586121752
 30
0.0
 41
1.0
 10
937.66591415875644
 20
-1384.4594344895872
 30
0.0
 41
1.0
 10
937.73112915943784
 20
-1384.5212919949513
 30
0.0
 41
0.9985581491381161
 10
937.7893367711398
 20
-1384.5897844852234
 30
0.0
 41
1.0
 10
937.79859522473532
 20
-1384.6006788429247
 30
0.0
 41
1.0
 10
937.80785367833084
 20
-1384.611573200626
 30
0.0
 41
1.0
 10
937.88457819722396
 20
-1384.701854406301
 30
0.0
 41
0.9970460233520241
 10
937.94657009838352
 20
-1384.8028214904832
 30
0.0
 41
1.0
 10
937.96103946346273
 20
-1384.8263879495639
 30
0.0
 41
1.0
 10
937.97550882854193
 20
-1384.8499544086444
 30
0.0
 41
1.0
 10
938.0152455285546
 20
-1384.9146741326767
 30
0.0
 41
0.9988468816636342
 10
938.0485918993063
 20
-1384.9829065851047
 30
0.0
 41
1.0
 10
938.05562792179842
 20
-1384.9973035062435
 30
0.0
 41
1.0
 10
938.06266394429053
 20
-1385.011700427382
 30
0.0
 41
1.0
 10
938.08193827005812
 20
-1385.0511390375332
 30
0.0
 41
0.9998431189996929
 10
938.09980359755286
 20
-1385.0912355919731
 30
0.0
 41
1.0
 10
938.11766892503124
 20
-1385.1313321463763
 30
0.0
 41
0.9999989989918913
 10
938.13564764843954
 20
-1385.1713779839299
 30
0.0
 41
1.0
 10
938.14181996004891
 20
-1385.1851262007763
 30
0.0
 41
1.0
 10
938.14799227165838
 20
-1385.1988744176228
 30
0.0
 41
1.0
 10
938.17831561826733
 20
-1385.2664166888283
 30
0.0
 41
0.9998790356321229
 10
938.20652349840634
 20
-1385.3348694407682
 30
0.0
 41
1.0
 10
938.21335867969219
 20
-1385.3514565421992
 30
0.0
 41
1.0
 10
938.22019386097793
 20
-1385.3680436436302
 30
0.0
 41
1.0
 10
938.24375152335688
 20
-1385.4252115985125
 30
0.0
 41
0.9998227574561002
 10
938.26514027174505
 20
-1385.4832259067871
 30
0.0
 41
1.0
 10
938.28652902013414
 20
-1385.5412402150639
 30
0.0
 41
0.9996797971042251
 10
938.30495530509336
 20
-1385.6002623341817
 30
0.0
 41
1.0
 10
938.30885910781899
 20
-1385.6127667923511
 30
0.0
 41
1.0
 10
938.31276291054462
 20
-1385.6252712505204
 30
0.0
 41
1.0
 10
938.3389968009551
 20
-1385.7093022859769
 30
0.0
 41
0.9979274938734057
 10
938.35422132443421
 20
-1385.7960066446378
 30
0.0
 41
1.0
 10
938.35644501169531
 20
-1385.8086706454583
 30
0.0
 41
1.0
 10
938.35866869895642
 20
-1385.8213346462787
 30
0.0
 41
1.0
 10
938.36959863865457
 20
-1385.8835811535691
 30
0.0
 41
0.9994985982138726
 10
938.37656680383168
 20
-1385.9463946547112
 30
0.0
 41
1.0
 10
938.38353496900879
 20
-1386.0092081558541
 30
0.0
 41
0.999637261120126
 10
938.38711083477654
 20
-1386.0723057345381
 30
0.0
 41
1.0
 10
938.3872794122658
 20
-1386.0752803516189
 30
0.0
 41
1.0
 10
938.38744798975506
 20
-1386.0782549686999
 30
0.0
 41
1.0
 10
938.39136101050167
 20
-1386.1473017815515
 30
0.0
 41
0.9997730630737106
 10
938.39232932398966
 20
-1386.2164526055908
 30
0.0
 41
1.0
 10
938.39238643040767
 20
-1386.2205307847273
 30
0.0
 41
1.0
 10
938.39244353682568
 20
-1386.2246089638638
 30
0.0
 41
1.0
 10
938.39352606314992
 20
-1386.3019161461782
 30
0.0
 41
0.9998772614069017
 10
938.39218597641832
 20
-1386.3792192927385
 30
0.0
 41
1.0
 10
938.39209671321953
 20
-1386.3843684565772
 30
0.0
 41
1.0
 10
938.39200745002074
 20
-1386.389517620416
 30
0.0
 41
1.0
 10
938.39048883689156
 20
-1386.4771190946506
 30
0.0
 41
0.9999415567324879
 10
938.38707652664516
 20
-1386.5646672563362
 30
0.0
 41
1.0
 10
938.3868352059701
 20
-1386.570858716068
 30
0.0
 41
1.0
 10
938.38659388529493
 20
-1386.5770501758
 30
0.0
 41
1.0
 10
938.38269893369761
 20
-1386.6769812569623
 30
0.0
 41
0.9999716810431822
 10
938.37730035057939
 20
-1386.7768423951866
 30
0.0
 41
1.0
 10
938.37408755179092
 20
-1386.8362716448376
 30
0.0
 41
1.0
 10
938.37087475300245
 20
-1386.8957008944885
 30
0.0
 41
1.0
 10
938.36280084384919
 20
-1387.0450492957807
 30
0.0
 41
0.9999819129906145
 10
938.35293105223298
 20
-1387.1942897734855
 30
0.0
 41
1.0
 10
938.34306126061642
 20
-1387.3435302511969
 30
0.0
 41
1.0
 10
938.34062194005242
 20
-1387.3807232970462
 30
0.0
 41
1.0
 10
938.36332017390464
 20
-1387.3419822996811
 30
0.0
 41
0.9999982128265116
 10
938.38616473268894
 20
-1387.3033274056738
 30
0.0
 41
1.0
 10
938.4130742925488
 20
-1387.2577941916611
 30
0.0
 41
1.0
 10
938.43998385240866
 20
-1387.2122609776482
 30
0.0
 41
1.0
 10
938.51664753093371
 20
-1387.0825396555797
 30
0.0
 41
0.999860919005663
 10
938.59759484379583
 20
-1386.95544727365
 30
0.0
 41
1.0
 10
938.62724316527886
 20
-1386.9088975406908
 30
0.0
 41
1.0
 10
938.65689148676188
 20
-1386.8623478077313
 30
0.0
 41
1.0
 10
938.7391637069984
 20
-1386.7331752377372
 30
0.0
 41
0.99990676097348
 10
938.82493271646081
 20
-1386.6062975482982
 30
0.0
 41
1.0
 10
938.82733741966308
 20
-1386.6027402822413
 30
0.0
 41
1.0
 10
938.82974212286547
 20
-1386.5991830161843
 30
0.0
 41
1.0
 10
938.91070172592413
 20
-1386.4794198588581
 30
0.0
 41
0.9998784952149002
 10
938.99535533560629
 20
-1386.3622386421484
 30
0.0
 41
1.0
 10
939.08000894528857
 20
-1386.2450574254385
 30
0.0
 41
0.9998532968283557
 10
939.16862656610863
 20
-1386.1308445169714
 30
0.0
 41
1.0
 10
939.18858835510082
 20
-1386.1051171959498
 30
0.0
 41
1.0
 10
939.20855014409312
 20
-1386.079389874928
 30
0.0
 41
1.0
 10
939.32703419385166
 20
-1385.9266842639599
 30
0.0
 41
0.9991551975795618
 10
939.45765864347482
 20
-1385.7842247018768
 30
0.0
 41
1.0
 10
939.46116825945455
 20
-1385.7803971002525
 30
0.0
 41
1.0
 10
939.4646778754344
 20
-1385.7765694986281
 30
0.0
 41
1.0
 10
939.5882830930982
 20
-1385.6417651397935
 30
0.0
 41
0.9997418144180399
 10
939.71788523279895
 20
-1385.5127157291809
 30
0.0
 41
1.0
 10
939.84748737249902
 20
-1385.3836663185689
 30
0.0
 41
0.9989238204633026
 10
939.98848992074818
 20
-1385.2671813565314
 30
0.0
 41
1.0
 10
940.03373759888859
 20
-1385.229801364922
 30
0.0
 41
1.0
 10
940.07898527702889
 20
-1385.1924213733125
 30
0.0
 41
1.0
 10
940.21922533425129
 20
-1385.0765663200209
 30
0.0
 41
0.9990825084096853
 10
940.36886526685498
 20
-1384.973137322188
 30
0.0
 41
1.0
 10
940.37891063090854
 20
-1384.9661941091108
 30
0.0
 41
1.0
 10
940.38895599496209
 20
-1384.9592508960336
 30
0.0
 41
1.0
 10
940.51850519945401
 20
-1384.8697083243583
 30
0.0
 41
0.9998164899825488
 10
940.65138940283521
 20
-1384.7851940828386
 30
0.0
 41
1.0
 10
940.66323496335849
 20
-1384.7776603163147
 30
0.0
 41
1.0
 10
940.67508052388177
 20
-1384.7701265497908
 30
0.0
 41
1.0
 10
940.7842736062089
 20
-1384.700679841324
 30
0.0
 41
0.9997473449130889
 10
940.89647756346096
 20
-1384.6362108835067
 30
0.0
 41
1.0
 10
941.00868152071462
 20
-1384.5717419256887
 30
0.0
 41
0.9999327861145947
 10
941.12235013148359
 20
-1384.5098919340041
 30
0.0
 41
1.0
 10
941.12290213403946
 20
-1384.5095915753277
 30
0.0
 41
1.0
 10
941.12345413659534
 20
-1384.5092912166513
 30
0.0
 41
1.0
 10
941.2382267524805
 20
-1384.4468405076116
 30
0.0
 41
0.9996956420484077
 10
941.35594007832071
 20
-1384.3901270406366
 30
0.0
 41
1.0
 10
941.38638048321206
 20
-1384.3754610639071
 30
0.0
 41
1.0
 10
941.41682088810342
 20
-1384.3607950871778
 30
0.0
 41
1.0
 10
941.51979799484957
 20
-1384.3111814287333
 30
0.0
 41
0.9998070570176625
 10
941.62464438379061
 20
-1384.2656508418322
 30
0.0
 41
1.0
 10
941.7294907727287
 20
-1384.2201202549325
 30
0.0
 41
0.9997827436147062
 10
941.83614370933537
 20
-1384.1789990836219
 30
0.0
 41
1.0
 10
941.85536655896976
 20
-1384.1715875099883
 30
0.0
 41
1.0
 10
941.87458940860415
 20
-1384.1641759363547
 30
0.0
 41
1.0
 10
942.01968804447756
 20
-1384.1082316177778
 30
0.0
 41
0.9988031841976367
 10
942.16955840708204
 20
-1384.0667315536102
 30
0.0
 41
1.0
 10
942.19447565544601
 20
-1384.0598318078032
 30
0.0
 41
1.0
 10
942.2193929038101
 20
-1384.052932061996
 30
0.0
 41
1.0
 10
942.38666292945641
 20
-1384.0066139195894
 30
0.0
 41
0.9984748040550027
 10
942.55801983810409
 20
-1383.9790196873248
 30
0.0
 41
1.0
 10
942.56275897435216
 20
-1383.9782565268115
 30
0.0
 41
1.0
 10
942.56749811060035
 20
-1383.9774933662982
 30
0.0
 41
1.0
 10
942.729376746752
 20
-1383.95142545506
 30
0.0
 41
0.9984436495479754
 10
942.89315149047786
 20
-1383.9435475012413
 30
0.0
 41
1.0
 10
942.91484869860903
 20
-1383.9425038140416
 30
0.0
 41
1.0
 10
942.93654590674021
 20
-1383.941460126842
 30
0.0
 41
1.0
 10
943.05692623420225
 20
-1383.9356695474225
 30
0.0
 41
0.9987954789335208
 10
943.17729447911245
 20
-1383.9417060751648
 30
0.0
 41
1.0
 10
943.19725927160812
 20
-1383.9427073195034
 30
0.0
 41
1.0
 10
943.2172240641039
 20
-1383.9437085638422
 30
0.0
 41
1.0
 10
943.29766272402355
 20
-1383.9477426029073
 30
0.0
 41
0.9997941595878104
 10
943.3778715021167
 20
-1383.9550366688281
 30
0.0
 41
1.0
 10
943.45808028021474
 20
-1383.9623307347497
 30
0.0
 41
0.9998589466238597
 10
943.53799882707312
 20
-1383.9723145892001
 30
0.0
 41
1.0
 10
943.57040502887787
 20
-1383.976362946119
 30
0.0
 41
1.0
 10
943.60281123068262
 20
-1383.9804113030377
 30
0.0
 41
1.0
 10
943.74754218115311
 20
-1383.998491871326
 30
0.0
 41
0.9993495063249366
 10
943.89059342491782
 20
-1384.0269575810673
 30
0.0
 41
1.0
 10
943.9235271220673
 20
-1384.0335110442816
 30
0.0
 41
1.0
 10
943.95646081921689
 20
-1384.040064507496
 30
0.0
 41
1.0
 10
944.06575464242439
 20
-1384.061812841632
 30
0.0
 41
0.9996788715561416
 10
944.17380621438474
 20
-1384.0890706409959
 30
0.0
 41
1.0
 10
944.17586921692418
 20
-1384.089591067569
 30
0.0
 41
1.0
 10
944.17793221946374
 20
-1384.0901114941421
 30
0.0
 41
1.0
 10
944.2818577863419
 20
-1384.1163284403592
 30
0.0
 41
0.999548065449316
 10
944.38402002157056
 20
-1384.1487433969833
 30
0.0
 41
1.0
 10
944.38570966369957
 20
-1384.1492795018971
 30
0.0
 41
1.0
 10
944.38739930582847
 20
-1384.149815606811
 30
0.0
 41
1.0
 10
944.48618225679968
 20
-1384.1811583536075
 30
0.0
 41
0.9993867959456532
 10
944.58252941524256
 20
-1384.2193377228975
 30
0.0
 41
1.0
 10
944.58377236432784
 20
-1384.2198302647939
 30
0.0
 41
1.0
 10
944.58501531341312
 20
-1384.2203228066903
 30
0.0
 41
1.0
 10
944.67887657368578
 20
-1384.2575170921875
 30
0.0
 41
0.9992050256521851
 10
944.76947624871843
 20
-1384.302070991426
 30
0.0
 41
1.0
 10
944.77021093143139
 20
-1384.3024322838871
 30
0.0
 41
1.0
 10
944.77094561414424
 20
-1384.3027935763482
 30
0.0
 41
1.0
 10
944.86007592375199
 20
-1384.346624890665
 30
0.0
 41
0.9990222350741562
 10
944.94498598514542
 20
-1384.398158158363
 30
0.0
 41
1.0
 10
944.945169870428
 20
-1384.3982697612678
 30
0.0
 41
1.0
 10
944.94535375571058
 20
-1384.3983813641726
 30
0.0
 41
1.0
 10
945.02989604653965
 20
-1384.4496914260619
 30
0.0
 41
0.9988642743805106
 10
945.10917058115808
 20
-1384.5088156135866
 30
0.0
 41
1.0
 10
945.18844511577709
 20
-1384.5679398011118
 30
0.0
 41
0.9987681233309632
 10
945.26146890005327
 20
-1384.634630492513
 30
0.0
 41
1.0
 10
945.2617978280191
 20
-1384.634930893727
 30
0.0
 41
1.0
 10
945.26212675598481
 20
-1384.6352312949411
 30
0.0
 41
1.0
 10
945.33580839619231
 20
-1384.70252278877
 30
0.0
 41
0.9987496570898465
 10
945.40240220151941
 20
-1384.7768356028564
 30
0.0
 41
1.0
 10
945.4031743712801
 20
-1384.7776972762144
 30
0.0
 41
1.0
 10
945.40394654104068
 20
-1384.7785589495727
 30
0.0
 41
1.0
 10
945.47208468588838
 20
-1384.8545951103745
 30
0.0
 41
0.9988147669826673
 10
945.53250694011422
 20
-1384.9368961172181
 30
0.0
 41
1.0
 10
945.53362626619173
 20
-1384.9384207485705
 30
0.0
 41
1.0
 10
945.53474559226925
 20
-1384.9399453799226
 30
0.0
 41
1.0
 10
945.59740649865034
 20
-1385.025295649471
 30
0.0
 41
0.9989452636215783
 10
945.65197341161104
 20
-1385.116034338628
 30
0.0
 41
1.0
 10
945.6533221376967
 20
-1385.1182771196541
 30
0.0
 41
1.0
 10
945.65467086378237
 20
-1385.1205199006804
 30
0.0
 41
1.0
 10
945.71193522891508
 20
-1385.2157441518907
 30
0.0
 41
0.9991046436070875
 10
945.76094444223656
 20
-1385.3154685849156
 30
0.0
 41
1.0
 10
945.76240830382665
 20
-1385.3184472649882
 30
0.0
 41
1.0
 10
945.76387216541673
 20
-1385.321425945061
 30
0.0
 41
1.0
 10
945.81580910191826
 20
-1385.4271077382314
 30
0.0
 41
0.9992763831101446
 10
945.85956223047344
 20
-1385.5364318001871
 30
0.0
 41
1.0
 10
945.86104150013671
 20
-1385.5401279877208
 30
0.0
 41
1.0
 10
945.86252076980008
 20
-1385.5438241752545
 30
0.0
 41
1.0
 10
945.90923243768202
 20
-1385.6605406122781
 30
0.0
 41
0.9994163472883417
 10
945.94786546887065
 20
-1385.7801742007389
 30
0.0
 41
1.0
 10
945.94910362111762
 20
-1385.7840083445224
 30
0.0
 41
1.0
 10
945.95034177336458
 20
-1385.7878424883058
 30
0.0
 41
1.0
 10
945.99022533438279
 20
-1385.9113485497871
 30
0.0
 41
0.9997268055890305
 10
946.02429339029436
 20
-1386.0365835817363
 30
0.0
 41
1.0
 10
946.02522357056364
 20
-1386.040002947844
 30
0.0
 41
1.0
 10
946.02615375083292
 20
-1386.0434223139516
 30
0.0
 41
1.0
 10
946.05836144620548
 20
-1386.1618186136832
 30
0.0
 41
0.999670131900091
 10
946.08444706297689
 20
-1386.2817125669503
 30
0.0
 41
1.0
 10
946.11053267974739
 20
-1386.4016065202145
 30
0.0
 41
0.9995785451109441
 10
946.12961625708738
 20
-1386.5228122812473
 30
0.0
 41
1.0
 10
946.13383603926104
 20
-1386.5496134360117
 30
0.0
 41
1.0
 10
946.1380558214347
 20
-1386.576414590776
 30
0.0
 41
1.0
 10
946.16463079737298
 20
-1386.7452005644791
 30
0.0
 41
0.9979925101217402
 10
946.16965638329941
 20
-1386.9159918925702
 30
0.0
 41
1.0
 10
946.17048119572405
 20
-1386.9440226160468
 30
0.0
 41
1.0
 10
946.17130600814858
 20
-1386.9720533395234
 30
0.0
 41
1.0
 10
946.17468196922607
 20
-1387.0867832206548
 30
0.0
 41
0.9995314902262715
 10
946.17103177708725
 20
-1387.2015047044138
 30
0.0
 41
1.0
 10
946.16738158494911
 20
-1387.3162261881623
 30
0.0
 41
0.9996245486943958
 10
946.15745248981807
 20
-1387.4305754592879
 30
0.0
 41
1.0
 10
946.15728944182376
 20
-1387.4324532154242
 30
0.0
 41
1.0
 10
946.15712639382946
 20
-1387.4343309715603
 30
0.0
 41
1.0
 10
946.14687120270992
 20
-1387.5524357549566
 30
0.0
 41
0.9997286095001513
 10
946.13112587913838
 20
-1387.669934663852
 30
0.0
 41
1.0
 10
946.13073238648826
 20
-1387.6728710885527
 30
0.0
 41
1.0
 10
946.13033889383803
 20
-1387.6758075132532
 30
0.0
 41
1.0
 10
946.11380658496671
 20
-1387.7991792715475
 30
0.0
 41
0.9998265533969523
 10
946.09269112623463
 20
-1387.9218497463316
 30
0.0
 41
1.0
 10
946.09201458409677
 20
-1387.9257801248434
 30
0.0
 41
1.0
 10
946.09133804195892
 20
-1387.9297105033552
 30
0.0
 41
1.0
 10
946.06886949895238
 20
-1388.0602417351556
 30
0.0
 41
0.9999022530852189
 10
946.04276003434359
 20
-1388.1900937037892
 30
0.0
 41
1.0
 10
946.04178139317742
 20
-1388.1949608461805
 30
0.0
 41
1.0
 10
946.04080275201125
 20
-1388.1998279885715
 30
0.0
 41
1.0
 10
946.01273600506909
 20
-1388.339414241992
 30
0.0
 41
0.9999524761934924
 10
945.98195303623277
 20
-1388.4784267351627
 30
0.0
 41
1.0
 10
945.98067692905875
 20
-1388.4841894944584
 30
0.0
 41
1.0
 10
945.97940082188484
 20
-1388.4899522537539
 30
0.0
 41
1.0
 10
945.9460656386982
 20
-1388.6404902655274
 30
0.0
 41
0.9999813588737747
 10
945.91089463790081
 20
-1388.7906099781899
 30
0.0
 41
1.0
 10
945.90934071244556
 20
-1388.7972425686069
 30
0.0
 41
1.0
 10
945.9077867869903
 20
-1388.8038751590238
 30
0.0
 41
1.0
 10
945.86950793528536
 20
-1388.9672600525073
 30
0.0
 41
0.9999955237628675
 10
945.83025205729962
 20
-1389.1304129561363
 30
0.0
 41
1.0
 10
945.8179704216659
 20
-1389.1814571466566
 30
0.0
 41
1.0
 10
945.80568878603208
 20
-1389.2325013371772
 30
0.0
 41
1.0
 10
945.74186963677914
 20
-1389.4977426218452
 30
0.0
 41
0.9999993604332911
 10
945.67745068963188
 20
-1389.7628388724434
 30
0.0
 41
1.0
 10
945.67273185407635
 20
-1389.7822577805189
 30
0.0
 41
1.0
 10
945.66801301852081
 20
-1389.8016766885944
 30
0.0
 41
1.0
 10
945.594156400261
 20
-1390.1056107553518
 30
0.0
 41
0.999965991472191
 10
945.51529680437613
 20
-1390.4082853019086
 30
0.0
 41
1.0
 10
945.51034411544492
 20
-1390.4272944390932
 30
0.0
 41
1.0
 10
945.50539142651382
 20
-1390.4463035762776
 30
0.0
 41
1.0
 10
945.41662645276836
 20
-1390.7869963971975
 30
0.0
 41
0.9999441976025459
 10
945.3206834198038
 20
-1391.1257378225
 30
0.0
 41
1.0
 10
945.30398290137884
 20
-1391.1847015350256
 30
0.0
 41
1.0
 10
945.28728238295389
 20
-1391.2436652475512
 30
0.0
 41
1.0
 10
945.15793831313897
 20
-1391.7003340979063
 30
0.0
 41
0.9999625120735777
 10
945.02070554581542
 20
-1392.1546946319029
 30
0.0
 41
1.0
 10
944.98491560273396
 20
-1392.273190658525
 30
0.0
 41
1.0
 10
944.94912565965251
 20
-1392.3916866851471
 30
0.0
 41
1.0
 10
944.87460545560816
 20
-1392.6384137632595
 30
0.0
 41
0.9999793386323912
 10
944.79691943247133
 20
-1392.8841624024938
 30
0.0
 41
1.0
 10
944.71923340933381
 20
-1393.1299110417299
 30
0.0
 41
1.0
 10
944.708453850463
 20
-1393.1639289461045
 30
0.0
 41
1.0
 10
942.85808079719391
 20
-1399.0510008685719
 30
0.0
 41
1.0
 10
941.00770774392481
 20
-1404.9380727910395
 30
0.0
 41
1.0
 10
940.04645105390125
 20
-1404.9380727910395
 30
0.0
 41
1.0
 10
939.08519436387769
 20
-1404.9380727910395
 30
0.0
 41
1.0
 10
940.70413914255607
 20
-1399.7900442892501
 30
0.0
 41
1.0
 10
942.32308392123446
 20
-1394.6420157874607
 30
0.0
 41
1.0
 10
942.36824974440935
 20
-1394.497984565189
 30
0.0
 41
1.0
 10
942.41341556758425
 20
-1394.3539533429173
 30
0.0
 41
1.0
 10
942.58371998495045
 20
-1393.8108623137441
 30
0.0
 41
0.9999911657910717
 10
942.74945279662609
 20
-1393.2663587823947
 30
0.0
 41
1.0
 10
942.77914874012185
 20
-1393.1687948423598
 30
0.0
 41
1.0
 10
942.80884468361751
 20
-1393.0712309023249
 30
0.0
 41
1.0
 10
942.91518560830207
 20
-1392.7218552510449
 30
0.0
 41
0.999995242814307
 10
943.01936919763125
 20
-1392.3718302266816
 30
0.0
 41
1.0
 10
943.02442866795968
 20
-1392.3548319524202
 30
0.0
 41
1.0
 10
943.029488138288
 20
-1392.3378336781589
 30
0.0
 41
1.0
 10
943.12355278695406
 20
-1392.0218052023397
 30
0.0
 41
0.9999931687516983
 10
943.21527862482992
 20
-1391.7050899890614
 30
0.0
 41
1.0
 10
943.2202138892892
 20
-1391.6880492797914
 30
0.0
 41
1.0
 10
943.22514915374836
 20
-1391.6710085705215
 30
0.0
 41
1.0
 10
943.30700446270373
 20
-1391.3883747757905
 30
0.0
 41
0.9999893840778815
 10
943.38625168916042
 20
-1391.1049986465443
 30
0.0
 41
1.0
 10
943.46549891561745
 20
-1390.8216225172976
 30
0.0
 41
0.9999833980061547
 10
943.54147515636203
 20
-1390.5373519342579
 30
0.0
 41
1.0
 10
943.55047909308405
 20
-1390.5036630557802
 30
0.0
 41
1.0
 10
943.55948302980607
 20
-1390.4699741773027
 30
0.0
 41
1.0
 10
943.62844757867151
 20
-1390.2119383450099
 30
0.0
 41
0.9999233658066331
 10
943.69100254989064
 20
-1389.9522741862913
 30
0.0
 41
1.0
 10
943.75355752111091
 20
-1389.6926100275689
 30
0.0
 41
1.0
 10
943.79304093996848
 20
-1389.5288033631427
 30
0.0
 41
1.0
 10
943.79801954394748
 20
-1389.5081484012653
 30
0.0
 41
1.0
 10
943.80299814792636
 20
-1389.4874934393879
 30
0.0
 41
1.0
 10
943.83252435882855
 20
-1389.3649966987068
 30
0.0
 41
0.9999868670869415
 10
943.86079344282223
 20
-1389.2422037530712
 30
0.0
 41
1.0
 10
943.86469092998118
 20
-1389.2252741656489
 30
0.0
 41
1.0
 10
943.86858841714013
 20
-1389.2083445782266
 30
0.0
 41
1.0
 10
943.88906252681909
 20
-1389.1194108074233
 30
0.0
 41
0.9999778173352124
 10
943.90835012493392
 20
-1389.0302121901952
 30
0.0
 41
1.0
 10
943.92763772304988
 20
-1388.9410135729622
 30
0.0
 41
0.9999602692854568
 10
943.9453320816823
 20
-1388.8514852845281
 30
0.0
 41
1.0
 10
943.94853591375886
 20
-1388.8352748296475
 30
0.0
 41
1.0
 10
943.95173974583543
 20
-1388.8190643747671
 30
0.0
 41
1.0
 10
943.97584176862051
 20
-1388.6971151765738
 30
0.0
 41
0.9995617985321303
 10
943.99268511583932
 20
-1388.5739534288689
 30
0.0
 41
1.0
 10
943.99514960574584
 20
-1388.5559326115012
 30
0.0
 41
1.0
 10
943.99761409565235
 20
-1388.5379117941338
 30
0.0
 41
1.0
 10
944.01789735670059
 20
-1388.3895967444323
 30
0.0
 41
0.9991121410639821
 10
944.0256227102891
 20
-1388.2401006456248
 30
0.0
 41
1.0
 10
944.02654150031367
 20
-1388.2223208090484
 30
0.0
 41
1.0
 10
944.02746029033824
 20
-1388.2045409724719
 30
0.0
 41
1.0
 10
944.03334806387738
 20
-1388.0906045468182
 30
0.0
 41
0.9989792494905241
 10
944.02892897176002
 20
-1387.97660171092
 30
0.0
 41
1.0
 10
944.02828099989131
 20
-1387.9598854649921
 30
0.0
 41
1.0
 10
944.02763302802259
 20
-1387.9431692190642
 30
0.0
 41
1.0
 10
944.02450987964266
 20
-1387.8625988750209
 30
0.0
 41
0.9997820295393856
 10
944.01802588226701
 20
-1387.7822291532777
 30
0.0
 41
1.0
 10
944.01154188489159
 20
-1387.7018594315364
 30
0.0
 41
0.9998335105972239
 10
944.00212968937956
 20
-1387.6217798150824
 30
0.0
 41
1.0
 10
944.00053476470327
 20
-1387.6082100845999
 30
0.0
 41
1.0
 10
943.99893984002699
 20
-1387.5946403541175
 30
0.0
 41
1.0
 10
943.9863377951624
 20
-1387.4874212766986
 30
0.0
 41
0.9996876457878542
 10
943.96839388236413
 20
-1387.3809658489843
 30
0.0
 41
1.0
 10
943.96616221921897
 20
-1387.3677261137434
 30
0.0
 41
1.0
 10
943.96393055607382
 20
-1387.3544863785025
 30
0.0
 41
1.0
 10
943.95013473465235
 20
-1387.272640234542
 30
0.0
 41
0.9995547496495085
 10
943.93148141276004
 20
-1387.1917627373523
 30
0.0
 41
1.0
 10
943.93110745588865
 20
-1387.1901413266462
 30
0.0
 41
1.0
 10
943.93073349901715
 20
-1387.1885199159401
 30
0.0
 41
1.0
 10
943.91282809086692
 20
-1387.1108852401587
 30
0.0
 41
0.9994899427174901
 10
943.89000318218802
 20
-1387.0345519573266
 30
0.0
 41
1.0
 10
943.88954465544703
 20
-1387.0330185075368
 30
0.0
 41
1.0
 10
943.88908612870591
 20
-1387.0314850577472
 30
0.0
 41
1.0
 10
943.86717827350833
 20
-1386.9582186744915
 30
0.0
 41
0.9993784877590713
 10
943.84016263840203
 20
-1386.8866779693333
 30
0.0
 41
1.0
 10
943.83963094742512
 20
-1386.8852699866127
 30
0.0
 41
1.0
 10
943.83909925644821
 20
-1386.8838620038921
 30
0.0
 41
1.0
 10
943.81314700329528
 20
-1386.8151372641737
 30
0.0
 41
0.9992430832254525
 10
943.78193046813612
 20
-1386.7486381121059
 30
0.0
 41
1.0
 10
943.7813483520797
 20
-1386.7473980569889
 30
0.0
 41
1.0
 10
943.7807662360234
 20
-1386.7461580018721
 30
0.0
 41
1.0
 10
943.75071393297719
 20
-1386.6821389600382
 30
0.0
 41
0.9990789632798329
 10
943.71528330620015
 20
-1386.6209323482881
 30
0.0
 41
1.0
 10
943.71468760001801
 20
-1386.6199032624286
 30
0.0
 41
1.0
 10
943.71409189383587
 20
-1386.6188741765693
 30
0.0
 41
1.0
 10
943.67985267942277
 20
-1386.5597257365371
 30
0.0
 41
0.9988874801118968
 10
943.64019340339132
 20
-1386.5040660241207
 30
0.0
 41
1.0
 10
943.639637877327
 20
-1386.5032863724459
 30
0.0
 41
1.0
 10
943.63908235126257
 20
-1386.502506720771
 30
0.0
 41
1.0
 10
943.60053412735908
 20
-1386.4484063117022
 30
0.0
 41
0.9986762060692411
 10
943.55663165608314
 20
-1386.3985525972635
 30
0.0
 41
1.0
 10
943.55618769575062
 20
-1386.3980484554465
 30
0.0
 41
1.0
 10
943.5557437354181
 20
-1386.3975443136296
 30
0.0
 41
1.0
 10
943.51272918480663
 20
-1386.348698882824
 30
0.0
 41
0.9984621642488115
 10
943.46457162802915
 20
-1386.3049155823533
 30
0.0
 41
1.0
 10
943.46432499351215
 20
-1386.3046913501894
 30
0.0
 41
1.0
 10
943.46407835899515
 20
-1386.3044671180255
 30
0.0
 41
1.0
 10
943.41641407125121
 20
-1386.2611322818818
 30
0.0
 41
0.9982724693850362
 10
943.3639954394099
 20
-1386.2236879313646
 30
0.0
 41
1.0
 10
943.31157680756826
 20
-1386.1862435808466
 30
0.0
 41
0.9981399180157465
 10
943.25499074417451
 20
-1386.155457061403
 30
0.0
 41
1.0
 10
943.25494508209636
 20
-1386.155432218246
 30
0.0
 41
1.0
 10
943.25489942001821
 20
-1386.155407375089
 30
0.0
 41
1.0
 10
943.19822203246804
 20
-1386.1245711693311
 30
0.0
 41
0.9980927086836336
 10
943.13817668140189
 20
-1386.1009543604789
 30
0.0
 41
1.0
 10
943.13773651169004
 20
-1386.1007812346038
 30
0.0
 41
1.0
 10
943.13729634197819
 20
-1386.1006081087287
 30
0.0
 41
1.0
 10
943.07637065148845
 20
-1386.0766450481262
 30
0.0
 41
0.9981411356561467
 10
943.01298213008874
 20
-1386.0602724066207
 30
0.0
 41
1.0
 10
943.01210001338745
 20
-1386.0600445644152
 30
0.0
 41
1.0
 10
943.01121789668616
 20
-1386.0598167222097
 30
0.0
 41
1.0
 10
942.9460651418849
 20
-1386.0429883962934
 30
0.0
 41
0.9983031812935886
 10
942.87939771289166
 20
-1386.0338490351173
 30
0.0
 41
1.0
 10
942.87052668748549
 20
-1386.0326329164457
 30
0.0
 41
1.0
 10
942.86165566207933
 20
-1386.031416797774
 30
0.0
 41
1.0
 10
942.80730601957623
 20
-1386.023966067783
 30
0.0
 41
0.9983887708263414
 10
942.75246217028428
 20
-1386.0227213941498
 30
0.0
 41
1.0
 10
942.74439876506869
 20
-1386.022538396275
 30
0.0
 41
1.0
 10
942.73633535985311
 20
-1386.0223553984001
 30
0.0
 41
1.0
 10
942.69761832099346
 20
-1386.0214767205166
 30
0.0
 41
0.9998869563078761
 10
942.65889236778878
 20
-1386.0217625898763
 30
0.0
 41
1.0
 10
942.62016641458081
 20
-1386.022048459236
 30
0.0
 41
0.9999972320124223
 10
942.58144223536431
 20
-1386.0225165587651
 30
0.0
 41
1.0
 10
942.56208921878988
 20
-1386.0227504988543
 30
0.0
 41
1.0
 10
942.54273620221534
 20
-1386.0229844389437
 30
0.0
 41
1.0
 10
942.46530598984828
 20
-1386.0239204186516
 30
0.0
 41
0.99973049450882
 10
942.38800268361433
 20
-1386.0284495124374
 30
0.0
 41
1.0
 10
942.37895304190647
 20
-1386.0289797184275
 30
0.0
 41
1.0
 10
942.3699034001985
 20
-1386.0295099244177
 30
0.0
 41
1.0
 10
942.27450081055349
 20
-1386.0350994301834
 30
0.0
 41
0.9997888306415969
 10
942.1794084747122
 20
-1386.0446043946722
 30
0.0
 41
1.0
 10
942.17068741313824
 20
-1386.0454761093044
 30
0.0
 41
1.0
 10
942.16196635156427
 20
-1386.0463478239367
 30
0.0
 41
1.0
 10
942.04943189257597
 20
-1386.0575962176902
 30
0.0
 41
0.9984170238190776
 10
941.93887274522467
 20
-1386.081412299626
 30
0.0
 41
1.0
 10
941.90249161423822
 20
-1386.0892493354322
 30
0.0
 41
1.0
 10
941.86611048325165
 20
-1386.0970863712382
 30
0.0
 41
1.0
 10
941.75091941483049
 20
-1386.1219002377477
 30
0.0
 41
0.9976592854199314
 10
941.64019124842559
 20
-1386.1621989148948
 30
0.0
 41
1.0
 10
941.52946308202081
 20
-1386.2024975920419
 30
0.0
 41
0.9993255074352642
 10
941.42199128323034
 20
-1386.2508144905341
 30
0.0
 41
1.0
 10
941.41736610430678
 20
-1386.252893866734
 30
0.0
 41
1.0
 10
941.41274092538322
 20
-1386.2549732429338
 30
0.0
 41
1.0
 10
941.29601876874403
 20
-1386.3074488938266
 30
0.0
 41
0.9976475078274675
 10
941.18757142443269
 20
-1386.375396883486
 30
0.0
 41
1.0
 10
941.1692290303024
 20
-1386.3868893622978
 30
0.0
 41
1.0
 10
941.150886636172
 20
-1386.3983818411095
 30
0.0
 41
1.0
 10
941.06668444461741
 20
-1386.4511389618792
 30
0.0
 41
0.9995131336407285
 10
940.98593672965615
 20
-1386.5090451738349
 30
0.0
 41
1.0
 10
940.90518901469727
 20
-1386.5669513857893
 30
0.0
 41
0.9995810107606513
 10
940.82792736696695
 20
-1386.6294330682565
 30
0.0
 41
1.0
 10
940.82495733575843
 20
-1386.6318349397197
 30
0.0
 41
1.0
 10
940.82198730454979
 20
-1386.6342368111832
 30
0.0
 41
1.0
 10
940.73878559439936
 20
-1386.7015222365794
 30
0.0
 41
0.9996617837954935
 10
940.65919490726219
 20
-1386.773042692141
 30
0.0
 41
1.0
 10
940.64706415638705
 20
-1386.78394342513
 30
0.0
 41
1.0
 10
940.6349334055119
 20
-1386.7948441581191
 30
0.0
 41
1.0
 10
940.56665787811403
 20
-1386.8561967735927
 30
0.0
 41
0.9997267750053023
 10
940.5013243698304
 20
-1386.9206733101178
 30
0.0
 41
1.0
 10
940.43599086154472
 20
-1386.9851498466451
 30
0.0
 41
0.9999667288956335
 10
940.37171791838898
 20
-1387.0506836535487
 30
0.0
 41
1.0
 10
940.30289047061933
 20
-1387.1208613123015
 30
0.0
 41
1.0
 10
940.2340630228498
 20
-1387.1910389710542
 30
0.0
 41
1.0
 10
940.03213518415396
 20
-1387.3969280954641
 30
0.0
 41
0.9988205335175188
 10
939.85112956717614
 20
-1387.6214323275224
 30
0.0
 41
1.0
 10
939.82048960227007
 20
-1387.6594355779539
 30
0.0
 41
1.0
 10
939.78984963736411
 20
-1387.6974388283854
 30
0.0
 41
1.0
 10
939.54756409057325
 20
-1387.9979495613081
 30
0.0
 41
0.9997077826755066
 10
939.32008613946664
 20
-1388.3098193555268
 30
0.0
 41
1.0
 10
939.31836272433782
 20
-1388.3121821389041
 30
0.0
 41
1.0
 10
939.31663930920899
 20
-1388.3145449222814
 30
0.0
 41
1.0
 10
939.08571452784224
 20
-1388.6311402832575
 30
0.0
 41
0.9989147567078731
 10
938.88525102495805
 20
-1388.9678497444438
 30
0.0
 41
1.0
 10
938.86050987965314
 20
-1389.0094063249928
 30
0.0
 41
1.0
 10
938.83576873434811
 20
-1389.0509629055418
 30
0.0
 41
1.0
 10
938.68055743570801
 20
-1389.3116642899995
 30
0.0
 41
0.9997476598181834
 10
938.53721244819849
 20
-1389.5790740385817
 30
0.0
 41
1.0
 10
938.39386746068885
 20
-1389.8464837871641
 30
0.0
 41
0.9996258967109621
 10
938.26535920875722
 20
-1390.1213317237882
 30
0.0
 41
1.0
 10
938.25215929930528
 20
-1390.1495631238886
 30
0.0
 41
1.0
 10
938.23895938985345
 20
-1390.1777945239887
 30
0.0
 41
1.0
 10
938.09875066885752
 20
-1390.4776669219336
 30
0.0
 41
0.9998735413946722
 10
937.96814932213738
 20
-1390.7818465214004
 30
0.0
 41
1.0
 10
937.96470649407684
 20
-1390.7898651068651
 30
0.0
 41
1.0
 10
937.96126366601629
 20
-1390.7978836923298
 30
0.0
 41
1.0
 10
937.83754797541565
 20
-1391.0860261208718
 30
0.0
 41
0.9999377418863062
 10
937.72029317324234
 20
-1391.3768575885433
 30
0.0
 41
1.0
 10
937.60303837106665
 20
-1391.6676890562203
 30
0.0
 41
0.9999508299505481
 10
937.4915744276899
 20
-1391.9607887330401
 30
0.0
 41
1.0
 10
937.48849365902743
 20
-1391.968889759004
 30
0.0
 41
1.0
 10
937.48541289036484
 20
-1391.9769907849682
 30
0.0
 41
1.0
 10
937.3677874096627
 20
-1392.2862925137167
 30
0.0
 41
0.9999609228431943
 10
937.2556488067878
 20
-1392.5976255297346
 30
0.0
 41
1.0
 10
937.25269279643851
 20
-1392.6058323701432
 30
0.0
 41
1.0
 10
937.24973678608922
 20
-1392.6140392105517
 30
0.0
 41
1.0
 10
937.13168616252074
 20
-1392.9417859073733
 30
0.0
 41
0.9999674607398844
 10
937.01893863645125
 20
-1393.2713945273713
 30
0.0
 41
1.0
 10
936.96754024588631
 20
-1393.4216537230704
 30
0.0
 41
1.0
 10
936.91614185532126
 20
-1393.5719129187698
 30
0.0
 41
1.0
 10
936.80013124856396
 20
-1393.911060901271
 30
0.0
 41
0.9999287532305496
 10
936.69224984459424
 20
-1394.2528816402441
 30
0.0
 41
1.0
 10
936.64577258848863
 20
-1394.4001441845085
 30
0.0
 41
1.0
 10
936.59929533238312
 20
-1394.547406728773
 30
0.0
 41
1.0
 10
936.58436844062658
 20
-1394.5947023792096
 30
0.0
 41
0.9999998224003897
 10
936.56949793189301
 20
-1394.6420157874607
 30
0.0
 41
1.0
 10
934.94884179509756
 20
-1399.7900442892501
 30
0.0
 41
1.0
 10
933.32818565830212
 20
-1404.9380727910395
 30
0.0
 41
1.0
 10
932.42287721441119
 20
-1404.9380727910395
 30
0.0
 41
1.0
 10
931.51756877052026
 20
-1404.9380727910395
 30
0.0
 41
1.0
 10
933.3696531819063
 20
-1399.0510008685719
 30
0.0
 41
1.0
 10
935.22173759329235
 20
-1393.1639289461045
 30
0.0
 41
1.0
 10
935.23185935159518
 20
-1393.1318857326548
 30
0.0
 41
1.0
 10
935.30446702044492
 20
-1392.901586190829
 30
0.0
 41
1.0
 10
935.37707468930216
 20
-1392.6712866489797
 30
0.0
 41
0.9999825681978812
 10
935.44695772851549
 20
-1392.4401457539075
 30
0.0
 41
1.0
 10
935.49524879067155
 20
-1392.2804211704272
 30
0.0
 41
1.0
 10
935.54353985282762
 20
-1392.1206965869469
 30
0.0
 41
1.0
 10
935.64069220614363
 20
-1391.7993613651749
 30
0.0
 41
0.9999672528963916
 10
935.73263101176701
 20
-1391.4764958195883
 30
0.0
 41
1.0
 10
935.7354198954348
 20
-1391.4667019742053
 30
0.0
 41
1.0
 10
935.73820877910259
 20
-1391.4569081288223
 30
0.0
 41
1.0
 10
935.82456981738869
 20
-1391.1536302740071
 30
0.0
 41
0.9999899749174717
 10
935.90821142692505
 20
-1390.8495911855493
 30
0.0
 41
1.0
 10
935.91831734594268
 20
-1390.8128559478705
 30
0.0
 41
1.0
 10
935.92842326496032
 20
-1390.7761207101917
 30
0.0
 41
1.0
 10
935.99185303646061
 20
-1390.5455520970943
 30
0.0
 41
0.9999214200504533
 10
936.04948246483741
 20
-1390.3134657548876
 30
0.0
 41
1.0
 10
936.06224831702173
 20
-1390.2620548694763
 30
0.0
 41
1.0
 10
936.07501416920604
 20
-1390.2106439840647
 30
0.0
 41
1.0
 10
936.10711189322069
 20
-1390.0813794126557
 30
0.0
 41
0.9999828681658809
 10
936.1376941452105
 20
-1389.9517479382109
 30
0.0
 41
1.0
 10
936.16827639720566
 20
-1389.8221164637453
 30
0.0
 41
0.9999389844479769
 10
936.1959873859945
 20
-1389.6918410078467
 30
0.0
 41
1.0
 10
936.20312512971509
 20
-1389.6582849040078
 30
0.0
 41
1.0
 10
936.21026287343557
 20
-1389.6247288001687
 30
0.0
 41
1.0
 10
936.25224934966468
 20
-1389.4273411365959
 30
0.0
 41
0.9998933699440634
 10
936.28845361406809
 20
-1389.2288115288318
 30
0.0
 41
1.0
 10
936.28982643928407
 20
-1389.2212835081368
 30
0.0
 41
1.0
 10
936.29119926450016
 20
-1389.2137554874419
 30
0.0
 41
1.0
 10
936.33014917933497
 20
-1389.000169838291
 30
0.0
 41
0.9996850305193886
 10
936.35833285559352
 20
-1388.7848988328556
 30
0.0
 41
1.0
 10
936.36032788896273
 20
-1388.7696604787338
 30
0.0
 41
1.0
 10
936.36232292233205
 20
-1388.7544221246123
 30
0.0
 41
1.0
 10
936.38973078479148
 20
-1388.5450768974561
 30
0.0
 41
0.999469793670646
 10
936.40345534401115
 20
-1388.3343917021243
 30
0.0
 41
1.0
 10
936.4039324132608
 20
-1388.3270682299139
 30
0.0
 41
1.0
 10
936.40440948251046
 20
-1388.3197447577038
 30
0.0
 41
1.0
 10
936.41717990323082
 20
-1388.1237065067944
 30
0.0
 41
0.9991804893136587
 10
936.41405158695795
 20
-1387.92727765682
 30
0.0
 41
1.0
 10
936.41396770813583
 20
-1387.9220108554073
 30
0.0
 41
1.0
 10
936.4138838293137
 20
-1387.9167440539943
 30
0.0
 41
1.0
 10
936.4109232706852
 20
-1387.7308488068475
 30
0.0
 41
0.998844832932164
 10
936.39013172506134
 20
-1387.5460962170132
 30
0.0
 41
1.0
 10
936.38853765135832
 20
-1387.531931361242
 30
0.0
 41
1.0
 10
936.3869435776553
 20
-1387.5177665054707
 30
0.0
 41
1.0
 10
936.36934017943759
 20
-1387.3613436271798
 30
0.0
 41
0.9985503209458704
 10
936.33502390713807
 20
-1387.2077194430906
 30
0.0
 41
1.0
 10
936.32743791506698
 20
-1387.1737591156907
 30
0.0
 41
1.0
 10
936.31985192299589
 20
-1387.139798788291
 30
0.0
 41
1.0
 10
936.30070763483832
 20
-1387.0540952590004
 30
0.0
 41
0.9991036781370192
 10
936.27438277318731
 20
-1386.9703181716764
 30
0.0
 41
1.0
 10
936.27040054773101
 20
-1386.9576450091647
 30
0.0
 41
1.0
 10
936.26641832227472
 20
-1386.9449718466531
 30
0.0
 41
1.0
 10
936.24805791153665
 20
-1386.8865410843534
 30
0.0
 41
0.9998874504369649
 10
936.22795270385768
 20
-1386.8286874821281
 30
0.0
 41
1.0
 10
936.20784749617883
 20
-1386.7708338799034
 30
0.0
 41
0.9994041637543784
 10
936.18379888324375
 20
-1386.7145051760119
 30
0.0
 41
1.0
 10
936.17960209902049
 20
-1386.704675111532
 30
0.0
 41
1.0
 10
936.17540531479733
 20
-1386.694845047052
 30
0.0
 41
1.0
 10
936.14752648380295
 20
-1386.6295448810854
 30
0.0
 41
0.9991846840702957
 10
936.11447012710937
 20
-1386.5667068498037
 30
0.0
 41
1.0
 10
936.11333352071483
 20
-1386.56454623335
 30
0.0
 41
1.0
 10
936.11219691432029
 20
-1386.5623856168961
 30
0.0
 41
1.0
 10
936.08141377041727
 20
-1386.5038688185252
 30
0.0
 41
0.9989253167923657
 10
936.04534434636128
 20
-1386.4484538901334
 30
0.0
 41
1.0
 10
936.04429022168665
 20
-1386.4468343953704
 30
0.0
 41
1.0
 10
936.04323609701214
 20
-1386.4452149006077
 30
0.0
 41
1.0
 10
936.00927492230596
 20
-1386.3930389617426
 30
0.0
 41
0.9986467172835915
 10
935.97007776966893
 20
-1386.3446729281136
 30
0.0
 41
1.0
 10
935.96920364096832
 20
-1386.3435943258355
 30
0.0
 41
1.0
 10
935.9683295122677
 20
-1386.3425157235572
 30
0.0
 41
1.0
 10
935.93088061703213
 20
-1386.2963068944846
 30
0.0
 41
0.9984001104268612
 10
935.88845388651441
 20
-1386.254621787115
 30
0.0
 41
1.0
 10
935.88786674840503
 20
-1386.2540449122337
 30
0.0
 41
1.0
 10
935.88727961029565
 20
-1386.2534680373524
 30
0.0
 41
1.0
 10
935.8460271559976
 20
-1386.2129366797467
 30
0.0
 41
0.9982442159083739
 10
935.80027105466161
 20
-1386.1775681184861
 30
0.0
 41
1.0
 10
935.80005625919955
 20
-1386.1774020858427
 30
0.0
 41
1.0
 10
935.79984146373749
 20
-1386.1772360531993
 30
0.0
 41
1.0
 10
935.75451495332561
 20
-1386.1421995572257
 30
0.0
 41
0.9982450060835437
 10
935.70536397425417
 20
-1386.1127677741924
 30
0.0
 41
1.0
 10
935.65621299518295
 20
-1386.0833359911592
 30
0.0
 41
0.998392263963522
 10
935.60404668901754
 20
-1386.0596563565045
 30
0.0
 41
1.0
 10
935.60381981169303
 20
-1386.0595533710232
 30
0.0
 41
1.0
 10
935.60359293436863
 20
-1386.0594503855418
 30
0.0
 41
1.0
 10
935.55097287355488
 20
-1386.0355647799249
 30
0.0
 41
0.998651714715001
 10
935.49615990068673
 20
-1386.0172636608031
 30
0.0
 41
1.0
 10
935.49548197925901
 20
-1386.0170373143717
 30
0.0
 41
1.0
 10
935.49480405783129
 20
-1386.0168109679403
 30
0.0
 41
1.0
 10
935.43863524210781
 20
-1385.9980571559556
 30
0.0
 41
0.9989435598956035
 10
935.38098185495653
 20
-1385.9845394537213
 30
0.0
 41
1.0
 10
935.37990173537469
 20
-1385.9842862034682
 30
0.0
 41
1.0
 10
935.37882161579284
 20
-1385.9840329532151
 30
0.0
 41
1.0
 10
935.31900798947834
 20
-1385.9700087504748
 30
0.0
 41
0.9992249241239852
 10
935.25827648058203
 20
-1385.9607334077598
 30
0.0
 41
1.0
 10
935.25686279229035
 20
-1385.9605174993517
 30
0.0
 41
1.0
 10
935.25544910399856
 20
-1385.9603015909438
 30
0.0
 41
1.0
 10
935.19189021852048
 20
-1385.950594431413
 30
0.0
 41
0.9994396597833773
 10
935.12782428198466
 20
-1385.9451615090672
 30
0.0
 41
1.0
 10
935.10868361450559
 20
-1385.9435383413484
 30
0.0
 41
1.0
 10
935.08954294702653
 20
-1385.9419151736297
 30
0.0
 41
1.0
 10
934.98719567553405
 20
-1385.9332359158468
 30
0.0
 41
0.9987693403121541
 10
934.88449205194763
 20
-1385.9347389792995
 30
0.0
 41
1.0
 10
934.87423771772114
 20
-1385.9348890510737
 30
0.0
 41
1.0
 10
934.86398338349466
 20
-1385.9350391228479
 30
0.0
 41
1.0
 10
934.75442761731483
 20
-1385.9366424671352
 30
0.0
 41
0.9989753644966373
 10
934.64546561729719
 20
-1385.9481454740603
 30
0.0
 41
1.0
 10
934.53650361728273
 20
-1385.9596484809854
 30
0.0
 41
0.9983190067306955
 10
934.42960480631996
 20
-1385.9836834727714
 30
0.0
 41
1.0
 10
934.42070385471106
 20
-1385.9856847513347
 30
0.0
 41
1.0
 10
934.41180290310228
 20
-1385.9876860298978
 30
0.0
 41
1.0
 10
934.28710218892138
 20
-1386.0157235788104
 30
0.0
 41
0.9985539388302479
 10
934.16613243524137
 20
-1386.0569872548569
 30
0.0
 41
1.0
 10
934.16378700428322
 20
-1386.0577872986719
 30
0.0
 41
1.0
 10
934.16144157332519
 20
-1386.058587342487
 30
0.0
 41
1.0
 10
934.03578095772582
 20
-1386.1014511061646
 30
0.0
 41
0.9988468746493592
 10
933.91481061542436
 20
-1386.1561691912277
 30
0.0
 41
1.0
 10
933.91162779343665
 20
-1386.1576088657871
 30
0.0
 41
1.0
 10
933.90844497144894
 20
-1386.1590485403467
 30
0.0
 41
1.0
 10
933.7811089851715
 20
-1386.2166459745288
 30
0.0
 41
0.9991322885919013
 10
933.65900840111556
 20
-1386.2846413067102
 30
0.0
 41
1.0
 10
933.64140639007053
 20
-1386.2944435087006
 30
0.0
 41
1.0
 10
933.6238043790255
 20
-1386.304245710691
 30
0.0
 41
1.0
 10
933.52162769796894
 20
-1386.3611458264713
 30
0.0
 41
0.9993860037849071
 10
933.423686693896
 20
-1386.4250618420597
 30
0.0
 41
1.0
 10
933.4180683810448
 20
-1386.4287283367539
 30
0.0
 41
1.0
 10
933.41245006819361
 20
-1386.4323948314482
 30
0.0
 41
1.0
 10
933.32574568982375
 20
-1386.4889778576476
 30
0.0
 41
0.9998821494953071
 10
933.24081931400985
 20
-1386.548196087725
 30
0.0
 41
1.0
 10
933.15589293819551
 20
-1386.6074143178027
 30
0.0
 41
0.9997976482744794
 10
933.07341730779285
 20
-1386.6700007258439
 30
0.0
 41
1.0
 10
933.05878104298824
 20
-1386.6811074156235
 30
0.0
 41
1.0
 10
933.04414477818364
 20
-1386.6922141054031
 30
0.0
 41
1.0
 10
932.9323966181679
 20
-1386.7770138930061
 30
0.0
 41
0.9998091630801571
 10
932.82404634014154
 20
-1386.8661142437068
 30
0.0
 41
1.0
 10
932.81104058766471
 20
-1386.8768093441524
 30
0.0
 41
1.0
 10
932.79803483518788
 20
-1386.8875044445981
 30
0.0
 41
1.0
 10
932.66367305220342
 20
-1386.9979949961935
 30
0.0
 41
0.9995035112317218
 10
932.53653717443797
 20
-1387.1167288132103
 30
0.0
 41
1.0
 10
932.52688986405258
 20
-1387.1257385593665
 30
0.0
 41
1.0
 10
932.51724255366719
 20
-1387.1347483055226
 30
0.0
 41
1.0
 10
932.39381949090318
 20
-1387.2500146772772
 30
0.0
 41
0.99946304242992
 10
932.2782110851183
 20
-1387.3731174205132
 30
0.0
 41
1.0
 10
932.27452824634543
 20
-1387.3770390000277
 30
0.0
 41
1.0
 10
932.27084540757244
 20
-1387.3809605795425
 30
0.0
 41
1.0
 10
932.16260267933308
 20
-1387.4962201637497
 30
0.0
 41
0.9995160693750003
 10
932.06173664980236
 20
-1387.617987581621
 30
0.0
 41
1.0
 10
932.05980292972254
 20
-1387.6203220058283
 30
0.0
 41
1.0
 10
932.0578692096426
 20
-1387.6226564300352
 30
0.0
 41
1.0
 10
931.96087062027175
 20
-1387.7397549994919
 30
0.0
 41
0.999656147051488
 10
931.87014440160453
 20
-1387.8617777619427
 30
0.0
 41
1.0
 10
931.86398673570056
 20
-1387.8700595509877
 30
0.0
 41
1.0
 10
931.85782906979671
 20
-1387.8783413400326
 30
0.0
 41
1.0
 10
931.77941818293471
 20
-1387.9838005243971
 30
0.0
 41
0.9998349055171552
 10
931.70489090100648
 20
-1388.0920391080554
 30
0.0
 41
1.0
 10
931.63036361906791
 20
-1388.2002776917279
 30
0.0
 41
0.9999728109562165
 10
931.5574407231602
 20
-1388.3096036172799
 30
0.0
 41
1.0
 10
931.55612550775049
 20
-1388.3115753867794
 30
0.0
 41
1.0
 10
931.55481029234068
 20
-1388.3135471562789
 30
0.0
 41
1.0
 10
931.47925696558866
 20
-1388.4268166208667
 30
0.0
 41
0.9999972147460927
 10
931.40423915521956
 20
-1388.5404414636953
 30
0.0
 41
1.0
 10
931.39926761260392
 20
-1388.5479715521574
 30
0.0
 41
1.0
 10
931.39429606998829
 20
-1388.5555016406197
 30
0.0
 41
1.0
 10
931.30933517437575
 20
-1388.6841866603907
 30
0.0
 41
0.9999371979006501
 10
931.22727982497406
 20
-1388.8147435741635
 30
0.0
 41
1.0
 10
931.22377094060766
 20
-1388.8203265022357
 30
0.0
 41
1.0
 10
931.22026205624115
 20
-1388.8259094303082
 30
0.0
 41
1.0
 10
931.13118893811054
 20
-1388.9676322002199
 30
0.0
 41
0.9998272025609526
 10
931.04744554722913
 20
-1389.1125680769617
 30
0.0
 41
1.0
 10
931.03223037520581
 20
-1389.1389011914171
 30
0.0
 41
1.0
 10
931.0170152031825
 20
-1389.1652343058727
 30
0.0
 41
1.0
 10
930.90284146825331
 20
-1389.3628364115268
 30
0.0
 41
0.9995217214838154
 10
930.80110177869688
 20
-1389.5671187393903
 30
0.0
 41
1.0
 10
930.79345821606125
 20
-1389.5824661890942
 30
0.0
 41
1.0
 10
930.78581465342575
 20
-1389.5978136387982
 30
0.0
 41
1.0
 10
930.69890936083664
 20
-1389.7723100968783
 30
0.0
 41
0.9998269762606361
 10
930.61855489456491
 20
-1389.9499183836012
 30
0.0
 41
1.0
 10
930.53820042829182
 20
-1390.1275266703271
 30
0.0
 41
0.9998944747387578
 10
930.46303963372623
 20
-1390.3073943959585
 30
0.0
 41
1.0
 10
930.45808596413565
 20
-1390.3192490508745
 30
0.0
 41
1.0
 10
930.45313229454507
 20
-1390.3311037057906
 30
0.0
 41
1.0
 10
930.37248523399444
 20
-1390.5241006458032
 30
0.0
 41
0.9999506734408646
 10
930.29568770508899
 20
-1390.7186614506641
 30
0.0
 41
1.0
 10
930.28108773981262
 20
-1390.7556493724837
 30
0.0
 41
1.0
 10
930.26648777453624
 20
-1390.7926372943036
 30
0.0
 41
1.0
 10
930.21889017618184
 20
-1390.9132222555293
 30
0.0
 41
0.999991239391723
 10
930.17230373216296
 20
-1391.0342014582161
 30
0.0
 41
1.0
 10
930.12571728813259
 20
-1391.1551806609323
 30
0.0
 41
0.9999927113970847
 10
930.08005599374133
 20
-1391.2765120684269
 30
0.0
 41
1.0
 10
930.06608756234607
 20
-1391.3136290504194
 30
0.0
 41
1.0
 10
930.05211913095081
 20
-1391.3507460324117
 30
0.0
 41
1.0
 10
929.97852097376142
 20
-1391.5463114039105
 30
0.0
 41
0.9999487550950048
 10
929.90889734879408
 20
-1391.743326769081
 30
0.0
 41
1.0
 10
929.88530373885351
 20
-1391.8100900793843
 30
0.0
 41
1.0
 10
929.86171012891282
 20
-1391.8768533896878
 30
0.0
 41
1.0
 10
929.76702449454433
 20
-1392.1447872245067
 30
0.0
 41
0.9999808436937928
 10
929.67566290590366
 20
-1392.413872655769
 30
0.0
 41
1.0
 10
929.58430131725902
 20
-1392.6829580870431
 30
0.0
 41
0.999987393292162
 10
929.49564660854469
 20
-1392.9529474420451
 30
0.0
 41
1.0
 10
929.47555425167502
 20
-1393.0141367747988
 30
0.0
 41
1.0
 10
929.45546189480547
 20
-1393.0753261075527
 30
0.0
 41
1.0
 10
929.32662247235123
 20
-1393.4676941280641
 30
0.0
 41
0.999979488302755
 10
929.20281968738857
 20
-1393.8616803343557
 30
0.0
 41
1.0
 10
929.19166742794619
 20
-1393.8971709446084
 30
0.0
 41
1.0
 10
929.1805151685038
 20
-1393.9326615548612
 30
0.0
 41
1.0
 10
929.03795700462342
 20
-1394.3863343068924
 30
0.0
 41
0.9999982761741264
 10
928.89708456460289
 20
-1394.840533329033
 30
0.0
 41
1.0
 10
927.30894423203029
 20
-1399.8893030600361
 30
0.0
 41
1.0
 10
925.72080389945768
 20
-1404.9380727910395
 30
0.0
 41
1.0
 10
924.77205328798129
 20
-1404.9380727910395
 30
0.0
 41
1.0
 10
923.82330267650491
 20
-1404.9380727910395
 30
0.0
 41
1.0
 10
927.06158716265816
 20
-1394.6107505910934
 30
0.0
 41
1.0
 10
930.2998716488114
 20
-1384.2834283911473
 30
0.0
 41
1.0
  0
LWPOLYLINE
  5
61
100
AcDbEntity
  8
0
370
              15
390
0
  6
Continuous
 62
               7
100
AcDbPolyline
 90
      232
 70
             128
 10
904.59632587498436
 20
-1385.3677712226624
 42
0.0004370800679417
 10
904.54344870110162
 20
-1385.4364378616724
 10
904.50416446978488
 20
-1385.4875449748151
 42
0.0030481992180793
 10
904.37382575262836
 20
-1385.6592666672093
 10
904.33531408091528
 20
-1385.7106534509476
 42
0.0042058245754909
 10
904.13132903024484
 20
-1385.9876591960219
 10
904.07892390774475
 20
-1386.0600920428019
 42
0.0120948898741866
 10
903.78287999099075
 20
-1386.4908416473399
 10
903.68668749185633
 20
-1386.638322382584
 42
0.0141601263954129
 10
903.3830434449394
 20
-1387.1339917193113
 10
903.34350617751534
 20
-1387.2028356867397
 42
0.0071131081301779
 10
903.13823385427497
 20
-1387.5723384855812
 42
0.0068458791006418
 10
902.94335432742889
 20
-1387.9474300490629
 10
902.93654246497408
 20
-1387.9609917627808
 42
0.0064120880286279
 10
902.73840021493595
 20
-1388.3684162376867
 10
902.73086552941277
 20
-1388.3844280944211
 42
0.0058857236449179
 10
902.52811013754115
 20
-1388.8288042054558
 10
902.51993521124712
 20
-1388.84729435909
 42
0.0053189741894369
 10
902.31123089857567
 20
-1389.3332578330173
 10
902.30248309289823
 20
-1389.3542397112042
 42
0.0047503650419865
 10
902.08650936675031
 20
-1389.8864391444069
 10
902.07724111839946
 20
-1389.9099155205217
 42
0.0042071762173089
 10
901.85269373466645
 20
-1390.4930091146057
 10
901.8429443323231
 20
-1390.5189752894612
 42
0.0036680086485242
 10
901.60848968901462
 20
-1391.1576106739824
 10
901.59828190916323
 20
-1391.1860592083367
 42
0.0032573142626166
 10
901.35264962320252
 20
-1391.8849118680725
 10
901.28399910235566
 20
-1392.0843749521432
 42
0.0026133366648819
 10
900.93555390359779
 20
-1393.114238235815
 10
900.87229711610496
 20
-1393.3044690711847
 42
0.0020592950741957
 10
900.65843404713007
 20
-1393.9565727238212
 10
900.6553822559714
 20
-1393.9660092122174
 42
0.0025609928537044
 10
900.45356175448114
 20
-1394.6011544345968
 10
900.45097038733877
 20
-1394.6094567755877
 42
0.0031362356242575
 10
900.26147960167748
 20
-1395.2302196317169
 10
900.25934855874993
 20
-1395.2373609379283
 42
0.0037229918029508
 10
900.08254817182365
 20
-1395.8463462399022
 10
900.08086958262231
 20
-1395.8522931300586
 42
0.004307762370812
 10
899.91712878055216
 20
-1396.4521118618454
 42
0.0047654161824549
 10
899.76430005803604
 20
-1397.0547979507487
 10
899.72983544919714
 20
-1397.1963597278977
 42
0.0112969368444827
 10
899.53397109105413
 20
-1398.0880518885192
 10
899.50596470195694
 20
-1398.2308799346197
 42
0.0130056762572017
 10
899.30512745831027
 20
-1399.4178210062646
 10
899.28458770816349
 20
-1399.5618991197391
 42
0.0138721532146357
 10
899.18088470362522
 20
-1400.4687286055673
 10
899.16158921571764
 20
-1400.6922263274882
 42
0.0071254697007628
 10
899.12824256979479
 20
-1401.1554133363397
 10
899.12328159563231
 20
-1401.2414173308853
 42
0.0028881799195942
 10
899.10814330234166
 20
-1401.5331590407422
 42
0.006029729713342
 10
899.09821110256621
 20
-1401.8251079768513
 10
899.09714882089895
 20
-1401.873500348793
 42
0.0229523164159499
 10
899.10487984868473
 20
-1402.1962551950737
 10
899.10910562220488
 20
-1402.2566587290873
 42
0.0123673300669651
 10
899.12818426872343
 20
-1402.4577794542647
 42
0.0128577674471499
 10
899.15737965912945
 20
-1402.65767730419
 10
899.16450553251673
 20
-1402.6990061187885
 42
0.028571785376387
 10
899.22899953421245
 20
-1402.977122270102
 10
899.24266805787909
 20
-1403.02377703958
 42
0.0316283099157272
 10
899.35847863779316
 20
-1403.3427915414049
 10
899.36152732954872
 20
-1403.3497779137303
 42
0.0338984824236665
 10
899.5109590405159
 20
-1403.6373438779196
 10
899.51326776988515
 20
-1403.6411349071946
 42
0.0350228718352172
 10
899.69562806055933
 20
-1403.8981868918725
 10
899.69651331233467
 20
-1403.8992659696369
 42
0.0347476747529401
 10
899.91093799957446
 20
-1404.1264510168567
 42
0.0331337701910898
 10
900.15418132532147
 20
-1404.3225796789343
 10
900.15528142383698
 20
-1404.3233523821063
 42
0.0305233319080439
 10
900.42382611941093
 20
-1404.4884805521983
 10
900.42705616391152
 20
-1404.4902045640606
 42
0.0273744481153595
 10
900.71960987548607
 20
-1404.6263427079509
 10
900.72471441062328
 20
-1404.6283862924206
 42
0.0240964406194192
 10
901.04019148626662
 20
-1404.7373700187013
 10
901.04677481547901
 20
-1404.7392947583771
 42
0.0209636179809486
 10
901.38417496812917
 20
-1404.8227629063085
 10
901.39180742858036
 20
-1404.8243148193105
 42
0.0181388704692219
 10
901.75012982057763
 20
-1404.8837309125242
 10
901.75841066895691
 20
-1404.8847970963416
 42
0.0156086547586099
 10
902.13659803314579
 20
-1404.9215332829183
 10
902.17979328547779
 20
-1404.9243717853974
 42
0.0137148329024564
 10
902.50746643077161
 20
-1404.9368920406487
 10
902.55340262070911
 20
-1404.9373864737638
 42
0.0051057823885116
 10
902.78954820728984
 20
-1404.9375167281728
 42
0.0052256693316559
 10
903.02564549107444
 20
-1404.9327679037085
 10
903.09587227481791
 20
-1404.9306209376946
 42
0.0161507179048285
 10
903.47160935291924
 20
-1404.906970567368
 10
903.49162231329228
 20
-1404.9050603720805
 42
0.0101216737833268
 10
903.90564953478349
 20
-1404.8570674417149
 10
903.9397028242098
 20
-1404.8524197449053
 42
0.0245291776396689
 10
904.41649247976125
 20
-1404.7633446668292
 10
904.50131579527988
 20
-1404.7431487464846
 42
0.0143509212552179
 10
904.85794689922443
 20
-1404.6473441127046
 42
0.0156557857036023
 10
905.20816296395299
 20
-1404.5303328968853
 10
905.21566417844633
 20
-1404.5275627351316
 42
0.0170137333631044
 10
905.57226017413097
 20
-1404.3819051202588
 10
905.57936409653519
 20
-1404.3787172846967
 42
0.018310536441182
 10
905.93871376469951
 20
-1404.2013822428733
 10
905.94566052934022
 20
-1404.1976318080001
 42
0.0194899958152727
 10
906.30414127032509
 20
-1403.9856528261089
 10
906.31115514966098
 20
-1403.9811274838144
 42
0.0204869852955008
 10
906.66516945175636
 20
-1403.7316074687274
 10
906.67243506034197
 20
-1403.7260274033802
 42
0.0212516938554281
 10
907.01842499144482
 20
-1403.4361234064904
 10
907.06494168552581
 20
-1403.3936560963919
 42
0.0215248918251368
 10
907.32496785441322
 20
-1403.1348918173976
 10
907.36999758879676
 20
-1403.0860476960445
 42
0.0114578554955249
 10
907.52478974247117
 20
-1402.9102247625892
 10
907.53598427846237
 20
-1402.8969059990384
 42
0.0061531305140866
 10
907.66245892445227
 20
-1402.7426164657381
 42
0.0006325587122165
 10
907.78683740863653
 20
-1402.5866130900217
 10
907.80987754365549
 20
-1402.5576395694031
 42
0.0041897761557751
 10
907.9783329476237
 20
-1402.342120193347
 10
908.0367950675203
 20
-1402.266018846356
 42
0.0092993880039656
 10
908.31340699474424
 20
-1401.8917400824719
 10
908.39580148794494
 20
-1401.7758030789009
 42
0.0159321727087168
 10
908.74240797058542
 20
-1401.2536288581475
 10
908.78676410597814
 20
-1401.1819492938916
 42
0.0085547317022072
 10
909.02127587130019
 20
-1400.7880743446729
 42
0.0084601156887917
 10
909.24225204873676
 20
-1400.3864474956513
 10
909.25036752257256
 20
-1400.3710878133677
 42
0.0081429654285546
 10
909.47361679301264
 20
-1399.9313663008215
 10
909.48247695719408
 20
-1399.9131874588074
 42
0.0076574581327635
 10
909.70888446776291
 20
-1399.43000458355
 10
909.71836410848448
 20
-1399.4089401052515
 42
0.0070682724198872
 10
909.94880901629028
 20
-1398.8769028004726
 10
909.95879930027297
 20
-1398.8529136114585
 42
0.0064559514447705
 10
910.19413250845525
 20
-1398.2666013449384
 10
910.20454186661971
 20
-1398.2396664194976
 42
0.0058311413909017
 10
910.44558860338202
 20
-1397.5936343251149
 10
910.45634368077003
 20
-1397.5637499839531
 42
0.0052312425819057
 10
910.70392495880969
 20
-1396.8525475701222
 10
910.71496879519066
 20
-1396.8197208580491
 42
0.0046680544797942
 10
910.96989722292903
 20
-1396.0378945422815
 10
911.01188937297923
 20
-1395.9049113049684
 42
0.0041666856445823
 10
911.21517538536364
 20
-1395.2419425299965
 10
911.25283782602185
 20
-1395.115361422362
 42
0.0015170975152609
 10
911.37402440444055
 20
-1394.7034930708492
 42
-0.0004887993109362
 10
911.49436417760478
 20
-1394.2913746586669
 10
911.5708414350587
 20
-1394.0304172728661
 42
0.0002583378927851
 10
911.84405600512082
 20
-1393.0963605696938
 10
911.92582885470028
 20
-1392.816261310101
 42
0.0006636169672884
 10
912.11969661471085
 20
-1392.148908386517
 10
912.12479326907157
 20
-1392.1312768035896
 42
0.0010589131324638
 10
912.30624196997451
 20
-1391.498545460588
 10
912.31122404046937
 20
-1391.4810325535173
 42
0.001565552446299
 10
912.47949424763783
 20
-1390.8824158743671
 10
912.48432444806008
 20
-1390.865023715405
 42
0.0021640440479338
 10
912.63861442003883
 20
-1390.299996697413
 10
912.64324863947115
 20
-1390.2827319674104
 42
0.0028763871850699
 10
912.78276435752173
 20
-1389.7507640165722
 10
912.78715022169297
 20
-1389.733640038402
 42
0.0037310511947314
 10
912.91110691352583
 20
-1389.234192444394
 10
912.91518213381414
 20
-1389.2172321731514
 42
0.0047652197770852
 10
913.02280603432325
 20
-1388.7497544048433
 10
913.0264966336473
 20
-1388.7329948496902
 42
0.0060276699303704
 10
913.11702673280035
 20
-1388.2969190545491
 10
913.12024542309052
 20
-1388.2804178402343
 42
0.0075824337757054
 10
913.19293473250502
 20
-1387.8751506758138
 10
913.19558010988635
 20
-1387.8589957283568
 42
0.0095130624611091
 10
913.24969534551644
 20
-1387.4839063752916
 10
913.25668156939867
 20
-1387.4279728171778
 42
0.0121054653229289
 10
913.28327289997685
 20
-1387.1630769887011
 10
913.28413938973597
 20
-1387.1516735457767
 42
0.0069050827391867
 10
913.29922820777415
 20
-1386.9087323189278
 10
913.30036350744251
 20
-1386.8852060618876
 42
0.0169063976701585
 10
913.30319078642299
 20
-1386.6890133345823
 10
913.30202013489202
 20
-1386.6286775732469
 42
0.00520077328842
 10
913.29976668629865
 20
-1386.553084183081
 42
0.0054038123299897
 10
913.27980317446111
 20
-1386.4330658870786
 10
913.27471731858941
 20
-1386.4044074004898
 42
0.0112050460469535
 10
913.23933295653126
 20
-1386.2280809621525
 10
913.22150799449025
 20
-1386.1485393754301
 42
0.0240764468005957
 10
913.13061062834402
 20
-1385.818302339929
 10
913.11205186553047
 20
-1385.7616821749345
 42
0.0256812331832322
 10
912.96868894534111
 20
-1385.3899579686777
 10
912.96327951951935
 20
-1385.3778266336872
 42
0.0268360501217826
 10
912.79385227866987
 20
-1385.0468334996669
 10
912.78831587103525
 20
-1385.0373138293555
 42
0.0274670231728151
 10
912.59611489462145
 20
-1384.7450264544373
 10
912.59073359465924
 20
-1384.7377473068964
 42
0.0275035967098132
 10
912.37916071509699
 20
-1384.482231416592
 10
912.37409121413054
 20
-1384.4767523289615
 42
0.0269557673523895
 10
912.14668767069088
 20
-1384.2561100429994
 10
912.1419446129089
 20
-1384.2519800885391
 42
0.02591248022068
 10
911.9023897814775
 20
-1384.064289561386
 10
911.89785893629539
 20
-1384.0611040590557
 42
0.0245162153003536
 10
911.64994258320087
 20
-1383.9043710499454
 10
911.64541603687701
 20
-1383.9018108527448
 42
0.0229282588844877
 10
911.39299648004931
 20
-1383.7739426602457
 10
911.38821598621519
 20
-1383.7717903604848
 42
0.0212984135695559
 10
911.13517803375078
 20
-1383.6705914432414
 10
911.12987374878151
 20
-1383.6687278804816
 42
0.0197555462349371
 10
910.88009541105828
 20
-1383.5919124625166
 42
0.018351189679283
 10
910.62516668559385
 20
-1383.5343295555508
 10
910.53880148887163
 20
-1383.5181267651658
 42
0.0338057877144312
 10
910.25329413961174
 20
-1383.4843183600256
 10
910.16228873457169
 20
-1383.4797387047643
 42
0.0091990524490717
 10
910.0564416259358
 20
-1383.4763628488422
 42
0.002833398078674
 10
909.95052770994721
 20
-1383.4755347413256
 10
909.9496122568936
 20
-1383.4755327715015
 42
-0.0023619827804951
 10
909.84186624179597
 20
-1383.474791930423
 10
909.80546107161183
 20
-1383.4743696239598
 42
0.0008824598471223
 10
909.62490508172323
 20
-1383.4725938457211
 10
909.58104364935593
 20
-1383.4722398841959
 42
0.0038132665763906
 10
909.31276075348512
 20
-1383.4721209481293
 10
909.29622709868363
 20
-1383.472239714273
 42
0.0060665569335579
 10
908.9949466070974
 20
-1383.4780600136937
 10
908.98069627506698
 20
-1383.4785083216614
 42
0.0080356953336687
 10
908.65123755872389
 20
-1383.4941760437284
 10
908.6391675436405
 20
-1383.4949446266687
 42
0.0098996399106022
 10
908.28640445898736
 20
-1383.5244298558671
 10
908.27635874961493
 20
-1383.5254701520651
 42
0.0117740981366489
 10
907.90520189126732
 20
-1383.5727623995947
 10
907.89697919478363
 20
-1383.5740075161657
 42
0.0137435215137172
 10
907.5123903752941
 20
-1383.6431044897283
 10
907.50573333617524
 20
-1383.644490385961
 42
0.0158359869386984
 10
907.11273624237151
 20
-1383.739382474442
 10
907.10732305550562
 20
-1383.7408724153122
 42
0.0180554124026964
 10
906.71100801089347
 20
-1383.8655104315508
 10
906.70645122280973
 20
-1383.8671264678173
 42
0.0203657431285382
 10
906.31197370499672
 20
-1384.0253868093337
 10
906.30783016599105
 20
-1384.0272484307748
 42
0.0226819684657288
 10
905.92039410978555
 20
-1384.222891009447
 10
905.91619431876927
 20
-1384.2252566013658
 42
0.024863498460645
 10
905.54101237758812
 20
-1384.4618832473127
 10
905.49281744880375
 20
-1384.4957402891387
 42
0.0267044190884283
 10
905.21852475188757
 20
-1384.7111806650069
 42
0.0139303002198896
 10
904.96235758595515
 20
-1384.9484195059126
 10
904.95750420022785
 20
-1384.9531721687788
 42
0.0283460963446713
 10
904.71343160599952
 20
-1385.2209028292252
 10
904.6737631008441
 20
-1385.269704406697
 42
0.0070695364826256
 10
904.59632587498436
 20
-1385.3677712226624
 42
0.0070695364826256
  0
LWPOLYLINE
  5
62
100
AcDbEntity
  8
0
370
              15
390
0
  6
Continuous
 62
               7
100
AcDbPolyline
 90
      226
 70
             128
 10
901.06750543773796
 20
-1401.0893600288464
 42
-0.0026277636607057
 10
901.06742755393793
 20
-1401.0225881030794
 10
901.06764491216995
 20
-1400.9694328856604
 42
-0.0088680296722419
 10
901.07142152846336
 20
-1400.796417103247
 10
901.0737678875754
 20
-1400.7371370778037
 42
-0.0077381705615522
 10
901.08981399833942
 20
-1400.445876581992
 10
901.09068190951155
 20
-1400.4335883483204
 42
-0.0068872530533739
 10
901.11731398926042
 20
-1400.1183665962437
 10
901.11851821344578
 20
-1400.1061256172325
 42
-0.0062130021482718
 10
901.15611193027496
 20
-1399.7672559259836
 10
901.15761583380879
 20
-1399.7550820540775
 42
-0.0056726929666733
 10
901.20653769330977
 20
-1399.3928868319736
 10
901.20831113895554
 20
-1399.3807930317189
 42
-0.0052341884490221
 10
901.26892172521673
 20
-1398.9955997761936
 10
901.27093971399211
 20
-1398.9835948462085
 42
-0.0049768450163083
 10
901.34367839542222
 20
-1398.5757502787551
 10
901.36792741014017
 20
-1398.4472022957698
 42
-0.0089029805623325
 10
901.5050082619357
 20
-1397.7854268483438
 10
901.53775363725345
 20
-1397.640395417824
 42
-0.0080318257098789
 10
901.76730225159611
 20
-1396.6946857859632
 10
901.77928717804241
 20
-1396.6485551507803
 42
-0.0074265721317039
 10
902.06329871689502
 20
-1395.6184905723906
 10
902.08317826000803
 20
-1395.5503565118138
 42
-0.0069711922702205
 10
902.4104828385158
 20
-1394.4840887714822
 10
902.47043478562273
 20
-1394.2980674131072
 42
-0.0052070422892345
 10
902.69986001088057
 20
-1393.6107953360804
 10
902.71714120302772
 20
-1393.5607680555356
 42
-0.0009167004449604
 10
902.92023309034221
 20
-1392.9763122073091
 42
-0.0025162726943931
 10
903.12733072060064
 20
-1392.3932709431583
 10
903.16455533240617
 20
-1392.2901213972525
 42
-0.0028212681457631
 10
903.41273125137332
 20
-1391.6143907650703
 10
903.42256201412954
 20
-1391.5880833203785
 42
-0.0031964916822847
 10
903.65885427178625
 20
-1390.9678785582664
 10
903.66848872578259
 20
-1390.9430685681298
 42
-0.0036281836451334
 10
903.89359468688644
 20
-1390.3756278872302
 10
903.90303309704245
 20
-1390.3523304557307
 42
-0.0041269166829688
 10
904.11765079370309
 20
-1389.8348895597489
 10
904.15028375012287
 20
-1389.7580111133902
 42
-0.0047472213055819
 10
904.30732855567749
 20
-1389.3975896455045
 10
904.31422263688762
 20
-1389.3821690481682
 42
-0.0025651659997371
 10
904.46258067073586
 20
-1389.054840992424
 42
-0.0057144634995048
 10
904.61633036450598
 20
-1388.730031319064
 10
904.6443610699115
 20
-1388.6725229366612
 42
-0.0065388068373765
 10
904.82782809764831
 20
-1388.3082904400023
 10
904.83628655342682
 20
-1388.2920308606328
 42
-0.007451084301986
 10
905.01246879930466
 20
-1387.96534257951
 10
905.02064846983433
 20
-1387.9507018022437
 42
-0.0084648979857952
 10
905.19028232293567
 20
-1387.6587927912801
 10
905.19813844942382
 20
-1387.6457857996293
 42
-0.0095638542805224
 10
905.36197389701795
 20
-1387.3858969276507
 10
905.36944884069226
 20
-1387.3745275661913
 42
-0.0107191626804486
 10
905.52825042107725
 20
-1387.1439163316513
 10
905.53526715480825
 20
-1387.1341802392867
 42
-0.0118458573903881
 10
905.68981525332083
 20
-1386.9301080439759
 42
-0.0129184518188581
 10
905.85426787692609
 20
-1386.7339475278013
 10
905.88441264928929
 20
-1386.6998214489015
 42
-0.0217742579628076
 10
906.0610249716209
 20
-1386.516614678656
 10
906.07177051608096
 20
-1386.5063978454534
 42
-0.0097266568654481
 10
906.23782813493699
 20
-1386.3545502710156
 42
-0.0187720905719595
 10
906.41217571082427
 20
-1386.2124814176282
 10
906.44288170150253
 20
-1386.1893223352288
 42
-0.0179428207517514
 10
906.67530242149678
 20
-1386.0267701581186
 10
906.67895474840714
 20
-1386.0244062232343
 42
-0.0170047877699453
 10
906.91471838594293
 20
-1385.8829457090792
 10
906.91850137469044
 20
-1385.8808474040425
 42
-0.0160190788363567
 10
907.15540992232479
 20
-1385.7591961020548
 42
-0.015110286149134
 10
907.39944170477168
 20
-1385.6525133260002
 10
907.45182820698324
 20
-1385.6314731931056
 42
-0.027194544188635
 10
907.81049076604165
 20
-1385.5096083823996
 10
907.8795555665323
 20
-1385.4902588411326
 42
-0.0237596594021453
 10
908.29535241355211
 20
-1385.3948081291519
 10
908.36341526728279
 20
-1385.382553441025
 42
-0.0213715440554476
 10
908.64929019872784
 20
-1385.3436064095151
 10
908.70943736494382
 20
-1385.3380166948143
 42
-0.0101465655820661
 10
908.87692989693994
 20
-1385.3258731515502
 10
908.88627028313783
 20
-1385.325386236553
 42
-0.0100375910882628
 10
909.03542438370073
 20
-1385.3206104186277
 10
909.04568365338343
 20
-1385.3204879796133
 42
-0.0103625633382319
 10
909.17439164803602
 20
-1385.3216194131398
 10
909.19665729930421
 20
-1385.3222767716047
 42
-0.011568925023577
 10
909.2807080368309
 20
-1385.32670627785
 42
-0.0072438037440066
 10
909.36454631627214
 20
-1385.3342954775994
 10
909.38134682574287
 20
-1385.3360620203234
 42
-0.0217917313136314
 10
909.49791658905576
 20
-1385.3534819130443
 10
909.56351667962736
 20
-1385.3662285214596
 42
-0.0332943556746823
 10
909.76790884465152
 20
-1385.4202688127662
 10
909.79808141319893
 20
-1385.4304368898836
 42
-0.018482408481048
 10
909.93658646966696
 20
-1385.4828879052711
 42
-0.0198002050700385
 10
910.07066081016603
 20
-1385.5457719654703
 10
910.07254744754323
 20
-1385.5467497523503
 42
-0.0212242342974725
 10
910.20468638994419
 20
-1385.6225124911425
 10
910.20650168548866
 20
-1385.6236582933516
 42
-0.0226090605777927
 10
910.33500558671119
 20
-1385.7131379369166
 10
910.33685002844777
 20
-1385.7145501899035
 42
-0.0238457052240409
 10
910.46003210974038
 20
-1385.8185460857655
 10
910.46198483829983
 20
-1385.820360963532
 42
-0.0248160564145513
 10
910.57818634560056
 20
-1385.9396355647409
 10
910.58028997900249
 20
-1385.9420208984452
 42
-0.0254109591449246
 10
910.68789519686788
 20
-1386.0773092844088
 10
910.69014321878251
 20
-1386.0804508328101
 42
-0.0255528488290798
 10
910.78758989758035
 20
-1386.2324778870459
 10
910.78992099749576
 20
-1386.2365594986522
 42
-0.0252146793224302
 10
910.87570202350514
 20
-1386.4060617446498
 10
910.87800426266244
 20
-1386.411243826562
 42
-0.0244265635952732
 10
910.95065895642369
 20
-1386.5989903986081
 10
910.95990535789247
 20
-1386.626855816947
 42
-0.0231319612898874
 10
911.00582813688436
 20
-1386.7901568637481
 42
-0.0112130424360945
 10
911.04046415942207
 20
-1386.9563604639329
 10
911.04166668453513
 20
-1386.9628570508239
 42
-0.0210527881237227
 10
911.06735315990579
 20
-1387.1439126962637
 10
911.07086375472784
 20
-1387.1793182448125
 42
-0.0190029892421024
 10
911.08630522827229
 20
-1387.4328540910828
 10
911.08711520471638
 20
-1387.4683297054539
 42
-0.0137974553661589
 10
911.08556635188074
 20
-1387.7933611121884
 10
911.08472089692532
 20
-1387.8194798567802
 42
-0.0081336634214535
 10
911.06986156170274
 20
-1388.1248273243793
 42
-0.0073526923571413
 10
911.04555302832921
 20
-1388.4295755686537
 10
911.04429160454538
 20
-1388.4429122433305
 42
-0.0066886138692513
 10
911.00855601850014
 20
-1388.7734982868176
 10
911.00689892902903
 20
-1388.7871199058191
 42
-0.0061359187359939
 10
910.95904832697943
 20
-1389.1438838859101
 10
910.95701082590529
 20
-1389.1577786887483
 42
-0.0056698610066472
 10
910.89636049513786
 20
-1389.5410572575886
 10
910.89395506181518
 20
-1389.555216376817
 42
-0.005272107727472
 10
910.81982286101686
 20
-1389.9653437164884
 10
910.81705971217389
 20
-1389.9797603518809
 42
-0.0049289272182388
 10
910.72876559407393
 20
-1390.4170688630029
 10
910.72565309939125
 20
-1390.4317377158193
 42
-0.0047415956708381
 10
910.62241510785873
 20
-1390.8965344732303
 10
910.5876468974991
 20
-1391.0463415686131
 42
-0.0084404470902943
 10
910.39763045392806
 20
-1391.8065655931414
 10
910.39150376594159
 20
-1391.8294297172977
 42
-0.003963594025745
 10
910.17005008165881
 20
-1392.6304185815407
 10
910.15667328647805
 20
-1392.677350198137
 42
-0.0072475040837424
 10
909.88922639861698
 20
-1393.5665699145206
 10
909.81901407179248
 20
-1393.7883102644839
 42
-0.0051345458826775
 10
909.5322546997287
 20
-1394.6626354523103
 10
909.5107284329689
 20
-1394.7260617194174
 42
-0.0019150016603301
 10
909.2551950260945
 20
-1395.4696108396663
 10
909.24872742168634
 20
-1395.4881983046218
 42
-0.0021524362752204
 10
909.00024937063449
 20
-1396.1925241262957
 10
908.99103894993857
 20
-1396.2182777045955
 42
-0.0024331286821469
 10
908.75478369090206
 20
-1396.8688770127155
 10
908.74573573835244
 20
-1396.8934203190672
 42
-0.0027449721786579
 10
908.52112116751607
 20
-1397.4925501979942
 10
908.51223116012341
 20
-1397.5158727878477
 42
-0.0031083229768958
 10
908.29868867351388
 20
-1398.0657968254261
 10
908.28995254183167
 20
-1398.0878865413008
 42
-0.0035311343277688
 10
908.08691135624656
 20
-1398.590869667014
 10
908.07832601709561
 20
-1398.6117123905324
 42
-0.004024564094886
 10
907.88521421330449
 20
-1399.0700217131166
 10
907.87677809970273
 20
-1399.0896010811857
 42
-0.0046015135852397
 10
907.69302180653767
 20
-1399.505506110831
 10
907.68473562870508
 20
-1399.5238032502925
 42
-0.0052768638270907
 10
907.50975810975376
 20
-1399.8995761345534
 10
907.50162589912497
 20
-1399.9165694731005
 42
-0.006067267564417
 10
907.33484628636086
 20
-1400.2544850962108
 10
907.32687680588629
 20
-1400.2701503551946
 42
-0.0069904648872556
 10
907.16770841187781
 20
-1400.5724861618719
 10
907.15991701227256
 20
-1400.5867967110889
 42
-0.0080637022769591
 10
907.00776515192115
 20
-1400.8558320142522
 10
907.00017611928718
 20
-1400.8687598798576
 42
-0.0093006455662035
 10
906.85443544275847
 20
-1401.1067742783562
 10
906.84708477600623
 20
-1401.1182922475427
 42
-0.010706077804166
 10
906.70713623257632
 20
-1401.3275625649082
 10
906.70007446429781
 20
-1401.3376481074727
 42
-0.012272311140867
 10
906.56528074609855
 20
-1401.5204414369632
 10
906.56495452254296
 20
-1401.5208618247748
 42
-0.0141836319627296
 10
906.42137291957044
 20
-1401.6954315826024
 10
906.41442516391896
 20
-1401.7034065828666
 42
-0.0175957477206431
 10
906.2745189958838
 20
-1401.8530274712718
 42
-0.0080466359676094
 10
906.1270552308556
 20
-1401.9953499994213
 10
906.08102068633616
 20
-1402.0383704375142
 42
-0.0269600260397397
 10
905.82774044035614
 20
-1402.2506936960212
 10
905.7611733040585
 20
-1402.3006451106455
 42
-0.0178362839755621
 10
905.52122881440027
 20
-1402.4676630368997
 10
905.51398384339541
 20
-1402.4723315491074
 42
-0.0174650732650256
 10
905.27764764595861
 20
-1402.6131925140637
 42
-0.0169240130166681
 10
905.0321814001062
 20
-1402.7374847738388
 10
904.98619524454307
 20
-1402.7588467294083
 42
-0.0318883036841081
 10
904.63584438892201
 20
-1402.8951850389187
 10
904.56747885375717
 20
-1402.9168856593942
 42
-0.0284435909899725
 10
904.19142872746727
 20
-1403.0131030948687
 10
904.15627056696576
 20
-1403.0199966906978
 42
-0.0243909341008827
 10
903.84282710604975
 20
-1403.0657177217272
 10
903.7925463792825
 20
-1403.0705632686286
 42
-0.0196639292931644
 10
903.57695080175142
 20
-1403.0828115541424
 10
903.52512673058811
 20
-1403.0837148148792
 42
-0.0100501510682122
 10
903.41270344892371
 20
-1403.083414416526
 10
903.38104358759028
 20
-1403.0826933446408
 42
-0.0019752031153127
 10
903.33195125089821
 20
-1403.0813811844309
 10
903.32919094766658
 20
-1403.0812964926045
 42
0.0065378752007836
 10
903.28561437292137
 20
-1403.0805296013898
 42
-0.0167974694626875
 10
903.24208354999098
 20
-1403.078869702864
 10
903.23800421072747
 20
-1403.0785766919689
 42
-0.0081283276258817
 10
903.1864444129892
 20
-1403.0740296983311
 10
903.1747048391104
 20
-1403.0728017807526
 42
-0.0126703440192558
 10
903.09998654332344
 20
-1403.0630669896821
 10
903.07719867564015
 20
-1403.0595087337658
 42
-0.0117852088434891
 10
902.95765968980254
 20
-1403.0379457386075
 10
902.90227923804468
 20
-1403.0266021983741
 42
-0.0251774592302268
 10
902.67543519903836
 20
-1402.9681041889414
 10
902.63071600918681
 20
-1402.9541373696061
 42
-0.0146525199894823
 10
902.44432302164728
 20
-1402.8898708424076
 42
-0.0166929435862283
 10
902.26234536552022
 20
-1402.8140637093529
 10
902.25768873424749
 20
-1402.8119388087391
 42
-0.0191684358430271
 10
902.07250510299673
 20
-1402.7187027249483
 10
902.06917251724133
 20
-1402.7168614773959
 42
-0.0221181781804928
 10
901.88586221333765
 20
-1402.6047279790241
 10
901.88351240933059
 20
-1402.603143681034
 42
-0.0254984685376553
 10
901.70722225894531
 20
-1402.4707325310646
 10
901.68474011124374
 20
-1402.4519802221287
 42
-0.0292492648804605
 10
901.55997117240031
 20
-1402.3348874224851
 42
-0.0159048957515679
 10
901.44613117495271
 20
-1402.2068674308887
 10
901.44481238437095
 20
-1402.2052858178658
 42
-0.0343813379563474
 10
901.34217512274552
 20
-1402.0634144920975
 10
901.31068359138396
 20
-1402.0129111000024
 42
-0.0369117275700891
 10
901.22479108948664
 20
-1401.849433859054
 42
-0.0191751379906943
 10
901.15759770392992
 20
-1401.6770292530491
 10
901.15583438017006
 20
-1401.6719359083731
 42
-0.0378178042225634
 10
901.10603966138558
 20
-1401.4829951322902
 10
901.10004436565544
 20
-1401.450434514094
 42
-0.0184846046461662
 10
901.07932716636117
 20
-1401.3086816935499
 42
-0.01798663513087
 10
901.06899416128738
 20
-1401.1657908804682
 10
901.06893771884165
 20
-1401.1642331938563
 42
-0.0085497186123704
 10
901.06750543773796
 20
-1401.0893600288464
 42
-0.0085497186123704
  0
ENDBLK
  5
63
100
AcDbEntity
  8
template
390
0
100
AcDbBlockEnd
  0
BLOCK
  5
64
100
AcDbEntity
  8
notes
390
0
100
AcDbBlockBegin
  2
*D3
 70
               1
 10
0.0
 20
0.0
 30
0.0
  3
*D3
  1

  0
LINE
  5
65
100
AcDbEntity
  8
0
370
              -2
390
0
  6
Continuous
 62
               0
100
AcDbLine
 10
-174.04756732546878
 20
-400.23686259055694
 30
0.0
 11
-95.547567325468663
 21
-400.23686259055694
 31
0.0
  0
LINE
  5
66
100
AcDbEntity
  8
0
370
              -2
390
0
  6
Continuous
 62
               0
100
AcDbLine
 10
-174.04756732546866
 20
-570.23686259055683
 30
0.0
 11
-95.547567325468663
 21
-570.23686259055683
 31
0.0
  0
LINE
  5
67
100
AcDbEntity
  8
0
370
              -2
390
0
  6
Continuous
 62
               0
100
AcDbLine
 10
-95.547567325468663
 20
-400.23686259055694
 30
0.0
 11
-95.547567325468663
 21
-570.23686259055683
 31
0.0
  0
CIRCLE
  5
68
102
{ACAD_REACTORS
330
69
102
}
100
AcDbEntity
  8
0
370
              -2
390
0
  6
Continuous
 62
               0
100
AcDbCircle
 10
-95.547567325468663
 20
-400.23686259055694
 30
0.0
 40
1.9998779296875
  0
HATCH
  5
69
100
AcDbEntity
  8
0
370
              -2
390
0
  6
Continuous
 62
               0
100
AcDbHatch
 10
0.0
 20
0.0
 30
0.0
210
0.0
220
0.0
230
1.0
  2
SOLID
 70
               1
 71
               1
 91
        1
 92
        1
 93
        1
 72
               2
 10
-95.547567325468663
 20
-400.23686259055694
 40
1.9998779296875
 50
0.0
 51
360.0
 73
               0
 97
        1
330
68
 75
               0
 76
               1
 98
        1
 10
0.0
 20
0.0
  0
CIRCLE
  5
6A
102
{ACAD_REACTORS
330
6B
102
}
100
AcDbEntity
  8
0
370
              -2
390
0
  6
Continuous
 62
               0
100
AcDbCircle
 10
-95.547567325468663
 20
-570.23686259055683
 30
0.0
 40
1.9998779296875
  0
HATCH
  5
6B
100
AcDbEntity
  8
0
370
              -2
390
0
  6
Continuous
 62
               0
100
AcDbHatch
 10
0.0
 20
0.0
 30
0.0
210
0.0
220
0.0
230
1.0
  2
SOLID
 70
               1
 71
               1
 91
        1
 92
        1
 93
        1
 72
               2
 10
-95.547567325468663
 20
-570.23686259055683
 40
1.9998779296875
 50
0.0
 51
360.0
 73
               0
 97
        1
330
6A
 75
               0
 76
               1
 98
        1
 10
0.0
 20
0.0
  0
MTEXT
  5
6C
100
AcDbEntity
  8
0
390
0
 62
               0
100
AcDbMText
 10
-129.42518451296866
 20
-512.2883181935498
 30
0.0
 40
24.432617187500004
 41
0.0
 71
               1
 72
               1
  1
170
  7
ＭＳ ゴシック
 11
0.0
 21
1.0
 31
0.0
 73
               1
 44
0.7828267384257843
  0
POINT
  5
6D
100
AcDbEntity
  8
Defpoints
370
               0
390
0
 62
               0
100
AcDbPoint
 10
-199.04756732546866
 20
-570.23686259055683
 30
0.0
  0
POINT
  5
6E
100
AcDbEntity
  8
Defpoints
370
               0
390
0
 62
               0
100
AcDbPoint
 10
-199.04756732546878
 20
-400.23686259055694
 30
0.0
  0
POINT
  5
6F
100
AcDbEntity
  8
Defpoints
370
               0
390
0
 62
               0
100
AcDbPoint
 10
-95.547567325468663
 20
-400.23686259055694
 30
0.0
  0
ENDBLK
  5
70
100
AcDbEntity
  8
notes
390
0
100
AcDbBlockEnd
  0
BLOCK
  5
71
100
AcDbEntity
  8
notes
390
0
100
AcDbBlockBegin
  2
*D4
 70
               1
 10
0.0
 20
0.0
 30
0.0
  3
*D4
  1

  0
LINE
  5
72
100
AcDbEntity
  8
0
370
              -2
390
0
  6
Continuous
 62
               0
100
AcDbLine
 10
-583.04756732546866
 20
390.11274092240421
 30
0.0
 11
-583.04756732546866
 21
245.73648589726349
 31
0.0
  0
LINE
  5
73
100
AcDbEntity
  8
0
370
              -2
390
0
  6
Continuous
 62
               0
100
AcDbLine
 10
-258.04756732546866
 20
390.11274092240421
 30
0.0
 11
-258.04756732546866
 21
245.73648589726349
 31
0.0
  0
LINE
  5
74
100
AcDbEntity
  8
0
370
              -2
390
0
  6
Continuous
 62
               0
100
AcDbLine
 10
-583.04756732546866
 20
245.73648589726349
 30
0.0
 11
-258.04756732546866
 21
245.73648589726349
 31
0.0
  0
CIRCLE
  5
75
102
{ACAD_REACTORS
330
76
102
}
100
AcDbEntity
  8
0
370
              -2
390
0
  6
Continuous
 62
               0
100
AcDbCircle
 10
-583.04756732546866
 20
245.73648589726349
 30
0.0
 40
1.9998779296875
  0
HATCH
  5
76
100
AcDbEntity
  8
0
370
              -2
390
0
  6
Continuous
 62
               0
100
AcDbHatch
 10
0.0
 20
0.0
 30
0.0
210
0.0
220
0.0
230
1.0
  2
SOLID
 70
               1
 71
               1
 91
        1
 92
        1
 93
        1
 72
               2
 10
-583.04756732546866
 20
245.73648589726349
 40
1.9998779296875
 50
0.0
 51
360.0
 73
               0
 97
        1
330
75
 75
               0
 76
               1
 98
        1
 10
0.0
 20
0.0
  0
CIRCLE
  5
77
102
{ACAD_REACTORS
330
78
102
}
100
AcDbEntity
  8
0
370
              -2
390
0
  6
Continuous
 62
               0
100
AcDbCircle
 10
-258.04756732546866
 20
245.73648589726349
 30
0.0
 40
1.9998779296875
  0
HATCH
  5
78
100
AcDbEntity
  8
0
370
              -2
390
0
  6
Continuous
 62
               0
100
AcDbHatch
 10
0.0
 20
0.0
 30
0.0
210
0.0
220
0.0
230
1.0
  2
SOLID
 70
               1
 71
               1
 91
        1
 92
        1
 93
        1
 72
               2
 10
-258.04756732546866
 20
245.73648589726349
 40
1.9998779296875
 50
0.0
 51
360.0
 73
               0
 97
        1
330
77
 75
               0
 76
               1
 98
        1
 10
0.0
 20
0.0
  0
MTEXT
  5
79
100
AcDbEntity
  8
0
390
0
 62
               0
100
AcDbMText
 10
-438.78642922624033
 20
279.61410308476349
 30
0.0
 40
24.432617187500004
 41
0.0
 71
               1
 72
               1
  1
325
  7
ＭＳ ゴシック
 73
               1
 44
0.7828267384257843
  0
POINT
  5
7A
100
AcDbEntity
  8
Defpoints
370
               0
390
0
 62
               0
100
AcDbPoint
 10
-258.04756732546866
 20
415.11274092240421
 30
0.0
  0
POINT
  5
7B
100
AcDbEntity
  8
Defpoints
370
               0
390
0
 62
               0
100
AcDbPoint
 10
-583.04756732546866
 20
415.11274092240421
 30
0.0
  0
POINT
  5
7C
100
AcDbEntity
  8
Defpoints
370
               0
390
0
 62
               0
100
AcDbPoint
 10
-583.04756732546866
 20
245.73648589726349
 30
0.0
  0
ENDBLK
  5
7D
100
AcDbEntity
  8
notes
390
0
100
AcDbBlockEnd
  0
BLOCK
  5
7E
100
AcDbEntity
  8
notes
390
0
100
AcDbBlockBegin
  2
*D5
 70
               1
 10
0.0
 20
0.0
 30
0.0
  3
*D5
  1

  0
LINE
  5
7F
100
AcDbEntity
  8
0
370
              -2
390
0
  6
Continuous
 62
               0
100
AcDbLine
 10
-345.54756732546912
 20
840.73648589726338
 30
0.0
 11
-345.54756732546912
 21
915.73648589726338
 31
0.0
  0
LINE
  5
80
100
AcDbEntity
  8
0
370
              -2
390
0
  6
Continuous
 62
               0
100
AcDbLine
 10
-495.54756732546815
 20
840.73648589726338
 30
0.0
 11
-495.54756732546815
 21
915.73648589726338
 31
0.0
  0
LINE
  5
81
100
AcDbEntity
  8
0
370
              -2
390
0
  6
Continuous
 62
               0
100
AcDbLine
 10
-345.54756732546912
 20
915.73648589726338
 30
0.0
 11
-495.54756732546815
 21
915.73648589726338
 31
0.0
  0
CIRCLE
  5
82
102
{ACAD_REACTORS
330
83
102
}
100
AcDbEntity
  8
0
370
              -2
390
0
  6
Continuous
 62
               0
100
AcDbCircle
 10
-345.54756732546912
 20
915.73648589726338
 30
0.0
 40
1.9998779296875
  0
HATCH
  5
83
100
AcDbEntity
  8
0
370
              -2
390
0
  6
Continuous
 62
               0
100
AcDbHatch
 10
0.0
 20
0.0
 30
0.0
210
0.0
220
0.0
230
1.0
  2
SOLID
 70
               1
 71
               1
 91
        1
 92
        1
 93
        1
 72
               2
 10
-345.54756732546912
 20
915.73648589726338
 40
1.9998779296875
 50
0.0
 51
360.0
 73
               0
 97
        1
330
82
 75
               0
 76
               1
 98
        1
 10
0.0
 20
0.0
  0
CIRCLE
  5
84
102
{ACAD_REACTORS
330
85
102
}
100
AcDbEntity
  8
0
370
              -2
390
0
  6
Continuous
 62
               0
100
AcDbCircle
 10
-495.54756732546815
 20
915.73648589726338
 30
0.0
 40
1.9998779296875
  0
HATCH
  5
85
100
AcDbEntity
  8
0
370
              -2
390
0
  6
Continuous
 62
               0
100
AcDbHatch
 10
0.0
 20
0.0
 30
0.0
210
0.0
220
0.0
230
1.0
  2
SOLID
 70
               1
 71
               1
 91
        1
 92
        1
 93
        1
 72
               2
 10
-495.54756732546815
 20
915.73648589726338
 40
1.9998779296875
 50
0.0
 51
360.0
 73
               0
 97
        1
330
84
 75
               0
 76
               1
 98
        1
 10
0.0
 20
0.0
  0
MTEXT
  5
86
100
AcDbEntity
  8
0
390
0
 62
               0
100
AcDbMText
 10
-444.36006900764414
 20
949.61410308476343
 30
0.0
 40
24.432617187500004
 41
0.0
 71
               1
 72
               1
  1
150
  7
ＭＳ ゴシック
 73
               1
 44
0.7828267384257843
  0
POINT
  5
87
100
AcDbEntity
  8
Defpoints
370
               0
390
0
 62
               0
100
AcDbPoint
 10
-495.54756732546815
 20
815.73648589726338
 30
0.0
  0
POINT
  5
88
100
AcDbEntity
  8
Defpoints
370
               0
390
0
 62
               0
100
AcDbPoint
 10
-345.54756732546912
 20
815.73648589726338
 30
0.0
  0
POINT
  5
89
100
AcDbEntity
  8
Defpoints
370
               0
390
0
 62
               0
100
AcDbPoint
 10
-345.54756732546912
 20
915.73648589726338
 30
0.0
  0
ENDBLK
  5
8A
100
AcDbEntity
  8
notes
390
0
100
AcDbBlockEnd
  0
BLOCK
  5
8B
100
AcDbEntity
  8
notes
390
0
100
AcDbBlockBegin
  2
*D6
 70
               1
 10
0.0
 20
0.0
 30
0.0
  3
*D6
  1

  0
LINE
  5
8C
100
AcDbEntity
  8
0
370
              -2
390
0
  6
Continuous
 62
               0
100
AcDbLine
 10
-645.54756732546844
 20
520.73648589726349
 30
0.0
 11
-645.54756732546844
 21
195.73648589726349
 31
0.0
  0
LINE
  5
8D
100
AcDbEntity
  8
0
370
              -2
390
0
  6
Continuous
 62
               0
100
AcDbLine
 10
-195.54756732546878
 20
520.73648589726349
 30
0.0
 11
-195.54756732546878
 21
195.73648589726349
 31
0.0
  0
LINE
  5
8E
100
AcDbEntity
  8
0
370
              -2
390
0
  6
Continuous
 62
               0
100
AcDbLine
 10
-645.54756732546844
 20
195.73648589726349
 30
0.0
 11
-195.54756732546878
 21
195.73648589726349
 31
0.0
  0
CIRCLE
  5
8F
102
{ACAD_REACTORS
330
90
102
}
100
AcDbEntity
  8
0
370
              -2
390
0
  6
Continuous
 62
               0
100
AcDbCircle
 10
-645.54756732546844
 20
195.73648589726349
 30
0.0
 40
1.9998779296875
  0
HATCH
  5
90
100
AcDbEntity
  8
0
370
              -2
390
0
  6
Continuous
 62
               0
100
AcDbHatch
 10
0.0
 20
0.0
 30
0.0
210
0.0
220
0.0
230
1.0
  2
SOLID
 70
               1
 71
               1
 91
        1
 92
        1
 93
        1
 72
               2
 10
-645.54756732546844
 20
195.73648589726349
 40
1.9998779296875
 50
0.0
 51
360.0
 73
               0
 97
        1
330
8F
 75
               0
 76
               1
 98
        1
 10
0.0
 20
0.0
  0
CIRCLE
  5
91
102
{ACAD_REACTORS
330
92
102
}
100
AcDbEntity
  8
0
370
              -2
390
0
  6
Continuous
 62
               0
100
AcDbCircle
 10
-195.54756732546878
 20
195.73648589726349
 30
0.0
 40
1.9998779296875
  0
HATCH
  5
92
100
AcDbEntity
  8
0
370
              -2
390
0
  6
Continuous
 62
               0
100
AcDbHatch
 10
0.0
 20
0.0
 30
0.0
210
0.0
220
0.0
230
1.0
  2
SOLID
 70
               1
 71
               1
 91
        1
 92
        1
 93
        1
 72
               2
 10
-195.54756732546878
 20
195.73648589726349
 40
1.9998779296875
 50
0.0
 51
360.0
 73
               0
 97
        1
330
91
 75
               0
 76
               1
 98
        1
 10
0.0
 20
0.0
  0
MTEXT
  5
93
100
AcDbEntity
  8
0
390
0
 62
               0
100
AcDbMText
 10
-438.03145855557648
 20
229.61410308476349
 30
0.0
 40
24.432617187500004
 41
0.0
 71
               1
 72
               1
  1
450
  7
ＭＳ ゴシック
 73
               1
 44
0.7828267384257843
  0
POINT
  5
94
100
AcDbEntity
  8
Defpoints
370
               0
390
0
 62
               0
100
AcDbPoint
 10
-195.54756732546878
 20
545.73648589726349
 30
0.0
  0
POINT
  5
95
100
AcDbEntity
  8
Defpoints
370
               0
390
0
 62
               0
100
AcDbPoint
 10
-645.54756732546844
 20
545.73648589726349
 30
0.0
  0
POINT
  5
96
100
AcDbEntity
  8
Defpoints
370
               0
390
0
 62
               0
100
AcDbPoint
 10
-645.54756732546844
 20
195.73648589726349
 30
0.0
  0
ENDBLK
  5
97
100
AcDbEntity
  8
notes
390
0
100
AcDbBlockEnd
  0
BLOCK
  5
98
100
AcDbEntity
  8
notes
390
0
100
AcDbBlockBegin
  2
*D7
 70
               1
 10
0.0
 20
0.0
 30
0.0
  3
*D7
  1

  0
LINE
  5
99
100
AcDbEntity
  8
0
370
              -2
390
0
  6
Continuous
 62
               0
100
AcDbLine
 10
234.45544043170781
 20
-410.23686259055694
 30
0.0
 11
159.45544043170781
 21
-410.23686259055694
 31
0.0
  0
LINE
  5
9A
100
AcDbEntity
  8
0
370
              -2
390
0
  6
Continuous
 62
               0
100
AcDbLine
 10
234.45544043170781
 20
-560.23686259055694
 30
0.0
 11
159.45544043170781
 21
-560.23686259055694
 31
0.0
  0
LINE
  5
9B
100
AcDbEntity
  8
0
370
              -2
390
0
  6
Continuous
 62
               0
100
AcDbLine
 10
159.45544043170781
 20
-410.23686259055694
 30
0.0
 11
159.45544043170781
 21
-560.23686259055694
 31
0.0
  0
CIRCLE
  5
9C
102
{ACAD_REACTORS
330
9D
102
}
100
AcDbEntity
  8
0
370
              -2
390
0
  6
Continuous
 62
               0
100
AcDbCircle
 10
159.45544043170781
 20
-410.23686259055694
 30
0.0
 40
1.9998779296875
  0
HATCH
  5
9D
100
AcDbEntity
  8
0
370
              -2
390
0
  6
Continuous
 62
               0
100
AcDbHatch
 10
0.0
 20
0.0
 30
0.0
210
0.0
220
0.0
230
1.0
  2
SOLID
 70
               1
 71
               1
 91
        1
 92
        1
 93
        1
 72
               2
 10
159.45544043170781
 20
-410.23686259055694
 40
1.9998779296875
 50
0.0
 51
360.0
 73
               0
 97
        1
330
9C
 75
               0
 76
               1
 98
        1
 10
0.0
 20
0.0
  0
CIRCLE
  5
9E
102
{ACAD_REACTORS
330
9F
102
}
100
AcDbEntity
  8
0
370
              -2
390
0
  6
Continuous
 62
               0
100
AcDbCircle
 10
159.45544043170781
 20
-560.23686259055694
 30
0.0
 40
1.9998779296875
  0
HATCH
  5
9F
100
AcDbEntity
  8
0
370
              -2
390
0
  6
Continuous
 62
               0
100
AcDbHatch
 10
0.0
 20
0.0
 30
0.0
210
0.0
220
0.0
230
1.0
  2
SOLID
 70
               1
 71
               1
 91
        1
 92
        1
 93
        1
 72
               2
 10
159.45544043170781
 20
-560.23686259055694
 40
1.9998779296875
 50
0.0
 51
360.0
 73
               0
 97
        1
330
9E
 75
               0
 76
               1
 98
        1
 10
0.0
 20
0.0
  0
MTEXT
  5
A0
100
AcDbEntity
  8
0
390
0
 62
               0
100
AcDbMText
 10
125.57782324420781
 20
-509.4044534690114
 30
0.0
 40
24.432617187500004
 41
0.0
 71
               1
 72
               1
  1
150
  7
ＭＳ ゴシック
 11
0.0
 21
1.0
 31
0.0
 73
               1
 44
0.7828267384257843
  0
POINT
  5
A1
100
AcDbEntity
  8
Defpoints
370
               0
390
0
 62
               0
100
AcDbPoint
 10
259.45544043170781
 20
-560.23686259055694
 30
0.0
  0
POINT
  5
A2
100
AcDbEntity
  8
Defpoints
370
               0
390
0
 62
               0
100
AcDbPoint
 10
259.45544043170781
 20
-410.23686259055694
 30
0.0
  0
POINT
  5
A3
100
AcDbEntity
  8
Defpoints
370
               0
390
0
 62
               0
100
AcDbPoint
 10
159.45544043170781
 20
-410.23686259055694
 30
0.0
  0
ENDBLK
  5
A4
100
AcDbEntity
  8
notes
390
0
100
AcDbBlockEnd
  0
BLOCK
  5
A5
100
AcDbEntity
  8
notes
390
0
100
AcDbBlockBegin
  2
*D8
 70
               1
 10
0.0
 20
0.0
 30
0.0
  3
*D8
  1

  0
LINE
  5
A6
100
AcDbEntity
  8
0
370
              -2
390
0
  6
Continuous
 62
               0
100
AcDbLine
 10
234.45544043170781
 20
-560.23686259055694
 30
0.0
 11
159.45544043170781
 21
-560.23686259055694
 31
0.0
  0
LINE
  5
A7
100
AcDbEntity
  8
0
370
              -2
390
0
  6
Continuous
 62
               0
100
AcDbLine
 10
257.95544043170747
 20
-570.23686259055694
 30
0.0
 11
159.45544043170781
 21
-570.23686259055694
 31
0.0
  0
LINE
  5
A8
100
AcDbEntity
  8
0
370
              -2
390
0
  6
Continuous
 62
               0
100
AcDbLine
 10
159.45544043170781
 20
-570.23686259055694
 30
0.0
 11
159.45544043170781
 21
-602.42938489011885
 31
0.0
  0
LINE
  5
A9
100
AcDbEntity
  8
0
370
              -2
390
0
  6
Continuous
 62
               0
100
AcDbLine
 10
159.45544043170781
 20
-560.23686259055694
 30
0.0
 11
159.45544043170781
 21
-570.23686259055694
 31
0.0
  0
CIRCLE
  5
AA
102
{ACAD_REACTORS
330
AB
102
}
100
AcDbEntity
  8
0
370
              -2
390
0
  6
Continuous
 62
               0
100
AcDbCircle
 10
159.45544043170781
 20
-560.23686259055694
 30
0.0
 40
1.9998779296875
  0
HATCH
  5
AB
100
AcDbEntity
  8
0
370
              -2
390
0
  6
Continuous
 62
               0
100
AcDbHatch
 10
0.0
 20
0.0
 30
0.0
210
0.0
220
0.0
230
1.0
  2
SOLID
 70
               1
 71
               1
 91
        1
 92
        1
 93
        1
 72
               2
 10
159.45544043170781
 20
-560.23686259055694
 40
1.9998779296875
 50
0.0
 51
360.0
 73
               0
 97
        1
330
AA
 75
               0
 76
               1
 98
        1
 10
0.0
 20
0.0
  0
CIRCLE
  5
AC
102
{ACAD_REACTORS
330
AD
102
}
100
AcDbEntity
  8
0
370
              -2
390
0
  6
Continuous
 62
               0
100
AcDbCircle
 10
159.45544043170781
 20
-570.23686259055694
 30
0.0
 40
1.9998779296875
  0
HATCH
  5
AD
100
AcDbEntity
  8
0
370
              -2
390
0
  6
Continuous
 62
               0
100
AcDbHatch
 10
0.0
 20
0.0
 30
0.0
210
0.0
220
0.0
230
1.0
  2
SOLID
 70
               1
 71
               1
 91
        1
 92
        1
 93
        1
 72
               2
 10
159.45544043170781
 20
-570.23686259055694
 40
1.9998779296875
 50
0.0
 51
360.0
 73
               0
 97
        1
330
AC
 75
               0
 76
               1
 98
        1
 10
0.0
 20
0.0
  0
MTEXT
  5
AE
100
AcDbEntity
  8
0
390
0
 62
               0
100
AcDbMText
 10
125.57782324420781
 20
-602.42938489011885
 30
0.0
 40
24.432617187500004
 41
0.0
 71
               1
 72
               1
  1
10
  7
ＭＳ ゴシック
 11
0.0
 21
1.0
 31
0.0
 73
               1
 44
0.7828267384257843
  0
POINT
  5
AF
100
AcDbEntity
  8
Defpoints
370
               0
390
0
 62
               0
100
AcDbPoint
 10
282.95544043170747
 20
-570.23686259055694
 30
0.0
  0
POINT
  5
B0
100
AcDbEntity
  8
Defpoints
370
               0
390
0
 62
               0
100
AcDbPoint
 10
259.45544043170781
 20
-560.23686259055694
 30
0.0
  0
POINT
  5
B1
100
AcDbEntity
  8
Defpoints
370
               0
390
0
 62
               0
100
AcDbPoint
 10
159.45544043170781
 20
-560.23686259055694
 30
0.0
  0
ENDBLK
  5
B2
100
AcDbEntity
  8
notes
390
0
100
AcDbBlockEnd
  0
BLOCK
  5
B3
100
AcDbEntity
  8
notes
390
0
100
AcDbBlockBegin
  2
*D9
 70
               1
 10
0.0
 20
0.0
 30
0.0
  3
*D9
  1

  0
LINE
  5
B4
100
AcDbEntity
  8
0
370
              -2
390
0
  6
Continuous
 62
               0
100
AcDbLine
 10
-405.30530304523973
 20
755.31110754052668
 30
0.0
 11
-254.18938873314221
 21
850.23648589726395
 31
0.0
  0
CIRCLE
  5
B5
102
{ACAD_REACTORS
330
B6
102
}
100
AcDbEntity
  8
0
370
              -2
390
0
  6
Continuous
 62
               0
100
AcDbCircle
 10
-405.30530304523973
 20
755.31110754052668
 30
0.0
 40
1.9998779296875
  0
HATCH
  5
B6
100
AcDbEntity
  8
0
370
              -2
390
0
  6
Continuous
 62
               0
100
AcDbHatch
 10
0.0
 20
0.0
 30
0.0
210
0.0
220
0.0
230
1.0
  2
SOLID
 70
               1
 71
               1
 91
        1
 92
        1
 93
        1
 72
               2
 10
-405.30530304523973
 20
755.31110754052668
 40
1.9998779296875
 50
0.0
 51
360.0
 73
               0
 97
        1
330
B5
 75
               0
 76
               1
 98
        1
 10
0.0
 20
0.0
  0
LINE
  5
B7
100
AcDbEntity
  8
0
370
              -2
390
0
  6
Continuous
 62
               0
100
AcDbLine
 10
-254.18938873314221
 20
850.23648589726395
 30
0.0
 11
-130.68938873314221
 21
850.23648589726395
 31
0.0
  0
MTEXT
  5
B8
100
AcDbEntity
  8
0
390
0
 62
               0
100
AcDbMText
 10
-194.18938873314221
 20
884.114103084764
 30
0.0
 40
24.432617187500004
 41
0.0
 71
               1
 72
               1
  1
φ36
  7
ＭＳ ゴシック
 73
               1
 44
0.7828267384257843
  0
POINT
  5
B9
100
AcDbEntity
  8
Defpoints
370
               0
390
0
 62
               0
100
AcDbPoint
 10
-435.78983160569754
 20
736.16186425400031
 30
0.0
  0
POINT
  5
BA
100
AcDbEntity
  8
Defpoints
370
               0
390
0
 62
               0
100
AcDbPoint
 10
-405.30530304523973
 20
755.31110754052668
 30
0.0
  0
ENDBLK
  5
BB
100
AcDbEntity
  8
notes
390
0
100
AcDbBlockEnd
  0
BLOCK
  5
BC
100
AcDbEntity
  8
notes
390
0
100
AcDbBlockBegin
  2
*D10
 70
               1
 10
0.0
 20
0.0
 30
0.0
  3
*D10
  1

  0
LINE
  5
BD
100
AcDbEntity
  8
0
370
              -2
390
0
  6
Continuous
 62
               0
100
AcDbLine
 10
329.4554404317077
 20
-375.23686259055694
 30
0.0
 11
329.4554404317077
 21
-300.23686259055694
 31
0.0
  0
LINE
  5
BE
100
AcDbEntity
  8
0
370
              -2
390
0
  6
Continuous
 62
               0
100
AcDbLine
 10
259.45544043170781
 20
-385.23686259055694
 30
0.0
 11
259.45544043170781
 21
-300.23686259055694
 31
0.0
  0
LINE
  5
BF
100
AcDbEntity
  8
0
370
              -2
390
0
  6
Continuous
 62
               0
100
AcDbLine
 10
329.4554404317077
 20
-300.23686259055694
 30
0.0
 11
259.45544043170781
 21
-300.23686259055694
 31
0.0
  0
CIRCLE
  5
C0
102
{ACAD_REACTORS
330
C1
102
}
100
AcDbEntity
  8
0
370
              -2
390
0
  6
Continuous
 62
               0
100
AcDbCircle
 10
329.4554404317077
 20
-300.23686259055694
 30
0.0
 40
1.9998779296875
  0
HATCH
  5
C1
100
AcDbEntity
  8
0
370
              -2
390
0
  6
Continuous
 62
               0
100
AcDbHatch
 10
0.0
 20
0.0
 30
0.0
210
0.0
220
0.0
230
1.0
  2
SOLID
 70
               1
 71
               1
 91
        1
 92
        1
 93
        1
 72
               2
 10
329.4554404317077
 20
-300.23686259055694
 40
1.9998779296875
 50
0.0
 51
360.0
 73
               0
 97
        1
330
C0
 75
               0
 76
               1
 98
        1
 10
0.0
 20
0.0
  0
CIRCLE
  5
C2
102
{ACAD_REACTORS
330
C3
102
}
100
AcDbEntity
  8
0
370
              -2
390
0
  6
Continuous
 62
               0
100
AcDbCircle
 10
259.45544043170781
 20
-300.23686259055694
 30
0.0
 40
1.9998779296875
  0
HATCH
  5
C3
100
AcDbEntity
  8
0
370
              -2
390
0
  6
Continuous
 62
               0
100
AcDbHatch
 10
0.0
 20
0.0
 30
0.0
210
0.0
220
0.0
230
1.0
  2
SOLID
 70
               1
 71
               1
 91
        1
 92
        1
 93
        1
 72
               2
 10
259.45544043170781
 20
-300.23686259055694
 40
1.9998779296875
 50
0.0
 51
360.0
 73
               0
 97
        1
330
C2
 75
               0
 76
               1
 98
        1
 10
0.0
 20
0.0
  0
MTEXT
  5
C4
100
AcDbEntity
  8
0
390
0
 62
               0
100
AcDbMText
 10
278.58044043170776
 20
-266.35924540305695
 30
0.0
 40
24.432617187500004
 41
0.0
 71
               1
 72
               1
  1
70
  7
ＭＳ ゴシック
 73
               1
 44
0.7828267384257843
  0
POINT
  5
C5
100
AcDbEntity
  8
Defpoints
370
               0
390
0
 62
               0
100
AcDbPoint
 10
259.45544043170781
 20
-410.23686259055694
 30
0.0
  0
POINT
  5
C6
100
AcDbEntity
  8
Defpoints
370
               0
390
0
 62
               0
100
AcDbPoint
 10
329.4554404317077
 20
-400.23686259055694
 30
0.0
  0
POINT
  5
C7
100
AcDbEntity
  8
Defpoints
370
               0
390
0
 62
               0
100
AcDbPoint
 10
329.4554404317077
 20
-300.23686259055694
 30
0.0
  0
ENDBLK
  5
C8
100
AcDbEntity
  8
notes
390
0
100
AcDbBlockEnd
  0
BLOCK
  5
C9
100
AcDbEntity
  8
notes
390
0
100
AcDbBlockBegin
  2
*D11
 70
               1
 10
0.0
 20
0.0
 30
0.0
  3
*D11
  1

  0
LINE
  5
CA
100
AcDbEntity
  8
0
370
              -2
390
0
  6
Continuous
 62
               0
100
AcDbLine
 10
566.91361902403378
 20
-525.23686259055694
 30
0.0
 11
544.45544043170753
 21
-525.23686259055694
 31
0.0
  0
LINE
  5
CB
100
AcDbEntity
  8
0
370
              -2
390
0
  6
Continuous
 62
               0
100
AcDbLine
 10
566.91361902403378
 20
-400.23686259055694
 30
0.0
 11
544.45544043170753
 21
-400.23686259055694
 31
0.0
  0
LINE
  5
CC
100
AcDbEntity
  8
0
370
              -2
390
0
  6
Continuous
 62
               0
100
AcDbLine
 10
544.45544043170753
 20
-400.23686259055694
 30
0.0
 11
544.45544043170753
 21
-249.125
 31
0.0
  0
LINE
  5
CD
100
AcDbEntity
  8
0
370
              -2
390
0
  6
Continuous
 62
               0
100
AcDbLine
 10
544.45544043170753
 20
-525.23686259055694
 30
0.0
 11
544.45544043170753
 21
-400.23686259055694
 31
0.0
  0
CIRCLE
  5
CE
102
{ACAD_REACTORS
330
CF
102
}
100
AcDbEntity
  8
0
370
              -2
390
0
  6
Continuous
 62
               0
100
AcDbCircle
 10
544.45544043170753
 20
-525.23686259055694
 30
0.0
 40
1.9998779296875
  0
HATCH
  5
CF
100
AcDbEntity
  8
0
370
              -2
390
0
  6
Continuous
 62
               0
100
AcDbHatch
 10
0.0
 20
0.0
 30
0.0
210
0.0
220
0.0
230
1.0
  2
SOLID
 70
               1
 71
               1
 91
        1
 92
        1
 93
        1
 72
               2
 10
544.45544043170753
 20
-525.23686259055694
 40
1.9998779296875
 50
0.0
 51
360.0
 73
               0
 97
        1
330
CE
 75
               0
 76
               1
 98
        1
 10
0.0
 20
0.0
  0
CIRCLE
  5
D0
102
{ACAD_REACTORS
330
D1
102
}
100
AcDbEntity
  8
0
370
              -2
390
0
  6
Continuous
 62
               0
100
AcDbCircle
 10
544.45544043170753
 20
-400.23686259055694
 30
0.0
 40
1.9998779296875
  0
HATCH
  5
D1
100
AcDbEntity
  8
0
370
              -2
390
0
  6
Continuous
 62
               0
100
AcDbHatch
 10
0.0
 20
0.0
 30
0.0
210
0.0
220
0.0
230
1.0
  2
SOLID
 70
               1
 71
               1
 91
        1
 92
        1
 93
        1
 72
               2
 10
544.45544043170753
 20
-400.23686259055694
 40
1.9998779296875
 50
0.0
 51
360.0
 73
               0
 97
        1
330
D0
 75
               0
 76
               1
 98
        1
 10
0.0
 20
0.0
  0
MTEXT
  5
D2
100
AcDbEntity
  8
0
390
0
 62
               0
100
AcDbMText
 10
510.57782324420759
 20
-392.0
 30
0.0
 40
24.432617187500004
 41
0.0
 71
               1
 72
               1
  1
125(深さ)
  7
ＭＳ ゴシック
 11
0.0
 21
1.0
 31
0.0
 73
               1
 44
0.7828267384257843
  0
POINT
  5
D3
100
AcDbEntity
  8
Defpoints
370
               0
390
0
 62
               0
100
AcDbPoint
 10
541.91361902403378
 20
-400.23686259055694
 30
0.0
  0
POINT
  5
D4
100
AcDbEntity
  8
Defpoints
370
               0
390
0
 62
               0
100
AcDbPoint
 10
541.91361902403378
 20
-525.23686259055694
 30
0.0
  0
POINT
  5
D5
100
AcDbEntity
  8
Defpoints
370
               0
390
0
 62
               0
100
AcDbPoint
 10
544.45544043170753
 20
-525.23686259055694
 30
0.0
  0
ENDBLK
  5
D6
100
AcDbEntity
  8
notes
390
0
100
AcDbBlockEnd
  0
BLOCK
  5
D7
100
AcDbEntity
  8
notes
390
0
100
AcDbBlockBegin
  2
*D12
 70
               1
 10
0.0
 20
0.0
 30
0.0
  3
*D12
  1

  0
LINE
  5
D8
100
AcDbEntity
  8
0
370
              -2
390
0
  6
Continuous
 62
               0
100
AcDbLine
 10
234.45544043170781
 20
-410.23686259055694
 30
0.0
 11
159.45544043170781
 21
-410.23686259055694
 31
0.0
  0
LINE
  5
D9
100
AcDbEntity
  8
0
370
              -2
390
0
  6
Continuous
 62
               0
100
AcDbLine
 10
257.95544043170736
 20
-400.23686259055694
 30
0.0
 11
159.45544043170781
 21
-400.23686259055694
 31
0.0
  0
LINE
  5
DA
100
AcDbEntity
  8
0
370
              -2
390
0
  6
Continuous
 62
               0
100
AcDbLine
 10
159.45544043170781
 20
-410.23686259055694
 30
0.0
 11
159.45544043170781
 21
-400.23686259055694
 31
0.0
  0
CIRCLE
  5
DB
102
{ACAD_REACTORS
330
DC
102
}
100
AcDbEntity
  8
0
370
              -2
390
0
  6
Continuous
 62
               0
100
AcDbCircle
 10
159.45544043170781
 20
-410.23686259055694
 30
0.0
 40
1.9998779296875
  0
HATCH
  5
DC
100
AcDbEntity
  8
0
370
              -2
390
0
  6
Continuous
 62
               0
100
AcDbHatch
 10
0.0
 20
0.0
 30
0.0
210
0.0
220
0.0
230
1.0
  2
SOLID
 70
               1
 71
               1
 91
        1
 92
        1
 93
        1
 72
               2
 10
159.45544043170781
 20
-410.23686259055694
 40
1.9998779296875
 50
0.0
 51
360.0
 73
               0
 97
        1
330
DB
 75
               0
 76
               1
 98
        1
 10
0.0
 20
0.0
  0
CIRCLE
  5
DD
102
{ACAD_REACTORS
330
DE
102
}
100
AcDbEntity
  8
0
370
              -2
390
0
  6
Continuous
 62
               0
100
AcDbCircle
 10
159.45544043170781
 20
-400.23686259055694
 30
0.0
 40
1.9998779296875
  0
HATCH
  5
DE
100
AcDbEntity
  8
0
370
              -2
390
0
  6
Continuous
 62
               0
100
AcDbHatch
 10
0.0
 20
0.0
 30
0.0
210
0.0
220
0.0
230
1.0
  2
SOLID
 70
               1
 71
               1
 91
        1
 92
        1
 93
        1
 72
               2
 10
159.45544043170781
 20
-400.23686259055694
 40
1.9998779296875
 50
0.0
 51
360.0
 73
               0
 97
        1
330
DD
 75
               0
 76
               1
 98
        1
 10
0.0
 20
0.0
  0
MTEXT
  5
DF
100
AcDbEntity
  8
0
390
0
 62
               0
100
AcDbMText
 10
125.57782324420781
 20
-421.11186259055694
 30
0.0
 40
24.432617187500004
 41
0.0
 71
               1
 72
               1
  1
10
  7
ＭＳ ゴシック
 11
0.0
 21
1.0
 31
0.0
 73
               1
 44
0.7828267384257843
  0
POINT
  5
E0
100
AcDbEntity
  8
Defpoints
370
               0
390
0
 62
               0
100
AcDbPoint
 10
282.95544043170736
 20
-400.23686259055694
 30
0.0
  0
POINT
  5
E1
100
AcDbEntity
  8
Defpoints
370
               0
390
0
 62
               0
100
AcDbPoint
 10
259.45544043170781
 20
-410.23686259055694
 30
0.0
  0
POINT
  5
E2
100
AcDbEntity
  8
Defpoints
370
               0
390
0
 62
               0
100
AcDbPoint
 10
159.45544043170781
 20
-410.23686259055694
 30
0.0
  0
ENDBLK
  5
E3
100
AcDbEntity
  8
notes
390
0
100
AcDbBlockEnd
  0
BLOCK
  5
E4
100
AcDbEntity
  8
notes
390
0
100
AcDbBlockBegin
  2
*D13
 70
               1
 10
0.0
 20
0.0
 30
0.0
  3
*D13
  1

  0
LINE
  5
E5
100
AcDbEntity
  8
0
370
              -2
390
0
  6
Continuous
 62
               0
100
AcDbLine
 10
-320.54756732546912
 20
815.73648589726338
 30
0.0
 11
-95.547567325468776
 21
815.73648589726338
 31
0.0
  0
LINE
  5
E6
100
AcDbEntity
  8
0
370
              -2
390
0
  6
Continuous
 62
               0
100
AcDbLine
 10
-370.54756732546866
 20
345.73648589726349
 30
0.0
 11
-95.547567325468776
 21
345.73648589726349
 31
0.0
  0
LINE
  5
E7
100
AcDbEntity
  8
0
370
              -2
390
0
  6
Continuous
 62
               0
100
AcDbLine
 10
-95.547567325468776
 20
815.73648589726338
 30
0.0
 11
-95.547567325468776
 21
345.73648589726349
 31
0.0
  0
CIRCLE
  5
E8
102
{ACAD_REACTORS
330
E9
102
}
100
AcDbEntity
  8
0
370
              -2
390
0
  6
Continuous
 62
               0
100
AcDbCircle
 10
-95.547567325468776
 20
815.73648589726338
 30
0.0
 40
1.9998779296875
  0
HATCH
  5
E9
100
AcDbEntity
  8
0
370
              -2
390
0
  6
Continuous
 62
               0
100
AcDbHatch
 10
0.0
 20
0.0
 30
0.0
210
0.0
220
0.0
230
1.0
  2
SOLID
 70
               1
 71
               1
 91
        1
 92
        1
 93
        1
 72
               2
 10
-95.547567325468776
 20
815.73648589726338
 40
1.9998779296875
 50
0.0
 51
360.0
 73
               0
 97
        1
330
E8
 75
               0
 76
               1
 98
        1
 10
0.0
 20
0.0
  0
CIRCLE
  5
EA
102
{ACAD_REACTORS
330
EB
102
}
100
AcDbEntity
  8
0
370
              -2
390
0
  6
Continuous
 62
               0
100
AcDbCircle
 10
-95.547567325468776
 20
345.73648589726349
 30
0.0
 40
1.9998779296875
  0
HATCH
  5
EB
100
AcDbEntity
  8
0
370
              -2
390
0
  6
Continuous
 62
               0
100
AcDbHatch
 10
0.0
 20
0.0
 30
0.0
210
0.0
220
0.0
230
1.0
  2
SOLID
 70
               1
 71
               1
 91
        1
 92
        1
 93
        1
 72
               2
 10
-95.547567325468776
 20
345.73648589726349
 40
1.9998779296875
 50
0.0
 51
360.0
 73
               0
 97
        1
330
EA
 75
               0
 76
               1
 98
        1
 10
0.0
 20
0.0
  0
MTEXT
  5
EC
100
AcDbEntity
  8
0
390
0
 62
               0
100
AcDbMText
 10
-129.42518451296877
 20
556.92398421508801
 30
0.0
 40
24.432617187500004
 41
0.0
 71
               1
 72
               1
  1
470
  7
ＭＳ ゴシック
 11
0.0
 21
1.0
 31
0.0
 73
               1
 44
0.7828267384257843
  0
POINT
  5
ED
100
AcDbEntity
  8
Defpoints
370
               0
390
0
 62
               0
100
AcDbPoint
 10
-395.54756732546866
 20
345.73648589726349
 30
0.0
  0
POINT
  5
EE
100
AcDbEntity
  8
Defpoints
370
               0
390
0
 62
               0
100
AcDbPoint
 10
-345.54756732546912
 20
815.73648589726338
 30
0.0
  0
POINT
  5
EF
100
AcDbEntity
  8
Defpoints
370
               0
390
0
 62
               0
100
AcDbPoint
 10
-95.547567325468776
 20
815.73648589726338
 30
0.0
  0
ENDBLK
  5
F0
100
AcDbEntity
  8
notes
390
0
100
AcDbBlockEnd
  0
BLOCK
  5
F1
100
AcDbEntity
  8
notes
390
0
100
AcDbBlockBegin
  2
*D14
 70
               1
 10
0.0
 20
0.0
 30
0.0
  3
*D14
  1

  0
LINE
  5
F2
100
AcDbEntity
  8
0
370
              -2
390
0
  6
Continuous
 62
               0
100
AcDbLine
 10
-520.54756732546821
 20
795.73648589726338
 30
0.0
 11
-745.54756732546844
 21
795.73648589726338
 31
0.0
  0
LINE
  5
F3
100
AcDbEntity
  8
0
370
              -2
390
0
  6
Continuous
 62
               0
100
AcDbLine
 10
-520.54756732546821
 20
815.73648589726338
 30
0.0
 11
-745.54756732546844
 21
815.73648589726338
 31
0.0
  0
LINE
  5
F4
100
AcDbEntity
  8
0
370
              -2
390
0
  6
Continuous
 62
               0
100
AcDbLine
 10
-745.54756732546844
 20
815.73648589726338
 30
0.0
 11
-745.54756732546844
 21
860.98648589726383
 31
0.0
  0
LINE
  5
F5
100
AcDbEntity
  8
0
370
              -2
390
0
  6
Continuous
 62
               0
100
AcDbLine
 10
-745.54756732546844
 20
795.73648589726338
 30
0.0
 11
-745.54756732546844
 21
815.73648589726338
 31
0.0
  0
CIRCLE
  5
F6
102
{ACAD_REACTORS
330
F7
102
}
100
AcDbEntity
  8
0
370
              -2
390
0
  6
Continuous
 62
               0
100
AcDbCircle
 10
-745.54756732546844
 20
795.73648589726338
 30
0.0
 40
1.9998779296875
  0
HATCH
  5
F7
100
AcDbEntity
  8
0
370
              -2
390
0
  6
Continuous
 62
               0
100
AcDbHatch
 10
0.0
 20
0.0
 30
0.0
210
0.0
220
0.0
230
1.0
  2
SOLID
 70
               1
 71
               1
 91
        1
 92
        1
 93
        1
 72
               2
 10
-745.54756732546844
 20
795.73648589726338
 40
1.9998779296875
 50
0.0
 51
360.0
 73
               0
 97
        1
330
F6
 75
               0
 76
               1
 98
        1
 10
0.0
 20
0.0
  0
CIRCLE
  5
F8
102
{ACAD_REACTORS
330
F9
102
}
100
AcDbEntity
  8
0
370
              -2
390
0
  6
Continuous
 62
               0
100
AcDbCircle
 10
-745.54756732546844
 20
815.73648589726338
 30
0.0
 40
1.9998779296875
  0
HATCH
  5
F9
100
AcDbEntity
  8
0
370
              -2
390
0
  6
Continuous
 62
               0
100
AcDbHatch
 10
0.0
 20
0.0
 30
0.0
210
0.0
220
0.0
230
1.0
  2
SOLID
 70
               1
 71
               1
 91
        1
 92
        1
 93
        1
 72
               2
 10
-745.54756732546844
 20
815.73648589726338
 40
1.9998779296875
 50
0.0
 51
360.0
 73
               0
 97
        1
330
F8
 75
               0
 76
               1
 98
        1
 10
0.0
 20
0.0
  0
MTEXT
  5
FA
100
AcDbEntity
  8
0
390
0
 62
               0
100
AcDbMText
 10
-779.4251845129686
 20
829.23648589726383
 30
0.0
 40
24.432617187500004
 41
0.0
 71
               1
 72
               1
  1
20
  7
ＭＳ ゴシック
 11
0.0
 21
1.0
 31
0.0
 73
               1
 44
0.7828267384257843
  0
POINT
  5
FB
100
AcDbEntity
  8
Defpoints
370
               0
390
0
 62
               0
100
AcDbPoint
 10
-495.54756732546815
 20
815.73648589726338
 30
0.0
  0
POINT
  5
FC
100
AcDbEntity
  8
Defpoints
370
               0
390
0
 62
               0
100
AcDbPoint
 10
-495.54756732546815
 20
795.73648589726338
 30
0.0
  0
POINT
  5
FD
100
AcDbEntity
  8
Defpoints
370
               0
390
0
 62
               0
100
AcDbPoint
 10
-745.54756732546844
 20
795.73648589726338
 30
0.0
  0
ENDBLK
  5
FE
100
AcDbEntity
  8
notes
390
0
100
AcDbBlockEnd
  0
BLOCK
  5
FF
100
AcDbEntity
  8
notes
390
0
100
AcDbBlockBegin
  2
*D15
 70
               1
 10
0.0
 20
0.0
 30
0.0
  3
*D15
  1

  0
LINE
  5
100
100
AcDbEntity
  8
0
370
              -2
390
0
  6
Continuous
 62
               0
100
AcDbLine
 10
-520.54756732546821
 20
795.73648589726338
 30
0.0
 11
-745.54756732546844
 21
795.73648589726338
 31
0.0
  0
LINE
  5
101
100
AcDbEntity
  8
0
370
              -2
390
0
  6
Continuous
 62
               0
100
AcDbLine
 10
-632.6304366641657
 20
695.73648589726338
 30
0.0
 11
-745.54756732546844
 21
695.73648589726338
 31
0.0
  0
LINE
  5
102
100
AcDbEntity
  8
0
370
              -2
390
0
  6
Continuous
 62
               0
100
AcDbLine
 10
-745.54756732546844
 20
795.73648589726338
 30
0.0
 11
-745.54756732546844
 21
695.73648589726338
 31
0.0
  0
CIRCLE
  5
103
102
{ACAD_REACTORS
330
104
102
}
100
AcDbEntity
  8
0
370
              -2
390
0
  6
Continuous
 62
               0
100
AcDbCircle
 10
-745.54756732546844
 20
795.73648589726338
 30
0.0
 40
1.9998779296875
  0
HATCH
  5
104
100
AcDbEntity
  8
0
370
              -2
390
0
  6
Continuous
 62
               0
100
AcDbHatch
 10
0.0
 20
0.0
 30
0.0
210
0.0
220
0.0
230
1.0
  2
SOLID
 70
               1
 71
               1
 91
        1
 92
        1
 93
        1
 72
               2
 10
-745.54756732546844
 20
795.73648589726338
 40
1.9998779296875
 50
0.0
 51
360.0
 73
               0
 97
        1
330
103
 75
               0
 76
               1
 98
        1
 10
0.0
 20
0.0
  0
CIRCLE
  5
105
102
{ACAD_REACTORS
330
106
102
}
100
AcDbEntity
  8
0
370
              -2
390
0
  6
Continuous
 62
               0
100
AcDbCircle
 10
-745.54756732546844
 20
695.73648589726338
 30
0.0
 40
1.9998779296875
  0
HATCH
  5
106
100
AcDbEntity
  8
0
370
              -2
390
0
  6
Continuous
 62
               0
100
AcDbHatch
 10
0.0
 20
0.0
 30
0.0
210
0.0
220
0.0
230
1.0
  2
SOLID
 70
               1
 71
               1
 91
        1
 92
        1
 93
        1
 72
               2
 10
-745.54756732546844
 20
695.73648589726338
 40
1.9998779296875
 50
0.0
 51
360.0
 73
               0
 97
        1
330
105
 75
               0
 76
               1
 98
        1
 10
0.0
 20
0.0
  0
MTEXT
  5
107
100
AcDbEntity
  8
0
390
0
 62
               0
100
AcDbMText
 10
-779.4251845129686
 20
721.9239842150879
 30
0.0
 40
24.432617187500004
 41
0.0
 71
               1
 72
               1
  1
100
  7
ＭＳ ゴシック
 11
0.0
 21
1.0
 31
0.0
 73
               1
 44
0.7828267384257843
  0
POINT
  5
108
100
AcDbEntity
  8
Defpoints
370
               0
390
0
 62
               0
100
AcDbPoint
 10
-607.6304366641657
 20
695.73648589726338
 30
0.0
  0
POINT
  5
109
100
AcDbEntity
  8
Defpoints
370
               0
390
0
 62
               0
100
AcDbPoint
 10
-495.54756732546815
 20
795.73648589726338
 30
0.0
  0
POINT
  5
10A
100
AcDbEntity
  8
Defpoints
370
               0
390
0
 62
               0
100
AcDbPoint
 10
-745.54756732546844
 20
795.73648589726338
 30
0.0
  0
ENDBLK
  5
10B
100
AcDbEntity
  8
notes
390
0
100
AcDbBlockEnd
  0
BLOCK
  5
10C
100
AcDbEntity
  8
notes
390
0
100
AcDbBlockBegin
  2
*D16
 70
               1
 10
0.0
 20
0.0
 30
0.0
  3
*D16
  1

  0
LINE
  5
10D
100
AcDbEntity
  8
0
370
              -2
390
0
  6
Continuous
 62
               0
100
AcDbLine
 10
-632.6304366641657
 20
695.73648589726338
 30
0.0
 11
-745.54756732546844
 21
695.73648589726338
 31
0.0
  0
LINE
  5
10E
100
AcDbEntity
  8
0
370
              -2
390
0
  6
Continuous
 62
               0
100
AcDbLine
 10
-548.62520796591002
 20
370.73648589726338
 30
0.0
 11
-745.54756732546844
 21
370.73648589726338
 31
0.0
  0
LINE
  5
10F
100
AcDbEntity
  8
0
370
              -2
390
0
  6
Continuous
 62
               0
100
AcDbLine
 10
-745.54756732546844
 20
695.73648589726338
 30
0.0
 11
-745.54756732546844
 21
370.73648589726338
 31
0.0
  0
CIRCLE
  5
110
102
{ACAD_REACTORS
330
111
102
}
100
AcDbEntity
  8
0
370
              -2
390
0
  6
Continuous
 62
               0
100
AcDbCircle
 10
-745.54756732546844
 20
695.73648589726338
 30
0.0
 40
1.9998779296875
  0
HATCH
  5
111
100
AcDbEntity
  8
0
370
              -2
390
0
  6
Continuous
 62
               0
100
AcDbHatch
 10
0.0
 20
0.0
 30
0.0
210
0.0
220
0.0
230
1.0
  2
SOLID
 70
               1
 71
               1
 91
        1
 92
        1
 93
        1
 72
               2
 10
-745.54756732546844
 20
695.73648589726338
 40
1.9998779296875
 50
0.0
 51
360.0
 73
               0
 97
        1
330
110
 75
               0
 76
               1
 98
        1
 10
0.0
 20
0.0
  0
CIRCLE
  5
112
102
{ACAD_REACTORS
330
113
102
}
100
AcDbEntity
  8
0
370
              -2
390
0
  6
Continuous
 62
               0
100
AcDbCircle
 10
-745.54756732546844
 20
370.73648589726338
 30
0.0
 40
1.9998779296875
  0
HATCH
  5
113
100
AcDbEntity
  8
0
370
              -2
390
0
  6
Continuous
 62
               0
100
AcDbHatch
 10
0.0
 20
0.0
 30
0.0
210
0.0
220
0.0
230
1.0
  2
SOLID
 70
               1
 71
               1
 91
        1
 92
        1
 93
        1
 72
               2
 10
-745.54756732546844
 20
370.73648589726338
 40
1.9998779296875
 50
0.0
 51
360.0
 73
               0
 97
        1
330
112
 75
               0
 76
               1
 98
        1
 10
0.0
 20
0.0
  0
MTEXT
  5
114
100
AcDbEntity
  8
0
390
0
 62
               0
100
AcDbMText
 10
-779.4251845129686
 20
509.42398421508784
 30
0.0
 40
24.432617187500004
 41
0.0
 71
               1
 72
               1
  1
325
  7
ＭＳ ゴシック
 11
0.0
 21
1.0
 31
0.0
 73
               1
 44
0.7828267384257843
  0
POINT
  5
115
100
AcDbEntity
  8
Defpoints
370
               0
390
0
 62
               0
100
AcDbPoint
 10
-523.62520796591002
 20
370.73648589726338
 30
0.0
  0
POINT
  5
116
100
AcDbEntity
  8
Defpoints
370
               0
390
0
 62
               0
100
AcDbPoint
 10
-607.6304366641657
 20
695.73648589726338
 30
0.0
  0
POINT
  5
117
100
AcDbEntity
  8
Defpoints
370
               0
390
0
 62
               0
100
AcDbPoint
 10
-745.54756732546844
 20
695.73648589726338
 30
0.0
  0
ENDBLK
  5
118
100
AcDbEntity
  8
notes
390
0
100
AcDbBlockEnd
  0
BLOCK
  5
119
100
AcDbEntity
  8
notes
390
0
100
AcDbBlockBegin
  2
*D17
 70
               1
 10
0.0
 20
0.0
 30
0.0
  3
*D17
  1

  0
LINE
  5
11A
100
AcDbEntity
  8
0
370
              -2
390
0
  6
Continuous
 62
               0
100
AcDbLine
 10
259.45544043170781
 20
-585.23686259055694
 30
0.0
 11
259.45544043170781
 21
-672.23686259055694
 31
0.0
  0
LINE
  5
11B
100
AcDbEntity
  8
0
370
              -2
390
0
  6
Continuous
 62
               0
100
AcDbLine
 10
541.91361902403378
 20
-595.23686259055694
 30
0.0
 11
541.91361902403378
 21
-672.23686259055694
 31
0.0
  0
LINE
  5
11C
100
AcDbEntity
  8
0
370
              -2
390
0
  6
Continuous
 62
               0
100
AcDbLine
 10
259.45544043170781
 20
-672.23686259055694
 30
0.0
 11
541.91361902403378
 21
-672.23686259055694
 31
0.0
  0
CIRCLE
  5
11D
102
{ACAD_REACTORS
330
11E
102
}
100
AcDbEntity
  8
0
370
              -2
390
0
  6
Continuous
 62
               0
100
AcDbCircle
 10
259.45544043170781
 20
-672.23686259055694
 30
0.0
 40
1.9998779296875
  0
HATCH
  5
11E
100
AcDbEntity
  8
0
370
              -2
390
0
  6
Continuous
 62
               0
100
AcDbHatch
 10
0.0
 20
0.0
 30
0.0
210
0.0
220
0.0
230
1.0
  2
SOLID
 70
               1
 71
               1
 91
        1
 92
        1
 93
        1
 72
               2
 10
259.45544043170781
 20
-672.23686259055694
 40
1.9998779296875
 50
0.0
 51
360.0
 73
               0
 97
        1
330
11D
 75
               0
 76
               1
 98
        1
 10
0.0
 20
0.0
  0
CIRCLE
  5
11F
102
{ACAD_REACTORS
330
120
102
}
100
AcDbEntity
  8
0
370
              -2
390
0
  6
Continuous
 62
               0
100
AcDbCircle
 10
541.91361902403378
 20
-672.23686259055694
 30
0.0
 40
1.9998779296875
  0
HATCH
  5
120
100
AcDbEntity
  8
0
370
              -2
390
0
  6
Continuous
 62
               0
100
AcDbHatch
 10
0.0
 20
0.0
 30
0.0
210
0.0
220
0.0
230
1.0
  2
SOLID
 70
               1
 71
               1
 91
        1
 92
        1
 93
        1
 72
               2
 10
541.91361902403378
 20
-672.23686259055694
 40
1.9998779296875
 50
0.0
 51
360.0
 73
               0
 97
        1
330
11F
 75
               0
 76
               1
 98
        1
 10
0.0
 20
0.0
  0
MTEXT
  5
121
100
AcDbEntity
  8
0
390
0
 62
               0
100
AcDbMText
 10
360.99702972787077
 20
-638.35924540305689
 30
0.0
 40
24.432617187500004
 41
0.0
 71
               1
 72
               1
  1
282.5
  7
ＭＳ ゴシック
 73
               1
 44
0.7828267384257843
  0
POINT
  5
122
100
AcDbEntity
  8
Defpoints
370
               0
390
0
 62
               0
100
AcDbPoint
 10
541.91361902403378
 20
-570.23686259055694
 30
0.0
  0
POINT
  5
123
100
AcDbEntity
  8
Defpoints
370
               0
390
0
 62
               0
100
AcDbPoint
 10
259.45544043170781
 20
-560.23686259055694
 30
0.0
  0
POINT
  5
124
100
AcDbEntity
  8
Defpoints
370
               0
390
0
 62
               0
100
AcDbPoint
 10
259.45544043170781
 20
-672.23686259055694
 30
0.0
  0
ENDBLK
  5
125
100
AcDbEntity
  8
notes
390
0
100
AcDbBlockEnd
  0
BLOCK
  5
126
100
AcDbEntity
  8
notes
390
0
100
AcDbBlockBegin
  2
*D18
 70
               1
 10
0.0
 20
0.0
 30
0.0
  3
*D18
  1

  0
LINE
  5
127
100
AcDbEntity
  8
0
370
              -2
390
0
  6
Continuous
 62
               0
100
AcDbLine
 10
-520.5
 20
-410.23686259055694
 30
0.0
 11
-795.54756732546866
 21
-410.23686259055694
 31
0.0
  0
LINE
  5
128
100
AcDbEntity
  8
0
370
              -2
390
0
  6
Continuous
 62
               0
100
AcDbLine
 10
-520.5
 20
-560.23686259055694
 30
0.0
 11
-795.54756732546866
 21
-560.23686259055694
 31
0.0
  0
LINE
  5
129
100
AcDbEntity
  8
0
370
              -2
390
0
  6
Continuous
 62
               0
100
AcDbLine
 10
-795.54756732546866
 20
-410.23686259055694
 30
0.0
 11
-795.54756732546866
 21
-560.23686259055694
 31
0.0
  0
CIRCLE
  5
12A
102
{ACAD_REACTORS
330
12B
102
}
100
AcDbEntity
  8
0
370
              -2
390
0
  6
Continuous
 62
               0
100
AcDbCircle
 10
-795.54756732546866
 20
-410.23686259055694
 30
0.0
 40
1.9998779296875
  0
HATCH
  5
12B
100
AcDbEntity
  8
0
370
              -2
390
0
  6
Continuous
 62
               0
100
AcDbHatch
 10
0.0
 20
0.0
 30
0.0
210
0.0
220
0.0
230
1.0
  2
SOLID
 70
               1
 71
               1
 91
        1
 92
        1
 93
        1
 72
               2
 10
-795.54756732546866
 20
-410.23686259055694
 40
1.9998779296875
 50
0.0
 51
360.0
 73
               0
 97
        1
330
12A
 75
               0
 76
               1
 98
        1
 10
0.0
 20
0.0
  0
CIRCLE
  5
12C
102
{ACAD_REACTORS
330
12D
102
}
100
AcDbEntity
  8
0
370
              -2
390
0
  6
Continuous
 62
               0
100
AcDbCircle
 10
-795.54756732546866
 20
-560.23686259055694
 30
0.0
 40
1.9998779296875
  0
HATCH
  5
12D
100
AcDbEntity
  8
0
370
              -2
390
0
  6
Continuous
 62
               0
100
AcDbHatch
 10
0.0
 20
0.0
 30
0.0
210
0.0
220
0.0
230
1.0
  2
SOLID
 70
               1
 71
               1
 91
        1
 92
        1
 93
        1
 72
               2
 10
-795.54756732546866
 20
-560.23686259055694
 40
1.9998779296875
 50
0.0
 51
360.0
 73
               0
 97
        1
330
12C
 75
               0
 76
               1
 98
        1
 10
0.0
 20
0.0
  0
MTEXT
  5
12E
100
AcDbEntity
  8
0
390
0
 62
               0
100
AcDbMText
 10
-829.42518451296883
 20
-509.04936427273242
 30
0.0
 40
24.432617187500004
 41
0.0
 71
               1
 72
               1
  1
150
  7
ＭＳ ゴシック
 11
0.0
 21
1.0
 31
0.0
 73
               1
 44
0.7828267384257843
  0
POINT
  5
12F
100
AcDbEntity
  8
Defpoints
370
               0
390
0
 62
               0
100
AcDbPoint
 10
-495.5
 20
-560.23686259055694
 30
0.0
  0
POINT
  5
130
100
AcDbEntity
  8
Defpoints
370
               0
390
0
 62
               0
100
AcDbPoint
 10
-495.5
 20
-410.23686259055694
 30
0.0
  0
POINT
  5
131
100
AcDbEntity
  8
Defpoints
370
               0
390
0
 62
               0
100
AcDbPoint
 10
-795.54756732546866
 20
-410.23686259055694
 30
0.0
  0
ENDBLK
  5
132
100
AcDbEntity
  8
notes
390
0
100
AcDbBlockEnd
  0
BLOCK
  5
133
100
AcDbEntity
  8
notes
390
0
100
AcDbBlockBegin
  2
*D19
 70
               1
 10
0.0
 20
0.0
 30
0.0
  3
*D19
  1

  0
LINE
  5
134
100
AcDbEntity
  8
0
370
              -2
390
0
  6
Continuous
 62
               0
100
AcDbLine
 10
-463.0
 20
-397.73686259055694
 30
0.0
 11
-463.0
 21
-300.23686259055694
 31
0.0
  0
LINE
  5
135
100
AcDbEntity
  8
0
370
              -2
390
0
  6
Continuous
 62
               0
100
AcDbLine
 10
-378.0
 20
-397.73686259055694
 30
0.0
 11
-378.0
 21
-300.23686259055694
 31
0.0
  0
LINE
  5
136
100
AcDbEntity
  8
0
370
              -2
390
0
  6
Continuous
 62
               0
100
AcDbLine
 10
-463.0
 20
-300.23686259055694
 30
0.0
 11
-378.0
 21
-300.23686259055694
 31
0.0
  0
CIRCLE
  5
137
102
{ACAD_REACTORS
330
138
102
}
100
AcDbEntity
  8
0
370
              -2
390
0
  6
Continuous
 62
               0
100
AcDbCircle
 10
-463.0
 20
-300.23686259055694
 30
0.0
 40
1.9998779296875
  0
HATCH
  5
138
100
AcDbEntity
  8
0
370
              -2
390
0
  6
Continuous
 62
               0
100
AcDbHatch
 10
0.0
 20
0.0
 30
0.0
210
0.0
220
0.0
230
1.0
  2
SOLID
 70
               1
 71
               1
 91
        1
 92
        1
 93
        1
 72
               2
 10
-463.0
 20
-300.23686259055694
 40
1.9998779296875
 50
0.0
 51
360.0
 73
               0
 97
        1
330
137
 75
               0
 76
               1
 98
        1
 10
0.0
 20
0.0
  0
CIRCLE
  5
139
102
{ACAD_REACTORS
330
13A
102
}
100
AcDbEntity
  8
0
370
              -2
390
0
  6
Continuous
 62
               0
100
AcDbCircle
 10
-378.0
 20
-300.23686259055694
 30
0.0
 40
1.9998779296875
  0
HATCH
  5
13A
100
AcDbEntity
  8
0
370
              -2
390
0
  6
Continuous
 62
               0
100
AcDbHatch
 10
0.0
 20
0.0
 30
0.0
210
0.0
220
0.0
230
1.0
  2
SOLID
 70
               1
 71
               1
 91
        1
 92
        1
 93
        1
 72
               2
 10
-378.0
 20
-300.23686259055694
 40
1.9998779296875
 50
0.0
 51
360.0
 73
               0
 97
        1
330
139
 75
               0
 76
               1
 98
        1
 10
0.0
 20
0.0
  0
MTEXT
  5
13B
100
AcDbEntity
  8
0
390
0
 62
               0
100
AcDbMText
 10
-436.375
 20
-266.35924540305695
 30
0.0
 40
24.432617187500004
 41
0.0
 71
               1
 72
               1
  1
85
  7
ＭＳ ゴシック
 73
               1
 44
0.7828267384257843
  0
POINT
  5
13C
100
AcDbEntity
  8
Defpoints
370
               0
390
0
 62
               0
100
AcDbPoint
 10
-378.0
 20
-422.73686259055694
 30
0.0
  0
POINT
  5
13D
100
AcDbEntity
  8
Defpoints
370
               0
390
0
 62
               0
100
AcDbPoint
 10
-463.0
 20
-422.73686259055694
 30
0.0
  0
POINT
  5
13E
100
AcDbEntity
  8
Defpoints
370
               0
390
0
 62
               0
100
AcDbPoint
 10
-463.0
 20
-300.23686259055694
 30
0.0
  0
ENDBLK
  5
13F
100
AcDbEntity
  8
notes
390
0
100
AcDbBlockEnd
  0
BLOCK
  5
140
100
AcDbEntity
  8
notes
390
0
100
AcDbBlockBegin
  2
*D20
 70
               1
 10
0.0
 20
0.0
 30
0.0
  3
*D20
  1

  0
LINE
  5
141
100
AcDbEntity
  8
0
370
              -2
390
0
  6
Continuous
 62
               0
100
AcDbLine
 10
-508.0
 20
-442.73686259055694
 30
0.0
 11
-745.54756732546866
 21
-442.73686259055694
 31
0.0
  0
LINE
  5
142
100
AcDbEntity
  8
0
370
              -2
390
0
  6
Continuous
 62
               0
100
AcDbLine
 10
-508.0
 20
-512.73686259055694
 30
0.0
 11
-745.54756732546866
 21
-512.73686259055694
 31
0.0
  0
LINE
  5
143
100
AcDbEntity
  8
0
370
              -2
390
0
  6
Continuous
 62
               0
100
AcDbLine
 10
-745.54756732546866
 20
-442.73686259055694
 30
0.0
 11
-745.54756732546866
 21
-512.73686259055694
 31
0.0
  0
CIRCLE
  5
144
102
{ACAD_REACTORS
330
145
102
}
100
AcDbEntity
  8
0
370
              -2
390
0
  6
Continuous
 62
               0
100
AcDbCircle
 10
-745.54756732546866
 20
-442.73686259055694
 30
0.0
 40
1.9998779296875
  0
HATCH
  5
145
100
AcDbEntity
  8
0
370
              -2
390
0
  6
Continuous
 62
               0
100
AcDbHatch
 10
0.0
 20
0.0
 30
0.0
210
0.0
220
0.0
230
1.0
  2
SOLID
 70
               1
 71
               1
 91
        1
 92
        1
 93
        1
 72
               2
 10
-745.54756732546866
 20
-442.73686259055694
 40
1.9998779296875
 50
0.0
 51
360.0
 73
               0
 97
        1
330
144
 75
               0
 76
               1
 98
        1
 10
0.0
 20
0.0
  0
CIRCLE
  5
146
102
{ACAD_REACTORS
330
147
102
}
100
AcDbEntity
  8
0
370
              -2
390
0
  6
Continuous
 62
               0
100
AcDbCircle
 10
-745.54756732546866
 20
-512.73686259055694
 30
0.0
 40
1.9998779296875
  0
HATCH
  5
147
100
AcDbEntity
  8
0
370
              -2
390
0
  6
Continuous
 62
               0
100
AcDbHatch
 10
0.0
 20
0.0
 30
0.0
210
0.0
220
0.0
230
1.0
  2
SOLID
 70
               1
 71
               1
 91
        1
 92
        1
 93
        1
 72
               2
 10
-745.54756732546866
 20
-512.73686259055694
 40
1.9998779296875
 50
0.0
 51
360.0
 73
               0
 97
        1
330
146
 75
               0
 76
               1
 98
        1
 10
0.0
 20
0.0
  0
MTEXT
  5
148
100
AcDbEntity
  8
0
390
0
 62
               0
100
AcDbMText
 10
-779.42518451296883
 20
-493.61186259055694
 30
0.0
 40
24.432617187500004
 41
0.0
 71
               1
 72
               1
  1
70
  7
ＭＳ ゴシック
 11
0.0
 21
1.0
 31
0.0
 73
               1
 44
0.7828267384257843
  0
POINT
  5
149
100
AcDbEntity
  8
Defpoints
370
               0
390
0
 62
               0
100
AcDbPoint
 10
-483.0
 20
-512.73686259055694
 30
0.0
  0
POINT
  5
14A
100
AcDbEntity
  8
Defpoints
370
               0
390
0
 62
               0
100
AcDbPoint
 10
-483.0
 20
-442.73686259055694
 30
0.0
  0
POINT
  5
14B
100
AcDbEntity
  8
Defpoints
370
               0
390
0
 62
               0
100
AcDbPoint
 10
-745.54756732546866
 20
-442.73686259055694
 30
0.0
  0
ENDBLK
  5
14C
100
AcDbEntity
  8
notes
390
0
100
AcDbBlockEnd
  0
BLOCK
  5
14D
100
AcDbEntity
  8
notes
390
0
100
AcDbBlockBegin
  2
*D21
 70
               1
 10
0.0
 20
0.0
 30
0.0
  3
*D21
  1

  0
LINE
  5
14E
100
AcDbEntity
  8
0
370
              -2
390
0
  6
Continuous
 62
               0
100
AcDbLine
 10
-508.0
 20
-442.73686259055694
 30
0.0
 11
-745.42256732546866
 21
-442.73686259055694
 31
0.0
  0
LINE
  5
14F
100
AcDbEntity
  8
0
370
              -2
390
0
  6
Continuous
 62
               0
100
AcDbLine
 10
-520.5
 20
-410.23686259055694
 30
0.0
 11
-745.42256732546866
 21
-410.23686259055694
 31
0.0
  0
LINE
  5
150
100
AcDbEntity
  8
0
370
              -2
390
0
  6
Continuous
 62
               0
100
AcDbLine
 10
-745.42256732546866
 20
-410.23686259055694
 30
0.0
 11
-745.42256732546866
 21
-336.5
 31
0.0
  0
LINE
  5
151
100
AcDbEntity
  8
0
370
              -2
390
0
  6
Continuous
 62
               0
100
AcDbLine
 10
-745.42256732546866
 20
-442.73686259055694
 30
0.0
 11
-745.42256732546866
 21
-410.23686259055694
 31
0.0
  0
CIRCLE
  5
152
102
{ACAD_REACTORS
330
153
102
}
100
AcDbEntity
  8
0
370
              -2
390
0
  6
Continuous
 62
               0
100
AcDbCircle
 10
-745.42256732546866
 20
-442.73686259055694
 30
0.0
 40
1.9998779296875
  0
HATCH
  5
153
100
AcDbEntity
  8
0
370
              -2
390
0
  6
Continuous
 62
               0
100
AcDbHatch
 10
0.0
 20
0.0
 30
0.0
210
0.0
220
0.0
230
1.0
  2
SOLID
 70
               1
 71
               1
 91
        1
 92
        1
 93
        1
 72
               2
 10
-745.42256732546866
 20
-442.73686259055694
 40
1.9998779296875
 50
0.0
 51
360.0
 73
               0
 97
        1
330
152
 75
               0
 76
               1
 98
        1
 10
0.0
 20
0.0
  0
CIRCLE
  5
154
102
{ACAD_REACTORS
330
155
102
}
100
AcDbEntity
  8
0
370
              -2
390
0
  6
Continuous
 62
               0
100
AcDbCircle
 10
-745.42256732546866
 20
-410.23686259055694
 30
0.0
 40
1.9998779296875
  0
HATCH
  5
155
100
AcDbEntity
  8
0
370
              -2
390
0
  6
Continuous
 62
               0
100
AcDbHatch
 10
0.0
 20
0.0
 30
0.0
210
0.0
220
0.0
230
1.0
  2
SOLID
 70
               1
 71
               1
 91
        1
 92
        1
 93
        1
 72
               2
 10
-745.42256732546866
 20
-410.23686259055694
 40
1.9998779296875
 50
0.0
 51
360.0
 73
               0
 97
        1
330
154
 75
               0
 76
               1
 98
        1
 10
0.0
 20
0.0
  0
MTEXT
  5
156
100
AcDbEntity
  8
0
390
0
 62
               0
100
AcDbMText
 10
-779.30018451296883
 20
-400.0
 30
0.0
 40
24.432617187500004
 41
0.0
 71
               1
 72
               1
  1
32.5
  7
ＭＳ ゴシック
 11
0.0
 21
1.0
 31
0.0
 73
               1
 44
0.7828267384257843
  0
POINT
  5
157
100
AcDbEntity
  8
Defpoints
370
               0
390
0
 62
               0
100
AcDbPoint
 10
-495.5
 20
-410.23686259055694
 30
0.0
  0
POINT
  5
158
100
AcDbEntity
  8
Defpoints
370
               0
390
0
 62
               0
100
AcDbPoint
 10
-483.0
 20
-442.73686259055694
 30
0.0
  0
POINT
  5
159
100
AcDbEntity
  8
Defpoints
370
               0
390
0
 62
               0
100
AcDbPoint
 10
-745.42256732546866
 20
-442.73686259055694
 30
0.0
  0
ENDBLK
  5
15A
100
AcDbEntity
  8
notes
390
0
100
AcDbBlockEnd
  0
BLOCK
  5
15B
100
AcDbEntity
  8
notes
390
0
100
AcDbBlockBegin
  2
グループ-1
 70
               0
 10
0.0
 20
0.0
 30
0.0
  3
グループ-1
  1

  0
LINE
  5
15C
100
AcDbEntity
  8
0
370
              15
390
0
  6
STYLE_12
 62
               7
100
AcDbLine
 10
520.91361902403378
 20
-570.10401108245503
 30
0.0
 11
520.91361902403378
 21
-610.23686259055694
 31
0.0
  0
LINE
  5
15D
100
AcDbEntity
  8
0
370
              15
390
0
  6
STYLE_12
 62
               7
100
AcDbLine
 10
562.91361902403378
 20
-570.10401108245503
 30
0.0
 11
562.91361902403378
 21
-610.23686259055694
 31
0.0
  0
ENDBLK
  5
15E
100
AcDbEntity
  8
notes
390
0
100
AcDbBlockEnd
  0
BLOCK
  5
15F
100
AcDbEntity
  8
notes
390
0
100
AcDbBlockBegin
  2
グループ-2
 70
               0
 10
0.0
 20
0.0
 30
0.0
  3
グループ-2
  1

  0
POLYLINE
  5
160
100
AcDbEntity
  8
0
370
               5
390
0
  6
STYLE_12
 62
               7
100
AcDb2dPolyline
 66
               1
 10
0.0
 20
0.0
 30
0.0
 75
               5
  0
VERTEX
  5
161
100
AcDbEntity
  8
0
370
               5
390
0
  6
STYLE_12
 62
               7
100
AcDbVertex
100
AcDb2dVertex
 10
-455.5
 20
-610.23686259055694
 30
0.0
  0
VERTEX
  5
162
100
AcDbEntity
  8
0
370
               5
390
0
  6
STYLE_12
 62
               7
100
AcDbVertex
100
AcDb2dVertex
 10
-455.5
 20
-565.23686259055694
 30
0.0
  0
VERTEX
  5
163
100
AcDbEntity
  8
0
370
               5
390
0
  6
STYLE_12
 62
               7
100
AcDbVertex
100
AcDb2dVertex
 10
-385.5
 20
-565.23686259055694
 30
0.0
  0
VERTEX
  5
164
100
AcDbEntity
  8
0
370
               5
390
0
  6
STYLE_12
 62
               7
100
AcDbVertex
100
AcDb2dVertex
 10
-385.5
 20
-610.23686259055694
 30
0.0
  0
SEQEND
  5
165
100
AcDbEntity
  8
0
370
               5
390
0
  6
STYLE_12
 62
               7
  0
LINE
  5
166
100
AcDbEntity
  8
0
370
              15
390
0
  6
Continuous
 62
               7
100
AcDbLine
 10
-455.5
 20
-612.23686259055694
 30
0.0
 11
-385.5
 21
-612.23686259055694
 31
0.0
  0
LINE
  5
167
100
AcDbEntity
  8
0
370
              15
390
0
  6
STYLE_12
 62
               7
100
AcDbLine
 10
-385.5
 20
-612.23686259055694
 30
0.0
 11
-385.5
 21
-610.23686259055694
 31
0.0
  0
LINE
  5
168
100
AcDbEntity
  8
0
370
              15
390
0
  6
STYLE_12
 62
               7
100
AcDbLine
 10
-455.5
 20
-612.23686259055694
 30
0.0
 11
-455.5
 21
-610.23686259055694
 31
0.0
  0
ENDBLK
  5
169
100
AcDbEntity
  8
notes
390
0
100
AcDbBlockEnd
  0
BLOCK
  5
16A
100
AcDbEntity
  8
notes
390
0
100
AcDbBlockBegin
  2
*D24
 70
               1
 10
0.0
 20
0.0
 30
0.0
  3
*D24
  1

  0
LINE
  5
16B
100
AcDbEntity
  8
0
370
              -2
390
0
  6
Continuous
 62
               0
100
AcDbLine
 10
601.90000000000009
 20
-572.23686259055694
 30
0.0
 11
879.45544043170753
 21
-572.23686259055694
 31
0.0
  0
LINE
  5
16C
100
AcDbEntity
  8
0
370
              -2
390
0
  6
Continuous
 62
               0
100
AcDbLine
 10
747.0
 20
-400.23686259055694
 30
0.0
 11
879.45544043170753
 21
-400.23686259055694
 31
0.0
  0
LINE
  5
16D
100
AcDbEntity
  8
0
370
              -2
390
0
  6
Continuous
 62
               0
100
AcDbLine
 10
879.45544043170753
 20
-572.23686259055694
 30
0.0
 11
879.45544043170753
 21
-400.23686259055694
 31
0.0
  0
CIRCLE
  5
16E
102
{ACAD_REACTORS
330
16F
102
}
100
AcDbEntity
  8
0
370
              -2
390
0
  6
Continuous
 62
               0
100
AcDbCircle
 10
879.45544043170753
 20
-572.23686259055694
 30
0.0
 40
1.9998779296875
  0
HATCH
  5
16F
100
AcDbEntity
  8
0
370
              -2
390
0
  6
Continuous
 62
               0
100
AcDbHatch
 10
0.0
 20
0.0
 30
0.0
210
0.0
220
0.0
230
1.0
  2
SOLID
 70
               1
 71
               1
 91
        1
 92
        1
 93
        1
 72
               2
 10
879.45544043170753
 20
-572.23686259055694
 40
1.9998779296875
 50
0.0
 51
360.0
 73
               0
 97
        1
330
16E
 75
               0
 76
               1
 98
        1
 10
0.0
 20
0.0
  0
CIRCLE
  5
170
102
{ACAD_REACTORS
330
171
102
}
100
AcDbEntity
  8
0
370
              -2
390
0
  6
Continuous
 62
               0
100
AcDbCircle
 10
879.45544043170753
 20
-400.23686259055694
 30
0.0
 40
1.9998779296875
  0
HATCH
  5
171
100
AcDbEntity
  8
0
370
              -2
390
0
  6
Continuous
 62
               0
100
AcDbHatch
 10
0.0
 20
0.0
 30
0.0
210
0.0
220
0.0
230
1.0
  2
SOLID
 70
               1
 71
               1
 91
        1
 92
        1
 93
        1
 72
               2
 10
879.45544043170753
 20
-400.23686259055694
 40
1.9998779296875
 50
0.0
 51
360.0
 73
               0
 97
        1
330
170
 75
               0
 76
               1
 98
        1
 10
0.0
 20
0.0
  0
MTEXT
  5
172
100
AcDbEntity
  8
0
390
0
 62
               0
100
AcDbMText
 10
845.57782324420737
 20
-510.04936427273242
 30
0.0
 40
24.432617187500004
 41
0.0
 71
               1
 72
               1
  1
175
  7
ＭＳ ゴシック
 11
0.0
 21
1.0
 31
0.0
 73
               1
 44
0.7828267384257843
  0
POINT
  5
173
100
AcDbEntity
  8
Defpoints
370
               0
390
0
 62
               0
100
AcDbPoint
 10
722.0
 20
-400.23686259055694
 30
0.0
  0
POINT
  5
174
100
AcDbEntity
  8
Defpoints
370
               0
390
0
 62
               0
100
AcDbPoint
 10
576.90000000000009
 20
-572.23686259055694
 30
0.0
  0
POINT
  5
175
100
AcDbEntity
  8
Defpoints
370
               0
390
0
 62
               0
100
AcDbPoint
 10
879.45544043170753
 20
-572.23686259055694
 30
0.0
  0
ENDBLK
  5
176
100
AcDbEntity
  8
notes
390
0
100
AcDbBlockEnd
  0
BLOCK
  5
177
100
AcDbEntity
  8
notes
390
0
100
AcDbBlockBegin
  2
*D25
 70
               1
 10
0.0
 20
0.0
 30
0.0
  3
*D25
  1

  0
LINE
  5
178
100
AcDbEntity
  8
0
370
              -2
390
0
  6
Continuous
 62
               0
100
AcDbLine
 10
-455.50000000000006
 20
-597.23686259055694
 30
0.0
 11
-455.50000000000006
 21
-672.23686259055694
 31
0.0
  0
LINE
  5
179
100
AcDbEntity
  8
0
370
              -2
390
0
  6
Continuous
 62
               0
100
AcDbLine
 10
-385.50000000000006
 20
-597.23686259055694
 30
0.0
 11
-385.50000000000006
 21
-672.23686259055694
 31
0.0
  0
LINE
  5
17A
100
AcDbEntity
  8
0
370
              -2
390
0
  6
Continuous
 62
               0
100
AcDbLine
 10
-455.50000000000006
 20
-672.23686259055694
 30
0.0
 11
-385.50000000000006
 21
-672.23686259055694
 31
0.0
  0
CIRCLE
  5
17B
102
{ACAD_REACTORS
330
17C
102
}
100
AcDbEntity
  8
0
370
              -2
390
0
  6
Continuous
 62
               0
100
AcDbCircle
 10
-455.50000000000006
 20
-672.23686259055694
 30
0.0
 40
1.9998779296875
  0
HATCH
  5
17C
100
AcDbEntity
  8
0
370
              -2
390
0
  6
Continuous
 62
               0
100
AcDbHatch
 10
0.0
 20
0.0
 30
0.0
210
0.0
220
0.0
230
1.0
  2
SOLID
 70
               1
 71
               1
 91
        1
 92
        1
 93
        1
 72
               2
 10
-455.50000000000006
 20
-672.23686259055694
 40
1.9998779296875
 50
0.0
 51
360.0
 73
               0
 97
        1
330
17B
 75
               0
 76
               1
 98
        1
 10
0.0
 20
0.0
  0
CIRCLE
  5
17D
102
{ACAD_REACTORS
330
17E
102
}
100
AcDbEntity
  8
0
370
              -2
390
0
  6
Continuous
 62
               0
100
AcDbCircle
 10
-385.50000000000006
 20
-672.23686259055694
 30
0.0
 40
1.9998779296875
  0
HATCH
  5
17E
100
AcDbEntity
  8
0
370
              -2
390
0
  6
Continuous
 62
               0
100
AcDbHatch
 10
0.0
 20
0.0
 30
0.0
210
0.0
220
0.0
230
1.0
  2
SOLID
 70
               1
 71
               1
 91
        1
 92
        1
 93
        1
 72
               2
 10
-385.50000000000006
 20
-672.23686259055694
 40
1.9998779296875
 50
0.0
 51
360.0
 73
               0
 97
        1
330
17D
 75
               0
 76
               1
 98
        1
 10
0.0
 20
0.0
  0
MTEXT
  5
17F
100
AcDbEntity
  8
0
390
0
 62
               0
100
AcDbMText
 10
-436.37500000000006
 20
-638.35924540305689
 30
0.0
 40
24.432617187500004
 41
0.0
 71
               1
 72
               1
  1
70
  7
ＭＳ ゴシック
 73
               1
 44
0.7828267384257843
  0
POINT
  5
180
100
AcDbEntity
  8
Defpoints
370
               0
390
0
 62
               0
100
AcDbPoint
 10
-385.50000000000006
 20
-572.23686259055694
 30
0.0
  0
POINT
  5
181
100
AcDbEntity
  8
Defpoints
370
               0
390
0
 62
               0
100
AcDbPoint
 10
-455.50000000000006
 20
-572.23686259055694
 30
0.0
  0
POINT
  5
182
100
AcDbEntity
  8
Defpoints
370
               0
390
0
 62
               0
100
AcDbPoint
 10
-455.50000000000006
 20
-672.23686259055694
 30
0.0
  0
ENDBLK
  5
183
100
AcDbEntity
  8
notes
390
0
100
AcDbBlockEnd
  0
ENDSEC
  0
SECTION
  2
ENTITIES
  0
MTEXT
  5
184
100
AcDbEntity
  8
template
390
0
 62
               7
100
AcDbMText
 10
-967.99999999975921
 20
-1147.4176292337004
 30
0.0
 40
16.288411458333332
 41
0.0
 71
               1
 72
               1
  1
品名
  7
ＭＳ ゴシック
 73
               1
 44
0.7828267384257843
  0
MTEXT
  5
185
100
AcDbEntity
  8
template
390
0
 62
               7
100
AcDbMText
 10
-967.99999999975921
 20
-1232.4176292337004
 30
0.0
 40
16.288411458333332
 41
0.0
 71
               1
 72
               1
  1
仕様
  7
ＭＳ ゴシック
 73
               1
 44
0.7828267384257843
  0
MTEXT
  5
186
100
AcDbEntity
  8
template
390
0
 62
               7
100
AcDbMText
 10
-914.99999999975921
 20
-1176.0000901712006
 30
0.0
 40
24.432617187500004
 41
0.0
 71
               1
 72
               1
  1
洗面器 -ALAPE-
  7
ＭＳ ゴシック
 73
               1
 44
0.7828267384257843
  0
LINE
  5
187
100
AcDbEntity
  8
template
370
               5
390
0
  6
Continuous
 62
               7
100
AcDbLine
 10
974.99999999975876
 20
-1224.0027073587005
 30
0.0
 11
-975.00000000024124
 21
-1224.0027073587005
 31
0.0
  0
LWPOLYLINE
  5
188
100
AcDbEntity
  8
template
370
               5
390
0
  6
Continuous
 62
               7
100
AcDbPolyline
 90
        5
 70
             128
 10
975.00000000024124
 20
1405.9972926412995
 10
-974.99999999975921
 20
1405.9972926412995
 10
-974.99999999975921
 20
-1394.0027073587005
 10
975.00000000024124
 20
-1394.0027073587005
 10
975.00000000024124
 20
1405.9972926412995
  0
LINE
  5
189
100
AcDbEntity
  8
template
370
               5
390
0
  6
Continuous
 62
               7
100
AcDbLine
 10
974.99999999975876
 20
-1139.0027073587005
 30
0.0
 11
-975.00000000024124
 21
-1139.0027073587005
 31
0.0
  0
LINE
  5
18A
100
AcDbEntity
  8
template
370
               5
390
0
  6
Continuous
 62
               7
100
AcDbLine
 10
975.00000000024124
 20
-1309.0027073587005
 30
0.0
 11
222.00000000024124
 21
-1309.0027073587005
 31
0.0
  0
MTEXT
  5
18B
100
AcDbEntity
  8
template
390
0
 62
               7
100
AcDbMText
 10
-914.99999999975921
 20
-1261.0000901712006
 30
0.0
 40
24.432617187500004
 41
0.0
 71
               1
 72
               1
  1
壁掛け/オーバーフロー付き/壁取付ボルト付属/\P鋼板ホーロー/ホワイト
  7
ＭＳ ゴシック
 73
               1
 44
1.1307497332816883
  0
MTEXT
  5
18C
100
AcDbEntity
  8
template
390
0
 62
               7
100
AcDbMText
 10
-974.99999999955594
 20
-1405.8565294155574
 30
0.0
 40
21.717881944444446
 41
0.0
 71
               1
 72
               1
  1
120501SH
  7
ＭＳ ゴシック
 73
               1
 44
0.7828267384257843
  0
MTEXT
  5
18D
100
AcDbEntity
  8
template
390
0
 62
               7
100
AcDbMText
 10
251.87140625250089
 20
-1338.9131018320081
 30
0.0
 40
24.432617187500004
 41
0.0
 71
               1
 72
               1
  1
大洋金物株式会社 ティーフォルム事業部
  7
ＭＳ ゴシック
 73
               1
 44
0.7828267384257843
  0
INSERT
  5
18E
100
AcDbEntity
  8
template
390
0
 62
               7
100
AcDbBlockReference
  2
グループ
 10
-0.0000000000000568
 20
40.0
 30
0.0
  0
MTEXT
  5
18F
100
AcDbEntity
  8
template
390
0
 62
               7
100
AcDbMText
 10
821.75000000049999
 20
-1261.0000901712006
 30
0.0
 40
24.432617187500004
 41
0.0
 71
               1
 72
               1
  1
1:10
  7
ＭＳ ゴシック
 73
               1
 44
0.7828267384257843
  0
MTEXT
  5
190
100
AcDbEntity
  8
template
390
0
 62
               7
100
AcDbMText
 10
731.00000000049999
 20
-1232.4176292337004
 30
0.0
 40
16.288411458333332
 41
0.0
 71
               1
 72
               1
  1
縮尺
  7
ＭＳ ゴシック
 73
               1
 44
0.7828267384257843
  0
LINE
  5
191
100
AcDbEntity
  8
template
370
               5
390
0
  6
Continuous
 62
               7
100
AcDbLine
 10
724.00000000049999
 20
-1309.0027073587005
 30
0.0
 11
724.00000000049999
 21
-1224.0027073587005
 31
0.0
  0
LINE
  5
192
100
AcDbEntity
  8
template
370
               5
390
0
  6
Continuous
 62
               7
100
AcDbLine
 10
473.00000000049999
 20
-1309.0027073587005
 30
0.0
 11
473.00000000049999
 21
-1224.0027073587005
 31
0.0
  0
MTEXT
  5
193
100
AcDbEntity
  8
template
390
0
 62
               7
100
AcDbMText
 10
229.00000000049999
 20
-1147.4176292337004
 30
0.0
 40
16.288411458333332
 41
0.0
 71
               1
 72
               1
  1
品番
  7
ＭＳ ゴシック
 73
               1
 44
0.7828267384257843
  0
MTEXT
  5
194
100
AcDbEntity
  8
template
390
0
 62
               7
100
AcDbMText
 10
229.00000000049999
 20
-1232.4176292337004
 30
0.0
 40
16.288411458333332
 41
0.0
 71
               1
 72
               1
  1
重量
  7
ＭＳ ゴシック
 73
               1
 44
0.7828267384257843
  0
MTEXT
  5
195
100
AcDbEntity
  8
template
390
0
 62
               7
100
AcDbMText
 10
282.00000000049999
 20
-1176.0000901712006
 30
0.0
 40
24.432617187500004
 41
0.0
 71
               1
 72
               1
  1
FAN70-0101
  7
ＭＳ ゴシック
 73
               1
 44
0.7828267384257843
  0
LINE
  5
196
100
AcDbEntity
  8
template
370
               5
390
0
  6
Continuous
 62
               7
100
AcDbLine
 10
222.00000000049999
 20
-1394.0027073587005
 30
0.0
 11
222.00000000049999
 21
-1139.0027073587005
 31
0.0
  0
MTEXT
  5
197
100
AcDbEntity
  8
template
390
0
 62
               7
100
AcDbMText
 10
481.29690810463518
 20
-1232.4176292337004
 30
0.0
 40
16.288411458333332
 41
0.0
 71
               1
 72
               1
  1
容量
  7
ＭＳ ゴシック
 73
               1
 44
0.7828267384257843
  0
MTEXT
  5
198
100
AcDbEntity
  8
template
390
0
 62
               7
100
AcDbMText
 10
571.75000000049999
 20
-1261.0000901712006
 30
0.0
 40
24.432617187500004
 41
0.0
 71
               1
 72
               1
  1
3.5L
  7
ＭＳ ゴシック
 73
               1
 44
0.7828267384257843
  0
MTEXT
  5
199
100
AcDbEntity
  8
template
390
0
 62
               7
100
AcDbMText
 10
321.62500336485107
 20
-1261.0000901712006
 30
0.0
 40
24.432617187500004
 41
0.0
 71
               1
 72
               1
  1
7kg
  7
ＭＳ ゴシック
 73
               1
 44
0.7828267384257843
  0
MTEXT
  5
19A
100
AcDbEntity
  8
notes
390
0
 62
               7
100
AcDbMText
 10
-254.02978611443186
 20
-314.83689340060539
 30
0.0
 40
24.432617187500004
 41
0.0
 71
               1
 72
               1
  1
壁取付ボルト穴(4ヶ所)
  7
ＭＳ ゴシック
 73
               1
 44
0.7828267384257843
  0
LINE
  5
19B
100
AcDbEntity
  8
notes
370
               5
390
0
  6
Continuous
 62
               7
100
AcDbLine
 10
-378.0
 20
-442.73686259055694
 30
0.0
 11
-240.0
 21
-352.0
 31
0.0
  0
DIMENSION
  5
19C
100
AcDbEntity
  8
notes
370
               5
390
0
  6
Continuous
 62
               7
100
AcDbDimension
  2
*D3
 10
-95.547567325468663
 20
-400.23686259055694
 30
0.0
 11
-90.547567325468663
 21
-488.47581651137432
 31
0.0
 70
             128
 71
               5
 72
               1
 41
1.0
 42
0.0
  3
tfrom線あり
100
AcDbAlignedDimension
 13
-199.04756732546866
 23
-570.23686259055683
 33
0.0
 14
-199.04756732546878
 24
-400.23686259055694
 34
0.0
 50
90.0
100
AcDbRotatedDimension
1001
ACAD
1000
DSTYLE
1002
{
1070
             271
1070
               2
1070
             279
1070
               2
1070
             340
1005
3B
1070
             147
1040
5.0
1002
}
  0
DIMENSION
  5
19D
100
AcDbEntity
  8
notes
370
               5
390
0
  6
Continuous
 62
               7
100
AcDbDimension
  2
*D4
 10
-583.04756732546866
 20
245.73648589726349
 30
0.0
 11
-414.97392754406479
 21
250.73648589726349
 31
0.0
 70
             128
 71
               5
 72
               1
 41
1.0
 42
0.0
  3
tfrom線あり
100
AcDbAlignedDimension
 13
-258.04756732546866
 23
415.11274092240421
 33
0.0
 14
-583.04756732546866
 24
415.11274092240421
 34
0.0
100
AcDbRotatedDimension
1001
ACAD
1000
DSTYLE
1002
{
1070
             271
1070
               2
1070
             279
1070
               2
1070
             340
1005
3B
1070
             147
1040
5.0
1002
}
  0
DIMENSION
  5
19E
100
AcDbEntity
  8
notes
370
               5
390
0
  6
Continuous
 62
               7
100
AcDbDimension
  2
*D5
 10
-345.54756732546912
 20
915.73648589726338
 30
0.0
 11
-420.54756732546861
 21
915.73648589726338
 31
0.0
 71
               5
 72
               1
 41
1.0
 42
0.0
  3
tfrom線あり
100
AcDbAlignedDimension
 13
-495.54756732546815
 23
815.73648589726338
 33
0.0
 14
-345.54756732546912
 24
815.73648589726338
 34
0.0
100
AcDbRotatedDimension
1001
ACAD
1000
DSTYLE
1002
{
1070
             271
1070
               2
1070
             279
1070
               2
1070
             340
1005
3B
1070
             147
1040
5.0
1002
}
  0
DIMENSION
  5
19F
100
AcDbEntity
  8
notes
370
               5
390
0
  6
Continuous
 62
               7
100
AcDbDimension
  2
*D6
 10
-645.54756732546844
 20
195.73648589726349
 30
0.0
 11
-414.21895687340094
 21
200.73648589726349
 31
0.0
 70
             128
 71
               5
 72
               1
 41
1.0
 42
0.0
  3
tfrom線あり
100
AcDbAlignedDimension
 13
-195.54756732546878
 23
545.73648589726349
 33
0.0
 14
-645.54756732546844
 24
545.73648589726349
 34
0.0
100
AcDbRotatedDimension
1001
ACAD
1000
DSTYLE
1002
{
1070
             271
1070
               2
1070
             279
1070
               2
1070
             340
1005
3B
1070
             147
1040
5.0
1002
}
  0
DIMENSION
  5
1A0
100
AcDbEntity
  8
notes
370
               5
390
0
  6
Continuous
 62
               7
100
AcDbDimension
  2
*D7
 10
159.45544043170781
 20
-410.23686259055694
 30
0.0
 11
154.45544043170781
 21
-485.59195178683592
 31
0.0
 70
             128
 71
               5
 72
               1
 41
1.0
 42
0.0
  3
tfrom線あり
100
AcDbAlignedDimension
 13
259.45544043170781
 23
-560.23686259055694
 33
0.0
 14
259.45544043170781
 24
-410.23686259055694
 34
0.0
 50
90.0
100
AcDbRotatedDimension
1001
ACAD
1000
DSTYLE
1002
{
1070
             271
1070
               2
1070
             279
1070
               2
1070
             340
1005
3B
1070
             147
1040
5.0
1002
}
  0
DIMENSION
  5
1A1
100
AcDbEntity
  8
notes
370
               5
390
0
  6
Continuous
 62
               7
100
AcDbDimension
  2
*D8
 10
159.45544043170781
 20
-560.23686259055694
 30
0.0
 11
154.45544043170781
 21
-564.66208558617609
 31
0.0
 70
             128
 71
               5
 72
               1
 41
1.0
 42
0.0
  3
tfrom線あり
100
AcDbAlignedDimension
 13
282.95544043170747
 23
-570.23686259055694
 33
0.0
 14
259.45544043170781
 24
-560.23686259055694
 34
0.0
 50
90.0
100
AcDbRotatedDimension
1001
ACAD
1000
DSTYLE
1002
{
1070
             271
1070
               2
1070
             279
1070
               2
1070
             340
1005
3B
1070
             174
1070
               0
1070
             147
1040
5.0
1002
}
  0
DIMENSION
  5
1A2
100
AcDbEntity
  8
notes
370
               5
390
0
  6
Continuous
 62
               7
100
AcDbDimension
  2
*D9
 10
-435.78983160569754
 20
736.16186425400031
 30
0.0
 11
-194.18938873314238
 21
850.23648589726417
 31
0.0
 70
               3
 71
               5
 72
               1
 41
1.0
 42
0.0
  3
tfrom線あり
100
AcDbDiametricDimension
 15
-405.30530304523973
 25
755.31110754052668
 35
0.0
 40
178.45684916682498
1001
ACAD
1000
DSTYLE
1002
{
1070
             289
1070
               0
1070
             342
1005
4E
1070
             340
1005
3B
1070
              73
1070
               1
1070
              74
1070
               1
1070
              75
1070
               1
1070
              76
1070
               1
1070
               3
1000

1070
             174
1070
               0
1070
             147
1040
5.0
1002
}
  0
DIMENSION
  5
1A3
100
AcDbEntity
  8
notes
370
               5
390
0
  6
Continuous
 62
               7
100
AcDbDimension
  2
*D10
 10
329.4554404317077
 20
-300.23686259055694
 30
0.0
 11
294.45544043170776
 21
-295.23686259055694
 31
0.0
 70
             128
 71
               5
 72
               1
 41
1.0
 42
0.0
  3
tfrom線あり
100
AcDbAlignedDimension
 13
259.45544043170781
 23
-410.23686259055694
 33
0.0
 14
329.4554404317077
 24
-400.23686259055694
 34
0.0
100
AcDbRotatedDimension
1001
ACAD
1000
DSTYLE
1002
{
1070
             279
1070
               2
1070
             340
1005
3B
1070
             147
1040
5.0
1002
}
  0
DIMENSION
  5
1A4
100
AcDbEntity
  8
notes
370
               5
390
0
  6
Continuous
 62
               7
100
AcDbDimension
  2
*D11
 10
544.45544043170753
 20
-525.23686259055694
 30
0.0
 11
549.45544043170753
 21
-392.0
 31
0.0
 70
             128
 71
               5
 72
               1
 41
1.0
 42
0.0
  3
tfrom線あり
100
AcDbAlignedDimension
 13
541.91361902403378
 23
-400.23686259055694
 33
0.0
 14
541.91361902403378
 24
-525.23686259055694
 34
0.0
 50
90.0
100
AcDbRotatedDimension
1001
ACAD
1000
DSTYLE
1002
{
1070
             279
1070
               2
1070
             340
1005
3B
1070
               3
1000
<>(深さ)
1070
             174
1070
               0
1070
             147
1040
5.0
1002
}
  0
DIMENSION
  5
1A5
100
AcDbEntity
  8
notes
370
               5
390
0
  6
Continuous
 62
               7
100
AcDbDimension
  2
*D12
 10
159.45544043170781
 20
-410.23686259055694
 30
0.0
 11
159.45544043170781
 21
-405.23686259055694
 31
0.0
 71
               5
 72
               1
 41
1.0
 42
0.0
  3
tfrom線あり
100
AcDbAlignedDimension
 13
282.95544043170736
 23
-400.23686259055694
 33
0.0
 14
259.45544043170781
 24
-410.23686259055694
 34
0.0
 50
90.0
100
AcDbRotatedDimension
1001
ACAD
1000
DSTYLE
1002
{
1070
             279
1070
               2
1070
             340
1005
3B
1070
             147
1040
5.0
1002
}
  0
DIMENSION
  5
1A6
100
AcDbEntity
  8
notes
370
               5
390
0
  6
Continuous
 62
               7
100
AcDbDimension
  2
*D13
 10
-95.547567325468776
 20
815.73648589726338
 30
0.0
 11
-95.547567325468776
 21
580.73648589726349
 31
0.0
 71
               5
 72
               1
 41
1.0
 42
0.0
  3
tfrom線あり
100
AcDbAlignedDimension
 13
-395.54756732546866
 23
345.73648589726349
 33
0.0
 14
-345.54756732546912
 24
815.73648589726338
 34
0.0
 50
90.0
100
AcDbRotatedDimension
1001
ACAD
1000
DSTYLE
1002
{
1070
             279
1070
               2
1070
             340
1005
3B
1070
             147
1040
5.0
1002
}
  0
DIMENSION
  5
1A7
100
AcDbEntity
  8
notes
370
               5
390
0
  6
Continuous
 62
               7
100
AcDbDimension
  2
*D14
 10
-745.54756732546844
 20
795.73648589726338
 30
0.0
 11
-750.54756732546844
 21
829.23648589726383
 31
0.0
 70
             128
 71
               5
 72
               1
 41
1.0
 42
0.0
  3
tfrom線あり
100
AcDbAlignedDimension
 13
-495.54756732546815
 23
815.73648589726338
 33
0.0
 14
-495.54756732546815
 24
795.73648589726338
 34
0.0
 50
90.0
100
AcDbRotatedDimension
1001
ACAD
1000
DSTYLE
1002
{
1070
             279
1070
               2
1070
             340
1005
3B
1070
             174
1070
               0
1070
             147
1040
5.0
1002
}
  0
DIMENSION
  5
1A8
100
AcDbEntity
  8
notes
370
               5
390
0
  6
Continuous
 62
               7
100
AcDbDimension
  2
*D15
 10
-745.54756732546844
 20
795.73648589726338
 30
0.0
 11
-745.54756732546844
 21
745.73648589726338
 31
0.0
 71
               5
 72
               1
 41
1.0
 42
0.0
  3
tfrom線あり
100
AcDbAlignedDimension
 13
-607.6304366641657
 23
695.73648589726338
 33
0.0
 14
-495.54756732546815
 24
795.73648589726338
 34
0.0
 50
90.0
100
AcDbRotatedDimension
1001
ACAD
1000
DSTYLE
1002
{
1070
             279
1070
               2
1070
             340
1005
3B
1070
             147
1040
5.0
1002
}
  0
DIMENSION
  5
1A9
100
AcDbEntity
  8
notes
370
               5
390
0
  6
Continuous
 62
               7
100
AcDbDimension
  2
*D16
 10
-745.54756732546844
 20
695.73648589726338
 30
0.0
 11
-745.54756732546844
 21
533.23648589726338
 31
0.0
 71
               5
 72
               1
 41
1.0
 42
0.0
  3
tfrom線あり
100
AcDbAlignedDimension
 13
-523.62520796591002
 23
370.73648589726338
 33
0.0
 14
-607.6304366641657
 24
695.73648589726338
 34
0.0
 50
90.0
100
AcDbRotatedDimension
1001
ACAD
1000
DSTYLE
1002
{
1070
             279
1070
               2
1070
             340
1005
3B
1070
             147
1040
5.0
1002
}
  0
DIMENSION
  5
1AA
100
AcDbEntity
  8
notes
370
               5
390
0
  6
Continuous
 62
               7
100
AcDbDimension
  2
*D17
 10
259.45544043170781
 20
-672.23686259055694
 30
0.0
 11
400.68452972787077
 21
-672.23686259055694
 31
0.0
 71
               5
 72
               1
 41
1.0
 42
0.0
  3
tfrom線あり
100
AcDbAlignedDimension
 13
541.91361902403378
 23
-570.23686259055694
 33
0.0
 14
259.45544043170781
 24
-560.23686259055694
 34
0.0
100
AcDbRotatedDimension
1001
ACAD
1000
DSTYLE
1002
{
1070
             279
1070
               2
1070
             340
1005
3B
1070
             147
1040
5.0
1002
}
  0
DIMENSION
  5
1AB
100
AcDbEntity
  8
notes
370
               5
390
0
  6
Continuous
 62
               7
100
AcDbDimension
  2
*D18
 10
-795.54756732546866
 20
-410.23686259055694
 30
0.0
 11
-795.54756732546866
 21
-485.23686259055694
 31
0.0
 71
               5
 72
               1
 41
1.0
 42
0.0
  3
tfrom線あり
100
AcDbAlignedDimension
 13
-495.5
 23
-560.23686259055694
 33
0.0
 14
-495.5
 24
-410.23686259055694
 34
0.0
 50
90.0
100
AcDbRotatedDimension
1001
ACAD
1000
DSTYLE
1002
{
1070
             279
1070
               2
1070
             340
1005
3B
1070
             147
1040
5.0
1002
}
  0
DIMENSION
  5
1AC
100
AcDbEntity
  8
notes
370
               5
390
0
  6
Continuous
 62
               7
100
AcDbDimension
  2
*D19
 10
-463.0
 20
-300.23686259055694
 30
0.0
 11
-420.5
 21
-300.23686259055694
 31
0.0
 71
               5
 72
               1
 41
1.0
 42
0.0
  3
tfrom線あり
100
AcDbAlignedDimension
 13
-378.0
 23
-422.73686259055694
 33
0.0
 14
-463.0
 24
-422.73686259055694
 34
0.0
100
AcDbRotatedDimension
1001
ACAD
1000
DSTYLE
1002
{
1070
             279
1070
               2
1070
             340
1005
3B
1070
             147
1040
5.0
1002
}
  0
DIMENSION
  5
1AD
100
AcDbEntity
  8
notes
370
               5
390
0
  6
Continuous
 62
               7
100
AcDbDimension
  2
*D20
 10
-745.54756732546866
 20
-442.73686259055694
 30
0.0
 11
-745.54756732546866
 21
-477.73686259055694
 31
0.0
 71
               5
 72
               1
 41
1.0
 42
0.0
  3
tfrom線あり
100
AcDbAlignedDimension
 13
-483.0
 23
-512.73686259055694
 33
0.0
 14
-483.0
 24
-442.73686259055694
 34
0.0
 50
90.0
100
AcDbRotatedDimension
1001
ACAD
1000
DSTYLE
1002
{
1070
             279
1070
               2
1070
             340
1005
3B
1070
             147
1040
5.0
1002
}
  0
DIMENSION
  5
1AE
100
AcDbEntity
  8
notes
370
               5
390
0
  6
Continuous
 62
               7
100
AcDbDimension
  2
*D21
 10
-745.42256732546866
 20
-442.73686259055694
 30
0.0
 11
-750.42256732546866
 21
-400.0
 31
0.0
 70
             128
 71
               5
 72
               1
 41
1.0
 42
0.0
  3
tfrom線あり
100
AcDbAlignedDimension
 13
-495.5
 23
-410.23686259055694
 33
0.0
 14
-483.0
 24
-442.73686259055694
 34
0.0
 50
90.0
100
AcDbRotatedDimension
1001
ACAD
1000
DSTYLE
1002
{
1070
             279
1070
               2
1070
             340
1005
3B
1070
             174
1070
               0
1070
             147
1040
5.0
1002
}
  0
POLYLINE
  5
1AF
100
AcDbEntity
  8
notes
370
               5
390
0
  6
STYLE_12
 62
               7
100
AcDb2dPolyline
 66
               1
 10
0.0
 20
0.0
 30
0.0
 75
               5
  0
VERTEX
  5
1B0
100
AcDbEntity
  8
notes
370
               5
390
0
  6
STYLE_12
 62
               7
100
AcDbVertex
100
AcDb2dVertex
 10
506.90000000000003
 20
-570.23686259055694
 30
0.0
  0
VERTEX
  5
1B1
100
AcDbEntity
  8
notes
370
               5
390
0
  6
STYLE_12
 62
               7
100
AcDbVertex
100
AcDb2dVertex
 10
506.90000000000003
 20
-525.23686259055694
 30
0.0
  0
VERTEX
  5
1B2
100
AcDbEntity
  8
notes
370
               5
390
0
  6
STYLE_12
 62
               7
100
AcDbVertex
100
AcDb2dVertex
 10
576.90000000000009
 20
-525.23686259055694
 30
0.0
  0
VERTEX
  5
1B3
100
AcDbEntity
  8
notes
370
               5
390
0
  6
STYLE_12
 62
               7
100
AcDbVertex
100
AcDb2dVertex
 10
576.90000000000009
 20
-570.23686259055694
 30
0.0
  0
SEQEND
  5
1B4
100
AcDbEntity
  8
notes
370
               5
390
0
  6
STYLE_12
 62
               7
  0
INSERT
  5
1B5
100
AcDbEntity
  8
notes
390
0
 62
               7
100
AcDbBlockReference
  2
グループ-1
 10
-0.0000000000000568
 20
40.0
 30
0.0
  0
LINE
  5
1B6
100
AcDbEntity
  8
notes
370
              15
390
0
  6
Continuous
 62
               7
100
AcDbLine
 10
506.90000000000003
 20
-572.23686259055694
 30
0.0
 11
576.90000000000009
 21
-572.23686259055694
 31
0.0
  0
LINE
  5
1B7
100
AcDbEntity
  8
notes
370
              15
390
0
  6
STYLE_12
 62
               7
100
AcDbLine
 10
576.90000000000009
 20
-572.23686259055694
 30
0.0
 11
576.90000000000009
 21
-570.23686259055694
 31
0.0
  0
LINE
  5
1B8
100
AcDbEntity
  8
notes
370
              15
390
0
  6
STYLE_12
 62
               7
100
AcDbLine
 10
506.90000000000003
 20
-572.23686259055694
 30
0.0
 11
506.90000000000003
 21
-570.23686259055694
 31
0.0
  0
INSERT
  5
1B9
100
AcDbEntity
  8
notes
390
0
 62
               7
100
AcDbBlockReference
  2
グループ-2
 10
-0.0000000000000568
 20
40.0
 30
0.0
  0
DIMENSION
  5
1BA
100
AcDbEntity
  8
notes
370
               5
390
0
  6
Continuous
 62
               7
100
AcDbDimension
  2
*D24
 10
879.45544043170753
 20
-572.23686259055694
 30
0.0
 11
879.45544043170753
 21
-486.23686259055694
 31
0.0
 71
               5
 72
               1
 41
1.0
 42
0.0
  1
175
  3
tfrom線あり
100
AcDbAlignedDimension
 13
722.0
 23
-400.23686259055694
 33
0.0
 14
576.90000000000009
 24
-572.23686259055694
 34
0.0
 50
90.0
100
AcDbRotatedDimension
1001
ACAD
1000
DSTYLE
1002
{
1070
             279
1070
               2
1070
             340
1005
3B
1070
             147
1040
5.0
1002
}
  0
DIMENSION
  5
1BB
100
AcDbEntity
  8
notes
370
               5
390
0
  6
Continuous
 62
               7
100
AcDbDimension
  2
*D25
 10
-455.50000000000006
 20
-672.23686259055694
 30
0.0
 11
-420.50000000000006
 21
-672.23686259055694
 31
0.0
 71
               5
 72
               1
 41
1.0
 42
0.0
  3
tfrom線あり
100
AcDbAlignedDimension
 13
-385.50000000000006
 23
-572.23686259055694
 33
0.0
 14
-455.50000000000006
 24
-572.23686259055694
 34
0.0
100
AcDbRotatedDimension
1001
ACAD
1000
DSTYLE
1002
{
1070
             279
1070
               2
1070
             340
1005
3B
1070
             147
1040
5.0
1002
}
  0
ARC
  5
1BC
100
AcDbEntity
  8
FAN70-0101
370
              15
390
0
  6
Continuous
 62
               7
100
AcDbCircle
 10
-642.04756732546866
 20
-566.73686259055694
 30
0.0
 40
3.5
100
AcDbArc
 50
180.0
 51
270.00000000000369
  0
ARC
  5
1BD
100
AcDbEntity
  8
FAN70-0101
370
              15
390
0
  6
Continuous
 62
               7
100
AcDbCircle
 10
-199.04756732546866
 20
-566.73686259055694
 30
0.0
 40
3.5
100
AcDbArc
 50
270.0
 51
0.0
  0
LINE
  5
1BE
100
AcDbEntity
  8
FAN70-0101
370
              15
390
0
  6
Continuous
 62
               7
100
AcDbLine
 10
-645.54756732546866
 20
-403.73686259055694
 30
0.0
 11
-645.54756732546866
 21
-566.73686259055705
 31
0.0
  0
LINE
  5
1BF
100
AcDbEntity
  8
FAN70-0101
370
              15
390
0
  6
Continuous
 62
               7
100
AcDbLine
 10
-195.54756732546866
 20
-566.73686259055694
 30
0.0
 11
-195.54756732546866
 21
-403.73686259055683
 31
0.0
  0
ARC
  5
1C0
100
AcDbEntity
  8
FAN70-0101
370
              15
390
0
  6
Continuous
 62
               7
100
AcDbCircle
 10
-199.04756732546878
 20
-403.73686259055683
 30
0.0
 40
3.5
100
AcDbArc
 50
0.0
 51
90.0
  0
ARC
  5
1C1
100
AcDbEntity
  8
FAN70-0101
370
              15
390
0
  6
Continuous
 62
               7
100
AcDbCircle
 10
-642.04756732546866
 20
-403.73686259055694
 30
0.0
 40
3.5
100
AcDbArc
 50
90.0
 51
180.0
  0
LINE
  5
1C2
100
AcDbEntity
  8
FAN70-0101
370
              15
390
0
  6
Continuous
 62
               7
100
AcDbLine
 10
-199.04756732547742
 20
-570.23686259055694
 30
0.0
 11
-642.04756732546866
 21
-570.23686259055694
 31
0.0
  0
LINE
  5
1C3
100
AcDbEntity
  8
FAN70-0101
370
              15
390
0
  6
Continuous
 62
               7
100
AcDbLine
 10
-642.0475673254598
 20
-400.23686259055694
 30
0.0
 11
-199.04756732546878
 21
-400.23686259055694
 31
0.0
  0
CIRCLE
  5
1C4
100
AcDbEntity
  8
FAN70-0101
370
              15
390
0
  6
Continuous
 62
               7
100
AcDbCircle
 10
-420.54756732546866
 20
570.73648589726349
 30
0.0
 40
225.0
  0
CIRCLE
  5
1C5
100
AcDbEntity
  8
FAN70-0101
370
              15
390
0
  6
Continuous
 62
               7
100
AcDbCircle
 10
-420.54756732546866
 20
745.73648589726338
 30
0.0
 40
18.000000000000057
  0
CIRCLE
  5
1C6
100
AcDbEntity
  8
FAN70-0101
370
              15
390
0
  6
Continuous
 62
               7
100
AcDbCircle
 10
-420.54756732546866
 20
533.23648589726338
 30
0.0
 40
162.5
  0
POLYLINE
  5
1C7
100
AcDbEntity
  8
FAN70-0101
370
              15
390
0
  6
Continuous
 62
               7
100
AcDb2dPolyline
 66
               1
 10
0.0
 20
0.0
 30
0.0
 75
               5
  0
VERTEX
  5
1C8
100
AcDbEntity
  8
FAN70-0101
370
              15
390
0
  6
Continuous
 62
               7
100
AcDbVertex
100
AcDb2dVertex
 10
-420.54756732546866
 20
670.49967080003455
 30
0.0
  0
VERTEX
  5
1C9
100
AcDbEntity
  8
FAN70-0101
370
              15
390
0
  6
Continuous
 62
               7
100
AcDbVertex
100
AcDb2dVertex
 10
-423.32300736057147
 20
670.5850492863475
 30
0.0
  0
VERTEX
  5
1CA
100
AcDbEntity
  8
FAN70-0101
370
              15
390
0
  6
Continuous
 62
               7
100
AcDbVertex
100
AcDb2dVertex
 10
-426.05095884717639
 20
670.83972389571329
 30
0.0
  0
VERTEX
  5
1CB
100
AcDbEntity
  8
FAN70-0101
370
              15
390
0
  6
Continuous
 62
               7
100
AcDbVertex
100
AcDb2dVertex
 10
-428.68474577901645
 20
671.25933707495722
 30
0.0
  0
VERTEX
  5
1CC
100
AcDbEntity
  8
FAN70-0101
370
              15
390
0
  6
Continuous
 62
               7
100
AcDbVertex
100
AcDb2dVertex
 10
-431.17930333146427
 20
671.83670912624336
 30
0.0
  0
VERTEX
  5
1CD
100
AcDbEntity
  8
FAN70-0101
370
              15
390
0
  6
Continuous
 62
               7
100
AcDbVertex
100
AcDb2dVertex
 10
-433.49194893317531
 20
672.56196105369656
 30
0.0
  0
VERTEX
  5
1CE
100
AcDbEntity
  8
FAN70-0101
370
              15
390
0
  6
Continuous
 62
               7
100
AcDbVertex
100
AcDb2dVertex
 10
-435.58311257671795
 20
673.42268359575985
 30
0.0
  0
VERTEX
  5
1CF
100
AcDbEntity
  8
FAN70-0101
370
              15
390
0
  6
Continuous
 62
               7
100
AcDbVertex
100
AcDb2dVertex
 10
-437.417013872371
 20
674.4041495511018
 30
0.0
  0
VERTEX
  5
1D0
100
AcDbEntity
  8
FAN70-0101
370
              15
390
0
  6
Continuous
 62
               7
100
AcDbVertex
100
AcDb2dVertex
 10
-438.9622742605124
 20
675.48956576511239
 30
0.0
  0
VERTEX
  5
1D1
100
AcDbEntity
  8
FAN70-0101
370
              15
390
0
  6
Continuous
 62
               7
100
AcDbVertex
100
AcDb2dVertex
 10
-440.19245390747386
 20
676.6603604654357
 30
0.0
  0
VERTEX
  5
1D2
100
AcDbEntity
  8
FAN70-0101
370
              15
390
0
  6
Continuous
 62
               7
100
AcDbVertex
100
AcDb2dVertex
 10
-441.08650409842568
 20
677.89650103014344
 30
0.0
  0
VERTEX
  5
1D3
100
AcDbEntity
  8
FAN70-0101
370
              15
390
0
  6
Continuous
 62
               7
100
AcDbVertex
100
AcDb2dVertex
 10
-441.6291273867231
 20
679.17683675145088
 30
0.0
  0
VERTEX
  5
1D4
100
AcDbEntity
  8
FAN70-0101
370
              15
390
0
  6
Continuous
 62
               7
100
AcDbVertex
100
AcDb2dVertex
 10
-441.81103933745976
 20
680.47946073019023
 30
0.0
  0
VERTEX
  5
1D5
100
AcDbEntity
  8
FAN70-0101
370
              15
390
0
  6
Continuous
 62
               7
100
AcDbVertex
100
AcDb2dVertex
 10
-441.62912738672304
 20
681.78208470892935
 30
0.0
  0
VERTEX
  5
1D6
100
AcDbEntity
  8
FAN70-0101
370
              15
390
0
  6
Continuous
 62
               7
100
AcDbVertex
100
AcDb2dVertex
 10
-441.08650409842562
 20
683.06242043023678
 30
0.0
  0
VERTEX
  5
1D7
100
AcDbEntity
  8
FAN70-0101
370
              15
390
0
  6
Continuous
 62
               7
100
AcDbVertex
100
AcDb2dVertex
 10
-440.1924539074738
 20
684.29856099494452
 30
0.0
  0
VERTEX
  5
1D8
100
AcDbEntity
  8
FAN70-0101
370
              15
390
0
  6
Continuous
 62
               7
100
AcDbVertex
100
AcDb2dVertex
 10
-438.96227426051229
 20
685.46935569526784
 30
0.0
  0
VERTEX
  5
1D9
100
AcDbEntity
  8
FAN70-0101
370
              15
390
0
  6
Continuous
 62
               7
100
AcDbVertex
100
AcDb2dVertex
 10
-437.41701387237089
 20
686.55477190927843
 30
0.0
  0
VERTEX
  5
1DA
100
AcDbEntity
  8
FAN70-0101
370
              15
390
0
  6
Continuous
 62
               7
100
AcDbVertex
100
AcDb2dVertex
 10
-435.58311257671789
 20
687.53623786462038
 30
0.0
  0
VERTEX
  5
1DB
100
AcDbEntity
  8
FAN70-0101
370
              15
390
0
  6
Continuous
 62
               7
100
AcDbVertex
100
AcDb2dVertex
 10
-433.49194893317519
 20
688.39696040668389
 30
0.0
  0
VERTEX
  5
1DC
100
AcDbEntity
  8
FAN70-0101
370
              15
390
0
  6
Continuous
 62
               7
100
AcDbVertex
100
AcDb2dVertex
 10
-431.17930333146415
 20
689.12221233413686
 30
0.0
  0
VERTEX
  5
1DD
100
AcDbEntity
  8
FAN70-0101
370
              15
390
0
  6
Continuous
 62
               7
100
AcDbVertex
100
AcDb2dVertex
 10
-428.68474577901634
 20
689.69958438542301
 30
0.0
  0
VERTEX
  5
1DE
100
AcDbEntity
  8
FAN70-0101
370
              15
390
0
  6
Continuous
 62
               7
100
AcDbVertex
100
AcDb2dVertex
 10
-426.05095884717622
 20
690.11919756466693
 30
0.0
  0
VERTEX
  5
1DF
100
AcDbEntity
  8
FAN70-0101
370
              15
390
0
  6
Continuous
 62
               7
100
AcDbVertex
100
AcDb2dVertex
 10
-423.32300736057135
 20
690.37387217403295
 30
0.0
  0
VERTEX
  5
1E0
100
AcDbEntity
  8
FAN70-0101
370
              15
390
0
  6
Continuous
 62
               7
100
AcDbVertex
100
AcDb2dVertex
 10
-420.54756732546855
 20
690.45925066034545
 30
0.0
  0
VERTEX
  5
1E1
100
AcDbEntity
  8
FAN70-0101
370
              15
390
0
  6
Continuous
 62
               7
100
AcDbVertex
100
AcDb2dVertex
 10
-417.77212729036563
 20
690.37387217403295
 30
0.0
  0
VERTEX
  5
1E2
100
AcDbEntity
  8
FAN70-0101
370
              15
390
0
  6
Continuous
 62
               7
100
AcDbVertex
100
AcDb2dVertex
 10
-415.04417580376077
 20
690.11919756466671
 30
0.0
  0
VERTEX
  5
1E3
100
AcDbEntity
  8
FAN70-0101
370
              15
390
0
  6
Continuous
 62
               7
100
AcDbVertex
100
AcDb2dVertex
 10
-412.4103888719207
 20
689.69958438542301
 30
0.0
  0
VERTEX
  5
1E4
100
AcDbEntity
  8
FAN70-0101
370
              15
390
0
  6
Continuous
 62
               7
100
AcDbVertex
100
AcDb2dVertex
 10
-409.91583131947294
 20
689.12221233413686
 30
0.0
  0
VERTEX
  5
1E5
100
AcDbEntity
  8
FAN70-0101
370
              15
390
0
  6
Continuous
 62
               7
100
AcDbVertex
100
AcDb2dVertex
 10
-407.60318571776185
 20
688.39696040668366
 30
0.0
  0
VERTEX
  5
1E6
100
AcDbEntity
  8
FAN70-0101
370
              15
390
0
  6
Continuous
 62
               7
100
AcDbVertex
100
AcDb2dVertex
 10
-405.51202207421926
 20
687.53623786462015
 30
0.0
  0
VERTEX
  5
1E7
100
AcDbEntity
  8
FAN70-0101
370
              15
390
0
  6
Continuous
 62
               7
100
AcDbVertex
100
AcDb2dVertex
 10
-403.67812077856615
 20
686.55477190927843
 30
0.0
  0
VERTEX
  5
1E8
100
AcDbEntity
  8
FAN70-0101
370
              15
390
0
  6
Continuous
 62
               7
100
AcDbVertex
100
AcDb2dVertex
 10
-402.13286039042481
 20
685.46935569526784
 30
0.0
  0
VERTEX
  5
1E9
100
AcDbEntity
  8
FAN70-0101
370
              15
390
0
  6
Continuous
 62
               7
100
AcDbVertex
100
AcDb2dVertex
 10
-400.90268074346341
 20
684.29856099494452
 30
0.0
  0
VERTEX
  5
1EA
100
AcDbEntity
  8
FAN70-0101
370
              15
390
0
  6
Continuous
 62
               7
100
AcDbVertex
100
AcDb2dVertex
 10
-400.00863055251159
 20
683.06242043023656
 30
0.0
  0
VERTEX
  5
1EB
100
AcDbEntity
  8
FAN70-0101
370
              15
390
0
  6
Continuous
 62
               7
100
AcDbVertex
100
AcDb2dVertex
 10
-399.46600726421423
 20
681.78208470892912
 30
0.0
  0
VERTEX
  5
1EC
100
AcDbEntity
  8
FAN70-0101
370
              15
390
0
  6
Continuous
 62
               7
100
AcDbVertex
100
AcDb2dVertex
 10
-399.28409531347756
 20
680.47946073019
 30
0.0
  0
VERTEX
  5
1ED
100
AcDbEntity
  8
FAN70-0101
370
              15
390
0
  6
Continuous
 62
               7
100
AcDbVertex
100
AcDb2dVertex
 10
-399.46600726421428
 20
679.17683675145065
 30
0.0
  0
VERTEX
  5
1EE
100
AcDbEntity
  8
FAN70-0101
370
              15
390
0
  6
Continuous
 62
               7
100
AcDbVertex
100
AcDb2dVertex
 10
-400.0086305525117
 20
677.89650103014344
 30
0.0
  0
VERTEX
  5
1EF
100
AcDbEntity
  8
FAN70-0101
370
              15
390
0
  6
Continuous
 62
               7
100
AcDbVertex
100
AcDb2dVertex
 10
-400.90268074346358
 20
676.66036046543547
 30
0.0
  0
VERTEX
  5
1F0
100
AcDbEntity
  8
FAN70-0101
370
              15
390
0
  6
Continuous
 62
               7
100
AcDbVertex
100
AcDb2dVertex
 10
-402.13286039042504
 20
675.48956576511239
 30
0.0
  0
VERTEX
  5
1F1
100
AcDbEntity
  8
FAN70-0101
370
              15
390
0
  6
Continuous
 62
               7
100
AcDbVertex
100
AcDb2dVertex
 10
-403.67812077856644
 20
674.40414955110157
 30
0.0
  0
VERTEX
  5
1F2
100
AcDbEntity
  8
FAN70-0101
370
              15
390
0
  6
Continuous
 62
               7
100
AcDbVertex
100
AcDb2dVertex
 10
-405.51202207421954
 20
673.42268359575985
 30
0.0
  0
VERTEX
  5
1F3
100
AcDbEntity
  8
FAN70-0101
370
              15
390
0
  6
Continuous
 62
               7
100
AcDbVertex
100
AcDb2dVertex
 10
-407.60318571776219
 20
672.56196105369634
 30
0.0
  0
VERTEX
  5
1F4
100
AcDbEntity
  8
FAN70-0101
370
              15
390
0
  6
Continuous
 62
               7
100
AcDbVertex
100
AcDb2dVertex
 10
-409.91583131947334
 20
671.83670912624314
 30
0.0
  0
VERTEX
  5
1F5
100
AcDbEntity
  8
FAN70-0101
370
              15
390
0
  6
Continuous
 62
               7
100
AcDbVertex
100
AcDb2dVertex
 10
-412.41038887192116
 20
671.25933707495722
 30
0.0
  0
VERTEX
  5
1F6
100
AcDbEntity
  8
FAN70-0101
370
              15
390
0
  6
Continuous
 62
               7
100
AcDbVertex
100
AcDb2dVertex
 10
-415.04417580376122
 20
670.83972389571329
 30
0.0
  0
VERTEX
  5
1F7
100
AcDbEntity
  8
FAN70-0101
370
              15
390
0
  6
Continuous
 62
               7
100
AcDbVertex
100
AcDb2dVertex
 10
-417.77212729036609
 20
670.5850492863475
 30
0.0
  0
VERTEX
  5
1F8
100
AcDbEntity
  8
FAN70-0101
370
              15
390
0
  6
Continuous
 62
               7
100
AcDbVertex
100
AcDb2dVertex
 10
-420.54756732546866
 20
670.49967080003455
 30
0.0
  0
SEQEND
  5
1F9
100
AcDbEntity
  8
FAN70-0101
370
              15
390
0
  6
Continuous
 62
               7
  0
CIRCLE
  5
1FA
100
AcDbEntity
  8
FAN70-0101
370
              15
390
0
  6
Continuous
 62
               7
100
AcDbCircle
 10
-420.54756732546866
 20
533.23648589726383
 30
0.0
 40
34.684075739103662
  0
LINE
  5
1FB
100
AcDbEntity
  8
FAN70-0101
370
              15
390
0
  6
Continuous
 62
               7
100
AcDbLine
 10
-491.62756732546865
 20
815.73648589726338
 30
0.0
 11
-495.54756732546815
 21
815.73648589726338
 31
0.0
  0
LINE
  5
1FC
100
AcDbEntity
  8
FAN70-0101
370
              15
390
0
  6
Continuous
 62
               7
100
AcDbLine
 10
-495.54756732546815
 20
815.73648589726338
 30
0.0
 11
-495.54756732546809
 21
782.86852025322798
 31
0.0
  0
LINE
  5
1FD
100
AcDbEntity
  8
FAN70-0101
370
              15
390
0
  6
Continuous
 62
               7
100
AcDbLine
 10
-349.46756732546862
 20
815.73648589726338
 30
0.0
 11
-491.62756732546865
 21
815.73648589726338
 31
0.0
  0
LINE
  5
1FE
100
AcDbEntity
  8
FAN70-0101
370
              15
390
0
  6
Continuous
 62
               7
100
AcDbLine
 10
-345.54756732546912
 20
815.73648589726338
 30
0.0
 11
-349.46756732546862
 21
815.73648589726338
 31
0.0
  0
LINE
  5
1FF
100
AcDbEntity
  8
FAN70-0101
370
              15
390
0
  6
Continuous
 62
               7
100
AcDbLine
 10
-345.54756732546912
 20
815.73648589726338
 30
0.0
 11
-345.54756732546912
 21
782.86852025322798
 31
0.0
  0
CIRCLE
  5
200
100
AcDbEntity
  8
FAN70-0101
370
              15
390
0
  6
Continuous
 62
               7
100
AcDbCircle
 10
-420.54756732546866
 20
533.23648589726383
 30
0.0
 40
21.0
  0
LINE
  5
201
100
AcDbEntity
  8
FAN70-0101
370
              15
390
0
  6
Continuous
 62
               7
100
AcDbLine
 10
426.3843456463382
 20
-400.23686259055694
 30
0.0
 11
352.61222093270982
 21
-400.23686259055694
 31
0.0
  0
ARC
  5
202
100
AcDbEntity
  8
FAN70-0101
370
              15
390
0
  6
Continuous
 62
               7
100
AcDbCircle
 10
725.95544043170753
 20
-403.73686259055694
 30
0.0
 40
3.5
100
AcDbArc
 50
0.0
 51
90.0
  0
ARC
  5
203
100
AcDbEntity
  8
FAN70-0101
370
              15
390
0
  6
Continuous
 62
               7
100
AcDbCircle
 10
282.95544043170736
 20
-403.73686259055694
 30
0.0
 40
3.5
100
AcDbArc
 50
90.0
 51
180.0
  0
LINE
  5
204
100
AcDbEntity
  8
FAN70-0101
370
              15
390
0
  6
Continuous
 62
               7
100
AcDbLine
 10
279.45544043170747
 20
-562.23686259055694
 30
0.0
 11
279.45544043170759
 21
-566.73686259055694
 31
0.0
  0
LINE
  5
205
100
AcDbEntity
  8
FAN70-0101
370
              15
390
0
  6
Continuous
 62
               7
100
AcDbLine
 10
279.45544043170759
 20
-403.73686259055694
 30
0.0
 11
279.45544043170759
 21
-408.23686259055694
 31
0.0
  0
LINE
  5
206
100
AcDbEntity
  8
FAN70-0101
370
              15
390
0
  6
Continuous
 62
               7
100
AcDbLine
 10
729.45544043170753
 20
-566.73686259055694
 30
0.0
 11
729.45544043170753
 21
-403.73686259055694
 31
0.0
  0
ARC
  5
207
100
AcDbEntity
  8
FAN70-0101
370
              15
390
0
  6
Continuous
 62
               7
100
AcDbCircle
 10
282.95544043170736
 20
-566.73686259055694
 30
0.0
 40
3.5
100
AcDbArc
 50
180.0
 51
270.0
  0
ARC
  5
208
100
AcDbEntity
  8
FAN70-0101
370
              15
390
0
  6
Continuous
 62
               7
100
AcDbCircle
 10
725.95544043170753
 20
-566.73686259055694
 30
0.0
 40
3.5
100
AcDbArc
 50
270.0
 51
0.0
  0
LINE
  5
209
100
AcDbEntity
  8
FAN70-0101
370
              15
390
0
  6
Continuous
 62
               7
100
AcDbLine
 10
282.95544043170736
 20
-400.23686259055694
 30
0.0
 11
725.95544043170753
 21
-400.23686259055694
 31
0.0
  0
LINE
  5
20A
100
AcDbEntity
  8
FAN70-0101
370
              15
390
0
  6
Continuous
 62
               7
100
AcDbLine
 10
290.95134211038732
 20
-562.23686259055694
 30
0.0
 11
279.45544043170747
 21
-562.23686259055694
 31
0.0
  0
POLYLINE
  5
20B
100
AcDbEntity
  8
FAN70-0101
370
              15
390
0
  6
Continuous
 62
               7
100
AcDb2dPolyline
 66
               1
 10
0.0
 20
0.0
 30
0.0
 75
               5
  0
VERTEX
  5
20C
100
AcDbEntity
  8
FAN70-0101
370
              15
390
0
  6
Continuous
 62
               7
100
AcDbVertex
100
AcDb2dVertex
 10
293.04115520008014
 20
-556.23686259055694
 30
0.0
  0
VERTEX
  5
20D
100
AcDbEntity
  8
FAN70-0101
370
              15
390
0
  6
Continuous
 62
               7
100
AcDbVertex
100
AcDb2dVertex
 10
292.92910648955586
 20
-558.13556103022017
 30
0.0
  0
VERTEX
  5
20E
100
AcDbEntity
  8
FAN70-0101
370
              15
390
0
  6
Continuous
 62
               7
100
AcDbVertex
100
AcDb2dVertex
 10
292.61272618653317
 20
-559.81899009527831
 30
0.0
  0
VERTEX
  5
20F
100
AcDbEntity
  8
FAN70-0101
370
              15
390
0
  6
Continuous
 62
               7
100
AcDbVertex
100
AcDb2dVertex
 10
292.1257839590383
 20
-561.15371975566893
 30
0.0
  0
VERTEX
  5
210
100
AcDbEntity
  8
FAN70-0101
370
              15
390
0
  6
Continuous
 62
               7
100
AcDbVertex
100
AcDb2dVertex
 10
291.50275130297251
 20
-562.00919450853269
 30
0.0
  0
VERTEX
  5
211
100
AcDbEntity
  8
FAN70-0101
370
              15
390
0
  6
Continuous
 62
               7
100
AcDbVertex
100
AcDb2dVertex
 10
290.95134211038743
 20
-562.23686259055694
 30
0.0
  0
SEQEND
  5
212
100
AcDbEntity
  8
FAN70-0101
370
              15
390
0
  6
Continuous
 62
               7
  0
LINE
  5
213
100
AcDbEntity
  8
FAN70-0101
370
              15
390
0
  6
Continuous
 62
               7
100
AcDbLine
 10
293.04115520008014
 20
-414.23686259055694
 30
0.0
 11
293.04115520008014
 21
-556.23686259055694
 31
0.0
  0
POLYLINE
  5
214
100
AcDbEntity
  8
FAN70-0101
370
              15
390
0
  6
Continuous
 62
               7
100
AcDb2dPolyline
 66
               1
 10
0.0
 20
0.0
 30
0.0
 75
               5
  0
VERTEX
  5
215
100
AcDbEntity
  8
FAN70-0101
370
              15
390
0
  6
Continuous
 62
               7
100
AcDbVertex
100
AcDb2dVertex
 10
290.95134211038732
 20
-408.23686259055694
 30
0.0
  0
VERTEX
  5
216
100
AcDbEntity
  8
FAN70-0101
370
              15
390
0
  6
Continuous
 62
               7
100
AcDbVertex
100
AcDb2dVertex
 10
291.6534596746032
 20
-408.60799875812859
 30
0.0
  0
VERTEX
  5
217
100
AcDbEntity
  8
FAN70-0101
370
              15
390
0
  6
Continuous
 62
               7
100
AcDbVertex
100
AcDb2dVertex
 10
292.29315624669772
 20
-409.68960128326501
 30
0.0
  0
VERTEX
  5
218
100
AcDbEntity
  8
FAN70-0101
370
              15
390
0
  6
Continuous
 62
               7
100
AcDbVertex
100
AcDb2dVertex
 10
292.77018225077114
 20
-411.33555246589788
 30
0.0
  0
VERTEX
  5
219
100
AcDbEntity
  8
FAN70-0101
370
              15
390
0
  6
Continuous
 62
               7
100
AcDbVertex
100
AcDb2dVertex
 10
293.01213514957357
 20
-413.2620045828661
 30
0.0
  0
VERTEX
  5
21A
100
AcDbEntity
  8
FAN70-0101
370
              15
390
0
  6
Continuous
 62
               7
100
AcDbVertex
100
AcDb2dVertex
 10
293.04115520008014
 20
-414.23686259055694
 30
0.0
  0
SEQEND
  5
21B
100
AcDbEntity
  8
FAN70-0101
370
              15
390
0
  6
Continuous
 62
               7
  0
LINE
  5
21C
100
AcDbEntity
  8
FAN70-0101
370
              15
390
0
  6
Continuous
 62
               7
100
AcDbLine
 10
279.45544043170759
 20
-408.23686259055694
 30
0.0
 11
290.95134211038732
 21
-408.23686259055694
 31
0.0
  0
LINE
  5
21D
100
AcDbEntity
  8
FAN70-0101
370
              15
390
0
  6
Continuous
 62
               7
100
AcDbLine
 10
504.45544043170815
 20
-570.23686259055694
 30
0.0
 11
282.95544043170736
 21
-570.23686259055694
 31
0.0
  0
LINE
  5
21E
100
AcDbEntity
  8
FAN70-0101
370
              15
390
0
  6
Continuous
 62
               7
100
AcDbLine
 10
725.95544043170753
 20
-570.23686259055694
 30
0.0
 11
504.45544043170815
 21
-570.23686259055694
 31
0.0
  0
LINE
  5
21F
100
AcDbEntity
  8
FAN70-0101
370
              15
390
0
  6
Continuous
 62
               7
100
AcDbLine
 10
259.45544043170781
 20
-414.1568625905569
 30
0.0
 11
259.45544043170781
 21
-556.31686259055687
 31
0.0
  0
LINE
  5
220
100
AcDbEntity
  8
FAN70-0101
370
              15
390
0
  6
Continuous
 62
               7
100
AcDbLine
 10
259.45544043170781
 20
-556.31686259055687
 30
0.0
 11
259.45544043170781
 21
-560.23686259055694
 31
0.0
  0
LINE
  5
221
100
AcDbEntity
  8
FAN70-0101
370
              15
390
0
  6
Continuous
 62
               7
100
AcDbLine
 10
259.45544043170781
 20
-560.23686259055694
 30
0.0
 11
292.46027601651139
 21
-560.23686259055694
 31
0.0
  0
LINE
  5
222
100
AcDbEntity
  8
FAN70-0101
370
              15
390
0
  6
Continuous
 62
               7
100
AcDbLine
 10
259.45544043170781
 20
-410.23686259055694
 30
0.0
 11
259.45544043170781
 21
-414.1568625905569
 31
0.0
  0
LINE
  5
223
100
AcDbEntity
  8
FAN70-0101
370
              15
390
0
  6
Continuous
 62
               7
100
AcDbLine
 10
292.45176233256217
 20
-410.23686259055694
 30
0.0
 11
259.45544043170781
 21
-410.23686259055694
 31
0.0
  0
LINE
  5
224
100
AcDbEntity
  8
FAN70-0101
370
              15
390
0
  6
Continuous
 62
               7
100
AcDbLine
 10
282.95556794369298
 20
-410.23686259055694
 30
0.0
 11
292.31124932679762
 21
-410.23686259055694
 31
0.0
  0
ARC
  5
225
100
AcDbEntity
  8
FAN70-0101
370
              15
390
0
  6
STYLE_12
 62
               7
100
AcDbCircle
 10
-250.45702837355267
 20
-403.236862590557
 30
0.0
 40
3.0000000000000568
100
AcDbArc
 50
90.0
 51
163.84171677398791
  0
ARC
  5
226
100
AcDbEntity
  8
FAN70-0101
370
              15
390
0
  6
STYLE_12
 62
               7
100
AcDbCircle
 10
-590.72174909273144
 20
-403.23686259055694
 30
0.0
 40
2.999999999999861
100
AcDbArc
 50
16.15828322601104
 51
89.999999999999986
  0
LINE
  5
227
100
AcDbEntity
  8
FAN70-0101
370
              15
390
0
  6
STYLE_12
 62
               7
100
AcDbLine
 10
-441.58938873314213
 20
-524.23686259055694
 30
0.0
 11
-399.58938873314213
 21
-524.23686259055694
 31
0.0
  0
LINE
  5
228
100
AcDbEntity
  8
FAN70-0101
370
              15
390
0
  6
STYLE_12
 62
               7
100
AcDbLine
 10
-441.58938873314213
 20
-530.10401108245503
 30
0.0
 11
-441.58938873314213
 21
-570.23686259055694
 31
0.0
  0
ARC
  5
229
100
AcDbEntity
  8
FAN70-0101
370
              15
390
0
  6
STYLE_12
 62
               7
100
AcDbCircle
 10
-423.66147670572161
 20
-358.29612222431928
 30
0.0
 40
170.0
100
AcDbArc
 50
195.03720793625064
 51
257.45402071097101
  0
ARC
  5
22A
100
AcDbEntity
  8
FAN70-0101
370
              15
390
0
  6
STYLE_12
 62
               7
100
AcDbCircle
 10
-417.51730076056276
 20
-358.29612222431933
 30
0.0
 40
170.0
100
AcDbArc
 50
282.54597928902905
 51
344.96279206374948
  0
LINE
  5
22B
100
AcDbEntity
  8
FAN70-0101
370
              15
390
0
  6
STYLE_12
 62
               7
100
AcDbLine
 10
-460.58938873314213
 20
-524.23686259055694
 30
0.0
 11
-380.58938873314213
 21
-524.23686259055694
 31
0.0
  0
LINE
  5
22C
100
AcDbEntity
  8
FAN70-0101
370
              15
390
0
  6
STYLE_12
 62
               7
100
AcDbLine
 10
-460.58938873314213
 20
-524.23686259055694
 30
0.0
 11
-441.58938873314213
 21
-530.10401108245503
 31
0.0
  0
LINE
  5
22D
100
AcDbEntity
  8
FAN70-0101
370
              15
390
0
  6
STYLE_12
 62
               7
100
AcDbLine
 10
-399.58938873314213
 20
-530.10401108245503
 30
0.0
 11
-399.58938873314213
 21
-570.23686259055694
 31
0.0
  0
LINE
  5
22E
100
AcDbEntity
  8
FAN70-0101
370
              15
390
0
  6
STYLE_12
 62
               7
100
AcDbLine
 10
-380.58938873314213
 20
-524.23686259055694
 30
0.0
 11
-399.58938873314213
 21
-530.10401108245503
 31
0.0
  0
LINE
  5
22F
100
AcDbEntity
  8
FAN70-0101
370
              15
390
0
  6
STYLE_12
 62
               7
100
AcDbLine
 10
-441.58938873314213
 20
-530.10401108245503
 30
0.0
 11
-399.58938873314213
 21
-530.10401108245503
 31
0.0
  0
ARC
  5
230
100
AcDbEntity
  8
FAN70-0101
370
              15
390
0
  6
STYLE_12
 62
               7
100
AcDbCircle
 10
712.04597938362303
 20
-403.23686259055694
 30
0.0
 40
3.0
100
AcDbArc
 50
90.0
 51
163.84171677398854
  0
ARC
  5
231
100
AcDbEntity
  8
FAN70-0101
370
              15
390
0
  6
STYLE_12
 62
               7
100
AcDbCircle
 10
371.78125866444424
 20
-403.23686259055694
 30
0.0
 40
2.9999999999999543
100
AcDbArc
 50
16.158283226009399
 51
90.0
  0
LINE
  5
232
100
AcDbEntity
  8
FAN70-0101
370
              15
390
0
  6
STYLE_12
 62
               7
100
AcDbLine
 10
520.91361902403378
 20
-524.23686259055694
 30
0.0
 11
562.91361902403378
 21
-524.23686259055694
 31
0.0
  0
ARC
  5
233
100
AcDbEntity
  8
FAN70-0101
370
              15
390
0
  6
STYLE_12
 62
               7
100
AcDbCircle
 10
538.84153105145424
 20
-358.29612222431928
 30
0.0
 40
169.99999999999997
100
AcDbArc
 50
195.03720793625067
 51
257.45402071097101
  0
ARC
  5
234
100
AcDbEntity
  8
FAN70-0101
370
              15
390
0
  6
STYLE_12
 62
               7
100
AcDbCircle
 10
544.98570699661309
 20
-358.29612222431933
 30
0.0
 40
170.0
100
AcDbArc
 50
282.54597928902905
 51
344.96279206374948
  0
LINE
  5
235
100
AcDbEntity
  8
FAN70-0101
370
              15
390
0
  6
STYLE_12
 62
               7
100
AcDbLine
 10
501.91361902403372
 20
-524.23686259055694
 30
0.0
 11
581.91361902403378
 21
-524.23686259055694
 31
0.0
  0
LINE
  5
236
100
AcDbEntity
  8
FAN70-0101
370
              15
390
0
  6
STYLE_12
 62
               7
100
AcDbLine
 10
501.91361902403372
 20
-524.23686259055694
 30
0.0
 11
520.91361902403378
 21
-530.10401108245503
 31
0.0
  0
LINE
  5
237
100
AcDbEntity
  8
FAN70-0101
370
              15
390
0
  6
STYLE_12
 62
               7
100
AcDbLine
 10
581.91361902403378
 20
-524.23686259055694
 30
0.0
 11
562.91361902403378
 21
-530.10401108245503
 31
0.0
  0
LINE
  5
238
100
AcDbEntity
  8
FAN70-0101
370
              15
390
0
  6
STYLE_12
 62
               7
100
AcDbLine
 10
520.91361902403378
 20
-530.10401108245503
 30
0.0
 11
562.91361902403378
 21
-530.10401108245503
 31
0.0
  0
CIRCLE
  5
239
100
AcDbEntity
  8
FAN70-0101
370
              15
390
0
  6
STYLE_12
 62
               7
100
AcDbCircle
 10
-463.0
 20
-442.73686259055694
 30
0.0
 40
10.0
  0
CIRCLE
  5
23A
100
AcDbEntity
  8
FAN70-0101
370
              15
390
0
  6
STYLE_12
 62
               7
100
AcDbCircle
 10
-463.0
 20
-512.73686259055694
 30
0.0
 40
10.0
  0
LINE
  5
23B
100
AcDbEntity
  8
FAN70-0101
370
              15
390
0
  6
STYLE_12
 62
               7
100
AcDbLine
 10
-495.5
 20
-560.23686259055694
 30
0.0
 11
-345.5
 21
-560.23686259055694
 31
0.0
  0
CIRCLE
  5
23C
100
AcDbEntity
  8
FAN70-0101
370
              15
390
0
  6
STYLE_12
 62
               7
100
AcDbCircle
 10
-378.0
 20
-442.73686259055694
 30
0.0
 40
10.0
  0
CIRCLE
  5
23D
100
AcDbEntity
  8
FAN70-0101
370
              15
390
0
  6
STYLE_12
 62
               7
100
AcDbCircle
 10
-378.0
 20
-512.73686259055694
 30
0.0
 40
10.0
  0
LINE
  5
23E
100
AcDbEntity
  8
FAN70-0101
370
              15
390
0
  6
STYLE_12
 62
               7
100
AcDbLine
 10
-463.0
 20
-422.73686259055694
 30
0.0
 11
-463.0
 21
-462.73686259055694
 31
0.0
  0
LINE
  5
23F
100
AcDbEntity
  8
FAN70-0101
370
              15
390
0
  6
STYLE_12
 62
               7
100
AcDbLine
 10
-483.0
 20
-442.73686259055694
 30
0.0
 11
-443.0
 21
-442.73686259055694
 31
0.0
  0
LINE
  5
240
100
AcDbEntity
  8
FAN70-0101
370
              15
390
0
  6
STYLE_12
 62
               7
100
AcDbLine
 10
-378.0
 20
-422.73686259055694
 30
0.0
 11
-378.0
 21
-462.73686259055694
 31
0.0
  0
LINE
  5
241
100
AcDbEntity
  8
FAN70-0101
370
              15
390
0
  6
STYLE_12
 62
               7
100
AcDbLine
 10
-398.0
 20
-442.73686259055694
 30
0.0
 11
-358.0
 21
-442.73686259055694
 31
0.0
  0
LINE
  5
242
100
AcDbEntity
  8
FAN70-0101
370
              15
390
0
  6
STYLE_12
 62
               7
100
AcDbLine
 10
-463.0
 20
-492.73686259055694
 30
0.0
 11
-463.0
 21
-532.73686259055694
 31
0.0
  0
LINE
  5
243
100
AcDbEntity
  8
FAN70-0101
370
              15
390
0
  6
STYLE_12
 62
               7
100
AcDbLine
 10
-483.0
 20
-512.73686259055694
 30
0.0
 11
-443.0
 21
-512.73686259055694
 31
0.0
  0
LINE
  5
244
100
AcDbEntity
  8
FAN70-0101
370
              15
390
0
  6
STYLE_12
 62
               7
100
AcDbLine
 10
-378.0
 20
-492.73686259055694
 30
0.0
 11
-378.0
 21
-532.73686259055694
 31
0.0
  0
LINE
  5
245
100
AcDbEntity
  8
FAN70-0101
370
              15
390
0
  6
STYLE_12
 62
               7
100
AcDbLine
 10
-398.0
 20
-512.73686259055694
 30
0.0
 11
-358.0
 21
-512.73686259055694
 31
0.0
  0
LINE
  5
246
100
AcDbEntity
  8
FAN70-0101
370
              15
390
0
  6
STYLE_12
 62
               7
100
AcDbLine
 10
-495.5
 20
-410.23686259055694
 30
0.0
 11
-495.5
 21
-560.23686259055694
 31
0.0
  0
LINE
  5
247
100
AcDbEntity
  8
FAN70-0101
370
              15
390
0
  6
STYLE_12
 62
               7
100
AcDbLine
 10
-345.5
 20
-410.23686259055694
 30
0.0
 11
-345.5
 21
-560.23686259055694
 31
0.0
  0
LINE
  5
248
100
AcDbEntity
  8
FAN70-0101
370
              15
390
0
  6
STYLE_12
 62
               7
100
AcDbLine
 10
-345.5
 20
-410.23686259055694
 30
0.0
 11
-495.5
 21
-410.23686259055694
 31
0.0
  0
LINE
  5
249
100
AcDbEntity
  8
FAN70-0101
370
               5
390
0
  6
STYLE_12
 62
               7
100
AcDbLine
 10
506.90000000000003
 20
-538.0
 30
0.0
 11
576.90000000000009
 21
-538.0
 31
0.0
  0
ENDSEC
  0
SECTION
  2
OBJECTS
  0
DICTIONARY
  5
19
100
AcDbDictionary
280
               0
281
               1
  3
ACAD_GROUP
350
1A
  3
ACAD_MLINESTYLE
350
1B
  3
ACAD_LAYOUT
350
1E
  3
ACAD_PLOTSETTINGS
350
22
  3
ACAD_PLOTSTYLENAME
350
1F
  0
DICTIONARY
  5
1A
102
{ACAD_REACTORS
330
19
102
}
100
AcDbDictionary
280
               0
281
               1
  0
DICTIONARY
  5
1B
102
{ACAD_REACTORS
330
19
102
}
100
AcDbDictionary
280
               0
281
               1
  3
Standard
350
1C
  0
MLINESTYLE
  5
1C
102
{ACAD_REACTORS
330
1B
102
}
100
AcDbMlineStyle
  2
Standard
 70
               0
  3

 62
               0
 51
90.0
 52
90.0
 71
               2
 49
0.5
 62
             256
  6
ByLayer
 49
-0.5
 62
             256
  6
ByLayer
  0
ACDBDICTIONARYWDFLT
  5
1F
102
{ACAD_REACTORS
330
19
102
}
100
AcDbDictionary
281
               1
  3
Normal
350
1D
100
AcDbDictionaryWithDefault
340
1D
  0
ACDBPLACEHOLDER
  5
1D
102
{ACAD_REACTORS
330
1F
102
}
  0
LAYOUT
  5
20
102
{ACAD_REACTORS
330
1E
102
}
100
AcDbPlotSettings
  1

  2

  4

  6

 40
0.0
 41
0.0
 42
0.0
 43
0.0
 44
0.0
 45
0.0
 46
0.0
 47
0.0
 48
0.0
 49
0.0
140
0.0
141
0.0
142
1.0
143
1.0
 70
            1024
 72
               0
 73
               0
 74
               0
  7

 75
               0
147
1.0
148
0.0
149
0.0
100
AcDbLayout
  1
Model
 70
               0
 71
               0
 10
0.0
 20
0.0
 11
0.0
 21
0.0
 12
0.0
 22
0.0
 32
0.0
 14
0.0
 24
0.0
 34
0.0
 15
0.0
 25
0.0
 35
0.0
146
0.0
 13
0.0
 23
0.0
 33
0.0
 16
0.0
 26
0.0
 36
0.0
 17
0.0
 27
0.0
 37
0.0
 76
               0
330
A
331
0
345
0
346
0
  0
LAYOUT
  5
21
102
{ACAD_REACTORS
330
1E
102
}
100
AcDbPlotSettings
  1

  2

  4

  6

 40
0.0
 41
0.0
 42
0.0
 43
0.0
 44
0.0
 45
0.0
 46
0.0
 47
0.0
 48
0.0
 49
0.0
140
0.0
141
0.0
142
1.0
143
1.0
 70
               0
 72
               0
 73
               0
 74
               0
  7

 75
               0
147
1.0
148
0.0
149
0.0
100
AcDbLayout
  1
Layout1
 70
               0
 71
               0
 10
0.0
 20
0.0
 11
0.0
 21
0.0
 12
0.0
 22
0.0
 32
0.0
 14
0.0
 24
0.0
 34
0.0
 15
0.0
 25
0.0
 35
0.0
146
0.0
 13
0.0
 23
0.0
 33
0.0
 16
0.0
 26
0.0
 36
0.0
 17
0.0
 27
0.0
 37
0.0
 76
               0
330
B
331
0
345
0
346
0
  0
DICTIONARY
  5
1E
102
{ACAD_REACTORS
330
19
102
}
100
AcDbDictionary
280
               0
281
               1
  3
Layout1
350
21
  3
Model
350
20
  0
DICTIONARY
  5
22
102
{ACAD_REACTORS
330
19
102
}
100
AcDbDictionary
280
               0
281
               1
  0
ENDSEC
  0
EOF
