  0
SECTION
  2
HEADER
  9
$ACADVER
  1
AC1015
  9
$ACADMAINTVER
 70
               6
  9
$DWGCODEPAGE
  3
ANSI_932
  9
$INSBASE
 10
0.0
 20
0.0
 30
0.0
  9
$EXTMIN
 10
-975.00000000024124
 20
-1431.5255224711129
 30
-14.834305555555554
  9
$EXTMAX
 10
975.00000000024124
 20
1405.9972926412995
 30
14.834305555555554
  9
$LIMMIN
 10
0.0
 20
0.0
  9
$LIMMAX
 10
0.0
 20
0.0
  9
$ORTHOMODE
 70
               0
  9
$REGENMODE
 70
               1
  9
$FILLMODE
 70
               1
  9
$QTEXTMODE
 70
               0
  9
$MIRRTEXT
 70
               1
  9
$LTSCALE
 40
50.799999999999997
  9
$ATTMODE
 70
               1
  9
$TEXTSIZE
 40
0.2
  9
$TRACEWID
 40
1.0
  9
$TEXTSTYLE
  7
Standard
  9
$CLAYER
  8
template
  9
$CELTYPE
  6
Continuous
  9
$CECOLOR
 62
             256
  9
$CELTSCALE
 40
1.0
  9
$DISPSILH
 70
               0
  9
$DIMSCALE
 40
1.0
  9
$DIMASZ
 40
31.75
  9
$DIMEXO
 40
0.0
  9
$DIMDLI
 40
6.9999999999999396
  9
$DIMRND
 40
0.0
  9
$DIMDLE
 40
0.0
  9
$DIMEXE
 40
19.999999999996199
  9
$DIMTP
 40
0.0
  9
$DIMTM
 40
0.0
  9
$DIMTXT
 40
24.432617187500004
  9
$DIMCEN
 40
0.0
  9
$DIMTSZ
 40
0.0
  9
$DIMTOL
 70
               0
  9
$DIMLIM
 70
               0
  9
$DIMTIH
 70
               0
  9
$DIMTOH
 70
               0
  9
$DIMSE1
 70
               0
  9
$DIMSE2
 70
               0
  9
$DIMTAD
 70
               1
  9
$DIMZIN
 70
              11
  9
$DIMBLK
  1
VW_FILLEDARROW
  9
$DIMASO
 70
               1
  9
$DIMSHO
 70
               1
  9
$DIMPOST
  1
<>
  9
$DIMAPOST
  1
[]
  9
$DIMALT
 70
               0
  9
$DIMALTD
 70
               1
  9
$DIMALTF
 40
1.0
  9
$DIMLFAC
 40
1.0
  9
$DIMTOFL
 70
               0
  9
$DIMTVP
 40
0.0
  9
$DIMTIX
 70
               1
  9
$DIMSOXD
 70
               0
  9
$DIMSAH
 70
               0
  9
$DIMBLK1
  1

  9
$DIMBLK2
  1

  9
$DIMSTYLE
  2
JIS
  9
$DIMCLRD
 70
               0
  9
$DIMCLRE
 70
               0
  9
$DIMCLRT
 70
               0
  9
$DIMTFAC
 40
1.0
  9
$DIMGAP
 40
1.00000000000108
  9
$DIMJUST
 70
               0
  9
$DIMSD1
 70
               0
  9
$DIMSD2
 70
               0
  9
$DIMTOLJ
 70
               1
  9
$DIMTZIN
 70
              11
  9
$DIMALTZ
 70
              11
  9
$DIMALTTZ
 70
              11
  9
$DIMUPT
 70
               0
  9
$DIMDEC
 70
               1
  9
$DIMTDEC
 70
               1
  9
$DIMALTU
 70
               2
  9
$DIMALTTD
 70
               2
  9
$DIMTXSTY
  7
ＭＳ ゴシック
  9
$DIMAUNIT
 70
               0
  9
$DIMADEC
 70
               2
  9
$DIMALTRND
 40
0.0
  9
$DIMAZIN
 70
               0
  9
$DIMDSEP
 70
              46
  9
$DIMATFIT
 70
               0
  9
$DIMFRAC
 70
               2
  9
$DIMLDRBLK
  1

  9
$DIMLUNIT
 70
               2
  9
$DIMLWD
 70
              -2
  9
$DIMLWE
 70
              -2
  9
$DIMTMOVE
 70
               0
  9
$LUNITS
 70
               2
  9
$LUPREC
 70
               4
  9
$SKETCHINC
 40
0.1
  9
$FILLETRAD
 40
0.0
  9
$AUNITS
 70
               0
  9
$AUPREC
 70
               0
  9
$MENU
  1
acad
  9
$ELEVATION
 40
0.0
  9
$PELEVATION
 40
0.0
  9
$THICKNESS
 40
0.0
  9
$LIMCHECK
 70
               0
  9
$CHAMFERA
 40
0.0
  9
$CHAMFERB
 40
0.0
  9
$CHAMFERC
 40
0.0
  9
$CHAMFERD
 40
0.0
  9
$SKPOLY
 70
               0
  9
$TDCREATE
 40
2456049.406875000
  9
$TDUCREATE
 40
0.000000000
  9
$TDUPDATE
 40
2456049.406875000
  9
$TDUUPDATE
 40
0.000000000
  9
$TDINDWG
 40
0.0000000000
  9
$TDUSRTIMER
 40
0.0000000000
  9
$USRTIMER
 70
               1
  9
$ANGBASE
 50
0.0
  9
$ANGDIR
 70
               0
  9
$PDMODE
 70
               1
  9
$PDSIZE
 40
-2.0
  9
$PLINEWID
 40
0.0
  9
$SPLFRAME
 70
               0
  9
$SPLINETYPE
 70
               6
  9
$SPLINESEGS
 70
               8
  9
$HANDSEED
  5
1E8
  9
$SURFTAB1
 70
               6
  9
$SURFTAB2
 70
               6
  9
$SURFTYPE
 70
               6
  9
$SURFU
 70
               6
  9
$SURFV
 70
               6
  9
$UCSBASE
  2

  9
$UCSNAME
  2

  9
$UCSORG
 10
0.0
 20
0.0
 30
0.0
  9
$UCSXDIR
 10
1.0
 20
0.0
 30
0.0
  9
$UCSYDIR
 10
0.0
 20
1.0
 30
0.0
  9
$UCSORTHOREF
  2

  9
$UCSORTHOVIEW
 70
               0
  9
$UCSORGTOP
 10
0.0
 20
0.0
 30
0.0
  9
$UCSORGBOTTOM
 10
0.0
 20
0.0
 30
0.0
  9
$UCSORGLEFT
 10
0.0
 20
0.0
 30
0.0
  9
$UCSORGRIGHT
 10
0.0
 20
0.0
 30
0.0
  9
$UCSORGFRONT
 10
0.0
 20
0.0
 30
0.0
  9
$UCSORGBACK
 10
0.0
 20
0.0
 30
0.0
  9
$PUCSBASE
  2

  9
$PUCSNAME
  2

  9
$PUCSORG
 10
0.0
 20
0.0
 30
0.0
  9
$PUCSXDIR
 10
1.0
 20
0.0
 30
0.0
  9
$PUCSYDIR
 10
0.0
 20
1.0
 30
0.0
  9
$PUCSORTHOREF
  2

  9
$PUCSORTHOVIEW
 70
               0
  9
$PUCSORGTOP
 10
0.0
 20
0.0
 30
0.0
  9
$PUCSORGBOTTOM
 10
0.0
 20
0.0
 30
0.0
  9
$PUCSORGLEFT
 10
0.0
 20
0.0
 30
0.0
  9
$PUCSORGRIGHT
 10
0.0
 20
0.0
 30
0.0
  9
$PUCSORGFRONT
 10
0.0
 20
0.0
 30
0.0
  9
$PUCSORGBACK
 10
0.0
 20
0.0
 30
0.0
  9
$USERI1
 70
               0
  9
$USERI2
 70
               0
  9
$USERI3
 70
               0
  9
$USERI4
 70
               0
  9
$USERI5
 70
               0
  9
$USERR1
 40
0.0
  9
$USERR2
 40
0.0
  9
$USERR3
 40
0.0
  9
$USERR4
 40
0.0
  9
$USERR5
 40
0.0
  9
$WORLDVIEW
 70
               1
  9
$SHADEDGE
 70
               3
  9
$SHADEDIF
 70
              70
  9
$TILEMODE
 70
               1
  9
$MAXACTVP
 70
              64
  9
$PINSBASE
 10
0.0
 20
0.0
 30
0.0
  9
$PLIMCHECK
 70
               0
  9
$PEXTMIN
 10
1.0000000000000000E+20
 20
1.0000000000000000E+20
 30
1.0000000000000000E+20
  9
$PEXTMAX
 10
-1.0000000000000000E+20
 20
-1.0000000000000000E+20
 30
-1.0000000000000000E+20
  9
$PLIMMIN
 10
0.0
 20
0.0
  9
$PLIMMAX
 10
12.0
 20
9.0
  9
$UNITMODE
 70
               0
  9
$VISRETAIN
 70
               0
  9
$PLINEGEN
 70
               1
  9
$PSLTSCALE
 70
               0
  9
$TREEDEPTH
 70
            3020
  9
$CMLSTYLE
  2
Standard
  9
$CMLJUST
 70
               0
  9
$CMLSCALE
 40
1.0
  9
$PROXYGRAPHICS
 70
               0
  9
$MEASUREMENT
 70
               1
  9
$CELWEIGHT
370
               0
  9
$ENDCAPS
280
               0
  9
$JOINSTYLE
280
               0
  9
$LWDISPLAY
290
               1
  9
$INSUNITS
 70
               4
  9
$HYPERLINKBASE
  1

  9
$STYLESHEET
  1

  9
$XEDIT
290
               1
  9
$CEPSNTYPE
380
               0
  9
$PSTYLEMODE
290
               1
  9
$FINGERPRINTGUID
  2

  9
$VERSIONGUID
  2

  9
$EXTNAMES
290
               1
  9
$PSVPSCALE
 40
0.0
  0
ENDSEC
  0
SECTION
  2
CLASSES
  0
CLASS
  1
LWPOLYLINE
  2
AcDbPolyline
  3
AutoCAD 2000
 90
        0
280
               0
281
               1
  0
CLASS
  1
IMAGE
  2
AcDbRasterImage
  3
ISM
 90
      127
280
               0
281
               1
  0
CLASS
  1
OLE2FRAME
  2
AcDbOle2Frame
  3
AutoCAD 2000
 90
        0
280
               0
281
               1
  0
CLASS
  1
HATCH
  2
AcDbHatch
  3
AutoCAD 2000
 90
        0
280
               0
281
               1
  0
CLASS
  1
DICTIONARYVAR
  2
AcDbDictionaryVar
  3
AutoCAD 2000
 90
        0
280
               0
281
               0
  0
CLASS
  1
RASTERVARIABLES
  2
AcDbRasterVariables
  3
ISM
 90
        0
280
               0
281
               0
  0
CLASS
  1
IMAGEDEF
  2
AcDbRasterImageDef
  3
ISM
 90
        0
280
               0
281
               0
  0
CLASS
  1
IMAGEDEF_REACTOR
  2
AcDbRasterImageDefReactor
  3
ISM
 90
        1
280
               0
281
               0
  0
CLASS
  1
IDBUFFER
  2
AcDbIdBuffer
  3
AutoCAD 2000
 90
        0
280
               0
281
               0
  0
CLASS
  1
SPATIAL_FILTER
  2
AcDbSpatialFilter
  3
AutoCAD 2000
 90
        0
280
               0
281
               0
  0
CLASS
  1
XRECORD
  2
AcDbXrecord
  3
AutoCAD 2000
 90
        0
280
               0
281
               0
  0
CLASS
  1
SORTENTSTABLE
  2
AcDbSortentsTable
  3
AutoCAD 2000
 90
        0
280
               0
281
               0
  0
CLASS
  1
LAYER_INDEX
  2
AcDbLayerIndex
  3
AutoCAD 2000
 90
        0
280
               0
281
               0
  0
CLASS
  1
SPATIAL_INDEX
  2
AcDbSpatialIndex
  3
AutoCAD 2000
 90
        0
280
               0
281
               0
  0
CLASS
  1
OBJECT_PTR
  2
CAseDLPNTableRecord
  3
"ASE-LPNTableRecord"
 90
        1
280
               0
281
               0
  0
CLASS
  1
LAYOUT
  2
AcDbLayout
  3
AutoCAD 2000
 90
        0
280
               0
281
               0
  0
CLASS
  1
PLOTSETTINGS
  2
AcDbPlotSettings
  3
AutoCAD 2000
 90
        0
280
               0
281
               0
  0
CLASS
  1
ACDBDICTIONARYWDFLT
  2
AcDbDictionaryWithDefault
  3
AutoCAD 2000
 90
        0
280
               0
281
               0
  0
CLASS
  1
ACDBPLACEHOLDER
  2
AcDbPlaceHolder
  3
AutoCAD 2000
 90
        0
280
               0
281
               0
  0
ENDSEC
  0
SECTION
  2
TABLES
  0
TABLE
  2
VPORT
  5
7
100
AcDbSymbolTable
 70
               1
  0
VPORT
  5
15
100
AcDbSymbolTableRecord
100
AcDbViewportTableRecord
  2
*ACTIVE
 70
               0
 10
0.0
 20
0.0
 11
1.0
 21
1.0
 12
0.0
 22
-12.764114914906713
 13
0.0
 23
0.0
 14
1.0
 24
1.0
 15
0.0
 25
0.0
 16
0.0
 26
0.0
 36
1.0
 17
0.0
 27
0.0
 37
0.0
 40
2837.5228151124124
 41
0.688564
 42
50.0
 43
0.0
 44
0.0
 50
0.0
 51
0.0
 71
               0
 72
            2000
 73
               1
 74
               1
 75
               0
 76
               0
 77
               0
 78
               0
281
               0
 65
               0
110
0.0
120
0.0
130
0.0
111
1.0
121
0.0
131
0.0
112
0.0
122
1.0
132
0.0
345
0
346
0
 79
               0
146
0.0
  0
ENDTAB
  0
TABLE
  2
LTYPE
  5
4
100
AcDbSymbolTable
 70
              17
  0
LTYPE
  5
11
100
AcDbSymbolTableRecord
100
AcDbLinetypeTableRecord
  2
ByBlock
 70
              64
  3

 72
              65
 73
               0
 40
0.0
  0
LTYPE
  5
12
100
AcDbSymbolTableRecord
100
AcDbLinetypeTableRecord
  2
ByLayer
 70
              64
  3

 72
              65
 73
               0
 40
0.0
  0
LTYPE
  5
13
100
AcDbSymbolTableRecord
100
AcDbLinetypeTableRecord
  2
Continuous
 70
              64
  3
Solid line
 72
              65
 73
               0
 40
0.0
  0
LTYPE
  5
3A
100
AcDbSymbolTableRecord
100
AcDbLinetypeTableRecord
  2
STYLE_01
 70
               0
  3

 72
              65
 73
               4
 40
0.3999999999999999
 49
0.25
 74
               0
 49
-0.05
 74
               0
 49
0.05
 74
               0
 49
-0.05
 74
               0
  0
LTYPE
  5
3B
100
AcDbSymbolTableRecord
100
AcDbLinetypeTableRecord
  2
STYLE_02
 70
               0
  3

 72
              65
 73
               2
 40
0.6944250000000001
 49
0.48607
 74
               0
 49
-0.2083550000000001
 74
               0
  0
LTYPE
  5
3C
100
AcDbSymbolTableRecord
100
AcDbLinetypeTableRecord
  2
STYLE_03
 70
               0
  3

 72
              65
 73
               2
 40
1.25
 49
1.0416400000000001
 74
               0
 49
-0.2083599999999999
 74
               0
  0
LTYPE
  5
3D
100
AcDbSymbolTableRecord
100
AcDbLinetypeTableRecord
  2
STYLE_04
 70
               0
  3

 72
              65
 73
               2
 40
1.5277099999999999
 49
1.3194249999999998
 74
               0
 49
-0.208285
 74
               0
  0
LTYPE
  5
3E
100
AcDbSymbolTableRecord
100
AcDbLinetypeTableRecord
  2
STYLE_05
 70
               0
  3

 72
              65
 73
               2
 40
0.20828
 49
0.069425
 74
               0
 49
-0.138855
 74
               0
  0
LTYPE
  5
3F
100
AcDbSymbolTableRecord
100
AcDbLinetypeTableRecord
  2
STYLE_06
 70
               0
  3

 72
              65
 73
               4
 40
1.0416400000000001
 49
0.625
 74
               0
 49
-0.20828
 74
               0
 49
0.06943
 74
               0
 49
-0.13893
 74
               0
  0
LTYPE
  5
40
100
AcDbSymbolTableRecord
100
AcDbLinetypeTableRecord
  2
STYLE_07
 70
               0
  3

 72
              65
 73
               6
 40
1.875
 49
0.625
 74
               0
 49
-0.20828
 74
               0
 49
0.6250000000000001
 74
               0
 49
-0.2083599999999999
 74
               0
 49
0.06943
 74
               0
 49
-0.1389299999999999
 74
               0
  0
LTYPE
  5
41
100
AcDbSymbolTableRecord
100
AcDbLinetypeTableRecord
  2
STYLE_08
 70
               0
  3

 72
              65
 73
               6
 40
1.25
 49
0.625
 74
               0
 49
-0.20828
 74
               0
 49
0.06943
 74
               0
 49
-0.13893
 74
               0
 49
0.0694299999999999
 74
               0
 49
-0.13893
 74
               0
  0
LTYPE
  5
42
100
AcDbSymbolTableRecord
100
AcDbLinetypeTableRecord
  2
STYLE_09
 70
               0
  3

 72
              65
 73
               4
 40
5.0
 49
3.75
 74
               0
 49
-0.2777849999999998
 74
               0
 49
0.6944300000000003
 74
               0
 49
-0.2777849999999998
 74
               0
  0
LTYPE
  5
43
100
AcDbSymbolTableRecord
100
AcDbLinetypeTableRecord
  2
STYLE_10
 70
               0
  3

 72
              65
 73
               6
 40
5.9375
 49
3.75
 74
               0
 49
-0.2777849999999998
 74
               0
 49
0.6944300000000003
 74
               0
 49
-0.2777849999999998
 74
               0
 49
0.625
 74
               0
 49
-0.3125
 74
               0
  0
LTYPE
  5
44
100
AcDbSymbolTableRecord
100
AcDbLinetypeTableRecord
  2
STYLE_11
 70
               0
  3

 72
              65
 73
               2
 40
0.0694444881889764
 49
0.0347222440944882
 74
               0
 49
-0.0347222440944882
 74
               0
  0
LTYPE
  5
45
100
AcDbSymbolTableRecord
100
AcDbLinetypeTableRecord
  2
STYLE_12
 70
               0
  3

 72
              65
 73
               2
 40
0.3937007874015748
 49
0.1968503937007874
 74
               0
 49
-0.1968503937007874
 74
               0
  0
LTYPE
  5
46
100
AcDbSymbolTableRecord
100
AcDbLinetypeTableRecord
  2
STYLE_13
 70
               0
  3

 72
              65
 73
               2
 40
0.5905511811023622
 49
0.2952755905511811
 74
               0
 49
-0.2952755905511811
 74
               0
  0
LTYPE
  5
47
100
AcDbSymbolTableRecord
100
AcDbLinetypeTableRecord
  2
STYLE_14
 70
               0
  3

 72
              65
 73
               2
 40
1.9685039370078738
 49
0.9842519685039369
 74
               0
 49
-0.9842519685039369
 74
               0
  0
ENDTAB
  0
TABLE
  2
LAYER
  5
2
100
AcDbSymbolTable
 70
               5
  0
LAYER
  5
14
100
AcDbSymbolTableRecord
100
AcDbLayerTableRecord
  2
0
 70
               0
 62
               7
  6
Continuous
290
               1
370
              -3
390
1D
  0
LAYER
  5
48
100
AcDbSymbolTableRecord
100
AcDbLayerTableRecord
  2
Defpoints
 70
               0
 62
               7
  6
Continuous
290
               0
370
              -3
390
1D
  0
LAYER
  5
49
100
AcDbSymbolTableRecord
100
AcDbLayerTableRecord
  2
template
 70
               0
 62
               7
  6
Continuous
290
               1
370
              -3
390
1D
  0
LAYER
  5
4A
100
AcDbSymbolTableRecord
100
AcDbLayerTableRecord
  2
notes
 70
               0
 62
               7
  6
Continuous
290
               1
370
              -3
390
1D
  0
LAYER
  5
4B
100
AcDbSymbolTableRecord
100
AcDbLayerTableRecord
  2
FAN70-0102
 70
               0
 62
               7
  6
Continuous
290
               1
370
              -3
390
1D
  0
ENDTAB
  0
TABLE
  2
STYLE
  5
3
100
AcDbSymbolTable
 70
               2
  0
STYLE
  5
17
100
AcDbSymbolTableRecord
100
AcDbTextStyleTableRecord
  2
Standard
 70
               0
 40
0.0
 41
1.0
 50
0.0
 71
               0
 42
0.0
  3
txt
  4
BIGFONT.SHX
  0
STYLE
  5
39
100
AcDbSymbolTableRecord
100
AcDbTextStyleTableRecord
  2
ＭＳ ゴシック
 70
               0
 40
0.0
 41
1.0
 50
0.0
 71
               0
 42
0.0
  3

  4
ＭＳ ゴシック
1001
ACAD
1000
ＭＳ ゴシック
1071
        0
  0
ENDTAB
  0
TABLE
  2
VIEW
  5
5
100
AcDbSymbolTable
 70
               0
  0
ENDTAB
  0
TABLE
  2
UCS
  5
6
100
AcDbSymbolTable
 70
               0
  0
ENDTAB
  0
TABLE
  2
APPID
  5
8
100
AcDbSymbolTable
 70
               1
  0
APPID
  5
16
100
AcDbSymbolTableRecord
100
AcDbRegAppTableRecord
  2
ACAD
 70
               0
  0
ENDTAB
  0
TABLE
  2
DIMSTYLE
  5
9
100
AcDbSymbolTable
 70
               3
100
AcDbDimStyleTable
 71
               0
  0
DIMSTYLE
105
18
100
AcDbSymbolTableRecord
100
AcDbDimStyleTableRecord
  2
Standard
 70
               0
  3

  4

 40
1.0
 41
0.18
 42
0.0625
 43
0.38
 44
0.18
 45
0.0
 46
0.0
 47
0.0
 48
0.0
 71
               0
 72
               0
 73
               1
 74
               1
 75
               0
 76
               0
 77
               0
 78
               0
 79
               0
140
0.18
141
0.09
142
0.0
143
25.399999999999999
144
1.0
145
0.0
146
1.0
147
0.09
148
0.0
170
               0
171
               2
172
               0
173
               0
174
               0
175
               0
176
               0
177
               0
178
               0
179
               0
271
               4
272
               4
273
               2
274
               2
275
               0
276
               0
277
               2
278
              46
279
               0
280
               0
281
               0
282
               0
283
               1
284
               0
285
               0
286
               0
288
               0
289
               3
340
17
341
0
342
0
343
0
344
0
371
              -2
372
              -2
  0
DIMSTYLE
105
54
100
AcDbSymbolTableRecord
100
AcDbDimStyleTableRecord
  2
tfrom線あり
 70
               0
  3
<>
  4
[]
 40
1.0
 41
3.999755859375
 42
24.999999999999996
 43
0.9999999999999999
 44
0.0
 45
0.0
 46
0.0
 47
0.0
 48
0.0
 71
               0
 72
               0
 73
               0
 74
               0
 75
               0
 76
               0
 77
               1
 78
              11
 79
               0
140
24.432617187500004
141
0.0
142
0.0
143
1.0
144
1.0
145
0.0
146
1.0
147
0.4999999999999999
148
0.0
170
               0
171
               1
172
               0
173
               0
174
               1
175
               0
176
               0
177
               0
178
               0
179
               2
271
               1
272
               1
273
               2
274
               2
275
               0
276
               2
277
               2
278
              46
279
               0
280
               0
281
               0
282
               0
283
               1
284
              11
285
              11
286
              11
288
               0
289
               0
340
39
341
4C
342
4C
343
0
344
0
371
              -2
372
              -2
  0
DIMSTYLE
105
59
100
AcDbSymbolTableRecord
100
AcDbDimStyleTableRecord
  2
JIS
 70
               0
  3
<>
  4
[]
 40
1.0
 41
31.75
 42
0.0
 43
6.9999999999999396
 44
19.999999999996199
 45
0.0
 46
0.0
 47
0.0
 48
0.0
 71
               0
 72
               0
 73
               0
 74
               0
 75
               0
 76
               0
 77
               1
 78
              11
 79
               0
140
24.432617187500004
141
0.0
142
0.0
143
1.0
144
1.0
145
0.0
146
1.0
147
1.00000000000108
148
0.0
170
               0
171
               1
172
               0
173
               0
174
               1
175
               0
176
               0
177
               0
178
               0
179
               2
271
               1
272
               1
273
               2
274
               2
275
               0
276
               2
277
               2
278
              46
279
               0
280
               0
281
               0
282
               0
283
               1
284
              11
285
              11
286
              11
288
               0
289
               0
340
39
341
55
342
55
343
0
344
0
371
              -2
372
              -2
  0
ENDTAB
  0
TABLE
  2
BLOCK_RECORD
  5
1
100
AcDbSymbolTable
 70
              24
  0
BLOCK_RECORD
  5
A
100
AcDbSymbolTableRecord
100
AcDbBlockTableRecord
  2
*MODEL_SPACE
340
20
  0
BLOCK_RECORD
  5
B
100
AcDbSymbolTableRecord
100
AcDbBlockTableRecord
  2
*PAPER_SPACE
340
21
  0
BLOCK_RECORD
  5
4C
100
AcDbSymbolTableRecord
100
AcDbBlockTableRecord
  2
_DOT
340
0
  0
BLOCK_RECORD
  5
55
100
AcDbSymbolTableRecord
100
AcDbBlockTableRecord
  2
VW_FILLEDARROW
340
0
  0
BLOCK_RECORD
  5
23
100
AcDbSymbolTableRecord
100
AcDbBlockTableRecord
  2
グループ
340
0
102
{BLKREFS
331
176
102
}
  0
BLOCK_RECORD
  5
24
100
AcDbSymbolTableRecord
100
AcDbBlockTableRecord
  2
*D3
340
0
  0
BLOCK_RECORD
  5
25
100
AcDbSymbolTableRecord
100
AcDbBlockTableRecord
  2
*D4
340
0
  0
BLOCK_RECORD
  5
26
100
AcDbSymbolTableRecord
100
AcDbBlockTableRecord
  2
*D5
340
0
  0
BLOCK_RECORD
  5
27
100
AcDbSymbolTableRecord
100
AcDbBlockTableRecord
  2
*D6
340
0
  0
BLOCK_RECORD
  5
28
100
AcDbSymbolTableRecord
100
AcDbBlockTableRecord
  2
*D7
340
0
  0
BLOCK_RECORD
  5
29
100
AcDbSymbolTableRecord
100
AcDbBlockTableRecord
  2
*D8
340
0
  0
BLOCK_RECORD
  5
2A
100
AcDbSymbolTableRecord
100
AcDbBlockTableRecord
  2
*D9
340
0
  0
BLOCK_RECORD
  5
2B
100
AcDbSymbolTableRecord
100
AcDbBlockTableRecord
  2
*D10
340
0
  0
BLOCK_RECORD
  5
2C
100
AcDbSymbolTableRecord
100
AcDbBlockTableRecord
  2
*D11
340
0
  0
BLOCK_RECORD
  5
2D
100
AcDbSymbolTableRecord
100
AcDbBlockTableRecord
  2
*D12
340
0
  0
BLOCK_RECORD
  5
2E
100
AcDbSymbolTableRecord
100
AcDbBlockTableRecord
  2
*D13
340
0
  0
BLOCK_RECORD
  5
2F
100
AcDbSymbolTableRecord
100
AcDbBlockTableRecord
  2
*D14
340
0
  0
BLOCK_RECORD
  5
30
100
AcDbSymbolTableRecord
100
AcDbBlockTableRecord
  2
*D15
340
0
  0
BLOCK_RECORD
  5
31
100
AcDbSymbolTableRecord
100
AcDbBlockTableRecord
  2
*D16
340
0
  0
BLOCK_RECORD
  5
32
100
AcDbSymbolTableRecord
100
AcDbBlockTableRecord
  2
*D17
340
0
  0
BLOCK_RECORD
  5
33
100
AcDbSymbolTableRecord
100
AcDbBlockTableRecord
  2
*D18
340
0
  0
BLOCK_RECORD
  5
34
100
AcDbSymbolTableRecord
100
AcDbBlockTableRecord
  2
*D19
340
0
  0
BLOCK_RECORD
  5
35
100
AcDbSymbolTableRecord
100
AcDbBlockTableRecord
  2
*D20
340
0
  0
BLOCK_RECORD
  5
36
100
AcDbSymbolTableRecord
100
AcDbBlockTableRecord
  2
*D21
340
0
  0
BLOCK_RECORD
  5
37
100
AcDbSymbolTableRecord
100
AcDbBlockTableRecord
  2
*D22
340
0
  0
BLOCK_RECORD
  5
38
100
AcDbSymbolTableRecord
100
AcDbBlockTableRecord
  2
グループ-1
340
0
102
{BLKREFS
331
1E7
102
}
  0
ENDTAB
  0
ENDSEC
  0
SECTION
  2
BLOCKS
  0
BLOCK
  5
D
100
AcDbEntity
  8
0
390
0
100
AcDbBlockBegin
  2
*MODEL_SPACE
 70
               0
 10
0.0
 20
0.0
 30
0.0
  3
*MODEL_SPACE
  1

  0
ENDBLK
  5
E
100
AcDbEntity
  8
0
390
0
100
AcDbBlockEnd
  0
BLOCK
  5
F
100
AcDbEntity
 67
               1
  8
0
390
0
100
AcDbBlockBegin
  2
*PAPER_SPACE
 70
               0
 10
0.0
 20
0.0
 30
0.0
  3
*PAPER_SPACE
  1

  0
ENDBLK
  5
10
100
AcDbEntity
 67
               1
  8
0
390
0
100
AcDbBlockEnd
  0
BLOCK
  5
4D
100
AcDbEntity
  8
0
390
0
100
AcDbBlockBegin
  2
_DOT
 70
               0
 10
0.0
 20
0.0
 30
0.0
  3
_DOT
  1

  0
POLYLINE
  5
4E
100
AcDbEntity
  8
0
370
              -2
390
0
  6
ByBlock
 62
               0
100
AcDb2dPolyline
 66
               1
 10
0.0
 20
0.0
 30
0.0
 70
               1
 40
0.5
 41
0.5
  0
VERTEX
  5
4F
100
AcDbEntity
  8
0
370
              -2
390
0
  6
ByBlock
 62
               0
100
AcDbVertex
100
AcDb2dVertex
 10
-0.25
 20
0.0
 30
0.0
 42
1.0
  0
VERTEX
  5
50
100
AcDbEntity
  8
0
370
              -2
390
0
  6
ByBlock
 62
               0
100
AcDbVertex
100
AcDb2dVertex
 10
0.25
 20
0.0
 30
0.0
 42
1.0
  0
SEQEND
  5
51
100
AcDbEntity
  8
0
390
0
  0
LINE
  5
52
100
AcDbEntity
  8
0
370
              -2
390
0
  6
ByBlock
 62
               0
100
AcDbLine
 10
-0.5
 20
0.0
 30
0.0
 11
-1.0
 21
0.0
 31
0.0
  0
ENDBLK
  5
53
100
AcDbEntity
  8
0
390
0
100
AcDbBlockEnd
  0
BLOCK
  5
56
100
AcDbEntity
  8
0
370
              -2
390
0
  6
ByBlock
 62
               0
100
AcDbBlockBegin
  2
VW_FILLEDARROW
 70
               0
 10
0.0
 20
0.0
 30
0.0
  3
VW_FILLEDARROW
  1

  0
SOLID
  5
57
100
AcDbEntity
  8
0
370
              -2
390
0
 62
               0
100
AcDbTrace
 10
0.0
 20
0.0
 30
0.0
 11
-0.9921874999999999
 21
-0.2658558393652545
 31
0.0
 12
-0.9921874999999999
 22
0.2658558393652548
 32
0.0
 13
-0.9921874999999999
 23
0.2658558393652548
 33
0.0
  0
ENDBLK
  5
58
100
AcDbEntity
  8
0
390
0
100
AcDbBlockEnd
  0
BLOCK
  5
5A
100
AcDbEntity
  8
template
390
0
100
AcDbBlockBegin
  2
グループ
 70
               0
 10
0.0
 20
0.0
 30
0.0
  3
グループ
  1

  0
LWPOLYLINE
  5
5B
100
AcDbEntity
  8
0
370
              15
390
0
  6
Continuous
 62
               7
100
AcDbPolyline
 90
        8
 70
             129
 10
887.42850780307481
 20
-1362.9897210236859
 10
887.42850780307481
 20
-1368.9871097172618
 10
877.92731088507151
 20
-1368.9871097172618
 10
877.92731088507151
 20
-1393.4380729807706
 10
869.57193362328871
 20
-1393.4380729807706
 10
869.57193362328871
 20
-1368.9871097172618
 10
860.23897667697929
 20
-1368.9871097172618
 10
860.23897667697929
 20
-1362.9897210236859
  0
LWPOLYLINE
  5
5C
100
AcDbEntity
  8
0
370
              15
390
0
  6
Continuous
 62
               7
100
AcDbPolyline
 90
      101
 70
             128
 10
900.15679963363175
 20
-1363.7179695166224
 10
900.17214966241681
 20
-1363.7136087599372
 42
-0.0222221607812452
 10
900.46215423908779
 20
-1363.6449842946927
 10
900.47794800307383
 20
-1363.6419808715971
 42
-0.0146883565588934
 10
900.74065070830557
 20
-1363.5999776846463
 42
-0.0127458844187264
 10
901.00528967545358
 20
-1363.5724407165742
 10
901.06774475377142
 20
-1363.5675472939856
 42
-0.0198099018564238
 10
901.45859386324787
 20
-1363.5524621365889
 10
901.51040533269202
 20
-1363.552515912254
 42
-0.014761738276327
 10
902.00502879366297
 20
-1363.5676359374988
 10
902.07772024854614
 20
-1363.572008544387
 42
-0.0162624549002029
 10
902.46787387800578
 20
-1363.608241419659
 10
902.58940626927017
 20
-1363.6235279786561
 42
-0.0080020874659354
 10
902.73498530035658
 20
-1363.6442108259239
 10
902.77330477094858
 20
-1363.6502821037345
 42
-0.0053821929678317
 10
902.84178887626638
 20
-1363.6618896275565
 10
902.11538317706777
 20
-1365.8428180832705
 42
0.01086677573739
 10
902.04806610694311
 20
-1365.8296309680516
 10
902.01059808374748
 20
-1365.8231332254561
 42
0.0170663203307341
 10
901.8673812968334
 20
-1365.8033036281645
 10
901.79950596414892
 20
-1365.7962564575769
 42
0.022016237527672
 10
901.51912655629246
 20
-1365.7795740968068
 10
901.44127098924127
 20
-1365.7783747295402
 42
0.028260691578763
 10
901.10563466566362
 20
-1365.7921780065094
 10
901.06172139189073
 20
-1365.7964779965132
 42
0.0169677213689564
 10
900.8157968969324
 20
-1365.8290150460648
 42
0.0190576269861447
 10
900.57288893435577
 20
-1365.8791619181704
 10
900.56662974624146
 20
-1365.8807048922806
 42
0.0213685642848188
 10
900.31624526176222
 20
-1365.9539051773859
 10
900.3107553668475
 20
-1365.9557681734445
 42
0.0237595297595475
 10
900.05726048195015
 20
-1366.0554526953395
 10
900.05215840791914
 20
-1366.0577444708183
 42
0.0261857468820483
 10
899.79998763169021
 20
-1366.1872808081923
 10
899.78956144260201
 20
-1366.1933462826614
 42
0.0272553062022719
 10
899.55313166736369
 20
-1366.3487184886053
 10
899.51836865385451
 20
-1366.3743796366973
 42
0.03259968931689
 10
899.36821331020269
 20
-1366.501127509669
 10
899.34450388107882
 20
-1366.5239455381825
 42
0.0138050960634597
 10
899.25262072486953
 20
-1366.6173951997334
 42
0.0125280103795566
 10
899.16577819203962
 20
-1366.7155585263292
 10
899.14209774712765
 20
-1366.7437170245209
 42
0.0205218024740018
 10
899.01699767161551
 20
-1366.9055103387479
 10
898.99453133112684
 20
-1366.937170068577
 42
0.0163110129586428
 10
898.83882095187516
 20
-1367.1725005036476
 10
898.83609705582455
 20
-1367.1769242656324
 42
0.0131897341900631
 10
898.68929653491591
 20
-1367.430056358002
 10
898.68759643955218
 20
-1367.4331745971326
 42
0.0107895576063121
 10
898.54981973734573
 20
-1367.699389806759
 10
898.5490868478164
 20
-1367.7008840394142
 42
0.0091371507222248
 10
898.4206068991648
 20
-1367.9754092371782
 10
898.3908612677576
 20
-1368.0421157443325
 42
0.0135418326351088
 10
898.21914732868436
 20
-1368.4570535296054
 10
898.18554252025513
 20
-1368.5449196718735
 42
0.0092834542406019
 10
898.01431346033087
 20
-1369.0188181701878
 10
897.98869633262177
 20
-1369.0940592399559
 42
0.0054261043575737
 10
897.88105818432018
 20
-1369.4218232130465
 10
897.8635321980961
 20
-1369.4772113754241
 42
0.0008225090817605
 10
897.79486214631277
 20
-1369.6954801334257
 10
896.8101730143793
 20
-1372.7203714266823
 10
900.04279685445317
 20
-1372.7203714266823
 10
899.53860442459973
 20
-1374.6248497250347
 10
896.28254814261641
 20
-1374.6248497250347
 10
890.45339911026258
 20
-1393.4380727910395
 10
888.62830149995227
 20
-1393.4380727910395
 10
894.4629795354532
 20
-1374.6248497250347
 10
892.05786316641286
 20
-1374.6248497250347
 10
892.5620555962663
 20
-1372.7203714266823
 10
894.99060440721632
 20
-1372.7203714266823
 10
895.85075932540497
 20
-1370.0839584259834
 42
-0.0005863560652156
 10
895.88749400360086
 20
-1369.9671320057159
 10
895.96358183726886
 20
-1369.7261397063062
 42
-0.0087522378926788
 10
896.16304998072587
 20
-1369.1308636191593
 10
896.25531425614099
 20
-1368.8707234506417
 42
-0.0077400953830428
 10
896.51324791527031
 20
-1368.1777187730986
 10
896.52901288684905
 20
-1368.137287889713
 42
-0.0082369946330594
 10
896.77609735746114
 20
-1367.5332088235168
 42
-0.0085725238362489
 10
897.04334345346786
 20
-1366.9377827842213
 10
897.14497305447071
 20
-1366.7213616822462
 42
-0.0168109410597172
 10
897.43191748320146
 20
-1366.1601541561402
 10
897.55776087369225
 20
-1365.9331901230855
 42
-0.0007817726868056
 10
897.61204522371713
 20
-1365.8356458781118
 10
897.61217352972994
 20
-1365.8354161693833
 42
-0.0036626142161349
 10
897.6670613937556
 20
-1365.7388182894067
 42
-0.0080221150672844
 10
897.72418564916472
 20
-1365.6435390546499
 10
897.75488560052349
 20
-1365.5941481055315
 42
-0.0202139325568902
 10
897.88254134033173
 20
-1365.4061665048482
 10
897.93660880551784
 20
-1365.3330876406094
 42
-0.0249323791798366
 10
898.19577159923824
 20
-1365.0170423984537
 10
898.219911413364
 20
-1364.9904281255426
 42
-0.0242132121540895
 10
898.55959215490702
 20
-1364.6505446393378
 10
898.60750372765358
 20
-1364.6070355031552
 42
-0.0251017527859385
 10
898.8914854282973
 20
-1364.3740427573875
 10
898.89293090511035
 20
-1364.3729734998092
 42
-0.0130868069035934
 10
899.19119155506837
 20
-1364.1641930312662
 10
899.19275337421232
 20
-1364.1631595909905
 42
-0.0290329526388077
 10
899.50386451560439
 20
-1363.9823340893618
 10
899.53371007759426
 20
-1363.9672317065204
 42
-0.0160250190047949
 10
899.79961449135521
 20
-1363.8432155963092
 42
-0.0267600374780309
 10
900.07489056882525
 20
-1363.74246727576
 10
900.10162648834478
 20
-1363.7342747169348
 42
-0.0049981587669928
 10
900.15679963363175
 20
-1363.7179695166224
 42
-0.0049981587669928
  0
LWPOLYLINE
  5
5D
100
AcDbEntity
  8
0
370
              15
390
0
  6
Continuous
 62
               7
100
AcDbPolyline
 90
      118
 70
             128
 10
919.97116719807866
 20
-1372.7943547545096
 10
921.84628912257813
 20
-1372.7943547545096
 10
921.00825021697824
 20
-1375.4759212809097
 42
-0.0010587229244717
 10
921.03970603257608
 20
-1375.439016747524
 10
921.09790012318217
 20
-1375.3710344913786
 42
-0.0071874740413046
 10
921.24827534127417
 20
-1375.2003937993563
 10
921.38999811454244
 20
-1375.0441576580365
 42
-0.0148118053513779
 10
921.84012740725132
 20
-1374.5765438120272
 10
921.92734974215728
 20
-1374.4911464911695
 42
-0.0086273358692718
 10
922.26289854316542
 20
-1374.1737708571534
 10
922.30673225939165
 20
-1374.1337212128201
 42
-0.0103138323115429
 10
922.56475596162477
 20
-1373.907558075482
 10
922.61053036796045
 20
-1373.8690760282145
 42
-0.0060206748564274
 10
922.78337843206407
 20
-1373.7272813774675
 10
922.78540956294455
 20
-1373.7256556718407
 42
-0.0067069027299378
 10
922.95770237761258
 20
-1373.5915050380413
 10
922.96025114353631
 20
-1373.5895748681678
 42
-0.0076184352054663
 10
923.13115640940987
 20
-1373.4641999929222
 42
-0.0089652861668072
 10
923.30611737214338
 20
-1373.34456673259
 10
923.34246909228841
 20
-1373.320655519107
 42
-0.0156916245939222
 10
923.5384285894495
 20
-1373.2003930326323
 42
-0.0023299011069693
 10
923.73869063340589
 20
-1373.0872150931043
 10
923.75407476580915
 20
-1373.0786150980266
 42
-0.0107669341481016
 10
923.98831159091708
 20
-1372.9542149646736
 10
924.0105763919853
 20
-1372.9429982147271
 42
-0.0078058045897393
 10
924.29416650993721
 20
-1372.8056367590891
 10
924.30407359764718
 20
-1372.8010276312202
 42
-0.0181829330470019
 10
924.61438300226393
 20
-1372.6701638901241
 10
924.66843844482628
 20
-1372.6496487701822
 42
-0.0208411536031712
 10
925.01752341227984
 20
-1372.5335583076881
 10
925.03187951240784
 20
-1372.5294398627343
 42
-0.022279981713889
 10
925.3605993063245
 20
-1372.4507982965943
 10
925.369488269567
 20
-1372.4490862860082
 42
-0.0215509523880639
 10
925.68595923784142
 20
-1372.4021705974747
 10
925.72844119889055
 20
-1372.3977330706839
 42
-0.0182545924872353
 10
925.96254997819551
 20
-1372.381889245293
 10
926.00195099454572
 20
-1372.3806647002136
 42
-0.0072962856529007
 10
926.15787387423256
 20
-1372.3780953716916
 10
926.18697354480855
 20
-1372.3780405362879
 42
-0.0059227516318757
 10
926.2847230439495
 20
-1372.3790142480784
 10
926.31396526146034
 20
-1372.3796520146825
 42
-0.0011833111901854
 10
926.35321654515383
 20
-1372.3806010189917
 10
925.55782994954666
 20
-1374.9193349640907
 42
0.0143932051593512
 10
925.53142856719205
 20
-1374.9091359940439
 10
925.52415659477879
 20
-1374.9065647751881
 42
0.0234388603510569
 10
925.48232572884933
 20
-1374.8939455394734
 10
925.47364406593397
 20
-1374.8917645774677
 42
0.019916274298183
 10
925.41335523185228
 20
-1374.8791478421322
 10
925.39254129404776
 20
-1374.8756506427042
 42
0.0293643550666261
 10
925.28946643528752
 20
-1374.8645005970509
 10
925.26478125456833
 20
-1374.8632889800324
 42
0.0214606686863714
 10
925.11164033861519
 20
-1374.8623504196148
 10
925.10226842779787
 20
-1374.8626953311591
 42
0.0167564054173993
 10
924.93074823668678
 20
-1374.8747723735273
 10
924.92228844393048
 20
-1374.8756537139543
 42
0.0137677553240766
 10
924.73493513066455
 20
-1374.900403022498
 10
924.72758339115785
 20
-1374.9015809424659
 42
0.0118497261482254
 10
924.52708562705527
 20
-1374.9385982926551
 10
924.52093561980928
 20
-1374.9398851553751
 42
0.0106421143889724
 10
924.31005473252526
 20
-1374.9887175309498
 10
924.30514592413522
 20
-1374.989964873635
 42
0.0099746379706321
 10
924.08668745497073
 20
-1375.0501394019504
 10
924.02513941480242
 20
-1375.0684212805804
 42
0.0191613675859732
 10
923.68915495228691
 20
-1375.1823986608674
 10
923.60109517953742
 20
-1375.2160855711929
 42
0.0205274080144368
 10
923.21578840764073
 20
-1375.381913979018
 10
923.15813912565829
 20
-1375.4095819435906
 42
0.0181256912196064
 10
922.89986218499178
 20
-1375.5452657625683
 10
922.84690680168444
 20
-1375.5755833757792
 42
0.0140709242402873
 10
922.7019518670495
 20
-1375.6640780492173
 10
922.67570299843271
 20
-1375.6811348679316
 42
0.0086667884395987
 10
922.58677683688848
 20
-1375.7411375358156
 42
0.0036408192034625
 10
922.49934359883844
 20
-1375.80331839362
 10
922.46411672438649
 20
-1375.8287593395207
 42
0.0052260781272892
 10
922.30788802701056
 20
-1375.9440917261436
 10
922.29168117073573
 20
-1375.9563198367732
 42
0.0050024435896443
 10
922.10567782769397
 20
-1376.0996024050221
 10
922.09035967116176
 20
-1376.1116484274812
 42
0.013613871027649
 10
921.87991840284246
 20
-1376.2866149323893
 10
921.84625052704291
 20
-1376.3161939051088
 42
0.017281518691684
 10
921.58184698537809
 20
-1376.5651905777345
 10
921.57928463953772
 20
-1376.5677763948793
 42
0.0189403857992159
 10
921.3287028409577
 20
-1376.8405816596844
 10
921.29607134742764
 20
-1376.8789255911747
 42
0.0185044199499275
 10
921.10411490844263
 20
-1377.1221741723034
 42
0.0088565243898951
 10
920.9256548018152
 20
-1377.3756905924522
 10
920.91647682216569
 20
-1377.3892319722136
 42
0.0157195347234652
 10
920.73325621582853
 20
-1377.6787541815343
 10
920.687173273908
 20
-1377.7569063785377
 42
0.0095451879775554
 10
920.52208772376309
 20
-1378.0495010209065
 10
920.51093980483915
 20
-1378.070171693028
 42
0.0100351706251944
 10
920.3788960556742
 20
-1378.3272272535294
 42
0.0086935915418291
 10
920.25656490388019
 20
-1378.5890603989335
 10
920.25324416246565
 20
-1378.5965027219056
 42
0.0072580174866602
 10
920.13289771052291
 20
-1378.8770947134833
 10
920.1296360772144
 20
-1378.8850147395065
 42
0.0060005122616345
 10
920.01043540887065
 20
-1379.1846244101146
 10
920.00722443053007
 20
-1379.1929859380166
 42
0.0049017786975175
 10
919.88832427167199
 20
-1379.5119149186223
 10
919.88515846528219
 20
-1379.5206678558511
 42
0.0039415167599378
 10
919.76572218723106
 20
-1379.8592099182486
 10
919.76259108457339
 20
-1379.8683131191406
 42
0.0031035838769637
 10
919.64178629887556
 20
-1380.2267529809285
 10
919.63867625434989
 20
-1380.236173602289
 42
0.0025070747154479
 10
919.51577490303816
 20
-1380.6148208192214
 10
919.47848100660917
 20
-1380.7317124844858
 42
0.0029081910283904
 10
919.28646270880756
 20
-1381.3458761427471
 10
919.24565954028128
 20
-1381.4790993850534
 42
0.0009266453734212
 10
918.97724216592712
 20
-1382.3613238451076
 10
918.95635469334729
 20
-1382.4304357241422
 42
-0.0005809993666308
 10
918.67901801273479
 20
-1383.3442438308516
 10
918.61273621446219
 20
-1383.5617287630105
 42
-0.0012018708165088
 10
918.46575190503268
 20
-1384.039891427532
 10
918.41343205345208
 20
-1384.2086505684463
 42
-0.0002691059599173
 10
918.36986257229853
 20
-1384.3489181887398
 10
915.53690667400929
 20
-1393.4380727910395
 10
913.71891778203076
 20
-1393.4380727910395
 10
919.97116719807866
 20
-1372.7943547545096
  0
SPLINE
  5
5E
100
AcDbEntity
  8
0
370
              15
390
0
  6
Continuous
 62
               7
100
AcDbSpline
210
0.0
220
0.0
230
1.0
 70
              13
 71
               2
 72
             782
 73
             779
 74
               0
 42
0.000001
 43
0.000001
 40
0.0
 40
0.0
 40
0.0
 40
1.0
 40
1.0
 40
2.0
 40
2.0
 40
3.0
 40
3.0
 40
4.0
 40
4.0
 40
5.0
 40
5.0
 40
6.0
 40
6.0
 40
7.0
 40
7.0
 40
8.0
 40
8.0
 40
9.0
 40
9.0
 40
10.0
 40
10.0
 40
11.0
 40
11.0
 40
12.0
 40
12.0
 40
13.0
 40
13.0
 40
14.0
 40
14.0
 40
15.0
 40
15.0
 40
16.0
 40
16.0
 40
17.0
 40
17.0
 40
18.0
 40
18.0
 40
19.0
 40
19.0
 40
20.0
 40
20.0
 40
21.0
 40
21.0
 40
22.0
 40
22.0
 40
23.0
 40
23.0
 40
24.0
 40
24.0
 40
25.0
 40
25.0
 40
26.0
 40
26.0
 40
27.0
 40
27.0
 40
28.0
 40
28.0
 40
29.0
 40
29.0
 40
30.0
 40
30.0
 40
31.0
 40
31.0
 40
32.0
 40
32.0
 40
33.0
 40
33.0
 40
34.0
 40
34.0
 40
35.0
 40
35.0
 40
36.0
 40
36.0
 40
37.0
 40
37.0
 40
38.0
 40
38.0
 40
39.0
 40
39.0
 40
40.0
 40
40.0
 40
41.0
 40
41.0
 40
42.0
 40
42.0
 40
43.0
 40
43.0
 40
44.0
 40
44.0
 40
45.0
 40
45.0
 40
46.0
 40
46.0
 40
47.0
 40
47.0
 40
48.0
 40
48.0
 40
49.0
 40
49.0
 40
50.0
 40
50.0
 40
51.0
 40
51.0
 40
52.0
 40
52.0
 40
53.0
 40
53.0
 40
54.0
 40
54.0
 40
55.0
 40
55.0
 40
56.0
 40
56.0
 40
57.0
 40
57.0
 40
58.0
 40
58.0
 40
59.0
 40
59.0
 40
60.0
 40
60.0
 40
61.0
 40
61.0
 40
62.0
 40
62.0
 40
63.0
 40
63.0
 40
64.0
 40
64.0
 40
65.0
 40
65.0
 40
66.0
 40
66.0
 40
67.0
 40
67.0
 40
68.0
 40
68.0
 40
69.0
 40
69.0
 40
70.0
 40
70.0
 40
71.0
 40
71.0
 40
72.0
 40
72.0
 40
73.0
 40
73.0
 40
74.0
 40
74.0
 40
75.0
 40
75.0
 40
76.0
 40
76.0
 40
77.0
 40
77.0
 40
78.0
 40
78.0
 40
79.0
 40
79.0
 40
80.0
 40
80.0
 40
81.0
 40
81.0
 40
82.0
 40
82.0
 40
83.0
 40
83.0
 40
84.0
 40
84.0
 40
85.0
 40
85.0
 40
86.0
 40
86.0
 40
87.0
 40
87.0
 40
88.0
 40
88.0
 40
89.0
 40
89.0
 40
90.0
 40
90.0
 40
91.0
 40
91.0
 40
92.0
 40
92.0
 40
93.0
 40
93.0
 40
94.0
 40
94.0
 40
95.0
 40
95.0
 40
96.0
 40
96.0
 40
97.0
 40
97.0
 40
98.0
 40
98.0
 40
99.0
 40
99.0
 40
100.0
 40
100.0
 40
101.0
 40
101.0
 40
102.0
 40
102.0
 40
103.0
 40
103.0
 40
104.0
 40
104.0
 40
105.0
 40
105.0
 40
106.0
 40
106.0
 40
107.0
 40
107.0
 40
108.0
 40
108.0
 40
109.0
 40
109.0
 40
110.0
 40
110.0
 40
111.0
 40
111.0
 40
112.0
 40
112.0
 40
113.0
 40
113.0
 40
114.0
 40
114.0
 40
115.0
 40
115.0
 40
116.0
 40
116.0
 40
117.0
 40
117.0
 40
118.0
 40
118.0
 40
119.0
 40
119.0
 40
120.0
 40
120.0
 40
121.0
 40
121.0
 40
122.0
 40
122.0
 40
123.0
 40
123.0
 40
124.0
 40
124.0
 40
125.0
 40
125.0
 40
126.0
 40
126.0
 40
127.0
 40
127.0
 40
128.0
 40
128.0
 40
129.0
 40
129.0
 40
130.0
 40
130.0
 40
131.0
 40
131.0
 40
132.0
 40
132.0
 40
133.0
 40
133.0
 40
134.0
 40
134.0
 40
135.0
 40
135.0
 40
136.0
 40
136.0
 40
137.0
 40
137.0
 40
138.0
 40
138.0
 40
139.0
 40
139.0
 40
140.0
 40
140.0
 40
141.0
 40
141.0
 40
142.0
 40
142.0
 40
143.0
 40
143.0
 40
144.0
 40
144.0
 40
145.0
 40
145.0
 40
146.0
 40
146.0
 40
147.0
 40
147.0
 40
148.0
 40
148.0
 40
149.0
 40
149.0
 40
150.0
 40
150.0
 40
151.0
 40
151.0
 40
152.0
 40
152.0
 40
153.0
 40
153.0
 40
154.0
 40
154.0
 40
155.0
 40
155.0
 40
156.0
 40
156.0
 40
157.0
 40
157.0
 40
158.0
 40
158.0
 40
159.0
 40
159.0
 40
160.0
 40
160.0
 40
161.0
 40
161.0
 40
162.0
 40
162.0
 40
163.0
 40
163.0
 40
164.0
 40
164.0
 40
165.0
 40
165.0
 40
166.0
 40
166.0
 40
167.0
 40
167.0
 40
168.0
 40
168.0
 40
169.0
 40
169.0
 40
170.0
 40
170.0
 40
171.0
 40
171.0
 40
172.0
 40
172.0
 40
173.0
 40
173.0
 40
174.0
 40
174.0
 40
175.0
 40
175.0
 40
176.0
 40
176.0
 40
177.0
 40
177.0
 40
178.0
 40
178.0
 40
179.0
 40
179.0
 40
180.0
 40
180.0
 40
181.0
 40
181.0
 40
182.0
 40
182.0
 40
183.0
 40
183.0
 40
184.0
 40
184.0
 40
185.0
 40
185.0
 40
186.0
 40
186.0
 40
187.0
 40
187.0
 40
188.0
 40
188.0
 40
189.0
 40
189.0
 40
190.0
 40
190.0
 40
191.0
 40
191.0
 40
192.0
 40
192.0
 40
193.0
 40
193.0
 40
194.0
 40
194.0
 40
195.0
 40
195.0
 40
196.0
 40
196.0
 40
197.0
 40
197.0
 40
198.0
 40
198.0
 40
199.0
 40
199.0
 40
200.0
 40
200.0
 40
201.0
 40
201.0
 40
202.0
 40
202.0
 40
203.0
 40
203.0
 40
204.0
 40
204.0
 40
205.0
 40
205.0
 40
206.0
 40
206.0
 40
207.0
 40
207.0
 40
208.0
 40
208.0
 40
209.0
 40
209.0
 40
210.0
 40
210.0
 40
211.0
 40
211.0
 40
212.0
 40
212.0
 40
213.0
 40
213.0
 40
214.0
 40
214.0
 40
215.0
 40
215.0
 40
216.0
 40
216.0
 40
217.0
 40
217.0
 40
218.0
 40
218.0
 40
219.0
 40
219.0
 40
220.0
 40
220.0
 40
221.0
 40
221.0
 40
222.0
 40
222.0
 40
223.0
 40
223.0
 40
224.0
 40
224.0
 40
225.0
 40
225.0
 40
226.0
 40
226.0
 40
227.0
 40
227.0
 40
228.0
 40
228.0
 40
229.0
 40
229.0
 40
230.0
 40
230.0
 40
231.0
 40
231.0
 40
232.0
 40
232.0
 40
233.0
 40
233.0
 40
234.0
 40
234.0
 40
235.0
 40
235.0
 40
236.0
 40
236.0
 40
237.0
 40
237.0
 40
238.0
 40
238.0
 40
239.0
 40
239.0
 40
240.0
 40
240.0
 40
241.0
 40
241.0
 40
242.0
 40
242.0
 40
243.0
 40
243.0
 40
244.0
 40
244.0
 40
245.0
 40
245.0
 40
246.0
 40
246.0
 40
247.0
 40
247.0
 40
248.0
 40
248.0
 40
249.0
 40
249.0
 40
250.0
 40
250.0
 40
251.0
 40
251.0
 40
252.0
 40
252.0
 40
253.0
 40
253.0
 40
254.0
 40
254.0
 40
255.0
 40
255.0
 40
256.0
 40
256.0
 40
257.0
 40
257.0
 40
258.0
 40
258.0
 40
259.0
 40
259.0
 40
260.0
 40
260.0
 40
261.0
 40
261.0
 40
262.0
 40
262.0
 40
263.0
 40
263.0
 40
264.0
 40
264.0
 40
265.0
 40
265.0
 40
266.0
 40
266.0
 40
267.0
 40
267.0
 40
268.0
 40
268.0
 40
269.0
 40
269.0
 40
270.0
 40
270.0
 40
271.0
 40
271.0
 40
272.0
 40
272.0
 40
273.0
 40
273.0
 40
274.0
 40
274.0
 40
275.0
 40
275.0
 40
276.0
 40
276.0
 40
277.0
 40
277.0
 40
278.0
 40
278.0
 40
279.0
 40
279.0
 40
280.0
 40
280.0
 40
281.0
 40
281.0
 40
282.0
 40
282.0
 40
283.0
 40
283.0
 40
284.0
 40
284.0
 40
285.0
 40
285.0
 40
286.0
 40
286.0
 40
287.0
 40
287.0
 40
288.0
 40
288.0
 40
289.0
 40
289.0
 40
290.0
 40
290.0
 40
291.0
 40
291.0
 40
292.0
 40
292.0
 40
293.0
 40
293.0
 40
294.0
 40
294.0
 40
295.0
 40
295.0
 40
296.0
 40
296.0
 40
297.0
 40
297.0
 40
298.0
 40
298.0
 40
299.0
 40
299.0
 40
300.0
 40
300.0
 40
301.0
 40
301.0
 40
302.0
 40
302.0
 40
303.0
 40
303.0
 40
304.0
 40
304.0
 40
305.0
 40
305.0
 40
306.0
 40
306.0
 40
307.0
 40
307.0
 40
308.0
 40
308.0
 40
309.0
 40
309.0
 40
310.0
 40
310.0
 40
311.0
 40
311.0
 40
312.0
 40
312.0
 40
313.0
 40
313.0
 40
314.0
 40
314.0
 40
315.0
 40
315.0
 40
316.0
 40
316.0
 40
317.0
 40
317.0
 40
318.0
 40
318.0
 40
319.0
 40
319.0
 40
320.0
 40
320.0
 40
321.0
 40
321.0
 40
322.0
 40
322.0
 40
323.0
 40
323.0
 40
324.0
 40
324.0
 40
325.0
 40
325.0
 40
326.0
 40
326.0
 40
327.0
 40
327.0
 40
328.0
 40
328.0
 40
329.0
 40
329.0
 40
330.0
 40
330.0
 40
331.0
 40
331.0
 40
332.0
 40
332.0
 40
333.0
 40
333.0
 40
334.0
 40
334.0
 40
335.0
 40
335.0
 40
336.0
 40
336.0
 40
337.0
 40
337.0
 40
338.0
 40
338.0
 40
339.0
 40
339.0
 40
340.0
 40
340.0
 40
341.0
 40
341.0
 40
342.0
 40
342.0
 40
343.0
 40
343.0
 40
344.0
 40
344.0
 40
345.0
 40
345.0
 40
346.0
 40
346.0
 40
347.0
 40
347.0
 40
348.0
 40
348.0
 40
349.0
 40
349.0
 40
350.0
 40
350.0
 40
351.0
 40
351.0
 40
352.0
 40
352.0
 40
353.0
 40
353.0
 40
354.0
 40
354.0
 40
355.0
 40
355.0
 40
356.0
 40
356.0
 40
357.0
 40
357.0
 40
358.0
 40
358.0
 40
359.0
 40
359.0
 40
360.0
 40
360.0
 40
361.0
 40
361.0
 40
362.0
 40
362.0
 40
363.0
 40
363.0
 40
364.0
 40
364.0
 40
365.0
 40
365.0
 40
366.0
 40
366.0
 40
367.0
 40
367.0
 40
368.0
 40
368.0
 40
369.0
 40
369.0
 40
370.0
 40
370.0
 40
371.0
 40
371.0
 40
372.0
 40
372.0
 40
373.0
 40
373.0
 40
374.0
 40
374.0
 40
375.0
 40
375.0
 40
376.0
 40
376.0
 40
377.0
 40
377.0
 40
378.0
 40
378.0
 40
379.0
 40
379.0
 40
380.0
 40
380.0
 40
381.0
 40
381.0
 40
382.0
 40
382.0
 40
383.0
 40
383.0
 40
384.0
 40
384.0
 40
385.0
 40
385.0
 40
386.0
 40
386.0
 40
387.0
 40
387.0
 40
388.0
 40
388.0
 40
389.0
 40
389.0
 40
389.0
 10
930.29987164881129
 20
-1372.7834283911473
 30
0.0
 41
1.0
 10
931.11829575753177
 20
-1372.7834283911473
 30
0.0
 41
1.0
 10
931.93671986625225
 20
-1372.7834283911473
 30
0.0
 41
1.0
 10
931.52296613073554
 20
-1374.126054655397
 30
0.0
 41
1.0
 10
931.10921239521872
 20
-1375.4686809196467
 30
0.0
 41
1.0
 10
931.12755189037239
 20
-1375.4399801467571
 30
0.0
 41
0.9999957264353334
 10
931.14605888718984
 20
-1375.4113870966273
 30
0.0
 41
1.0
 10
931.17648821134094
 20
-1375.3643742182301
 30
0.0
 41
1.0
 10
931.20691753549204
 20
-1375.3173613398328
 30
0.0
 41
1.0
 10
931.28628318059964
 20
-1375.1947425329274
 30
0.0
 41
0.9995394069080855
 10
931.37294157215149
 20
-1375.0771644711858
 30
0.0
 41
1.0
 10
931.40869843441078
 20
-1375.0286495785929
 30
0.0
 41
1.0
 10
931.44445529667007
 20
-1374.9801346859999
 30
0.0
 41
1.0
 10
931.57818196448875
 20
-1374.7986944108727
 30
0.0
 41
0.9994460617143494
 10
931.72368244577569
 20
-1374.6265520132242
 30
0.0
 41
1.0
 10
931.72807062674997
 20
-1374.6213603328424
 30
0.0
 41
1.0
 10
931.73245880772436
 20
-1374.6161686524608
 30
0.0
 41
1.0
 10
931.86918292706207
 20
-1374.4544096155764
 30
0.0
 41
0.9994359394933763
 10
932.01645715741506
 20
-1374.3021934144101
 30
0.0
 41
1.0
 10
932.01884051137063
 20
-1374.2997300840348
 30
0.0
 41
1.0
 10
932.02122386532608
 20
-1374.2972667536592
 30
0.0
 41
1.0
 10
932.1637313877693
 20
-1374.1499772132429
 30
0.0
 41
0.9995293688567944
 10
932.31500306874864
 20
-1374.0117040010814
 30
0.0
 41
1.0
 10
932.33429682801261
 20
-1373.9940681154296
 30
0.0
 41
1.0
 10
932.35359058727659
 20
-1373.9764322297779
 30
0.0
 41
1.0
 10
932.46627474973218
 20
-1373.873430788916
 30
0.0
 41
0.999708761480295
 10
932.58379763868584
 20
-1373.7759865081193
 30
0.0
 41
1.0
 10
932.60296371186837
 20
-1373.7600949296057
 30
0.0
 41
1.0
 10
932.62212978505079
 20
-1373.744203351092
 30
0.0
 41
1.0
 10
932.70132052765098
 20
-1373.6785422273133
 30
0.0
 41
0.9999595338700135
 10
932.78167979849604
 20
-1373.6143164966666
 30
0.0
 41
1.0
 10
932.86203906934838
 20
-1373.5500907660137
 30
0.0
 41
0.9999749417498401
 10
932.943299603691
 20
-1373.487009212068
 30
0.0
 41
1.0
 10
932.96428574986589
 20
-1373.4707179247566
 30
0.0
 41
1.0
 10
932.98527189604079
 20
-1373.4544266374453
 30
0.0
 41
1.0
 10
933.06983978133303
 20
-1373.3887776276119
 30
0.0
 41
0.9999792037130209
 10
933.15524738109707
 20
-1373.3242248459724
 30
0.0
 41
1.0
 10
933.1760722070195
 20
-1373.3084850237065
 30
0.0
 41
1.0
 10
933.19689703294193
 20
-1373.2927452014403
 30
0.0
 41
1.0
 10
933.24065498087236
 20
-1373.2596720643246
 30
0.0
 41
0.9999993373740191
 10
933.28433666700971
 20
-1373.2264982689048
 30
0.0
 41
1.0
 10
933.3280183531507
 20
-1373.1933244734823
 30
0.0
 41
0.9999160953816699
 10
933.37254476406838
 20
-1373.1612934082855
 30
0.0
 41
1.0
 10
933.40536665148989
 20
-1373.1376822526991
 30
0.0
 41
1.0
 10
933.4381885389115
 20
-1373.1140710971126
 30
0.0
 41
1.0
 10
933.54835872466924
 20
-1373.0348177207452
 30
0.0
 41
0.9980964527231613
 10
933.66744771817002
 20
-1372.9697302478892
 30
0.0
 41
1.0
 10
933.70448032509717
 20
-1372.9494902682964
 30
0.0
 41
1.0
 10
933.74151293202442
 20
-1372.9292502887038
 30
0.0
 41
1.0
 10
933.92083994529833
 20
-1372.8312400380021
 30
0.0
 41
0.9984572810572789
 10
934.10992851165884
 20
-1372.7537177766549
 30
0.0
 41
1.0
 10
934.1135747810539
 20
-1372.7522228843172
 30
0.0
 41
1.0
 10
934.11722105044896
 20
-1372.7507279919796
 30
0.0
 41
1.0
 10
934.29901707801707
 20
-1372.6761955153088
 30
0.0
 41
0.9987838528033893
 10
934.48726973657699
 20
-1372.6199298751428
 30
0.0
 41
1.0
 10
934.49150768577658
 20
-1372.6186632214524
 30
0.0
 41
1.0
 10
934.49574563497617
 20
-1372.6173965677619
 30
0.0
 41
1.0
 10
934.67552239513714
 20
-1372.5636642349768
 30
0.0
 41
0.999065281620722
 10
934.85926832685209
 20
-1372.525660555435
 30
0.0
 41
1.0
 10
934.86445672788182
 20
-1372.5245874523289
 30
0.0
 41
1.0
 10
934.86964512891166
 20
-1372.5235143492228
 30
0.0
 41
1.0
 10
935.04301425856659
 20
-1372.4876568758932
 30
0.0
 41
0.9992909934270359
 10
935.21859002502629
 20
-1372.4649464434265
 30
0.0
 41
1.0
 10
935.39416579148281
 20
-1372.44223601096
 30
0.0
 41
0.9994553539448302
 10
935.57085722457441
 20
-1372.4311567067539
 30
0.0
 41
1.0
 10
935.60629163237172
 20
-1372.428934818706
 30
0.0
 41
1.0
 10
935.64172604016903
 20
-1372.4267129306581
 30
0.0
 41
1.0
 10
935.80795180673806
 20
-1372.4162898682464
 30
0.0
 41
0.999092809829273
 10
935.97446159864103
 20
-1372.420049509481
 30
0.0
 41
1.0
 10
936.01302343391387
 20
-1372.420920201014
 30
0.0
 41
1.0
 10
936.05158526918672
 20
-1372.4217908925471
 30
0.0
 41
1.0
 10
936.14097139054468
 20
-1372.4238091507154
 30
0.0
 41
0.999838208920621
 10
936.23022707332984
 20
-1372.4290412772434
 30
0.0
 41
1.0
 10
936.23065697954735
 20
-1372.4290664781456
 30
0.0
 41
1.0
 10
936.23108688576485
 20
-1372.4290916790476
 30
0.0
 41
1.0
 10
936.31948275611376
 20
-1372.4342734037714
 30
0.0
 41
0.9997558016759435
 10
936.40756333331683
 20
-1372.443355919138
 30
0.0
 41
1.0
 10
936.40803947174277
 20
-1372.4434050166201
 30
0.0
 41
1.0
 10
936.40851561016859
 20
-1372.4434541141022
 30
0.0
 41
1.0
 10
936.49564391051354
 20
-1372.4524384345038
 30
0.0
 41
0.9996565144182056
 10
936.58218176385981
 20
-1372.4659757411937
 30
0.0
 41
1.0
 10
936.58264768923641
 20
-1372.4660486269249
 30
0.0
 41
1.0
 10
936.5831136146129
 20
-1372.4661215126562
 30
0.0
 41
1.0
 10
936.66871961720074
 20
-1372.4795130478824
 30
0.0
 41
0.9995321806866535
 10
936.75334669752976
 20
-1372.4981135363118
 30
0.0
 41
1.0
 10
936.75373589210335
 20
-1372.4981990787783
 30
0.0
 41
1.0
 10
936.75412508667705
 20
-1372.4982846212445
 30
0.0
 41
1.0
 10
936.83797377785925
 20
-1372.5167140247415
 30
0.0
 41
0.9993819199219618
 10
936.92032031205395
 20
-1372.5409894080017
 30
0.0
 41
1.0
 10
936.92055874555274
 20
-1372.5410596971112
 30
0.0
 41
1.0
 10
936.92079717905153
 20
-1372.5411299862208
 30
0.0
 41
1.0
 10
937.00266684625024
 20
-1372.5652647912625
 30
0.0
 41
0.9992088568505916
 10
937.0823593652384
 20
-1372.5958300270568
 30
0.0
 41
1.0
 10
937.16204035611736
 20
-1372.6263896277901
 30
0.0
 41
0.9990226101773474
 10
937.23871102602459
 20
-1372.6638670594048
 30
0.0
 41
1.0
 10
937.31537016782215
 20
-1372.7013388559576
 30
0.0
 41
0.9988424273972117
 10
937.38807379503419
 20
-1372.7460036312104
 30
0.0
 41
1.0
 10
937.38834150341393
 20
-1372.7461680952829
 30
0.0
 41
1.0
 10
937.38860921179366
 20
-1372.7463325593553
 30
0.0
 41
1.0
 10
937.46184825576449
 20
-1372.7913262627528
 30
0.0
 41
0.9986928844491282
 10
937.53011112247418
 20
-1372.8435619970323
 30
0.0
 41
1.0
 10
937.530692414697
 20
-1372.8440068102602
 30
0.0
 41
1.0
 10
937.53127370691982
 20
-1372.8444516234881
 30
0.0
 41
1.0
 10
937.60069915807503
 20
-1372.8975769842236
 30
0.0
 41
0.998600726227902
 10
937.66412532784193
 20
-1372.9577377539172
 30
0.0
 41
1.0
 10
937.66501974329913
 20
-1372.9585861217522
 30
0.0
 41
1.0
 10
937.66591415875632
 20
-1372.9594344895872
 30
0.0
 41
1.0
 10
937.73112915943716
 20
-1373.0212919949508
 30
0.0
 41
0.9985581491382038
 10
937.78933677113901
 20
-1373.0897844852225
 30
0.0
 41
1.0
 10
937.79859522473487
 20
-1373.1006788429243
 30
0.0
 41
1.0
 10
937.80785367833073
 20
-1373.111573200626
 30
0.0
 41
1.0
 10
937.8845781972235
 20
-1373.2018544063005
 30
0.0
 41
0.9970460233520153
 10
937.94657009838295
 20
-1373.3028214904823
 30
0.0
 41
1.0
 10
937.96103946346238
 20
-1373.3263879495635
 30
0.0
 41
1.0
 10
937.97550882854193
 20
-1373.3499544086444
 30
0.0
 41
1.0
 10
938.0152455285546
 20
-1373.4146741326767
 30
0.0
 41
0.9988468816636342
 10
938.0485918993063
 20
-1373.4829065851047
 30
0.0
 41
1.0
 10
938.05562792179842
 20
-1373.4973035062435
 30
0.0
 41
1.0
 10
938.06266394429053
 20
-1373.511700427382
 30
0.0
 41
1.0
 10
938.08193827005812
 20
-1373.5511390375332
 30
0.0
 41
0.9998431189996929
 10
938.09980359755286
 20
-1373.5912355919731
 30
0.0
 41
1.0
 10
938.11766892508149
 20
-1373.6313321464893
 30
0.0
 41
0.9999989990028213
 10
938.13564764851083
 20
-1373.6713779840891
 30
0.0
 41
1.0
 10
938.1418199600846
 20
-1373.6851262008558
 30
0.0
 41
1.0
 10
938.14799227165827
 20
-1373.6988744176228
 30
0.0
 41
1.0
 10
938.17831561826858
 20
-1373.7664166888314
 30
0.0
 41
0.9998790356321278
 10
938.20652349840657
 20
-1373.8348694407691
 30
0.0
 41
1.0
 10
938.2133586796906
 20
-1373.8514565421956
 30
0.0
 41
1.0
 10
938.22019386097452
 20
-1373.8680436436221
 30
0.0
 41
1.0
 10
938.24375152335631
 20
-1373.9252115985112
 30
0.0
 41
0.9998227574561287
 10
938.26514027174494
 20
-1373.9832259067871
 30
0.0
 41
1.0
 10
938.28652902013437
 20
-1374.0412402150646
 30
0.0
 41
0.9996797971040683
 10
938.30495530509347
 20
-1374.1002623341826
 30
0.0
 41
1.0
 10
938.30885910781899
 20
-1374.1127667923515
 30
0.0
 41
1.0
 10
938.31276291054451
 20
-1374.1252712505204
 30
0.0
 41
1.0
 10
938.33899680095487
 20
-1374.2093022859765
 30
0.0
 41
0.9979274938734355
 10
938.35422132443409
 20
-1374.2960066446369
 30
0.0
 41
1.0
 10
938.35644501169486
 20
-1374.308670645456
 30
0.0
 41
1.0
 10
938.35866869895574
 20
-1374.3213346462751
 30
0.0
 41
1.0
 10
938.36959863865468
 20
-1374.3835811535689
 30
0.0
 41
0.9994985982137418
 10
938.37656680383157
 20
-1374.4463946547112
 30
0.0
 41
1.0
 10
938.38353496900834
 20
-1374.5092081558485
 30
0.0
 41
0.9996372611200992
 10
938.38711083477608
 20
-1374.5723057345308
 30
0.0
 41
1.0
 10
938.38727941226557
 20
-1374.5752803516152
 30
0.0
 41
1.0
 10
938.38744798975495
 20
-1374.5782549686999
 30
0.0
 41
1.0
 10
938.39136101050121
 20
-1374.6473017815445
 30
0.0
 41
0.9997730630736238
 10
938.39232932398932
 20
-1374.7164526055763
 30
0.0
 41
1.0
 10
938.39238643040744
 20
-1374.72053078472
 30
0.0
 41
1.0
 10
938.39244353682557
 20
-1374.7246089638638
 30
0.0
 41
1.0
 10
938.39352606314981
 20
-1374.8019161461852
 30
0.0
 41
0.9998772614069083
 10
938.39218597641798
 20
-1374.8792192927531
 30
0.0
 41
1.0
 10
938.3920967132193
 20
-1374.8843684565845
 30
0.0
 41
1.0
 10
938.39200745002063
 20
-1374.889517620416
 30
0.0
 41
1.0
 10
938.39048883689145
 20
-1374.9771190946506
 30
0.0
 41
0.9999415567326905
 10
938.38707652664505
 20
-1375.0646672563362
 30
0.0
 41
1.0
 10
938.38683520596987
 20
-1375.070858716068
 30
0.0
 41
1.0
 10
938.38659388529481
 20
-1375.0770501758
 30
0.0
 41
1.0
 10
938.38269893369795
 20
-1375.1769812569587
 30
0.0
 41
0.9999716810434098
 10
938.37730035057973
 20
-1375.2768423951793
 30
0.0
 41
1.0
 10
938.37408755179104
 20
-1375.3362716448339
 30
0.0
 41
1.0
 10
938.37087475300245
 20
-1375.3957008944885
 30
0.0
 41
1.0
 10
938.36280084384975
 20
-1375.5450492957716
 30
0.0
 41
0.9999819129906373
 10
938.35293105223286
 20
-1375.6942897734855
 30
0.0
 41
1.0
 10
938.34306126061631
 20
-1375.8435302511969
 30
0.0
 41
1.0
 10
938.34062194005242
 20
-1375.8807232970462
 30
0.0
 41
1.0
 10
938.36332017388281
 20
-1375.8419822997175
 30
0.0
 41
0.9999982127994569
 10
938.38616473264733
 20
-1375.8033274057443
 30
0.0
 41
1.0
 10
938.41307429252788
 20
-1375.7577941916961
 30
0.0
 41
1.0
 10
938.43998385240855
 20
-1375.7122609776482
 30
0.0
 41
1.0
 10
938.51664753093405
 20
-1375.582539655579
 30
0.0
 41
0.9998609190057378
 10
938.59759484379663
 20
-1375.4554472736486
 30
0.0
 41
1.0
 10
938.6272431652792
 20
-1375.4088975406898
 30
0.0
 41
1.0
 10
938.65689148676188
 20
-1375.3623478077313
 30
0.0
 41
1.0
 10
938.7391637069984
 20
-1375.2331752377372
 30
0.0
 41
0.99990676097348
 10
938.82493271646081
 20
-1375.1062975482982
 30
0.0
 41
1.0
 10
938.82733741966047
 20
-1375.1027402822451
 30
0.0
 41
1.0
 10
938.82974212286013
 20
-1375.0991830161922
 30
0.0
 41
1.0
 10
938.91070172592117
 20
-1374.979419858862
 30
0.0
 41
0.9998784952150989
 10
938.99535533560618
 20
-1374.8622386421484
 30
0.0
 41
1.0
 10
939.08000894528686
 20
-1374.7450574254403
 30
0.0
 41
0.9998532968284253
 10
939.16862656610863
 20
-1374.6308445169711
 30
0.0
 41
1.0
 10
939.18858835510105
 20
-1374.6051171959493
 30
0.0
 41
1.0
 10
939.20855014409358
 20
-1374.5793898749273
 30
0.0
 41
1.0
 10
939.32703419385189
 20
-1374.4266842639599
 30
0.0
 41
0.9991551975795396
 10
939.45765864347482
 20
-1374.2842247018768
 30
0.0
 41
1.0
 10
939.46116825945319
 20
-1374.280397100254
 30
0.0
 41
1.0
 10
939.46467787543156
 20
-1374.2765694986313
 30
0.0
 41
1.0
 10
939.58828309309649
 20
-1374.1417651397951
 30
0.0
 41
0.9997418144181018
 10
939.71788523279884
 20
-1374.0127157291809
 30
0.0
 41
1.0
 10
939.84748737249879
 20
-1373.8836663185689
 30
0.0
 41
0.9989238204633436
 10
939.98848992074886
 20
-1373.7671813565307
 30
0.0
 41
1.0
 10
940.03373759888882
 20
-1373.7298013649215
 30
0.0
 41
1.0
 10
940.07898527702889
 20
-1373.6924213733125
 30
0.0
 41
1.0
 10
940.21922533425129
 20
-1373.5765663200209
 30
0.0
 41
0.9990825084096853
 10
940.36886526685498
 20
-1373.473137322188
 30
0.0
 41
1.0
 10
940.37891063090854
 20
-1373.4661941091108
 30
0.0
 41
1.0
 10
940.38895599496209
 20
-1373.4592508960336
 30
0.0
 41
1.0
 10
940.51850519945401
 20
-1373.3697083243583
 30
0.0
 41
0.9998164899825488
 10
940.65138940283521
 20
-1373.2851940828386
 30
0.0
 41
1.0
 10
940.6632349633619
 20
-1373.2776603163124
 30
0.0
 41
1.0
 10
940.67508052388871
 20
-1373.2701265497863
 30
0.0
 41
1.0
 10
940.78427360621254
 20
-1373.2006798413217
 30
0.0
 41
0.9997473449130691
 10
940.89647756346085
 20
-1373.1362108835067
 30
0.0
 41
1.0
 10
941.00868152070916
 20
-1373.0717419256916
 30
0.0
 41
0.9999327861147479
 10
941.12235013146881
 20
-1373.0098919340123
 30
0.0
 41
1.0
 10
941.12290213403207
 20
-1373.0095915753318
 30
0.0
 41
1.0
 10
941.12345413659523
 20
-1373.0092912166513
 30
0.0
 41
1.0
 10
941.23822675247948
 20
-1372.9468405076118
 30
0.0
 41
0.9996956420483157
 10
941.35594007832071
 20
-1372.8901270406363
 30
0.0
 41
1.0
 10
941.38638048321218
 20
-1372.8754610639071
 30
0.0
 41
1.0
 10
941.41682088810353
 20
-1372.8607950871778
 30
0.0
 41
1.0
 10
941.51979799484729
 20
-1372.8111814287342
 30
0.0
 41
0.9998070570175864
 10
941.6246443837905
 20
-1372.7656508418322
 30
0.0
 41
1.0
 10
941.72949077273347
 20
-1372.7201202549306
 30
0.0
 41
0.9997827436147611
 10
941.83614370934311
 20
-1372.6789990836187
 30
0.0
 41
1.0
 10
941.85536655897363
 20
-1372.6715875099867
 30
0.0
 41
1.0
 10
941.87458940860415
 20
-1372.6641759363547
 30
0.0
 41
1.0
 10
942.01968804447756
 20
-1372.6082316177778
 30
0.0
 41
0.9988031841976367
 10
942.16955840708204
 20
-1372.5667315536102
 30
0.0
 41
1.0
 10
942.19447565544601
 20
-1372.5598318078032
 30
0.0
 41
1.0
 10
942.2193929038101
 20
-1372.552932061996
 30
0.0
 41
1.0
 10
942.38666292945641
 20
-1372.5066139195894
 30
0.0
 41
0.9984748040550027
 10
942.55801983810409
 20
-1372.4790196873248
 30
0.0
 41
1.0
 10
942.56275897435319
 20
-1372.4782565268115
 30
0.0
 41
1.0
 10
942.56749811060229
 20
-1372.4774933662979
 30
0.0
 41
1.0
 10
942.72937674675313
 20
-1372.45142545506
 30
0.0
 41
0.9984436495479933
 10
942.89315149047775
 20
-1372.4435475012413
 30
0.0
 41
1.0
 10
942.91484869860903
 20
-1372.4425038140416
 30
0.0
 41
1.0
 10
942.93654590674032
 20
-1372.441460126842
 30
0.0
 41
1.0
 10
943.05692623420236
 20
-1372.4356695474225
 30
0.0
 41
0.9987954789335233
 10
943.17729447911233
 20
-1372.4417060751648
 30
0.0
 41
1.0
 10
943.19725927160812
 20
-1372.4427073195034
 30
0.0
 41
1.0
 10
943.21722406410402
 20
-1372.4437085638422
 30
0.0
 41
1.0
 10
943.29766272402367
 20
-1372.4477426029073
 30
0.0
 41
0.9997941595877502
 10
943.37787150211659
 20
-1372.4550366688281
 30
0.0
 41
1.0
 10
943.45808028021463
 20
-1372.4623307347497
 30
0.0
 41
0.9998589466236496
 10
943.53799882707324
 20
-1372.4723145892003
 30
0.0
 41
1.0
 10
943.57040502887787
 20
-1372.476362946119
 30
0.0
 41
1.0
 10
943.60281123068251
 20
-1372.4804113030377
 30
0.0
 41
1.0
 10
943.74754218115311
 20
-1372.498491871326
 30
0.0
 41
0.999349506324908
 10
943.89059342491794
 20
-1372.5269575810676
 30
0.0
 41
1.0
 10
943.92352712207162
 20
-1372.5335110442827
 30
0.0
 41
1.0
 10
943.95646081922541
 20
-1372.5400645074978
 30
0.0
 41
1.0
 10
944.0657546424286
 20
-1372.5618128416329
 30
0.0
 41
0.9996788715561211
 10
944.17380621438463
 20
-1372.5890706409959
 30
0.0
 41
1.0
 10
944.17586921692418
 20
-1372.589591067569
 30
0.0
 41
1.0
 10
944.17793221946386
 20
-1372.5901114941421
 30
0.0
 41
1.0
 10
944.28185778634179
 20
-1372.6163284403592
 30
0.0
 41
0.9995480654492639
 10
944.38402002157045
 20
-1372.6487433969833
 30
0.0
 41
1.0
 10
944.38570966369957
 20
-1372.6492795018971
 30
0.0
 41
1.0
 10
944.38739930582858
 20
-1372.6498156068112
 30
0.0
 41
1.0
 10
944.48618225679979
 20
-1372.6811583536078
 30
0.0
 41
0.9993867959456058
 10
944.58252941524245
 20
-1372.7193377228975
 30
0.0
 41
1.0
 10
944.58377236432659
 20
-1372.7198302647935
 30
0.0
 41
1.0
 10
944.58501531341074
 20
-1372.7203228066894
 30
0.0
 41
1.0
 10
944.67887657368453
 20
-1372.7575170921871
 30
0.0
 41
0.9992050256521701
 10
944.76947624871832
 20
-1372.802070991426
 30
0.0
 41
1.0
 10
944.77021093143173
 20
-1372.8024322838874
 30
0.0
 41
1.0
 10
944.77094561414515
 20
-1372.8027935763487
 30
0.0
 41
1.0
 10
944.86007592375256
 20
-1372.8466248906652
 30
0.0
 41
0.9990222350741896
 10
944.94498598514542
 20
-1372.898158158363
 30
0.0
 41
1.0
 10
944.94516987042812
 20
-1372.8982697612678
 30
0.0
 41
1.0
 10
944.9453537557107
 20
-1372.8983813641726
 30
0.0
 41
1.0
 10
945.02989604653862
 20
-1372.949691426061
 30
0.0
 41
0.9988642743805378
 10
945.10917058115797
 20
-1373.0088156135866
 30
0.0
 41
1.0
 10
945.18844511577777
 20
-1373.0679398011125
 30
0.0
 41
0.9987681233310948
 10
945.26146890005373
 20
-1373.1346304925132
 30
0.0
 41
1.0
 10
945.26179782801933
 20
-1373.1349308937272
 30
0.0
 41
1.0
 10
945.26212675598481
 20
-1373.1352312949411
 30
0.0
 41
1.0
 10
945.33580839619253
 20
-1373.2025227887702
 30
0.0
 41
0.9987496570898327
 10
945.40240220151964
 20
-1373.2768356028569
 30
0.0
 41
1.0
 10
945.4031743712801
 20
-1373.2776972762149
 30
0.0
 41
1.0
 10
945.40394654104057
 20
-1373.2785589495727
 30
0.0
 41
1.0
 10
945.47208468588769
 20
-1373.3545951103738
 30
0.0
 41
0.9988147669826568
 10
945.53250694011274
 20
-1373.4368961172163
 30
0.0
 41
1.0
 10
945.53362626619094
 20
-1373.4384207485696
 30
0.0
 41
1.0
 10
945.53474559226913
 20
-1373.4399453799226
 30
0.0
 41
1.0
 10
945.59740649865012
 20
-1373.5252956494712
 30
0.0
 41
0.9989452636216534
 10
945.65197341161115
 20
-1373.6160343386284
 30
0.0
 41
1.0
 10
945.6533221376967
 20
-1373.6182771196545
 30
0.0
 41
1.0
 10
945.65467086378226
 20
-1373.6205199006804
 30
0.0
 41
1.0
 10
945.71193522891508
 20
-1373.7157441518905
 30
0.0
 41
0.9991046436070149
 10
945.76094444223668
 20
-1373.8154685849161
 30
0.0
 41
1.0
 10
945.76240830382665
 20
-1373.8184472649887
 30
0.0
 41
1.0
 10
945.76387216541661
 20
-1373.821425945061
 30
0.0
 41
1.0
 10
945.81580910191849
 20
-1373.9271077382316
 30
0.0
 41
0.9992763831100686
 10
945.85956223047356
 20
-1374.0364318001875
 30
0.0
 41
1.0
 10
945.86104150013682
 20
-1374.040127987721
 30
0.0
 41
1.0
 10
945.86252076980008
 20
-1374.0438241752545
 30
0.0
 41
1.0
 10
945.90923243768202
 20
-1374.1605406122781
 30
0.0
 41
0.9994163472883417
 10
945.94786546887065
 20
-1374.2801742007389
 30
0.0
 41
1.0
 10
945.94910362111762
 20
-1374.2840083445224
 30
0.0
 41
1.0
 10
945.95034177336458
 20
-1374.2878424883058
 30
0.0
 41
1.0
 10
945.99022533438279
 20
-1374.4113485497871
 30
0.0
 41
0.9997268055890305
 10
946.02429339029436
 20
-1374.5365835817363
 30
0.0
 41
1.0
 10
946.02522357056341
 20
-1374.540002947843
 30
0.0
 41
1.0
 10
946.02615375083235
 20
-1374.5434223139498
 30
0.0
 41
1.0
 10
946.05836144620537
 20
-1374.6618186136823
 30
0.0
 41
0.9996701318999964
 10
946.08444706297678
 20
-1374.7817125669503
 30
0.0
 41
1.0
 10
946.11053267974671
 20
-1374.90160652021
 30
0.0
 41
0.9995785451109173
 10
946.12961625708647
 20
-1375.0228122812418
 30
0.0
 41
1.0
 10
946.13383603926059
 20
-1375.0496134360089
 30
0.0
 41
1.0
 10
946.13805582143459
 20
-1375.076414590776
 30
0.0
 41
1.0
 10
946.16463079737298
 20
-1375.2452005644782
 30
0.0
 41
0.9979925101216898
 10
946.16965638329941
 20
-1375.4159918925702
 30
0.0
 41
1.0
 10
946.17048119572405
 20
-1375.4440226160468
 30
0.0
 41
1.0
 10
946.17130600814858
 20
-1375.4720533395234
 30
0.0
 41
1.0
 10
946.17468196922607
 20
-1375.5867832206548
 30
0.0
 41
0.9995314902262715
 10
946.17103177708725
 20
-1375.7015047044138
 30
0.0
 41
1.0
 10
946.16738158494911
 20
-1375.8162261881623
 30
0.0
 41
0.9996245486943958
 10
946.15745248981807
 20
-1375.9305754592879
 30
0.0
 41
1.0
 10
946.15728944182376
 20
-1375.9324532154242
 30
0.0
 41
1.0
 10
946.15712639382946
 20
-1375.9343309715603
 30
0.0
 41
1.0
 10
946.14687120270935
 20
-1376.0524357549598
 30
0.0
 41
0.9997286095001247
 10
946.13112587913804
 20
-1376.1699346638538
 30
0.0
 41
1.0
 10
946.13073238648803
 20
-1376.1728710885536
 30
0.0
 41
1.0
 10
946.13033889383792
 20
-1376.1758075132532
 30
0.0
 41
1.0
 10
946.1138065849666
 20
-1376.2991792715475
 30
0.0
 41
0.9998265533969509
 10
946.09269112623451
 20
-1376.4218497463316
 30
0.0
 41
1.0
 10
946.09201458409666
 20
-1376.4257801248434
 30
0.0
 41
1.0
 10
946.09133804195881
 20
-1376.4297105033552
 30
0.0
 41
1.0
 10
946.06886949895124
 20
-1376.560241735162
 30
0.0
 41
0.9999022530854566
 10
946.04276003434097
 20
-1376.6900937038019
 30
0.0
 41
1.0
 10
946.04178139317605
 20
-1376.6949608461869
 30
0.0
 41
1.0
 10
946.04080275201125
 20
-1376.6998279885715
 30
0.0
 41
1.0
 10
946.01273600506909
 20
-1376.839414241992
 30
0.0
 41
0.9999524761934924
 10
945.98195303623277
 20
-1376.9784267351627
 30
0.0
 41
1.0
 10
945.98067692905875
 20
-1376.9841894944584
 30
0.0
 41
1.0
 10
945.97940082188484
 20
-1376.9899522537539
 30
0.0
 41
1.0
 10
945.9460656386982
 20
-1377.1404902655274
 30
0.0
 41
0.9999813588737747
 10
945.91089463790081
 20
-1377.2906099781899
 30
0.0
 41
1.0
 10
945.90934071244556
 20
-1377.2972425686069
 30
0.0
 41
1.0
 10
945.9077867869903
 20
-1377.3038751590238
 30
0.0
 41
1.0
 10
945.86950793528536
 20
-1377.4672600525073
 30
0.0
 41
0.9999955237628675
 10
945.83025205729962
 20
-1377.6304129561363
 30
0.0
 41
1.0
 10
945.8179704216659
 20
-1377.6814571466566
 30
0.0
 41
1.0
 10
945.80568878603208
 20
-1377.7325013371772
 30
0.0
 41
1.0
 10
945.74186963677914
 20
-1377.9977426218452
 30
0.0
 41
0.9999993604332911
 10
945.67745068963188
 20
-1378.2628388724434
 30
0.0
 41
1.0
 10
945.67273185407635
 20
-1378.2822577805189
 30
0.0
 41
1.0
 10
945.66801301852081
 20
-1378.3016766885944
 30
0.0
 41
1.0
 10
945.594156400261
 20
-1378.6056107553518
 30
0.0
 41
0.999965991472191
 10
945.51529680437613
 20
-1378.9082853019086
 30
0.0
 41
1.0
 10
945.51034411544492
 20
-1378.9272944390932
 30
0.0
 41
1.0
 10
945.50539142651382
 20
-1378.9463035762776
 30
0.0
 41
1.0
 10
945.4166264527704
 20
-1379.2869963971896
 30
0.0
 41
0.9999441976024506
 10
945.32068341980812
 20
-1379.6257378224846
 30
0.0
 41
1.0
 10
945.303982901381
 20
-1379.6847015350179
 30
0.0
 41
1.0
 10
945.28728238295389
 20
-1379.7436652475512
 30
0.0
 41
1.0
 10
945.15793831313897
 20
-1380.2003340979063
 30
0.0
 41
0.9999625120735777
 10
945.02070554581542
 20
-1380.6546946319029
 30
0.0
 41
1.0
 10
944.98491560273226
 20
-1380.7731906585304
 30
0.0
 41
1.0
 10
944.9491256596491
 20
-1380.891686685158
 30
0.0
 41
1.0
 10
944.87460545560907
 20
-1381.1384137632572
 30
0.0
 41
0.9999793386305091
 10
944.79691943247121
 20
-1381.3841624024938
 30
0.0
 41
1.0
 10
944.7192334093337
 20
-1381.6299110417299
 30
0.0
 41
1.0
 10
944.708453850463
 20
-1381.6639289461045
 30
0.0
 41
1.0
 10
942.85808079719391
 20
-1387.5510008685719
 30
0.0
 41
1.0
 10
941.0077077439247
 20
-1393.4380727910395
 30
0.0
 41
1.0
 10
940.04645105390114
 20
-1393.4380727910395
 30
0.0
 41
1.0
 10
939.08519436387758
 20
-1393.4380727910395
 30
0.0
 41
1.0
 10
940.70413914255596
 20
-1388.2900442892501
 30
0.0
 41
1.0
 10
942.32308392123446
 20
-1383.1420157874607
 30
0.0
 41
1.0
 10
942.36824974440469
 20
-1382.997984565204
 30
0.0
 41
1.0
 10
942.41341556757482
 20
-1382.8539533429473
 30
0.0
 41
1.0
 10
942.58371998493863
 20
-1382.3108623137816
 30
0.0
 41
0.999991165788255
 10
942.74945279662597
 20
-1381.7663587823947
 30
0.0
 41
1.0
 10
942.77914874012708
 20
-1381.6687948423421
 30
0.0
 41
1.0
 10
942.80884468362819
 20
-1381.5712309022895
 30
0.0
 41
1.0
 10
942.91518560830661
 20
-1381.2218552510299
 30
0.0
 41
0.9999952428160223
 10
943.01936919763125
 20
-1380.8718302266816
 30
0.0
 41
1.0
 10
943.02442866796468
 20
-1380.8548319524029
 30
0.0
 41
1.0
 10
943.02948813829823
 20
-1380.8378336781243
 30
0.0
 41
1.0
 10
943.12355278695372
 20
-1380.5218052023399
 30
0.0
 41
0.9999931687505125
 10
943.21527862482981
 20
-1380.2050899890614
 30
0.0
 41
1.0
 10
943.22021388928897
 20
-1380.1880492797914
 30
0.0
 41
1.0
 10
943.22514915374825
 20
-1380.1710085705213
 30
0.0
 41
1.0
 10
943.30700446270384
 20
-1379.8883747757895
 30
0.0
 41
0.9999893840823655
 10
943.3862516891603
 20
-1379.6049986465443
 30
0.0
 41
1.0
 10
943.4654989156154
 20
-1379.3216225173046
 30
0.0
 41
0.9999833980059574
 10
943.54147515635339
 20
-1379.0373519342897
 30
0.0
 41
1.0
 10
943.55047909307973
 20
-1379.0036630557961
 30
0.0
 41
1.0
 10
943.55948302980607
 20
-1378.9699741773027
 30
0.0
 41
1.0
 10
943.62844757867151
 20
-1378.7119383450099
 30
0.0
 41
0.9999233658066331
 10
943.69100254989064
 20
-1378.4522741862913
 30
0.0
 41
1.0
 10
943.75355752111091
 20
-1378.1926100275689
 30
0.0
 41
1.0
 10
943.79304093996848
 20
-1378.0288033631427
 30
0.0
 41
1.0
 10
943.79801954394748
 20
-1378.0081484012653
 30
0.0
 41
1.0
 10
943.80299814792636
 20
-1377.9874934393879
 30
0.0
 41
1.0
 10
943.83252435882855
 20
-1377.8649966987068
 30
0.0
 41
0.9999868670869415
 10
943.86079344282223
 20
-1377.7422037530712
 30
0.0
 41
1.0
 10
943.86469092998141
 20
-1377.725274165648
 30
0.0
 41
1.0
 10
943.86858841714059
 20
-1377.7083445782248
 30
0.0
 41
1.0
 10
943.88906252682125
 20
-1377.6194108074139
 30
0.0
 41
0.9999778173351102
 10
943.9083501249338
 20
-1377.5302121901952
 30
0.0
 41
1.0
 10
943.92763772305125
 20
-1377.4410135729549
 30
0.0
 41
0.9999602692864088
 10
943.94533208168252
 20
-1377.3514852845262
 30
0.0
 41
1.0
 10
943.94853591375886
 20
-1377.3352748296466
 30
0.0
 41
1.0
 10
943.95173974583531
 20
-1377.3190643747671
 30
0.0
 41
1.0
 10
943.9758417686221
 20
-1377.1971151765647
 30
0.0
 41
0.9995617985320554
 10
943.9926851158408
 20
-1377.073953428858
 30
0.0
 41
1.0
 10
943.99514960574652
 20
-1377.0559326114958
 30
0.0
 41
1.0
 10
943.99761409565224
 20
-1377.0379117941338
 30
0.0
 41
1.0
 10
944.0178973567007
 20
-1376.8895967444309
 30
0.0
 41
0.9991121410639861
 10
944.0256227102891
 20
-1376.7401006456248
 30
0.0
 41
1.0
 10
944.02654150031367
 20
-1376.7223208090484
 30
0.0
 41
1.0
 10
944.02746029033824
 20
-1376.7045409724719
 30
0.0
 41
1.0
 10
944.03334806387738
 20
-1376.5906045468182
 30
0.0
 41
0.9989792494905241
 10
944.02892897176002
 20
-1376.47660171092
 30
0.0
 41
1.0
 10
944.02828099989131
 20
-1376.4598854649921
 30
0.0
 41
1.0
 10
944.02763302802259
 20
-1376.4431692190642
 30
0.0
 41
1.0
 10
944.02450987964266
 20
-1376.3625988750209
 30
0.0
 41
0.9997820295393856
 10
944.01802588226701
 20
-1376.2822291532777
 30
0.0
 41
1.0
 10
944.01154188489136
 20
-1376.2018594315339
 30
0.0
 41
0.9998335105973902
 10
944.00212968937967
 20
-1376.1217798150842
 30
0.0
 41
1.0
 10
944.00053476470327
 20
-1376.1082100846008
 30
0.0
 41
1.0
 10
943.99893984002688
 20
-1376.0946403541175
 30
0.0
 41
1.0
 10
943.98633779516285
 20
-1375.987421276704
 30
0.0
 41
0.9996876457879258
 10
943.96839388236424
 20
-1375.8809658489861
 30
0.0
 41
1.0
 10
943.96616221921897
 20
-1375.8677261137443
 30
0.0
 41
1.0
 10
943.96393055607371
 20
-1375.8544863785025
 30
0.0
 41
1.0
 10
943.95013473465224
 20
-1375.7726402345418
 30
0.0
 41
0.9995547496494763
 10
943.93148141275992
 20
-1375.6917627373523
 30
0.0
 41
1.0
 10
943.93110745588865
 20
-1375.6901413266467
 30
0.0
 41
1.0
 10
943.93073349901726
 20
-1375.688519915941
 30
0.0
 41
1.0
 10
943.91282809086772
 20
-1375.6108852401628
 30
0.0
 41
0.9994899427175575
 10
943.89000318218791
 20
-1375.5345519573266
 30
0.0
 41
1.0
 10
943.88954465544703
 20
-1375.5330185075372
 30
0.0
 41
1.0
 10
943.88908612870603
 20
-1375.5314850577481
 30
0.0
 41
1.0
 10
943.8671782735089
 20
-1375.4582186744935
 30
0.0
 41
0.9993784877591198
 10
943.84016263840203
 20
-1375.3866779693333
 30
0.0
 41
1.0
 10
943.83963094742512
 20
-1375.3852699866127
 30
0.0
 41
1.0
 10
943.83909925644821
 20
-1375.3838620038921
 30
0.0
 41
1.0
 10
943.81314700329528
 20
-1375.3151372641737
 30
0.0
 41
0.9992430832254525
 10
943.78193046813612
 20
-1375.2486381121059
 30
0.0
 41
1.0
 10
943.7813483520797
 20
-1375.2473980569889
 30
0.0
 41
1.0
 10
943.78076623602328
 20
-1375.2461580018721
 30
0.0
 41
1.0
 10
943.75071393297708
 20
-1375.1821389600382
 30
0.0
 41
0.9990789632797902
 10
943.71528330620004
 20
-1375.1209323482881
 30
0.0
 41
1.0
 10
943.7146876000179
 20
-1375.1199032624286
 30
0.0
 41
1.0
 10
943.71409189383576
 20
-1375.1188741765693
 30
0.0
 41
1.0
 10
943.67985267942322
 20
-1375.059725736538
 30
0.0
 41
0.9988874801119577
 10
943.64019340339132
 20
-1375.0040660241207
 30
0.0
 41
1.0
 10
943.63963787732678
 20
-1375.0032863724455
 30
0.0
 41
1.0
 10
943.63908235126223
 20
-1375.0025067207705
 30
0.0
 41
1.0
 10
943.60053412735874
 20
-1374.948406311702
 30
0.0
 41
0.9986762060692644
 10
943.55663165608303
 20
-1374.8985525972635
 30
0.0
 41
1.0
 10
943.55618769575119
 20
-1374.8980484554472
 30
0.0
 41
1.0
 10
943.55574373541936
 20
-1374.897544313631
 30
0.0
 41
1.0
 10
943.5127291848072
 20
-1374.8486988828249
 30
0.0
 41
0.9984621642489411
 10
943.46457162802903
 20
-1374.8049155823533
 30
0.0
 41
1.0
 10
943.46432499351238
 20
-1374.8046913501898
 30
0.0
 41
1.0
 10
943.46407835899572
 20
-1374.8044671180262
 30
0.0
 41
1.0
 10
943.41641407125121
 20
-1374.7611322818821
 30
0.0
 41
0.9982724693850277
 10
943.36399543940979
 20
-1374.7236879313646
 30
0.0
 41
1.0
 10
943.31157680756803
 20
-1374.6862435808464
 30
0.0
 41
0.9981399180157394
 10
943.25499074417451
 20
-1374.655457061403
 30
0.0
 41
1.0
 10
943.25494508209636
 20
-1374.655432218246
 30
0.0
 41
1.0
 10
943.25489942001809
 20
-1374.655407375089
 30
0.0
 41
1.0
 10
943.19822203246781
 20
-1374.6245711693311
 30
0.0
 41
0.9980927086836943
 10
943.13817668140155
 20
-1374.6009543604787
 30
0.0
 41
1.0
 10
943.13773651168981
 20
-1374.6007812346038
 30
0.0
 41
1.0
 10
943.13729634197807
 20
-1374.6006081087287
 30
0.0
 41
1.0
 10
943.07637065148754
 20
-1374.576645048126
 30
0.0
 41
0.9981411356561379
 10
943.01298213008727
 20
-1374.5602724066202
 30
0.0
 41
1.0
 10
943.01210001338666
 20
-1374.560044564415
 30
0.0
 41
1.0
 10
943.01121789668605
 20
-1374.5598167222097
 30
0.0
 41
1.0
 10
942.94606514188501
 20
-1374.5429883962934
 30
0.0
 41
0.9983031812935299
 10
942.87939771289132
 20
-1374.5338490351173
 30
0.0
 41
1.0
 10
942.87052668748538
 20
-1374.5326329164457
 30
0.0
 41
1.0
 10
942.86165566207933
 20
-1374.531416797774
 30
0.0
 41
1.0
 10
942.80730601957623
 20
-1374.523966067783
 30
0.0
 41
0.9983887708263414
 10
942.75246217028428
 20
-1374.5227213941498
 30
0.0
 41
1.0
 10
942.74439876506869
 20
-1374.522538396275
 30
0.0
 41
1.0
 10
942.73633535985311
 20
-1374.5223553984001
 30
0.0
 41
1.0
 10
942.69761832099346
 20
-1374.5214767205166
 30
0.0
 41
0.9998869563078761
 10
942.65889236778878
 20
-1374.5217625898763
 30
0.0
 41
1.0
 10
942.62016641458081
 20
-1374.522048459236
 30
0.0
 41
0.9999972320124223
 10
942.58144223536431
 20
-1374.5225165587651
 30
0.0
 41
1.0
 10
942.56208921878988
 20
-1374.5227504988543
 30
0.0
 41
1.0
 10
942.54273620221534
 20
-1374.5229844389437
 30
0.0
 41
1.0
 10
942.46530598984828
 20
-1374.5239204186516
 30
0.0
 41
0.99973049450882
 10
942.38800268361433
 20
-1374.5284495124374
 30
0.0
 41
1.0
 10
942.37895304190647
 20
-1374.5289797184275
 30
0.0
 41
1.0
 10
942.3699034001985
 20
-1374.5295099244177
 30
0.0
 41
1.0
 10
942.27450081055349
 20
-1374.5350994301834
 30
0.0
 41
0.9997888306415969
 10
942.1794084747122
 20
-1374.5446043946722
 30
0.0
 41
1.0
 10
942.17068741313824
 20
-1374.5454761093044
 30
0.0
 41
1.0
 10
942.16196635156427
 20
-1374.5463478239367
 30
0.0
 41
1.0
 10
942.04943189257574
 20
-1374.5575962176902
 30
0.0
 41
0.9984170238191028
 10
941.93887274522422
 20
-1374.581412299626
 30
0.0
 41
1.0
 10
941.90249161423799
 20
-1374.5892493354322
 30
0.0
 41
1.0
 10
941.86611048325176
 20
-1374.5970863712382
 30
0.0
 41
1.0
 10
941.75091941483049
 20
-1374.6219002377477
 30
0.0
 41
0.9976592854199005
 10
941.64019124842548
 20
-1374.6621989148948
 30
0.0
 41
1.0
 10
941.52946308202092
 20
-1374.7024975920419
 30
0.0
 41
0.9993255074352395
 10
941.42199128323045
 20
-1374.7508144905341
 30
0.0
 41
1.0
 10
941.41736610430678
 20
-1374.752893866734
 30
0.0
 41
1.0
 10
941.4127409253831
 20
-1374.7549732429338
 30
0.0
 41
1.0
 10
941.29601876874676
 20
-1374.8074488938255
 30
0.0
 41
0.9976475078275494
 10
941.18757142443644
 20
-1374.8753968834837
 30
0.0
 41
1.0
 10
941.16922903030422
 20
-1374.8868893622966
 30
0.0
 41
1.0
 10
941.150886636172
 20
-1374.8983818411095
 30
0.0
 41
1.0
 10
941.06668444461741
 20
-1374.9511389618792
 30
0.0
 41
0.9995131336407285
 10
940.98593672965615
 20
-1375.0090451738349
 30
0.0
 41
1.0
 10
940.90518901469727
 20
-1375.0669513857893
 30
0.0
 41
0.9995810107606513
 10
940.82792736696695
 20
-1375.1294330682565
 30
0.0
 41
1.0
 10
940.82495733575843
 20
-1375.1318349397197
 30
0.0
 41
1.0
 10
940.82198730454979
 20
-1375.1342368111832
 30
0.0
 41
1.0
 10
940.73878559439936
 20
-1375.2015222365794
 30
0.0
 41
0.9996617837954935
 10
940.65919490726219
 20
-1375.273042692141
 30
0.0
 41
1.0
 10
940.64706415638625
 20
-1375.2839434251307
 30
0.0
 41
1.0
 10
940.63493340551031
 20
-1375.2948441581204
 30
0.0
 41
1.0
 10
940.56665787811323
 20
-1375.3561967735932
 30
0.0
 41
0.9997267750052307
 10
940.5013243698304
 20
-1375.4206733101178
 30
0.0
 41
1.0
 10
940.43599086154472
 20
-1375.4851498466451
 30
0.0
 41
0.9999667288956335
 10
940.37171791838898
 20
-1375.5506836535487
 30
0.0
 41
1.0
 10
940.30289047061933
 20
-1375.6208613123015
 30
0.0
 41
1.0
 10
940.2340630228498
 20
-1375.6910389710542
 30
0.0
 41
1.0
 10
940.03213518415043
 20
-1375.8969280954675
 30
0.0
 41
0.9988205335174498
 10
939.85112956717023
 20
-1376.1214323275296
 30
0.0
 41
1.0
 10
939.82048960226712
 20
-1376.1594355779575
 30
0.0
 41
1.0
 10
939.78984963736411
 20
-1376.1974388283854
 30
0.0
 41
1.0
 10
939.54756409057325
 20
-1376.4979495613081
 30
0.0
 41
0.9997077826755066
 10
939.32008613946664
 20
-1376.8098193555268
 30
0.0
 41
1.0
 10
939.31836272433782
 20
-1376.8121821389041
 30
0.0
 41
1.0
 10
939.31663930920899
 20
-1376.8145449222814
 30
0.0
 41
1.0
 10
939.08571452784224
 20
-1377.1311402832575
 30
0.0
 41
0.9989147567078731
 10
938.88525102495805
 20
-1377.4678497444438
 30
0.0
 41
1.0
 10
938.86050987965314
 20
-1377.5094063249928
 30
0.0
 41
1.0
 10
938.83576873434811
 20
-1377.5509629055418
 30
0.0
 41
1.0
 10
938.68055743570801
 20
-1377.8116642899995
 30
0.0
 41
0.9997476598181834
 10
938.53721244819849
 20
-1378.0790740385817
 30
0.0
 41
1.0
 10
938.39386746068885
 20
-1378.3464837871641
 30
0.0
 41
0.9996258967109621
 10
938.26535920875722
 20
-1378.6213317237882
 30
0.0
 41
1.0
 10
938.25215929930528
 20
-1378.6495631238886
 30
0.0
 41
1.0
 10
938.23895938985345
 20
-1378.6777945239887
 30
0.0
 41
1.0
 10
938.09875066885752
 20
-1378.9776669219336
 30
0.0
 41
0.9998735413946722
 10
937.96814932213738
 20
-1379.2818465214004
 30
0.0
 41
1.0
 10
937.96470649407797
 20
-1379.2898651068626
 30
0.0
 41
1.0
 10
937.96126366601868
 20
-1379.2978836923246
 30
0.0
 41
1.0
 10
937.83754797541678
 20
-1379.5860261208686
 30
0.0
 41
0.9999377418858403
 10
937.72029317324223
 20
-1379.8768575885433
 30
0.0
 41
1.0
 10
937.60303837106585
 20
-1380.1676890562221
 30
0.0
 41
0.9999508299510196
 10
937.49157442768887
 20
-1380.4607887330428
 30
0.0
 41
1.0
 10
937.48849365902686
 20
-1380.4688897590054
 30
0.0
 41
1.0
 10
937.48541289036484
 20
-1380.4769907849682
 30
0.0
 41
1.0
 10
937.3677874096627
 20
-1380.7862925137167
 30
0.0
 41
0.9999609228431943
 10
937.2556488067878
 20
-1381.0976255297346
 30
0.0
 41
1.0
 10
937.25269279643851
 20
-1381.1058323701432
 30
0.0
 41
1.0
 10
937.24973678608922
 20
-1381.1140392105517
 30
0.0
 41
1.0
 10
937.13168616252074
 20
-1381.4417859073733
 30
0.0
 41
0.9999674607398844
 10
937.01893863645125
 20
-1381.7713945273713
 30
0.0
 41
1.0
 10
936.96754024588631
 20
-1381.9216537230704
 30
0.0
 41
1.0
 10
936.91614185532126
 20
-1382.0719129187698
 30
0.0
 41
1.0
 10
936.80013124856396
 20
-1382.411060901271
 30
0.0
 41
0.9999287532305496
 10
936.69224984459424
 20
-1382.7528816402441
 30
0.0
 41
1.0
 10
936.64577258847737
 20
-1382.9001441845444
 30
0.0
 41
1.0
 10
936.5992953323605
 20
-1383.0474067288449
 30
0.0
 41
1.0
 10
936.58436844063885
 20
-1383.0947023791714
 30
0.0
 41
0.9999998222956358
 10
936.56949793189301
 20
-1383.1420157874607
 30
0.0
 41
1.0
 10
934.94884179509756
 20
-1388.2900442892501
 30
0.0
 41
1.0
 10
933.32818565830212
 20
-1393.4380727910395
 30
0.0
 41
1.0
 10
932.42287721441119
 20
-1393.4380727910395
 30
0.0
 41
1.0
 10
931.51756877052026
 20
-1393.4380727910395
 30
0.0
 41
1.0
 10
933.3696531819063
 20
-1387.5510008685719
 30
0.0
 41
1.0
 10
935.22173759329235
 20
-1381.6639289461045
 30
0.0
 41
1.0
 10
935.23185935159506
 20
-1381.6318857326548
 30
0.0
 41
1.0
 10
935.3044670204448
 20
-1381.401586190829
 30
0.0
 41
1.0
 10
935.37707468928966
 20
-1381.1712866490188
 30
0.0
 41
0.9999825681973007
 10
935.44695772850241
 20
-1380.9401457539502
 30
0.0
 41
1.0
 10
935.49524879066519
 20
-1380.7804211704477
 30
0.0
 41
1.0
 10
935.54353985282796
 20
-1380.6206965869451
 30
0.0
 41
1.0
 10
935.64069220614408
 20
-1380.2993613651734
 30
0.0
 41
0.9999672528959805
 10
935.7326310117669
 20
-1379.9764958195883
 30
0.0
 41
1.0
 10
935.73541989543469
 20
-1379.9667019742051
 30
0.0
 41
1.0
 10
935.73820877910248
 20
-1379.9569081288221
 30
0.0
 41
1.0
 10
935.82456981738926
 20
-1379.6536302740058
 30
0.0
 41
0.9999899749175409
 10
935.90821142692494
 20
-1379.3495911855493
 30
0.0
 41
1.0
 10
935.91831734594075
 20
-1379.3128559478773
 30
0.0
 41
1.0
 10
935.92842326495656
 20
-1379.2761207102053
 30
0.0
 41
1.0
 10
935.99185303645743
 20
-1379.0455520971054
 30
0.0
 41
0.9999214200502784
 10
936.04948246483741
 20
-1378.8134657548876
 30
0.0
 41
1.0
 10
936.06224831702173
 20
-1378.7620548694763
 30
0.0
 41
1.0
 10
936.07501416920604
 20
-1378.7106439840647
 30
0.0
 41
1.0
 10
936.10711189322069
 20
-1378.5813794126557
 30
0.0
 41
0.9999828681658809
 10
936.1376941452105
 20
-1378.4517479382109
 30
0.0
 41
1.0
 10
936.16827639720566
 20
-1378.3221164637453
 30
0.0
 41
0.9999389844479769
 10
936.1959873859945
 20
-1378.1918410078467
 30
0.0
 41
1.0
 10
936.20312512971509
 20
-1378.1582849040078
 30
0.0
 41
1.0
 10
936.21026287343557
 20
-1378.1247288001687
 30
0.0
 41
1.0
 10
936.25224934966468
 20
-1377.9273411365959
 30
0.0
 41
0.9998933699440634
 10
936.28845361406809
 20
-1377.7288115288318
 30
0.0
 41
1.0
 10
936.28982643928407
 20
-1377.7212835081368
 30
0.0
 41
1.0
 10
936.29119926450016
 20
-1377.7137554874419
 30
0.0
 41
1.0
 10
936.33014917933497
 20
-1377.500169838291
 30
0.0
 41
0.9996850305193886
 10
936.35833285559352
 20
-1377.2848988328556
 30
0.0
 41
1.0
 10
936.36032788896273
 20
-1377.2696604787347
 30
0.0
 41
1.0
 10
936.36232292233183
 20
-1377.2544221246142
 30
0.0
 41
1.0
 10
936.38973078479091
 20
-1377.0450768974588
 30
0.0
 41
0.9994697936707095
 10
936.40345534401104
 20
-1376.8343917021243
 30
0.0
 41
1.0
 10
936.40393241326069
 20
-1376.8270682299139
 30
0.0
 41
1.0
 10
936.40440948251035
 20
-1376.8197447577038
 30
0.0
 41
1.0
 10
936.4171799032307
 20
-1376.6237065067944
 30
0.0
 41
0.9991804893136803
 10
936.41405158695784
 20
-1376.42727765682
 30
0.0
 41
1.0
 10
936.41396770813571
 20
-1376.4220108554073
 30
0.0
 41
1.0
 10
936.41388382931359
 20
-1376.4167440539943
 30
0.0
 41
1.0
 10
936.41092327068509
 20
-1376.2308488068463
 30
0.0
 41
0.9988448329321524
 10
936.39013172506134
 20
-1376.0460962170132
 30
0.0
 41
1.0
 10
936.38853765135832
 20
-1376.031931361242
 30
0.0
 41
1.0
 10
936.3869435776553
 20
-1376.0177665054707
 30
0.0
 41
1.0
 10
936.36934017943759
 20
-1375.8613436271798
 30
0.0
 41
0.9985503209458704
 10
936.33502390713807
 20
-1375.7077194430906
 30
0.0
 41
1.0
 10
936.32743791506732
 20
-1375.6737591156921
 30
0.0
 41
1.0
 10
936.31985192299646
 20
-1375.6397987882938
 30
0.0
 41
1.0
 10
936.30070763483911
 20
-1375.5540952590043
 30
0.0
 41
0.999103678137127
 10
936.2743827731872
 20
-1375.4703181716764
 30
0.0
 41
1.0
 10
936.27040054773101
 20
-1375.4576450091652
 30
0.0
 41
1.0
 10
936.26641832227483
 20
-1375.444971846654
 30
0.0
 41
1.0
 10
936.24805791153585
 20
-1375.3865410843507
 30
0.0
 41
0.9998874504367591
 10
936.22795270385768
 20
-1375.3286874821281
 30
0.0
 41
1.0
 10
936.2078474961794
 20
-1375.270833879905
 30
0.0
 41
0.9994041637543277
 10
936.18379888324512
 20
-1375.2145051760156
 30
0.0
 41
1.0
 10
936.17960209902094
 20
-1375.2046751115331
 30
0.0
 41
1.0
 10
936.17540531479665
 20
-1375.1948450470506
 30
0.0
 41
1.0
 10
936.14752648380227
 20
-1375.1295448810838
 30
0.0
 41
0.999184684070209
 10
936.11447012710926
 20
-1375.0667068498037
 30
0.0
 41
1.0
 10
936.11333352071415
 20
-1375.0645462333491
 30
0.0
 41
1.0
 10
936.11219691431916
 20
-1375.0623856168943
 30
0.0
 41
1.0
 10
936.08141377041625
 20
-1375.0038688185234
 30
0.0
 41
0.9989253167921961
 10
936.04534434636116
 20
-1374.9484538901334
 30
0.0
 41
1.0
 10
936.04429022168654
 20
-1374.9468343953704
 30
0.0
 41
1.0
 10
936.04323609701191
 20
-1374.9452149006077
 30
0.0
 41
1.0
 10
936.00927492230596
 20
-1374.8930389617426
 30
0.0
 41
0.9986467172835372
 10
935.97007776966893
 20
-1374.8446729281136
 30
0.0
 41
1.0
 10
935.96920364096763
 20
-1374.8435943258346
 30
0.0
 41
1.0
 10
935.96832951226645
 20
-1374.8425157235558
 30
0.0
 41
1.0
 10
935.93088061703031
 20
-1374.7963068944825
 30
0.0
 41
0.9984001104267284
 10
935.8884538865143
 20
-1374.754621787115
 30
0.0
 41
1.0
 10
935.8878667484048
 20
-1374.7540449122337
 30
0.0
 41
1.0
 10
935.88727961029542
 20
-1374.7534680373524
 30
0.0
 41
1.0
 10
935.84602715599658
 20
-1374.7129366797458
 30
0.0
 41
0.9982442159082056
 10
935.80027105466161
 20
-1374.6775681184861
 30
0.0
 41
1.0
 10
935.80005625919955
 20
-1374.6774020858427
 30
0.0
 41
1.0
 10
935.79984146373749
 20
-1374.6772360531993
 30
0.0
 41
1.0
 10
935.75451495332561
 20
-1374.6421995572257
 30
0.0
 41
0.9982450060835437
 10
935.70536397425417
 20
-1374.6127677741924
 30
0.0
 41
1.0
 10
935.65621299518295
 20
-1374.5833359911592
 30
0.0
 41
0.998392263963522
 10
935.60404668901754
 20
-1374.5596563565045
 30
0.0
 41
1.0
 10
935.60381981169303
 20
-1374.5595533710232
 30
0.0
 41
1.0
 10
935.60359293436863
 20
-1374.5594503855418
 30
0.0
 41
1.0
 10
935.55097287355488
 20
-1374.5355647799249
 30
0.0
 41
0.998651714715001
 10
935.49615990068673
 20
-1374.5172636608031
 30
0.0
 41
1.0
 10
935.49548197925901
 20
-1374.5170373143717
 30
0.0
 41
1.0
 10
935.49480405783129
 20
-1374.5168109679403
 30
0.0
 41
1.0
 10
935.43863524210644
 20
-1374.4980571559552
 30
0.0
 41
0.9989435598956151
 10
935.38098185495323
 20
-1374.4845394537203
 30
0.0
 41
1.0
 10
935.37990173537298
 20
-1374.4842862034677
 30
0.0
 41
1.0
 10
935.37882161579273
 20
-1374.4840329532151
 30
0.0
 41
1.0
 10
935.31900798947822
 20
-1374.4700087504746
 30
0.0
 41
0.9992249241239819
 10
935.25827648058089
 20
-1374.4607334077596
 30
0.0
 41
1.0
 10
935.25686279228967
 20
-1374.4605174993517
 30
0.0
 41
1.0
 10
935.25544910399856
 20
-1374.4603015909438
 30
0.0
 41
1.0
 10
935.19189021852048
 20
-1374.450594431413
 30
0.0
 41
0.9994396597833773
 10
935.12782428198466
 20
-1374.4451615090672
 30
0.0
 41
1.0
 10
935.10868361450559
 20
-1374.4435383413484
 30
0.0
 41
1.0
 10
935.08954294702653
 20
-1374.4419151736297
 30
0.0
 41
1.0
 10
934.98719567553383
 20
-1374.4332359158468
 30
0.0
 41
0.9987693403121468
 10
934.88449205194672
 20
-1374.4347389792995
 30
0.0
 41
1.0
 10
934.87423771772069
 20
-1374.4348890510737
 30
0.0
 41
1.0
 10
934.86398338349477
 20
-1374.4350391228479
 30
0.0
 41
1.0
 10
934.75442761731483
 20
-1374.4366424671352
 30
0.0
 41
0.9989753644966377
 10
934.64546561729708
 20
-1374.4481454740603
 30
0.0
 41
1.0
 10
934.53650361728069
 20
-1374.4596484809856
 30
0.0
 41
0.9983190067306238
 10
934.42960480631621
 20
-1374.4836834727723
 30
0.0
 41
1.0
 10
934.42070385470925
 20
-1374.4856847513352
 30
0.0
 41
1.0
 10
934.41180290310217
 20
-1374.4876860298978
 30
0.0
 41
1.0
 10
934.28710218892525
 20
-1374.5157235788095
 30
0.0
 41
0.9985539388303673
 10
934.16613243524841
 20
-1374.5569872548544
 30
0.0
 41
1.0
 10
934.16378700428686
 20
-1374.5577872986707
 30
0.0
 41
1.0
 10
934.16144157332519
 20
-1374.558587342487
 30
0.0
 41
1.0
 10
934.03578095772582
 20
-1374.6014511061646
 30
0.0
 41
0.9988468746493592
 10
933.91481061542436
 20
-1374.6561691912277
 30
0.0
 41
1.0
 10
933.91162779343665
 20
-1374.6576088657871
 30
0.0
 41
1.0
 10
933.90844497144894
 20
-1374.6590485403467
 30
0.0
 41
1.0
 10
933.7811089851715
 20
-1374.7166459745288
 30
0.0
 41
0.9991322885919013
 10
933.65900840111556
 20
-1374.7846413067102
 30
0.0
 41
1.0
 10
933.64140639007053
 20
-1374.7944435087006
 30
0.0
 41
1.0
 10
933.6238043790255
 20
-1374.804245710691
 30
0.0
 41
1.0
 10
933.52162769796894
 20
-1374.8611458264713
 30
0.0
 41
0.9993860037849071
 10
933.423686693896
 20
-1374.9250618420597
 30
0.0
 41
1.0
 10
933.41806838104367
 20
-1374.9287283367546
 30
0.0
 41
1.0
 10
933.41245006819133
 20
-1374.9323948314495
 30
0.0
 41
1.0
 10
933.32574568982091
 20
-1374.9889778576494
 30
0.0
 41
0.9998821494952946
 10
933.24081931400974
 20
-1375.048196087725
 30
0.0
 41
1.0
 10
933.15589293819937
 20
-1375.1074143178
 30
0.0
 41
0.9997976482743735
 10
933.07341730780047
 20
-1375.170000725838
 30
0.0
 41
1.0
 10
933.058781042992
 20
-1375.1811074156205
 30
0.0
 41
1.0
 10
933.04414477818352
 20
-1375.1922141054031
 30
0.0
 41
1.0
 10
932.93239661816938
 20
-1375.277013893005
 30
0.0
 41
0.999809163080035
 10
932.82404634014154
 20
-1375.3661142437068
 30
0.0
 41
1.0
 10
932.81104058766459
 20
-1375.3768093441524
 30
0.0
 41
1.0
 10
932.79803483518776
 20
-1375.3875044445981
 30
0.0
 41
1.0
 10
932.66367305220672
 20
-1375.4979949961905
 30
0.0
 41
0.9995035112317322
 10
932.53653717444615
 20
-1375.6167288132026
 30
0.0
 41
1.0
 10
932.52688986405678
 20
-1375.6257385593626
 30
0.0
 41
1.0
 10
932.5172425536673
 20
-1375.6347483055224
 30
0.0
 41
1.0
 10
932.39381949090239
 20
-1375.7500146772779
 30
0.0
 41
0.9994630424299179
 10
932.2782110851183
 20
-1375.8731174205132
 30
0.0
 41
1.0
 10
932.27452824634543
 20
-1375.8770390000277
 30
0.0
 41
1.0
 10
932.27084540757244
 20
-1375.8809605795425
 30
0.0
 41
1.0
 10
932.16260267933308
 20
-1375.9962201637497
 30
0.0
 41
0.9995160693750003
 10
932.06173664980236
 20
-1376.117987581621
 30
0.0
 41
1.0
 10
932.05980292972254
 20
-1376.1203220058283
 30
0.0
 41
1.0
 10
932.0578692096426
 20
-1376.1226564300352
 30
0.0
 41
1.0
 10
931.96087062027175
 20
-1376.2397549994919
 30
0.0
 41
0.999656147051488
 10
931.87014440160453
 20
-1376.3617777619427
 30
0.0
 41
1.0
 10
931.8639867356992
 20
-1376.3700595509895
 30
0.0
 41
1.0
 10
931.85782906979398
 20
-1376.3783413400361
 30
0.0
 41
1.0
 10
931.77941818293493
 20
-1376.4838005243969
 30
0.0
 41
0.999834905517257
 10
931.70489090100637
 20
-1376.5920391080554
 30
0.0
 41
1.0
 10
931.63036361908121
 20
-1376.7002776917086
 30
0.0
 41
0.9999728109567746
 10
931.55744072317952
 20
-1376.8096036172506
 30
0.0
 41
1.0
 10
931.55612550776004
 20
-1376.8115753867646
 30
0.0
 41
1.0
 10
931.55481029234056
 20
-1376.8135471562789
 30
0.0
 41
1.0
 10
931.47925696559821
 20
-1376.9268166208522
 30
0.0
 41
0.9999972147275646
 10
931.40423915521956
 20
-1377.0404414636953
 30
0.0
 41
1.0
 10
931.39926761260381
 20
-1377.0479715521574
 30
0.0
 41
1.0
 10
931.39429606998817
 20
-1377.0555016406197
 30
0.0
 41
1.0
 10
931.30933517437586
 20
-1377.1841866603902
 30
0.0
 41
0.9999371979005065
 10
931.22727982497884
 20
-1377.3147435741557
 30
0.0
 41
1.0
 10
931.22377094060994
 20
-1377.3203265022321
 30
0.0
 41
1.0
 10
931.22026205624115
 20
-1377.3259094303082
 30
0.0
 41
1.0
 10
931.13118893810929
 20
-1377.4676322002222
 30
0.0
 41
0.9998272025610072
 10
931.0474455472264
 20
-1377.6125680769662
 30
0.0
 41
1.0
 10
931.03223037520434
 20
-1377.6389011914193
 30
0.0
 41
1.0
 10
931.01701520318238
 20
-1377.6652343058727
 30
0.0
 41
1.0
 10
930.9028414682532
 20
-1377.862836411527
 30
0.0
 41
0.9995217214838156
 10
930.80110177869676
 20
-1378.0671187393903
 30
0.0
 41
1.0
 10
930.79345821606125
 20
-1378.0824661890942
 30
0.0
 41
1.0
 10
930.78581465342575
 20
-1378.097813638798
 30
0.0
 41
1.0
 10
930.69890936083539
 20
-1378.2723100968808
 30
0.0
 41
0.9998269762607489
 10
930.6185548945648
 20
-1378.4499183836012
 30
0.0
 41
1.0
 10
930.53820042829489
 20
-1378.6275266703203
 30
0.0
 41
0.9998944747388798
 10
930.4630396337318
 20
-1378.807394395945
 30
0.0
 41
1.0
 10
930.45808596413849
 20
-1378.8192490508673
 30
0.0
 41
1.0
 10
930.4531322945453
 20
-1378.8311037057897
 30
0.0
 41
1.0
 10
930.37248523399069
 20
-1379.0241006458127
 30
0.0
 41
0.9999506734408782
 10
930.29568770508899
 20
-1379.2186614506641
 30
0.0
 41
1.0
 10
930.28108773981285
 20
-1379.2556493724833
 30
0.0
 41
1.0
 10
930.26648777453659
 20
-1379.2926372943027
 30
0.0
 41
1.0
 10
930.21889017618219
 20
-1379.413222255529
 30
0.0
 41
0.9999912393946779
 10
930.17230373216285
 20
-1379.5342014582161
 30
0.0
 41
1.0
 10
930.12571728813919
 20
-1379.655180660915
 30
0.0
 41
0.9999927113991551
 10
930.08005599374542
 20
-1379.776512068416
 30
0.0
 41
1.0
 10
930.06608756234812
 20
-1379.813629050414
 30
0.0
 41
1.0
 10
930.05211913095081
 20
-1379.8507460324117
 30
0.0
 41
1.0
 10
929.97852097376142
 20
-1380.0463114039105
 30
0.0
 41
0.9999487550950048
 10
929.90889734879408
 20
-1380.243326769081
 30
0.0
 41
1.0
 10
929.88530373885351
 20
-1380.3100900793843
 30
0.0
 41
1.0
 10
929.86171012891282
 20
-1380.3768533896878
 30
0.0
 41
1.0
 10
929.76702449454433
 20
-1380.6447872245067
 30
0.0
 41
0.9999808436937928
 10
929.67566290590366
 20
-1380.913872655769
 30
0.0
 41
1.0
 10
929.58430131725902
 20
-1381.1829580870431
 30
0.0
 41
0.999987393292162
 10
929.49564660854469
 20
-1381.4529474420451
 30
0.0
 41
1.0
 10
929.47555425167502
 20
-1381.5141367747988
 30
0.0
 41
1.0
 10
929.45546189480547
 20
-1381.5753261075527
 30
0.0
 41
1.0
 10
929.32662247234975
 20
-1381.9676941280684
 30
0.0
 41
0.9999794883025784
 10
929.20281968739141
 20
-1382.3616803343466
 30
0.0
 41
1.0
 10
929.19166742795414
 20
-1382.397170944583
 30
0.0
 41
1.0
 10
929.18051516851688
 20
-1382.4326615548193
 30
0.0
 41
1.0
 10
929.03795700462047
 20
-1382.8863343069024
 30
0.0
 41
0.999998276168228
 10
928.89708456460289
 20
-1383.340533329033
 30
0.0
 41
1.0
 10
927.30894423203029
 20
-1388.3893030600361
 30
0.0
 41
1.0
 10
925.72080389945768
 20
-1393.4380727910395
 30
0.0
 41
1.0
 10
924.77205328798129
 20
-1393.4380727910395
 30
0.0
 41
1.0
 10
923.82330267650491
 20
-1393.4380727910395
 30
0.0
 41
1.0
 10
927.06158716265804
 20
-1383.1107505910934
 30
0.0
 41
1.0
 10
930.29987164881129
 20
-1372.7834283911473
 30
0.0
 41
1.0
  0
LWPOLYLINE
  5
5F
100
AcDbEntity
  8
0
370
              15
390
0
  6
Continuous
 62
               7
100
AcDbPolyline
 90
      232
 70
             128
 10
904.59632587498425
 20
-1373.8677712226624
 42
0.000437080068672
 10
904.54344870090802
 20
-1373.9364378619239
 10
904.50416446978477
 20
-1373.9875449748151
 42
0.0030481992175739
 10
904.37382575265565
 20
-1374.1592666671727
 10
904.33531408091517
 20
-1374.2106534509476
 42
0.0042058245754892
 10
904.13132903024484
 20
-1374.4876591960219
 10
904.07892390774464
 20
-1374.5600920428019
 42
0.0120948898743192
 10
903.78287999098518
 20
-1374.9908416473481
 10
903.68668749185622
 20
-1375.1383223825837
 42
0.0141601263949725
 10
903.38304344493929
 20
-1375.6339917193113
 10
903.34350617751534
 20
-1375.7028356867397
 42
0.0071131081299427
 10
903.13823385427486
 20
-1376.0723384855812
 42
0.0068458791003174
 10
902.94335432742503
 20
-1376.4474300490706
 10
902.93654246497408
 20
-1376.4609917627808
 42
0.0064120880286279
 10
902.73840021493595
 20
-1376.8684162376867
 10
902.73086552941277
 20
-1376.8844280944211
 42
0.0058857236449179
 10
902.52811013754115
 20
-1377.3288042054558
 10
902.51993521124712
 20
-1377.34729435909
 42
0.0053189741894369
 10
902.31123089857567
 20
-1377.8332578330173
 10
902.30248309289823
 20
-1377.8542397112042
 42
0.0047503650418229
 10
902.08650936674837
 20
-1378.3864391444115
 10
902.07724111839934
 20
-1378.4099155205217
 42
0.0042071762170169
 10
901.85269373467349
 20
-1378.9930091145864
 10
901.84294433232299
 20
-1379.0189752894612
 42
0.0036680086484977
 10
901.60848968900757
 20
-1379.6576106740015
 10
901.59828190916312
 20
-1379.6860592083367
 42
0.0032573142627019
 10
901.35264962318979
 20
-1380.3849118681092
 10
901.28399910235566
 20
-1380.5843749521432
 42
0.0026133366648819
 10
900.93555390359779
 20
-1381.614238235815
 10
900.87229711609723
 20
-1381.8044690712077
 42
0.0020592950740407
 10
900.65843404712996
 20
-1382.4565727238212
 10
900.65538225597174
 20
-1382.4660092122156
 42
0.0025609928536041
 10
900.45356175448103
 20
-1383.1011544345968
 10
900.45097038735139
 20
-1383.1094567755467
 42
0.003136235624023
 10
900.26147960167737
 20
-1383.7302196317169
 10
900.2593485587447
 20
-1383.7373609379454
 42
0.003722991802947
 10
900.08254817182365
 20
-1384.3463462399022
 10
900.08086958262231
 20
-1384.3522931300586
 42
0.004307762370812
 10
899.91712878055216
 20
-1384.9521118618454
 42
0.0047654161822918
 10
899.76430005803491
 20
-1385.5547979507533
 10
899.72983544919703
 20
-1385.6963597278977
 42
0.0112969368444821
 10
899.53397109105401
 20
-1386.5880518885192
 10
899.50596470195683
 20
-1386.7308799346197
 42
0.0130056762572012
 10
899.30512745831015
 20
-1387.9178210062646
 10
899.28458770816314
 20
-1388.0618991197409
 42
0.013872153214435
 10
899.18088470362522
 20
-1388.9687286055673
 10
899.16158921571764
 20
-1389.1922263274882
 42
0.0071254697007628
 10
899.12824256979479
 20
-1389.6554133363397
 10
899.12328159563106
 20
-1389.7414173309071
 42
0.0028881799200266
 10
899.10814330234166
 20
-1390.0331590407422
 42
0.006029729713342
 10
899.09821110256621
 20
-1390.3251079768513
 10
899.09714882089895
 20
-1390.373500348793
 42
0.0229523164159499
 10
899.10487984868473
 20
-1390.6962551950737
 10
899.10910562220488
 20
-1390.7566587290873
 42
0.0123673300669651
 10
899.12818426872343
 20
-1390.9577794542647
 42
0.0128577674471499
 10
899.15737965912945
 20
-1391.15767730419
 10
899.16450553251673
 20
-1391.1990061187885
 42
0.028571785376387
 10
899.22899953421245
 20
-1391.477122270102
 10
899.24266805787863
 20
-1391.5237770395781
 42
0.031628309915651
 10
899.35847863779304
 20
-1391.8427915414049
 10
899.36152732954861
 20
-1391.8497779137306
 42
0.0338984824238197
 10
899.51095904051579
 20
-1392.1373438779196
 10
899.51326776988617
 20
-1392.1411349071964
 42
0.0350228718357741
 10
899.69562806055922
 20
-1392.3981868918725
 10
899.6965133123341
 20
-1392.3992659696364
 42
0.0347476747524966
 10
899.91093799957434
 20
-1392.6264510168567
 42
0.0331337701912438
 10
900.15418132532056
 20
-1392.8225796789336
 10
900.15528142383687
 20
-1392.8233523821063
 42
0.0305233319079946
 10
900.42382611940991
 20
-1392.9884805521976
 10
900.4270561639114
 20
-1392.9902045640606
 42
0.0273744481151985
 10
900.71960987548573
 20
-1393.1263427079509
 10
900.72471441062328
 20
-1393.1283862924206
 42
0.0240964406194192
 10
901.04019148626662
 20
-1393.2373700187013
 10
901.04677481547901
 20
-1393.2392947583771
 42
0.0209636179811545
 10
901.38417496813429
 20
-1393.3227629063097
 10
901.39180742858025
 20
-1393.3243148193105
 42
0.0181388704692253
 10
901.75012982057876
 20
-1393.3837309125245
 10
901.75841066895691
 20
-1393.3847970963416
 42
0.0156086547586099
 10
902.13659803314579
 20
-1393.4215332829183
 10
902.17979328547779
 20
-1393.4243717853974
 42
0.0137148329024564
 10
902.50746643077161
 20
-1393.4368920406487
 10
902.55340262070911
 20
-1393.4373864737638
 42
0.0051057823885116
 10
902.78954820728984
 20
-1393.4375167281728
 42
0.0052256693316559
 10
903.02564549107444
 20
-1393.4327679037085
 10
903.09587227481791
 20
-1393.4306209376946
 42
0.0161507179048285
 10
903.47160935291924
 20
-1393.406970567368
 10
903.49162231329228
 20
-1393.4050603720805
 42
0.0101216737832246
 10
903.90564953478167
 20
-1393.3570674417151
 10
903.93970282420969
 20
-1393.3524197449053
 42
0.0245291776398438
 10
904.41649247976136
 20
-1393.263344666829
 10
904.50131579528636
 20
-1393.2431487464828
 42
0.0143509212558649
 10
904.85794689922443
 20
-1393.1473441127046
 42
0.0156557857036023
 10
905.20816296395299
 20
-1393.0303328968853
 10
905.21566417844633
 20
-1393.0275627351316
 42
0.0170137333631044
 10
905.57226017413097
 20
-1392.8819051202588
 10
905.57936409653519
 20
-1392.8787172846967
 42
0.018310536441182
 10
905.93871376469951
 20
-1392.7013822428733
 10
905.94566052934022
 20
-1392.6976318080001
 42
0.0194899958151807
 10
906.30414127031997
 20
-1392.4856528261121
 10
906.31115514966086
 20
-1392.4811274838144
 42
0.020486985295494
 10
906.66516945175636
 20
-1392.2316074687274
 10
906.67243506034185
 20
-1392.2260274033802
 42
0.0212516938554647
 10
907.01842499144493
 20
-1391.9361234064902
 10
907.0649416855257
 20
-1391.8936560963919
 42
0.0215248918249256
 10
907.32496785441322
 20
-1391.6348918173976
 10
907.36999758879153
 20
-1391.5860476960502
 42
0.0114578554954825
 10
907.52478974247106
 20
-1391.4102247625892
 10
907.53598427846237
 20
-1391.3969059990382
 42
0.0061531305135825
 10
907.66245892445215
 20
-1391.2426164657381
 42
0.0006325587127649
 10
907.78683740863687
 20
-1391.0866130900208
 10
907.80987754365538
 20
-1391.0576395694031
 42
0.0041897761555912
 10
907.97833294762904
 20
-1390.8421201933402
 10
908.0367950675203
 20
-1390.766018846356
 42
0.0092993880040216
 10
908.31340699475095
 20
-1390.3917400824625
 10
908.39580148794062
 20
-1390.2758030789068
 42
0.0159321727083017
 10
908.7424079705853
 20
-1389.7536288581475
 10
908.78676410597836
 20
-1389.681949293891
 42
0.0085547317021975
 10
909.02127587130008
 20
-1389.2880743446729
 42
0.0084601156888836
 10
909.24225204873653
 20
-1388.8864474956515
 10
909.25036752257256
 20
-1388.8710878133677
 42
0.0081429654285546
 10
909.47361679301264
 20
-1388.4313663008215
 10
909.48247695719408
 20
-1388.4131874588074
 42
0.0076574581327635
 10
909.70888446776291
 20
-1387.93000458355
 10
909.71836410848448
 20
-1387.9089401052515
 42
0.0070682724198872
 10
909.94880901629028
 20
-1387.3769028004726
 10
909.95879930027297
 20
-1387.3529136114585
 42
0.006455951444835
 10
910.1941325084548
 20
-1386.7666013449393
 10
910.20454186661959
 20
-1386.7396664194976
 42
0.0058311413908243
 10
910.44558860338225
 20
-1386.093634325114
 10
910.45634368076992
 20
-1386.0637499839531
 42
0.0052312425819428
 10
910.70392495881447
 20
-1385.3525475701076
 10
910.71496879519054
 20
-1385.3197208580491
 42
0.0046680544796336
 10
910.9698972229213
 20
-1384.537894542306
 10
911.01188937297923
 20
-1384.4049113049684
 42
0.0041666856445823
 10
911.21517538536364
 20
-1383.7419425299965
 10
911.25283782602685
 20
-1383.6153614223447
 42
0.0015170975157229
 10
911.37402440444043
 20
-1383.2034930708492
 42
-0.0004887993117738
 10
911.49436417753168
 20
-1382.7913746589161
 10
911.57084143505858
 20
-1382.5304172728661
 42
0.0002583378929462
 10
911.84405600512616
 20
-1381.5963605696757
 10
911.92582885470028
 20
-1381.316261310101
 42
0.0006636169672884
 10
912.11969661471085
 20
-1380.648908386517
 10
912.12479326907157
 20
-1380.6312768035896
 42
0.0010589131324638
 10
912.30624196997451
 20
-1379.998545460588
 10
912.31122404046937
 20
-1379.9810325535173
 42
0.001565552446299
 10
912.47949424763783
 20
-1379.3824158743671
 10
912.48432444805553
 20
-1379.3650237154216
 42
0.0021640440480012
 10
912.63861442003872
 20
-1378.799996697413
 10
912.64324863946661
 20
-1378.7827319674268
 42
0.0028763871851085
 10
912.78276435752173
 20
-1378.2507640165722
 10
912.78715022168672
 20
-1378.2336400384265
 42
0.0037310511946254
 10
912.91110691352583
 20
-1377.734192444394
 10
912.91518213381414
 20
-1377.7172321731514
 42
0.0047652197770852
 10
913.02280603432325
 20
-1377.2497544048433
 10
913.02649663364809
 20
-1377.2329948496865
 42
0.0060276699303047
 10
913.11702673280024
 20
-1376.7969190545491
 10
913.12024542308689
 20
-1376.7804178402525
 42
0.0075824337757439
 10
913.19293473250491
 20
-1376.3751506758138
 10
913.19558010988624
 20
-1376.3589957283566
 42
0.0095130624611646
 10
913.24969534551633
 20
-1375.9839063752916
 10
913.25668156939946
 20
-1375.9279728171705
 42
0.012105465323273
 10
913.28327289997685
 20
-1375.6630769887011
 10
913.28413938973597
 20
-1375.6516735457767
 42
0.0069050827391867
 10
913.29922820777415
 20
-1375.4087323189278
 10
913.30036350744206
 20
-1375.3852060618949
 42
0.0169063976686719
 10
913.30319078642287
 20
-1375.1890133345823
 10
913.30202013489179
 20
-1375.1286775732397
 42
0.0052007732895035
 10
913.29976668629865
 20
-1375.053084183081
 42
0.0054038123299897
 10
913.27980317446111
 20
-1374.9330658870786
 10
913.27471731858941
 20
-1374.9044074004898
 42
0.011205046046723
 10
913.23933295653137
 20
-1374.7280809621532
 10
913.22150799449014
 20
-1374.6485393754301
 42
0.0240764468009334
 10
913.13061062834436
 20
-1374.3183023399299
 10
913.11205186553093
 20
-1374.2616821749359
 42
0.0256812331834335
 10
912.968688945341
 20
-1373.8899579686777
 10
912.96327951951946
 20
-1373.8778266336876
 42
0.026836050121676
 10
912.79385227866976
 20
-1373.5468334996669
 10
912.78831587103434
 20
-1373.5373138293539
 42
0.0274670231729367
 10
912.59611489462145
 20
-1373.2450264544373
 10
912.59073359465924
 20
-1373.2377473068964
 42
0.0275035967098132
 10
912.37916071509699
 20
-1372.982231416592
 10
912.37409121413134
 20
-1372.9767523289624
 42
0.0269557673522201
 10
912.14668767069088
 20
-1372.7561100429994
 10
912.1419446129089
 20
-1372.7519800885391
 42
0.02591248022068
 10
911.9023897814775
 20
-1372.564289561386
 10
911.89785893629551
 20
-1372.5611040590557
 42
0.0245162153005956
 10
911.64994258320075
 20
-1372.4043710499454
 10
911.64541603687724
 20
-1372.401810852745
 42
0.0229282588842563
 10
911.39299648004919
 20
-1372.2739426602457
 10
911.38821598621303
 20
-1372.2717903604839
 42
0.0212984135700765
 10
911.13517803375066
 20
-1372.1705914432414
 10
911.12987374878333
 20
-1372.1687278804823
 42
0.0197555462347386
 10
910.88009541105816
 20
-1372.0919124625166
 42
0.0183511896789388
 10
910.62516668559556
 20
-1372.034329555551
 10
910.53880148887163
 20
-1372.0181267651658
 42
0.0338057877144312
 10
910.25329413961174
 20
-1371.9843183600256
 10
910.16228873457169
 20
-1371.9797387047643
 42
0.0091990524490717
 10
910.0564416259358
 20
-1371.9763628488422
 42
0.0028333980789336
 10
909.95052770994016
 20
-1371.9755347413256
 10
909.94961225689349
 20
-1371.9755327715015
 42
-0.002361982780504
 10
909.84186624179608
 20
-1371.974791930423
 10
909.80546107161172
 20
-1371.9743696239598
 42
0.000882459847429
 10
909.62490508166582
 20
-1371.9725938457207
 10
909.58104364935593
 20
-1371.9722398841959
 42
0.0038132665763906
 10
909.31276075348512
 20
-1371.9721209481293
 10
909.29622709868363
 20
-1371.972239714273
 42
0.0060665569335579
 10
908.9949466070974
 20
-1371.9780600136937
 10
908.98069627506698
 20
-1371.9785083216614
 42
0.0080356953336687
 10
908.65123755872389
 20
-1371.9941760437284
 10
908.6391675436405
 20
-1371.9949446266687
 42
0.0098996399106022
 10
908.28640445898736
 20
-1372.0244298558671
 10
908.27635874961493
 20
-1372.0254701520651
 42
0.0117740981366489
 10
907.90520189126732
 20
-1372.0727623995947
 10
907.89697919478363
 20
-1372.0740075161657
 42
0.013743521513845
 10
907.51239037529592
 20
-1372.1431044897281
 10
907.50573333617513
 20
-1372.144490385961
 42
0.0158359869388291
 10
907.11273624237162
 20
-1372.239382474442
 10
907.1073230555055
 20
-1372.2408724153122
 42
0.0180554124029893
 10
906.71100801089278
 20
-1372.3655104315512
 10
906.70645122280973
 20
-1372.3671264678173
 42
0.0203657431285382
 10
906.31197370499672
 20
-1372.5253868093337
 10
906.30783016599105
 20
-1372.5272484307748
 42
0.0226819684657288
 10
905.92039410978555
 20
-1372.722891009447
 10
905.91619431876927
 20
-1372.7252566013658
 42
0.024863498460645
 10
905.54101237758812
 20
-1372.9618832473127
 10
905.49281744880375
 20
-1372.9957402891387
 42
0.0267044190884283
 10
905.21852475188757
 20
-1373.2111806650069
 42
0.0139303002198896
 10
904.96235758595515
 20
-1373.4484195059126
 10
904.95750420022785
 20
-1373.4531721687788
 42
0.0283460963446713
 10
904.71343160599952
 20
-1373.7209028292252
 10
904.6737631008441
 20
-1373.769704406697
 42
0.0070695364819168
 10
904.59632587498425
 20
-1373.8677712226624
 42
0.0070695364819168
  0
LWPOLYLINE
  5
60
100
AcDbEntity
  8
0
370
              15
390
0
  6
Continuous
 62
               7
100
AcDbPolyline
 90
      226
 70
             128
 10
901.06750543773785
 20
-1389.5893600288464
 42
-0.0026277636607057
 10
901.06742755393782
 20
-1389.5225881030794
 10
901.06764491216984
 20
-1389.4694328856604
 42
-0.0088680296727914
 10
901.07142152846302
 20
-1389.2964171032543
 10
901.07376788757529
 20
-1389.2371370778037
 42
-0.0077381705613145
 10
901.0898139983392
 20
-1388.9458765819957
 10
901.09068190951155
 20
-1388.9335883483204
 42
-0.0068872530533739
 10
901.11731398926042
 20
-1388.6183665962437
 10
901.11851821344578
 20
-1388.6061256172325
 42
-0.0062130021487007
 10
901.15611193027416
 20
-1388.267255925989
 10
901.15761583380868
 20
-1388.2550820540775
 42
-0.0056726929671088
 10
901.20653769331125
 20
-1387.8928868319626
 10
901.20831113895542
 20
-1387.8807930317189
 42
-0.0052341884495975
 10
901.26892172521445
 20
-1387.4955997762063
 10
901.27093971399199
 20
-1387.4835948462085
 42
-0.0049768450167908
 10
901.34367839542222
 20
-1387.0757502787549
 10
901.36792741014017
 20
-1386.9472022957698
 42
-0.0089029805623325
 10
901.5050082619357
 20
-1386.2854268483438
 10
901.53775363725345
 20
-1386.140395417824
 42
-0.0080318257098789
 10
901.76730225159611
 20
-1385.1946857859632
 10
901.77928717804241
 20
-1385.1485551507803
 42
-0.0074265721317039
 10
902.06329871689502
 20
-1384.1184905723906
 10
902.08317826001212
 20
-1384.0503565117999
 42
-0.0069711922701489
 10
902.41048283851569
 20
-1382.9840887714822
 10
902.47043478562273
 20
-1382.798067413107
 42
-0.0052070422891852
 10
902.69986001088046
 20
-1382.1107953360804
 10
902.71714120301669
 20
-1382.0607680555675
 42
-0.0009167004448999
 10
902.92023309034221
 20
-1381.4763122073091
 42
-0.0025162726942414
 10
903.1273307206061
 20
-1380.8932709431429
 10
903.16455533241526
 20
-1380.7901213972273
 42
-0.0028212681456475
 10
903.41273125137332
 20
-1380.1143907650703
 10
903.42256201412954
 20
-1380.0880833203785
 42
-0.0031964916822847
 10
903.65885427178625
 20
-1379.4678785582664
 10
903.66848872578259
 20
-1379.4430685681298
 42
-0.0036281836451334
 10
903.89359468688644
 20
-1378.8756278872302
 10
903.90303309704245
 20
-1378.8523304557307
 42
-0.0041269166829688
 10
904.11765079370309
 20
-1378.3348895597489
 10
904.15028375012287
 20
-1378.2580111133902
 42
-0.0047472213055819
 10
904.30732855567749
 20
-1377.8975896455045
 10
904.31422263688762
 20
-1377.8821690481682
 42
-0.0025651659997371
 10
904.46258067073586
 20
-1377.554840992424
 42
-0.0057144634995036
 10
904.61633036450621
 20
-1377.2300313190635
 10
904.64436106990468
 20
-1377.1725229366748
 42
-0.0065388068374285
 10
904.82782809764819
 20
-1376.8082904400023
 10
904.8362865534267
 20
-1376.7920308606328
 42
-0.007451084301985
 10
905.01246879930454
 20
-1376.46534257951
 10
905.02064846983956
 20
-1376.4507018022341
 42
-0.0084648979853902
 10
905.19028232293567
 20
-1376.1587927912801
 10
905.19813844942382
 20
-1376.1457857996293
 42
-0.0095638542805224
 10
905.36197389701795
 20
-1375.8858969276507
 10
905.36944884069226
 20
-1375.8745275661913
 42
-0.0107191626804486
 10
905.52825042107725
 20
-1375.6439163316513
 10
905.53526715480825
 20
-1375.6341802392867
 42
-0.0118458573903881
 10
905.68981525332083
 20
-1375.4301080439759
 42
-0.0129184518188581
 10
905.85426787692609
 20
-1375.2339475278013
 10
905.88441264928611
 20
-1375.1998214489054
 42
-0.0217742579635611
 10
906.06102497162078
 20
-1375.016614678656
 10
906.07177051607789
 20
-1375.0063978454561
 42
-0.0097266568654902
 10
906.23782813493699
 20
-1374.8545502710156
 42
-0.018772090571699
 10
906.41217571082905
 20
-1374.7124814176245
 10
906.44288170150253
 20
-1374.6893223352288
 42
-0.0179428207517514
 10
906.67530242149678
 20
-1374.5267701581186
 10
906.67895474840714
 20
-1374.5244062232343
 42
-0.0170047877699453
 10
906.91471838594293
 20
-1374.3829457090792
 10
906.91850137469044
 20
-1374.3808474040425
 42
-0.0160190788363567
 10
907.15540992232479
 20
-1374.2591961020548
 42
-0.015110286149134
 10
907.39944170477168
 20
-1374.1525133260002
 10
907.45182820698324
 20
-1374.1314731931056
 42
-0.027194544188635
 10
907.81049076604165
 20
-1374.0096083823996
 10
907.8795555665323
 20
-1373.9902588411326
 42
-0.0237596594021453
 10
908.29535241355211
 20
-1373.8948081291519
 10
908.3634152672787
 20
-1373.8825534410257
 42
-0.0213715440556681
 10
908.64929019872784
 20
-1373.8436064095151
 10
908.70943736494382
 20
-1373.8380166948143
 42
-0.0101465655820661
 10
908.87692989693994
 20
-1373.8258731515502
 10
908.88627028313783
 20
-1373.825386236553
 42
-0.0100375910882628
 10
909.03542438370073
 20
-1373.8206104186277
 10
909.04568365337718
 20
-1373.8204879796133
 42
-0.0103625633384215
 10
909.17439164803591
 20
-1373.8216194131398
 10
909.19665729930432
 20
-1373.8222767716047
 42
-0.0115689250234876
 10
909.28070803683079
 20
-1373.82670627785
 42
-0.0072438037434452
 10
909.36454631627225
 20
-1373.8342954775994
 10
909.38134682574275
 20
-1373.8360620203234
 42
-0.0217917313138771
 10
909.49791658905451
 20
-1373.8534819130441
 10
909.56351667962474
 20
-1373.8662285214591
 42
-0.0332943556755175
 10
909.7679088446514
 20
-1373.9202688127662
 10
909.79808141319847
 20
-1373.9304368898836
 42
-0.0184824084810419
 10
909.93658646966696
 20
-1373.9828879052711
 42
-0.0198002050700385
 10
910.07066081016603
 20
-1374.0457719654703
 10
910.07254744754323
 20
-1374.0467497523503
 42
-0.0212242342969898
 10
910.20468638994623
 20
-1374.1225124911439
 10
910.20650168548855
 20
-1374.1236582933516
 42
-0.0226090605795186
 10
910.33500558671119
 20
-1374.2131379369168
 10
910.33685002844777
 20
-1374.2145501899035
 42
-0.0238457052221405
 10
910.46003210974118
 20
-1374.3185460857662
 10
910.46198483829971
 20
-1374.320360963532
 42
-0.0248160564147562
 10
910.57818634559999
 20
-1374.4396355647405
 10
910.58028997900237
 20
-1374.4420208984452
 42
-0.0254109591447604
 10
910.68789519686857
 20
-1374.5773092844097
 10
910.6901432187824
 20
-1374.5804508328101
 42
-0.0255528488295252
 10
910.78758989757898
 20
-1374.7324778870436
 10
910.78992099749576
 20
-1374.7365594986522
 42
-0.0252146793224302
 10
910.87570202350514
 20
-1374.9060617446498
 10
910.87800426266244
 20
-1374.911243826562
 42
-0.0244265635952732
 10
910.95065895642369
 20
-1375.0989903986081
 10
910.95990535789247
 20
-1375.126855816947
 42
-0.0231319612898874
 10
911.00582813688436
 20
-1375.2901568637481
 42
-0.0112130424360945
 10
911.04046415942207
 20
-1375.4563604639329
 10
911.04166668453513
 20
-1375.4628570508239
 42
-0.0210527881240268
 10
911.06735315990591
 20
-1375.6439126962655
 10
911.07086375472772
 20
-1375.6793182448125
 42
-0.0190029892428993
 10
911.08630522827241
 20
-1375.9328540910865
 10
911.08711520471638
 20
-1375.9683297054539
 42
-0.0137974553661589
 10
911.08556635188074
 20
-1376.2933611121884
 10
911.08472089692532
 20
-1376.3194798567802
 42
-0.0081336634214535
 10
911.06986156170274
 20
-1376.6248273243793
 42
-0.0073526923571413
 10
911.04555302832921
 20
-1376.9295755686537
 10
911.04429160454538
 20
-1376.9429122433305
 42
-0.0066886138693956
 10
911.00855601849855
 20
-1377.2734982868303
 10
911.00689892902892
 20
-1377.2871199058191
 42
-0.0061359187351422
 10
910.9590483269767
 20
-1377.6438838859283
 10
910.95701082590517
 20
-1377.6577786887483
 42
-0.0056698610060989
 10
910.89636049513717
 20
-1378.0410572575922
 10
910.89395506181518
 20
-1378.055216376817
 42
-0.0052721077270442
 10
910.81982286101356
 20
-1378.4653437165048
 10
910.81705971217377
 20
-1378.4797603518809
 42
-0.0049289272182416
 10
910.72876559407382
 20
-1378.9170688630029
 10
910.72565309939114
 20
-1378.9317377158193
 42
-0.0047415956715274
 10
910.62241510785896
 20
-1379.3965344732294
 10
910.5876468974991
 20
-1379.5463415686131
 42
-0.0084404470902943
 10
910.39763045392806
 20
-1380.3065655931414
 10
910.39150376594159
 20
-1380.3294297172977
 42
-0.003963594025745
 10
910.17005008165881
 20
-1381.1304185815407
 10
910.15667328647805
 20
-1381.177350198137
 42
-0.0072475040837424
 10
909.88922639861698
 20
-1382.0665699145206
 10
909.81901407179248
 20
-1382.2883102644839
 42
-0.0051345458826775
 10
909.5322546997287
 20
-1383.1626354523103
 10
909.5107284329689
 20
-1383.2260617194174
 42
-0.0019150016603301
 10
909.2551950260945
 20
-1383.9696108396663
 10
909.24872742168634
 20
-1383.9881983046218
 42
-0.0021524362752204
 10
909.00024937063449
 20
-1384.6925241262957
 10
908.99103894993755
 20
-1384.7182777045984
 42
-0.0024331286818731
 10
908.75478369090206
 20
-1385.3688770127155
 10
908.74573573835244
 20
-1385.3934203190672
 42
-0.0027449721786579
 10
908.52112116751607
 20
-1385.9925501979942
 10
908.51223116012341
 20
-1386.0158727878477
 42
-0.0031083229768958
 10
908.29868867351388
 20
-1386.5657968254261
 10
908.28995254184531
 20
-1386.5878865412662
 42
-0.0035311343282267
 10
908.08691135624645
 20
-1387.090869667014
 10
908.07832601710413
 20
-1387.1117123905115
 42
-0.0040245640950515
 10
907.88521421330438
 20
-1387.5700217131166
 10
907.87677809970262
 20
-1387.5896010811857
 42
-0.0046015135852397
 10
907.69302180653756
 20
-1388.005506110831
 10
907.68473562870508
 20
-1388.0238032502925
 42
-0.0052768638270867
 10
907.50975810975365
 20
-1388.3995761345534
 10
907.50162589913009
 20
-1388.4165694730896
 42
-0.0060672675643335
 10
907.33484628636074
 20
-1388.7544850962108
 10
907.32687680587821
 20
-1388.77015035521
 42
-0.0069904648870204
 10
907.16770841187781
 20
-1389.0724861618719
 10
907.15991701227256
 20
-1389.0867967110889
 42
-0.0080637022769591
 10
907.00776515192115
 20
-1389.3558320142522
 10
907.00017611928638
 20
-1389.368759879859
 42
-0.0093006455659528
 10
906.85443544275836
 20
-1389.6067742783562
 10
906.84708477601259
 20
-1389.6182922475325
 42
-0.0107060778045797
 10
906.7071362325762
 20
-1389.8275625649082
 10
906.70007446429338
 20
-1389.8376481074788
 42
-0.0122723111405004
 10
906.56528074609855
 20
-1390.0204414369632
 10
906.56495452254558
 20
-1390.0208618247714
 42
-0.0141836319628715
 10
906.42137291957033
 20
-1390.1954315826024
 10
906.41442516391783
 20
-1390.2034065828677
 42
-0.0175957477207675
 10
906.27451899588368
 20
-1390.3530274712718
 42
-0.0080466359667425
 10
906.12705523084094
 20
-1390.4953499994349
 10
906.08102068633605
 20
-1390.5383704375142
 42
-0.0269600260398421
 10
905.82774044035625
 20
-1390.750693696021
 10
905.76117330406089
 20
-1390.8006451106437
 42
-0.0178362839758901
 10
905.52122881440027
 20
-1390.9676630368997
 10
905.51398384339655
 20
-1390.9723315491067
 42
-0.0174650732648243
 10
905.2776476459585
 20
-1391.1131925140637
 42
-0.0169240130160951
 10
905.03218140009892
 20
-1391.2374847738422
 10
904.98619524454307
 20
-1391.2588467294083
 42
-0.0318883036841081
 10
904.63584438892201
 20
-1391.3951850389187
 10
904.56747885375717
 20
-1391.4168856593942
 42
-0.0284435909899725
 10
904.19142872746727
 20
-1391.5131030948687
 10
904.15627056696576
 20
-1391.5199966906978
 42
-0.0243909341008827
 10
903.84282710604975
 20
-1391.5657177217272
 10
903.79254637928307
 20
-1391.5705632686286
 42
-0.0196639292930969
 10
903.57695080175131
 20
-1391.5828115541424
 10
903.52512673058823
 20
-1391.5837148148792
 42
-0.010050151068206
 10
903.41270344892359
 20
-1391.583414416526
 10
903.38104358759097
 20
-1391.5826933446408
 42
-0.0019752031155657
 10
903.33195125089821
 20
-1391.5813811844309
 10
903.32919094766658
 20
-1391.5812964926045
 42
0.0065378752007836
 10
903.28561437292137
 20
-1391.5805296013898
 42
-0.0167974694633442
 10
903.24208354998916
 20
-1391.5788697028638
 10
903.23800421072747
 20
-1391.5785766919689
 42
-0.0081283276274033
 10
903.18644441299239
 20
-1391.5740296983313
 10
903.17470483911029
 20
-1391.5728017807526
 42
-0.0126703440181839
 10
903.09998654331741
 20
-1391.5630669896811
 10
903.07719867564015
 20
-1391.5595087337658
 42
-0.0117852088434891
 10
902.95765968980254
 20
-1391.5379457386075
 10
902.90227923804468
 20
-1391.5266021983741
 42
-0.0251774592302268
 10
902.67543519903836
 20
-1391.4681041889414
 10
902.63071600918681
 20
-1391.4541373696061
 42
-0.0146525199894823
 10
902.44432302164728
 20
-1391.3898708424076
 42
-0.0166929435862283
 10
902.26234536552022
 20
-1391.3140637093529
 10
902.25768873424749
 20
-1391.3119388087391
 42
-0.0191684358433512
 10
902.07250510299798
 20
-1391.218702724949
 10
902.06917251724121
 20
-1391.2168614773959
 42
-0.0221181781806163
 10
901.8858622133373
 20
-1391.1047279790239
 10
901.88351240933059
 20
-1391.103143681034
 42
-0.0254984685376553
 10
901.70722225894531
 20
-1390.9707325310646
 10
901.68474011124374
 20
-1390.9519802221287
 42
-0.0292492648804605
 10
901.55997117240031
 20
-1390.8348874224851
 42
-0.0159048957498429
 10
901.44613117494964
 20
-1390.7068674308853
 10
901.44481238437083
 20
-1390.7052858178658
 42
-0.0343813379558831
 10
901.34217512274449
 20
-1390.5634144920962
 10
901.31068359138328
 20
-1390.5129111000015
 42
-0.0369117275701862
 10
901.22479108948653
 20
-1390.349433859054
 42
-0.0191751379902623
 10
901.1575977039297
 20
-1390.1770292530482
 10
901.15583438017006
 20
-1390.1719359083731
 42
-0.0378178042228332
 10
901.10603966138569
 20
-1389.9829951322913
 10
901.100044365656
 20
-1389.9504345140977
 42
-0.0184846046466747
 10
901.07932716636105
 20
-1389.8086816935499
 42
-0.0179866351308685
 10
901.06899416128738
 20
-1389.6657908804682
 10
901.06893771884165
 20
-1389.6642331938563
 42
-0.0085497186138666
 10
901.06750543773785
 20
-1389.5893600288464
 42
-0.0085497186138666
  0
ENDBLK
  5
61
100
AcDbEntity
  8
template
390
0
100
AcDbBlockEnd
  0
BLOCK
  5
62
100
AcDbEntity
  8
notes
390
0
100
AcDbBlockBegin
  2
*D3
 70
               1
 10
0.0
 20
0.0
 30
0.0
  3
*D3
  1

  0
LINE
  5
63
100
AcDbEntity
  8
0
370
              -2
390
0
  6
Continuous
 62
               0
100
AcDbLine
 10
-378.10000000000002
 20
-398.90198704936745
 30
0.0
 11
-378.10000000000002
 21
-313.90198704936745
 31
0.0
  0
LINE
  5
64
100
AcDbEntity
  8
0
370
              -2
390
0
  6
Continuous
 62
               0
100
AcDbLine
 10
-463.10000000000002
 20
-398.90198704936745
 30
0.0
 11
-463.10000000000002
 21
-313.90198704936745
 31
0.0
  0
LINE
  5
65
100
AcDbEntity
  8
0
370
              -2
390
0
  6
Continuous
 62
               0
100
AcDbLine
 10
-378.10000000000002
 20
-313.90198704936745
 30
0.0
 11
-463.10000000000002
 21
-313.90198704936745
 31
0.0
  0
CIRCLE
  5
66
102
{ACAD_REACTORS
330
67
102
}
100
AcDbEntity
  8
0
370
              -2
390
0
  6
Continuous
 62
               0
100
AcDbCircle
 10
-378.10000000000002
 20
-313.90198704936745
 30
0.0
 40
1.9998779296875
  0
HATCH
  5
67
100
AcDbEntity
  8
0
370
              -2
390
0
  6
Continuous
 62
               0
100
AcDbHatch
 10
0.0
 20
0.0
 30
0.0
210
0.0
220
0.0
230
1.0
  2
SOLID
 70
               1
 71
               1
 91
        1
 92
        1
 93
        1
 72
               2
 10
-378.10000000000002
 20
-313.90198704936745
 40
1.9998779296875
 50
0.0
 51
360.0
 73
               0
 97
        1
330
66
 75
               0
 76
               1
 98
        1
 10
0.0
 20
0.0
  0
CIRCLE
  5
68
102
{ACAD_REACTORS
330
69
102
}
100
AcDbEntity
  8
0
370
              -2
390
0
  6
Continuous
 62
               0
100
AcDbCircle
 10
-463.10000000000002
 20
-313.90198704936745
 30
0.0
 40
1.9998779296875
  0
HATCH
  5
69
100
AcDbEntity
  8
0
370
              -2
390
0
  6
Continuous
 62
               0
100
AcDbHatch
 10
0.0
 20
0.0
 30
0.0
210
0.0
220
0.0
230
1.0
  2
SOLID
 70
               1
 71
               1
 91
        1
 92
        1
 93
        1
 72
               2
 10
-463.10000000000002
 20
-313.90198704936745
 40
1.9998779296875
 50
0.0
 51
360.0
 73
               0
 97
        1
330
68
 75
               0
 76
               1
 98
        1
 10
0.0
 20
0.0
  0
MTEXT
  5
6A
100
AcDbEntity
  8
0
390
0
 62
               0
100
AcDbMText
 10
-436.47500000000002
 20
-280.02436986186746
 30
0.0
 40
24.432617187500004
 41
0.0
 71
               1
 72
               1
  1
85
  7
ＭＳ ゴシック
 73
               1
 44
0.7828267384257843
  0
POINT
  5
6B
100
AcDbEntity
  8
Defpoints
370
               0
390
0
 62
               0
100
AcDbPoint
 10
-463.10000000000002
 20
-423.90198704936745
 30
0.0
  0
POINT
  5
6C
100
AcDbEntity
  8
Defpoints
370
               0
390
0
 62
               0
100
AcDbPoint
 10
-378.10000000000002
 20
-423.90198704936745
 30
0.0
  0
POINT
  5
6D
100
AcDbEntity
  8
Defpoints
370
               0
390
0
 62
               0
100
AcDbPoint
 10
-378.10000000000002
 20
-313.90198704936745
 30
0.0
  0
ENDBLK
  5
6E
100
AcDbEntity
  8
notes
390
0
100
AcDbBlockEnd
  0
BLOCK
  5
6F
100
AcDbEntity
  8
notes
390
0
100
AcDbBlockBegin
  2
*D4
 70
               1
 10
0.0
 20
0.0
 30
0.0
  3
*D4
  1

  0
LINE
  5
70
100
AcDbEntity
  8
0
370
              -2
390
0
  6
Continuous
 62
               0
100
AcDbLine
 10
-508.10000000000002
 20
-456.40198704936745
 30
0.0
 11
-720.58938873314219
 21
-456.40198704936745
 31
0.0
  0
LINE
  5
71
100
AcDbEntity
  8
0
370
              -2
390
0
  6
Continuous
 62
               0
100
AcDbLine
 10
-508.10000000000002
 20
-526.40198704936745
 30
0.0
 11
-720.58938873314219
 21
-526.40198704936745
 31
0.0
  0
LINE
  5
72
100
AcDbEntity
  8
0
370
              -2
390
0
  6
Continuous
 62
               0
100
AcDbLine
 10
-720.58938873314219
 20
-456.40198704936745
 30
0.0
 11
-720.58938873314219
 21
-526.40198704936745
 31
0.0
  0
CIRCLE
  5
73
102
{ACAD_REACTORS
330
74
102
}
100
AcDbEntity
  8
0
370
              -2
390
0
  6
Continuous
 62
               0
100
AcDbCircle
 10
-720.58938873314219
 20
-456.40198704936745
 30
0.0
 40
1.9998779296875
  0
HATCH
  5
74
100
AcDbEntity
  8
0
370
              -2
390
0
  6
Continuous
 62
               0
100
AcDbHatch
 10
0.0
 20
0.0
 30
0.0
210
0.0
220
0.0
230
1.0
  2
SOLID
 70
               1
 71
               1
 91
        1
 92
        1
 93
        1
 72
               2
 10
-720.58938873314219
 20
-456.40198704936745
 40
1.9998779296875
 50
0.0
 51
360.0
 73
               0
 97
        1
330
73
 75
               0
 76
               1
 98
        1
 10
0.0
 20
0.0
  0
CIRCLE
  5
75
102
{ACAD_REACTORS
330
76
102
}
100
AcDbEntity
  8
0
370
              -2
390
0
  6
Continuous
 62
               0
100
AcDbCircle
 10
-720.58938873314219
 20
-526.40198704936745
 30
0.0
 40
1.9998779296875
  0
HATCH
  5
76
100
AcDbEntity
  8
0
370
              -2
390
0
  6
Continuous
 62
               0
100
AcDbHatch
 10
0.0
 20
0.0
 30
0.0
210
0.0
220
0.0
230
1.0
  2
SOLID
 70
               1
 71
               1
 91
        1
 92
        1
 93
        1
 72
               2
 10
-720.58938873314219
 20
-526.40198704936745
 40
1.9998779296875
 50
0.0
 51
360.0
 73
               0
 97
        1
330
75
 75
               0
 76
               1
 98
        1
 10
0.0
 20
0.0
  0
MTEXT
  5
77
100
AcDbEntity
  8
0
390
0
 62
               0
100
AcDbMText
 10
-754.46700592064224
 20
-507.27698704936745
 30
0.0
 40
24.432617187500004
 41
0.0
 71
               1
 72
               1
  1
70
  7
ＭＳ ゴシック
 11
0.0
 21
1.0
 31
0.0
 73
               1
 44
0.7828267384257843
  0
POINT
  5
78
100
AcDbEntity
  8
Defpoints
370
               0
390
0
 62
               0
100
AcDbPoint
 10
-483.10000000000002
 20
-526.40198704936745
 30
0.0
  0
POINT
  5
79
100
AcDbEntity
  8
Defpoints
370
               0
390
0
 62
               0
100
AcDbPoint
 10
-483.10000000000002
 20
-456.40198704936745
 30
0.0
  0
POINT
  5
7A
100
AcDbEntity
  8
Defpoints
370
               0
390
0
 62
               0
100
AcDbPoint
 10
-720.58938873314219
 20
-456.40198704936745
 30
0.0
  0
ENDBLK
  5
7B
100
AcDbEntity
  8
notes
390
0
100
AcDbBlockEnd
  0
BLOCK
  5
7C
100
AcDbEntity
  8
notes
390
0
100
AcDbBlockBegin
  2
*D5
 70
               1
 10
0.0
 20
0.0
 30
0.0
  3
*D5
  1

  0
LINE
  5
7D
100
AcDbEntity
  8
0
370
              -2
390
0
  6
Continuous
 62
               0
100
AcDbLine
 10
-520.60000000000002
 20
-423.90198704936745
 30
0.0
 11
-770.58938873314219
 21
-423.90198704936745
 31
0.0
  0
LINE
  5
7E
100
AcDbEntity
  8
0
370
              -2
390
0
  6
Continuous
 62
               0
100
AcDbLine
 10
-520.60000000000002
 20
-558.90198704936745
 30
0.0
 11
-770.58938873314219
 21
-558.90198704936745
 31
0.0
  0
LINE
  5
7F
100
AcDbEntity
  8
0
370
              -2
390
0
  6
Continuous
 62
               0
100
AcDbLine
 10
-770.58938873314219
 20
-423.90198704936745
 30
0.0
 11
-770.58938873314219
 21
-558.90198704936745
 31
0.0
  0
CIRCLE
  5
80
102
{ACAD_REACTORS
330
81
102
}
100
AcDbEntity
  8
0
370
              -2
390
0
  6
Continuous
 62
               0
100
AcDbCircle
 10
-770.58938873314219
 20
-423.90198704936745
 30
0.0
 40
1.9998779296875
  0
HATCH
  5
81
100
AcDbEntity
  8
0
370
              -2
390
0
  6
Continuous
 62
               0
100
AcDbHatch
 10
0.0
 20
0.0
 30
0.0
210
0.0
220
0.0
230
1.0
  2
SOLID
 70
               1
 71
               1
 91
        1
 92
        1
 93
        1
 72
               2
 10
-770.58938873314219
 20
-423.90198704936745
 40
1.9998779296875
 50
0.0
 51
360.0
 73
               0
 97
        1
330
80
 75
               0
 76
               1
 98
        1
 10
0.0
 20
0.0
  0
CIRCLE
  5
82
102
{ACAD_REACTORS
330
83
102
}
100
AcDbEntity
  8
0
370
              -2
390
0
  6
Continuous
 62
               0
100
AcDbCircle
 10
-770.58938873314219
 20
-558.90198704936745
 30
0.0
 40
1.9998779296875
  0
HATCH
  5
83
100
AcDbEntity
  8
0
370
              -2
390
0
  6
Continuous
 62
               0
100
AcDbHatch
 10
0.0
 20
0.0
 30
0.0
210
0.0
220
0.0
230
1.0
  2
SOLID
 70
               1
 71
               1
 91
        1
 92
        1
 93
        1
 72
               2
 10
-770.58938873314219
 20
-558.90198704936745
 40
1.9998779296875
 50
0.0
 51
360.0
 73
               0
 97
        1
330
82
 75
               0
 76
               1
 98
        1
 10
0.0
 20
0.0
  0
MTEXT
  5
84
100
AcDbEntity
  8
0
390
0
 62
               0
100
AcDbMText
 10
-804.46700592064224
 20
-515.21448873154293
 30
0.0
 40
24.432617187500004
 41
0.0
 71
               1
 72
               1
  1
135
  7
ＭＳ ゴシック
 11
0.0
 21
1.0
 31
0.0
 73
               1
 44
0.7828267384257843
  0
POINT
  5
85
100
AcDbEntity
  8
Defpoints
370
               0
390
0
 62
               0
100
AcDbPoint
 10
-495.60000000000002
 20
-558.90198704936745
 30
0.0
  0
POINT
  5
86
100
AcDbEntity
  8
Defpoints
370
               0
390
0
 62
               0
100
AcDbPoint
 10
-495.60000000000002
 20
-423.90198704936745
 30
0.0
  0
POINT
  5
87
100
AcDbEntity
  8
Defpoints
370
               0
390
0
 62
               0
100
AcDbPoint
 10
-770.58938873314219
 20
-423.90198704936745
 30
0.0
  0
ENDBLK
  5
88
100
AcDbEntity
  8
notes
390
0
100
AcDbBlockEnd
  0
BLOCK
  5
89
100
AcDbEntity
  8
notes
390
0
100
AcDbBlockBegin
  2
*D6
 70
               1
 10
0.0
 20
0.0
 30
0.0
  3
*D6
  1

  0
LINE
  5
8A
100
AcDbEntity
  8
0
370
              -2
390
0
  6
Continuous
 62
               0
100
AcDbLine
 10
296.91361902403378
 20
-423.90198704936745
 30
0.0
 11
222.08300666823368
 21
-423.90198704936745
 31
0.0
  0
LINE
  5
8B
100
AcDbEntity
  8
0
370
              -2
390
0
  6
Continuous
 62
               0
100
AcDbLine
 10
296.91361902403378
 20
-558.90198704936745
 30
0.0
 11
222.08300666823368
 21
-558.90198704936745
 31
0.0
  0
LINE
  5
8C
100
AcDbEntity
  8
0
370
              -2
390
0
  6
Continuous
 62
               0
100
AcDbLine
 10
222.08300666823368
 20
-423.90198704936745
 30
0.0
 11
222.08300666823368
 21
-558.90198704936745
 31
0.0
  0
CIRCLE
  5
8D
102
{ACAD_REACTORS
330
8E
102
}
100
AcDbEntity
  8
0
370
              -2
390
0
  6
Continuous
 62
               0
100
AcDbCircle
 10
222.08300666823368
 20
-423.90198704936745
 30
0.0
 40
1.9998779296875
  0
HATCH
  5
8E
100
AcDbEntity
  8
0
370
              -2
390
0
  6
Continuous
 62
               0
100
AcDbHatch
 10
0.0
 20
0.0
 30
0.0
210
0.0
220
0.0
230
1.0
  2
SOLID
 70
               1
 71
               1
 91
        1
 92
        1
 93
        1
 72
               2
 10
222.08300666823368
 20
-423.90198704936745
 40
1.9998779296875
 50
0.0
 51
360.0
 73
               0
 97
        1
330
8D
 75
               0
 76
               1
 98
        1
 10
0.0
 20
0.0
  0
CIRCLE
  5
8F
102
{ACAD_REACTORS
330
90
102
}
100
AcDbEntity
  8
0
370
              -2
390
0
  6
Continuous
 62
               0
100
AcDbCircle
 10
222.08300666823368
 20
-558.90198704936745
 30
0.0
 40
1.9998779296875
  0
HATCH
  5
90
100
AcDbEntity
  8
0
370
              -2
390
0
  6
Continuous
 62
               0
100
AcDbHatch
 10
0.0
 20
0.0
 30
0.0
210
0.0
220
0.0
230
1.0
  2
SOLID
 70
               1
 71
               1
 91
        1
 92
        1
 93
        1
 72
               2
 10
222.08300666823368
 20
-558.90198704936745
 40
1.9998779296875
 50
0.0
 51
360.0
 73
               0
 97
        1
330
8F
 75
               0
 76
               1
 98
        1
 10
0.0
 20
0.0
  0
MTEXT
  5
91
100
AcDbEntity
  8
0
390
0
 62
               0
100
AcDbMText
 10
188.20538948073369
 20
-509.81250168217548
 30
0.0
 40
24.432617187500004
 41
0.0
 71
               1
 72
               1
  1
135
  7
ＭＳ ゴシック
 11
0.0
 21
1.0
 31
0.0
 73
               1
 44
0.7828267384257843
  0
POINT
  5
92
100
AcDbEntity
  8
Defpoints
370
               0
390
0
 62
               0
100
AcDbPoint
 10
321.91361902403378
 20
-558.90198704936745
 30
0.0
  0
POINT
  5
93
100
AcDbEntity
  8
Defpoints
370
               0
390
0
 62
               0
100
AcDbPoint
 10
321.91361902403378
 20
-423.90198704936745
 30
0.0
  0
POINT
  5
94
100
AcDbEntity
  8
Defpoints
370
               0
390
0
 62
               0
100
AcDbPoint
 10
222.08300666823368
 20
-423.90198704936745
 30
0.0
  0
ENDBLK
  5
95
100
AcDbEntity
  8
notes
390
0
100
AcDbBlockEnd
  0
BLOCK
  5
96
100
AcDbEntity
  8
notes
390
0
100
AcDbBlockBegin
  2
*D7
 70
               1
 10
0.0
 20
0.0
 30
0.0
  3
*D7
  1

  0
LINE
  5
97
100
AcDbEntity
  8
0
370
              -2
390
0
  6
Continuous
 62
               0
100
AcDbLine
 10
296.91361902403378
 20
-558.90198704936745
 30
0.0
 11
222.08300666823368
 21
-558.90198704936745
 31
0.0
  0
LINE
  5
98
100
AcDbEntity
  8
0
370
              -2
390
0
  6
Continuous
 62
               0
100
AcDbLine
 10
320.41361902403378
 20
-568.90198704936745
 30
0.0
 11
222.08300666823368
 21
-568.90198704936745
 31
0.0
  0
LINE
  5
99
100
AcDbEntity
  8
0
370
              -2
390
0
  6
Continuous
 62
               0
100
AcDbLine
 10
222.08300666823368
 20
-568.90198704936745
 30
0.0
 11
222.08300666823368
 21
-601.07078988830744
 31
0.0
  0
LINE
  5
9A
100
AcDbEntity
  8
0
370
              -2
390
0
  6
Continuous
 62
               0
100
AcDbLine
 10
222.08300666823368
 20
-558.90198704936745
 30
0.0
 11
222.08300666823368
 21
-568.90198704936745
 31
0.0
  0
CIRCLE
  5
9B
102
{ACAD_REACTORS
330
9C
102
}
100
AcDbEntity
  8
0
370
              -2
390
0
  6
Continuous
 62
               0
100
AcDbCircle
 10
222.08300666823368
 20
-558.90198704936745
 30
0.0
 40
1.9998779296875
  0
HATCH
  5
9C
100
AcDbEntity
  8
0
370
              -2
390
0
  6
Continuous
 62
               0
100
AcDbHatch
 10
0.0
 20
0.0
 30
0.0
210
0.0
220
0.0
230
1.0
  2
SOLID
 70
               1
 71
               1
 91
        1
 92
        1
 93
        1
 72
               2
 10
222.08300666823368
 20
-558.90198704936745
 40
1.9998779296875
 50
0.0
 51
360.0
 73
               0
 97
        1
330
9B
 75
               0
 76
               1
 98
        1
 10
0.0
 20
0.0
  0
CIRCLE
  5
9D
102
{ACAD_REACTORS
330
9E
102
}
100
AcDbEntity
  8
0
370
              -2
390
0
  6
Continuous
 62
               0
100
AcDbCircle
 10
222.08300666823368
 20
-568.90198704936745
 30
0.0
 40
1.9998779296875
  0
HATCH
  5
9E
100
AcDbEntity
  8
0
370
              -2
390
0
  6
Continuous
 62
               0
100
AcDbHatch
 10
0.0
 20
0.0
 30
0.0
210
0.0
220
0.0
230
1.0
  2
SOLID
 70
               1
 71
               1
 91
        1
 92
        1
 93
        1
 72
               2
 10
222.08300666823368
 20
-568.90198704936745
 40
1.9998779296875
 50
0.0
 51
360.0
 73
               0
 97
        1
330
9D
 75
               0
 76
               1
 98
        1
 10
0.0
 20
0.0
  0
MTEXT
  5
9F
100
AcDbEntity
  8
0
390
0
 62
               0
100
AcDbMText
 10
188.20538948073369
 20
-601.07078988830744
 30
0.0
 40
24.432617187500004
 41
0.0
 71
               1
 72
               1
  1
10
  7
ＭＳ ゴシック
 11
0.0
 21
1.0
 31
0.0
 73
               1
 44
0.7828267384257843
  0
POINT
  5
A0
100
AcDbEntity
  8
Defpoints
370
               0
390
0
 62
               0
100
AcDbPoint
 10
345.41361902403378
 20
-568.90198704936745
 30
0.0
  0
POINT
  5
A1
100
AcDbEntity
  8
Defpoints
370
               0
390
0
 62
               0
100
AcDbPoint
 10
321.91361902403378
 20
-558.90198704936745
 30
0.0
  0
POINT
  5
A2
100
AcDbEntity
  8
Defpoints
370
               0
390
0
 62
               0
100
AcDbPoint
 10
222.08300666823368
 20
-558.90198704936745
 30
0.0
  0
ENDBLK
  5
A3
100
AcDbEntity
  8
notes
390
0
100
AcDbBlockEnd
  0
BLOCK
  5
A4
100
AcDbEntity
  8
notes
390
0
100
AcDbBlockBegin
  2
*D8
 70
               1
 10
0.0
 20
0.0
 30
0.0
  3
*D8
  1

  0
LINE
  5
A5
100
AcDbEntity
  8
0
370
              -2
390
0
  6
Continuous
 62
               0
100
AcDbLine
 10
296.91361902403378
 20
-423.90198704936745
 30
0.0
 11
222.08300666823368
 21
-423.90198704936745
 31
0.0
  0
LINE
  5
A6
100
AcDbEntity
  8
0
370
              -2
390
0
  6
Continuous
 62
               0
100
AcDbLine
 10
320.41361902403378
 20
-413.90198704936745
 30
0.0
 11
222.08300666823368
 21
-413.90198704936745
 31
0.0
  0
LINE
  5
A7
100
AcDbEntity
  8
0
370
              -2
390
0
  6
Continuous
 62
               0
100
AcDbLine
 10
222.08300666823368
 20
-423.90198704936745
 30
0.0
 11
222.08300666823368
 21
-413.90198704936745
 31
0.0
  0
CIRCLE
  5
A8
102
{ACAD_REACTORS
330
A9
102
}
100
AcDbEntity
  8
0
370
              -2
390
0
  6
Continuous
 62
               0
100
AcDbCircle
 10
222.08300666823368
 20
-423.90198704936745
 30
0.0
 40
1.9998779296875
  0
HATCH
  5
A9
100
AcDbEntity
  8
0
370
              -2
390
0
  6
Continuous
 62
               0
100
AcDbHatch
 10
0.0
 20
0.0
 30
0.0
210
0.0
220
0.0
230
1.0
  2
SOLID
 70
               1
 71
               1
 91
        1
 92
        1
 93
        1
 72
               2
 10
222.08300666823368
 20
-423.90198704936745
 40
1.9998779296875
 50
0.0
 51
360.0
 73
               0
 97
        1
330
A8
 75
               0
 76
               1
 98
        1
 10
0.0
 20
0.0
  0
CIRCLE
  5
AA
102
{ACAD_REACTORS
330
AB
102
}
100
AcDbEntity
  8
0
370
              -2
390
0
  6
Continuous
 62
               0
100
AcDbCircle
 10
222.08300666823368
 20
-413.90198704936745
 30
0.0
 40
1.9998779296875
  0
HATCH
  5
AB
100
AcDbEntity
  8
0
370
              -2
390
0
  6
Continuous
 62
               0
100
AcDbHatch
 10
0.0
 20
0.0
 30
0.0
210
0.0
220
0.0
230
1.0
  2
SOLID
 70
               1
 71
               1
 91
        1
 92
        1
 93
        1
 72
               2
 10
222.08300666823368
 20
-413.90198704936745
 40
1.9998779296875
 50
0.0
 51
360.0
 73
               0
 97
        1
330
AA
 75
               0
 76
               1
 98
        1
 10
0.0
 20
0.0
  0
MTEXT
  5
AC
100
AcDbEntity
  8
0
390
0
 62
               0
100
AcDbMText
 10
188.20538948073369
 20
-434.77698704936745
 30
0.0
 40
24.432617187500004
 41
0.0
 71
               1
 72
               1
  1
10
  7
ＭＳ ゴシック
 11
0.0
 21
1.0
 31
0.0
 73
               1
 44
0.7828267384257843
  0
POINT
  5
AD
100
AcDbEntity
  8
Defpoints
370
               0
390
0
 62
               0
100
AcDbPoint
 10
345.41361902403378
 20
-413.90198704936745
 30
0.0
  0
POINT
  5
AE
100
AcDbEntity
  8
Defpoints
370
               0
390
0
 62
               0
100
AcDbPoint
 10
321.91361902403378
 20
-423.90198704936745
 30
0.0
  0
POINT
  5
AF
100
AcDbEntity
  8
Defpoints
370
               0
390
0
 62
               0
100
AcDbPoint
 10
222.08300666823368
 20
-423.90198704936745
 30
0.0
  0
ENDBLK
  5
B0
100
AcDbEntity
  8
notes
390
0
100
AcDbBlockEnd
  0
BLOCK
  5
B1
100
AcDbEntity
  8
notes
390
0
100
AcDbBlockBegin
  2
*D9
 70
               1
 10
0.0
 20
0.0
 30
0.0
  3
*D9
  1

  0
LINE
  5
B2
100
AcDbEntity
  8
0
370
              -2
390
0
  6
Continuous
 62
               0
100
AcDbLine
 10
-199.08938873314219
 20
-413.90198704936745
 30
0.0
 11
-120.58938873314219
 21
-413.90198704936745
 31
0.0
  0
LINE
  5
B3
100
AcDbEntity
  8
0
370
              -2
390
0
  6
Continuous
 62
               0
100
AcDbLine
 10
-199.08938873314219
 20
-568.90198704936745
 30
0.0
 11
-120.58938873314219
 21
-568.90198704936745
 31
0.0
  0
LINE
  5
B4
100
AcDbEntity
  8
0
370
              -2
390
0
  6
Continuous
 62
               0
100
AcDbLine
 10
-120.58938873314219
 20
-413.90198704936745
 30
0.0
 11
-120.58938873314219
 21
-568.90198704936745
 31
0.0
  0
CIRCLE
  5
B5
102
{ACAD_REACTORS
330
B6
102
}
100
AcDbEntity
  8
0
370
              -2
390
0
  6
Continuous
 62
               0
100
AcDbCircle
 10
-120.58938873314219
 20
-413.90198704936745
 30
0.0
 40
1.9998779296875
  0
HATCH
  5
B6
100
AcDbEntity
  8
0
370
              -2
390
0
  6
Continuous
 62
               0
100
AcDbHatch
 10
0.0
 20
0.0
 30
0.0
210
0.0
220
0.0
230
1.0
  2
SOLID
 70
               1
 71
               1
 91
        1
 92
        1
 93
        1
 72
               2
 10
-120.58938873314219
 20
-413.90198704936745
 40
1.9998779296875
 50
0.0
 51
360.0
 73
               0
 97
        1
330
B5
 75
               0
 76
               1
 98
        1
 10
0.0
 20
0.0
  0
CIRCLE
  5
B7
102
{ACAD_REACTORS
330
B8
102
}
100
AcDbEntity
  8
0
370
              -2
390
0
  6
Continuous
 62
               0
100
AcDbCircle
 10
-120.58938873314219
 20
-568.90198704936745
 30
0.0
 40
1.9998779296875
  0
HATCH
  5
B8
100
AcDbEntity
  8
0
370
              -2
390
0
  6
Continuous
 62
               0
100
AcDbHatch
 10
0.0
 20
0.0
 30
0.0
210
0.0
220
0.0
230
1.0
  2
SOLID
 70
               1
 71
               1
 91
        1
 92
        1
 93
        1
 72
               2
 10
-120.58938873314219
 20
-568.90198704936745
 40
1.9998779296875
 50
0.0
 51
360.0
 73
               0
 97
        1
330
B7
 75
               0
 76
               1
 98
        1
 10
0.0
 20
0.0
  0
MTEXT
  5
B9
100
AcDbEntity
  8
0
390
0
 62
               0
100
AcDbMText
 10
-154.46700592064218
 20
-515.80075705734293
 30
0.0
 40
24.432617187500004
 41
0.0
 71
               1
 72
               1
  1
155
  7
ＭＳ ゴシック
 11
0.0
 21
1.0
 31
0.0
 73
               1
 44
0.7828267384257843
  0
POINT
  5
BA
100
AcDbEntity
  8
Defpoints
370
               0
390
0
 62
               0
100
AcDbPoint
 10
-224.08938873314219
 20
-568.90198704936745
 30
0.0
  0
POINT
  5
BB
100
AcDbEntity
  8
Defpoints
370
               0
390
0
 62
               0
100
AcDbPoint
 10
-224.08938873314219
 20
-413.90198704936745
 30
0.0
  0
POINT
  5
BC
100
AcDbEntity
  8
Defpoints
370
               0
390
0
 62
               0
100
AcDbPoint
 10
-120.58938873314219
 20
-413.90198704936745
 30
0.0
  0
ENDBLK
  5
BD
100
AcDbEntity
  8
notes
390
0
100
AcDbBlockEnd
  0
BLOCK
  5
BE
100
AcDbEntity
  8
notes
390
0
100
AcDbBlockBegin
  2
*D10
 70
               1
 10
0.0
 20
0.0
 30
0.0
  3
*D10
  1

  0
LINE
  5
BF
100
AcDbEntity
  8
0
370
              -2
390
0
  6
Continuous
 62
               0
100
AcDbLine
 10
-558.08938873314219
 20
413.99961041448523
 30
0.0
 11
-558.08938873314219
 21
284.23648589726349
 31
0.0
  0
LINE
  5
C0
100
AcDbEntity
  8
0
370
              -2
390
0
  6
Continuous
 62
               0
100
AcDbLine
 10
-283.08938873314219
 20
413.99961041448523
 30
0.0
 11
-283.08938873314219
 21
284.23648589726349
 31
0.0
  0
LINE
  5
C1
100
AcDbEntity
  8
0
370
              -2
390
0
  6
Continuous
 62
               0
100
AcDbLine
 10
-558.08938873314219
 20
284.23648589726349
 30
0.0
 11
-283.08938873314219
 21
284.23648589726349
 31
0.0
  0
CIRCLE
  5
C2
102
{ACAD_REACTORS
330
C3
102
}
100
AcDbEntity
  8
0
370
              -2
390
0
  6
Continuous
 62
               0
100
AcDbCircle
 10
-558.08938873314219
 20
284.23648589726349
 30
0.0
 40
1.9998779296875
  0
HATCH
  5
C3
100
AcDbEntity
  8
0
370
              -2
390
0
  6
Continuous
 62
               0
100
AcDbHatch
 10
0.0
 20
0.0
 30
0.0
210
0.0
220
0.0
230
1.0
  2
SOLID
 70
               1
 71
               1
 91
        1
 92
        1
 93
        1
 72
               2
 10
-558.08938873314219
 20
284.23648589726349
 40
1.9998779296875
 50
0.0
 51
360.0
 73
               0
 97
        1
330
C2
 75
               0
 76
               1
 98
        1
 10
0.0
 20
0.0
  0
CIRCLE
  5
C4
102
{ACAD_REACTORS
330
C5
102
}
100
AcDbEntity
  8
0
370
              -2
390
0
  6
Continuous
 62
               0
100
AcDbCircle
 10
-283.08938873314219
 20
284.23648589726349
 30
0.0
 40
1.9998779296875
  0
HATCH
  5
C5
100
AcDbEntity
  8
0
370
              -2
390
0
  6
Continuous
 62
               0
100
AcDbHatch
 10
0.0
 20
0.0
 30
0.0
210
0.0
220
0.0
230
1.0
  2
SOLID
 70
               1
 71
               1
 91
        1
 92
        1
 93
        1
 72
               2
 10
-283.08938873314219
 20
284.23648589726349
 40
1.9998779296875
 50
0.0
 51
360.0
 73
               0
 97
        1
330
C4
 75
               0
 76
               1
 98
        1
 10
0.0
 20
0.0
  0
MTEXT
  5
C6
100
AcDbEntity
  8
0
390
0
 62
               0
100
AcDbMText
 10
-440.36826765871774
 20
318.11410308476349
 30
0.0
 40
24.432617187500004
 41
0.0
 71
               1
 72
               1
  1
275
  7
ＭＳ ゴシック
 73
               1
 44
0.7828267384257843
  0
POINT
  5
C7
100
AcDbEntity
  8
Defpoints
370
               0
390
0
 62
               0
100
AcDbPoint
 10
-283.08938873314219
 20
438.99961041448523
 30
0.0
  0
POINT
  5
C8
100
AcDbEntity
  8
Defpoints
370
               0
390
0
 62
               0
100
AcDbPoint
 10
-558.08938873314219
 20
438.99961041448523
 30
0.0
  0
POINT
  5
C9
100
AcDbEntity
  8
Defpoints
370
               0
390
0
 62
               0
100
AcDbPoint
 10
-558.08938873314219
 20
284.23648589726349
 30
0.0
  0
ENDBLK
  5
CA
100
AcDbEntity
  8
notes
390
0
100
AcDbBlockEnd
  0
BLOCK
  5
CB
100
AcDbEntity
  8
notes
390
0
100
AcDbBlockBegin
  2
*D11
 70
               1
 10
0.0
 20
0.0
 30
0.0
  3
*D11
  1

  0
LINE
  5
CC
100
AcDbEntity
  8
0
370
              -2
390
0
  6
Continuous
 62
               0
100
AcDbLine
 10
-345.58938873314219
 20
829.23648589726338
 30
0.0
 11
-345.58938873314219
 21
904.23648589726338
 31
0.0
  0
LINE
  5
CD
100
AcDbEntity
  8
0
370
              -2
390
0
  6
Continuous
 62
               0
100
AcDbLine
 10
-495.58938873314219
 20
829.23648589726338
 30
0.0
 11
-495.58938873314219
 21
904.23648589726338
 31
0.0
  0
LINE
  5
CE
100
AcDbEntity
  8
0
370
              -2
390
0
  6
Continuous
 62
               0
100
AcDbLine
 10
-345.58938873314219
 20
904.23648589726338
 30
0.0
 11
-495.58938873314219
 21
904.23648589726338
 31
0.0
  0
CIRCLE
  5
CF
102
{ACAD_REACTORS
330
D0
102
}
100
AcDbEntity
  8
0
370
              -2
390
0
  6
Continuous
 62
               0
100
AcDbCircle
 10
-345.58938873314219
 20
904.23648589726338
 30
0.0
 40
1.9998779296875
  0
HATCH
  5
D0
100
AcDbEntity
  8
0
370
              -2
390
0
  6
Continuous
 62
               0
100
AcDbHatch
 10
0.0
 20
0.0
 30
0.0
210
0.0
220
0.0
230
1.0
  2
SOLID
 70
               1
 71
               1
 91
        1
 92
        1
 93
        1
 72
               2
 10
-345.58938873314219
 20
904.23648589726338
 40
1.9998779296875
 50
0.0
 51
360.0
 73
               0
 97
        1
330
CF
 75
               0
 76
               1
 98
        1
 10
0.0
 20
0.0
  0
CIRCLE
  5
D1
102
{ACAD_REACTORS
330
D2
102
}
100
AcDbEntity
  8
0
370
              -2
390
0
  6
Continuous
 62
               0
100
AcDbCircle
 10
-495.58938873314219
 20
904.23648589726338
 30
0.0
 40
1.9998779296875
  0
HATCH
  5
D2
100
AcDbEntity
  8
0
370
              -2
390
0
  6
Continuous
 62
               0
100
AcDbHatch
 10
0.0
 20
0.0
 30
0.0
210
0.0
220
0.0
230
1.0
  2
SOLID
 70
               1
 71
               1
 91
        1
 92
        1
 93
        1
 72
               2
 10
-495.58938873314219
 20
904.23648589726338
 40
1.9998779296875
 50
0.0
 51
360.0
 73
               0
 97
        1
330
D1
 75
               0
 76
               1
 98
        1
 10
0.0
 20
0.0
  0
MTEXT
  5
D3
100
AcDbEntity
  8
0
390
0
 62
               0
100
AcDbMText
 10
-446.37682807951774
 20
938.11410308476343
 30
0.0
 40
24.432617187500004
 41
0.0
 71
               1
 72
               1
  1
150
  7
ＭＳ ゴシック
 73
               1
 44
0.7828267384257843
  0
POINT
  5
D4
100
AcDbEntity
  8
Defpoints
370
               0
390
0
 62
               0
100
AcDbPoint
 10
-495.58938873314219
 20
804.23648589726338
 30
0.0
  0
POINT
  5
D5
100
AcDbEntity
  8
Defpoints
370
               0
390
0
 62
               0
100
AcDbPoint
 10
-345.58938873314219
 20
804.23648589726338
 30
0.0
  0
POINT
  5
D6
100
AcDbEntity
  8
Defpoints
370
               0
390
0
 62
               0
100
AcDbPoint
 10
-345.58938873314219
 20
904.23648589726338
 30
0.0
  0
ENDBLK
  5
D7
100
AcDbEntity
  8
notes
390
0
100
AcDbBlockEnd
  0
BLOCK
  5
D8
100
AcDbEntity
  8
notes
390
0
100
AcDbBlockBegin
  2
*D12
 70
               1
 10
0.0
 20
0.0
 30
0.0
  3
*D12
  1

  0
LINE
  5
D9
100
AcDbEntity
  8
0
370
              -2
390
0
  6
Continuous
 62
               0
100
AcDbLine
 10
-620.58938873314219
 20
534.23648589726349
 30
0.0
 11
-620.58938873314219
 21
234.23648589726349
 31
0.0
  0
LINE
  5
DA
100
AcDbEntity
  8
0
370
              -2
390
0
  6
Continuous
 62
               0
100
AcDbLine
 10
-220.58938873314219
 20
534.23648589726349
 30
0.0
 11
-220.58938873314219
 21
234.23648589726349
 31
0.0
  0
LINE
  5
DB
100
AcDbEntity
  8
0
370
              -2
390
0
  6
Continuous
 62
               0
100
AcDbLine
 10
-620.58938873314219
 20
234.23648589726349
 30
0.0
 11
-220.58938873314219
 21
234.23648589726349
 31
0.0
  0
CIRCLE
  5
DC
102
{ACAD_REACTORS
330
DD
102
}
100
AcDbEntity
  8
0
370
              -2
390
0
  6
Continuous
 62
               0
100
AcDbCircle
 10
-620.58938873314219
 20
234.23648589726349
 30
0.0
 40
1.9998779296875
  0
HATCH
  5
DD
100
AcDbEntity
  8
0
370
              -2
390
0
  6
Continuous
 62
               0
100
AcDbHatch
 10
0.0
 20
0.0
 30
0.0
210
0.0
220
0.0
230
1.0
  2
SOLID
 70
               1
 71
               1
 91
        1
 92
        1
 93
        1
 72
               2
 10
-620.58938873314219
 20
234.23648589726349
 40
1.9998779296875
 50
0.0
 51
360.0
 73
               0
 97
        1
330
DC
 75
               0
 76
               1
 98
        1
 10
0.0
 20
0.0
  0
CIRCLE
  5
DE
102
{ACAD_REACTORS
330
DF
102
}
100
AcDbEntity
  8
0
370
              -2
390
0
  6
Continuous
 62
               0
100
AcDbCircle
 10
-220.58938873314219
 20
234.23648589726349
 30
0.0
 40
1.9998779296875
  0
HATCH
  5
DF
100
AcDbEntity
  8
0
370
              -2
390
0
  6
Continuous
 62
               0
100
AcDbHatch
 10
0.0
 20
0.0
 30
0.0
210
0.0
220
0.0
230
1.0
  2
SOLID
 70
               1
 71
               1
 91
        1
 92
        1
 93
        1
 72
               2
 10
-220.58938873314219
 20
234.23648589726349
 40
1.9998779296875
 50
0.0
 51
360.0
 73
               0
 97
        1
330
DE
 75
               0
 76
               1
 98
        1
 10
0.0
 20
0.0
  0
MTEXT
  5
E0
100
AcDbEntity
  8
0
390
0
 62
               0
100
AcDbMText
 10
-439.74224970961774
 20
268.11410308476349
 30
0.0
 40
24.432617187500004
 41
0.0
 71
               1
 72
               1
  1
400
  7
ＭＳ ゴシック
 73
               1
 44
0.7828267384257843
  0
POINT
  5
E1
100
AcDbEntity
  8
Defpoints
370
               0
390
0
 62
               0
100
AcDbPoint
 10
-220.58938873314219
 20
559.23648589726349
 30
0.0
  0
POINT
  5
E2
100
AcDbEntity
  8
Defpoints
370
               0
390
0
 62
               0
100
AcDbPoint
 10
-620.58938873314219
 20
559.23648589726349
 30
0.0
  0
POINT
  5
E3
100
AcDbEntity
  8
Defpoints
370
               0
390
0
 62
               0
100
AcDbPoint
 10
-620.58938873314219
 20
234.23648589726349
 30
0.0
  0
ENDBLK
  5
E4
100
AcDbEntity
  8
notes
390
0
100
AcDbBlockEnd
  0
BLOCK
  5
E5
100
AcDbEntity
  8
notes
390
0
100
AcDbBlockBegin
  2
*D13
 70
               1
 10
0.0
 20
0.0
 30
0.0
  3
*D13
  1

  0
LINE
  5
E6
100
AcDbEntity
  8
0
370
              -2
390
0
  6
Continuous
 62
               0
100
AcDbLine
 10
-320.58938873314219
 20
804.23648589726338
 30
0.0
 11
-120.58938873314219
 21
804.23648589726338
 31
0.0
  0
LINE
  5
E7
100
AcDbEntity
  8
0
370
              -2
390
0
  6
Continuous
 62
               0
100
AcDbLine
 10
-370.58938873314219
 20
384.23648589726349
 30
0.0
 11
-120.58938873314219
 21
384.23648589726349
 31
0.0
  0
LINE
  5
E8
100
AcDbEntity
  8
0
370
              -2
390
0
  6
Continuous
 62
               0
100
AcDbLine
 10
-120.58938873314219
 20
804.23648589726338
 30
0.0
 11
-120.58938873314219
 21
384.23648589726349
 31
0.0
  0
CIRCLE
  5
E9
102
{ACAD_REACTORS
330
EA
102
}
100
AcDbEntity
  8
0
370
              -2
390
0
  6
Continuous
 62
               0
100
AcDbCircle
 10
-120.58938873314219
 20
804.23648589726338
 30
0.0
 40
1.9998779296875
  0
HATCH
  5
EA
100
AcDbEntity
  8
0
370
              -2
390
0
  6
Continuous
 62
               0
100
AcDbHatch
 10
0.0
 20
0.0
 30
0.0
210
0.0
220
0.0
230
1.0
  2
SOLID
 70
               1
 71
               1
 91
        1
 92
        1
 93
        1
 72
               2
 10
-120.58938873314219
 20
804.23648589726338
 40
1.9998779296875
 50
0.0
 51
360.0
 73
               0
 97
        1
330
E9
 75
               0
 76
               1
 98
        1
 10
0.0
 20
0.0
  0
CIRCLE
  5
EB
102
{ACAD_REACTORS
330
EC
102
}
100
AcDbEntity
  8
0
370
              -2
390
0
  6
Continuous
 62
               0
100
AcDbCircle
 10
-120.58938873314219
 20
384.23648589726349
 30
0.0
 40
1.9998779296875
  0
HATCH
  5
EC
100
AcDbEntity
  8
0
370
              -2
390
0
  6
Continuous
 62
               0
100
AcDbHatch
 10
0.0
 20
0.0
 30
0.0
210
0.0
220
0.0
230
1.0
  2
SOLID
 70
               1
 71
               1
 91
        1
 92
        1
 93
        1
 72
               2
 10
-120.58938873314219
 20
384.23648589726349
 40
1.9998779296875
 50
0.0
 51
360.0
 73
               0
 97
        1
330
EB
 75
               0
 76
               1
 98
        1
 10
0.0
 20
0.0
  0
MTEXT
  5
ED
100
AcDbEntity
  8
0
390
0
 62
               0
100
AcDbMText
 10
-154.46700592064218
 20
570.42398421508801
 30
0.0
 40
24.432617187500004
 41
0.0
 71
               1
 72
               1
  1
420
  7
ＭＳ ゴシック
 11
0.0
 21
1.0
 31
0.0
 73
               1
 44
0.7828267384257843
  0
POINT
  5
EE
100
AcDbEntity
  8
Defpoints
370
               0
390
0
 62
               0
100
AcDbPoint
 10
-395.58938873314219
 20
384.23648589726349
 30
0.0
  0
POINT
  5
EF
100
AcDbEntity
  8
Defpoints
370
               0
390
0
 62
               0
100
AcDbPoint
 10
-345.58938873314219
 20
804.23648589726338
 30
0.0
  0
POINT
  5
F0
100
AcDbEntity
  8
Defpoints
370
               0
390
0
 62
               0
100
AcDbPoint
 10
-120.58938873314219
 20
804.23648589726338
 30
0.0
  0
ENDBLK
  5
F1
100
AcDbEntity
  8
notes
390
0
100
AcDbBlockEnd
  0
BLOCK
  5
F2
100
AcDbEntity
  8
notes
390
0
100
AcDbBlockBegin
  2
*D14
 70
               1
 10
0.0
 20
0.0
 30
0.0
  3
*D14
  1

  0
LINE
  5
F3
100
AcDbEntity
  8
0
370
              -2
390
0
  6
Continuous
 62
               0
100
AcDbLine
 10
554.41361902403378
 20
-513.89358841829494
 30
0.0
 11
576.0
 21
-513.89358841829494
 31
0.0
  0
LINE
  5
F4
100
AcDbEntity
  8
0
370
              -2
390
0
  6
Continuous
 62
               0
100
AcDbLine
 10
554.41361902403378
 20
-413.89358841829494
 30
0.0
 11
576.0
 21
-413.89358841829494
 31
0.0
  0
LINE
  5
F5
100
AcDbEntity
  8
0
370
              -2
390
0
  6
Continuous
 62
               0
100
AcDbLine
 10
576.0
 20
-413.89358841829494
 30
0.0
 11
576.0
 21
-233.11660136892749
 31
0.0
  0
LINE
  5
F6
100
AcDbEntity
  8
0
370
              -2
390
0
  6
Continuous
 62
               0
100
AcDbLine
 10
576.0
 20
-513.89358841829494
 30
0.0
 11
576.0
 21
-413.89358841829494
 31
0.0
  0
CIRCLE
  5
F7
102
{ACAD_REACTORS
330
F8
102
}
100
AcDbEntity
  8
0
370
              -2
390
0
  6
Continuous
 62
               0
100
AcDbCircle
 10
576.0
 20
-513.89358841829494
 30
0.0
 40
1.9998779296875
  0
HATCH
  5
F8
100
AcDbEntity
  8
0
370
              -2
390
0
  6
Continuous
 62
               0
100
AcDbHatch
 10
0.0
 20
0.0
 30
0.0
210
0.0
220
0.0
230
1.0
  2
SOLID
 70
               1
 71
               1
 91
        1
 92
        1
 93
        1
 72
               2
 10
576.0
 20
-513.89358841829494
 40
1.9998779296875
 50
0.0
 51
360.0
 73
               0
 97
        1
330
F7
 75
               0
 76
               1
 98
        1
 10
0.0
 20
0.0
  0
CIRCLE
  5
F9
102
{ACAD_REACTORS
330
FA
102
}
100
AcDbEntity
  8
0
370
              -2
390
0
  6
Continuous
 62
               0
100
AcDbCircle
 10
576.0
 20
-413.89358841829494
 30
0.0
 40
1.9998779296875
  0
HATCH
  5
FA
100
AcDbEntity
  8
0
370
              -2
390
0
  6
Continuous
 62
               0
100
AcDbHatch
 10
0.0
 20
0.0
 30
0.0
210
0.0
220
0.0
230
1.0
  2
SOLID
 70
               1
 71
               1
 91
        1
 92
        1
 93
        1
 72
               2
 10
576.0
 20
-413.89358841829494
 40
1.9998779296875
 50
0.0
 51
360.0
 73
               0
 97
        1
330
F9
 75
               0
 76
               1
 98
        1
 10
0.0
 20
0.0
  0
MTEXT
  5
FB
100
AcDbEntity
  8
0
390
0
 62
               0
100
AcDbMText
 10
542.12238281249995
 20
-375.99160136892749
 30
0.0
 40
24.432617187500004
 41
0.0
 71
               1
 72
               1
  1
100(深さ)
  7
ＭＳ ゴシック
 11
0.0
 21
1.0
 31
0.0
 73
               1
 44
0.7828267384257843
  0
POINT
  5
FC
100
AcDbEntity
  8
Defpoints
370
               0
390
0
 62
               0
100
AcDbPoint
 10
579.41361902403378
 20
-413.89358841829494
 30
0.0
  0
POINT
  5
FD
100
AcDbEntity
  8
Defpoints
370
               0
390
0
 62
               0
100
AcDbPoint
 10
579.41361902403378
 20
-513.89358841829494
 30
0.0
  0
POINT
  5
FE
100
AcDbEntity
  8
Defpoints
370
               0
390
0
 62
               0
100
AcDbPoint
 10
576.0
 20
-513.89358841829494
 30
0.0
  0
ENDBLK
  5
FF
100
AcDbEntity
  8
notes
390
0
100
AcDbBlockEnd
  0
BLOCK
  5
100
100
AcDbEntity
  8
notes
390
0
100
AcDbBlockBegin
  2
*D15
 70
               1
 10
0.0
 20
0.0
 30
0.0
  3
*D15
  1

  0
LINE
  5
101
100
AcDbEntity
  8
0
370
              -2
390
0
  6
Continuous
 62
               0
100
AcDbLine
 10
321.91361902403378
 20
-398.90198704936745
 30
0.0
 11
321.91361902403378
 21
-313.90198704936745
 31
0.0
  0
LINE
  5
102
100
AcDbEntity
  8
0
370
              -2
390
0
  6
Continuous
 62
               0
100
AcDbLine
 10
391.91361902403378
 20
-388.90198704936745
 30
0.0
 11
391.91361902403378
 21
-313.90198704936745
 31
0.0
  0
LINE
  5
103
100
AcDbEntity
  8
0
370
              -2
390
0
  6
Continuous
 62
               0
100
AcDbLine
 10
321.91361902403378
 20
-313.90198704936745
 30
0.0
 11
391.91361902403378
 21
-313.90198704936745
 31
0.0
  0
CIRCLE
  5
104
102
{ACAD_REACTORS
330
105
102
}
100
AcDbEntity
  8
0
370
              -2
390
0
  6
Continuous
 62
               0
100
AcDbCircle
 10
321.91361902403378
 20
-313.90198704936745
 30
0.0
 40
1.9998779296875
  0
HATCH
  5
105
100
AcDbEntity
  8
0
370
              -2
390
0
  6
Continuous
 62
               0
100
AcDbHatch
 10
0.0
 20
0.0
 30
0.0
210
0.0
220
0.0
230
1.0
  2
SOLID
 70
               1
 71
               1
 91
        1
 92
        1
 93
        1
 72
               2
 10
321.91361902403378
 20
-313.90198704936745
 40
1.9998779296875
 50
0.0
 51
360.0
 73
               0
 97
        1
330
104
 75
               0
 76
               1
 98
        1
 10
0.0
 20
0.0
  0
CIRCLE
  5
106
102
{ACAD_REACTORS
330
107
102
}
100
AcDbEntity
  8
0
370
              -2
390
0
  6
Continuous
 62
               0
100
AcDbCircle
 10
391.91361902403378
 20
-313.90198704936745
 30
0.0
 40
1.9998779296875
  0
HATCH
  5
107
100
AcDbEntity
  8
0
370
              -2
390
0
  6
Continuous
 62
               0
100
AcDbHatch
 10
0.0
 20
0.0
 30
0.0
210
0.0
220
0.0
230
1.0
  2
SOLID
 70
               1
 71
               1
 91
        1
 92
        1
 93
        1
 72
               2
 10
391.91361902403378
 20
-313.90198704936745
 40
1.9998779296875
 50
0.0
 51
360.0
 73
               0
 97
        1
330
106
 75
               0
 76
               1
 98
        1
 10
0.0
 20
0.0
  0
MTEXT
  5
108
100
AcDbEntity
  8
0
390
0
 62
               0
100
AcDbMText
 10
341.03861902403378
 20
-280.02436986186746
 30
0.0
 40
24.432617187500004
 41
0.0
 71
               1
 72
               1
  1
70
  7
ＭＳ ゴシック
 73
               1
 44
0.7828267384257843
  0
POINT
  5
109
100
AcDbEntity
  8
Defpoints
370
               0
390
0
 62
               0
100
AcDbPoint
 10
391.91361902403378
 20
-413.90198704936745
 30
0.0
  0
POINT
  5
10A
100
AcDbEntity
  8
Defpoints
370
               0
390
0
 62
               0
100
AcDbPoint
 10
321.91361902403378
 20
-423.90198704936745
 30
0.0
  0
POINT
  5
10B
100
AcDbEntity
  8
Defpoints
370
               0
390
0
 62
               0
100
AcDbPoint
 10
321.91361902403378
 20
-313.90198704936745
 30
0.0
  0
ENDBLK
  5
10C
100
AcDbEntity
  8
notes
390
0
100
AcDbBlockEnd
  0
BLOCK
  5
10D
100
AcDbEntity
  8
notes
390
0
100
AcDbBlockBegin
  2
*D16
 70
               1
 10
0.0
 20
0.0
 30
0.0
  3
*D16
  1

  0
LINE
  5
10E
100
AcDbEntity
  8
0
370
              -2
390
0
  6
Continuous
 62
               0
100
AcDbLine
 10
321.91361902403378
 20
-583.90198704936745
 30
0.0
 11
321.91361902403378
 21
-668.90198704936745
 31
0.0
  0
LINE
  5
10F
100
AcDbEntity
  8
0
370
              -2
390
0
  6
Continuous
 62
               0
100
AcDbLine
 10
579.41361902403378
 20
-593.90198704936745
 30
0.0
 11
579.41361902403378
 21
-668.90198704936745
 31
0.0
  0
LINE
  5
110
100
AcDbEntity
  8
0
370
              -2
390
0
  6
Continuous
 62
               0
100
AcDbLine
 10
321.91361902403378
 20
-668.90198704936745
 30
0.0
 11
579.41361902403378
 21
-668.90198704936745
 31
0.0
  0
CIRCLE
  5
111
102
{ACAD_REACTORS
330
112
102
}
100
AcDbEntity
  8
0
370
              -2
390
0
  6
Continuous
 62
               0
100
AcDbCircle
 10
321.91361902403378
 20
-668.90198704936745
 30
0.0
 40
1.9998779296875
  0
HATCH
  5
112
100
AcDbEntity
  8
0
370
              -2
390
0
  6
Continuous
 62
               0
100
AcDbHatch
 10
0.0
 20
0.0
 30
0.0
210
0.0
220
0.0
230
1.0
  2
SOLID
 70
               1
 71
               1
 91
        1
 92
        1
 93
        1
 72
               2
 10
321.91361902403378
 20
-668.90198704936745
 40
1.9998779296875
 50
0.0
 51
360.0
 73
               0
 97
        1
330
111
 75
               0
 76
               1
 98
        1
 10
0.0
 20
0.0
  0
CIRCLE
  5
113
102
{ACAD_REACTORS
330
114
102
}
100
AcDbEntity
  8
0
370
              -2
390
0
  6
Continuous
 62
               0
100
AcDbCircle
 10
579.41361902403378
 20
-668.90198704936745
 30
0.0
 40
1.9998779296875
  0
HATCH
  5
114
100
AcDbEntity
  8
0
370
              -2
390
0
  6
Continuous
 62
               0
100
AcDbHatch
 10
0.0
 20
0.0
 30
0.0
210
0.0
220
0.0
230
1.0
  2
SOLID
 70
               1
 71
               1
 91
        1
 92
        1
 93
        1
 72
               2
 10
579.41361902403378
 20
-668.90198704936745
 40
1.9998779296875
 50
0.0
 51
360.0
 73
               0
 97
        1
330
113
 75
               0
 76
               1
 98
        1
 10
0.0
 20
0.0
  0
MTEXT
  5
115
100
AcDbEntity
  8
0
390
0
 62
               0
100
AcDbMText
 10
410.97611902403378
 20
-635.0243698618674
 30
0.0
 40
24.432617187500004
 41
0.0
 71
               1
 72
               1
  1
257.5
  7
ＭＳ ゴシック
 73
               1
 44
0.7828267384257843
  0
POINT
  5
116
100
AcDbEntity
  8
Defpoints
370
               0
390
0
 62
               0
100
AcDbPoint
 10
579.41361902403378
 20
-568.90198704936745
 30
0.0
  0
POINT
  5
117
100
AcDbEntity
  8
Defpoints
370
               0
390
0
 62
               0
100
AcDbPoint
 10
321.91361902403378
 20
-558.90198704936745
 30
0.0
  0
POINT
  5
118
100
AcDbEntity
  8
Defpoints
370
               0
390
0
 62
               0
100
AcDbPoint
 10
321.91361902403378
 20
-668.90198704936745
 30
0.0
  0
ENDBLK
  5
119
100
AcDbEntity
  8
notes
390
0
100
AcDbBlockEnd
  0
BLOCK
  5
11A
100
AcDbEntity
  8
notes
390
0
100
AcDbBlockBegin
  2
*D17
 70
               1
 10
0.0
 20
0.0
 30
0.0
  3
*D17
  1

  0
LINE
  5
11B
100
AcDbEntity
  8
0
370
              -2
390
0
  6
Continuous
 62
               0
100
AcDbLine
 10
-406.22518174234489
 20
745.08404587753262
 30
0.0
 11
-262.0
 21
854.0
 31
0.0
  0
CIRCLE
  5
11C
102
{ACAD_REACTORS
330
11D
102
}
100
AcDbEntity
  8
0
370
              -2
390
0
  6
Continuous
 62
               0
100
AcDbCircle
 10
-406.22518174234489
 20
745.08404587753262
 30
0.0
 40
1.9998779296875
  0
HATCH
  5
11D
100
AcDbEntity
  8
0
370
              -2
390
0
  6
Continuous
 62
               0
100
AcDbHatch
 10
0.0
 20
0.0
 30
0.0
210
0.0
220
0.0
230
1.0
  2
SOLID
 70
               1
 71
               1
 91
        1
 92
        1
 93
        1
 72
               2
 10
-406.22518174234489
 20
745.08404587753262
 40
1.9998779296875
 50
0.0
 51
360.0
 73
               0
 97
        1
330
11C
 75
               0
 76
               1
 98
        1
 10
0.0
 20
0.0
  0
LINE
  5
11E
100
AcDbEntity
  8
0
370
              -2
390
0
  6
Continuous
 62
               0
100
AcDbLine
 10
-262.0
 20
854.0
 30
0.0
 11
-138.5
 21
854.0
 31
0.0
  0
MTEXT
  5
11F
100
AcDbEntity
  8
0
390
0
 62
               0
100
AcDbMText
 10
-202.0
 20
887.87761718750005
 30
0.0
 40
24.432617187500004
 41
0.0
 71
               1
 72
               1
  1
φ36
  7
ＭＳ ゴシック
 73
               1
 44
0.7828267384257843
  0
POINT
  5
120
100
AcDbEntity
  8
Defpoints
370
               0
390
0
 62
               0
100
AcDbPoint
 10
-434.95359572393954
 20
723.38892591699425
 30
0.0
  0
POINT
  5
121
100
AcDbEntity
  8
Defpoints
370
               0
390
0
 62
               0
100
AcDbPoint
 10
-406.22518174234489
 20
745.08404587753262
 30
0.0
  0
ENDBLK
  5
122
100
AcDbEntity
  8
notes
390
0
100
AcDbBlockEnd
  0
BLOCK
  5
123
100
AcDbEntity
  8
notes
390
0
100
AcDbBlockBegin
  2
*D18
 70
               1
 10
0.0
 20
0.0
 30
0.0
  3
*D18
  1

  0
LINE
  5
124
100
AcDbEntity
  8
0
370
              -2
390
0
  6
Continuous
 62
               0
100
AcDbLine
 10
-520.58938873314219
 20
804.23648589726338
 30
0.0
 11
-720.58938873314219
 21
804.23648589726338
 31
0.0
  0
LINE
  5
125
100
AcDbEntity
  8
0
370
              -2
390
0
  6
Continuous
 62
               0
100
AcDbLine
 10
-520.58938873314219
 20
784.23648589726338
 30
0.0
 11
-720.58938873314219
 21
784.23648589726338
 31
0.0
  0
LINE
  5
126
100
AcDbEntity
  8
0
370
              -2
390
0
  6
Continuous
 62
               0
100
AcDbLine
 10
-720.58938873314219
 20
804.23648589726338
 30
0.0
 11
-720.58938873314219
 21
784.23648589726338
 31
0.0
  0
CIRCLE
  5
127
102
{ACAD_REACTORS
330
128
102
}
100
AcDbEntity
  8
0
370
              -2
390
0
  6
Continuous
 62
               0
100
AcDbCircle
 10
-720.58938873314219
 20
804.23648589726338
 30
0.0
 40
1.9998779296875
  0
HATCH
  5
128
100
AcDbEntity
  8
0
370
              -2
390
0
  6
Continuous
 62
               0
100
AcDbHatch
 10
0.0
 20
0.0
 30
0.0
210
0.0
220
0.0
230
1.0
  2
SOLID
 70
               1
 71
               1
 91
        1
 92
        1
 93
        1
 72
               2
 10
-720.58938873314219
 20
804.23648589726338
 40
1.9998779296875
 50
0.0
 51
360.0
 73
               0
 97
        1
330
127
 75
               0
 76
               1
 98
        1
 10
0.0
 20
0.0
  0
CIRCLE
  5
129
102
{ACAD_REACTORS
330
12A
102
}
100
AcDbEntity
  8
0
370
              -2
390
0
  6
Continuous
 62
               0
100
AcDbCircle
 10
-720.58938873314219
 20
784.23648589726338
 30
0.0
 40
1.9998779296875
  0
HATCH
  5
12A
100
AcDbEntity
  8
0
370
              -2
390
0
  6
Continuous
 62
               0
100
AcDbHatch
 10
0.0
 20
0.0
 30
0.0
210
0.0
220
0.0
230
1.0
  2
SOLID
 70
               1
 71
               1
 91
        1
 92
        1
 93
        1
 72
               2
 10
-720.58938873314219
 20
784.23648589726338
 40
1.9998779296875
 50
0.0
 51
360.0
 73
               0
 97
        1
330
129
 75
               0
 76
               1
 98
        1
 10
0.0
 20
0.0
  0
MTEXT
  5
12B
100
AcDbEntity
  8
0
390
0
 62
               0
100
AcDbMText
 10
-754.46700592064224
 20
778.36148589726338
 30
0.0
 40
24.432617187500004
 41
0.0
 71
               1
 72
               1
  1
20
  7
ＭＳ ゴシック
 11
0.0
 21
1.0
 31
0.0
 73
               1
 44
0.7828267384257843
  0
POINT
  5
12C
100
AcDbEntity
  8
Defpoints
370
               0
390
0
 62
               0
100
AcDbPoint
 10
-495.58938873314219
 20
784.23648589726338
 30
0.0
  0
POINT
  5
12D
100
AcDbEntity
  8
Defpoints
370
               0
390
0
 62
               0
100
AcDbPoint
 10
-495.58938873314219
 20
804.23648589726338
 30
0.0
  0
POINT
  5
12E
100
AcDbEntity
  8
Defpoints
370
               0
390
0
 62
               0
100
AcDbPoint
 10
-720.58938873314219
 20
804.23648589726338
 30
0.0
  0
ENDBLK
  5
12F
100
AcDbEntity
  8
notes
390
0
100
AcDbBlockEnd
  0
BLOCK
  5
130
100
AcDbEntity
  8
notes
390
0
100
AcDbBlockBegin
  2
*D19
 70
               1
 10
0.0
 20
0.0
 30
0.0
  3
*D19
  1

  0
LINE
  5
131
100
AcDbEntity
  8
0
370
              -2
390
0
  6
Continuous
 62
               0
100
AcDbLine
 10
-520.58938873314219
 20
784.23648589726338
 30
0.0
 11
-720.58938873314219
 21
784.23648589726338
 31
0.0
  0
LINE
  5
132
100
AcDbEntity
  8
0
370
              -2
390
0
  6
Continuous
 62
               0
100
AcDbLine
 10
-618.79446949002977
 20
684.23648589726349
 30
0.0
 11
-720.58938873314219
 21
684.23648589726349
 31
0.0
  0
LINE
  5
133
100
AcDbEntity
  8
0
370
              -2
390
0
  6
Continuous
 62
               0
100
AcDbLine
 10
-720.58938873314219
 20
784.23648589726338
 30
0.0
 11
-720.58938873314219
 21
684.23648589726349
 31
0.0
  0
CIRCLE
  5
134
102
{ACAD_REACTORS
330
135
102
}
100
AcDbEntity
  8
0
370
              -2
390
0
  6
Continuous
 62
               0
100
AcDbCircle
 10
-720.58938873314219
 20
784.23648589726338
 30
0.0
 40
1.9998779296875
  0
HATCH
  5
135
100
AcDbEntity
  8
0
370
              -2
390
0
  6
Continuous
 62
               0
100
AcDbHatch
 10
0.0
 20
0.0
 30
0.0
210
0.0
220
0.0
230
1.0
  2
SOLID
 70
               1
 71
               1
 91
        1
 92
        1
 93
        1
 72
               2
 10
-720.58938873314219
 20
784.23648589726338
 40
1.9998779296875
 50
0.0
 51
360.0
 73
               0
 97
        1
330
134
 75
               0
 76
               1
 98
        1
 10
0.0
 20
0.0
  0
CIRCLE
  5
136
102
{ACAD_REACTORS
330
137
102
}
100
AcDbEntity
  8
0
370
              -2
390
0
  6
Continuous
 62
               0
100
AcDbCircle
 10
-720.58938873314219
 20
684.23648589726349
 30
0.0
 40
1.9998779296875
  0
HATCH
  5
137
100
AcDbEntity
  8
0
370
              -2
390
0
  6
Continuous
 62
               0
100
AcDbHatch
 10
0.0
 20
0.0
 30
0.0
210
0.0
220
0.0
230
1.0
  2
SOLID
 70
               1
 71
               1
 91
        1
 92
        1
 93
        1
 72
               2
 10
-720.58938873314219
 20
684.23648589726349
 40
1.9998779296875
 50
0.0
 51
360.0
 73
               0
 97
        1
330
136
 75
               0
 76
               1
 98
        1
 10
0.0
 20
0.0
  0
MTEXT
  5
138
100
AcDbEntity
  8
0
390
0
 62
               0
100
AcDbMText
 10
-754.46700592064224
 20
710.42398421508801
 30
0.0
 40
24.432617187500004
 41
0.0
 71
               1
 72
               1
  1
100
  7
ＭＳ ゴシック
 11
0.0
 21
1.0
 31
0.0
 73
               1
 44
0.7828267384257843
  0
POINT
  5
139
100
AcDbEntity
  8
Defpoints
370
               0
390
0
 62
               0
100
AcDbPoint
 10
-593.79446949002977
 20
684.23648589726349
 30
0.0
  0
POINT
  5
13A
100
AcDbEntity
  8
Defpoints
370
               0
390
0
 62
               0
100
AcDbPoint
 10
-495.58938873314219
 20
784.23648589726338
 30
0.0
  0
POINT
  5
13B
100
AcDbEntity
  8
Defpoints
370
               0
390
0
 62
               0
100
AcDbPoint
 10
-720.58938873314219
 20
784.23648589726338
 30
0.0
  0
ENDBLK
  5
13C
100
AcDbEntity
  8
notes
390
0
100
AcDbBlockEnd
  0
BLOCK
  5
13D
100
AcDbEntity
  8
notes
390
0
100
AcDbBlockBegin
  2
*D20
 70
               1
 10
0.0
 20
0.0
 30
0.0
  3
*D20
  1

  0
LINE
  5
13E
100
AcDbEntity
  8
0
370
              -2
390
0
  6
Continuous
 62
               0
100
AcDbLine
 10
-618.79446949002977
 20
684.23648589726349
 30
0.0
 11
-720.58938873314219
 21
684.23648589726349
 31
0.0
  0
LINE
  5
13F
100
AcDbEntity
  8
0
370
              -2
390
0
  6
Continuous
 62
               0
100
AcDbLine
 10
-542.41397238832769
 20
409.23648589726349
 30
0.0
 11
-720.58938873314219
 21
409.23648589726349
 31
0.0
  0
LINE
  5
140
100
AcDbEntity
  8
0
370
              -2
390
0
  6
Continuous
 62
               0
100
AcDbLine
 10
-720.58938873314219
 20
684.23648589726349
 30
0.0
 11
-720.58938873314219
 21
409.23648589726349
 31
0.0
  0
CIRCLE
  5
141
102
{ACAD_REACTORS
330
142
102
}
100
AcDbEntity
  8
0
370
              -2
390
0
  6
Continuous
 62
               0
100
AcDbCircle
 10
-720.58938873314219
 20
684.23648589726349
 30
0.0
 40
1.9998779296875
  0
HATCH
  5
142
100
AcDbEntity
  8
0
370
              -2
390
0
  6
Continuous
 62
               0
100
AcDbHatch
 10
0.0
 20
0.0
 30
0.0
210
0.0
220
0.0
230
1.0
  2
SOLID
 70
               1
 71
               1
 91
        1
 92
        1
 93
        1
 72
               2
 10
-720.58938873314219
 20
684.23648589726349
 40
1.9998779296875
 50
0.0
 51
360.0
 73
               0
 97
        1
330
141
 75
               0
 76
               1
 98
        1
 10
0.0
 20
0.0
  0
CIRCLE
  5
143
102
{ACAD_REACTORS
330
144
102
}
100
AcDbEntity
  8
0
370
              -2
390
0
  6
Continuous
 62
               0
100
AcDbCircle
 10
-720.58938873314219
 20
409.23648589726349
 30
0.0
 40
1.9998779296875
  0
HATCH
  5
144
100
AcDbEntity
  8
0
370
              -2
390
0
  6
Continuous
 62
               0
100
AcDbHatch
 10
0.0
 20
0.0
 30
0.0
210
0.0
220
0.0
230
1.0
  2
SOLID
 70
               1
 71
               1
 91
        1
 92
        1
 93
        1
 72
               2
 10
-720.58938873314219
 20
409.23648589726349
 40
1.9998779296875
 50
0.0
 51
360.0
 73
               0
 97
        1
330
143
 75
               0
 76
               1
 98
        1
 10
0.0
 20
0.0
  0
MTEXT
  5
145
100
AcDbEntity
  8
0
390
0
 62
               0
100
AcDbMText
 10
-754.46700592064224
 20
522.92398421508801
 30
0.0
 40
24.432617187500004
 41
0.0
 71
               1
 72
               1
  1
275
  7
ＭＳ ゴシック
 11
0.0
 21
1.0
 31
0.0
 73
               1
 44
0.7828267384257843
  0
POINT
  5
146
100
AcDbEntity
  8
Defpoints
370
               0
390
0
 62
               0
100
AcDbPoint
 10
-517.41397238832769
 20
409.23648589726349
 30
0.0
  0
POINT
  5
147
100
AcDbEntity
  8
Defpoints
370
               0
390
0
 62
               0
100
AcDbPoint
 10
-593.79446949002977
 20
684.23648589726349
 30
0.0
  0
POINT
  5
148
100
AcDbEntity
  8
Defpoints
370
               0
390
0
 62
               0
100
AcDbPoint
 10
-720.58938873314219
 20
684.23648589726349
 30
0.0
  0
ENDBLK
  5
149
100
AcDbEntity
  8
notes
390
0
100
AcDbBlockEnd
  0
BLOCK
  5
14A
100
AcDbEntity
  8
notes
390
0
100
AcDbBlockBegin
  2
*D21
 70
               1
 10
0.0
 20
0.0
 30
0.0
  3
*D21
  1

  0
LINE
  5
14B
100
AcDbEntity
  8
0
370
              -2
390
0
  6
Continuous
 62
               0
100
AcDbLine
 10
766.91361902403378
 20
-563.90198704936745
 30
0.0
 11
879.0
 21
-563.90198704936745
 31
0.0
  0
LINE
  5
14C
100
AcDbEntity
  8
0
370
              -2
390
0
  6
Continuous
 62
               0
100
AcDbLine
 10
763.41361902403378
 20
-413.90198704936745
 30
0.0
 11
879.0
 21
-413.90198704936745
 31
0.0
  0
LINE
  5
14D
100
AcDbEntity
  8
0
370
              -2
390
0
  6
Continuous
 62
               0
100
AcDbLine
 10
879.0
 20
-563.90198704936745
 30
0.0
 11
879.0
 21
-413.90198704936745
 31
0.0
  0
CIRCLE
  5
14E
102
{ACAD_REACTORS
330
14F
102
}
100
AcDbEntity
  8
0
370
              -2
390
0
  6
Continuous
 62
               0
100
AcDbCircle
 10
879.0
 20
-563.90198704936745
 30
0.0
 40
1.9998779296875
  0
HATCH
  5
14F
100
AcDbEntity
  8
0
370
              -2
390
0
  6
Continuous
 62
               0
100
AcDbHatch
 10
0.0
 20
0.0
 30
0.0
210
0.0
220
0.0
230
1.0
  2
SOLID
 70
               1
 71
               1
 91
        1
 92
        1
 93
        1
 72
               2
 10
879.0
 20
-563.90198704936745
 40
1.9998779296875
 50
0.0
 51
360.0
 73
               0
 97
        1
330
14E
 75
               0
 76
               1
 98
        1
 10
0.0
 20
0.0
  0
CIRCLE
  5
150
102
{ACAD_REACTORS
330
151
102
}
100
AcDbEntity
  8
0
370
              -2
390
0
  6
Continuous
 62
               0
100
AcDbCircle
 10
879.0
 20
-413.90198704936745
 30
0.0
 40
1.9998779296875
  0
HATCH
  5
151
100
AcDbEntity
  8
0
370
              -2
390
0
  6
Continuous
 62
               0
100
AcDbHatch
 10
0.0
 20
0.0
 30
0.0
210
0.0
220
0.0
230
1.0
  2
SOLID
 70
               1
 71
               1
 91
        1
 92
        1
 93
        1
 72
               2
 10
879.0
 20
-413.90198704936745
 40
1.9998779296875
 50
0.0
 51
360.0
 73
               0
 97
        1
330
150
 75
               0
 76
               1
 98
        1
 10
0.0
 20
0.0
  0
MTEXT
  5
152
100
AcDbEntity
  8
0
390
0
 62
               0
100
AcDbMText
 10
845.12238281249995
 20
-512.71448873154293
 30
0.0
 40
24.432617187500004
 41
0.0
 71
               1
 72
               1
  1
150
  7
ＭＳ ゴシック
 11
0.0
 21
1.0
 31
0.0
 73
               1
 44
0.7828267384257843
  0
POINT
  5
153
100
AcDbEntity
  8
Defpoints
370
               0
390
0
 62
               0
100
AcDbPoint
 10
738.41361902403378
 20
-413.90198704936745
 30
0.0
  0
POINT
  5
154
100
AcDbEntity
  8
Defpoints
370
               0
390
0
 62
               0
100
AcDbPoint
 10
741.91361902403378
 20
-563.90198704936745
 30
0.0
  0
POINT
  5
155
100
AcDbEntity
  8
Defpoints
370
               0
390
0
 62
               0
100
AcDbPoint
 10
879.0
 20
-563.90198704936745
 30
0.0
  0
ENDBLK
  5
156
100
AcDbEntity
  8
notes
390
0
100
AcDbBlockEnd
  0
BLOCK
  5
157
100
AcDbEntity
  8
notes
390
0
100
AcDbBlockBegin
  2
*D22
 70
               1
 10
0.0
 20
0.0
 30
0.0
  3
*D22
  1

  0
LINE
  5
158
100
AcDbEntity
  8
0
370
              -2
390
0
  6
Continuous
 62
               0
100
AcDbLine
 10
-455.60000000000002
 20
-590.58009770947001
 30
0.0
 11
-455.60000000000002
 21
-667.58208475883748
 31
0.0
  0
LINE
  5
159
100
AcDbEntity
  8
0
370
              -2
390
0
  6
Continuous
 62
               0
100
AcDbLine
 10
-385.60000000000002
 20
-590.58009770947001
 30
0.0
 11
-385.60000000000002
 21
-667.58208475883748
 31
0.0
  0
LINE
  5
15A
100
AcDbEntity
  8
0
370
              -2
390
0
  6
Continuous
 62
               0
100
AcDbLine
 10
-455.60000000000002
 20
-667.58208475883748
 30
0.0
 11
-385.60000000000002
 21
-667.58208475883748
 31
0.0
  0
CIRCLE
  5
15B
102
{ACAD_REACTORS
330
15C
102
}
100
AcDbEntity
  8
0
370
              -2
390
0
  6
Continuous
 62
               0
100
AcDbCircle
 10
-455.60000000000002
 20
-667.58208475883748
 30
0.0
 40
1.9998779296875
  0
HATCH
  5
15C
100
AcDbEntity
  8
0
370
              -2
390
0
  6
Continuous
 62
               0
100
AcDbHatch
 10
0.0
 20
0.0
 30
0.0
210
0.0
220
0.0
230
1.0
  2
SOLID
 70
               1
 71
               1
 91
        1
 92
        1
 93
        1
 72
               2
 10
-455.60000000000002
 20
-667.58208475883748
 40
1.9998779296875
 50
0.0
 51
360.0
 73
               0
 97
        1
330
15B
 75
               0
 76
               1
 98
        1
 10
0.0
 20
0.0
  0
CIRCLE
  5
15D
102
{ACAD_REACTORS
330
15E
102
}
100
AcDbEntity
  8
0
370
              -2
390
0
  6
Continuous
 62
               0
100
AcDbCircle
 10
-385.60000000000002
 20
-667.58208475883748
 30
0.0
 40
1.9998779296875
  0
HATCH
  5
15E
100
AcDbEntity
  8
0
370
              -2
390
0
  6
Continuous
 62
               0
100
AcDbHatch
 10
0.0
 20
0.0
 30
0.0
210
0.0
220
0.0
230
1.0
  2
SOLID
 70
               1
 71
               1
 91
        1
 92
        1
 93
        1
 72
               2
 10
-385.60000000000002
 20
-667.58208475883748
 40
1.9998779296875
 50
0.0
 51
360.0
 73
               0
 97
        1
330
15D
 75
               0
 76
               1
 98
        1
 10
0.0
 20
0.0
  0
MTEXT
  5
15F
100
AcDbEntity
  8
0
390
0
 62
               0
100
AcDbMText
 10
-436.47500000000002
 20
-633.70446757133743
 30
0.0
 40
24.432617187500004
 41
0.0
 71
               1
 72
               1
  1
70
  7
ＭＳ ゴシック
 73
               1
 44
0.7828267384257843
  0
POINT
  5
160
100
AcDbEntity
  8
Defpoints
370
               0
390
0
 62
               0
100
AcDbPoint
 10
-385.60000000000002
 20
-565.58009770947001
 30
0.0
  0
POINT
  5
161
100
AcDbEntity
  8
Defpoints
370
               0
390
0
 62
               0
100
AcDbPoint
 10
-455.60000000000002
 20
-565.58009770947001
 30
0.0
  0
POINT
  5
162
100
AcDbEntity
  8
Defpoints
370
               0
390
0
 62
               0
100
AcDbPoint
 10
-455.60000000000002
 20
-667.58208475883748
 30
0.0
  0
ENDBLK
  5
163
100
AcDbEntity
  8
notes
390
0
100
AcDbBlockEnd
  0
BLOCK
  5
164
100
AcDbEntity
  8
FAN70-0102
390
0
100
AcDbBlockBegin
  2
グループ-1
 70
               0
 10
0.0
 20
0.0
 30
0.0
  3
グループ-1
  1

  0
LINE
  5
165
100
AcDbEntity
  8
0
370
              15
390
0
  6
STYLE_12
 62
               7
100
AcDbLine
 10
557.5136190240338
 20
-551.08009770947001
 30
0.0
 11
600.5136190240338
 21
-551.08009770947001
 31
0.0
  0
LINE
  5
166
100
AcDbEntity
  8
0
370
               5
390
0
  6
STYLE_12
 62
               7
100
AcDbLine
 10
544.0
 20
-543.17811066010256
 30
0.0
 11
544.0
 21
-594.08009770947001
 31
0.0
  0
LINE
  5
167
100
AcDbEntity
  8
0
370
               5
390
0
  6
STYLE_12
 62
               7
100
AcDbLine
 10
614.0
 20
-594.08009770947001
 30
0.0
 11
544.0
 21
-594.08009770947001
 31
0.0
  0
LINE
  5
168
100
AcDbEntity
  8
0
370
               5
390
0
  6
STYLE_12
 62
               7
100
AcDbLine
 10
614.0
 20
-543.79016204678555
 30
0.0
 11
614.0
 21
-594.08009770947001
 31
0.0
  0
LINE
  5
169
100
AcDbEntity
  8
0
370
               5
390
0
  6
STYLE_12
 62
               7
100
AcDbLine
 10
544.0
 20
-557.17811066010256
 30
0.0
 11
614.0
 21
-557.17811066010256
 31
0.0
  0
ARC
  5
16A
100
AcDbEntity
  8
0
370
               5
390
0
  6
STYLE_12
 62
               7
100
AcDbCircle
 10
564.8165719735498
 20
-523.08473758603611
 30
0.0
 40
28.932219241247331
100
AcDbArc
 50
223.98724065510658
 51
255.37947950340549
  0
ARC
  5
16B
100
AcDbEntity
  8
0
370
               5
390
0
  6
STYLE_12
 62
               7
100
AcDbCircle
 10
595.03544678339904
 20
-524.82560883018459
 30
0.0
 40
26.819928363263447
100
AcDbArc
 50
281.78603884276572
 51
315.0
  0
ENDBLK
  5
16C
100
AcDbEntity
  8
FAN70-0102
390
0
100
AcDbBlockEnd
  0
ENDSEC
  0
SECTION
  2
ENTITIES
  0
MTEXT
  5
16D
100
AcDbEntity
  8
template
390
0
 62
               7
100
AcDbMText
 10
-967.99999999975921
 20
-1147.4176292337004
 30
0.0
 40
16.288411458333332
 41
0.0
 71
               1
 72
               1
  1
品名
  7
ＭＳ ゴシック
 73
               1
 44
0.7828267384257843
  0
MTEXT
  5
16E
100
AcDbEntity
  8
template
390
0
 62
               7
100
AcDbMText
 10
-967.99999999975921
 20
-1232.4176292337004
 30
0.0
 40
16.288411458333332
 41
0.0
 71
               1
 72
               1
  1
仕様
  7
ＭＳ ゴシック
 73
               1
 44
0.7828267384257843
  0
MTEXT
  5
16F
100
AcDbEntity
  8
template
390
0
 62
               7
100
AcDbMText
 10
-914.99999999975921
 20
-1176.0000901712006
 30
0.0
 40
24.432617187500004
 41
0.0
 71
               1
 72
               1
  1
洗面器 -ALAPE-
  7
ＭＳ ゴシック
 73
               1
 44
0.7828267384257843
  0
LINE
  5
170
100
AcDbEntity
  8
template
370
               5
390
0
  6
Continuous
 62
               7
100
AcDbLine
 10
974.99999999975876
 20
-1224.0027073587005
 30
0.0
 11
-975.00000000024124
 21
-1224.0027073587005
 31
0.0
  0
LWPOLYLINE
  5
171
100
AcDbEntity
  8
template
370
               5
390
0
  6
Continuous
 62
               7
100
AcDbPolyline
 90
        5
 70
             128
 10
975.00000000024124
 20
1405.9972926412995
 10
-974.99999999975921
 20
1405.9972926412995
 10
-974.99999999975921
 20
-1394.0027073587005
 10
975.00000000024124
 20
-1394.0027073587005
 10
975.00000000024124
 20
1405.9972926412995
  0
LINE
  5
172
100
AcDbEntity
  8
template
370
               5
390
0
  6
Continuous
 62
               7
100
AcDbLine
 10
974.99999999975876
 20
-1139.0027073587005
 30
0.0
 11
-975.00000000024124
 21
-1139.0027073587005
 31
0.0
  0
LINE
  5
173
100
AcDbEntity
  8
template
370
               5
390
0
  6
Continuous
 62
               7
100
AcDbLine
 10
975.00000000024124
 20
-1309.0027073587005
 30
0.0
 11
222.00000000024124
 21
-1309.0027073587005
 31
0.0
  0
MTEXT
  5
174
100
AcDbEntity
  8
template
390
0
 62
               7
100
AcDbMText
 10
-974.99999999955594
 20
-1405.8565294155574
 30
0.0
 40
21.717881944444446
 41
0.0
 71
               1
 72
               1
  1
120501SH
  7
ＭＳ ゴシック
 73
               1
 44
0.7828267384257843
  0
MTEXT
  5
175
100
AcDbEntity
  8
template
390
0
 62
               7
100
AcDbMText
 10
251.87140625250089
 20
-1338.9131018320081
 30
0.0
 40
24.432617187500004
 41
0.0
 71
               1
 72
               1
  1
大洋金物株式会社 ティーフォルム事業部
  7
ＭＳ ゴシック
 73
               1
 44
0.7828267384257843
  0
INSERT
  5
176
100
AcDbEntity
  8
template
390
0
 62
               7
100
AcDbBlockReference
  2
グループ
 10
0.0
 20
28.500000000000004
 30
0.0
  0
MTEXT
  5
177
100
AcDbEntity
  8
template
390
0
 62
               7
100
AcDbMText
 10
784.00000000049999
 20
-1261.0000901712006
 30
0.0
 40
24.432617187500004
 41
0.0
 71
               1
 72
               1
  1
1:10
  7
ＭＳ ゴシック
 73
               1
 44
0.7828267384257843
  0
MTEXT
  5
178
100
AcDbEntity
  8
template
390
0
 62
               7
100
AcDbMText
 10
731.00000000049999
 20
-1232.4176292337004
 30
0.0
 40
16.288411458333332
 41
0.0
 71
               1
 72
               1
  1
縮尺
  7
ＭＳ ゴシック
 73
               1
 44
0.7828267384257843
  0
LINE
  5
179
100
AcDbEntity
  8
template
370
               5
390
0
  6
Continuous
 62
               7
100
AcDbLine
 10
724.00000000049999
 20
-1309.0027073587005
 30
0.0
 11
724.00000000049999
 21
-1224.0027073587005
 31
0.0
  0
MTEXT
  5
17A
100
AcDbEntity
  8
template
390
0
 62
               7
100
AcDbMText
 10
480.00000000049999
 20
-1232.4176292337004
 30
0.0
 40
16.288411458333332
 41
0.0
 71
               1
 72
               1
  1
容量
  7
ＭＳ ゴシック
 73
               1
 44
0.7828267384257843
  0
LINE
  5
17B
100
AcDbEntity
  8
template
370
               5
390
0
  6
Continuous
 62
               7
100
AcDbLine
 10
473.00000000049999
 20
-1309.0027073587005
 30
0.0
 11
473.00000000049999
 21
-1224.0027073587005
 31
0.0
  0
MTEXT
  5
17C
100
AcDbEntity
  8
template
390
0
 62
               7
100
AcDbMText
 10
229.00000000049999
 20
-1147.4176292337004
 30
0.0
 40
16.288411458333332
 41
0.0
 71
               1
 72
               1
  1
品番
  7
ＭＳ ゴシック
 73
               1
 44
0.7828267384257843
  0
MTEXT
  5
17D
100
AcDbEntity
  8
template
390
0
 62
               7
100
AcDbMText
 10
229.00000000049999
 20
-1232.4176292337004
 30
0.0
 40
16.288411458333332
 41
0.0
 71
               1
 72
               1
  1
重量
  7
ＭＳ ゴシック
 73
               1
 44
0.7828267384257843
  0
MTEXT
  5
17E
100
AcDbEntity
  8
template
390
0
 62
               7
100
AcDbMText
 10
282.00000000049999
 20
-1176.0000901712006
 30
0.0
 40
24.432617187500004
 41
0.0
 71
               1
 72
               1
  1
FAN70-0102
  7
ＭＳ ゴシック
 73
               1
 44
0.7828267384257843
  0
MTEXT
  5
17F
100
AcDbEntity
  8
template
390
0
 62
               7
100
AcDbMText
 10
282.00000000049999
 20
-1261.0000901712006
 30
0.0
 40
24.432617187500004
 41
0.0
 71
               1
 72
               1
  1
3.6kg
  7
ＭＳ ゴシック
 73
               1
 44
0.7828267384257843
  0
LINE
  5
180
100
AcDbEntity
  8
template
370
               5
390
0
  6
Continuous
 62
               7
100
AcDbLine
 10
222.00000000049999
 20
-1394.0027073587005
 30
0.0
 11
222.00000000049999
 21
-1139.0027073587005
 31
0.0
  0
MTEXT
  5
181
100
AcDbEntity
  8
template
390
0
 62
               7
100
AcDbMText
 10
-914.99999999975921
 20
-1261.0000901712006
 30
0.0
 40
24.432617187500004
 41
0.0
 71
               1
 72
               1
  1
壁掛け/オーバーフローなし/壁取付ボルト付属/\P鋼板ホーロー/ホワイト
  7
ＭＳ ゴシック
 73
               1
 44
1.1307497332816883
  0
MTEXT
  5
182
100
AcDbEntity
  8
template
390
0
 62
               7
100
AcDbMText
 10
544.00000000049999
 20
-1261.0000901712006
 30
0.0
 40
24.432617187500004
 41
0.0
 71
               1
 72
               1
  1
6L
  7
ＭＳ ゴシック
 73
               1
 44
0.7828267384257843
  0
MTEXT
  5
183
100
AcDbEntity
  8
notes
390
0
 62
               7
100
AcDbMText
 10
-222.02978611443177
 20
-326.33689340060539
 30
0.0
 40
24.432617187500004
 41
0.0
 71
               1
 72
               1
  1
壁取付ボルト穴(4ヶ所)
  7
ＭＳ ゴシック
 73
               1
 44
0.7828267384257843
  0
LINE
  5
184
100
AcDbEntity
  8
notes
370
               5
390
0
  6
Continuous
 62
               7
100
AcDbLine
 10
-378.10000000000002
 20
-456.40198704936745
 30
0.0
 11
-211.0
 21
-359.92675706778095
 31
0.0
  0
DIMENSION
  5
185
100
AcDbEntity
  8
notes
370
               5
390
0
  6
Continuous
 62
               7
100
AcDbDimension
  2
*D3
 10
-378.10000000000002
 20
-313.90198704936745
 30
0.0
 11
-420.60000000000002
 21
-313.90198704936745
 31
0.0
 71
               5
 72
               1
 41
1.0
 42
0.0
  3
tfrom線あり
100
AcDbAlignedDimension
 13
-463.10000000000002
 23
-423.90198704936745
 33
0.0
 14
-378.10000000000002
 24
-423.90198704936745
 34
0.0
100
AcDbRotatedDimension
1001
ACAD
1000
DSTYLE
1002
{
1070
             279
1070
               2
1070
             340
1005
39
1070
             147
1040
5.0
1002
}
  0
DIMENSION
  5
186
100
AcDbEntity
  8
notes
370
               5
390
0
  6
Continuous
 62
               7
100
AcDbDimension
  2
*D4
 10
-720.58938873314219
 20
-456.40198704936745
 30
0.0
 11
-720.58938873314219
 21
-491.40198704936745
 31
0.0
 71
               5
 72
               1
 41
1.0
 42
0.0
  3
tfrom線あり
100
AcDbAlignedDimension
 13
-483.10000000000002
 23
-526.40198704936745
 33
0.0
 14
-483.10000000000002
 24
-456.40198704936745
 34
0.0
 50
90.0
100
AcDbRotatedDimension
1001
ACAD
1000
DSTYLE
1002
{
1070
             279
1070
               2
1070
             340
1005
39
1070
             147
1040
5.0
1002
}
  0
DIMENSION
  5
187
100
AcDbEntity
  8
notes
370
               5
390
0
  6
Continuous
 62
               7
100
AcDbDimension
  2
*D5
 10
-770.58938873314219
 20
-423.90198704936745
 30
0.0
 11
-770.58938873314219
 21
-491.40198704936745
 31
0.0
 71
               5
 72
               1
 41
1.0
 42
0.0
  3
tfrom線あり
100
AcDbAlignedDimension
 13
-495.60000000000002
 23
-558.90198704936745
 33
0.0
 14
-495.60000000000002
 24
-423.90198704936745
 34
0.0
 50
90.0
100
AcDbRotatedDimension
1001
ACAD
1000
DSTYLE
1002
{
1070
             279
1070
               2
1070
             340
1005
39
1070
             147
1040
5.0
1002
}
  0
DIMENSION
  5
188
100
AcDbEntity
  8
notes
370
               5
390
0
  6
Continuous
 62
               7
100
AcDbDimension
  2
*D6
 10
222.08300666823368
 20
-423.90198704936745
 30
0.0
 11
217.08300666823368
 21
-486.0
 31
0.0
 70
             128
 71
               5
 72
               1
 41
1.0
 42
0.0
  3
tfrom線あり
100
AcDbAlignedDimension
 13
321.91361902403378
 23
-558.90198704936745
 33
0.0
 14
321.91361902403378
 24
-423.90198704936745
 34
0.0
 50
90.0
100
AcDbRotatedDimension
1001
ACAD
1000
DSTYLE
1002
{
1070
             271
1070
               4
1070
             279
1070
               2
1070
             340
1005
39
1070
             147
1040
5.0
1002
}
  0
DIMENSION
  5
189
100
AcDbEntity
  8
notes
370
               5
390
0
  6
Continuous
 62
               7
100
AcDbDimension
  2
*D7
 10
222.08300666823368
 20
-558.90198704936745
 30
0.0
 11
217.08300666823368
 21
-563.09001543876741
 31
0.0
 70
             128
 71
               5
 72
               1
 41
1.0
 42
0.0
  3
tfrom線あり
100
AcDbAlignedDimension
 13
345.41361902403378
 23
-568.90198704936745
 33
0.0
 14
321.91361902403378
 24
-558.90198704936745
 34
0.0
 50
90.0
100
AcDbRotatedDimension
1001
ACAD
1000
DSTYLE
1002
{
1070
             271
1070
               4
1070
             279
1070
               2
1070
             340
1005
39
1070
             174
1070
               0
1070
             147
1040
5.0
1002
}
  0
DIMENSION
  5
18A
100
AcDbEntity
  8
notes
370
               5
390
0
  6
Continuous
 62
               7
100
AcDbDimension
  2
*D8
 10
222.08300666823368
 20
-423.90198704936745
 30
0.0
 11
222.08300666823368
 21
-418.90198704936745
 31
0.0
 71
               5
 72
               1
 41
1.0
 42
0.0
  3
tfrom線あり
100
AcDbAlignedDimension
 13
345.41361902403378
 23
-413.90198704936745
 33
0.0
 14
321.91361902403378
 24
-423.90198704936745
 34
0.0
 50
90.0
100
AcDbRotatedDimension
1001
ACAD
1000
DSTYLE
1002
{
1070
             279
1070
               2
1070
             340
1005
39
1070
             147
1040
5.0
1002
}
  0
DIMENSION
  5
18B
100
AcDbEntity
  8
notes
370
               5
390
0
  6
Continuous
 62
               7
100
AcDbDimension
  2
*D9
 10
-120.58938873314219
 20
-413.90198704936745
 30
0.0
 11
-115.58938873314219
 21
-491.98825537516745
 31
0.0
 70
             128
 71
               5
 72
               1
 41
1.0
 42
0.0
  3
tfrom線あり
100
AcDbAlignedDimension
 13
-224.08938873314219
 23
-568.90198704936745
 33
0.0
 14
-224.08938873314219
 24
-413.90198704936745
 34
0.0
 50
90.0
100
AcDbRotatedDimension
1001
ACAD
1000
DSTYLE
1002
{
1070
             271
1070
               4
1070
             279
1070
               2
1070
             340
1005
39
1070
             147
1040
5.0
1002
}
  0
DIMENSION
  5
18C
100
AcDbEntity
  8
notes
370
               5
390
0
  6
Continuous
 62
               7
100
AcDbDimension
  2
*D10
 10
-558.08938873314219
 20
284.23648589726349
 30
0.0
 11
-416.5557659765422
 21
289.23648589726349
 31
0.0
 70
             128
 71
               5
 72
               1
 41
1.0
 42
0.0
  3
tfrom線あり
100
AcDbAlignedDimension
 13
-283.08938873314219
 23
438.99961041448523
 33
0.0
 14
-558.08938873314219
 24
438.99961041448523
 34
0.0
100
AcDbRotatedDimension
1001
ACAD
1000
DSTYLE
1002
{
1070
             271
1070
               4
1070
             279
1070
               2
1070
             340
1005
39
1070
             147
1040
5.0
1002
}
  0
DIMENSION
  5
18D
100
AcDbEntity
  8
notes
370
               5
390
0
  6
Continuous
 62
               7
100
AcDbDimension
  2
*D11
 10
-345.58938873314219
 20
904.23648589726338
 30
0.0
 11
-422.5643263973422
 21
909.23648589726338
 31
0.0
 70
             128
 71
               5
 72
               1
 41
1.0
 42
0.0
  3
tfrom線あり
100
AcDbAlignedDimension
 13
-495.58938873314219
 23
804.23648589726338
 33
0.0
 14
-345.58938873314219
 24
804.23648589726338
 34
0.0
100
AcDbRotatedDimension
1001
ACAD
1000
DSTYLE
1002
{
1070
             271
1070
               4
1070
             279
1070
               2
1070
             340
1005
39
1070
             147
1040
5.0
1002
}
  0
DIMENSION
  5
18E
100
AcDbEntity
  8
notes
370
               5
390
0
  6
Continuous
 62
               7
100
AcDbDimension
  2
*D12
 10
-620.58938873314219
 20
234.23648589726349
 30
0.0
 11
-415.9297480274422
 21
239.23648589726349
 31
0.0
 70
             128
 71
               5
 72
               1
 41
1.0
 42
0.0
  3
tfrom線あり
100
AcDbAlignedDimension
 13
-220.58938873314219
 23
559.23648589726349
 33
0.0
 14
-620.58938873314219
 24
559.23648589726349
 34
0.0
100
AcDbRotatedDimension
1001
ACAD
1000
DSTYLE
1002
{
1070
             271
1070
               4
1070
             279
1070
               2
1070
             340
1005
39
1070
             147
1040
5.0
1002
}
  0
DIMENSION
  5
18F
100
AcDbEntity
  8
notes
370
               5
390
0
  6
Continuous
 62
               7
100
AcDbDimension
  2
*D13
 10
-120.58938873314219
 20
804.23648589726338
 30
0.0
 11
-120.58938873314219
 21
594.23648589726349
 31
0.0
 71
               5
 72
               1
 41
1.0
 42
0.0
  3
tfrom線あり
100
AcDbAlignedDimension
 13
-395.58938873314219
 23
384.23648589726349
 33
0.0
 14
-345.58938873314219
 24
804.23648589726338
 34
0.0
 50
90.0
100
AcDbRotatedDimension
1001
ACAD
1000
DSTYLE
1002
{
1070
             279
1070
               2
1070
             340
1005
39
1070
             147
1040
5.0
1002
}
  0
DIMENSION
  5
190
100
AcDbEntity
  8
notes
370
               5
390
0
  6
Continuous
 62
               7
100
AcDbDimension
  2
*D14
 10
576.0
 20
-513.89358841829494
 30
0.0
 11
571.0
 21
-375.99160136892749
 31
0.0
 70
             128
 71
               5
 72
               1
 41
1.0
 42
0.0
  3
tfrom線あり
100
AcDbAlignedDimension
 13
579.41361902403378
 23
-413.89358841829494
 33
0.0
 14
579.41361902403378
 24
-513.89358841829494
 34
0.0
 50
90.0
100
AcDbRotatedDimension
1001
ACAD
1000
DSTYLE
1002
{
1070
             279
1070
               2
1070
             340
1005
39
1070
               3
1000
<>(深さ)
1070
             174
1070
               0
1070
             147
1040
5.0
1002
}
  0
DIMENSION
  5
191
100
AcDbEntity
  8
notes
370
               5
390
0
  6
Continuous
 62
               7
100
AcDbDimension
  2
*D15
 10
321.91361902403378
 20
-313.90198704936745
 30
0.0
 11
356.91361902403378
 21
-313.90198704936745
 31
0.0
 71
               5
 72
               1
 41
1.0
 42
0.0
  3
tfrom線あり
100
AcDbAlignedDimension
 13
391.91361902403378
 23
-413.90198704936745
 33
0.0
 14
321.91361902403378
 24
-423.90198704936745
 34
0.0
100
AcDbRotatedDimension
1001
ACAD
1000
DSTYLE
1002
{
1070
             279
1070
               2
1070
             340
1005
39
1070
             147
1040
5.0
1002
}
  0
DIMENSION
  5
192
100
AcDbEntity
  8
notes
370
               5
390
0
  6
Continuous
 62
               7
100
AcDbDimension
  2
*D16
 10
321.91361902403378
 20
-668.90198704936745
 30
0.0
 11
450.66361902403378
 21
-668.90198704936745
 31
0.0
 71
               5
 72
               1
 41
1.0
 42
0.0
  3
tfrom線あり
100
AcDbAlignedDimension
 13
579.41361902403378
 23
-568.90198704936745
 33
0.0
 14
321.91361902403378
 24
-558.90198704936745
 34
0.0
100
AcDbRotatedDimension
1001
ACAD
1000
DSTYLE
1002
{
1070
             279
1070
               2
1070
             340
1005
39
1070
             147
1040
5.0
1002
}
  0
DIMENSION
  5
193
100
AcDbEntity
  8
notes
370
               5
390
0
  6
Continuous
 62
               7
100
AcDbDimension
  2
*D17
 10
-434.95359572393954
 20
723.38892591699425
 30
0.0
 11
-201.99999999999989
 21
853.99999999999989
 31
0.0
 70
               3
 71
               5
 72
               1
 41
1.0
 42
0.0
  3
tfrom線あり
100
AcDbDiametricDimension
 15
-406.22518174234489
 25
745.08404587753262
 35
0.0
 40
180.73070605467083
1001
ACAD
1000
DSTYLE
1002
{
1070
             289
1070
               0
1070
             342
1005
4C
1070
             340
1005
39
1070
              73
1070
               1
1070
              74
1070
               1
1070
              75
1070
               1
1070
              76
1070
               1
1070
               3
1000

1070
             174
1070
               0
1070
             147
1040
5.0
1002
}
  0
DIMENSION
  5
194
100
AcDbEntity
  8
notes
370
               5
390
0
  6
Continuous
 62
               7
100
AcDbDimension
  2
*D18
 10
-720.58938873314219
 20
804.23648589726338
 30
0.0
 11
-720.58938873314219
 21
794.23648589726338
 31
0.0
 71
               5
 72
               1
 41
1.0
 42
0.0
  3
tfrom線あり
100
AcDbAlignedDimension
 13
-495.58938873314219
 23
784.23648589726338
 33
0.0
 14
-495.58938873314219
 24
804.23648589726338
 34
0.0
 50
90.0
100
AcDbRotatedDimension
1001
ACAD
1000
DSTYLE
1002
{
1070
             279
1070
               2
1070
             340
1005
39
1070
             147
1040
5.0
1002
}
  0
DIMENSION
  5
195
100
AcDbEntity
  8
notes
370
               5
390
0
  6
Continuous
 62
               7
100
AcDbDimension
  2
*D19
 10
-720.58938873314219
 20
784.23648589726338
 30
0.0
 11
-720.58938873314219
 21
734.23648589726349
 31
0.0
 71
               5
 72
               1
 41
1.0
 42
0.0
  3
tfrom線あり
100
AcDbAlignedDimension
 13
-593.79446949002977
 23
684.23648589726349
 33
0.0
 14
-495.58938873314219
 24
784.23648589726338
 34
0.0
 50
90.0
100
AcDbRotatedDimension
1001
ACAD
1000
DSTYLE
1002
{
1070
             279
1070
               2
1070
             340
1005
39
1070
             147
1040
5.0
1002
}
  0
DIMENSION
  5
196
100
AcDbEntity
  8
notes
370
               5
390
0
  6
Continuous
 62
               7
100
AcDbDimension
  2
*D20
 10
-720.58938873314219
 20
684.23648589726349
 30
0.0
 11
-720.58938873314219
 21
546.73648589726349
 31
0.0
 71
               5
 72
               1
 41
1.0
 42
0.0
  3
tfrom線あり
100
AcDbAlignedDimension
 13
-517.41397238832769
 23
409.23648589726349
 33
0.0
 14
-593.79446949002977
 24
684.23648589726349
 34
0.0
 50
90.0
100
AcDbRotatedDimension
1001
ACAD
1000
DSTYLE
1002
{
1070
             279
1070
               2
1070
             340
1005
39
1070
             147
1040
5.0
1002
}
  0
DIMENSION
  5
197
100
AcDbEntity
  8
notes
370
               5
390
0
  6
Continuous
 62
               7
100
AcDbDimension
  2
*D21
 10
879.0
 20
-563.90198704936745
 30
0.0
 11
879.0
 21
-488.90198704936745
 31
0.0
 71
               5
 72
               1
 41
1.0
 42
0.0
  3
tfrom線あり
100
AcDbAlignedDimension
 13
738.41361902403378
 23
-413.90198704936745
 33
0.0
 14
741.91361902403378
 24
-563.90198704936745
 34
0.0
 50
90.0
100
AcDbRotatedDimension
1001
ACAD
1000
DSTYLE
1002
{
1070
             279
1070
               2
1070
             340
1005
39
1070
             147
1040
5.0
1002
}
  0
DIMENSION
  5
198
100
AcDbEntity
  8
notes
370
               5
390
0
  6
Continuous
 62
               7
100
AcDbDimension
  2
*D22
 10
-455.60000000000002
 20
-667.58208475883748
 30
0.0
 11
-420.60000000000002
 21
-667.58208475883748
 31
0.0
 71
               5
 72
               1
 41
1.0
 42
0.0
  3
tfrom線あり
100
AcDbAlignedDimension
 13
-385.60000000000002
 23
-565.58009770947001
 33
0.0
 14
-455.60000000000002
 24
-565.58009770947001
 34
0.0
100
AcDbRotatedDimension
1001
ACAD
1000
DSTYLE
1002
{
1070
             279
1070
               2
1070
             340
1005
39
1070
             147
1040
5.0
1002
}
  0
LINE
  5
199
100
AcDbEntity
  8
FAN70-0102
370
              15
390
0
  6
Continuous
 62
               7
100
AcDbLine
 10
-620.58938873314219
 20
-417.40198704936745
 30
0.0
 11
-620.58938873314219
 21
-565.40198704936745
 31
0.0
  0
LINE
  5
19A
100
AcDbEntity
  8
FAN70-0102
370
              15
390
0
  6
Continuous
 62
               7
100
AcDbLine
 10
-220.58938873314219
 20
-565.40198704936745
 30
0.0
 11
-220.58938873314219
 21
-417.40198704936745
 31
0.0
  0
ARC
  5
19B
100
AcDbEntity
  8
FAN70-0102
370
              15
390
0
  6
Continuous
 62
               7
100
AcDbCircle
 10
-617.08938873314219
 20
-565.40198704936745
 30
0.0
 40
3.5
100
AcDbArc
 50
180.0
 51
270.0
  0
ARC
  5
19C
100
AcDbEntity
  8
FAN70-0102
370
              15
390
0
  6
Continuous
 62
               7
100
AcDbCircle
 10
-224.08938873314219
 20
-565.40198704936745
 30
0.0
 40
3.5
100
AcDbArc
 50
270.0
 51
0.0
  0
ARC
  5
19D
100
AcDbEntity
  8
FAN70-0102
370
              15
390
0
  6
Continuous
 62
               7
100
AcDbCircle
 10
-224.08938873314219
 20
-417.40198704936745
 30
0.0
 40
3.5
100
AcDbArc
 50
0.0
 51
90.0
  0
ARC
  5
19E
100
AcDbEntity
  8
FAN70-0102
370
              15
390
0
  6
Continuous
 62
               7
100
AcDbCircle
 10
-617.08938873314219
 20
-417.40198704936745
 30
0.0
 40
3.5
100
AcDbArc
 50
90.0
 51
180.0
  0
LINE
  5
19F
100
AcDbEntity
  8
FAN70-0102
370
              15
390
0
  6
Continuous
 62
               7
100
AcDbLine
 10
-224.08938873314219
 20
-568.90198704936745
 30
0.0
 11
-617.08938873314219
 21
-568.90198704936745
 31
0.0
  0
LINE
  5
1A0
100
AcDbEntity
  8
FAN70-0102
370
              15
390
0
  6
Continuous
 62
               7
100
AcDbLine
 10
-617.08938873314219
 20
-413.90198704936745
 30
0.0
 11
-224.08938873314219
 21
-413.90198704936745
 31
0.0
  0
CIRCLE
  5
1A1
100
AcDbEntity
  8
FAN70-0102
370
              15
390
0
  6
Continuous
 62
               7
100
AcDbCircle
 10
-420.58938873314219
 20
546.73648589726349
 30
0.0
 40
137.5
  0
CIRCLE
  5
1A2
100
AcDbEntity
  8
FAN70-0102
370
              15
390
0
  6
Continuous
 62
               7
100
AcDbCircle
 10
-420.58938873314219
 20
584.23648589726349
 30
0.0
 40
200.0
  0
CIRCLE
  5
1A3
100
AcDbEntity
  8
FAN70-0102
370
              15
390
0
  6
Continuous
 62
               7
100
AcDbCircle
 10
-420.58938873314219
 20
734.23648589726349
 30
0.0
 40
18.0
  0
CIRCLE
  5
1A4
100
AcDbEntity
  8
FAN70-0102
370
              15
390
0
  6
Continuous
 62
               7
100
AcDbCircle
 10
-420.58938873314219
 20
546.73648589726349
 30
0.0
 40
34.748994922099996
  0
LINE
  5
1A5
100
AcDbEntity
  8
FAN70-0102
370
              15
390
0
  6
Continuous
 62
               7
100
AcDbLine
 10
-349.5093887331422
 20
804.23648589726338
 30
0.0
 11
-491.66938873314223
 21
804.23648589726338
 31
0.0
  0
LINE
  5
1A6
100
AcDbEntity
  8
FAN70-0102
370
              15
390
0
  6
Continuous
 62
               7
100
AcDbLine
 10
-345.58938873314219
 20
804.23648589726338
 30
0.0
 11
-349.5093887331422
 21
804.23648589726338
 31
0.0
  0
LINE
  5
1A7
100
AcDbEntity
  8
FAN70-0102
370
              15
390
0
  6
Continuous
 62
               7
100
AcDbLine
 10
-345.58938873314219
 20
769.64144807466357
 30
0.0
 11
-345.58938873314219
 21
804.23648589726338
 31
0.0
  0
LINE
  5
1A8
100
AcDbEntity
  8
FAN70-0102
370
              15
390
0
  6
Continuous
 62
               7
100
AcDbLine
 10
-491.66938873314223
 20
804.23648589726338
 30
0.0
 11
-495.58938873314219
 21
804.23648589726338
 31
0.0
  0
LINE
  5
1A9
100
AcDbEntity
  8
FAN70-0102
370
              15
390
0
  6
Continuous
 62
               7
100
AcDbLine
 10
-495.58938873314219
 20
769.64144807466357
 30
0.0
 11
-495.58938873314219
 21
804.23648589726338
 31
0.0
  0
CIRCLE
  5
1AA
100
AcDbEntity
  8
FAN70-0102
370
              15
390
0
  6
Continuous
 62
               7
100
AcDbCircle
 10
-420.58938873314219
 20
546.73648589726349
 30
0.0
 40
21.0
  0
LINE
  5
1AB
100
AcDbEntity
  8
FAN70-0102
370
              15
390
0
  6
Continuous
 62
               7
100
AcDbLine
 10
341.91361902403378
 20
-560.90198704936745
 30
0.0
 11
341.91361902403378
 21
-565.40198704936745
 31
0.0
  0
LINE
  5
1AC
100
AcDbEntity
  8
FAN70-0102
370
              15
390
0
  6
Continuous
 62
               7
100
AcDbLine
 10
341.91361902403378
 20
-417.40198704936745
 30
0.0
 11
341.91361902403378
 21
-421.90198704936745
 31
0.0
  0
LINE
  5
1AD
100
AcDbEntity
  8
FAN70-0102
370
              15
390
0
  6
Continuous
 62
               7
100
AcDbLine
 10
741.91361902403378
 20
-565.40198704936745
 30
0.0
 11
741.91361902403378
 21
-417.40198704936745
 31
0.0
  0
ARC
  5
1AE
100
AcDbEntity
  8
FAN70-0102
370
              15
390
0
  6
Continuous
 62
               7
100
AcDbCircle
 10
738.41361902403378
 20
-417.40198704936745
 30
0.0
 40
3.5
100
AcDbArc
 50
0.0
 51
90.0
  0
ARC
  5
1AF
100
AcDbEntity
  8
FAN70-0102
370
              15
390
0
  6
Continuous
 62
               7
100
AcDbCircle
 10
345.41361902403378
 20
-417.40198704936745
 30
0.0
 40
3.5
100
AcDbArc
 50
90.0
 51
180.0
  0
ARC
  5
1B0
100
AcDbEntity
  8
FAN70-0102
370
              15
390
0
  6
Continuous
 62
               7
100
AcDbCircle
 10
345.41361902403378
 20
-565.40198704936745
 30
0.0
 40
3.5
100
AcDbArc
 50
180.0
 51
270.0
  0
ARC
  5
1B1
100
AcDbEntity
  8
FAN70-0102
370
              15
390
0
  6
Continuous
 62
               7
100
AcDbCircle
 10
738.41361902403378
 20
-565.40198704936745
 30
0.0
 40
3.5
100
AcDbArc
 50
270.0
 51
0.0
  0
LINE
  5
1B2
100
AcDbEntity
  8
FAN70-0102
370
              15
390
0
  6
Continuous
 62
               7
100
AcDbLine
 10
354.94035890373368
 20
-560.90198704936745
 30
0.0
 11
341.91361902403378
 21
-560.90198704936745
 31
0.0
  0
LWPOLYLINE
  5
1B3
100
AcDbEntity
  8
FAN70-0102
370
              15
390
0
  6
Continuous
 62
               7
100
AcDbPolyline
 90
        6
 70
             128
 10
357.33030450183378
 20
-554.90198704936745
 10
357.20526397983372
 20
-556.77680333246747
 10
356.8535291092337
 20
-558.43849168536747
 10
356.31027889303368
 20
-559.7698315583674
 10
355.60492813673375
 20
-560.64836931946741
 10
354.94035890373368
 20
-560.90198704936745
  0
LINE
  5
1B4
100
AcDbEntity
  8
FAN70-0102
370
              15
390
0
  6
Continuous
 62
               7
100
AcDbLine
 10
357.33030450183378
 20
-427.90198704936745
 30
0.0
 11
357.33030450183378
 21
-554.90198704936745
 31
0.0
  0
LWPOLYLINE
  5
1B5
100
AcDbEntity
  8
FAN70-0102
370
              15
390
0
  6
Continuous
 62
               7
100
AcDbPolyline
 90
        6
 70
             128
 10
354.94035890373368
 20
-421.90198704936745
 10
355.75350091783378
 20
-422.28353740416742
 10
356.4944003737337
 20
-423.39856857796747
 10
357.03941900363372
 20
-425.08754191466744
 10
357.30368069443375
 20
-427.02896798416737
 10
357.33030450183378
 20
-427.90198704936745
  0
LINE
  5
1B6
100
AcDbEntity
  8
FAN70-0102
370
              15
390
0
  6
Continuous
 62
               7
100
AcDbLine
 10
341.91361902403378
 20
-421.90198704936745
 30
0.0
 11
354.94035890373368
 21
-421.90198704936745
 31
0.0
  0
LINE
  5
1B7
100
AcDbEntity
  8
FAN70-0102
370
              15
390
0
  6
Continuous
 62
               7
100
AcDbLine
 10
345.41361902403378
 20
-413.90198704936745
 30
0.0
 11
738.41361902403378
 21
-413.90198704936745
 31
0.0
  0
LINE
  5
1B8
100
AcDbEntity
  8
FAN70-0102
370
              15
390
0
  6
Continuous
 62
               7
100
AcDbLine
 10
541.91361902403378
 20
-568.90198704936745
 30
0.0
 11
345.41361902403378
 21
-568.90198704936745
 31
0.0
  0
LINE
  5
1B9
100
AcDbEntity
  8
FAN70-0102
370
              15
390
0
  6
Continuous
 62
               7
100
AcDbLine
 10
738.41361902403378
 20
-568.90198704936745
 30
0.0
 11
541.91361902403378
 21
-568.90198704936745
 31
0.0
  0
LINE
  5
1BA
100
AcDbEntity
  8
FAN70-0102
370
              15
390
0
  6
Continuous
 62
               7
100
AcDbLine
 10
321.91361902403378
 20
-427.82198704936741
 30
0.0
 11
321.91361902403378
 21
-554.98198704936738
 31
0.0
  0
LINE
  5
1BB
100
AcDbEntity
  8
FAN70-0102
370
              15
390
0
  6
Continuous
 62
               7
100
AcDbLine
 10
356.65684962003377
 20
-423.90198704936745
 30
0.0
 11
321.91361902403378
 21
-423.90198704936745
 31
0.0
  0
LINE
  5
1BC
100
AcDbEntity
  8
FAN70-0102
370
              15
390
0
  6
Continuous
 62
               7
100
AcDbLine
 10
321.91361902403378
 20
-423.90198704936745
 30
0.0
 11
321.91361902403378
 21
-427.82198704936741
 31
0.0
  0
LINE
  5
1BD
100
AcDbEntity
  8
FAN70-0102
370
              15
390
0
  6
Continuous
 62
               7
100
AcDbLine
 10
321.91361902403378
 20
-558.90198704936745
 30
0.0
 11
356.6644008770337
 21
-558.90198704936745
 31
0.0
  0
LINE
  5
1BE
100
AcDbEntity
  8
FAN70-0102
370
              15
390
0
  6
Continuous
 62
               7
100
AcDbLine
 10
321.91361902403378
 20
-554.98198704936738
 30
0.0
 11
321.91361902403378
 21
-558.90198704936745
 31
0.0
  0
LINE
  5
1BF
100
AcDbEntity
  8
FAN70-0102
370
              15
390
0
  6
Continuous
 62
               7
100
AcDbLine
 10
356.50681819493377
 20
-423.90198704936745
 30
0.0
 11
345.46830217073375
 21
-423.90198704936745
 31
0.0
  0
LINE
  5
1C0
100
AcDbEntity
  8
FAN70-0102
370
              15
390
0
  6
STYLE_12
 62
               7
100
AcDbLine
 10
-456.70806477447195
 20
-516.0
 30
0.0
 11
-384.47071269181242
 21
-516.0
 31
0.0
  0
ARC
  5
1C1
100
AcDbEntity
  8
FAN70-0102
370
              15
390
0
  6
STYLE_12
 62
               7
100
AcDbCircle
 10
-421.07255983274138
 20
-376.47047598419556
 30
0.0
 40
143.00000000000009
100
AcDbArc
 50
196.07695280358075
 51
253.95802757190722
  0
ARC
  5
1C2
100
AcDbEntity
  8
FAN70-0102
370
              15
390
0
  6
STYLE_12
 62
               7
100
AcDbCircle
 10
-420.106217633543
 20
-376.47047598419556
 30
0.0
 40
143.00000000000006
100
AcDbArc
 50
286.04197242809278
 51
343.92304719641919
  0
ARC
  5
1C3
100
AcDbEntity
  8
FAN70-0102
370
              15
390
0
  6
STYLE_12
 62
               7
100
AcDbCircle
 10
-561.36259124262801
 20
-416.90198704936802
 30
0.0
 40
3.000000000000532
100
AcDbArc
 50
16.076952803591478
 51
90.0
  0
ARC
  5
1C4
100
AcDbEntity
  8
FAN70-0102
370
              15
390
0
  6
STYLE_12
 62
               7
100
AcDbCircle
 10
-279.81618622365664
 20
-416.90198704936745
 30
0.0
 40
3.0
100
AcDbArc
 50
90.0
 51
163.92304719641896
  0
LINE
  5
1C5
100
AcDbEntity
  8
FAN70-0102
370
              15
390
0
  6
STYLE_12
 62
               7
100
AcDbLine
 10
-442.08938873314219
 20
-523.90198704936745
 30
0.0
 11
-399.08938873314219
 21
-523.90198704936745
 31
0.0
  0
LINE
  5
1C6
100
AcDbEntity
  8
FAN70-0102
370
              15
390
0
  6
STYLE_12
 62
               7
100
AcDbLine
 10
-442.08938873314219
 20
-523.90198704936745
 30
0.0
 11
-460.58938873314219
 21
-513.90198704936745
 31
0.0
  0
LINE
  5
1C7
100
AcDbEntity
  8
FAN70-0102
370
              15
390
0
  6
STYLE_12
 62
               7
100
AcDbLine
 10
-399.08938873314219
 20
-523.90198704936745
 30
0.0
 11
-380.58938873314219
 21
-513.90198704936745
 31
0.0
  0
LINE
  5
1C8
100
AcDbEntity
  8
FAN70-0102
370
              15
390
0
  6
STYLE_12
 62
               7
100
AcDbLine
 10
543.29494298270401
 20
-513.93214135775963
 30
0.0
 11
615.53229506536354
 21
-513.93214135775963
 31
0.0
  0
ARC
  5
1C9
100
AcDbEntity
  8
FAN70-0102
370
              15
390
0
  6
STYLE_12
 62
               7
100
AcDbCircle
 10
578.93044792443459
 20
-374.24192528873391
 30
0.0
 40
143.00000000000003
100
AcDbArc
 50
196.93119422555196
 51
253.95802757190722
  0
ARC
  5
1CA
100
AcDbEntity
  8
FAN70-0102
370
              15
390
0
  6
STYLE_12
 62
               7
100
AcDbCircle
 10
579.89679012363297
 20
-374.47047598419556
 30
0.0
 40
143.00000000000011
100
AcDbArc
 50
286.2741546868366
 51
343.15606412408926
  0
ARC
  5
1CB
100
AcDbEntity
  8
FAN70-0102
370
              15
390
0
  6
STYLE_12
 62
               7
100
AcDbCircle
 10
438.64041651454795
 20
-416.90198704936802
 30
0.0
 40
3.000000000000532
100
AcDbArc
 50
16.076952803591478
 51
90.0
  0
ARC
  5
1CC
100
AcDbEntity
  8
FAN70-0102
370
              15
390
0
  6
STYLE_12
 62
               7
100
AcDbCircle
 10
720.18682153351938
 20
-416.90198704936745
 30
0.0
 40
3.0
100
AcDbArc
 50
90.0
 51
163.92304719641925
  0
LINE
  5
1CD
100
AcDbEntity
  8
FAN70-0102
370
              15
390
0
  6
STYLE_12
 62
               7
100
AcDbLine
 10
557.91361902403378
 20
-521.83412840712708
 30
0.0
 11
539.41361902403378
 21
-511.83412840712708
 31
0.0
  0
LINE
  5
1CE
100
AcDbEntity
  8
FAN70-0102
370
              15
390
0
  6
STYLE_12
 62
               7
100
AcDbLine
 10
600.91361902403378
 20
-521.83412840712708
 30
0.0
 11
619.41361902403378
 21
-511.83412840712708
 31
0.0
  0
POLYLINE
  5
1CF
100
AcDbEntity
  8
FAN70-0102
370
              15
390
0
  6
STYLE_12
 62
               7
100
AcDb2dPolyline
 66
               1
 10
0.0
 20
0.0
 30
0.0
 70
               1
 75
               5
  0
VERTEX
  5
1D0
100
AcDbEntity
  8
FAN70-0102
370
              15
390
0
  6
STYLE_12
 62
               7
100
AcDbVertex
100
AcDb2dVertex
 10
-495.60000000000002
 20
-423.90198704936745
 30
0.0
  0
VERTEX
  5
1D1
100
AcDbEntity
  8
FAN70-0102
370
              15
390
0
  6
STYLE_12
 62
               7
100
AcDbVertex
100
AcDb2dVertex
 10
-345.60000000000002
 20
-423.90198704936745
 30
0.0
  0
VERTEX
  5
1D2
100
AcDbEntity
  8
FAN70-0102
370
              15
390
0
  6
STYLE_12
 62
               7
100
AcDbVertex
100
AcDb2dVertex
 10
-345.60000000000002
 20
-558.90198704936745
 30
0.0
  0
VERTEX
  5
1D3
100
AcDbEntity
  8
FAN70-0102
370
              15
390
0
  6
STYLE_12
 62
               7
100
AcDbVertex
100
AcDb2dVertex
 10
-495.60000000000002
 20
-558.90198704936745
 30
0.0
  0
SEQEND
  5
1D4
100
AcDbEntity
  8
FAN70-0102
370
              15
390
0
  6
STYLE_12
 62
               7
  0
CIRCLE
  5
1D5
100
AcDbEntity
  8
FAN70-0102
370
              15
390
0
  6
STYLE_12
 62
               7
100
AcDbCircle
 10
-463.10000000000002
 20
-456.40198704936745
 30
0.0
 40
10.0
  0
CIRCLE
  5
1D6
100
AcDbEntity
  8
FAN70-0102
370
              15
390
0
  6
STYLE_12
 62
               7
100
AcDbCircle
 10
-463.10000000000002
 20
-526.40198704936745
 30
0.0
 40
10.0
  0
CIRCLE
  5
1D7
100
AcDbEntity
  8
FAN70-0102
370
              15
390
0
  6
STYLE_12
 62
               7
100
AcDbCircle
 10
-378.10000000000002
 20
-456.40198704936745
 30
0.0
 40
10.0
  0
CIRCLE
  5
1D8
100
AcDbEntity
  8
FAN70-0102
370
              15
390
0
  6
STYLE_12
 62
               7
100
AcDbCircle
 10
-378.10000000000002
 20
-526.40198704936745
 30
0.0
 40
10.0
  0
LINE
  5
1D9
100
AcDbEntity
  8
FAN70-0102
370
              15
390
0
  6
STYLE_12
 62
               7
100
AcDbLine
 10
-443.10000000000002
 20
-456.40198704936745
 30
0.0
 11
-483.10000000000002
 21
-456.40198704936745
 31
0.0
  0
LINE
  5
1DA
100
AcDbEntity
  8
FAN70-0102
370
              15
390
0
  6
STYLE_12
 62
               7
100
AcDbLine
 10
-463.10000000000002
 20
-436.40198704936745
 30
0.0
 11
-463.10000000000002
 21
-476.40198704936745
 31
0.0
  0
LINE
  5
1DB
100
AcDbEntity
  8
FAN70-0102
370
              15
390
0
  6
STYLE_12
 62
               7
100
AcDbLine
 10
-358.10000000000002
 20
-456.40198704936745
 30
0.0
 11
-398.10000000000002
 21
-456.40198704936745
 31
0.0
  0
LINE
  5
1DC
100
AcDbEntity
  8
FAN70-0102
370
              15
390
0
  6
STYLE_12
 62
               7
100
AcDbLine
 10
-378.10000000000002
 20
-436.40198704936745
 30
0.0
 11
-378.10000000000002
 21
-476.40198704936745
 31
0.0
  0
LINE
  5
1DD
100
AcDbEntity
  8
FAN70-0102
370
              15
390
0
  6
STYLE_12
 62
               7
100
AcDbLine
 10
-443.10000000000002
 20
-526.40198704936745
 30
0.0
 11
-483.10000000000002
 21
-526.40198704936745
 31
0.0
  0
LINE
  5
1DE
100
AcDbEntity
  8
FAN70-0102
370
              15
390
0
  6
STYLE_12
 62
               7
100
AcDbLine
 10
-463.10000000000002
 20
-506.40198704936745
 30
0.0
 11
-463.10000000000002
 21
-546.40198704936745
 31
0.0
  0
LINE
  5
1DF
100
AcDbEntity
  8
FAN70-0102
370
              15
390
0
  6
STYLE_12
 62
               7
100
AcDbLine
 10
-358.10000000000002
 20
-526.40198704936745
 30
0.0
 11
-398.10000000000002
 21
-526.40198704936745
 31
0.0
  0
LINE
  5
1E0
100
AcDbEntity
  8
FAN70-0102
370
              15
390
0
  6
STYLE_12
 62
               7
100
AcDbLine
 10
-378.10000000000002
 20
-506.40198704936745
 30
0.0
 11
-378.10000000000002
 21
-546.40198704936745
 31
0.0
  0
POLYLINE
  5
1E1
100
AcDbEntity
  8
FAN70-0102
370
               5
390
0
  6
STYLE_12
 62
               7
100
AcDb2dPolyline
 66
               1
 10
0.0
 20
0.0
 30
0.0
 70
               1
 75
               5
  0
VERTEX
  5
1E2
100
AcDbEntity
  8
FAN70-0102
370
               5
390
0
  6
STYLE_12
 62
               7
100
AcDbVertex
100
AcDb2dVertex
 10
-455.60000000000002
 20
-518.58009770947001
 30
0.0
  0
VERTEX
  5
1E3
100
AcDbEntity
  8
FAN70-0102
370
               5
390
0
  6
STYLE_12
 62
               7
100
AcDbVertex
100
AcDb2dVertex
 10
-385.60000000000002
 20
-518.58009770947001
 30
0.0
  0
VERTEX
  5
1E4
100
AcDbEntity
  8
FAN70-0102
370
               5
390
0
  6
STYLE_12
 62
               7
100
AcDbVertex
100
AcDb2dVertex
 10
-385.60000000000002
 20
-565.58009770947001
 30
0.0
  0
VERTEX
  5
1E5
100
AcDbEntity
  8
FAN70-0102
370
               5
390
0
  6
STYLE_12
 62
               7
100
AcDbVertex
100
AcDb2dVertex
 10
-455.60000000000002
 20
-565.58009770947001
 30
0.0
  0
SEQEND
  5
1E6
100
AcDbEntity
  8
FAN70-0102
370
               5
390
0
  6
STYLE_12
 62
               7
  0
INSERT
  5
1E7
100
AcDbEntity
  8
FAN70-0102
390
0
 62
               7
100
AcDbBlockReference
  2
グループ-1
 10
0.0
 20
28.500000000000004
 30
0.0
  0
ENDSEC
  0
SECTION
  2
OBJECTS
  0
DICTIONARY
  5
19
100
AcDbDictionary
280
               0
281
               1
  3
ACAD_GROUP
350
1A
  3
ACAD_MLINESTYLE
350
1B
  3
ACAD_LAYOUT
350
1E
  3
ACAD_PLOTSETTINGS
350
22
  3
ACAD_PLOTSTYLENAME
350
1F
  0
DICTIONARY
  5
1A
102
{ACAD_REACTORS
330
19
102
}
100
AcDbDictionary
280
               0
281
               1
  0
DICTIONARY
  5
1B
102
{ACAD_REACTORS
330
19
102
}
100
AcDbDictionary
280
               0
281
               1
  3
Standard
350
1C
  0
MLINESTYLE
  5
1C
102
{ACAD_REACTORS
330
1B
102
}
100
AcDbMlineStyle
  2
Standard
 70
               0
  3

 62
               0
 51
90.0
 52
90.0
 71
               2
 49
0.5
 62
             256
  6
ByLayer
 49
-0.5
 62
             256
  6
ByLayer
  0
ACDBDICTIONARYWDFLT
  5
1F
102
{ACAD_REACTORS
330
19
102
}
100
AcDbDictionary
281
               1
  3
Normal
350
1D
100
AcDbDictionaryWithDefault
340
1D
  0
ACDBPLACEHOLDER
  5
1D
102
{ACAD_REACTORS
330
1F
102
}
  0
LAYOUT
  5
20
102
{ACAD_REACTORS
330
1E
102
}
100
AcDbPlotSettings
  1

  2

  4

  6

 40
0.0
 41
0.0
 42
0.0
 43
0.0
 44
0.0
 45
0.0
 46
0.0
 47
0.0
 48
0.0
 49
0.0
140
0.0
141
0.0
142
1.0
143
1.0
 70
            1024
 72
               0
 73
               0
 74
               0
  7

 75
               0
147
1.0
148
0.0
149
0.0
100
AcDbLayout
  1
Model
 70
               0
 71
               0
 10
0.0
 20
0.0
 11
0.0
 21
0.0
 12
0.0
 22
0.0
 32
0.0
 14
0.0
 24
0.0
 34
0.0
 15
0.0
 25
0.0
 35
0.0
146
0.0
 13
0.0
 23
0.0
 33
0.0
 16
0.0
 26
0.0
 36
0.0
 17
0.0
 27
0.0
 37
0.0
 76
               0
330
A
331
0
345
0
346
0
  0
LAYOUT
  5
21
102
{ACAD_REACTORS
330
1E
102
}
100
AcDbPlotSettings
  1

  2

  4

  6

 40
0.0
 41
0.0
 42
0.0
 43
0.0
 44
0.0
 45
0.0
 46
0.0
 47
0.0
 48
0.0
 49
0.0
140
0.0
141
0.0
142
1.0
143
1.0
 70
               0
 72
               0
 73
               0
 74
               0
  7

 75
               0
147
1.0
148
0.0
149
0.0
100
AcDbLayout
  1
Layout1
 70
               0
 71
               0
 10
0.0
 20
0.0
 11
0.0
 21
0.0
 12
0.0
 22
0.0
 32
0.0
 14
0.0
 24
0.0
 34
0.0
 15
0.0
 25
0.0
 35
0.0
146
0.0
 13
0.0
 23
0.0
 33
0.0
 16
0.0
 26
0.0
 36
0.0
 17
0.0
 27
0.0
 37
0.0
 76
               0
330
B
331
0
345
0
346
0
  0
DICTIONARY
  5
1E
102
{ACAD_REACTORS
330
19
102
}
100
AcDbDictionary
280
               0
281
               1
  3
Layout1
350
21
  3
Model
350
20
  0
DICTIONARY
  5
22
102
{ACAD_REACTORS
330
19
102
}
100
AcDbDictionary
280
               0
281
               1
  0
ENDSEC
  0
EOF
