  0
SECTION
  2
HEADER
  9
$ACADVER
  1
AC1015
  9
$ACADMAINTVER
 70
               6
  9
$DWGCODEPAGE
  3
ANSI_932
  9
$INSBASE
 10
0.0
 20
0.0
 30
0.0
  9
$EXTMIN
 10
-975.00000000024124
 20
-1431.5255224711129
 30
-14.428611111111111
  9
$EXTMAX
 10
975.00000000024124
 20
1405.9972926412995
 30
14.428611111111111
  9
$LIMMIN
 10
0.0
 20
0.0
  9
$LIMMAX
 10
0.0
 20
0.0
  9
$ORTHOMODE
 70
               0
  9
$REGENMODE
 70
               1
  9
$FILLMODE
 70
               1
  9
$QTEXTMODE
 70
               0
  9
$MIRRTEXT
 70
               1
  9
$LTSCALE
 40
50.799999999999997
  9
$ATTMODE
 70
               1
  9
$TEXTSIZE
 40
0.2
  9
$TRACEWID
 40
1.0
  9
$TEXTSTYLE
  7
Standard
  9
$CLAYER
  8
template
  9
$CELTYPE
  6
Continuous
  9
$CECOLOR
 62
             256
  9
$CELTSCALE
 40
1.0
  9
$DISPSILH
 70
               0
  9
$DIMSCALE
 40
1.0
  9
$DIMASZ
 40
31.75
  9
$DIMEXO
 40
0.0
  9
$DIMDLI
 40
6.9999999999999396
  9
$DIMRND
 40
0.0
  9
$DIMDLE
 40
0.0
  9
$DIMEXE
 40
19.999999999996199
  9
$DIMTP
 40
0.0
  9
$DIMTM
 40
0.0
  9
$DIMTXT
 40
24.432617187500004
  9
$DIMCEN
 40
0.0
  9
$DIMTSZ
 40
0.0
  9
$DIMTOL
 70
               0
  9
$DIMLIM
 70
               0
  9
$DIMTIH
 70
               0
  9
$DIMTOH
 70
               0
  9
$DIMSE1
 70
               0
  9
$DIMSE2
 70
               0
  9
$DIMTAD
 70
               1
  9
$DIMZIN
 70
              11
  9
$DIMBLK
  1
VW_FILLEDARROW
  9
$DIMASO
 70
               1
  9
$DIMSHO
 70
               1
  9
$DIMPOST
  1
<>
  9
$DIMAPOST
  1
[]
  9
$DIMALT
 70
               0
  9
$DIMALTD
 70
               1
  9
$DIMALTF
 40
1.0
  9
$DIMLFAC
 40
1.0
  9
$DIMTOFL
 70
               0
  9
$DIMTVP
 40
0.0
  9
$DIMTIX
 70
               1
  9
$DIMSOXD
 70
               0
  9
$DIMSAH
 70
               0
  9
$DIMBLK1
  1

  9
$DIMBLK2
  1

  9
$DIMSTYLE
  2
JIS
  9
$DIMCLRD
 70
               0
  9
$DIMCLRE
 70
               0
  9
$DIMCLRT
 70
               0
  9
$DIMTFAC
 40
1.0
  9
$DIMGAP
 40
1.00000000000108
  9
$DIMJUST
 70
               0
  9
$DIMSD1
 70
               0
  9
$DIMSD2
 70
               0
  9
$DIMTOLJ
 70
               1
  9
$DIMTZIN
 70
              11
  9
$DIMALTZ
 70
              11
  9
$DIMALTTZ
 70
              11
  9
$DIMUPT
 70
               0
  9
$DIMDEC
 70
               1
  9
$DIMTDEC
 70
               1
  9
$DIMALTU
 70
               2
  9
$DIMALTTD
 70
               2
  9
$DIMTXSTY
  7
ＭＳ ゴシック
  9
$DIMAUNIT
 70
               0
  9
$DIMADEC
 70
               2
  9
$DIMALTRND
 40
0.0
  9
$DIMAZIN
 70
               0
  9
$DIMDSEP
 70
              46
  9
$DIMATFIT
 70
               0
  9
$DIMFRAC
 70
               2
  9
$DIMLDRBLK
  1

  9
$DIMLUNIT
 70
               2
  9
$DIMLWD
 70
              -2
  9
$DIMLWE
 70
              -2
  9
$DIMTMOVE
 70
               0
  9
$LUNITS
 70
               2
  9
$LUPREC
 70
               4
  9
$SKETCHINC
 40
0.1
  9
$FILLETRAD
 40
0.0
  9
$AUNITS
 70
               0
  9
$AUPREC
 70
               0
  9
$MENU
  1
acad
  9
$ELEVATION
 40
0.0
  9
$PELEVATION
 40
0.0
  9
$THICKNESS
 40
0.0
  9
$LIMCHECK
 70
               0
  9
$CHAMFERA
 40
0.0
  9
$CHAMFERB
 40
0.0
  9
$CHAMFERC
 40
0.0
  9
$CHAMFERD
 40
0.0
  9
$SKPOLY
 70
               0
  9
$TDCREATE
 40
2456049.426909722
  9
$TDUCREATE
 40
0.000000000
  9
$TDUPDATE
 40
2456049.426909722
  9
$TDUUPDATE
 40
0.000000000
  9
$TDINDWG
 40
0.0000000000
  9
$TDUSRTIMER
 40
0.0000000000
  9
$USRTIMER
 70
               1
  9
$ANGBASE
 50
0.0
  9
$ANGDIR
 70
               0
  9
$PDMODE
 70
               1
  9
$PDSIZE
 40
-2.0
  9
$PLINEWID
 40
0.0
  9
$SPLFRAME
 70
               0
  9
$SPLINETYPE
 70
               6
  9
$SPLINESEGS
 70
               8
  9
$HANDSEED
  5
1C6
  9
$SURFTAB1
 70
               6
  9
$SURFTAB2
 70
               6
  9
$SURFTYPE
 70
               6
  9
$SURFU
 70
               6
  9
$SURFV
 70
               6
  9
$UCSBASE
  2

  9
$UCSNAME
  2

  9
$UCSORG
 10
0.0
 20
0.0
 30
0.0
  9
$UCSXDIR
 10
1.0
 20
0.0
 30
0.0
  9
$UCSYDIR
 10
0.0
 20
1.0
 30
0.0
  9
$UCSORTHOREF
  2

  9
$UCSORTHOVIEW
 70
               0
  9
$UCSORGTOP
 10
0.0
 20
0.0
 30
0.0
  9
$UCSORGBOTTOM
 10
0.0
 20
0.0
 30
0.0
  9
$UCSORGLEFT
 10
0.0
 20
0.0
 30
0.0
  9
$UCSORGRIGHT
 10
0.0
 20
0.0
 30
0.0
  9
$UCSORGFRONT
 10
0.0
 20
0.0
 30
0.0
  9
$UCSORGBACK
 10
0.0
 20
0.0
 30
0.0
  9
$PUCSBASE
  2

  9
$PUCSNAME
  2

  9
$PUCSORG
 10
0.0
 20
0.0
 30
0.0
  9
$PUCSXDIR
 10
1.0
 20
0.0
 30
0.0
  9
$PUCSYDIR
 10
0.0
 20
1.0
 30
0.0
  9
$PUCSORTHOREF
  2

  9
$PUCSORTHOVIEW
 70
               0
  9
$PUCSORGTOP
 10
0.0
 20
0.0
 30
0.0
  9
$PUCSORGBOTTOM
 10
0.0
 20
0.0
 30
0.0
  9
$PUCSORGLEFT
 10
0.0
 20
0.0
 30
0.0
  9
$PUCSORGRIGHT
 10
0.0
 20
0.0
 30
0.0
  9
$PUCSORGFRONT
 10
0.0
 20
0.0
 30
0.0
  9
$PUCSORGBACK
 10
0.0
 20
0.0
 30
0.0
  9
$USERI1
 70
               0
  9
$USERI2
 70
               0
  9
$USERI3
 70
               0
  9
$USERI4
 70
               0
  9
$USERI5
 70
               0
  9
$USERR1
 40
0.0
  9
$USERR2
 40
0.0
  9
$USERR3
 40
0.0
  9
$USERR4
 40
0.0
  9
$USERR5
 40
0.0
  9
$WORLDVIEW
 70
               1
  9
$SHADEDGE
 70
               3
  9
$SHADEDIF
 70
              70
  9
$TILEMODE
 70
               1
  9
$MAXACTVP
 70
              64
  9
$PINSBASE
 10
0.0
 20
0.0
 30
0.0
  9
$PLIMCHECK
 70
               0
  9
$PEXTMIN
 10
1.0000000000000000E+20
 20
1.0000000000000000E+20
 30
1.0000000000000000E+20
  9
$PEXTMAX
 10
-1.0000000000000000E+20
 20
-1.0000000000000000E+20
 30
-1.0000000000000000E+20
  9
$PLIMMIN
 10
0.0
 20
0.0
  9
$PLIMMAX
 10
12.0
 20
9.0
  9
$UNITMODE
 70
               0
  9
$VISRETAIN
 70
               0
  9
$PLINEGEN
 70
               1
  9
$PSLTSCALE
 70
               0
  9
$TREEDEPTH
 70
            3020
  9
$CMLSTYLE
  2
Standard
  9
$CMLJUST
 70
               0
  9
$CMLSCALE
 40
1.0
  9
$PROXYGRAPHICS
 70
               0
  9
$MEASUREMENT
 70
               1
  9
$CELWEIGHT
370
               0
  9
$ENDCAPS
280
               0
  9
$JOINSTYLE
280
               0
  9
$LWDISPLAY
290
               1
  9
$INSUNITS
 70
               4
  9
$HYPERLINKBASE
  1

  9
$STYLESHEET
  1

  9
$XEDIT
290
               1
  9
$CEPSNTYPE
380
               0
  9
$PSTYLEMODE
290
               1
  9
$FINGERPRINTGUID
  2

  9
$VERSIONGUID
  2

  9
$EXTNAMES
290
               1
  9
$PSVPSCALE
 40
0.0
  0
ENDSEC
  0
SECTION
  2
CLASSES
  0
CLASS
  1
LWPOLYLINE
  2
AcDbPolyline
  3
AutoCAD 2000
 90
        0
280
               0
281
               1
  0
CLASS
  1
IMAGE
  2
AcDbRasterImage
  3
ISM
 90
      127
280
               0
281
               1
  0
CLASS
  1
OLE2FRAME
  2
AcDbOle2Frame
  3
AutoCAD 2000
 90
        0
280
               0
281
               1
  0
CLASS
  1
HATCH
  2
AcDbHatch
  3
AutoCAD 2000
 90
        0
280
               0
281
               1
  0
CLASS
  1
DICTIONARYVAR
  2
AcDbDictionaryVar
  3
AutoCAD 2000
 90
        0
280
               0
281
               0
  0
CLASS
  1
RASTERVARIABLES
  2
AcDbRasterVariables
  3
ISM
 90
        0
280
               0
281
               0
  0
CLASS
  1
IMAGEDEF
  2
AcDbRasterImageDef
  3
ISM
 90
        0
280
               0
281
               0
  0
CLASS
  1
IMAGEDEF_REACTOR
  2
AcDbRasterImageDefReactor
  3
ISM
 90
        1
280
               0
281
               0
  0
CLASS
  1
IDBUFFER
  2
AcDbIdBuffer
  3
AutoCAD 2000
 90
        0
280
               0
281
               0
  0
CLASS
  1
SPATIAL_FILTER
  2
AcDbSpatialFilter
  3
AutoCAD 2000
 90
        0
280
               0
281
               0
  0
CLASS
  1
XRECORD
  2
AcDbXrecord
  3
AutoCAD 2000
 90
        0
280
               0
281
               0
  0
CLASS
  1
SORTENTSTABLE
  2
AcDbSortentsTable
  3
AutoCAD 2000
 90
        0
280
               0
281
               0
  0
CLASS
  1
LAYER_INDEX
  2
AcDbLayerIndex
  3
AutoCAD 2000
 90
        0
280
               0
281
               0
  0
CLASS
  1
SPATIAL_INDEX
  2
AcDbSpatialIndex
  3
AutoCAD 2000
 90
        0
280
               0
281
               0
  0
CLASS
  1
OBJECT_PTR
  2
CAseDLPNTableRecord
  3
"ASE-LPNTableRecord"
 90
        1
280
               0
281
               0
  0
CLASS
  1
LAYOUT
  2
AcDbLayout
  3
AutoCAD 2000
 90
        0
280
               0
281
               0
  0
CLASS
  1
PLOTSETTINGS
  2
AcDbPlotSettings
  3
AutoCAD 2000
 90
        0
280
               0
281
               0
  0
CLASS
  1
ACDBDICTIONARYWDFLT
  2
AcDbDictionaryWithDefault
  3
AutoCAD 2000
 90
        0
280
               0
281
               0
  0
CLASS
  1
ACDBPLACEHOLDER
  2
AcDbPlaceHolder
  3
AutoCAD 2000
 90
        0
280
               0
281
               0
  0
ENDSEC
  0
SECTION
  2
TABLES
  0
TABLE
  2
VPORT
  5
7
100
AcDbSymbolTable
 70
               1
  0
VPORT
  5
15
100
AcDbSymbolTableRecord
100
AcDbViewportTableRecord
  2
*ACTIVE
 70
               0
 10
0.0
 20
0.0
 11
1.0
 21
1.0
 12
0.0
 22
-12.764114914906713
 13
0.0
 23
0.0
 14
1.0
 24
1.0
 15
0.0
 25
0.0
 16
0.0
 26
0.0
 36
1.0
 17
0.0
 27
0.0
 37
0.0
 40
2837.5228151124124
 41
0.688564
 42
50.0
 43
0.0
 44
0.0
 50
0.0
 51
0.0
 71
               0
 72
            2000
 73
               1
 74
               1
 75
               0
 76
               0
 77
               0
 78
               0
281
               0
 65
               0
110
0.0
120
0.0
130
0.0
111
1.0
121
0.0
131
0.0
112
0.0
122
1.0
132
0.0
345
0
346
0
 79
               0
146
0.0
  0
ENDTAB
  0
TABLE
  2
LTYPE
  5
4
100
AcDbSymbolTable
 70
              17
  0
LTYPE
  5
11
100
AcDbSymbolTableRecord
100
AcDbLinetypeTableRecord
  2
ByBlock
 70
              64
  3

 72
              65
 73
               0
 40
0.0
  0
LTYPE
  5
12
100
AcDbSymbolTableRecord
100
AcDbLinetypeTableRecord
  2
ByLayer
 70
              64
  3

 72
              65
 73
               0
 40
0.0
  0
LTYPE
  5
13
100
AcDbSymbolTableRecord
100
AcDbLinetypeTableRecord
  2
Continuous
 70
              64
  3
Solid line
 72
              65
 73
               0
 40
0.0
  0
LTYPE
  5
37
100
AcDbSymbolTableRecord
100
AcDbLinetypeTableRecord
  2
STYLE_01
 70
               0
  3

 72
              65
 73
               4
 40
0.3999999999999999
 49
0.25
 74
               0
 49
-0.05
 74
               0
 49
0.05
 74
               0
 49
-0.05
 74
               0
  0
LTYPE
  5
38
100
AcDbSymbolTableRecord
100
AcDbLinetypeTableRecord
  2
STYLE_02
 70
               0
  3

 72
              65
 73
               2
 40
0.6944250000000001
 49
0.48607
 74
               0
 49
-0.2083550000000001
 74
               0
  0
LTYPE
  5
39
100
AcDbSymbolTableRecord
100
AcDbLinetypeTableRecord
  2
STYLE_03
 70
               0
  3

 72
              65
 73
               2
 40
1.25
 49
1.0416400000000001
 74
               0
 49
-0.2083599999999999
 74
               0
  0
LTYPE
  5
3A
100
AcDbSymbolTableRecord
100
AcDbLinetypeTableRecord
  2
STYLE_04
 70
               0
  3

 72
              65
 73
               2
 40
1.5277099999999999
 49
1.3194249999999998
 74
               0
 49
-0.208285
 74
               0
  0
LTYPE
  5
3B
100
AcDbSymbolTableRecord
100
AcDbLinetypeTableRecord
  2
STYLE_05
 70
               0
  3

 72
              65
 73
               2
 40
0.20828
 49
0.069425
 74
               0
 49
-0.138855
 74
               0
  0
LTYPE
  5
3C
100
AcDbSymbolTableRecord
100
AcDbLinetypeTableRecord
  2
STYLE_06
 70
               0
  3

 72
              65
 73
               4
 40
1.0416400000000001
 49
0.625
 74
               0
 49
-0.20828
 74
               0
 49
0.06943
 74
               0
 49
-0.13893
 74
               0
  0
LTYPE
  5
3D
100
AcDbSymbolTableRecord
100
AcDbLinetypeTableRecord
  2
STYLE_07
 70
               0
  3

 72
              65
 73
               6
 40
1.875
 49
0.625
 74
               0
 49
-0.20828
 74
               0
 49
0.6250000000000001
 74
               0
 49
-0.2083599999999999
 74
               0
 49
0.06943
 74
               0
 49
-0.1389299999999999
 74
               0
  0
LTYPE
  5
3E
100
AcDbSymbolTableRecord
100
AcDbLinetypeTableRecord
  2
STYLE_08
 70
               0
  3

 72
              65
 73
               6
 40
1.25
 49
0.625
 74
               0
 49
-0.20828
 74
               0
 49
0.06943
 74
               0
 49
-0.13893
 74
               0
 49
0.0694299999999999
 74
               0
 49
-0.13893
 74
               0
  0
LTYPE
  5
3F
100
AcDbSymbolTableRecord
100
AcDbLinetypeTableRecord
  2
STYLE_09
 70
               0
  3

 72
              65
 73
               4
 40
5.0
 49
3.75
 74
               0
 49
-0.2777849999999998
 74
               0
 49
0.6944300000000003
 74
               0
 49
-0.2777849999999998
 74
               0
  0
LTYPE
  5
40
100
AcDbSymbolTableRecord
100
AcDbLinetypeTableRecord
  2
STYLE_10
 70
               0
  3

 72
              65
 73
               6
 40
5.9375
 49
3.75
 74
               0
 49
-0.2777849999999998
 74
               0
 49
0.6944300000000003
 74
               0
 49
-0.2777849999999998
 74
               0
 49
0.625
 74
               0
 49
-0.3125
 74
               0
  0
LTYPE
  5
41
100
AcDbSymbolTableRecord
100
AcDbLinetypeTableRecord
  2
STYLE_11
 70
               0
  3

 72
              65
 73
               2
 40
0.0694444881889764
 49
0.0347222440944882
 74
               0
 49
-0.0347222440944882
 74
               0
  0
LTYPE
  5
42
100
AcDbSymbolTableRecord
100
AcDbLinetypeTableRecord
  2
STYLE_12
 70
               0
  3

 72
              65
 73
               2
 40
0.3937007874015748
 49
0.1968503937007874
 74
               0
 49
-0.1968503937007874
 74
               0
  0
LTYPE
  5
43
100
AcDbSymbolTableRecord
100
AcDbLinetypeTableRecord
  2
STYLE_13
 70
               0
  3

 72
              65
 73
               2
 40
0.5905511811023622
 49
0.2952755905511811
 74
               0
 49
-0.2952755905511811
 74
               0
  0
LTYPE
  5
44
100
AcDbSymbolTableRecord
100
AcDbLinetypeTableRecord
  2
STYLE_14
 70
               0
  3

 72
              65
 73
               2
 40
1.9685039370078738
 49
0.9842519685039369
 74
               0
 49
-0.9842519685039369
 74
               0
  0
ENDTAB
  0
TABLE
  2
LAYER
  5
2
100
AcDbSymbolTable
 70
               5
  0
LAYER
  5
14
100
AcDbSymbolTableRecord
100
AcDbLayerTableRecord
  2
0
 70
               0
 62
               7
  6
Continuous
290
               1
370
              -3
390
1D
  0
LAYER
  5
45
100
AcDbSymbolTableRecord
100
AcDbLayerTableRecord
  2
Defpoints
 70
               0
 62
               7
  6
Continuous
290
               0
370
              -3
390
1D
  0
LAYER
  5
46
100
AcDbSymbolTableRecord
100
AcDbLayerTableRecord
  2
template
 70
               0
 62
               7
  6
Continuous
290
               1
370
              -3
390
1D
  0
LAYER
  5
47
100
AcDbSymbolTableRecord
100
AcDbLayerTableRecord
  2
notes
 70
               0
 62
               7
  6
Continuous
290
               1
370
              -3
390
1D
  0
LAYER
  5
48
100
AcDbSymbolTableRecord
100
AcDbLayerTableRecord
  2
FAN70-0104
 70
               0
 62
               7
  6
Continuous
290
               1
370
              -3
390
1D
  0
ENDTAB
  0
TABLE
  2
STYLE
  5
3
100
AcDbSymbolTable
 70
               3
  0
STYLE
  5
17
100
AcDbSymbolTableRecord
100
AcDbTextStyleTableRecord
  2
Standard
 70
               0
 40
0.0
 41
1.0
 50
0.0
 71
               0
 42
0.0
  3
txt
  4
BIGFONT.SHX
  0
STYLE
  5
35
100
AcDbSymbolTableRecord
100
AcDbTextStyleTableRecord
  2
MS UI Gothic
 70
               0
 40
0.0
 41
1.0
 50
0.0
 71
               0
 42
0.0
  3

  4
MS UI Gothic
1001
ACAD
1000
MS UI Gothic
1071
        0
  0
STYLE
  5
36
100
AcDbSymbolTableRecord
100
AcDbTextStyleTableRecord
  2
ＭＳ ゴシック
 70
               0
 40
0.0
 41
1.0
 50
0.0
 71
               0
 42
0.0
  3

  4
ＭＳ ゴシック
1001
ACAD
1000
ＭＳ ゴシック
1071
        0
  0
ENDTAB
  0
TABLE
  2
VIEW
  5
5
100
AcDbSymbolTable
 70
               0
  0
ENDTAB
  0
TABLE
  2
UCS
  5
6
100
AcDbSymbolTable
 70
               0
  0
ENDTAB
  0
TABLE
  2
APPID
  5
8
100
AcDbSymbolTable
 70
               1
  0
APPID
  5
16
100
AcDbSymbolTableRecord
100
AcDbRegAppTableRecord
  2
ACAD
 70
               0
  0
ENDTAB
  0
TABLE
  2
DIMSTYLE
  5
9
100
AcDbSymbolTable
 70
               3
100
AcDbDimStyleTable
 71
               0
  0
DIMSTYLE
105
18
100
AcDbSymbolTableRecord
100
AcDbDimStyleTableRecord
  2
Standard
 70
               0
  3

  4

 40
1.0
 41
0.18
 42
0.0625
 43
0.38
 44
0.18
 45
0.0
 46
0.0
 47
0.0
 48
0.0
 71
               0
 72
               0
 73
               1
 74
               1
 75
               0
 76
               0
 77
               0
 78
               0
 79
               0
140
0.18
141
0.09
142
0.0
143
25.399999999999999
144
1.0
145
0.0
146
1.0
147
0.09
148
0.0
170
               0
171
               2
172
               0
173
               0
174
               0
175
               0
176
               0
177
               0
178
               0
179
               0
271
               4
272
               4
273
               2
274
               2
275
               0
276
               0
277
               2
278
              46
279
               0
280
               0
281
               0
282
               0
283
               1
284
               0
285
               0
286
               0
288
               0
289
               3
340
17
341
0
342
0
343
0
344
0
371
              -2
372
              -2
  0
DIMSTYLE
105
51
100
AcDbSymbolTableRecord
100
AcDbDimStyleTableRecord
  2
tfrom線あり
 70
               0
  3
<>
  4
[]
 40
1.0
 41
3.999755859375
 42
24.999999999999996
 43
0.9999999999999999
 44
0.0
 45
0.0
 46
0.0
 47
0.0
 48
0.0
 71
               0
 72
               0
 73
               0
 74
               0
 75
               0
 76
               0
 77
               1
 78
              11
 79
               0
140
24.432617187500004
141
0.0
142
0.0
143
1.0
144
1.0
145
0.0
146
1.0
147
0.4999999999999999
148
0.0
170
               0
171
               1
172
               0
173
               0
174
               1
175
               0
176
               0
177
               0
178
               0
179
               2
271
               1
272
               1
273
               2
274
               2
275
               0
276
               2
277
               2
278
              46
279
               0
280
               0
281
               0
282
               0
283
               1
284
              11
285
              11
286
              11
288
               0
289
               0
340
36
341
49
342
49
343
0
344
0
371
              -2
372
              -2
  0
DIMSTYLE
105
56
100
AcDbSymbolTableRecord
100
AcDbDimStyleTableRecord
  2
JIS
 70
               0
  3
<>
  4
[]
 40
1.0
 41
31.75
 42
0.0
 43
6.9999999999999396
 44
19.999999999996199
 45
0.0
 46
0.0
 47
0.0
 48
0.0
 71
               0
 72
               0
 73
               0
 74
               0
 75
               0
 76
               0
 77
               1
 78
              11
 79
               0
140
24.432617187500004
141
0.0
142
0.0
143
1.0
144
1.0
145
0.0
146
1.0
147
1.00000000000108
148
0.0
170
               0
171
               1
172
               0
173
               0
174
               1
175
               0
176
               0
177
               0
178
               0
179
               2
271
               1
272
               1
273
               2
274
               2
275
               0
276
               2
277
               2
278
              46
279
               0
280
               0
281
               0
282
               0
283
               1
284
              11
285
              11
286
              11
288
               0
289
               0
340
36
341
52
342
52
343
0
344
0
371
              -2
372
              -2
  0
ENDTAB
  0
TABLE
  2
BLOCK_RECORD
  5
1
100
AcDbSymbolTable
 70
              20
  0
BLOCK_RECORD
  5
A
100
AcDbSymbolTableRecord
100
AcDbBlockTableRecord
  2
*MODEL_SPACE
340
20
  0
BLOCK_RECORD
  5
B
100
AcDbSymbolTableRecord
100
AcDbBlockTableRecord
  2
*PAPER_SPACE
340
21
  0
BLOCK_RECORD
  5
49
100
AcDbSymbolTableRecord
100
AcDbBlockTableRecord
  2
_DOT
340
0
  0
BLOCK_RECORD
  5
52
100
AcDbSymbolTableRecord
100
AcDbBlockTableRecord
  2
VW_FILLEDARROW
340
0
  0
BLOCK_RECORD
  5
23
100
AcDbSymbolTableRecord
100
AcDbBlockTableRecord
  2
グループ
340
0
102
{BLKREFS
331
13D
102
}
  0
BLOCK_RECORD
  5
24
100
AcDbSymbolTableRecord
100
AcDbBlockTableRecord
  2
*D3
340
0
  0
BLOCK_RECORD
  5
25
100
AcDbSymbolTableRecord
100
AcDbBlockTableRecord
  2
*D4
340
0
  0
BLOCK_RECORD
  5
26
100
AcDbSymbolTableRecord
100
AcDbBlockTableRecord
  2
*D5
340
0
  0
BLOCK_RECORD
  5
27
100
AcDbSymbolTableRecord
100
AcDbBlockTableRecord
  2
*D6
340
0
  0
BLOCK_RECORD
  5
28
100
AcDbSymbolTableRecord
100
AcDbBlockTableRecord
  2
*D7
340
0
  0
BLOCK_RECORD
  5
29
100
AcDbSymbolTableRecord
100
AcDbBlockTableRecord
  2
*D8
340
0
  0
BLOCK_RECORD
  5
2A
100
AcDbSymbolTableRecord
100
AcDbBlockTableRecord
  2
*D9
340
0
  0
BLOCK_RECORD
  5
2B
100
AcDbSymbolTableRecord
100
AcDbBlockTableRecord
  2
*D10
340
0
  0
BLOCK_RECORD
  5
2C
100
AcDbSymbolTableRecord
100
AcDbBlockTableRecord
  2
*D11
340
0
  0
BLOCK_RECORD
  5
2D
100
AcDbSymbolTableRecord
100
AcDbBlockTableRecord
  2
*D12
340
0
  0
BLOCK_RECORD
  5
2E
100
AcDbSymbolTableRecord
100
AcDbBlockTableRecord
  2
*D13
340
0
  0
BLOCK_RECORD
  5
2F
100
AcDbSymbolTableRecord
100
AcDbBlockTableRecord
  2
*D14
340
0
  0
BLOCK_RECORD
  5
30
100
AcDbSymbolTableRecord
100
AcDbBlockTableRecord
  2
*D15
340
0
  0
BLOCK_RECORD
  5
31
100
AcDbSymbolTableRecord
100
AcDbBlockTableRecord
  2
*D16
340
0
  0
BLOCK_RECORD
  5
32
100
AcDbSymbolTableRecord
100
AcDbBlockTableRecord
  2
*D17
340
0
  0
BLOCK_RECORD
  5
33
100
AcDbSymbolTableRecord
100
AcDbBlockTableRecord
  2
*D18
340
0
  0
BLOCK_RECORD
  5
34
100
AcDbSymbolTableRecord
100
AcDbBlockTableRecord
  2
グループ-1
340
0
102
{BLKREFS
331
1BF
102
}
  0
ENDTAB
  0
ENDSEC
  0
SECTION
  2
BLOCKS
  0
BLOCK
  5
D
100
AcDbEntity
  8
0
390
0
100
AcDbBlockBegin
  2
*MODEL_SPACE
 70
               0
 10
0.0
 20
0.0
 30
0.0
  3
*MODEL_SPACE
  1

  0
ENDBLK
  5
E
100
AcDbEntity
  8
0
390
0
100
AcDbBlockEnd
  0
BLOCK
  5
F
100
AcDbEntity
 67
               1
  8
0
390
0
100
AcDbBlockBegin
  2
*PAPER_SPACE
 70
               0
 10
0.0
 20
0.0
 30
0.0
  3
*PAPER_SPACE
  1

  0
ENDBLK
  5
10
100
AcDbEntity
 67
               1
  8
0
390
0
100
AcDbBlockEnd
  0
BLOCK
  5
4A
100
AcDbEntity
  8
0
390
0
100
AcDbBlockBegin
  2
_DOT
 70
               0
 10
0.0
 20
0.0
 30
0.0
  3
_DOT
  1

  0
POLYLINE
  5
4B
100
AcDbEntity
  8
0
370
              -2
390
0
  6
ByBlock
 62
               0
100
AcDb2dPolyline
 66
               1
 10
0.0
 20
0.0
 30
0.0
 70
               1
 40
0.5
 41
0.5
  0
VERTEX
  5
4C
100
AcDbEntity
  8
0
370
              -2
390
0
  6
ByBlock
 62
               0
100
AcDbVertex
100
AcDb2dVertex
 10
-0.25
 20
0.0
 30
0.0
 42
1.0
  0
VERTEX
  5
4D
100
AcDbEntity
  8
0
370
              -2
390
0
  6
ByBlock
 62
               0
100
AcDbVertex
100
AcDb2dVertex
 10
0.25
 20
0.0
 30
0.0
 42
1.0
  0
SEQEND
  5
4E
100
AcDbEntity
  8
0
390
0
  0
LINE
  5
4F
100
AcDbEntity
  8
0
370
              -2
390
0
  6
ByBlock
 62
               0
100
AcDbLine
 10
-0.5
 20
0.0
 30
0.0
 11
-1.0
 21
0.0
 31
0.0
  0
ENDBLK
  5
50
100
AcDbEntity
  8
0
390
0
100
AcDbBlockEnd
  0
BLOCK
  5
53
100
AcDbEntity
  8
0
370
              -2
390
0
  6
ByBlock
 62
               0
100
AcDbBlockBegin
  2
VW_FILLEDARROW
 70
               0
 10
0.0
 20
0.0
 30
0.0
  3
VW_FILLEDARROW
  1

  0
SOLID
  5
54
100
AcDbEntity
  8
0
370
              -2
390
0
 62
               0
100
AcDbTrace
 10
0.0
 20
0.0
 30
0.0
 11
-0.9921874999999999
 21
-0.2658558393652545
 31
0.0
 12
-0.9921874999999999
 22
0.2658558393652548
 32
0.0
 13
-0.9921874999999999
 23
0.2658558393652548
 33
0.0
  0
ENDBLK
  5
55
100
AcDbEntity
  8
0
390
0
100
AcDbBlockEnd
  0
BLOCK
  5
57
100
AcDbEntity
  8
template
390
0
100
AcDbBlockBegin
  2
グループ
 70
               0
 10
0.0
 20
0.0
 30
0.0
  3
グループ
  1

  0
LWPOLYLINE
  5
58
100
AcDbEntity
  8
0
370
              15
390
0
  6
Continuous
 62
               7
100
AcDbPolyline
 90
        8
 70
             129
 10
887.42850780307481
 20
-1211.0897210236858
 10
887.42850780307481
 20
-1217.0871097172617
 10
877.92731088507151
 20
-1217.0871097172617
 10
877.92731088507151
 20
-1241.5380729807705
 10
869.57193362328871
 20
-1241.5380729807705
 10
869.57193362328871
 20
-1217.0871097172617
 10
860.23897667697929
 20
-1217.0871097172617
 10
860.23897667697929
 20
-1211.0897210236858
  0
LWPOLYLINE
  5
59
100
AcDbEntity
  8
0
370
              15
390
0
  6
Continuous
 62
               7
100
AcDbPolyline
 90
      101
 70
             128
 10
900.15679963363175
 20
-1211.8179695166223
 10
900.17214966241681
 20
-1211.8136087599371
 42
-0.0222221607812452
 10
900.46215423908779
 20
-1211.7449842946926
 10
900.47794800307383
 20
-1211.741980871597
 42
-0.0146883565588939
 10
900.74065070830557
 20
-1211.6999776846462
 42
-0.0127458844187259
 10
901.00528967545358
 20
-1211.6724407165741
 10
901.06774475377142
 20
-1211.6675472939855
 42
-0.0198099018564287
 10
901.45859386324787
 20
-1211.6524621365888
 10
901.51040533269202
 20
-1211.6525159122539
 42
-0.0147617382763228
 10
902.00502879366297
 20
-1211.6676359374987
 10
902.07772024854614
 20
-1211.6720085443869
 42
-0.0162624549002208
 10
902.46787387800578
 20
-1211.7082414196589
 10
902.58940626927017
 20
-1211.723527978656
 42
-0.008002087465951
 10
902.73498530035658
 20
-1211.7442108259238
 10
902.77330477094858
 20
-1211.7502821037344
 42
-0.0053821929678317
 10
902.84178887626638
 20
-1211.7618896275565
 10
902.11538317706777
 20
-1213.9428180832704
 42
0.0108667757373932
 10
902.04806610694311
 20
-1213.9296309680515
 10
902.01059808374748
 20
-1213.923133225456
 42
0.0170663203307674
 10
901.8673812968334
 20
-1213.9033036281644
 10
901.79950596414892
 20
-1213.8962564575768
 42
0.0220162375277064
 10
901.51912655629246
 20
-1213.8795740968067
 10
901.44127098924127
 20
-1213.8783747295402
 42
0.0282606915787413
 10
901.10563466566362
 20
-1213.8921780065093
 10
901.06172139189073
 20
-1213.8964779965131
 42
0.0169677213689715
 10
900.8157968969324
 20
-1213.9290150460647
 42
0.0190576269861447
 10
900.57288893435577
 20
-1213.9791619181703
 10
900.56662974624146
 20
-1213.9807048922805
 42
0.0213685642848026
 10
900.31624526176222
 20
-1214.0539051773858
 10
900.3107553668475
 20
-1214.0557681734444
 42
0.0237595297595475
 10
900.05726048195015
 20
-1214.1554526953394
 10
900.05215840791914
 20
-1214.1577444708182
 42
0.0261857468820483
 10
899.79998763169021
 20
-1214.2872808081922
 10
899.78956144260201
 20
-1214.2933462826613
 42
0.0272553062022719
 10
899.55313166736369
 20
-1214.4487184886052
 10
899.51836865385451
 20
-1214.4743796366972
 42
0.03259968931689
 10
899.36821331020269
 20
-1214.6011275096689
 10
899.34450388107882
 20
-1214.6239455381824
 42
0.0138050960634597
 10
899.25262072486953
 20
-1214.7173951997333
 42
0.0125280103795566
 10
899.16577819203962
 20
-1214.8155585263291
 10
899.14209774712765
 20
-1214.8437170245209
 42
0.0205218024743723
 10
899.01699767161176
 20
-1215.0055103387531
 10
898.99453133112684
 20
-1215.0371700685769
 42
0.0163110129583144
 10
898.8388209518755
 20
-1215.2725005036468
 10
898.83609705582455
 20
-1215.2769242656323
 42
0.0131897341894377
 10
898.68929653492035
 20
-1215.5300563579938
 10
898.68759643955218
 20
-1215.5331745971325
 42
0.0107895576065353
 10
898.54981973734141
 20
-1215.7993898067675
 10
898.5490868478164
 20
-1215.8008840394141
 42
0.0091371507219953
 10
898.42060689916912
 20
-1216.0754092371685
 10
898.3908612677576
 20
-1216.1421157443324
 42
0.0135418326351088
 10
898.21914732868436
 20
-1216.5570535296054
 10
898.1855425202524
 20
-1216.6449196718806
 42
0.0092834542408008
 10
898.01431346033087
 20
-1217.1188181701878
 10
897.98869633261779
 20
-1217.1940592399676
 42
0.005426104357676
 10
897.88105818432018
 20
-1217.5218232130464
 10
897.86353219812088
 20
-1217.5772113753458
 42
0.0008225090824692
 10
897.79486214631277
 20
-1217.7954801334256
 10
896.8101730143793
 20
-1220.8203714266822
 10
900.04279685445317
 20
-1220.8203714266822
 10
899.53860442459973
 20
-1222.7248497250346
 10
896.28254814261641
 20
-1222.7248497250346
 10
890.45339911026258
 20
-1241.5380727910394
 10
888.62830149995227
 20
-1241.5380727910394
 10
894.4629795354532
 20
-1222.7248497250346
 10
892.05786316641286
 20
-1222.7248497250346
 10
892.5620555962663
 20
-1220.8203714266822
 10
894.99060440721632
 20
-1220.8203714266822
 10
895.85075932540497
 20
-1218.1839584259833
 42
-0.0005863560658428
 10
895.88749400356585
 20
-1218.0671320058268
 10
895.96358183726886
 20
-1217.8261397063061
 42
-0.0087522378926788
 10
896.16304998072587
 20
-1217.2308636191592
 10
896.25531425613769
 20
-1216.9707234506507
 42
-0.0077400953831728
 10
896.51324791527031
 20
-1216.2777187730985
 10
896.52901288685291
 20
-1216.2372878897029
 42
-0.0082369946330585
 10
896.77609735746114
 20
-1215.6332088235167
 42
-0.0085725238367371
 10
897.04334345346331
 20
-1215.037782784231
 10
897.1449730544731
 20
-1214.8213616822409
 42
-0.0168109410594301
 10
897.43191748320146
 20
-1214.2601541561401
 10
897.55776087362358
 20
-1214.0331901232089
 42
-0.0007817726869565
 10
897.61204522371713
 20
-1213.9356458781117
 10
897.6121735297304
 20
-1213.9354161693825
 42
-0.003662614216385
 10
897.6670613937556
 20
-1213.8388182894066
 42
-0.008022115068256
 10
897.72418564915733
 20
-1213.7435390546618
 10
897.75488560052349
 20
-1213.6941481055314
 42
-0.0202139325582883
 10
897.88254134032798
 20
-1213.5061665048534
 10
897.93660880551784
 20
-1213.4330876406093
 42
-0.0249323791800498
 10
898.19577159923779
 20
-1213.1170423984543
 10
898.219911413364
 20
-1213.0904281255425
 42
-0.0242132121540895
 10
898.55959215490702
 20
-1212.7505446393377
 10
898.60750372765608
 20
-1212.7070355031528
 42
-0.0251017527857077
 10
898.8914854282973
 20
-1212.4740427573875
 10
898.89293090511035
 20
-1212.4729734998091
 42
-0.0130868069035934
 10
899.19119155506837
 20
-1212.2641930312661
 10
899.19275337421232
 20
-1212.2631595909904
 42
-0.0290329526388077
 10
899.50386451560439
 20
-1212.0823340893617
 10
899.53371007759426
 20
-1212.0672317065203
 42
-0.0160250190047949
 10
899.79961449135521
 20
-1211.9432155963091
 42
-0.0267600374780309
 10
900.07489056882525
 20
-1211.8424672757599
 10
900.10162648834478
 20
-1211.8342747169347
 42
-0.0049981587669928
 10
900.15679963363175
 20
-1211.8179695166223
 42
-0.0049981587669928
  0
LWPOLYLINE
  5
5A
100
AcDbEntity
  8
0
370
              15
390
0
  6
Continuous
 62
               7
100
AcDbPolyline
 90
      118
 70
             128
 10
919.97116719807866
 20
-1220.8943547545095
 10
921.84628912257813
 20
-1220.8943547545095
 10
921.00825021697824
 20
-1223.5759212809096
 42
-0.0010587229260512
 10
921.0397060324857
 20
-1223.5390167476294
 10
921.09790012318217
 20
-1223.4710344913785
 42
-0.0071874740413046
 10
921.24827534127417
 20
-1223.3003937993562
 10
921.38999811454244
 20
-1223.1441576580364
 42
-0.0148118053513779
 10
921.84012740725132
 20
-1222.6765438120271
 10
921.92734974215728
 20
-1222.5911464911694
 42
-0.0086273358692718
 10
922.26289854316542
 20
-1222.2737708571533
 10
922.30673225939165
 20
-1222.23372121282
 42
-0.0103138323115429
 10
922.56475596162477
 20
-1222.0075580754819
 10
922.61053036796045
 20
-1221.9690760282144
 42
-0.0060206748564274
 10
922.78337843206407
 20
-1221.8272813774674
 10
922.78540956295512
 20
-1221.825655671832
 42
-0.0067069027290416
 10
922.95770237761258
 20
-1221.6915050380412
 10
922.96025114354586
 20
-1221.6895748681604
 42
-0.0076184352049488
 10
923.13115640940987
 20
-1221.5641999929221
 42
-0.0089652861668072
 10
923.30611737214338
 20
-1221.4445667325899
 10
923.34246909228841
 20
-1221.420655519107
 42
-0.0156916245939222
 10
923.5384285894495
 20
-1221.3003930326322
 42
-0.0023299011069693
 10
923.73869063340589
 20
-1221.1872150931042
 10
923.75407476580915
 20
-1221.1786150980265
 42
-0.0107669341481016
 10
923.98831159091708
 20
-1221.0542149646735
 10
924.0105763919853
 20
-1221.042998214727
 42
-0.0078058045897393
 10
924.29416650993721
 20
-1220.905636759089
 10
924.30407359764718
 20
-1220.9010276312201
 42
-0.0181829330470019
 10
924.61438300226393
 20
-1220.770163890124
 10
924.66843844482628
 20
-1220.7496487701821
 42
-0.0208411536031712
 10
925.01752341227984
 20
-1220.633558307688
 10
925.03187951240784
 20
-1220.6294398627342
 42
-0.0222799817138781
 10
925.3605993063245
 20
-1220.5507982965942
 10
925.369488269567
 20
-1220.5490862860081
 42
-0.0215509523880513
 10
925.68595923784142
 20
-1220.5021705974746
 10
925.72844119889055
 20
-1220.4977330706838
 42
-0.0182545924872433
 10
925.96254997819551
 20
-1220.4818892452929
 10
926.00195099454572
 20
-1220.4806647002135
 42
-0.0072962856529016
 10
926.15787387423256
 20
-1220.4780953716916
 10
926.18697354480855
 20
-1220.4780405362878
 42
-0.0059227516318863
 10
926.2847230439495
 20
-1220.4790142480783
 10
926.31396526146034
 20
-1220.4796520146824
 42
-0.0011833111901678
 10
926.35321654515383
 20
-1220.4806010189916
 10
925.55782994954666
 20
-1223.0193349640906
 42
0.0143932051600522
 10
925.53142856719546
 20
-1223.0091359940452
 10
925.52415659477879
 20
-1223.0065647751881
 42
0.0234388603528566
 10
925.48232572884706
 20
-1222.9939455394729
 10
925.47364406593397
 20
-1222.9917645774676
 42
0.0199162742983152
 10
925.41335523185228
 20
-1222.9791478421321
 10
925.39254129404776
 20
-1222.9756506427041
 42
0.0293643550667025
 10
925.28946643528752
 20
-1222.9645005970508
 10
925.26478125456833
 20
-1222.9632889800323
 42
0.0214606686862998
 10
925.11164033861519
 20
-1222.9623504196147
 10
925.10226842779787
 20
-1222.962695331159
 42
0.016756405417396
 10
924.93074823668678
 20
-1222.9747723735272
 10
924.92228844393048
 20
-1222.9756537139542
 42
0.0137677553240932
 10
924.73493513066455
 20
-1223.0004030224979
 10
924.72758339115785
 20
-1223.0015809424658
 42
0.0118497261482271
 10
924.52708562705527
 20
-1223.038598292655
 10
924.52093561980928
 20
-1223.039885155375
 42
0.0106421143889724
 10
924.31005473252526
 20
-1223.0887175309497
 10
924.30514592413522
 20
-1223.0899648736349
 42
0.0099746379706321
 10
924.08668745497073
 20
-1223.1501394019504
 10
924.02513941480242
 20
-1223.1684212805803
 42
0.0191613675859732
 10
923.68915495228691
 20
-1223.2823986608673
 10
923.60109517953742
 20
-1223.3160855711928
 42
0.0205274080144368
 10
923.21578840764073
 20
-1223.4819139790179
 10
923.15813912565829
 20
-1223.5095819435905
 42
0.0181256912196064
 10
922.89986218499178
 20
-1223.6452657625682
 10
922.84690680168444
 20
-1223.6755833757791
 42
0.0140709242402873
 10
922.7019518670495
 20
-1223.7640780492172
 10
922.67570299843271
 20
-1223.7811348679315
 42
0.0086667884395987
 10
922.58677683688848
 20
-1223.8411375358155
 42
0.0036408192034625
 10
922.49934359883844
 20
-1223.9033183936199
 10
922.46411672438649
 20
-1223.9287593395206
 42
0.0052260781272892
 10
922.30788802701056
 20
-1224.0440917261435
 10
922.29168117073573
 20
-1224.0563198367731
 42
0.0050024435898219
 10
922.10567782767976
 20
-1224.1996024050331
 10
922.09035967116176
 20
-1224.2116484274811
 42
0.013613871027649
 10
921.87991840284246
 20
-1224.3866149323892
 10
921.84625052704291
 20
-1224.4161939051087
 42
0.017281518691684
 10
921.58184698537809
 20
-1224.6651905777344
 10
921.57928463953772
 20
-1224.6677763948792
 42
0.0189403857990072
 10
921.32870284096271
 20
-1224.9405816596786
 10
921.29607134741798
 20
-1224.9789255911862
 42
0.0185044199512008
 10
921.10411490844263
 20
-1225.2221741723033
 42
0.0088565243898951
 10
920.9256548018152
 20
-1225.4756905924521
 10
920.91647682216569
 20
-1225.4892319722135
 42
0.0157195347228722
 10
920.73325621583217
 20
-1225.778754181528
 10
920.68717327389618
 20
-1225.8569063785578
 42
0.009545187978644
 10
920.52208772376309
 20
-1226.1495010209064
 10
920.51093980482949
 20
-1226.1701716930459
 42
0.0100351706264769
 10
920.3788960556742
 20
-1226.4272272535293
 42
0.0086935915418291
 10
920.25656490388019
 20
-1226.6890603989334
 10
920.25324416246565
 20
-1226.6965027219055
 42
0.0072580174867635
 10
920.13289771051802
 20
-1226.977094713495
 10
920.1296360772144
 20
-1226.9850147395064
 42
0.0060005122617259
 10
920.01043540886576
 20
-1227.2846244101272
 10
920.00722443053007
 20
-1227.2929859380165
 42
0.0049017786975175
 10
919.88832427167199
 20
-1227.6119149186222
 10
919.88515846528219
 20
-1227.620667855851
 42
0.0039415167601086
 10
919.7657221872247
 20
-1227.9592099182669
 10
919.76259108457339
 20
-1227.9683131191405
 42
0.003103583876767
 10
919.64178629888283
 20
-1228.3267529809063
 10
919.63867625434989
 20
-1228.3361736022889
 42
0.0025070747154507
 10
919.51577490302964
 20
-1228.714820819248
 10
919.47848100660917
 20
-1228.8317124844857
 42
0.0029081910281829
 10
919.28646270880779
 20
-1229.4458761427461
 10
919.24565954028128
 20
-1229.5790993850533
 42
0.0009266453733538
 10
918.97724216596839
 20
-1230.461323844971
 10
918.95635469328136
 20
-1230.5304357243604
 42
-0.0005809993664994
 10
918.67901801273479
 20
-1231.4442438308515
 10
918.61273621446242
 20
-1231.6617287630095
 42
-0.001201870816757
 10
918.46575190503268
 20
-1232.1398914275319
 10
918.41343205360056
 20
-1232.3086505679676
 42
-0.0002691059605362
 10
918.36986257229853
 20
-1232.4489181887398
 10
915.53690667400929
 20
-1241.5380727910394
 10
913.71891778203076
 20
-1241.5380727910394
 10
919.97116719807866
 20
-1220.8943547545095
  0
SPLINE
  5
5B
100
AcDbEntity
  8
0
370
              15
390
0
  6
Continuous
 62
               7
100
AcDbSpline
210
0.0
220
0.0
230
1.0
 70
              13
 71
               2
 72
             782
 73
             779
 74
               0
 42
0.000001
 43
0.000001
 40
0.0
 40
0.0
 40
0.0
 40
1.0
 40
1.0
 40
2.0
 40
2.0
 40
3.0
 40
3.0
 40
4.0
 40
4.0
 40
5.0
 40
5.0
 40
6.0
 40
6.0
 40
7.0
 40
7.0
 40
8.0
 40
8.0
 40
9.0
 40
9.0
 40
10.0
 40
10.0
 40
11.0
 40
11.0
 40
12.0
 40
12.0
 40
13.0
 40
13.0
 40
14.0
 40
14.0
 40
15.0
 40
15.0
 40
16.0
 40
16.0
 40
17.0
 40
17.0
 40
18.0
 40
18.0
 40
19.0
 40
19.0
 40
20.0
 40
20.0
 40
21.0
 40
21.0
 40
22.0
 40
22.0
 40
23.0
 40
23.0
 40
24.0
 40
24.0
 40
25.0
 40
25.0
 40
26.0
 40
26.0
 40
27.0
 40
27.0
 40
28.0
 40
28.0
 40
29.0
 40
29.0
 40
30.0
 40
30.0
 40
31.0
 40
31.0
 40
32.0
 40
32.0
 40
33.0
 40
33.0
 40
34.0
 40
34.0
 40
35.0
 40
35.0
 40
36.0
 40
36.0
 40
37.0
 40
37.0
 40
38.0
 40
38.0
 40
39.0
 40
39.0
 40
40.0
 40
40.0
 40
41.0
 40
41.0
 40
42.0
 40
42.0
 40
43.0
 40
43.0
 40
44.0
 40
44.0
 40
45.0
 40
45.0
 40
46.0
 40
46.0
 40
47.0
 40
47.0
 40
48.0
 40
48.0
 40
49.0
 40
49.0
 40
50.0
 40
50.0
 40
51.0
 40
51.0
 40
52.0
 40
52.0
 40
53.0
 40
53.0
 40
54.0
 40
54.0
 40
55.0
 40
55.0
 40
56.0
 40
56.0
 40
57.0
 40
57.0
 40
58.0
 40
58.0
 40
59.0
 40
59.0
 40
60.0
 40
60.0
 40
61.0
 40
61.0
 40
62.0
 40
62.0
 40
63.0
 40
63.0
 40
64.0
 40
64.0
 40
65.0
 40
65.0
 40
66.0
 40
66.0
 40
67.0
 40
67.0
 40
68.0
 40
68.0
 40
69.0
 40
69.0
 40
70.0
 40
70.0
 40
71.0
 40
71.0
 40
72.0
 40
72.0
 40
73.0
 40
73.0
 40
74.0
 40
74.0
 40
75.0
 40
75.0
 40
76.0
 40
76.0
 40
77.0
 40
77.0
 40
78.0
 40
78.0
 40
79.0
 40
79.0
 40
80.0
 40
80.0
 40
81.0
 40
81.0
 40
82.0
 40
82.0
 40
83.0
 40
83.0
 40
84.0
 40
84.0
 40
85.0
 40
85.0
 40
86.0
 40
86.0
 40
87.0
 40
87.0
 40
88.0
 40
88.0
 40
89.0
 40
89.0
 40
90.0
 40
90.0
 40
91.0
 40
91.0
 40
92.0
 40
92.0
 40
93.0
 40
93.0
 40
94.0
 40
94.0
 40
95.0
 40
95.0
 40
96.0
 40
96.0
 40
97.0
 40
97.0
 40
98.0
 40
98.0
 40
99.0
 40
99.0
 40
100.0
 40
100.0
 40
101.0
 40
101.0
 40
102.0
 40
102.0
 40
103.0
 40
103.0
 40
104.0
 40
104.0
 40
105.0
 40
105.0
 40
106.0
 40
106.0
 40
107.0
 40
107.0
 40
108.0
 40
108.0
 40
109.0
 40
109.0
 40
110.0
 40
110.0
 40
111.0
 40
111.0
 40
112.0
 40
112.0
 40
113.0
 40
113.0
 40
114.0
 40
114.0
 40
115.0
 40
115.0
 40
116.0
 40
116.0
 40
117.0
 40
117.0
 40
118.0
 40
118.0
 40
119.0
 40
119.0
 40
120.0
 40
120.0
 40
121.0
 40
121.0
 40
122.0
 40
122.0
 40
123.0
 40
123.0
 40
124.0
 40
124.0
 40
125.0
 40
125.0
 40
126.0
 40
126.0
 40
127.0
 40
127.0
 40
128.0
 40
128.0
 40
129.0
 40
129.0
 40
130.0
 40
130.0
 40
131.0
 40
131.0
 40
132.0
 40
132.0
 40
133.0
 40
133.0
 40
134.0
 40
134.0
 40
135.0
 40
135.0
 40
136.0
 40
136.0
 40
137.0
 40
137.0
 40
138.0
 40
138.0
 40
139.0
 40
139.0
 40
140.0
 40
140.0
 40
141.0
 40
141.0
 40
142.0
 40
142.0
 40
143.0
 40
143.0
 40
144.0
 40
144.0
 40
145.0
 40
145.0
 40
146.0
 40
146.0
 40
147.0
 40
147.0
 40
148.0
 40
148.0
 40
149.0
 40
149.0
 40
150.0
 40
150.0
 40
151.0
 40
151.0
 40
152.0
 40
152.0
 40
153.0
 40
153.0
 40
154.0
 40
154.0
 40
155.0
 40
155.0
 40
156.0
 40
156.0
 40
157.0
 40
157.0
 40
158.0
 40
158.0
 40
159.0
 40
159.0
 40
160.0
 40
160.0
 40
161.0
 40
161.0
 40
162.0
 40
162.0
 40
163.0
 40
163.0
 40
164.0
 40
164.0
 40
165.0
 40
165.0
 40
166.0
 40
166.0
 40
167.0
 40
167.0
 40
168.0
 40
168.0
 40
169.0
 40
169.0
 40
170.0
 40
170.0
 40
171.0
 40
171.0
 40
172.0
 40
172.0
 40
173.0
 40
173.0
 40
174.0
 40
174.0
 40
175.0
 40
175.0
 40
176.0
 40
176.0
 40
177.0
 40
177.0
 40
178.0
 40
178.0
 40
179.0
 40
179.0
 40
180.0
 40
180.0
 40
181.0
 40
181.0
 40
182.0
 40
182.0
 40
183.0
 40
183.0
 40
184.0
 40
184.0
 40
185.0
 40
185.0
 40
186.0
 40
186.0
 40
187.0
 40
187.0
 40
188.0
 40
188.0
 40
189.0
 40
189.0
 40
190.0
 40
190.0
 40
191.0
 40
191.0
 40
192.0
 40
192.0
 40
193.0
 40
193.0
 40
194.0
 40
194.0
 40
195.0
 40
195.0
 40
196.0
 40
196.0
 40
197.0
 40
197.0
 40
198.0
 40
198.0
 40
199.0
 40
199.0
 40
200.0
 40
200.0
 40
201.0
 40
201.0
 40
202.0
 40
202.0
 40
203.0
 40
203.0
 40
204.0
 40
204.0
 40
205.0
 40
205.0
 40
206.0
 40
206.0
 40
207.0
 40
207.0
 40
208.0
 40
208.0
 40
209.0
 40
209.0
 40
210.0
 40
210.0
 40
211.0
 40
211.0
 40
212.0
 40
212.0
 40
213.0
 40
213.0
 40
214.0
 40
214.0
 40
215.0
 40
215.0
 40
216.0
 40
216.0
 40
217.0
 40
217.0
 40
218.0
 40
218.0
 40
219.0
 40
219.0
 40
220.0
 40
220.0
 40
221.0
 40
221.0
 40
222.0
 40
222.0
 40
223.0
 40
223.0
 40
224.0
 40
224.0
 40
225.0
 40
225.0
 40
226.0
 40
226.0
 40
227.0
 40
227.0
 40
228.0
 40
228.0
 40
229.0
 40
229.0
 40
230.0
 40
230.0
 40
231.0
 40
231.0
 40
232.0
 40
232.0
 40
233.0
 40
233.0
 40
234.0
 40
234.0
 40
235.0
 40
235.0
 40
236.0
 40
236.0
 40
237.0
 40
237.0
 40
238.0
 40
238.0
 40
239.0
 40
239.0
 40
240.0
 40
240.0
 40
241.0
 40
241.0
 40
242.0
 40
242.0
 40
243.0
 40
243.0
 40
244.0
 40
244.0
 40
245.0
 40
245.0
 40
246.0
 40
246.0
 40
247.0
 40
247.0
 40
248.0
 40
248.0
 40
249.0
 40
249.0
 40
250.0
 40
250.0
 40
251.0
 40
251.0
 40
252.0
 40
252.0
 40
253.0
 40
253.0
 40
254.0
 40
254.0
 40
255.0
 40
255.0
 40
256.0
 40
256.0
 40
257.0
 40
257.0
 40
258.0
 40
258.0
 40
259.0
 40
259.0
 40
260.0
 40
260.0
 40
261.0
 40
261.0
 40
262.0
 40
262.0
 40
263.0
 40
263.0
 40
264.0
 40
264.0
 40
265.0
 40
265.0
 40
266.0
 40
266.0
 40
267.0
 40
267.0
 40
268.0
 40
268.0
 40
269.0
 40
269.0
 40
270.0
 40
270.0
 40
271.0
 40
271.0
 40
272.0
 40
272.0
 40
273.0
 40
273.0
 40
274.0
 40
274.0
 40
275.0
 40
275.0
 40
276.0
 40
276.0
 40
277.0
 40
277.0
 40
278.0
 40
278.0
 40
279.0
 40
279.0
 40
280.0
 40
280.0
 40
281.0
 40
281.0
 40
282.0
 40
282.0
 40
283.0
 40
283.0
 40
284.0
 40
284.0
 40
285.0
 40
285.0
 40
286.0
 40
286.0
 40
287.0
 40
287.0
 40
288.0
 40
288.0
 40
289.0
 40
289.0
 40
290.0
 40
290.0
 40
291.0
 40
291.0
 40
292.0
 40
292.0
 40
293.0
 40
293.0
 40
294.0
 40
294.0
 40
295.0
 40
295.0
 40
296.0
 40
296.0
 40
297.0
 40
297.0
 40
298.0
 40
298.0
 40
299.0
 40
299.0
 40
300.0
 40
300.0
 40
301.0
 40
301.0
 40
302.0
 40
302.0
 40
303.0
 40
303.0
 40
304.0
 40
304.0
 40
305.0
 40
305.0
 40
306.0
 40
306.0
 40
307.0
 40
307.0
 40
308.0
 40
308.0
 40
309.0
 40
309.0
 40
310.0
 40
310.0
 40
311.0
 40
311.0
 40
312.0
 40
312.0
 40
313.0
 40
313.0
 40
314.0
 40
314.0
 40
315.0
 40
315.0
 40
316.0
 40
316.0
 40
317.0
 40
317.0
 40
318.0
 40
318.0
 40
319.0
 40
319.0
 40
320.0
 40
320.0
 40
321.0
 40
321.0
 40
322.0
 40
322.0
 40
323.0
 40
323.0
 40
324.0
 40
324.0
 40
325.0
 40
325.0
 40
326.0
 40
326.0
 40
327.0
 40
327.0
 40
328.0
 40
328.0
 40
329.0
 40
329.0
 40
330.0
 40
330.0
 40
331.0
 40
331.0
 40
332.0
 40
332.0
 40
333.0
 40
333.0
 40
334.0
 40
334.0
 40
335.0
 40
335.0
 40
336.0
 40
336.0
 40
337.0
 40
337.0
 40
338.0
 40
338.0
 40
339.0
 40
339.0
 40
340.0
 40
340.0
 40
341.0
 40
341.0
 40
342.0
 40
342.0
 40
343.0
 40
343.0
 40
344.0
 40
344.0
 40
345.0
 40
345.0
 40
346.0
 40
346.0
 40
347.0
 40
347.0
 40
348.0
 40
348.0
 40
349.0
 40
349.0
 40
350.0
 40
350.0
 40
351.0
 40
351.0
 40
352.0
 40
352.0
 40
353.0
 40
353.0
 40
354.0
 40
354.0
 40
355.0
 40
355.0
 40
356.0
 40
356.0
 40
357.0
 40
357.0
 40
358.0
 40
358.0
 40
359.0
 40
359.0
 40
360.0
 40
360.0
 40
361.0
 40
361.0
 40
362.0
 40
362.0
 40
363.0
 40
363.0
 40
364.0
 40
364.0
 40
365.0
 40
365.0
 40
366.0
 40
366.0
 40
367.0
 40
367.0
 40
368.0
 40
368.0
 40
369.0
 40
369.0
 40
370.0
 40
370.0
 40
371.0
 40
371.0
 40
372.0
 40
372.0
 40
373.0
 40
373.0
 40
374.0
 40
374.0
 40
375.0
 40
375.0
 40
376.0
 40
376.0
 40
377.0
 40
377.0
 40
378.0
 40
378.0
 40
379.0
 40
379.0
 40
380.0
 40
380.0
 40
381.0
 40
381.0
 40
382.0
 40
382.0
 40
383.0
 40
383.0
 40
384.0
 40
384.0
 40
385.0
 40
385.0
 40
386.0
 40
386.0
 40
387.0
 40
387.0
 40
388.0
 40
388.0
 40
389.0
 40
389.0
 40
389.0
 10
930.29987164881129
 20
-1220.8834283911472
 30
0.0
 41
1.0
 10
931.11829575753177
 20
-1220.8834283911472
 30
0.0
 41
1.0
 10
931.93671986625225
 20
-1220.8834283911472
 30
0.0
 41
1.0
 10
931.52296613073554
 20
-1222.2260546553969
 30
0.0
 41
1.0
 10
931.10921239521872
 20
-1223.5686809196466
 30
0.0
 41
1.0
 10
931.12755189039547
 20
-1223.5399801467215
 30
0.0
 41
0.9999957264340823
 10
931.14605888723577
 20
-1223.5113870965558
 30
0.0
 41
1.0
 10
931.1764882113639
 20
-1223.4643742181943
 30
0.0
 41
1.0
 10
931.20691753549204
 20
-1223.4173613398327
 30
0.0
 41
1.0
 10
931.28628318059884
 20
-1223.2947425329282
 30
0.0
 41
0.9995394069081464
 10
931.37294157215183
 20
-1223.1771644711851
 30
0.0
 41
1.0
 10
931.40869843441101
 20
-1223.1286495785926
 30
0.0
 41
1.0
 10
931.44445529667007
 20
-1223.0801346859998
 30
0.0
 41
1.0
 10
931.57818196448875
 20
-1222.8986944108726
 30
0.0
 41
0.9994460617143494
 10
931.72368244577569
 20
-1222.7265520132241
 30
0.0
 41
1.0
 10
931.72807062674997
 20
-1222.7213603328423
 30
0.0
 41
1.0
 10
931.73245880772436
 20
-1222.7161686524607
 30
0.0
 41
1.0
 10
931.86918292706207
 20
-1222.5544096155763
 30
0.0
 41
0.9994359394933763
 10
932.01645715741506
 20
-1222.40219341441
 30
0.0
 41
1.0
 10
932.01884051136699
 20
-1222.3997300840383
 30
0.0
 41
1.0
 10
932.02122386531892
 20
-1222.3972667536666
 30
0.0
 41
1.0
 10
932.1637313877643
 20
-1222.2499772132473
 30
0.0
 41
0.9995293688567505
 10
932.31500306874864
 20
-1222.1117040010813
 30
0.0
 41
1.0
 10
932.33429682801261
 20
-1222.0940681154295
 30
0.0
 41
1.0
 10
932.35359058727659
 20
-1222.0764322297778
 30
0.0
 41
1.0
 10
932.46627474973218
 20
-1221.9734307889159
 30
0.0
 41
0.999708761480295
 10
932.58379763868584
 20
-1221.8759865081192
 30
0.0
 41
1.0
 10
932.60296371186064
 20
-1221.8600949296119
 30
0.0
 41
1.0
 10
932.62212978503555
 20
-1221.8442033511044
 30
0.0
 41
1.0
 10
932.70132052763734
 20
-1221.7785422273241
 30
0.0
 41
0.9999595338694274
 10
932.78167979849604
 20
-1221.7143164966665
 30
0.0
 41
1.0
 10
932.86203906935839
 20
-1221.6500907660056
 30
0.0
 41
0.9999749417504894
 10
932.94329960371101
 20
-1221.5870092120522
 30
0.0
 41
1.0
 10
932.96428574986476
 20
-1221.5707179247574
 30
0.0
 41
1.0
 10
932.9852718960185
 20
-1221.5544266374625
 30
0.0
 41
1.0
 10
933.06983978132166
 20
-1221.4887776276205
 30
0.0
 41
0.9999792037115057
 10
933.15524738109707
 20
-1221.4242248459723
 30
0.0
 41
1.0
 10
933.17607220695675
 20
-1221.4084850237537
 30
0.0
 41
1.0
 10
933.19689703281642
 20
-1221.3927452015353
 30
0.0
 41
1.0
 10
933.24065498081166
 20
-1221.3596720643702
 30
0.0
 41
0.9999993373798038
 10
933.28433666700971
 20
-1221.3264982689047
 30
0.0
 41
1.0
 10
933.3280183531507
 20
-1221.2933244734822
 30
0.0
 41
0.9999160953816699
 10
933.37254476406838
 20
-1221.2612934082854
 30
0.0
 41
1.0
 10
933.40536665148989
 20
-1221.237682252699
 30
0.0
 41
1.0
 10
933.4381885389115
 20
-1221.2140710971125
 30
0.0
 41
1.0
 10
933.54835872466924
 20
-1221.1348177207451
 30
0.0
 41
0.9980964527231613
 10
933.66744771817002
 20
-1221.0697302478891
 30
0.0
 41
1.0
 10
933.70448032509717
 20
-1221.0494902682963
 30
0.0
 41
1.0
 10
933.74151293202442
 20
-1221.0292502887037
 30
0.0
 41
1.0
 10
933.92083994529833
 20
-1220.931240038002
 30
0.0
 41
0.9984572810572789
 10
934.10992851165884
 20
-1220.8537177766548
 30
0.0
 41
1.0
 10
934.1135747810539
 20
-1220.8522228843171
 30
0.0
 41
1.0
 10
934.11722105044896
 20
-1220.8507279919795
 30
0.0
 41
1.0
 10
934.29901707801707
 20
-1220.7761955153087
 30
0.0
 41
0.9987838528033893
 10
934.48726973657699
 20
-1220.7199298751427
 30
0.0
 41
1.0
 10
934.49150768577658
 20
-1220.7186632214523
 30
0.0
 41
1.0
 10
934.49574563497617
 20
-1220.7173965677619
 30
0.0
 41
1.0
 10
934.67552239513714
 20
-1220.6636642349767
 30
0.0
 41
0.999065281620722
 10
934.85926832685209
 20
-1220.6256605554349
 30
0.0
 41
1.0
 10
934.86445672788182
 20
-1220.6245874523288
 30
0.0
 41
1.0
 10
934.86964512891166
 20
-1220.6235143492227
 30
0.0
 41
1.0
 10
935.0430142585667
 20
-1220.5876568758931
 30
0.0
 41
0.9992909934270202
 10
935.21859002502629
 20
-1220.5649464434264
 30
0.0
 41
1.0
 10
935.39416579148292
 20
-1220.5422360109599
 30
0.0
 41
0.9994553539448212
 10
935.57085722457441
 20
-1220.5311567067538
 30
0.0
 41
1.0
 10
935.60629163237172
 20
-1220.5289348187059
 30
0.0
 41
1.0
 10
935.64172604016903
 20
-1220.5267129306581
 30
0.0
 41
1.0
 10
935.80795180673806
 20
-1220.5162898682463
 30
0.0
 41
0.9990928098292877
 10
935.97446159864103
 20
-1220.5200495094809
 30
0.0
 41
1.0
 10
936.01302343391387
 20
-1220.520920201014
 30
0.0
 41
1.0
 10
936.05158526918672
 20
-1220.521790892547
 30
0.0
 41
1.0
 10
936.14097139054456
 20
-1220.5238091507154
 30
0.0
 41
0.9998382089203628
 10
936.23022707332984
 20
-1220.5290412772433
 30
0.0
 41
1.0
 10
936.23065697954735
 20
-1220.5290664781455
 30
0.0
 41
1.0
 10
936.23108688576485
 20
-1220.5290916790475
 30
0.0
 41
1.0
 10
936.31948275611376
 20
-1220.5342734037713
 30
0.0
 41
0.9997558016759771
 10
936.40756333331683
 20
-1220.5433559191379
 30
0.0
 41
1.0
 10
936.40803947174277
 20
-1220.54340501662
 30
0.0
 41
1.0
 10
936.40851561016859
 20
-1220.5434541141021
 30
0.0
 41
1.0
 10
936.49564391051354
 20
-1220.5524384345038
 30
0.0
 41
0.999656514418105
 10
936.58218176385981
 20
-1220.5659757411936
 30
0.0
 41
1.0
 10
936.58264768923823
 20
-1220.5660486269251
 30
0.0
 41
1.0
 10
936.58311361461654
 20
-1220.5661215126565
 30
0.0
 41
1.0
 10
936.66871961720244
 20
-1220.5795130478825
 30
0.0
 41
0.9995321806866987
 10
936.75334669752976
 20
-1220.5981135363118
 30
0.0
 41
1.0
 10
936.75373589210187
 20
-1220.5981990787777
 30
0.0
 41
1.0
 10
936.75412508667398
 20
-1220.5982846212437
 30
0.0
 41
1.0
 10
936.83797377785822
 20
-1220.6167140247412
 30
0.0
 41
0.9993819199220118
 10
936.92032031205395
 20
-1220.6409894080016
 30
0.0
 41
1.0
 10
936.92055874555149
 20
-1220.6410596971109
 30
0.0
 41
1.0
 10
936.92079717904892
 20
-1220.64112998622
 30
0.0
 41
1.0
 10
937.00266684624955
 20
-1220.665264791262
 30
0.0
 41
0.9992088568505697
 10
937.0823593652384
 20
-1220.6958300270567
 30
0.0
 41
1.0
 10
937.16204035611736
 20
-1220.72638962779
 30
0.0
 41
0.9990226101773254
 10
937.23871102602459
 20
-1220.7638670594047
 30
0.0
 41
1.0
 10
937.31537016782204
 20
-1220.8013388559575
 30
0.0
 41
0.9988424273972177
 10
937.38807379503419
 20
-1220.8460036312104
 30
0.0
 41
1.0
 10
937.38834150341393
 20
-1220.8461680952828
 30
0.0
 41
1.0
 10
937.38860921179366
 20
-1220.8463325593552
 30
0.0
 41
1.0
 10
937.46184825576449
 20
-1220.8913262627527
 30
0.0
 41
0.9986928844491282
 10
937.53011112247418
 20
-1220.9435619970322
 30
0.0
 41
1.0
 10
937.530692414697
 20
-1220.9440068102601
 30
0.0
 41
1.0
 10
937.53127370691982
 20
-1220.944451623488
 30
0.0
 41
1.0
 10
937.60069915807514
 20
-1220.9975769842238
 30
0.0
 41
0.9986007262279025
 10
937.66412532784193
 20
-1221.0577377539171
 30
0.0
 41
1.0
 10
937.66501974329913
 20
-1221.0585861217521
 30
0.0
 41
1.0
 10
937.66591415875632
 20
-1221.0594344895871
 30
0.0
 41
1.0
 10
937.73112915943739
 20
-1221.121291994951
 30
0.0
 41
0.9985581491381983
 10
937.78933677113901
 20
-1221.1897844852224
 30
0.0
 41
1.0
 10
937.79859522473487
 20
-1221.2006788429242
 30
0.0
 41
1.0
 10
937.80785367833073
 20
-1221.2115732006259
 30
0.0
 41
1.0
 10
937.8845781972235
 20
-1221.3018544063004
 30
0.0
 41
0.9970460233520153
 10
937.94657009838295
 20
-1221.4028214904822
 30
0.0
 41
1.0
 10
937.96103946346238
 20
-1221.4263879495634
 30
0.0
 41
1.0
 10
937.97550882854193
 20
-1221.4499544086443
 30
0.0
 41
1.0
 10
938.0152455285546
 20
-1221.5146741326766
 30
0.0
 41
0.9988468816636342
 10
938.0485918993063
 20
-1221.5829065851046
 30
0.0
 41
1.0
 10
938.05562792179842
 20
-1221.5973035062434
 30
0.0
 41
1.0
 10
938.06266394429053
 20
-1221.6117004273819
 30
0.0
 41
1.0
 10
938.08193827005812
 20
-1221.6511390375331
 30
0.0
 41
0.9998431189996929
 10
938.09980359755286
 20
-1221.6912355919731
 30
0.0
 41
1.0
 10
938.11766892508149
 20
-1221.7313321464892
 30
0.0
 41
0.9999989990028213
 10
938.13564764851083
 20
-1221.771377984089
 30
0.0
 41
1.0
 10
938.1418199600846
 20
-1221.7851262008558
 30
0.0
 41
1.0
 10
938.14799227165827
 20
-1221.7988744176228
 30
0.0
 41
1.0
 10
938.17831561826858
 20
-1221.8664166888314
 30
0.0
 41
0.9998790356321278
 10
938.20652349840657
 20
-1221.934869440769
 30
0.0
 41
1.0
 10
938.2133586796906
 20
-1221.9514565421955
 30
0.0
 41
1.0
 10
938.22019386097452
 20
-1221.968043643622
 30
0.0
 41
1.0
 10
938.24375152335631
 20
-1222.0252115985111
 30
0.0
 41
0.9998227574561287
 10
938.26514027174494
 20
-1222.083225906787
 30
0.0
 41
1.0
 10
938.28652902013437
 20
-1222.1412402150645
 30
0.0
 41
0.9996797971040683
 10
938.30495530509347
 20
-1222.2002623341825
 30
0.0
 41
1.0
 10
938.30885910781899
 20
-1222.2127667923514
 30
0.0
 41
1.0
 10
938.31276291054451
 20
-1222.2252712505203
 30
0.0
 41
1.0
 10
938.33899680095465
 20
-1222.3093022859753
 30
0.0
 41
0.9979274938733868
 10
938.35422132443364
 20
-1222.3960066446341
 30
0.0
 41
1.0
 10
938.35644501169509
 20
-1222.4086706454568
 30
0.0
 41
1.0
 10
938.35866869895654
 20
-1222.4213346462795
 30
0.0
 41
1.0
 10
938.36959863865468
 20
-1222.4835811535695
 30
0.0
 41
0.9994985982137495
 10
938.37656680383157
 20
-1222.5463946547111
 30
0.0
 41
1.0
 10
938.38353496900868
 20
-1222.6092081558547
 30
0.0
 41
0.999637261120197
 10
938.38711083477631
 20
-1222.6723057345353
 30
0.0
 41
1.0
 10
938.38727941226557
 20
-1222.6752803516174
 30
0.0
 41
1.0
 10
938.38744798975495
 20
-1222.6782549686998
 30
0.0
 41
1.0
 10
938.39136101050133
 20
-1222.7473017815439
 30
0.0
 41
0.999773063073568
 10
938.3923293239892
 20
-1222.8164526055698
 30
0.0
 41
1.0
 10
938.39238643040744
 20
-1222.8205307847168
 30
0.0
 41
1.0
 10
938.39244353682557
 20
-1222.8246089638637
 30
0.0
 41
1.0
 10
938.39352606314981
 20
-1222.9019161461913
 30
0.0
 41
0.9998772614070345
 10
938.39218597641775
 20
-1222.9792192927648
 30
0.0
 41
1.0
 10
938.39209671321919
 20
-1222.9843684565903
 30
0.0
 41
1.0
 10
938.39200745002063
 20
-1222.9895176204159
 30
0.0
 41
1.0
 10
938.39048883689145
 20
-1223.0771190946546
 30
0.0
 41
0.9999415567325405
 10
938.38707652664516
 20
-1223.1646672563334
 30
0.0
 41
1.0
 10
938.38683520596999
 20
-1223.1708587160665
 30
0.0
 41
1.0
 10
938.38659388529481
 20
-1223.1770501757999
 30
0.0
 41
1.0
 10
938.38269893369829
 20
-1223.2769812569495
 30
0.0
 41
0.9999716810428604
 10
938.37730035057984
 20
-1223.3768423951765
 30
0.0
 41
1.0
 10
938.37408755179058
 20
-1223.436271644842
 30
0.0
 41
1.0
 10
938.37087475300132
 20
-1223.4957008945075
 30
0.0
 41
1.0
 10
938.36280084384907
 20
-1223.6450492957808
 30
0.0
 41
0.9999819129913509
 10
938.35293105223286
 20
-1223.7942897734854
 30
0.0
 41
1.0
 10
938.34306126061631
 20
-1223.9435302511968
 30
0.0
 41
1.0
 10
938.34062194005242
 20
-1223.9807232970461
 30
0.0
 41
1.0
 10
938.36332017388281
 20
-1223.9419822997174
 30
0.0
 41
0.9999982127994569
 10
938.38616473264733
 20
-1223.9033274057442
 30
0.0
 41
1.0
 10
938.41307429252788
 20
-1223.857794191696
 30
0.0
 41
1.0
 10
938.43998385240855
 20
-1223.8122609776481
 30
0.0
 41
1.0
 10
938.51664753093405
 20
-1223.6825396555789
 30
0.0
 41
0.9998609190057378
 10
938.59759484379663
 20
-1223.5554472736485
 30
0.0
 41
1.0
 10
938.62724316527442
 20
-1223.5088975406973
 30
0.0
 41
1.0
 10
938.65689148675233
 20
-1223.462347807746
 30
0.0
 41
1.0
 10
938.73916370699351
 20
-1223.3331752377444
 30
0.0
 41
0.9999067609732804
 10
938.82493271646081
 20
-1223.2062975482982
 30
0.0
 41
1.0
 10
938.82733741966047
 20
-1223.202740282245
 30
0.0
 41
1.0
 10
938.82974212286013
 20
-1223.1991830161921
 30
0.0
 41
1.0
 10
938.91070172592117
 20
-1223.0794198588619
 30
0.0
 41
0.9998784952150989
 10
938.99535533560618
 20
-1222.9622386421483
 30
0.0
 41
1.0
 10
939.08000894528709
 20
-1222.8450574254402
 30
0.0
 41
0.9998532968284647
 10
939.16862656610908
 20
-1222.7308445169706
 30
0.0
 41
1.0
 10
939.18858835509923
 20
-1222.7051171959515
 30
0.0
 41
1.0
 10
939.20855014408937
 20
-1222.6793898749327
 30
0.0
 41
1.0
 10
939.32703419384882
 20
-1222.526684263963
 30
0.0
 41
0.9991551975795042
 10
939.45765864347482
 20
-1222.3842247018767
 30
0.0
 41
1.0
 10
939.46116825945319
 20
-1222.380397100254
 30
0.0
 41
1.0
 10
939.46467787543156
 20
-1222.3765694986312
 30
0.0
 41
1.0
 10
939.58828309309649
 20
-1222.241765139795
 30
0.0
 41
0.9997418144181018
 10
939.71788523279884
 20
-1222.1127157291808
 30
0.0
 41
1.0
 10
939.84748737249879
 20
-1221.9836663185688
 30
0.0
 41
0.9989238204633436
 10
939.98848992074886
 20
-1221.8671813565306
 30
0.0
 41
1.0
 10
940.03373759888882
 20
-1221.8298013649214
 30
0.0
 41
1.0
 10
940.07898527702889
 20
-1221.7924213733124
 30
0.0
 41
1.0
 10
940.21922533425129
 20
-1221.6765663200208
 30
0.0
 41
0.9990825084096853
 10
940.36886526685498
 20
-1221.5731373221879
 30
0.0
 41
1.0
 10
940.37891063090854
 20
-1221.5661941091107
 30
0.0
 41
1.0
 10
940.38895599496209
 20
-1221.5592508960335
 30
0.0
 41
1.0
 10
940.51850519945401
 20
-1221.4697083243582
 30
0.0
 41
0.9998164899825488
 10
940.65138940283521
 20
-1221.3851940828386
 30
0.0
 41
1.0
 10
940.6632349633619
 20
-1221.3776603163124
 30
0.0
 41
1.0
 10
940.67508052388871
 20
-1221.3701265497862
 30
0.0
 41
1.0
 10
940.78427360621254
 20
-1221.3006798413217
 30
0.0
 41
0.9997473449130691
 10
940.89647756346085
 20
-1221.2362108835066
 30
0.0
 41
1.0
 10
941.00868152070916
 20
-1221.1717419256915
 30
0.0
 41
0.9999327861147479
 10
941.12235013146881
 20
-1221.1098919340122
 30
0.0
 41
1.0
 10
941.12290213403207
 20
-1221.1095915753317
 30
0.0
 41
1.0
 10
941.12345413659523
 20
-1221.1092912166512
 30
0.0
 41
1.0
 10
941.23822675247948
 20
-1221.0468405076117
 30
0.0
 41
0.9996956420483157
 10
941.35594007832071
 20
-1220.9901270406363
 30
0.0
 41
1.0
 10
941.38638048321218
 20
-1220.975461063907
 30
0.0
 41
1.0
 10
941.41682088810353
 20
-1220.9607950871778
 30
0.0
 41
1.0
 10
941.51979799484729
 20
-1220.9111814287342
 30
0.0
 41
0.9998070570175864
 10
941.6246443837905
 20
-1220.8656508418321
 30
0.0
 41
1.0
 10
941.72949077273347
 20
-1220.8201202549305
 30
0.0
 41
0.9997827436147611
 10
941.83614370934311
 20
-1220.7789990836186
 30
0.0
 41
1.0
 10
941.85536655897363
 20
-1220.7715875099866
 30
0.0
 41
1.0
 10
941.87458940860415
 20
-1220.7641759363546
 30
0.0
 41
1.0
 10
942.01968804447756
 20
-1220.7082316177778
 30
0.0
 41
0.9988031841976367
 10
942.16955840708204
 20
-1220.6667315536101
 30
0.0
 41
1.0
 10
942.19447565544601
 20
-1220.6598318078031
 30
0.0
 41
1.0
 10
942.2193929038101
 20
-1220.6529320619959
 30
0.0
 41
1.0
 10
942.38666292945641
 20
-1220.6066139195893
 30
0.0
 41
0.9984748040549967
 10
942.55801983810409
 20
-1220.5790196873247
 30
0.0
 41
1.0
 10
942.56275897435319
 20
-1220.5782565268114
 30
0.0
 41
1.0
 10
942.56749811060229
 20
-1220.5774933662979
 30
0.0
 41
1.0
 10
942.72937674675313
 20
-1220.5514254550599
 30
0.0
 41
0.9984436495479777
 10
942.89315149047775
 20
-1220.5435475012412
 30
0.0
 41
1.0
 10
942.91484869860903
 20
-1220.5425038140415
 30
0.0
 41
1.0
 10
942.93654590674032
 20
-1220.5414601268419
 30
0.0
 41
1.0
 10
943.05692623420248
 20
-1220.5356695474225
 30
0.0
 41
0.9987954789335325
 10
943.17729447911233
 20
-1220.5417060751647
 30
0.0
 41
1.0
 10
943.19725927160812
 20
-1220.5427073195033
 30
0.0
 41
1.0
 10
943.21722406410402
 20
-1220.5437085638421
 30
0.0
 41
1.0
 10
943.29766272402367
 20
-1220.5477426029072
 30
0.0
 41
0.9997941595875408
 10
943.37787150211659
 20
-1220.5550366688281
 30
0.0
 41
1.0
 10
943.45808028021486
 20
-1220.5623307347496
 30
0.0
 41
0.999858946623629
 10
943.53799882707324
 20
-1220.5723145892002
 30
0.0
 41
1.0
 10
943.57040502887787
 20
-1220.5763629461189
 30
0.0
 41
1.0
 10
943.60281123068251
 20
-1220.5804113030376
 30
0.0
 41
1.0
 10
943.74754218115322
 20
-1220.5984918713261
 30
0.0
 41
0.9993495063249717
 10
943.89059342491794
 20
-1220.6269575810675
 30
0.0
 41
1.0
 10
943.92352712207162
 20
-1220.6335110442826
 30
0.0
 41
1.0
 10
943.95646081922541
 20
-1220.6400645074978
 30
0.0
 41
1.0
 10
944.06575464242871
 20
-1220.661812841633
 30
0.0
 41
0.9996788715560887
 10
944.17380621438463
 20
-1220.6890706409959
 30
0.0
 41
1.0
 10
944.17586921692418
 20
-1220.6895910675689
 30
0.0
 41
1.0
 10
944.17793221946386
 20
-1220.690111494142
 30
0.0
 41
1.0
 10
944.2818577863419
 20
-1220.7163284403591
 30
0.0
 41
0.9995480654492945
 10
944.38402002157045
 20
-1220.7487433969832
 30
0.0
 41
1.0
 10
944.38570966369957
 20
-1220.749279501897
 30
0.0
 41
1.0
 10
944.38739930582858
 20
-1220.7498156068111
 30
0.0
 41
1.0
 10
944.48618225679968
 20
-1220.7811583536077
 30
0.0
 41
0.9993867959456514
 10
944.58252941524245
 20
-1220.8193377228974
 30
0.0
 41
1.0
 10
944.58377236432659
 20
-1220.8198302647934
 30
0.0
 41
1.0
 10
944.58501531341074
 20
-1220.8203228066893
 30
0.0
 41
1.0
 10
944.67887657368453
 20
-1220.857517092187
 30
0.0
 41
0.9992050256521771
 10
944.76947624871832
 20
-1220.9020709914259
 30
0.0
 41
1.0
 10
944.77021093143173
 20
-1220.9024322838873
 30
0.0
 41
1.0
 10
944.77094561414515
 20
-1220.9027935763486
 30
0.0
 41
1.0
 10
944.86007592375233
 20
-1220.9466248906651
 30
0.0
 41
0.9990222350742057
 10
944.94498598514542
 20
-1220.9981581583629
 30
0.0
 41
1.0
 10
944.94516987042812
 20
-1220.9982697612677
 30
0.0
 41
1.0
 10
944.9453537557107
 20
-1220.9983813641725
 30
0.0
 41
1.0
 10
945.0298960465384
 20
-1221.0496914260609
 30
0.0
 41
0.9988642743805113
 10
945.10917058115797
 20
-1221.1088156135866
 30
0.0
 41
1.0
 10
945.18844511577777
 20
-1221.1679398011124
 30
0.0
 41
0.9987681233310948
 10
945.26146890005373
 20
-1221.2346304925131
 30
0.0
 41
1.0
 10
945.26179782801933
 20
-1221.2349308937271
 30
0.0
 41
1.0
 10
945.26212675598481
 20
-1221.2352312949411
 30
0.0
 41
1.0
 10
945.33580839619253
 20
-1221.3025227887701
 30
0.0
 41
0.9987496570898327
 10
945.40240220151964
 20
-1221.3768356028568
 30
0.0
 41
1.0
 10
945.4031743712801
 20
-1221.3776972762148
 30
0.0
 41
1.0
 10
945.40394654104057
 20
-1221.3785589495726
 30
0.0
 41
1.0
 10
945.47208468588769
 20
-1221.4545951103737
 30
0.0
 41
0.9988147669826568
 10
945.53250694011274
 20
-1221.5368961172162
 30
0.0
 41
1.0
 10
945.53362626619094
 20
-1221.5384207485695
 30
0.0
 41
1.0
 10
945.53474559226913
 20
-1221.5399453799225
 30
0.0
 41
1.0
 10
945.59740649865012
 20
-1221.6252956494711
 30
0.0
 41
0.9989452636216534
 10
945.65197341161115
 20
-1221.7160343386283
 30
0.0
 41
1.0
 10
945.6533221376967
 20
-1221.7182771196544
 30
0.0
 41
1.0
 10
945.65467086378226
 20
-1221.7205199006803
 30
0.0
 41
1.0
 10
945.71193522891508
 20
-1221.8157441518904
 30
0.0
 41
0.9991046436070149
 10
945.76094444223668
 20
-1221.915468584916
 30
0.0
 41
1.0
 10
945.76240830382665
 20
-1221.9184472649886
 30
0.0
 41
1.0
 10
945.76387216541661
 20
-1221.9214259450609
 30
0.0
 41
1.0
 10
945.81580910191849
 20
-1222.0271077382315
 30
0.0
 41
0.9992763831100686
 10
945.85956223047356
 20
-1222.1364318001874
 30
0.0
 41
1.0
 10
945.86104150013682
 20
-1222.1401279877209
 30
0.0
 41
1.0
 10
945.86252076980008
 20
-1222.1438241752544
 30
0.0
 41
1.0
 10
945.90923243768202
 20
-1222.260540612278
 30
0.0
 41
0.9994163472883417
 10
945.94786546887065
 20
-1222.3801742007388
 30
0.0
 41
1.0
 10
945.94910362111762
 20
-1222.3840083445223
 30
0.0
 41
1.0
 10
945.95034177336458
 20
-1222.3878424883058
 30
0.0
 41
1.0
 10
945.99022533438279
 20
-1222.511348549787
 30
0.0
 41
0.9997268055890305
 10
946.02429339029436
 20
-1222.6365835817362
 30
0.0
 41
1.0
 10
946.02522357056387
 20
-1222.6400029478448
 30
0.0
 41
1.0
 10
946.02615375083337
 20
-1222.6434223139534
 30
0.0
 41
1.0
 10
946.05836144620628
 20
-1222.7618186136863
 30
0.0
 41
0.9996701319000682
 10
946.08444706297678
 20
-1222.8817125669502
 30
0.0
 41
1.0
 10
946.11053267974694
 20
-1223.0016065202126
 30
0.0
 41
0.9995785451108902
 10
946.12961625708681
 20
-1223.1228122812436
 30
0.0
 41
1.0
 10
946.13383603926047
 20
-1223.1496134360084
 30
0.0
 41
1.0
 10
946.13805582143414
 20
-1223.1764145907732
 30
0.0
 41
1.0
 10
946.16463079737298
 20
-1223.3452005644767
 30
0.0
 41
0.9979925101216478
 10
946.16965638329941
 20
-1223.5159918925701
 30
0.0
 41
1.0
 10
946.17048119572405
 20
-1223.544022616049
 30
0.0
 41
1.0
 10
946.17130600814858
 20
-1223.5720533395279
 30
0.0
 41
1.0
 10
946.17468196922596
 20
-1223.6867832206572
 30
0.0
 41
0.999531490226245
 10
946.17103177708725
 20
-1223.8015047044137
 30
0.0
 41
1.0
 10
946.16738158494877
 20
-1223.9162261881665
 30
0.0
 41
0.9996245486944149
 10
946.15745248981773
 20
-1224.0305754592923
 30
0.0
 41
1.0
 10
946.15728944182365
 20
-1224.0324532154264
 30
0.0
 41
1.0
 10
946.15712639382946
 20
-1224.0343309715602
 30
0.0
 41
1.0
 10
946.14687120271003
 20
-1224.1524357549549
 30
0.0
 41
0.9997286095001334
 10
946.1311258791394
 20
-1224.2699346638437
 30
0.0
 41
1.0
 10
946.13073238648872
 20
-1224.2728710885485
 30
0.0
 41
1.0
 10
946.13033889383792
 20
-1224.2758075132531
 30
0.0
 41
1.0
 10
946.11380658496546
 20
-1224.3991792715535
 30
0.0
 41
0.9998265533969538
 10
946.09269112623349
 20
-1224.5218497463379
 30
0.0
 41
1.0
 10
946.0920145840962
 20
-1224.5257801248465
 30
0.0
 41
1.0
 10
946.09133804195881
 20
-1224.5297105033551
 30
0.0
 41
1.0
 10
946.06886949895124
 20
-1224.6602417351621
 30
0.0
 41
0.9999022530851731
 10
946.04276003434074
 20
-1224.7900937038028
 30
0.0
 41
1.0
 10
946.04178139317605
 20
-1224.7949608461872
 30
0.0
 41
1.0
 10
946.04080275201125
 20
-1224.7998279885715
 30
0.0
 41
1.0
 10
946.01273600507068
 20
-1224.9394142419833
 30
0.0
 41
0.9999524761938853
 10
945.98195303623663
 20
-1225.0784267351453
 30
0.0
 41
1.0
 10
945.98067692906079
 20
-1225.0841894944497
 30
0.0
 41
1.0
 10
945.97940082188484
 20
-1225.0899522537538
 30
0.0
 41
1.0
 10
945.94606563870025
 20
-1225.2404902655189
 30
0.0
 41
0.9999813588719724
 10
945.9108946379007
 20
-1225.3906099781907
 30
0.0
 41
1.0
 10
945.90934071244556
 20
-1225.3972425686072
 30
0.0
 41
1.0
 10
945.9077867869903
 20
-1225.4038751590238
 30
0.0
 41
1.0
 10
945.86950793529354
 20
-1225.5672600524731
 30
0.0
 41
0.9999955237697408
 10
945.83025205731599
 20
-1225.730412956068
 30
0.0
 41
1.0
 10
945.81797042167409
 20
-1225.7814571466224
 30
0.0
 41
1.0
 10
945.80568878603208
 20
-1225.8325013371771
 30
0.0
 41
1.0
 10
945.7418696367821
 20
-1226.0977426218319
 30
0.0
 41
0.9999993604483736
 10
945.67745068958709
 20
-1226.3628388726279
 30
0.0
 41
1.0
 10
945.67273185405395
 20
-1226.3822577806111
 30
0.0
 41
1.0
 10
945.66801301852081
 20
-1226.4016766885943
 30
0.0
 41
1.0
 10
945.59415640026089
 20
-1226.7056107553517
 30
0.0
 41
0.999965991473315
 10
945.51529680437636
 20
-1227.0082853019078
 30
0.0
 41
1.0
 10
945.51034411544515
 20
-1227.0272944390927
 30
0.0
 41
1.0
 10
945.50539142651382
 20
-1227.0463035762775
 30
0.0
 41
1.0
 10
945.41662645276756
 20
-1227.3869963972006
 30
0.0
 41
0.9999441976024684
 10
945.32068341980198
 20
-1227.7257378225063
 30
0.0
 41
1.0
 10
945.30398290137794
 20
-1227.7847015350287
 30
0.0
 41
1.0
 10
945.28728238295389
 20
-1227.8436652475511
 30
0.0
 41
1.0
 10
945.15793831313681
 20
-1228.3003340979126
 30
0.0
 41
0.9999625120738602
 10
945.02070554581508
 20
-1228.7546946319035
 30
0.0
 41
1.0
 10
944.98491560273214
 20
-1228.8731906585303
 30
0.0
 41
1.0
 10
944.94912565964933
 20
-1228.991686685157
 30
0.0
 41
1.0
 10
944.8746054556093
 20
-1229.2384137632562
 30
0.0
 41
0.9999793386306463
 10
944.79691943247121
 20
-1229.4841624024937
 30
0.0
 41
1.0
 10
944.7192334093337
 20
-1229.7299110417298
 30
0.0
 41
1.0
 10
944.708453850463
 20
-1229.7639289461044
 30
0.0
 41
1.0
 10
942.85808079719391
 20
-1235.6510008685718
 30
0.0
 41
1.0
 10
941.0077077439247
 20
-1241.5380727910394
 30
0.0
 41
1.0
 10
940.04645105390114
 20
-1241.5380727910394
 30
0.0
 41
1.0
 10
939.08519436387758
 20
-1241.5380727910394
 30
0.0
 41
1.0
 10
940.70413914255596
 20
-1236.39004428925
 30
0.0
 41
1.0
 10
942.32308392123446
 20
-1231.2420157874606
 30
0.0
 41
1.0
 10
942.36824974440469
 20
-1231.0979845652034
 30
0.0
 41
1.0
 10
942.41341556757504
 20
-1230.9539533429463
 30
0.0
 41
1.0
 10
942.58371998494567
 20
-1230.4108623137586
 30
0.0
 41
0.9999911657897557
 10
942.74945279662597
 20
-1229.8663587823946
 30
0.0
 41
1.0
 10
942.77914874012697
 20
-1229.7687948423425
 30
0.0
 41
1.0
 10
942.80884468362797
 20
-1229.6712309022903
 30
0.0
 41
1.0
 10
942.91518560830696
 20
-1229.3218552510289
 30
0.0
 41
0.9999952428167165
 10
943.01936919763125
 20
-1228.9718302266815
 30
0.0
 41
1.0
 10
943.02442866795491
 20
-1228.9548319524361
 30
0.0
 41
1.0
 10
943.02948813827857
 20
-1228.9378336781906
 30
0.0
 41
1.0
 10
943.12355278694781
 20
-1228.6218052023594
 30
0.0
 41
0.9999931687507069
 10
943.21527862482981
 20
-1228.3050899890613
 30
0.0
 41
1.0
 10
943.22021388928147
 20
-1228.2880492798176
 30
0.0
 41
1.0
 10
943.22514915373301
 20
-1228.2710085705739
 30
0.0
 41
1.0
 10
943.30700446269566
 20
-1227.9883747758179
 30
0.0
 41
0.9999893840782171
 10
943.3862516891603
 20
-1227.7049986465443
 30
0.0
 41
1.0
 10
943.46549891561858
 20
-1227.4216225172927
 30
0.0
 41
0.9999833980078815
 10
943.54147515636419
 20
-1227.1373519342496
 30
0.0
 41
1.0
 10
943.55047909308519
 20
-1227.1036630557758
 30
0.0
 41
1.0
 10
943.5594830298063
 20
-1227.0699741773019
 30
0.0
 41
1.0
 10
943.62844757867163
 20
-1226.8119383450096
 30
0.0
 41
0.9999233658065136
 10
943.69100254989064
 20
-1226.5522741862912
 30
0.0
 41
1.0
 10
943.75355752111091
 20
-1226.2926100275688
 30
0.0
 41
1.0
 10
943.79304093996848
 20
-1226.1288033631427
 30
0.0
 41
1.0
 10
943.7980195439427
 20
-1226.1081484012848
 30
0.0
 41
1.0
 10
943.80299814791692
 20
-1226.0874934394269
 30
0.0
 41
1.0
 10
943.83252435882628
 20
-1225.9649966987158
 30
0.0
 41
0.9999868670855553
 10
943.86079344282223
 20
-1225.8422037530711
 30
0.0
 41
1.0
 10
943.86469092998141
 20
-1225.8252741656474
 30
0.0
 41
1.0
 10
943.8685884171407
 20
-1225.8083445782238
 30
0.0
 41
1.0
 10
943.88906252681932
 20
-1225.7194108074218
 30
0.0
 41
0.99997781733509
 10
943.9083501249338
 20
-1225.6302121901952
 30
0.0
 41
1.0
 10
943.92763772304761
 20
-1225.5410135729717
 30
0.0
 41
0.9999602692862308
 10
943.94533208167832
 20
-1225.4514852845471
 30
0.0
 41
1.0
 10
943.94853591375681
 20
-1225.4352748296569
 30
0.0
 41
1.0
 10
943.95173974583531
 20
-1225.419064374767
 30
0.0
 41
1.0
 10
943.97584176862097
 20
-1225.2971151765705
 30
0.0
 41
0.9995617985320809
 10
943.99268511584012
 20
-1225.1739534288624
 30
0.0
 41
1.0
 10
943.99514960574652
 20
-1225.1559326114957
 30
0.0
 41
1.0
 10
943.99761409565292
 20
-1225.1379117941292
 30
0.0
 41
1.0
 10
944.01789735670093
 20
-1224.9895967444313
 30
0.0
 41
0.9991121410639511
 10
944.0256227102891
 20
-1224.8401006456247
 30
0.0
 41
1.0
 10
944.02654150031356
 20
-1224.8223208090506
 30
0.0
 41
1.0
 10
944.02746029033801
 20
-1224.8045409724764
 30
0.0
 41
1.0
 10
944.03334806387727
 20
-1224.6906045468204
 30
0.0
 41
0.9989792494905756
 10
944.02892897176002
 20
-1224.5766017109199
 30
0.0
 41
1.0
 10
944.02828099989131
 20
-1224.5598854649907
 30
0.0
 41
1.0
 10
944.02763302802259
 20
-1224.5431692190614
 30
0.0
 41
1.0
 10
944.02450987964255
 20
-1224.4625988750192
 30
0.0
 41
0.9997820295392763
 10
944.01802588226701
 20
-1224.3822291532776
 30
0.0
 41
1.0
 10
944.01154188489113
 20
-1224.3018594315313
 30
0.0
 41
0.9998335105974063
 10
944.00212968937979
 20
-1224.221779815085
 30
0.0
 41
1.0
 10
944.00053476470339
 20
-1224.2082100846012
 30
0.0
 41
1.0
 10
943.99893984002688
 20
-1224.1946403541174
 30
0.0
 41
1.0
 10
943.98633779516251
 20
-1224.087421276701
 30
0.0
 41
0.9996876457879111
 10
943.96839388236413
 20
-1223.9809658489851
 30
0.0
 41
1.0
 10
943.96616221921897
 20
-1223.9677261137442
 30
0.0
 41
1.0
 10
943.96393055607382
 20
-1223.9544863785034
 30
0.0
 41
1.0
 10
943.95013473465281
 20
-1223.872640234544
 30
0.0
 41
0.99955474964946
 10
943.93148141275992
 20
-1223.7917627373522
 30
0.0
 41
1.0
 10
943.93110745588865
 20
-1223.7901413266466
 30
0.0
 41
1.0
 10
943.93073349901726
 20
-1223.7885199159409
 30
0.0
 41
1.0
 10
943.91282809086772
 20
-1223.7108852401627
 30
0.0
 41
0.9994899427175575
 10
943.89000318218791
 20
-1223.6345519573265
 30
0.0
 41
1.0
 10
943.88954465544703
 20
-1223.6330185075371
 30
0.0
 41
1.0
 10
943.88908612870603
 20
-1223.631485057748
 30
0.0
 41
1.0
 10
943.8671782735089
 20
-1223.5582186744934
 30
0.0
 41
0.9993784877591198
 10
943.84016263840203
 20
-1223.4866779693332
 30
0.0
 41
1.0
 10
943.83963094742512
 20
-1223.4852699866126
 30
0.0
 41
1.0
 10
943.83909925644821
 20
-1223.483862003892
 30
0.0
 41
1.0
 10
943.81314700329528
 20
-1223.4151372641736
 30
0.0
 41
0.9992430832254525
 10
943.78193046813612
 20
-1223.3486381121058
 30
0.0
 41
1.0
 10
943.7813483520797
 20
-1223.3473980569888
 30
0.0
 41
1.0
 10
943.78076623602328
 20
-1223.346158001872
 30
0.0
 41
1.0
 10
943.75071393297708
 20
-1223.2821389600381
 30
0.0
 41
0.9990789632797902
 10
943.71528330620004
 20
-1223.220932348288
 30
0.0
 41
1.0
 10
943.7146876000179
 20
-1223.2199032624285
 30
0.0
 41
1.0
 10
943.71409189383576
 20
-1223.2188741765692
 30
0.0
 41
1.0
 10
943.67985267942322
 20
-1223.1597257365379
 30
0.0
 41
0.9988874801119577
 10
943.64019340339132
 20
-1223.1040660241206
 30
0.0
 41
1.0
 10
943.63963787732678
 20
-1223.1032863724454
 30
0.0
 41
1.0
 10
943.63908235126223
 20
-1223.1025067207704
 30
0.0
 41
1.0
 10
943.60053412735897
 20
-1223.0484063117024
 30
0.0
 41
0.9986762060692752
 10
943.55663165608303
 20
-1222.9985525972634
 30
0.0
 41
1.0
 10
943.55618769575119
 20
-1222.9980484554471
 30
0.0
 41
1.0
 10
943.55574373541936
 20
-1222.9975443136309
 30
0.0
 41
1.0
 10
943.51272918480697
 20
-1222.9486988828244
 30
0.0
 41
0.9984621642488861
 10
943.46457162802903
 20
-1222.9049155823532
 30
0.0
 41
1.0
 10
943.46432499351238
 20
-1222.9046913501898
 30
0.0
 41
1.0
 10
943.46407835899572
 20
-1222.9044671180261
 30
0.0
 41
1.0
 10
943.41641407125121
 20
-1222.861132281882
 30
0.0
 41
0.9982724693850411
 10
943.36399543940979
 20
-1222.8236879313645
 30
0.0
 41
1.0
 10
943.3115768075678
 20
-1222.7862435808463
 30
0.0
 41
0.9981399180157541
 10
943.25499074417451
 20
-1222.7554570614029
 30
0.0
 41
1.0
 10
943.25494508209636
 20
-1222.7554322182459
 30
0.0
 41
1.0
 10
943.25489942001809
 20
-1222.7554073750889
 30
0.0
 41
1.0
 10
943.19822203246781
 20
-1222.7245711693311
 30
0.0
 41
0.9980927086836943
 10
943.13817668140155
 20
-1222.7009543604786
 30
0.0
 41
1.0
 10
943.13773651168981
 20
-1222.7007812346037
 30
0.0
 41
1.0
 10
943.13729634197807
 20
-1222.7006081087286
 30
0.0
 41
1.0
 10
943.07637065148754
 20
-1222.6766450481259
 30
0.0
 41
0.9981411356561456
 10
943.01298213008727
 20
-1222.6602724066202
 30
0.0
 41
1.0
 10
943.01210001338666
 20
-1222.6600445644149
 30
0.0
 41
1.0
 10
943.01121789668605
 20
-1222.6598167222096
 30
0.0
 41
1.0
 10
942.94606514188513
 20
-1222.6429883962935
 30
0.0
 41
0.9983031812935462
 10
942.87939771289132
 20
-1222.6338490351172
 30
0.0
 41
1.0
 10
942.87052668748538
 20
-1222.6326329164456
 30
0.0
 41
1.0
 10
942.86165566207933
 20
-1222.6314167977739
 30
0.0
 41
1.0
 10
942.80730601957623
 20
-1222.6239660677829
 30
0.0
 41
0.9983887708263446
 10
942.75246217028428
 20
-1222.6227213941497
 30
0.0
 41
1.0
 10
942.74439876506869
 20
-1222.6225383962749
 30
0.0
 41
1.0
 10
942.73633535985311
 20
-1222.6223553984
 30
0.0
 41
1.0
 10
942.69761832099334
 20
-1222.6214767205165
 30
0.0
 41
0.9998869563080181
 10
942.65889236778878
 20
-1222.6217625898762
 30
0.0
 41
1.0
 10
942.62016641458081
 20
-1222.6220484592359
 30
0.0
 41
0.999997232002395
 10
942.58144223536431
 20
-1222.622516558765
 30
0.0
 41
1.0
 10
942.56208921878988
 20
-1222.6227504988542
 30
0.0
 41
1.0
 10
942.54273620221534
 20
-1222.6229844389436
 30
0.0
 41
1.0
 10
942.46530598984816
 20
-1222.6239204186516
 30
0.0
 41
0.9997304945087113
 10
942.38800268361433
 20
-1222.6284495124373
 30
0.0
 41
1.0
 10
942.37895304190647
 20
-1222.6289797184274
 30
0.0
 41
1.0
 10
942.3699034001985
 20
-1222.6295099244176
 30
0.0
 41
1.0
 10
942.27450081055349
 20
-1222.6350994301833
 30
0.0
 41
0.9997888306414655
 10
942.1794084747122
 20
-1222.6446043946721
 30
0.0
 41
1.0
 10
942.17068741313824
 20
-1222.6454761093044
 30
0.0
 41
1.0
 10
942.16196635156427
 20
-1222.6463478239366
 30
0.0
 41
1.0
 10
942.04943189257574
 20
-1222.6575962176901
 30
0.0
 41
0.998417023819112
 10
941.93887274522422
 20
-1222.6814122996259
 30
0.0
 41
1.0
 10
941.90249161423799
 20
-1222.6892493354321
 30
0.0
 41
1.0
 10
941.86611048325176
 20
-1222.6970863712381
 30
0.0
 41
1.0
 10
941.75091941483049
 20
-1222.7219002377476
 30
0.0
 41
0.9976592854199005
 10
941.64019124842548
 20
-1222.7621989148947
 30
0.0
 41
1.0
 10
941.52946308202092
 20
-1222.8024975920418
 30
0.0
 41
0.9993255074352395
 10
941.42199128323045
 20
-1222.850814490534
 30
0.0
 41
1.0
 10
941.41736610430678
 20
-1222.8528938667339
 30
0.0
 41
1.0
 10
941.4127409253831
 20
-1222.8549732429337
 30
0.0
 41
1.0
 10
941.29601876874676
 20
-1222.9074488938254
 30
0.0
 41
0.9976475078275494
 10
941.18757142443644
 20
-1222.9753968834837
 30
0.0
 41
1.0
 10
941.16922903030184
 20
-1222.9868893622979
 30
0.0
 41
1.0
 10
941.15088663616723
 20
-1222.9983818411124
 30
0.0
 41
1.0
 10
941.06668444461513
 20
-1223.0511389618807
 30
0.0
 41
0.9995131336407198
 10
940.98593672965615
 20
-1223.1090451738348
 30
0.0
 41
1.0
 10
940.9051890147008
 20
-1223.1669513857867
 30
0.0
 41
0.9995810107606381
 10
940.82792736697183
 20
-1223.2294330682525
 30
0.0
 41
1.0
 10
940.82495733576081
 20
-1223.2318349397178
 30
0.0
 41
1.0
 10
940.82198730454979
 20
-1223.2342368111831
 30
0.0
 41
1.0
 10
940.73878559439936
 20
-1223.3015222365793
 30
0.0
 41
0.9996617837954935
 10
940.65919490726219
 20
-1223.3730426921409
 30
0.0
 41
1.0
 10
940.64706415638625
 20
-1223.3839434251306
 30
0.0
 41
1.0
 10
940.63493340551031
 20
-1223.3948441581203
 30
0.0
 41
1.0
 10
940.56665787811323
 20
-1223.4561967735931
 30
0.0
 41
0.9997267750052307
 10
940.5013243698304
 20
-1223.5206733101177
 30
0.0
 41
1.0
 10
940.43599086154472
 20
-1223.585149846645
 30
0.0
 41
0.9999667288956335
 10
940.37171791838898
 20
-1223.6506836535486
 30
0.0
 41
1.0
 10
940.30289047061933
 20
-1223.7208613123014
 30
0.0
 41
1.0
 10
940.2340630228498
 20
-1223.7910389710541
 30
0.0
 41
1.0
 10
940.03213518415487
 20
-1223.9969280954629
 30
0.0
 41
0.9988205335175038
 10
939.85112956717796
 20
-1224.22143232752
 30
0.0
 41
1.0
 10
939.82048960227098
 20
-1224.2594355779527
 30
0.0
 41
1.0
 10
939.78984963736411
 20
-1224.2974388283853
 30
0.0
 41
1.0
 10
939.54756409057575
 20
-1224.5979495613051
 30
0.0
 41
0.9997077826755053
 10
939.32008613947357
 20
-1224.9098193555171
 30
0.0
 41
1.0
 10
939.31836272434134
 20
-1224.9121821388992
 30
0.0
 41
1.0
 10
939.31663930920899
 20
-1224.9145449222813
 30
0.0
 41
1.0
 10
939.08571452784327
 20
-1225.2311402832561
 30
0.0
 41
0.9989147567078832
 10
938.88525102496067
 20
-1225.5678497444394
 30
0.0
 41
1.0
 10
938.86050987965166
 20
-1225.6094063249952
 30
0.0
 41
1.0
 10
938.83576873434265
 20
-1225.6509629055511
 30
0.0
 41
1.0
 10
938.68055743570733
 20
-1225.9116642900001
 30
0.0
 41
0.99974765981813
 10
938.53721244819849
 20
-1226.1790740385816
 30
0.0
 41
1.0
 10
938.39386746068885
 20
-1226.446483787164
 30
0.0
 41
0.9996258967109621
 10
938.26535920875722
 20
-1226.7213317237881
 30
0.0
 41
1.0
 10
938.25215929930778
 20
-1226.749563123883
 30
0.0
 41
1.0
 10
938.23895938985834
 20
-1226.7777945239782
 30
0.0
 41
1.0
 10
938.09875066885854
 20
-1227.0776669219313
 30
0.0
 41
0.9998735413947596
 10
937.96814932213738
 20
-1227.3818465214003
 30
0.0
 41
1.0
 10
937.96470649407797
 20
-1227.3898651068625
 30
0.0
 41
1.0
 10
937.96126366601868
 20
-1227.3978836923245
 30
0.0
 41
1.0
 10
937.83754797541678
 20
-1227.6860261208685
 30
0.0
 41
0.9999377418858403
 10
937.72029317324223
 20
-1227.9768575885432
 30
0.0
 41
1.0
 10
937.60303837106289
 20
-1228.2676890562293
 30
0.0
 41
0.9999508299506709
 10
937.49157442768296
 20
-1228.5607887330582
 30
0.0
 41
1.0
 10
937.4884936590239
 20
-1228.568889759013
 30
0.0
 41
1.0
 10
937.48541289036484
 20
-1228.5769907849681
 30
0.0
 41
1.0
 10
937.3677874096627
 20
-1228.8862925137164
 30
0.0
 41
0.999960922843368
 10
937.2556488067878
 20
-1229.1976255297345
 30
0.0
 41
1.0
 10
937.25269279643851
 20
-1229.2058323701431
 30
0.0
 41
1.0
 10
937.24973678608922
 20
-1229.2140392105516
 30
0.0
 41
1.0
 10
937.13168616251528
 20
-1229.5417859073882
 30
0.0
 41
0.9999674607404966
 10
937.01893863644523
 20
-1229.8713945273887
 30
0.0
 41
1.0
 10
936.96754024588699
 20
-1230.0216537230681
 30
0.0
 41
1.0
 10
936.91614185532887
 20
-1230.1719129187472
 30
0.0
 41
1.0
 10
936.80013124856634
 20
-1230.5110609012636
 30
0.0
 41
0.9999287532308951
 10
936.69224984459424
 20
-1230.852881640244
 30
0.0
 41
1.0
 10
936.64577258840836
 20
-1231.000144184763
 30
0.0
 41
1.0
 10
936.5992953322226
 20
-1231.147406729282
 30
0.0
 41
1.0
 10
936.58436844060202
 20
-1231.1947023792873
 30
0.0
 41
0.9999998223887611
 10
936.56949793189301
 20
-1231.2420157874606
 30
0.0
 41
1.0
 10
934.94884179509756
 20
-1236.39004428925
 30
0.0
 41
1.0
 10
933.32818565830212
 20
-1241.5380727910394
 30
0.0
 41
1.0
 10
932.42287721441119
 20
-1241.5380727910394
 30
0.0
 41
1.0
 10
931.51756877052026
 20
-1241.5380727910394
 30
0.0
 41
1.0
 10
933.3696531819063
 20
-1235.6510008685718
 30
0.0
 41
1.0
 10
935.22173759329235
 20
-1229.7639289461044
 30
0.0
 41
1.0
 10
935.23185935159506
 20
-1229.7318857326547
 30
0.0
 41
1.0
 10
935.3044670204448
 20
-1229.5015861908289
 30
0.0
 41
1.0
 10
935.37707468929534
 20
-1229.2712866490006
 30
0.0
 41
0.9999825681977398
 10
935.44695772850218
 20
-1229.040145753951
 30
0.0
 41
1.0
 10
935.49524879066519
 20
-1228.8804211704478
 30
0.0
 41
1.0
 10
935.54353985282819
 20
-1228.7206965869443
 30
0.0
 41
1.0
 10
935.64069220614397
 20
-1228.3993613651733
 30
0.0
 41
0.9999672528963353
 10
935.7326310117669
 20
-1228.0764958195882
 30
0.0
 41
1.0
 10
935.7354198954348
 20
-1228.0667019742048
 30
0.0
 41
1.0
 10
935.73820877910271
 20
-1228.0569081288213
 30
0.0
 41
1.0
 10
935.82456981738937
 20
-1227.7536302740052
 30
0.0
 41
0.9999899749162032
 10
935.90821142692494
 20
-1227.4495911855493
 30
0.0
 41
1.0
 10
935.91831734594325
 20
-1227.4128559478681
 30
0.0
 41
1.0
 10
935.92842326496145
 20
-1227.376120710187
 30
0.0
 41
1.0
 10
935.99185303645868
 20
-1227.1455520971006
 30
0.0
 41
0.9999214200505252
 10
936.04948246483741
 20
-1226.9134657548875
 30
0.0
 41
1.0
 10
936.06224831701729
 20
-1226.8620548694939
 30
0.0
 41
1.0
 10
936.07501416919729
 20
-1226.8106439841001
 30
0.0
 41
1.0
 10
936.1071118932141
 20
-1226.6813794126826
 30
0.0
 41
0.999982868167714
 10
936.1376941452105
 20
-1226.5517479382108
 30
0.0
 41
1.0
 10
936.16827639720691
 20
-1226.4221164637397
 30
0.0
 41
0.9999389844473564
 10
936.19598738599461
 20
-1226.2918410078457
 30
0.0
 41
1.0
 10
936.20312512971509
 20
-1226.2582849040073
 30
0.0
 41
1.0
 10
936.21026287343557
 20
-1226.2247288001686
 30
0.0
 41
1.0
 10
936.25224934966423
 20
-1226.0273411365979
 30
0.0
 41
0.9998933699442196
 10
936.28845361406593
 20
-1225.8288115288435
 30
0.0
 41
1.0
 10
936.28982643928305
 20
-1225.8212835081426
 30
0.0
 41
1.0
 10
936.29119926450016
 20
-1225.8137554874418
 30
0.0
 41
1.0
 10
936.33014917933451
 20
-1225.6001698382936
 30
0.0
 41
0.9996850305193447
 10
936.3583328555934
 20
-1225.3848988328564
 30
0.0
 41
1.0
 10
936.36032788896296
 20
-1225.3696604787319
 30
0.0
 41
1.0
 10
936.36232292233262
 20
-1225.3544221246077
 30
0.0
 41
1.0
 10
936.3897307847916
 20
-1225.1450768974537
 30
0.0
 41
0.999469793670684
 10
936.40345534401104
 20
-1224.9343917021242
 30
0.0
 41
1.0
 10
936.40393241326069
 20
-1224.9270682299143
 30
0.0
 41
1.0
 10
936.40440948251023
 20
-1224.9197447577046
 30
0.0
 41
1.0
 10
936.41717990323048
 20
-1224.7237065067964
 30
0.0
 41
0.9991804893137122
 10
936.41405158695784
 20
-1224.5272776568199
 30
0.0
 41
1.0
 10
936.41396770813571
 20
-1224.5220108554076
 30
0.0
 41
1.0
 10
936.41388382931359
 20
-1224.5167440539951
 30
0.0
 41
1.0
 10
936.41092327068509
 20
-1224.3308488068467
 30
0.0
 41
0.9988448329321545
 10
936.39013172506134
 20
-1224.1460962170131
 30
0.0
 41
1.0
 10
936.38853765135821
 20
-1224.131931361241
 30
0.0
 41
1.0
 10
936.38694357765507
 20
-1224.1177665054688
 30
0.0
 41
1.0
 10
936.36934017943747
 20
-1223.9613436271791
 30
0.0
 41
0.998550320945869
 10
936.33502390713807
 20
-1223.8077194430905
 30
0.0
 41
1.0
 10
936.32743791506709
 20
-1223.7737591156911
 30
0.0
 41
1.0
 10
936.31985192299601
 20
-1223.7397987882919
 30
0.0
 41
1.0
 10
936.30070763483889
 20
-1223.6540952590035
 30
0.0
 41
0.9991036781370961
 10
936.2743827731872
 20
-1223.5703181716763
 30
0.0
 41
1.0
 10
936.27040054773101
 20
-1223.5576450091651
 30
0.0
 41
1.0
 10
936.26641832227483
 20
-1223.5449718466539
 30
0.0
 41
1.0
 10
936.24805791153585
 20
-1223.4865410843506
 30
0.0
 41
0.9998874504367591
 10
936.22795270385768
 20
-1223.428687482128
 30
0.0
 41
1.0
 10
936.2078474961794
 20
-1223.3708338799049
 30
0.0
 41
0.9994041637543277
 10
936.18379888324512
 20
-1223.3145051760155
 30
0.0
 41
1.0
 10
936.17960209902094
 20
-1223.304675111533
 30
0.0
 41
1.0
 10
936.17540531479665
 20
-1223.2948450470506
 30
0.0
 41
1.0
 10
936.14752648380227
 20
-1223.2295448810837
 30
0.0
 41
0.999184684070209
 10
936.11447012710926
 20
-1223.1667068498036
 30
0.0
 41
1.0
 10
936.11333352071415
 20
-1223.164546233349
 30
0.0
 41
1.0
 10
936.11219691431916
 20
-1223.1623856168942
 30
0.0
 41
1.0
 10
936.08141377041625
 20
-1223.1038688185233
 30
0.0
 41
0.9989253167921961
 10
936.04534434636116
 20
-1223.0484538901333
 30
0.0
 41
1.0
 10
936.04429022168654
 20
-1223.0468343953703
 30
0.0
 41
1.0
 10
936.04323609701191
 20
-1223.0452149006076
 30
0.0
 41
1.0
 10
936.00927492230596
 20
-1222.9930389617425
 30
0.0
 41
0.9986467172835135
 10
935.97007776966893
 20
-1222.9446729281135
 30
0.0
 41
1.0
 10
935.96920364096763
 20
-1222.9435943258345
 30
0.0
 41
1.0
 10
935.96832951226645
 20
-1222.9425157235557
 30
0.0
 41
1.0
 10
935.93088061703031
 20
-1222.8963068944824
 30
0.0
 41
0.9984001104267284
 10
935.8884538865143
 20
-1222.8546217871149
 30
0.0
 41
1.0
 10
935.8878667484048
 20
-1222.8540449122336
 30
0.0
 41
1.0
 10
935.88727961029542
 20
-1222.8534680373523
 30
0.0
 41
1.0
 10
935.84602715599681
 20
-1222.8129366797457
 30
0.0
 41
0.998244215908232
 10
935.80027105466161
 20
-1222.777568118486
 30
0.0
 41
1.0
 10
935.80005625919955
 20
-1222.7774020858426
 30
0.0
 41
1.0
 10
935.79984146373749
 20
-1222.7772360531992
 30
0.0
 41
1.0
 10
935.75451495332561
 20
-1222.7421995572256
 30
0.0
 41
0.9982450060835437
 10
935.70536397425417
 20
-1222.7127677741923
 30
0.0
 41
1.0
 10
935.65621299518273
 20
-1222.6833359911589
 30
0.0
 41
0.9983922639634958
 10
935.60404668901754
 20
-1222.6596563565045
 30
0.0
 41
1.0
 10
935.60381981169303
 20
-1222.6595533710231
 30
0.0
 41
1.0
 10
935.60359293436863
 20
-1222.6594503855417
 30
0.0
 41
1.0
 10
935.55097287355488
 20
-1222.6355647799248
 30
0.0
 41
0.998651714715001
 10
935.49615990068673
 20
-1222.617263660803
 30
0.0
 41
1.0
 10
935.49548197925901
 20
-1222.6170373143716
 30
0.0
 41
1.0
 10
935.49480405783129
 20
-1222.6168109679402
 30
0.0
 41
1.0
 10
935.43863524210735
 20
-1222.5980571559555
 30
0.0
 41
0.9989435598956026
 10
935.38098185495573
 20
-1222.5845394537209
 30
0.0
 41
1.0
 10
935.37990173537423
 20
-1222.5842862034679
 30
0.0
 41
1.0
 10
935.37882161579273
 20
-1222.584032953215
 30
0.0
 41
1.0
 10
935.31900798947811
 20
-1222.5700087504745
 30
0.0
 41
0.9992249241239553
 10
935.25827648058089
 20
-1222.5607334077595
 30
0.0
 41
1.0
 10
935.25686279228967
 20
-1222.5605174993516
 30
0.0
 41
1.0
 10
935.25544910399856
 20
-1222.5603015909437
 30
0.0
 41
1.0
 10
935.1918902185206
 20
-1222.5505944314129
 30
0.0
 41
0.9994396597833795
 10
935.12782428198466
 20
-1222.5451615090672
 30
0.0
 41
1.0
 10
935.10868361450559
 20
-1222.5435383413483
 30
0.0
 41
1.0
 10
935.08954294702653
 20
-1222.5419151736296
 30
0.0
 41
1.0
 10
934.98719567553383
 20
-1222.5332359158467
 30
0.0
 41
0.9987693403121527
 10
934.88449205194672
 20
-1222.5347389792994
 30
0.0
 41
1.0
 10
934.87423771772069
 20
-1222.5348890510736
 30
0.0
 41
1.0
 10
934.86398338349477
 20
-1222.5350391228478
 30
0.0
 41
1.0
 10
934.75442761731483
 20
-1222.5366424671352
 30
0.0
 41
0.9989753644966447
 10
934.64546561729708
 20
-1222.5481454740602
 30
0.0
 41
1.0
 10
934.53650361728069
 20
-1222.5596484809855
 30
0.0
 41
0.9983190067306209
 10
934.42960480631621
 20
-1222.5836834727722
 30
0.0
 41
1.0
 10
934.42070385470925
 20
-1222.5856847513351
 30
0.0
 41
1.0
 10
934.41180290310217
 20
-1222.5876860298977
 30
0.0
 41
1.0
 10
934.28710218892525
 20
-1222.6157235788094
 30
0.0
 41
0.9985539388303673
 10
934.16613243524841
 20
-1222.6569872548544
 30
0.0
 41
1.0
 10
934.16378700428686
 20
-1222.6577872986707
 30
0.0
 41
1.0
 10
934.16144157332519
 20
-1222.658587342487
 30
0.0
 41
1.0
 10
934.03578095772582
 20
-1222.7014511061645
 30
0.0
 41
0.9988468746493592
 10
933.91481061542436
 20
-1222.7561691912276
 30
0.0
 41
1.0
 10
933.91162779343665
 20
-1222.757608865787
 30
0.0
 41
1.0
 10
933.90844497144894
 20
-1222.7590485403466
 30
0.0
 41
1.0
 10
933.7811089851715
 20
-1222.8166459745287
 30
0.0
 41
0.9991322885919013
 10
933.65900840111556
 20
-1222.8846413067101
 30
0.0
 41
1.0
 10
933.64140639007053
 20
-1222.8944435087005
 30
0.0
 41
1.0
 10
933.6238043790255
 20
-1222.9042457106909
 30
0.0
 41
1.0
 10
933.52162769796894
 20
-1222.9611458264712
 30
0.0
 41
0.9993860037849071
 10
933.423686693896
 20
-1223.0250618420596
 30
0.0
 41
1.0
 10
933.41806838104367
 20
-1223.0287283367545
 30
0.0
 41
1.0
 10
933.41245006819133
 20
-1223.0323948314494
 30
0.0
 41
1.0
 10
933.32574568982091
 20
-1223.0889778576493
 30
0.0
 41
0.9998821494952946
 10
933.24081931400974
 20
-1223.148196087725
 30
0.0
 41
1.0
 10
933.15589293819937
 20
-1223.2074143177999
 30
0.0
 41
0.9997976482743735
 10
933.07341730780047
 20
-1223.2700007258379
 30
0.0
 41
1.0
 10
933.058781042992
 20
-1223.2811074156205
 30
0.0
 41
1.0
 10
933.04414477818352
 20
-1223.292214105403
 30
0.0
 41
1.0
 10
932.93239661816938
 20
-1223.3770138930049
 30
0.0
 41
0.999809163080035
 10
932.82404634014154
 20
-1223.4661142437067
 30
0.0
 41
1.0
 10
932.81104058766459
 20
-1223.4768093441523
 30
0.0
 41
1.0
 10
932.79803483518776
 20
-1223.487504444598
 30
0.0
 41
1.0
 10
932.66367305220547
 20
-1223.5979949961916
 30
0.0
 41
0.9995035112317203
 10
932.53653717444195
 20
-1223.7167288132066
 30
0.0
 41
1.0
 10
932.5268898640544
 20
-1223.7257385593648
 30
0.0
 41
1.0
 10
932.51724255366685
 20
-1223.7347483055228
 30
0.0
 41
1.0
 10
932.39381949090216
 20
-1223.8500146772781
 30
0.0
 41
0.9994630424299584
 10
932.2782110851183
 20
-1223.9731174205131
 30
0.0
 41
1.0
 10
932.27452824634543
 20
-1223.9770390000276
 30
0.0
 41
1.0
 10
932.27084540757244
 20
-1223.9809605795424
 30
0.0
 41
1.0
 10
932.16260267933308
 20
-1224.0962201637496
 30
0.0
 41
0.9995160693750003
 10
932.06173664980236
 20
-1224.2179875816209
 30
0.0
 41
1.0
 10
932.05980292972254
 20
-1224.2203220058282
 30
0.0
 41
1.0
 10
932.0578692096426
 20
-1224.2226564300352
 30
0.0
 41
1.0
 10
931.96087062027175
 20
-1224.3397549994918
 30
0.0
 41
0.999656147051488
 10
931.87014440160453
 20
-1224.4617777619426
 30
0.0
 41
1.0
 10
931.86398673570352
 20
-1224.4700595509837
 30
0.0
 41
1.0
 10
931.85782906980239
 20
-1224.4783413400248
 30
0.0
 41
1.0
 10
931.77941818293914
 20
-1224.5838005243911
 30
0.0
 41
0.9998349055173815
 10
931.70489090100637
 20
-1224.6920391080553
 30
0.0
 41
1.0
 10
931.63036361906825
 20
-1224.8002776917274
 30
0.0
 41
0.9999728109574059
 10
931.55744072316054
 20
-1224.9096036172789
 30
0.0
 41
1.0
 10
931.55612550775049
 20
-1224.9115753867788
 30
0.0
 41
1.0
 10
931.55481029234056
 20
-1224.9135471562788
 30
0.0
 41
1.0
 10
931.47925696559014
 20
-1225.0268166208641
 30
0.0
 41
0.9999972147430823
 10
931.4042391552199
 20
-1225.1404414636945
 30
0.0
 41
1.0
 10
931.39926761260404
 20
-1225.1479715521571
 30
0.0
 41
1.0
 10
931.39429606998817
 20
-1225.1555016406196
 30
0.0
 41
1.0
 10
931.3093351743662
 20
-1225.2841866604049
 30
0.0
 41
0.999937197900588
 10
931.22727982495553
 20
-1225.4147435741927
 30
0.0
 41
1.0
 10
931.22377094059834
 20
-1225.4203265022504
 30
0.0
 41
1.0
 10
931.22026205624115
 20
-1225.4259094303081
 30
0.0
 41
1.0
 10
931.13118893811259
 20
-1225.5676322002166
 30
0.0
 41
0.9998272025611252
 10
931.047445547233
 20
-1225.7125680769548
 30
0.0
 41
1.0
 10
931.03223037520775
 20
-1225.7389011914138
 30
0.0
 41
1.0
 10
931.01701520318238
 20
-1225.7652343058726
 30
0.0
 41
1.0
 10
930.90284146825081
 20
-1225.962836411531
 30
0.0
 41
0.9995217214838619
 10
930.80110177869392
 20
-1226.1671187393956
 30
0.0
 41
1.0
 10
930.79345821606216
 20
-1226.1824661890919
 30
0.0
 41
1.0
 10
930.78581465343052
 20
-1226.1978136387881
 30
0.0
 41
1.0
 10
930.69890936083789
 20
-1226.3723100968757
 30
0.0
 41
0.9998269762606263
 10
930.6185548945648
 20
-1226.5499183836012
 30
0.0
 41
1.0
 10
930.53820042829204
 20
-1226.7275266703264
 30
0.0
 41
0.9998944747389746
 10
930.46303963372657
 20
-1226.9073943959575
 30
0.0
 41
1.0
 10
930.45808596413599
 20
-1226.9192490508735
 30
0.0
 41
1.0
 10
930.4531322945453
 20
-1226.9311037057896
 30
0.0
 41
1.0
 10
930.37248523399069
 20
-1227.1241006458126
 30
0.0
 41
0.9999506734408782
 10
930.29568770508899
 20
-1227.318661450664
 30
0.0
 41
1.0
 10
930.28108773982001
 20
-1227.3556493724652
 30
0.0
 41
1.0
 10
930.26648777455102
 20
-1227.3926372942665
 30
0.0
 41
1.0
 10
930.21889017618446
 20
-1227.5132222555226
 30
0.0
 41
0.9999912393943761
 10
930.17230373216285
 20
-1227.634201458216
 30
0.0
 41
1.0
 10
930.12571728814714
 20
-1227.755180660894
 30
0.0
 41
0.9999927113993192
 10
930.0800559937602
 20
-1227.8765120683768
 30
0.0
 41
1.0
 10
930.06608756235551
 20
-1227.9136290503943
 30
0.0
 41
1.0
 10
930.05211913095081
 20
-1227.9507460324116
 30
0.0
 41
1.0
 10
929.97852097376244
 20
-1228.1463114039079
 30
0.0
 41
0.9999487550954084
 10
929.90889734878886
 20
-1228.3433267690955
 30
0.0
 41
1.0
 10
929.88530373885487
 20
-1228.4100900793801
 30
0.0
 41
1.0
 10
929.86171012892078
 20
-1228.4768533896649
 30
0.0
 41
1.0
 10
929.76702449454831
 20
-1228.7447872244952
 30
0.0
 41
0.9999808436942507
 10
929.67566290590366
 20
-1229.0138726557689
 30
0.0
 41
1.0
 10
929.58430131727027
 20
-1229.2829580870098
 30
0.0
 41
0.9999873932902742
 10
929.49564660855356
 20
-1229.5529474420186
 30
0.0
 41
1.0
 10
929.47555425167957
 20
-1229.6141367747855
 30
0.0
 41
1.0
 10
929.45546189480547
 20
-1229.6753261075526
 30
0.0
 41
1.0
 10
929.32662247234339
 20
-1230.0676941280879
 30
0.0
 41
0.9999794883029092
 10
929.20281968737845
 20
-1230.4616803343877
 30
0.0
 41
1.0
 10
929.19166742796949
 20
-1230.497170944534
 30
0.0
 41
1.0
 10
929.18051516856053
 20
-1230.5326615546801
 30
0.0
 41
1.0
 10
929.0379570046448
 20
-1230.986334306825
 30
0.0
 41
0.9999982761713212
 10
928.89708456460289
 20
-1231.4405333290329
 30
0.0
 41
1.0
 10
927.30894423203029
 20
-1236.489303060036
 30
0.0
 41
1.0
 10
925.72080389945768
 20
-1241.5380727910394
 30
0.0
 41
1.0
 10
924.77205328798129
 20
-1241.5380727910394
 30
0.0
 41
1.0
 10
923.82330267650491
 20
-1241.5380727910394
 30
0.0
 41
1.0
 10
927.06158716265804
 20
-1231.2107505910933
 30
0.0
 41
1.0
 10
930.29987164881129
 20
-1220.8834283911472
 30
0.0
 41
1.0
  0
LWPOLYLINE
  5
5C
100
AcDbEntity
  8
0
370
              15
390
0
  6
Continuous
 62
               7
100
AcDbPolyline
 90
      232
 70
             128
 10
904.59632587498425
 20
-1221.9677712226623
 42
0.0004370800700373
 10
904.54344870090779
 20
-1222.0364378619245
 10
904.50416446978477
 20
-1222.087544974815
 42
0.0030481992175739
 10
904.37382575265565
 20
-1222.2592666671726
 10
904.33531408091517
 20
-1222.3106534509475
 42
0.0042058245754892
 10
904.13132903024484
 20
-1222.5876591960218
 10
904.07892390774464
 20
-1222.6600920428018
 42
0.0120948898744765
 10
903.78287999097893
 20
-1223.0908416473576
 10
903.68668749186099
 20
-1223.2383223825764
 42
0.0141601263949362
 10
903.38304344493929
 20
-1223.7339917193112
 10
903.34350617750795
 20
-1223.8028356867524
 42
0.0071131081304628
 10
903.13823385427486
 20
-1224.1723384855811
 42
0.0068458791002373
 10
902.9433543274389
 20
-1224.5474300490432
 10
902.93654246497408
 20
-1224.5609917627808
 42
0.0064120880292524
 10
902.73840021492265
 20
-1224.968416237715
 10
902.73086552941277
 20
-1224.984428094421
 42
0.0058857236446821
 10
902.52811013754786
 20
-1225.4288042054407
 10
902.51993521124712
 20
-1225.4472943590899
 42
0.0053189741893691
 10
902.31123089858204
 20
-1225.9332578330022
 10
902.30248309289823
 20
-1225.9542397112041
 42
0.0047503650418229
 10
902.08650936674837
 20
-1226.4864391444114
 10
902.07724111839934
 20
-1226.5099155205216
 42
0.0042071762172182
 10
901.85269373466667
 20
-1227.0930091146047
 10
901.84294433232299
 20
-1227.1189752894611
 42
0.0036680086484977
 10
901.60848968900757
 20
-1227.7576106740014
 10
901.59828190916312
 20
-1227.7860592083366
 42
0.0032573142627445
 10
901.35264962319718
 20
-1228.4849118680879
 10
901.28399910235566
 20
-1228.6843749521431
 42
0.0026133366648846
 10
900.93555390359779
 20
-1229.7142382358149
 10
900.872297116097
 20
-1229.9044690712083
 42
0.0020592950740474
 10
900.65843404712996
 20
-1230.5565727238211
 10
900.65538225595503
 20
-1230.5660092122673
 42
0.0025609928536041
 10
900.45356175448103
 20
-1231.2011544345967
 10
900.45097038735116
 20
-1231.2094567755476
 42
0.0031362356243991
 10
900.26147960167737
 20
-1231.8302196317168
 10
900.25934855874448
 20
-1231.8373609379462
 42
0.0037229918029862
 10
900.08254817182365
 20
-1232.4463462399021
 10
900.08086958261492
 20
-1232.4522931300849
 42
0.0043077623709554
 10
899.91712878055216
 20
-1233.0521118618453
 42
0.0047654161822845
 10
899.76430005803502
 20
-1233.6547979507523
 10
899.72983544919703
 20
-1233.7963597278977
 42
0.0112969368444772
 10
899.53397109105242
 20
-1234.6880518885273
 10
899.50596470195683
 20
-1234.8308799346196
 42
0.0130056762572012
 10
899.30512745831015
 20
-1236.0178210062645
 10
899.28458770816303
 20
-1236.1618991197417
 42
0.0138721532146397
 10
899.18088470362522
 20
-1237.0687286055672
 10
899.16158921571696
 20
-1237.2922263274963
 42
0.0071254697009187
 10
899.12824256979479
 20
-1237.7554133363396
 10
899.12328159562935
 20
-1237.841417330937
 42
0.0028881799201612
 10
899.10814330234166
 20
-1238.1331590407422
 42
0.0060297297136447
 10
899.09821110256598
 20
-1238.425107976863
 10
899.09714882089884
 20
-1238.4735003487974
 42
0.022952316416019
 10
899.10487984868473
 20
-1238.7962551950736
 10
899.10910562220499
 20
-1238.8566587290882
 42
0.0123673300674462
 10
899.12818426872343
 20
-1239.0577794542646
 42
0.0128577674466714
 10
899.15737965912911
 20
-1239.2576773041881
 10
899.16450553251673
 20
-1239.2990061187884
 42
0.028571785376387
 10
899.22899953421245
 20
-1239.5771222701019
 10
899.24266805787863
 20
-1239.623777039578
 42
0.031628309915651
 10
899.35847863779304
 20
-1239.9427915414049
 10
899.36152732954861
 20
-1239.9497779137305
 42
0.0338984824238197
 10
899.51095904051579
 20
-1240.2373438779196
 10
899.51326776988617
 20
-1240.2411349071963
 42
0.0350228718357741
 10
899.69562806055922
 20
-1240.4981868918724
 10
899.6965133123341
 20
-1240.4992659696363
 42
0.0347476747524966
 10
899.91093799957434
 20
-1240.7264510168566
 42
0.033133770191187
 10
900.15418132532056
 20
-1240.9225796789335
 10
900.15528142383687
 20
-1240.9233523821063
 42
0.0305233319080453
 10
900.42382611940991
 20
-1241.0884805521976
 10
900.4270561639114
 20
-1241.0902045640605
 42
0.0273744481151985
 10
900.71960987548573
 20
-1241.2263427079508
 10
900.72471441062328
 20
-1241.2283862924205
 42
0.0240964406196628
 10
901.04019148626901
 20
-1241.3373700187019
 10
901.04677481547901
 20
-1241.339294758377
 42
0.0209636179808488
 10
901.38417496813179
 20
-1241.4227629063091
 10
901.39180742858025
 20
-1241.4243148193104
 42
0.0181388704692403
 10
901.75012982057876
 20
-1241.4837309125244
 10
901.75841066895691
 20
-1241.4847970963415
 42
0.0156086547586108
 10
902.13659803314579
 20
-1241.5215332829182
 10
902.17979328547779
 20
-1241.5243717853973
 42
0.0137148329024615
 10
902.50746643077161
 20
-1241.5368920406486
 10
902.55340262070911
 20
-1241.5373864737637
 42
0.0051057823885225
 10
902.78954820728984
 20
-1241.5375167281727
 42
0.0052256693316532
 10
903.02564549107444
 20
-1241.5327679037084
 10
903.09587227481791
 20
-1241.5306209376945
 42
0.0161507179048242
 10
903.47160935291924
 20
-1241.5069705673679
 10
903.49162231329228
 20
-1241.5050603720804
 42
0.0101216737832253
 10
903.90564953478167
 20
-1241.457067441715
 10
903.93970282420969
 20
-1241.4524197449052
 42
0.0245291776398455
 10
904.41649247976136
 20
-1241.3633446668289
 10
904.50131579528636
 20
-1241.3431487464827
 42
0.0143509212558649
 10
904.85794689922443
 20
-1241.2473441127045
 42
0.0156557857036023
 10
905.20816296395299
 20
-1241.1303328968852
 10
905.21566417844633
 20
-1241.1275627351315
 42
0.0170137333631044
 10
905.57226017413097
 20
-1240.9819051202587
 10
905.57936409653519
 20
-1240.9787172846966
 42
0.018310536441182
 10
905.93871376469951
 20
-1240.8013822428732
 10
905.94566052934022
 20
-1240.797631808
 42
0.0194899958151807
 10
906.30414127031997
 20
-1240.585652826112
 10
906.31115514966086
 20
-1240.5811274838143
 42
0.020486985295494
 10
906.66516945175636
 20
-1240.3316074687273
 10
906.67243506034185
 20
-1240.3260274033801
 42
0.0212516938556666
 10
907.018424991448
 20
-1240.0361234064874
 10
907.0649416855257
 20
-1239.9936560963918
 42
0.0215248918249256
 10
907.32496785441322
 20
-1239.7348918173975
 10
907.36999758880006
 20
-1239.6860476960408
 42
0.0114578554963889
 10
907.52478974247106
 20
-1239.5102247625891
 10
907.53598427844713
 20
-1239.4969059990565
 42
0.0061531305123734
 10
907.66245892445215
 20
-1239.342616465738
 42
0.0006325587126004
 10
907.78683740863642
 20
-1239.1866130900214
 10
907.80987754365538
 20
-1239.157639569403
 42
0.0041897761560682
 10
907.97833294764951
 20
-1238.9421201933135
 10
908.0367950675203
 20
-1238.8660188463559
 42
0.009299388003935
 10
908.31340699474242
 20
-1238.4917400824743
 10
908.39580148794482
 20
-1238.3758030789008
 42
0.0159321727087168
 10
908.7424079705853
 20
-1237.8536288581474
 10
908.78676410597097
 20
-1237.7819492939029
 42
0.0085547317021902
 10
909.02127587130008
 20
-1237.3880743446728
 42
0.0084601156891101
 10
909.2422520487487
 20
-1236.9864474956287
 10
909.25036752257256
 20
-1236.9710878133676
 42
0.0081429654284728
 10
909.47361679300684
 20
-1236.5313663008333
 10
909.48247695719408
 20
-1236.5131874588074
 42
0.0076574581327635
 10
909.70888446776291
 20
-1236.03000458355
 10
909.71836410848448
 20
-1236.0089401052514
 42
0.007068272420115
 10
909.94880901629551
 20
-1235.4769028004598
 10
909.95879930027297
 20
-1235.4529136114584
 42
0.0064559514446888
 10
910.19413250845014
 20
-1234.8666013449511
 10
910.20454186661959
 20
-1234.8396664194975
 42
0.0058311413908231
 10
910.44558860338225
 20
-1234.1936343251139
 10
910.45634368076992
 20
-1234.163749983953
 42
0.0052312425818168
 10
910.70392495880992
 20
-1233.4525475701212
 10
910.71496879519054
 20
-1233.419720858049
 42
0.0046680544795191
 10
910.96989722291698
 20
-1232.6378945423198
 10
911.01188937296979
 20
-1232.5049113049984
 42
0.0041666856444407
 10
911.21517538536364
 20
-1231.8419425299965
 10
911.25283782602662
 20
-1231.7153614223455
 42
0.001517097515421
 10
911.37402440444043
 20
-1231.3034930708491
 42
-0.0004887993112201
 10
911.49436417753191
 20
-1230.8913746589151
 10
911.57084143505858
 20
-1230.630417272866
 42
0.0002583378927582
 10
911.84405600512594
 20
-1229.6963605696765
 10
911.92582885470051
 20
-1229.4162613101003
 42
0.0006636169672989
 10
912.11969661471085
 20
-1228.7489083865169
 10
912.12479326903895
 20
-1228.7312768037023
 42
0.0010589131322148
 10
912.30624196997451
 20
-1228.098545460588
 10
912.3112240404696
 20
-1228.0810325535165
 42
0.0015655524462857
 10
912.47949424763783
 20
-1227.482415874367
 10
912.48432444804064
 20
-1227.4650237154749
 42
0.0021640440477511
 10
912.63861442003872
 20
-1226.8999966974129
 10
912.64324863946638
 20
-1226.8827319674274
 42
0.0028763871851496
 10
912.78276435752173
 20
-1226.3507640165722
 10
912.78715022168694
 20
-1226.3336400384255
 42
0.0037310511942088
 10
912.91110691352583
 20
-1225.8341924443939
 10
912.91518213381391
 20
-1225.8172321731522
 42
0.0047652197768536
 10
913.02280603432325
 20
-1225.3497544048432
 10
913.02649663364787
 20
-1225.3329948496873
 42
0.0060276699303197
 10
913.11702673280024
 20
-1224.896919054549
 10
913.12024542308677
 20
-1224.8804178402534
 42
0.0075824337752459
 10
913.19293473250491
 20
-1224.4751506758137
 10
913.1955801098843
 20
-1224.4589957283683
 42
0.0095130624604152
 10
913.24969534551633
 20
-1224.0839063752915
 10
913.25668156939935
 20
-1224.0279728171713
 42
0.0121054653225882
 10
913.28327289997685
 20
-1223.763076988701
 10
913.28413938973654
 20
-1223.7516735457702
 42
0.0069050827384952
 10
913.29922820777415
 20
-1223.5087323189277
 10
913.30036350744263
 20
-1223.4852060618848
 42
0.0169063976690092
 10
913.30319078642287
 20
-1223.2890133345823
 10
913.30202013489179
 20
-1223.2286775732368
 42
0.0052007732893193
 10
913.29976668629865
 20
-1223.1530841830809
 42
0.0054038123296879
 10
913.27980317445986
 20
-1223.0330658870712
 10
913.27471731858941
 20
-1223.0044074004898
 42
0.0112050460473351
 10
913.23933295653035
 20
-1222.8280809621485
 10
913.22150799449014
 20
-1222.74853937543
 42
0.0240764468009334
 10
913.13061062834436
 20
-1222.4183023399298
 10
913.11205186553093
 20
-1222.3616821749358
 42
0.0256812331834335
 10
912.968688945341
 20
-1221.9899579686776
 10
912.96327951951946
 20
-1221.9778266336875
 42
0.026836050121676
 10
912.79385227866976
 20
-1221.6468334996669
 10
912.78831587103434
 20
-1221.6373138293538
 42
0.0274670231729367
 10
912.59611489462145
 20
-1221.3450264544372
 10
912.59073359465924
 20
-1221.3377473068963
 42
0.0275035967098132
 10
912.37916071509699
 20
-1221.0822314165919
 10
912.37409121413134
 20
-1221.0767523289624
 42
0.0269557673522201
 10
912.14668767069088
 20
-1220.8561100429993
 10
912.1419446129089
 20
-1220.851980088539
 42
0.0259124802206829
 10
911.9023897814775
 20
-1220.6642895613859
 10
911.89785893629551
 20
-1220.6611040590556
 42
0.0245162153005547
 10
911.64994258320075
 20
-1220.5043710499453
 10
911.64541603687724
 20
-1220.5018108527449
 42
0.0229282588842202
 10
911.39299648004919
 20
-1220.3739426602456
 10
911.38821598621303
 20
-1220.3717903604838
 42
0.021298413570131
 10
911.13517803375066
 20
-1220.2705914432413
 10
911.12987374878333
 20
-1220.2687278804822
 42
0.0197555462347411
 10
910.88009541105816
 20
-1220.1919124625165
 42
0.0183511896789362
 10
910.62516668559556
 20
-1220.1343295555509
 10
910.53880148887163
 20
-1220.1181267651657
 42
0.0338057877144094
 10
910.25329413961174
 20
-1220.0843183600255
 10
910.16228873457169
 20
-1220.0797387047642
 42
0.0091990524490755
 10
910.0564416259358
 20
-1220.0763628488421
 42
0.0028333980789336
 10
909.95052770994016
 20
-1220.0755347413256
 10
909.94961225689349
 20
-1220.0755327715015
 42
-0.002361982780501
 10
909.84186624179608
 20
-1220.0747919304229
 10
909.80546107161172
 20
-1220.0743696239597
 42
0.000882459847429
 10
909.62490508166582
 20
-1220.0725938457206
 10
909.58104364935593
 20
-1220.0722398841958
 42
0.0038132665763906
 10
909.31276075348512
 20
-1220.0721209481292
 10
909.29622709868363
 20
-1220.0722397142729
 42
0.0060665569335557
 10
908.9949466070974
 20
-1220.0780600136936
 10
908.98069627506698
 20
-1220.0785083216613
 42
0.0080356953336705
 10
908.65123755872389
 20
-1220.0941760437283
 10
908.6391675436405
 20
-1220.0949446266686
 42
0.0098996399105952
 10
908.28640445898736
 20
-1220.124429855867
 10
908.27635874961493
 20
-1220.125470152065
 42
0.0117740981366489
 10
907.90520189126732
 20
-1220.1727623995946
 10
907.89697919478363
 20
-1220.1740075161656
 42
0.0137435215138491
 10
907.51239037529592
 20
-1220.243104489728
 10
907.50573333617513
 20
-1220.2444903859609
 42
0.0158359869388291
 10
907.11273624237162
 20
-1220.3393824744419
 10
907.1073230555055
 20
-1220.3408724153121
 42
0.0180554124029835
 10
906.71100801089278
 20
-1220.4655104315511
 10
906.70645122280973
 20
-1220.4671264678173
 42
0.0203657431285382
 10
906.31197370499672
 20
-1220.6253868093336
 10
906.30783016599105
 20
-1220.6272484307747
 42
0.0226819684657288
 10
905.92039410978555
 20
-1220.8228910094469
 10
905.91619431876927
 20
-1220.8252566013657
 42
0.024863498460645
 10
905.54101237758812
 20
-1221.0618832473126
 10
905.49281744880375
 20
-1221.0957402891386
 42
0.0267044190884283
 10
905.21852475188757
 20
-1221.3111806650068
 42
0.0139303002202805
 10
904.96235758594696
 20
-1221.5484195059205
 10
904.95750420022785
 20
-1221.5531721687787
 42
0.0283460963447015
 10
904.71343160599986
 20
-1221.8209028292247
 10
904.6737631008441
 20
-1221.8697044066969
 42
0.0070695364819168
 10
904.59632587498425
 20
-1221.9677712226623
 42
0.0070695364819168
  0
LWPOLYLINE
  5
5D
100
AcDbEntity
  8
0
370
              15
390
0
  6
Continuous
 62
               7
100
AcDbPolyline
 90
      226
 70
             128
 10
901.06750543773785
 20
-1237.6893600288463
 42
-0.0026277636615428
 10
901.06742755393782
 20
-1237.6225881030912
 10
901.06764491216984
 20
-1237.5694328856603
 42
-0.008868029672865
 10
901.07142152846279
 20
-1237.3964171032587
 10
901.07376788757529
 20
-1237.3371370778036
 42
-0.0077381705612051
 10
901.08981399833885
 20
-1237.0458765820001
 10
901.09068190951155
 20
-1237.0335883483203
 42
-0.0068872530531764
 10
901.11731398926031
 20
-1236.7183665962446
 10
901.11851821344578
 20
-1236.7061256172324
 42
-0.0062130021482159
 10
901.15611193027405
 20
-1236.3672559259899
 10
901.15761583380868
 20
-1236.3550820540775
 42
-0.0056726929670109
 10
901.20653769331
 20
-1235.9928868319707
 10
901.20831113895542
 20
-1235.9807930317188
 42
-0.0052341884493933
 10
901.26892172521673
 20
-1235.5955997761926
 10
901.27093971399199
 20
-1235.5835948462084
 42
-0.0049768450170933
 10
901.34367839541903
 20
-1235.1757502787721
 10
901.36792741014017
 20
-1235.0472022957697
 42
-0.0089029805626521
 10
901.50500826193559
 20
-1234.3854268483447
 10
901.53775363725345
 20
-1234.2403954178239
 42
-0.0080318257100491
 10
901.76730225159281
 20
-1233.2946857859758
 10
901.77928717804241
 20
-1233.2485551507802
 42
-0.0074265721319338
 10
902.06329871689479
 20
-1232.2184905723914
 10
902.08317826000939
 20
-1232.1503565118089
 42
-0.0069711922701737
 10
902.41048283851569
 20
-1231.0840887714821
 10
902.47043478562296
 20
-1230.8980674131062
 42
-0.0052070422891838
 10
902.69986001088046
 20
-1230.2107953360803
 10
902.71714120306979
 20
-1230.1607680554137
 42
-0.0009167004447333
 10
902.92023309034221
 20
-1229.576312207309
 42
-0.0025162726942414
 10
903.1273307206061
 20
-1228.9932709431428
 10
903.16455533240571
 20
-1228.8901213972536
 42
-0.0028212681457336
 10
903.41273125137332
 20
-1228.2143907650702
 10
903.42256201412954
 20
-1228.1880833203784
 42
-0.0031964916822847
 10
903.65885427178625
 20
-1227.5678785582663
 10
903.66848872578259
 20
-1227.5430685681297
 42
-0.0036281836451334
 10
903.89359468688644
 20
-1226.9756278872301
 10
903.9030330970503
 20
-1226.9523304557115
 42
-0.0041269166829974
 10
904.11765079370309
 20
-1226.4348895597489
 10
904.15028375012321
 20
-1226.3580111133892
 42
-0.0047472213056477
 10
904.30732855567749
 20
-1225.9975896455044
 10
904.31422263687284
 20
-1225.9821690482011
 42
-0.0025651659996559
 10
904.46258067073586
 20
-1225.6548409924239
 42
-0.0057144634987555
 10
904.61633036451383
 20
-1225.3300313190477
 10
904.64436106991184
 20
-1225.2725229366602
 42
-0.0065388068373659
 10
904.82782809764819
 20
-1224.9082904400022
 10
904.83628655342
 20
-1224.8920308606455
 42
-0.0074510843023083
 10
905.01246879930454
 20
-1224.5653425795099
 10
905.02064846983296
 20
-1224.5507018022458
 42
-0.0084648979860306
 10
905.19028232293567
 20
-1224.25879279128
 10
905.19813844942382
 20
-1224.2457857996292
 42
-0.0095638542805224
 10
905.36197389701795
 20
-1223.9858969276506
 10
905.36944884068544
 20
-1223.9745275662017
 42
-0.0107191626810133
 10
905.52825042107725
 20
-1223.7439163316512
 10
905.53526715480825
 20
-1223.7341802392866
 42
-0.0118458573903881
 10
905.68981525332083
 20
-1223.5301080439758
 42
-0.0129184518192989
 10
905.85426787691836
 20
-1223.3339475278099
 10
905.88441264928611
 20
-1223.2998214489053
 42
-0.0217742579635611
 10
906.06102497162078
 20
-1223.1166146786559
 10
906.07177051609006
 20
-1223.1063978454445
 42
-0.0097266568645381
 10
906.23782813493699
 20
-1222.9545502710155
 42
-0.018772090571699
 10
906.41217571082905
 20
-1222.8124814176244
 10
906.44288170150253
 20
-1222.7893223352287
 42
-0.0179428207517514
 10
906.67530242149678
 20
-1222.6267701581185
 10
906.67895474840714
 20
-1222.6244062232342
 42
-0.0170047877699453
 10
906.91471838594293
 20
-1222.4829457090791
 10
906.91850137469044
 20
-1222.4808474040424
 42
-0.0160190788363567
 10
907.15540992232479
 20
-1222.3591961020547
 42
-0.015110286149134
 10
907.39944170477168
 20
-1222.2525133260001
 10
907.45182820698324
 20
-1222.2314731931056
 42
-0.027194544188635
 10
907.81049076604165
 20
-1222.1096083823995
 10
907.8795555665323
 20
-1222.0902588411325
 42
-0.0237596594021453
 10
908.29535241355211
 20
-1221.9948081291518
 10
908.3634152672787
 20
-1221.9825534410256
 42
-0.0213715440556892
 10
908.64929019872784
 20
-1221.943606409515
 10
908.70943736494382
 20
-1221.9380166948142
 42
-0.0101465655820661
 10
908.87692989693994
 20
-1221.9258731515501
 10
908.88627028313783
 20
-1221.9253862365529
 42
-0.0100375910882559
 10
909.03542438370073
 20
-1221.9206104186276
 10
909.04568365337718
 20
-1221.9204879796132
 42
-0.0103625633384148
 10
909.17439164803591
 20
-1221.9216194131398
 10
909.19665729930432
 20
-1221.9222767716046
 42
-0.0115689250235548
 10
909.28070803683079
 20
-1221.9267062778499
 42
-0.0072438037434787
 10
909.36454631627225
 20
-1221.9342954775993
 10
909.38134682574275
 20
-1221.9360620203233
 42
-0.0217917313138847
 10
909.49791658905451
 20
-1221.953481913044
 10
909.56351667962474
 20
-1221.966228521459
 42
-0.0332943556755577
 10
909.7679088446514
 20
-1222.0202688127661
 10
909.7980814132012
 20
-1222.0304368898844
 42
-0.0184824084806604
 10
909.93658646966696
 20
-1222.082887905271
 42
-0.0198002050700385
 10
910.07066081016603
 20
-1222.1457719654702
 10
910.07254744754323
 20
-1222.1467497523502
 42
-0.0212242342969236
 10
910.20468638994623
 20
-1222.2225124911438
 10
910.20650168548855
 20
-1222.2236582933515
 42
-0.0226090605796727
 10
910.33500558671119
 20
-1222.3131379369167
 10
910.33685002844777
 20
-1222.3145501899035
 42
-0.0238457052220533
 10
910.46003210974118
 20
-1222.4185460857661
 10
910.46198483829971
 20
-1222.4203609635319
 42
-0.0248160564147035
 10
910.57818634559999
 20
-1222.5396355647404
 10
910.58028997900237
 20
-1222.5420208984451
 42
-0.0254109591447604
 10
910.68789519686857
 20
-1222.6773092844096
 10
910.6901432187824
 20
-1222.68045083281
 42
-0.0255528488295252
 10
910.78758989757898
 20
-1222.8324778870435
 10
910.78992099749576
 20
-1222.8365594986522
 42
-0.0252146793224302
 10
910.87570202350514
 20
-1223.0060617446497
 10
910.87800426266244
 20
-1223.0112438265619
 42
-0.0244265635952732
 10
910.95065895642369
 20
-1223.198990398608
 10
910.95990535789247
 20
-1223.2268558169469
 42
-0.0231319612898874
 10
911.00582813688436
 20
-1223.390156863748
 42
-0.0112130424360945
 10
911.04046415942207
 20
-1223.5563604639328
 10
911.04166668453513
 20
-1223.5628570508238
 42
-0.0210527881240268
 10
911.06735315990591
 20
-1223.7439126962654
 10
911.07086375472772
 20
-1223.7793182448124
 42
-0.0190029892429066
 10
911.08630522827241
 20
-1224.0328540910855
 10
911.08711520471638
 20
-1224.0683297054538
 42
-0.0137974553657331
 10
911.08556635188063
 20
-1224.3933611121929
 10
911.08472089692543
 20
-1224.4194798567773
 42
-0.0081336634213041
 10
911.06986156170274
 20
-1224.7248273243792
 42
-0.007352692357163
 10
911.04555302832841
 20
-1225.0295755686618
 10
911.04429160454538
 20
-1225.0429122433304
 42
-0.0066886138692067
 10
911.00855601849844
 20
-1225.3734982868311
 10
911.00689892902892
 20
-1225.387119905819
 42
-0.006135918735451
 10
910.95904832697818
 20
-1225.7438838859182
 10
910.95701082590517
 20
-1225.7577786887482
 42
-0.0056698610068883
 10
910.8963604951374
 20
-1226.1410572575912
 10
910.89395506181518
 20
-1226.155216376817
 42
-0.0052721077277879
 10
910.81982286101652
 20
-1226.5653437164892
 10
910.81705971217377
 20
-1226.5797603518809
 42
-0.0049289272178558
 10
910.72876559407791
 20
-1227.0170688629839
 10
910.72565309939114
 20
-1227.0317377158192
 42
-0.0047415956712932
 10
910.62241510785907
 20
-1227.4965344732284
 10
910.5876468974991
 20
-1227.646341568613
 42
-0.0084404470901874
 10
910.39763045392465
 20
-1228.4065655931538
 10
910.39150376594159
 20
-1228.4294297172976
 42
-0.0039635940259831
 10
910.17005008165859
 20
-1229.2304185815415
 10
910.15667328647805
 20
-1229.2773501981369
 42
-0.0072475040837452
 10
909.88922639861721
 20
-1230.1665699145199
 10
909.81901407179271
 20
-1230.3883102644829
 42
-0.0051345458828302
 10
909.5322546997287
 20
-1231.2626354523102
 10
909.51072843294389
 20
-1231.326061719491
 42
-0.0019150016601489
 10
909.2551950260945
 20
-1232.0696108396662
 10
909.24872742170942
 20
-1232.0881983045554
 42
-0.0021524362753622
 10
909.00024937063449
 20
-1232.7925241262956
 10
908.99103894993755
 20
-1232.8182777045984
 42
-0.0024331286818731
 10
908.75478369090206
 20
-1233.4688770127154
 10
908.74573573834209
 20
-1233.4934203190953
 42
-0.002744972178572
 10
908.52112116751607
 20
-1234.0925501979941
 10
908.51223116013307
 20
-1234.1158727878221
 42
-0.0031083229769851
 10
908.29868867351388
 20
-1234.665796825426
 10
908.28995254182769
 20
-1234.6878865413107
 42
-0.0035311343280085
 10
908.08691135624645
 20
-1235.1908696670139
 10
908.07832601709583
 20
-1235.2117123905314
 42
-0.0040245640950308
 10
907.88521421330438
 20
-1235.6700217131165
 10
907.87677809970262
 20
-1235.6896010811856
 42
-0.0046015135852397
 10
907.69302180653756
 20
-1236.1055061108309
 10
907.68473562871282
 20
-1236.1238032502752
 42
-0.0052768638274366
 10
907.50975810975365
 20
-1236.4995761345533
 10
907.5016258991227
 20
-1236.5165694731049
 42
-0.0060672675641825
 10
907.33484628636074
 20
-1236.8544850962107
 10
907.32687680588538
 20
-1236.8701503551958
 42
-0.0069904648875148
 10
907.16770841187781
 20
-1237.1724861618718
 10
907.15991701226631
 20
-1237.1867967111004
 42
-0.0080637022763712
 10
907.00776515192115
 20
-1237.4558320142521
 10
907.00017611929297
 20
-1237.4687598798475
 42
-0.0093006455665297
 10
906.85443544275836
 20
-1237.7067742783561
 10
906.84708477601885
 20
-1237.7182922475226
 42
-0.0107060778052431
 10
906.7071362325762
 20
-1237.9275625649082
 10
906.70007446429975
 20
-1237.9376481074696
 42
-0.0122723111411047
 10
906.56528074609855
 20
-1238.1204414369631
 10
906.56495452254558
 20
-1238.1208618247713
 42
-0.0141836319628715
 10
906.42137291957033
 20
-1238.2954315826023
 10
906.41442516392328
 20
-1238.3034065828615
 42
-0.0175957477212524
 10
906.27451899588368
 20
-1238.4530274712718
 42
-0.0080466359677189
 10
906.12705523085594
 20
-1238.5953499994205
 10
906.08102068633605
 20
-1238.6383704375141
 42
-0.0269600260392908
 10
905.82774044035148
 20
-1238.8506936960246
 10
905.76117330406089
 20
-1238.9006451106436
 42
-0.0178362839758901
 10
905.52122881440027
 20
-1239.0676630368996
 10
905.51398384339655
 20
-1239.0723315491066
 42
-0.0174650732648243
 10
905.2776476459585
 20
-1239.2131925140636
 42
-0.0169240130160951
 10
905.03218140009892
 20
-1239.3374847738421
 10
904.98619524454307
 20
-1239.3588467294082
 42
-0.0318883036841081
 10
904.63584438892201
 20
-1239.4951850389186
 10
904.56747885375717
 20
-1239.5168856593941
 42
-0.0284435909899725
 10
904.19142872746727
 20
-1239.6131030948686
 10
904.15627056696576
 20
-1239.6199966906977
 42
-0.0243909341008859
 10
903.84282710604975
 20
-1239.6657177217271
 10
903.79254637928307
 20
-1239.6705632686285
 42
-0.0196639292931262
 10
903.57695080175131
 20
-1239.6828115541423
 10
903.52512673058823
 20
-1239.6837148148791
 42
-0.0100501510681749
 10
903.41270344892359
 20
-1239.6834144165259
 10
903.38104358759097
 20
-1239.6826933446407
 42
-0.0019752031155446
 10
903.33195125089821
 20
-1239.6813811844308
 10
903.32919094766658
 20
-1239.6812964926044
 42
0.0065378752007889
 10
903.28561437292137
 20
-1239.6805296013897
 42
-0.0167974694634029
 10
903.24208354998916
 20
-1239.6788697028637
 10
903.23800421072747
 20
-1239.6785766919688
 42
-0.008128327627405
 10
903.18644441299239
 20
-1239.6740296983312
 10
903.17470483911029
 20
-1239.6728017807525
 42
-0.0126703440182261
 10
903.09998654331741
 20
-1239.6630669896811
 10
903.07719867564015
 20
-1239.6595087337657
 42
-0.0117852088435262
 10
902.95765968980254
 20
-1239.6379457386074
 10
902.90227923804468
 20
-1239.626602198374
 42
-0.0251774592301749
 10
902.67543519903836
 20
-1239.5681041889413
 10
902.63071600918681
 20
-1239.554137369606
 42
-0.0146525199894596
 10
902.44432302164728
 20
-1239.4898708424075
 42
-0.0166929435860539
 10
902.26234536552317
 20
-1239.4140637093542
 10
902.25768873424749
 20
-1239.411938808739
 42
-0.0191684358433095
 10
902.07250510299798
 20
-1239.3187027249489
 10
902.06917251724121
 20
-1239.3168614773958
 42
-0.0221181781806163
 10
901.8858622133373
 20
-1239.2047279790238
 10
901.88351240933059
 20
-1239.2031436810339
 42
-0.0254984685375912
 10
901.70722225894531
 20
-1239.0707325310646
 10
901.68474011124374
 20
-1239.0519802221286
 42
-0.0292492648804605
 10
901.55997117240031
 20
-1238.934887422485
 42
-0.0159048957498739
 10
901.44613117494964
 20
-1238.8068674308852
 10
901.44481238437083
 20
-1238.8052858178658
 42
-0.0343813379558831
 10
901.34217512274449
 20
-1238.6634144920961
 10
901.31068359138328
 20
-1238.6129111000014
 42
-0.0369117275701862
 10
901.22479108948653
 20
-1238.4494338590539
 42
-0.0191751379902623
 10
901.1575977039297
 20
-1238.2770292530481
 10
901.15583438017006
 20
-1238.2719359083731
 42
-0.0378178042228332
 10
901.10603966138569
 20
-1238.0829951322912
 10
901.100044365656
 20
-1238.0504345140976
 42
-0.0184846046466747
 10
901.07932716636105
 20
-1237.9086816935499
 42
-0.0179866351308244
 10
901.06899416128738
 20
-1237.7657908804672
 10
901.06893771884165
 20
-1237.7642331938562
 42
-0.0085497186138666
 10
901.06750543773785
 20
-1237.6893600288463
 42
-0.0085497186138666
  0
ENDBLK
  5
5E
100
AcDbEntity
  8
template
390
0
100
AcDbBlockEnd
  0
BLOCK
  5
5F
100
AcDbEntity
  8
notes
390
0
100
AcDbBlockBegin
  2
*D3
 70
               1
 10
0.0
 20
0.0
 30
0.0
  3
*D3
  1

  0
LINE
  5
60
100
AcDbEntity
  8
0
370
              -2
390
0
  6
Continuous
 62
               0
100
AcDbLine
 10
477.76245472705341
 20
-579.27550432296175
 30
0.0
 11
477.76245472705341
 21
-627.28953211655858
 31
0.0
  0
LINE
  5
61
100
AcDbEntity
  8
0
370
              -2
390
0
  6
Continuous
 62
               0
100
AcDbLine
 10
257.80681981544149
 20
-542.28953211655858
 30
0.0
 11
257.80681981544149
 21
-627.28953211655858
 31
0.0
  0
LINE
  5
62
100
AcDbEntity
  8
0
370
              -2
390
0
  6
Continuous
 62
               0
100
AcDbLine
 10
477.76245472705341
 20
-627.28953211655858
 30
0.0
 11
257.80681981544149
 21
-627.28953211655858
 31
0.0
  0
CIRCLE
  5
63
102
{ACAD_REACTORS
330
64
102
}
100
AcDbEntity
  8
0
370
              -2
390
0
  6
Continuous
 62
               0
100
AcDbCircle
 10
477.76245472705341
 20
-627.28953211655858
 30
0.0
 40
1.9998779296875
  0
HATCH
  5
64
100
AcDbEntity
  8
0
370
              -2
390
0
  6
Continuous
 62
               0
100
AcDbHatch
 10
0.0
 20
0.0
 30
0.0
210
0.0
220
0.0
230
1.0
  2
SOLID
 70
               1
 71
               1
 91
        1
 92
        1
 93
        1
 72
               2
 10
477.76245472705341
 20
-627.28953211655858
 40
1.9998779296875
 50
0.0
 51
360.0
 73
               0
 97
        1
330
63
 75
               0
 76
               1
 98
        1
 10
0.0
 20
0.0
  0
CIRCLE
  5
65
102
{ACAD_REACTORS
330
66
102
}
100
AcDbEntity
  8
0
370
              -2
390
0
  6
Continuous
 62
               0
100
AcDbCircle
 10
257.80681981544149
 20
-627.28953211655858
 30
0.0
 40
1.9998779296875
  0
HATCH
  5
66
100
AcDbEntity
  8
0
370
              -2
390
0
  6
Continuous
 62
               0
100
AcDbHatch
 10
0.0
 20
0.0
 30
0.0
210
0.0
220
0.0
230
1.0
  2
SOLID
 70
               1
 71
               1
 91
        1
 92
        1
 93
        1
 72
               2
 10
257.80681981544149
 20
-627.28953211655858
 40
1.9998779296875
 50
0.0
 51
360.0
 73
               0
 97
        1
330
65
 75
               0
 76
               1
 98
        1
 10
0.0
 20
0.0
  0
MTEXT
  5
67
100
AcDbEntity
  8
0
390
0
 62
               0
100
AcDbMText
 10
343.97213558907191
 20
-593.41191492905864
 30
0.0
 40
24.432617187500004
 41
0.0
 71
               1
 72
               1
  1
220
  7
ＭＳ ゴシック
 73
               1
 44
0.7828267384257843
  0
POINT
  5
68
100
AcDbEntity
  8
Defpoints
370
               0
390
0
 62
               0
100
AcDbPoint
 10
257.80681981544149
 20
-517.28953211655858
 30
0.0
  0
POINT
  5
69
100
AcDbEntity
  8
Defpoints
370
               0
390
0
 62
               0
100
AcDbPoint
 10
477.76245472705341
 20
-554.27550432296175
 30
0.0
  0
POINT
  5
6A
100
AcDbEntity
  8
Defpoints
370
               0
390
0
 62
               0
100
AcDbPoint
 10
477.76245472705341
 20
-627.28953211655858
 30
0.0
  0
ENDBLK
  5
6B
100
AcDbEntity
  8
notes
390
0
100
AcDbBlockEnd
  0
BLOCK
  5
6C
100
AcDbEntity
  8
notes
390
0
100
AcDbBlockBegin
  2
*D4
 70
               1
 10
0.0
 20
0.0
 30
0.0
  3
*D4
  1

  0
LINE
  5
6D
100
AcDbEntity
  8
0
370
              -2
390
0
  6
Continuous
 62
               0
100
AcDbLine
 10
-643.02693400608848
 20
504.02435717488686
 30
0.0
 11
-643.02693400608848
 21
325.84894083007214
 31
0.0
  0
LINE
  5
6E
100
AcDbEntity
  8
0
370
              -2
390
0
  6
Continuous
 62
               0
100
AcDbLine
 10
-293.02693400608831
 20
504.02435717488686
 30
0.0
 11
-293.02693400608831
 21
325.84894083007214
 31
0.0
  0
LINE
  5
6F
100
AcDbEntity
  8
0
370
              -2
390
0
  6
Continuous
 62
               0
100
AcDbLine
 10
-643.02693400608848
 20
325.84894083007214
 30
0.0
 11
-293.02693400608831
 21
325.84894083007214
 31
0.0
  0
CIRCLE
  5
70
102
{ACAD_REACTORS
330
71
102
}
100
AcDbEntity
  8
0
370
              -2
390
0
  6
Continuous
 62
               0
100
AcDbCircle
 10
-643.02693400608848
 20
325.84894083007214
 30
0.0
 40
1.9998779296875
  0
HATCH
  5
71
100
AcDbEntity
  8
0
370
              -2
390
0
  6
Continuous
 62
               0
100
AcDbHatch
 10
0.0
 20
0.0
 30
0.0
210
0.0
220
0.0
230
1.0
  2
SOLID
 70
               1
 71
               1
 91
        1
 92
        1
 93
        1
 72
               2
 10
-643.02693400608848
 20
325.84894083007214
 40
1.9998779296875
 50
0.0
 51
360.0
 73
               0
 97
        1
330
70
 75
               0
 76
               1
 98
        1
 10
0.0
 20
0.0
  0
CIRCLE
  5
72
102
{ACAD_REACTORS
330
73
102
}
100
AcDbEntity
  8
0
370
              -2
390
0
  6
Continuous
 62
               0
100
AcDbCircle
 10
-293.02693400608831
 20
325.84894083007214
 30
0.0
 40
1.9998779296875
  0
HATCH
  5
73
100
AcDbEntity
  8
0
370
              -2
390
0
  6
Continuous
 62
               0
100
AcDbHatch
 10
0.0
 20
0.0
 30
0.0
210
0.0
220
0.0
230
1.0
  2
SOLID
 70
               1
 71
               1
 91
        1
 92
        1
 93
        1
 72
               2
 10
-293.02693400608831
 20
325.84894083007214
 40
1.9998779296875
 50
0.0
 51
360.0
 73
               0
 97
        1
330
72
 75
               0
 76
               1
 98
        1
 10
0.0
 20
0.0
  0
MTEXT
  5
74
100
AcDbEntity
  8
0
390
0
 62
               0
100
AcDbMText
 10
-491.8394356882639
 20
359.72655801757207
 30
0.0
 40
24.432617187500004
 41
0.0
 71
               1
 72
               1
  1
350
  7
ＭＳ ゴシック
 73
               1
 44
0.7828267384257843
  0
POINT
  5
75
100
AcDbEntity
  8
Defpoints
370
               0
390
0
 62
               0
100
AcDbPoint
 10
-293.02693400608831
 20
529.02435717488686
 30
0.0
  0
POINT
  5
76
100
AcDbEntity
  8
Defpoints
370
               0
390
0
 62
               0
100
AcDbPoint
 10
-643.02693400608848
 20
529.02435717488686
 30
0.0
  0
POINT
  5
77
100
AcDbEntity
  8
Defpoints
370
               0
390
0
 62
               0
100
AcDbPoint
 10
-643.02693400608848
 20
325.84894083007214
 30
0.0
  0
ENDBLK
  5
78
100
AcDbEntity
  8
notes
390
0
100
AcDbBlockEnd
  0
BLOCK
  5
79
100
AcDbEntity
  8
notes
390
0
100
AcDbBlockBegin
  2
*D5
 70
               1
 10
0.0
 20
0.0
 30
0.0
  3
*D5
  1

  0
LINE
  5
7A
100
AcDbEntity
  8
0
370
              -2
390
0
  6
Continuous
 62
               0
100
AcDbLine
 10
-543.0269340060886
 20
870.84894083007225
 30
0.0
 11
-543.0269340060886
 21
945.84894083007259
 31
0.0
  0
LINE
  5
7B
100
AcDbEntity
  8
0
370
              -2
390
0
  6
Continuous
 62
               0
100
AcDbLine
 10
-393.02693400608837
 20
870.84894083007225
 30
0.0
 11
-393.02693400608837
 21
945.84894083007259
 31
0.0
  0
LINE
  5
7C
100
AcDbEntity
  8
0
370
              -2
390
0
  6
Continuous
 62
               0
100
AcDbLine
 10
-543.0269340060886
 20
945.84894083007259
 30
0.0
 11
-393.02693400608837
 21
945.84894083007259
 31
0.0
  0
CIRCLE
  5
7D
102
{ACAD_REACTORS
330
7E
102
}
100
AcDbEntity
  8
0
370
              -2
390
0
  6
Continuous
 62
               0
100
AcDbCircle
 10
-543.0269340060886
 20
945.84894083007259
 30
0.0
 40
1.9998779296875
  0
HATCH
  5
7E
100
AcDbEntity
  8
0
370
              -2
390
0
  6
Continuous
 62
               0
100
AcDbHatch
 10
0.0
 20
0.0
 30
0.0
210
0.0
220
0.0
230
1.0
  2
SOLID
 70
               1
 71
               1
 91
        1
 92
        1
 93
        1
 72
               2
 10
-543.0269340060886
 20
945.84894083007259
 40
1.9998779296875
 50
0.0
 51
360.0
 73
               0
 97
        1
330
7D
 75
               0
 76
               1
 98
        1
 10
0.0
 20
0.0
  0
CIRCLE
  5
7F
102
{ACAD_REACTORS
330
80
102
}
100
AcDbEntity
  8
0
370
              -2
390
0
  6
Continuous
 62
               0
100
AcDbCircle
 10
-393.02693400608837
 20
945.84894083007259
 30
0.0
 40
1.9998779296875
  0
HATCH
  5
80
100
AcDbEntity
  8
0
370
              -2
390
0
  6
Continuous
 62
               0
100
AcDbHatch
 10
0.0
 20
0.0
 30
0.0
210
0.0
220
0.0
230
1.0
  2
SOLID
 70
               1
 71
               1
 91
        1
 92
        1
 93
        1
 72
               2
 10
-393.02693400608837
 20
945.84894083007259
 40
1.9998779296875
 50
0.0
 51
360.0
 73
               0
 97
        1
330
7F
 75
               0
 76
               1
 98
        1
 10
0.0
 20
0.0
  0
MTEXT
  5
81
100
AcDbEntity
  8
0
390
0
 62
               0
100
AcDbMText
 10
-491.83943568826402
 20
979.72655801757253
 30
0.0
 40
24.432617187500004
 41
0.0
 71
               1
 72
               1
  1
150
  7
ＭＳ ゴシック
 73
               1
 44
0.7828267384257843
  0
POINT
  5
82
100
AcDbEntity
  8
Defpoints
370
               0
390
0
 62
               0
100
AcDbPoint
 10
-393.02693400608837
 20
845.84894083007225
 30
0.0
  0
POINT
  5
83
100
AcDbEntity
  8
Defpoints
370
               0
390
0
 62
               0
100
AcDbPoint
 10
-543.0269340060886
 20
845.84894083007225
 30
0.0
  0
POINT
  5
84
100
AcDbEntity
  8
Defpoints
370
               0
390
0
 62
               0
100
AcDbPoint
 10
-543.0269340060886
 20
945.84894083007259
 30
0.0
  0
ENDBLK
  5
85
100
AcDbEntity
  8
notes
390
0
100
AcDbBlockEnd
  0
BLOCK
  5
86
100
AcDbEntity
  8
notes
390
0
100
AcDbBlockBegin
  2
*D6
 70
               1
 10
0.0
 20
0.0
 30
0.0
  3
*D6
  1

  0
LINE
  5
87
100
AcDbEntity
  8
0
370
              -2
390
0
  6
Continuous
 62
               0
100
AcDbLine
 10
-668.02693400608848
 20
600.84894083007225
 30
0.0
 11
-668.02693400608848
 21
275.84894083007225
 31
0.0
  0
LINE
  5
88
100
AcDbEntity
  8
0
370
              -2
390
0
  6
Continuous
 62
               0
100
AcDbLine
 10
-268.02693400608837
 20
600.84894083007225
 30
0.0
 11
-268.02693400608837
 21
275.84894083007225
 31
0.0
  0
LINE
  5
89
100
AcDbEntity
  8
0
370
              -2
390
0
  6
Continuous
 62
               0
100
AcDbLine
 10
-668.02693400608848
 20
275.84894083007225
 30
0.0
 11
-268.02693400608837
 21
275.84894083007225
 31
0.0
  0
CIRCLE
  5
8A
102
{ACAD_REACTORS
330
8B
102
}
100
AcDbEntity
  8
0
370
              -2
390
0
  6
Continuous
 62
               0
100
AcDbCircle
 10
-668.02693400608848
 20
275.84894083007225
 30
0.0
 40
1.9998779296875
  0
HATCH
  5
8B
100
AcDbEntity
  8
0
370
              -2
390
0
  6
Continuous
 62
               0
100
AcDbHatch
 10
0.0
 20
0.0
 30
0.0
210
0.0
220
0.0
230
1.0
  2
SOLID
 70
               1
 71
               1
 91
        1
 92
        1
 93
        1
 72
               2
 10
-668.02693400608848
 20
275.84894083007225
 40
1.9998779296875
 50
0.0
 51
360.0
 73
               0
 97
        1
330
8A
 75
               0
 76
               1
 98
        1
 10
0.0
 20
0.0
  0
CIRCLE
  5
8C
102
{ACAD_REACTORS
330
8D
102
}
100
AcDbEntity
  8
0
370
              -2
390
0
  6
Continuous
 62
               0
100
AcDbCircle
 10
-268.02693400608837
 20
275.84894083007225
 30
0.0
 40
1.9998779296875
  0
HATCH
  5
8D
100
AcDbEntity
  8
0
370
              -2
390
0
  6
Continuous
 62
               0
100
AcDbHatch
 10
0.0
 20
0.0
 30
0.0
210
0.0
220
0.0
230
1.0
  2
SOLID
 70
               1
 71
               1
 91
        1
 92
        1
 93
        1
 72
               2
 10
-268.02693400608837
 20
275.84894083007225
 40
1.9998779296875
 50
0.0
 51
360.0
 73
               0
 97
        1
330
8C
 75
               0
 76
               1
 98
        1
 10
0.0
 20
0.0
  0
MTEXT
  5
8E
100
AcDbEntity
  8
0
390
0
 62
               0
100
AcDbMText
 10
-491.83943568826396
 20
309.72655801757219
 30
0.0
 40
24.432617187500004
 41
0.0
 71
               1
 72
               1
  1
400
  7
ＭＳ ゴシック
 73
               1
 44
0.7828267384257843
  0
POINT
  5
8F
100
AcDbEntity
  8
Defpoints
370
               0
390
0
 62
               0
100
AcDbPoint
 10
-268.02693400608837
 20
625.84894083007225
 30
0.0
  0
POINT
  5
90
100
AcDbEntity
  8
Defpoints
370
               0
390
0
 62
               0
100
AcDbPoint
 10
-668.02693400608848
 20
625.84894083007225
 30
0.0
  0
POINT
  5
91
100
AcDbEntity
  8
Defpoints
370
               0
390
0
 62
               0
100
AcDbPoint
 10
-668.02693400608848
 20
275.84894083007225
 30
0.0
  0
ENDBLK
  5
92
100
AcDbEntity
  8
notes
390
0
100
AcDbBlockEnd
  0
BLOCK
  5
93
100
AcDbEntity
  8
notes
390
0
100
AcDbBlockBegin
  2
*D7
 70
               1
 10
0.0
 20
0.0
 30
0.0
  3
*D7
  1

  0
LINE
  5
94
100
AcDbEntity
  8
0
370
              -2
390
0
  6
Continuous
 62
               0
100
AcDbLine
 10
-568.0269340060886
 20
845.84894083007237
 30
0.0
 11
-768.0269340060886
 21
845.84894083007237
 31
0.0
  0
LINE
  5
95
100
AcDbEntity
  8
0
370
              -2
390
0
  6
Continuous
 62
               0
100
AcDbLine
 10
-568.02693400608848
 20
825.84894083007225
 30
0.0
 11
-768.0269340060886
 21
825.84894083007225
 31
0.0
  0
LINE
  5
96
100
AcDbEntity
  8
0
370
              -2
390
0
  6
Continuous
 62
               0
100
AcDbLine
 10
-768.0269340060886
 20
845.84894083007237
 30
0.0
 11
-768.0269340060886
 21
825.84894083007225
 31
0.0
  0
CIRCLE
  5
97
102
{ACAD_REACTORS
330
98
102
}
100
AcDbEntity
  8
0
370
              -2
390
0
  6
Continuous
 62
               0
100
AcDbCircle
 10
-768.0269340060886
 20
845.84894083007237
 30
0.0
 40
1.9998779296875
  0
HATCH
  5
98
100
AcDbEntity
  8
0
370
              -2
390
0
  6
Continuous
 62
               0
100
AcDbHatch
 10
0.0
 20
0.0
 30
0.0
210
0.0
220
0.0
230
1.0
  2
SOLID
 70
               1
 71
               1
 91
        1
 92
        1
 93
        1
 72
               2
 10
-768.0269340060886
 20
845.84894083007237
 40
1.9998779296875
 50
0.0
 51
360.0
 73
               0
 97
        1
330
97
 75
               0
 76
               1
 98
        1
 10
0.0
 20
0.0
  0
CIRCLE
  5
99
102
{ACAD_REACTORS
330
9A
102
}
100
AcDbEntity
  8
0
370
              -2
390
0
  6
Continuous
 62
               0
100
AcDbCircle
 10
-768.0269340060886
 20
825.84894083007225
 30
0.0
 40
1.9998779296875
  0
HATCH
  5
9A
100
AcDbEntity
  8
0
370
              -2
390
0
  6
Continuous
 62
               0
100
AcDbHatch
 10
0.0
 20
0.0
 30
0.0
210
0.0
220
0.0
230
1.0
  2
SOLID
 70
               1
 71
               1
 91
        1
 92
        1
 93
        1
 72
               2
 10
-768.0269340060886
 20
825.84894083007225
 40
1.9998779296875
 50
0.0
 51
360.0
 73
               0
 97
        1
330
99
 75
               0
 76
               1
 98
        1
 10
0.0
 20
0.0
  0
MTEXT
  5
9B
100
AcDbEntity
  8
0
390
0
 62
               0
100
AcDbMText
 10
-801.90455119358865
 20
819.97394083007237
 30
0.0
 40
24.432617187500004
 41
0.0
 71
               1
 72
               1
  1
20
  7
ＭＳ ゴシック
 11
0.0
 21
1.0
 31
0.0
 73
               1
 44
0.7828267384257843
  0
POINT
  5
9C
100
AcDbEntity
  8
Defpoints
370
               0
390
0
 62
               0
100
AcDbPoint
 10
-543.02693400608848
 20
825.84894083007225
 30
0.0
  0
POINT
  5
9D
100
AcDbEntity
  8
Defpoints
370
               0
390
0
 62
               0
100
AcDbPoint
 10
-543.0269340060886
 20
845.84894083007237
 30
0.0
  0
POINT
  5
9E
100
AcDbEntity
  8
Defpoints
370
               0
390
0
 62
               0
100
AcDbPoint
 10
-768.0269340060886
 20
845.84894083007237
 30
0.0
  0
ENDBLK
  5
9F
100
AcDbEntity
  8
notes
390
0
100
AcDbBlockEnd
  0
BLOCK
  5
A0
100
AcDbEntity
  8
notes
390
0
100
AcDbBlockBegin
  2
*D8
 70
               1
 10
0.0
 20
0.0
 30
0.0
  3
*D8
  1

  0
LINE
  5
A1
100
AcDbEntity
  8
0
370
              -2
390
0
  6
Continuous
 62
               0
100
AcDbLine
 10
-568.02693400608848
 20
825.84894083007225
 30
0.0
 11
-768.0269340060886
 21
825.84894083007225
 31
0.0
  0
LINE
  5
A2
100
AcDbEntity
  8
0
370
              -2
390
0
  6
Continuous
 62
               0
100
AcDbLine
 10
-518.02693400608837
 20
425.84894083007225
 30
0.0
 11
-768.0269340060886
 21
425.84894083007225
 31
0.0
  0
LINE
  5
A3
100
AcDbEntity
  8
0
370
              -2
390
0
  6
Continuous
 62
               0
100
AcDbLine
 10
-768.0269340060886
 20
825.84894083007225
 30
0.0
 11
-768.0269340060886
 21
425.84894083007225
 31
0.0
  0
CIRCLE
  5
A4
102
{ACAD_REACTORS
330
A5
102
}
100
AcDbEntity
  8
0
370
              -2
390
0
  6
Continuous
 62
               0
100
AcDbCircle
 10
-768.0269340060886
 20
825.84894083007225
 30
0.0
 40
1.9998779296875
  0
HATCH
  5
A5
100
AcDbEntity
  8
0
370
              -2
390
0
  6
Continuous
 62
               0
100
AcDbHatch
 10
0.0
 20
0.0
 30
0.0
210
0.0
220
0.0
230
1.0
  2
SOLID
 70
               1
 71
               1
 91
        1
 92
        1
 93
        1
 72
               2
 10
-768.0269340060886
 20
825.84894083007225
 40
1.9998779296875
 50
0.0
 51
360.0
 73
               0
 97
        1
330
A4
 75
               0
 76
               1
 98
        1
 10
0.0
 20
0.0
  0
CIRCLE
  5
A6
102
{ACAD_REACTORS
330
A7
102
}
100
AcDbEntity
  8
0
370
              -2
390
0
  6
Continuous
 62
               0
100
AcDbCircle
 10
-768.0269340060886
 20
425.84894083007225
 30
0.0
 40
1.9998779296875
  0
HATCH
  5
A7
100
AcDbEntity
  8
0
370
              -2
390
0
  6
Continuous
 62
               0
100
AcDbHatch
 10
0.0
 20
0.0
 30
0.0
210
0.0
220
0.0
230
1.0
  2
SOLID
 70
               1
 71
               1
 91
        1
 92
        1
 93
        1
 72
               2
 10
-768.0269340060886
 20
425.84894083007225
 40
1.9998779296875
 50
0.0
 51
360.0
 73
               0
 97
        1
330
A6
 75
               0
 76
               1
 98
        1
 10
0.0
 20
0.0
  0
MTEXT
  5
A8
100
AcDbEntity
  8
0
390
0
 62
               0
100
AcDbMText
 10
-801.90455119358865
 20
602.03643914789677
 30
0.0
 40
24.432617187500004
 41
0.0
 71
               1
 72
               1
  1
400
  7
ＭＳ ゴシック
 11
0.0
 21
1.0
 31
0.0
 73
               1
 44
0.7828267384257843
  0
POINT
  5
A9
100
AcDbEntity
  8
Defpoints
370
               0
390
0
 62
               0
100
AcDbPoint
 10
-493.02693400608837
 20
425.84894083007225
 30
0.0
  0
POINT
  5
AA
100
AcDbEntity
  8
Defpoints
370
               0
390
0
 62
               0
100
AcDbPoint
 10
-543.02693400608848
 20
825.84894083007225
 30
0.0
  0
POINT
  5
AB
100
AcDbEntity
  8
Defpoints
370
               0
390
0
 62
               0
100
AcDbPoint
 10
-768.0269340060886
 20
825.84894083007225
 30
0.0
  0
ENDBLK
  5
AC
100
AcDbEntity
  8
notes
390
0
100
AcDbBlockEnd
  0
BLOCK
  5
AD
100
AcDbEntity
  8
notes
390
0
100
AcDbBlockBegin
  2
*D9
 70
               1
 10
0.0
 20
0.0
 30
0.0
  3
*D9
  1

  0
LINE
  5
AE
100
AcDbEntity
  8
0
370
              -2
390
0
  6
Continuous
 62
               0
100
AcDbLine
 10
-368.02693400608837
 20
845.84894083007237
 30
0.0
 11
-168.02693400608825
 21
845.84894083007237
 31
0.0
  0
LINE
  5
AF
100
AcDbEntity
  8
0
370
              -2
390
0
  6
Continuous
 62
               0
100
AcDbLine
 10
-418.02693400608837
 20
425.84894083007225
 30
0.0
 11
-168.02693400608825
 21
425.84894083007225
 31
0.0
  0
LINE
  5
B0
100
AcDbEntity
  8
0
370
              -2
390
0
  6
Continuous
 62
               0
100
AcDbLine
 10
-168.02693400608825
 20
845.84894083007237
 30
0.0
 11
-168.02693400608825
 21
425.84894083007225
 31
0.0
  0
CIRCLE
  5
B1
102
{ACAD_REACTORS
330
B2
102
}
100
AcDbEntity
  8
0
370
              -2
390
0
  6
Continuous
 62
               0
100
AcDbCircle
 10
-168.02693400608825
 20
845.84894083007237
 30
0.0
 40
1.9998779296875
  0
HATCH
  5
B2
100
AcDbEntity
  8
0
370
              -2
390
0
  6
Continuous
 62
               0
100
AcDbHatch
 10
0.0
 20
0.0
 30
0.0
210
0.0
220
0.0
230
1.0
  2
SOLID
 70
               1
 71
               1
 91
        1
 92
        1
 93
        1
 72
               2
 10
-168.02693400608825
 20
845.84894083007237
 40
1.9998779296875
 50
0.0
 51
360.0
 73
               0
 97
        1
330
B1
 75
               0
 76
               1
 98
        1
 10
0.0
 20
0.0
  0
CIRCLE
  5
B3
102
{ACAD_REACTORS
330
B4
102
}
100
AcDbEntity
  8
0
370
              -2
390
0
  6
Continuous
 62
               0
100
AcDbCircle
 10
-168.02693400608825
 20
425.84894083007225
 30
0.0
 40
1.9998779296875
  0
HATCH
  5
B4
100
AcDbEntity
  8
0
370
              -2
390
0
  6
Continuous
 62
               0
100
AcDbHatch
 10
0.0
 20
0.0
 30
0.0
210
0.0
220
0.0
230
1.0
  2
SOLID
 70
               1
 71
               1
 91
        1
 92
        1
 93
        1
 72
               2
 10
-168.02693400608825
 20
425.84894083007225
 40
1.9998779296875
 50
0.0
 51
360.0
 73
               0
 97
        1
330
B3
 75
               0
 76
               1
 98
        1
 10
0.0
 20
0.0
  0
MTEXT
  5
B5
100
AcDbEntity
  8
0
390
0
 62
               0
100
AcDbMText
 10
-201.90455119358825
 20
612.03643914789689
 30
0.0
 40
24.432617187500004
 41
0.0
 71
               1
 72
               1
  1
420
  7
ＭＳ ゴシック
 11
0.0
 21
1.0
 31
0.0
 73
               1
 44
0.7828267384257843
  0
POINT
  5
B6
100
AcDbEntity
  8
Defpoints
370
               0
390
0
 62
               0
100
AcDbPoint
 10
-443.02693400608837
 20
425.84894083007225
 30
0.0
  0
POINT
  5
B7
100
AcDbEntity
  8
Defpoints
370
               0
390
0
 62
               0
100
AcDbPoint
 10
-393.02693400608837
 20
845.84894083007237
 30
0.0
  0
POINT
  5
B8
100
AcDbEntity
  8
Defpoints
370
               0
390
0
 62
               0
100
AcDbPoint
 10
-168.02693400608825
 20
845.84894083007237
 30
0.0
  0
ENDBLK
  5
B9
100
AcDbEntity
  8
notes
390
0
100
AcDbBlockEnd
  0
BLOCK
  5
BA
100
AcDbEntity
  8
notes
390
0
100
AcDbBlockBegin
  2
*D10
 70
               1
 10
0.0
 20
0.0
 30
0.0
  3
*D10
  1

  0
LINE
  5
BB
100
AcDbEntity
  8
0
370
              -2
390
0
  6
Continuous
 62
               0
100
AcDbLine
 10
-246.58161715282455
 20
-372.28953211655858
 30
0.0
 11
-168.08161715282455
 21
-372.28953211655858
 31
0.0
  0
LINE
  5
BC
100
AcDbEntity
  8
0
370
              -2
390
0
  6
Continuous
 62
               0
100
AcDbLine
 10
-246.58161715282455
 20
-527.28953211655858
 30
0.0
 11
-168.08161715282455
 21
-527.28953211655858
 31
0.0
  0
LINE
  5
BD
100
AcDbEntity
  8
0
370
              -2
390
0
  6
Continuous
 62
               0
100
AcDbLine
 10
-168.08161715282455
 20
-372.28953211655858
 30
0.0
 11
-168.08161715282455
 21
-527.28953211655858
 31
0.0
  0
CIRCLE
  5
BE
102
{ACAD_REACTORS
330
BF
102
}
100
AcDbEntity
  8
0
370
              -2
390
0
  6
Continuous
 62
               0
100
AcDbCircle
 10
-168.08161715282455
 20
-372.28953211655858
 30
0.0
 40
1.9998779296875
  0
HATCH
  5
BF
100
AcDbEntity
  8
0
370
              -2
390
0
  6
Continuous
 62
               0
100
AcDbHatch
 10
0.0
 20
0.0
 30
0.0
210
0.0
220
0.0
230
1.0
  2
SOLID
 70
               1
 71
               1
 91
        1
 92
        1
 93
        1
 72
               2
 10
-168.08161715282455
 20
-372.28953211655858
 40
1.9998779296875
 50
0.0
 51
360.0
 73
               0
 97
        1
330
BE
 75
               0
 76
               1
 98
        1
 10
0.0
 20
0.0
  0
CIRCLE
  5
C0
102
{ACAD_REACTORS
330
C1
102
}
100
AcDbEntity
  8
0
370
              -2
390
0
  6
Continuous
 62
               0
100
AcDbCircle
 10
-168.08161715282455
 20
-527.28953211655858
 30
0.0
 40
1.9998779296875
  0
HATCH
  5
C1
100
AcDbEntity
  8
0
370
              -2
390
0
  6
Continuous
 62
               0
100
AcDbHatch
 10
0.0
 20
0.0
 30
0.0
210
0.0
220
0.0
230
1.0
  2
SOLID
 70
               1
 71
               1
 91
        1
 92
        1
 93
        1
 72
               2
 10
-168.08161715282455
 20
-527.28953211655858
 40
1.9998779296875
 50
0.0
 51
360.0
 73
               0
 97
        1
330
C0
 75
               0
 76
               1
 98
        1
 10
0.0
 20
0.0
  0
MTEXT
  5
C2
100
AcDbEntity
  8
0
390
0
 62
               0
100
AcDbMText
 10
-201.95923434032454
 20
-477.56805074699855
 30
0.0
 40
24.432617187500004
 41
0.0
 71
               1
 72
               1
  1
155
  7
ＭＳ ゴシック
 11
0.0
 21
1.0
 31
0.0
 73
               1
 44
0.7828267384257843
  0
POINT
  5
C3
100
AcDbEntity
  8
Defpoints
370
               0
390
0
 62
               0
100
AcDbPoint
 10
-271.58161715282455
 20
-527.28953211655858
 30
0.0
  0
POINT
  5
C4
100
AcDbEntity
  8
Defpoints
370
               0
390
0
 62
               0
100
AcDbPoint
 10
-271.58161715282455
 20
-372.28953211655858
 30
0.0
  0
POINT
  5
C5
100
AcDbEntity
  8
Defpoints
370
               0
390
0
 62
               0
100
AcDbPoint
 10
-168.08161715282455
 20
-372.28953211655858
 30
0.0
  0
ENDBLK
  5
C6
100
AcDbEntity
  8
notes
390
0
100
AcDbBlockEnd
  0
BLOCK
  5
C7
100
AcDbEntity
  8
notes
390
0
100
AcDbBlockBegin
  2
*D11
 70
               1
 10
0.0
 20
0.0
 30
0.0
  3
*D11
  1

  0
LINE
  5
C8
100
AcDbEntity
  8
0
370
              -2
390
0
  6
Continuous
 62
               0
100
AcDbLine
 10
232.80681981544149
 20
-382.28953211655858
 30
0.0
 11
157.80681981544149
 21
-382.28953211655858
 31
0.0
  0
LINE
  5
C9
100
AcDbEntity
  8
0
370
              -2
390
0
  6
Continuous
 62
               0
100
AcDbLine
 10
232.80681981544149
 20
-517.28953211655858
 30
0.0
 11
157.80681981544149
 21
-517.28953211655858
 31
0.0
  0
LINE
  5
CA
100
AcDbEntity
  8
0
370
              -2
390
0
  6
Continuous
 62
               0
100
AcDbLine
 10
157.80681981544149
 20
-382.28953211655858
 30
0.0
 11
157.80681981544149
 21
-517.28953211655858
 31
0.0
  0
CIRCLE
  5
CB
102
{ACAD_REACTORS
330
CC
102
}
100
AcDbEntity
  8
0
370
              -2
390
0
  6
Continuous
 62
               0
100
AcDbCircle
 10
157.80681981544149
 20
-382.28953211655858
 30
0.0
 40
1.9998779296875
  0
HATCH
  5
CC
100
AcDbEntity
  8
0
370
              -2
390
0
  6
Continuous
 62
               0
100
AcDbHatch
 10
0.0
 20
0.0
 30
0.0
210
0.0
220
0.0
230
1.0
  2
SOLID
 70
               1
 71
               1
 91
        1
 92
        1
 93
        1
 72
               2
 10
157.80681981544149
 20
-382.28953211655858
 40
1.9998779296875
 50
0.0
 51
360.0
 73
               0
 97
        1
330
CB
 75
               0
 76
               1
 98
        1
 10
0.0
 20
0.0
  0
CIRCLE
  5
CD
102
{ACAD_REACTORS
330
CE
102
}
100
AcDbEntity
  8
0
370
              -2
390
0
  6
Continuous
 62
               0
100
AcDbCircle
 10
157.80681981544149
 20
-517.28953211655858
 30
0.0
 40
1.9998779296875
  0
HATCH
  5
CE
100
AcDbEntity
  8
0
370
              -2
390
0
  6
Continuous
 62
               0
100
AcDbHatch
 10
0.0
 20
0.0
 30
0.0
210
0.0
220
0.0
230
1.0
  2
SOLID
 70
               1
 71
               1
 91
        1
 92
        1
 93
        1
 72
               2
 10
157.80681981544149
 20
-517.28953211655858
 40
1.9998779296875
 50
0.0
 51
360.0
 73
               0
 97
        1
330
CD
 75
               0
 76
               1
 98
        1
 10
0.0
 20
0.0
  0
MTEXT
  5
CF
100
AcDbEntity
  8
0
390
0
 62
               0
100
AcDbMText
 10
123.92920262794148
 20
-481.03366862305495
 30
0.0
 40
24.432617187500004
 41
0.0
 71
               1
 72
               1
  1
135
  7
ＭＳ ゴシック
 11
0.0
 21
1.0
 31
0.0
 73
               1
 44
0.7828267384257843
  0
POINT
  5
D0
100
AcDbEntity
  8
Defpoints
370
               0
390
0
 62
               0
100
AcDbPoint
 10
257.80681981544149
 20
-517.28953211655858
 30
0.0
  0
POINT
  5
D1
100
AcDbEntity
  8
Defpoints
370
               0
390
0
 62
               0
100
AcDbPoint
 10
257.80681981544149
 20
-382.28953211655858
 30
0.0
  0
POINT
  5
D2
100
AcDbEntity
  8
Defpoints
370
               0
390
0
 62
               0
100
AcDbPoint
 10
157.80681981544149
 20
-382.28953211655858
 30
0.0
  0
ENDBLK
  5
D3
100
AcDbEntity
  8
notes
390
0
100
AcDbBlockEnd
  0
BLOCK
  5
D4
100
AcDbEntity
  8
notes
390
0
100
AcDbBlockBegin
  2
*D12
 70
               1
 10
0.0
 20
0.0
 30
0.0
  3
*D12
  1

  0
LINE
  5
D5
100
AcDbEntity
  8
0
370
              -2
390
0
  6
Continuous
 62
               0
100
AcDbLine
 10
232.80681981544149
 20
-517.28953211655858
 30
0.0
 11
157.80681981544149
 21
-517.28953211655858
 31
0.0
  0
LINE
  5
D6
100
AcDbEntity
  8
0
370
              -2
390
0
  6
Continuous
 62
               0
100
AcDbLine
 10
256.36150296217744
 20
-527.28953211655858
 30
0.0
 11
157.80681981544149
 21
-527.28953211655858
 31
0.0
  0
LINE
  5
D7
100
AcDbEntity
  8
0
370
              -2
390
0
  6
Continuous
 62
               0
100
AcDbLine
 10
157.80681981544149
 20
-517.28953211655858
 30
0.0
 11
157.80681981544149
 21
-527.28953211655858
 31
0.0
  0
CIRCLE
  5
D8
102
{ACAD_REACTORS
330
D9
102
}
100
AcDbEntity
  8
0
370
              -2
390
0
  6
Continuous
 62
               0
100
AcDbCircle
 10
157.80681981544149
 20
-517.28953211655858
 30
0.0
 40
1.9998779296875
  0
HATCH
  5
D9
100
AcDbEntity
  8
0
370
              -2
390
0
  6
Continuous
 62
               0
100
AcDbHatch
 10
0.0
 20
0.0
 30
0.0
210
0.0
220
0.0
230
1.0
  2
SOLID
 70
               1
 71
               1
 91
        1
 92
        1
 93
        1
 72
               2
 10
157.80681981544149
 20
-517.28953211655858
 40
1.9998779296875
 50
0.0
 51
360.0
 73
               0
 97
        1
330
D8
 75
               0
 76
               1
 98
        1
 10
0.0
 20
0.0
  0
CIRCLE
  5
DA
102
{ACAD_REACTORS
330
DB
102
}
100
AcDbEntity
  8
0
370
              -2
390
0
  6
Continuous
 62
               0
100
AcDbCircle
 10
157.80681981544149
 20
-527.28953211655858
 30
0.0
 40
1.9998779296875
  0
HATCH
  5
DB
100
AcDbEntity
  8
0
370
              -2
390
0
  6
Continuous
 62
               0
100
AcDbHatch
 10
0.0
 20
0.0
 30
0.0
210
0.0
220
0.0
230
1.0
  2
SOLID
 70
               1
 71
               1
 91
        1
 92
        1
 93
        1
 72
               2
 10
157.80681981544149
 20
-527.28953211655858
 40
1.9998779296875
 50
0.0
 51
360.0
 73
               0
 97
        1
330
DA
 75
               0
 76
               1
 98
        1
 10
0.0
 20
0.0
  0
MTEXT
  5
DC
100
AcDbEntity
  8
0
390
0
 62
               0
100
AcDbMText
 10
123.92920262794148
 20
-533.16453211655858
 30
0.0
 40
24.432617187500004
 41
0.0
 71
               1
 72
               1
  1
10
  7
ＭＳ ゴシック
 11
0.0
 21
1.0
 31
0.0
 73
               1
 44
0.7828267384257843
  0
POINT
  5
DD
100
AcDbEntity
  8
Defpoints
370
               0
390
0
 62
               0
100
AcDbPoint
 10
281.36150296217744
 20
-527.28953211655858
 30
0.0
  0
POINT
  5
DE
100
AcDbEntity
  8
Defpoints
370
               0
390
0
 62
               0
100
AcDbPoint
 10
257.80681981544149
 20
-517.28953211655858
 30
0.0
  0
POINT
  5
DF
100
AcDbEntity
  8
Defpoints
370
               0
390
0
 62
               0
100
AcDbPoint
 10
157.80681981544149
 20
-517.28953211655858
 30
0.0
  0
ENDBLK
  5
E0
100
AcDbEntity
  8
notes
390
0
100
AcDbBlockEnd
  0
BLOCK
  5
E1
100
AcDbEntity
  8
notes
390
0
100
AcDbBlockBegin
  2
*D13
 70
               1
 10
0.0
 20
0.0
 30
0.0
  3
*D13
  1

  0
LINE
  5
E2
100
AcDbEntity
  8
0
370
              -2
390
0
  6
Continuous
 62
               0
100
AcDbLine
 10
232.80681981544149
 20
-382.28953211655858
 30
0.0
 11
157.80681981544149
 21
-382.28953211655858
 31
0.0
  0
LINE
  5
E3
100
AcDbEntity
  8
0
370
              -2
390
0
  6
Continuous
 62
               0
100
AcDbLine
 10
256.36150296217744
 20
-372.28953211655858
 30
0.0
 11
157.80681981544149
 21
-372.28953211655858
 31
0.0
  0
LINE
  5
E4
100
AcDbEntity
  8
0
370
              -2
390
0
  6
Continuous
 62
               0
100
AcDbLine
 10
157.80681981544149
 20
-382.28953211655858
 30
0.0
 11
157.80681981544149
 21
-372.28953211655858
 31
0.0
  0
CIRCLE
  5
E5
102
{ACAD_REACTORS
330
E6
102
}
100
AcDbEntity
  8
0
370
              -2
390
0
  6
Continuous
 62
               0
100
AcDbCircle
 10
157.80681981544149
 20
-382.28953211655858
 30
0.0
 40
1.9998779296875
  0
HATCH
  5
E6
100
AcDbEntity
  8
0
370
              -2
390
0
  6
Continuous
 62
               0
100
AcDbHatch
 10
0.0
 20
0.0
 30
0.0
210
0.0
220
0.0
230
1.0
  2
SOLID
 70
               1
 71
               1
 91
        1
 92
        1
 93
        1
 72
               2
 10
157.80681981544149
 20
-382.28953211655858
 40
1.9998779296875
 50
0.0
 51
360.0
 73
               0
 97
        1
330
E5
 75
               0
 76
               1
 98
        1
 10
0.0
 20
0.0
  0
CIRCLE
  5
E7
102
{ACAD_REACTORS
330
E8
102
}
100
AcDbEntity
  8
0
370
              -2
390
0
  6
Continuous
 62
               0
100
AcDbCircle
 10
157.80681981544149
 20
-372.28953211655858
 30
0.0
 40
1.9998779296875
  0
HATCH
  5
E8
100
AcDbEntity
  8
0
370
              -2
390
0
  6
Continuous
 62
               0
100
AcDbHatch
 10
0.0
 20
0.0
 30
0.0
210
0.0
220
0.0
230
1.0
  2
SOLID
 70
               1
 71
               1
 91
        1
 92
        1
 93
        1
 72
               2
 10
157.80681981544149
 20
-372.28953211655858
 40
1.9998779296875
 50
0.0
 51
360.0
 73
               0
 97
        1
330
E7
 75
               0
 76
               1
 98
        1
 10
0.0
 20
0.0
  0
MTEXT
  5
E9
100
AcDbEntity
  8
0
390
0
 62
               0
100
AcDbMText
 10
123.92920262794148
 20
-393.16453211655858
 30
0.0
 40
24.432617187500004
 41
0.0
 71
               1
 72
               1
  1
10
  7
ＭＳ ゴシック
 11
0.0
 21
1.0
 31
0.0
 73
               1
 44
0.7828267384257843
  0
POINT
  5
EA
100
AcDbEntity
  8
Defpoints
370
               0
390
0
 62
               0
100
AcDbPoint
 10
281.36150296217744
 20
-372.28953211655858
 30
0.0
  0
POINT
  5
EB
100
AcDbEntity
  8
Defpoints
370
               0
390
0
 62
               0
100
AcDbPoint
 10
257.80681981544149
 20
-382.28953211655858
 30
0.0
  0
POINT
  5
EC
100
AcDbEntity
  8
Defpoints
370
               0
390
0
 62
               0
100
AcDbPoint
 10
157.80681981544149
 20
-382.28953211655858
 30
0.0
  0
ENDBLK
  5
ED
100
AcDbEntity
  8
notes
390
0
100
AcDbBlockEnd
  0
BLOCK
  5
EE
100
AcDbEntity
  8
notes
390
0
100
AcDbBlockBegin
  2
*D14
 70
               1
 10
0.0
 20
0.0
 30
0.0
  3
*D14
  1

  0
LINE
  5
EF
100
AcDbEntity
  8
0
370
              -2
390
0
  6
Continuous
 62
               0
100
AcDbLine
 10
502.80681981544126
 20
-507.27550432296175
 30
0.0
 11
477.80681981544126
 21
-507.27550432296175
 31
0.0
  0
LINE
  5
F0
100
AcDbEntity
  8
0
370
              -2
390
0
  6
Continuous
 62
               0
100
AcDbLine
 10
502.80681981544126
 20
-372.27550432296187
 30
0.0
 11
477.80681981544126
 21
-372.27550432296187
 31
0.0
  0
LINE
  5
F1
100
AcDbEntity
  8
0
370
              -2
390
0
  6
Continuous
 62
               0
100
AcDbLine
 10
477.80681981544126
 20
-372.27550432296187
 30
0.0
 11
477.80681981544126
 21
-215.40050432296184
 31
0.0
  0
LINE
  5
F2
100
AcDbEntity
  8
0
370
              -2
390
0
  6
Continuous
 62
               0
100
AcDbLine
 10
477.80681981544126
 20
-507.27550432296175
 30
0.0
 11
477.80681981544126
 21
-372.27550432296187
 31
0.0
  0
CIRCLE
  5
F3
102
{ACAD_REACTORS
330
F4
102
}
100
AcDbEntity
  8
0
370
              -2
390
0
  6
Continuous
 62
               0
100
AcDbCircle
 10
477.80681981544126
 20
-507.27550432296175
 30
0.0
 40
1.9998779296875
  0
HATCH
  5
F4
100
AcDbEntity
  8
0
370
              -2
390
0
  6
Continuous
 62
               0
100
AcDbHatch
 10
0.0
 20
0.0
 30
0.0
210
0.0
220
0.0
230
1.0
  2
SOLID
 70
               1
 71
               1
 91
        1
 92
        1
 93
        1
 72
               2
 10
477.80681981544126
 20
-507.27550432296175
 40
1.9998779296875
 50
0.0
 51
360.0
 73
               0
 97
        1
330
F3
 75
               0
 76
               1
 98
        1
 10
0.0
 20
0.0
  0
CIRCLE
  5
F5
102
{ACAD_REACTORS
330
F6
102
}
100
AcDbEntity
  8
0
370
              -2
390
0
  6
Continuous
 62
               0
100
AcDbCircle
 10
477.80681981544126
 20
-372.27550432296187
 30
0.0
 40
1.9998779296875
  0
HATCH
  5
F6
100
AcDbEntity
  8
0
370
              -2
390
0
  6
Continuous
 62
               0
100
AcDbHatch
 10
0.0
 20
0.0
 30
0.0
210
0.0
220
0.0
230
1.0
  2
SOLID
 70
               1
 71
               1
 91
        1
 92
        1
 93
        1
 72
               2
 10
477.80681981544126
 20
-372.27550432296187
 40
1.9998779296875
 50
0.0
 51
360.0
 73
               0
 97
        1
330
F5
 75
               0
 76
               1
 98
        1
 10
0.0
 20
0.0
  0
MTEXT
  5
F7
100
AcDbEntity
  8
0
390
0
 62
               0
100
AcDbMText
 10
443.92920262794127
 20
-358.27550432296187
 30
0.0
 40
24.432617187500004
 41
0.0
 71
               1
 72
               1
  1
135(深さ)
  7
ＭＳ ゴシック
 11
0.0
 21
1.0
 31
0.0
 73
               1
 44
0.7828267384257843
  0
POINT
  5
F8
100
AcDbEntity
  8
Defpoints
370
               0
390
0
 62
               0
100
AcDbPoint
 10
477.80681981544126
 20
-372.27550432296187
 30
0.0
  0
POINT
  5
F9
100
AcDbEntity
  8
Defpoints
370
               0
390
0
 62
               0
100
AcDbPoint
 10
477.80681981544126
 20
-507.27550432296175
 30
0.0
  0
POINT
  5
FA
100
AcDbEntity
  8
Defpoints
370
               0
390
0
 62
               0
100
AcDbPoint
 10
477.80681981544126
 20
-507.27550432296175
 30
0.0
  0
ENDBLK
  5
FB
100
AcDbEntity
  8
notes
390
0
100
AcDbBlockEnd
  0
BLOCK
  5
FC
100
AcDbEntity
  8
notes
390
0
100
AcDbBlockBegin
  2
*D15
 70
               1
 10
0.0
 20
0.0
 30
0.0
  3
*D15
  1

  0
LINE
  5
FD
100
AcDbEntity
  8
0
370
              -2
390
0
  6
Continuous
 62
               0
100
AcDbLine
 10
-510.53754527294672
 20
-369.78754506719099
 30
0.0
 11
-510.53754527294672
 21
-272.28953211655846
 31
0.0
  0
LINE
  5
FE
100
AcDbEntity
  8
0
370
              -2
390
0
  6
Continuous
 62
               0
100
AcDbLine
 10
-425.53754527294666
 20
-369.78754506719099
 30
0.0
 11
-425.53754527294666
 21
-272.28953211655846
 31
0.0
  0
LINE
  5
FF
100
AcDbEntity
  8
0
370
              -2
390
0
  6
Continuous
 62
               0
100
AcDbLine
 10
-510.53754527294672
 20
-272.28953211655846
 30
0.0
 11
-425.53754527294666
 21
-272.28953211655846
 31
0.0
  0
CIRCLE
  5
100
102
{ACAD_REACTORS
330
101
102
}
100
AcDbEntity
  8
0
370
              -2
390
0
  6
Continuous
 62
               0
100
AcDbCircle
 10
-510.53754527294672
 20
-272.28953211655846
 30
0.0
 40
1.9998779296875
  0
HATCH
  5
101
100
AcDbEntity
  8
0
370
              -2
390
0
  6
Continuous
 62
               0
100
AcDbHatch
 10
0.0
 20
0.0
 30
0.0
210
0.0
220
0.0
230
1.0
  2
SOLID
 70
               1
 71
               1
 91
        1
 92
        1
 93
        1
 72
               2
 10
-510.53754527294672
 20
-272.28953211655846
 40
1.9998779296875
 50
0.0
 51
360.0
 73
               0
 97
        1
330
100
 75
               0
 76
               1
 98
        1
 10
0.0
 20
0.0
  0
CIRCLE
  5
102
102
{ACAD_REACTORS
330
103
102
}
100
AcDbEntity
  8
0
370
              -2
390
0
  6
Continuous
 62
               0
100
AcDbCircle
 10
-425.53754527294666
 20
-272.28953211655846
 30
0.0
 40
1.9998779296875
  0
HATCH
  5
103
100
AcDbEntity
  8
0
370
              -2
390
0
  6
Continuous
 62
               0
100
AcDbHatch
 10
0.0
 20
0.0
 30
0.0
210
0.0
220
0.0
230
1.0
  2
SOLID
 70
               1
 71
               1
 91
        1
 92
        1
 93
        1
 72
               2
 10
-425.53754527294666
 20
-272.28953211655846
 40
1.9998779296875
 50
0.0
 51
360.0
 73
               0
 97
        1
330
102
 75
               0
 76
               1
 98
        1
 10
0.0
 20
0.0
  0
MTEXT
  5
104
100
AcDbEntity
  8
0
390
0
 62
               0
100
AcDbMText
 10
-483.91254527294666
 20
-238.41191492905847
 30
0.0
 40
24.432617187500004
 41
0.0
 71
               1
 72
               1
  1
85
  7
ＭＳ ゴシック
 73
               1
 44
0.7828267384257843
  0
POINT
  5
105
100
AcDbEntity
  8
Defpoints
370
               0
390
0
 62
               0
100
AcDbPoint
 10
-425.53754527294666
 20
-394.78754506719099
 30
0.0
  0
POINT
  5
106
100
AcDbEntity
  8
Defpoints
370
               0
390
0
 62
               0
100
AcDbPoint
 10
-510.53754527294672
 20
-394.78754506719099
 30
0.0
  0
POINT
  5
107
100
AcDbEntity
  8
Defpoints
370
               0
390
0
 62
               0
100
AcDbPoint
 10
-510.53754527294672
 20
-272.28953211655846
 30
0.0
  0
ENDBLK
  5
108
100
AcDbEntity
  8
notes
390
0
100
AcDbBlockEnd
  0
BLOCK
  5
109
100
AcDbEntity
  8
notes
390
0
100
AcDbBlockBegin
  2
*D16
 70
               1
 10
0.0
 20
0.0
 30
0.0
  3
*D16
  1

  0
LINE
  5
10A
100
AcDbEntity
  8
0
370
              -2
390
0
  6
Continuous
 62
               0
100
AcDbLine
 10
-555.53754527294677
 20
-414.78754506719099
 30
0.0
 11
-767.97225085935236
 21
-414.78754506719099
 31
0.0
  0
LINE
  5
10B
100
AcDbEntity
  8
0
370
              -2
390
0
  6
Continuous
 62
               0
100
AcDbLine
 10
-555.53754527294677
 20
-484.78754506719099
 30
0.0
 11
-767.97225085935236
 21
-484.78754506719099
 31
0.0
  0
LINE
  5
10C
100
AcDbEntity
  8
0
370
              -2
390
0
  6
Continuous
 62
               0
100
AcDbLine
 10
-767.97225085935236
 20
-414.78754506719099
 30
0.0
 11
-767.97225085935236
 21
-484.78754506719099
 31
0.0
  0
CIRCLE
  5
10D
102
{ACAD_REACTORS
330
10E
102
}
100
AcDbEntity
  8
0
370
              -2
390
0
  6
Continuous
 62
               0
100
AcDbCircle
 10
-767.97225085935236
 20
-414.78754506719099
 30
0.0
 40
1.9998779296875
  0
HATCH
  5
10E
100
AcDbEntity
  8
0
370
              -2
390
0
  6
Continuous
 62
               0
100
AcDbHatch
 10
0.0
 20
0.0
 30
0.0
210
0.0
220
0.0
230
1.0
  2
SOLID
 70
               1
 71
               1
 91
        1
 92
        1
 93
        1
 72
               2
 10
-767.97225085935236
 20
-414.78754506719099
 40
1.9998779296875
 50
0.0
 51
360.0
 73
               0
 97
        1
330
10D
 75
               0
 76
               1
 98
        1
 10
0.0
 20
0.0
  0
CIRCLE
  5
10F
102
{ACAD_REACTORS
330
110
102
}
100
AcDbEntity
  8
0
370
              -2
390
0
  6
Continuous
 62
               0
100
AcDbCircle
 10
-767.97225085935236
 20
-484.78754506719099
 30
0.0
 40
1.9998779296875
  0
HATCH
  5
110
100
AcDbEntity
  8
0
370
              -2
390
0
  6
Continuous
 62
               0
100
AcDbHatch
 10
0.0
 20
0.0
 30
0.0
210
0.0
220
0.0
230
1.0
  2
SOLID
 70
               1
 71
               1
 91
        1
 92
        1
 93
        1
 72
               2
 10
-767.97225085935236
 20
-484.78754506719099
 40
1.9998779296875
 50
0.0
 51
360.0
 73
               0
 97
        1
330
10F
 75
               0
 76
               1
 98
        1
 10
0.0
 20
0.0
  0
MTEXT
  5
111
100
AcDbEntity
  8
0
390
0
 62
               0
100
AcDbMText
 10
-801.84986804685241
 20
-465.66254506719099
 30
0.0
 40
24.432617187500004
 41
0.0
 71
               1
 72
               1
  1
70
  7
ＭＳ ゴシック
 11
0.0
 21
1.0
 31
0.0
 73
               1
 44
0.7828267384257843
  0
POINT
  5
112
100
AcDbEntity
  8
Defpoints
370
               0
390
0
 62
               0
100
AcDbPoint
 10
-530.53754527294677
 20
-484.78754506719099
 30
0.0
  0
POINT
  5
113
100
AcDbEntity
  8
Defpoints
370
               0
390
0
 62
               0
100
AcDbPoint
 10
-530.53754527294677
 20
-414.78754506719099
 30
0.0
  0
POINT
  5
114
100
AcDbEntity
  8
Defpoints
370
               0
390
0
 62
               0
100
AcDbPoint
 10
-767.97225085935236
 20
-414.78754506719099
 30
0.0
  0
ENDBLK
  5
115
100
AcDbEntity
  8
notes
390
0
100
AcDbBlockEnd
  0
BLOCK
  5
116
100
AcDbEntity
  8
notes
390
0
100
AcDbBlockBegin
  2
*D17
 70
               1
 10
0.0
 20
0.0
 30
0.0
  3
*D17
  1

  0
LINE
  5
117
100
AcDbEntity
  8
0
370
              -2
390
0
  6
Continuous
 62
               0
100
AcDbLine
 10
-568.03754527294677
 20
-382.28754506719099
 30
0.0
 11
-817.97225085935236
 21
-382.28754506719099
 31
0.0
  0
LINE
  5
118
100
AcDbEntity
  8
0
370
              -2
390
0
  6
Continuous
 62
               0
100
AcDbLine
 10
-568.03754527294677
 20
-517.28754506719099
 30
0.0
 11
-817.97225085935236
 21
-517.28754506719099
 31
0.0
  0
LINE
  5
119
100
AcDbEntity
  8
0
370
              -2
390
0
  6
Continuous
 62
               0
100
AcDbLine
 10
-817.97225085935236
 20
-382.28754506719099
 30
0.0
 11
-817.97225085935236
 21
-517.28754506719099
 31
0.0
  0
CIRCLE
  5
11A
102
{ACAD_REACTORS
330
11B
102
}
100
AcDbEntity
  8
0
370
              -2
390
0
  6
Continuous
 62
               0
100
AcDbCircle
 10
-817.97225085935236
 20
-382.28754506719099
 30
0.0
 40
1.9998779296875
  0
HATCH
  5
11B
100
AcDbEntity
  8
0
370
              -2
390
0
  6
Continuous
 62
               0
100
AcDbHatch
 10
0.0
 20
0.0
 30
0.0
210
0.0
220
0.0
230
1.0
  2
SOLID
 70
               1
 71
               1
 91
        1
 92
        1
 93
        1
 72
               2
 10
-817.97225085935236
 20
-382.28754506719099
 40
1.9998779296875
 50
0.0
 51
360.0
 73
               0
 97
        1
330
11A
 75
               0
 76
               1
 98
        1
 10
0.0
 20
0.0
  0
CIRCLE
  5
11C
102
{ACAD_REACTORS
330
11D
102
}
100
AcDbEntity
  8
0
370
              -2
390
0
  6
Continuous
 62
               0
100
AcDbCircle
 10
-817.97225085935236
 20
-517.28754506719099
 30
0.0
 40
1.9998779296875
  0
HATCH
  5
11D
100
AcDbEntity
  8
0
370
              -2
390
0
  6
Continuous
 62
               0
100
AcDbHatch
 10
0.0
 20
0.0
 30
0.0
210
0.0
220
0.0
230
1.0
  2
SOLID
 70
               1
 71
               1
 91
        1
 92
        1
 93
        1
 72
               2
 10
-817.97225085935236
 20
-517.28754506719099
 40
1.9998779296875
 50
0.0
 51
360.0
 73
               0
 97
        1
330
11C
 75
               0
 76
               1
 98
        1
 10
0.0
 20
0.0
  0
MTEXT
  5
11E
100
AcDbEntity
  8
0
390
0
 62
               0
100
AcDbMText
 10
-851.84986804685241
 20
-473.60004674936658
 30
0.0
 40
24.432617187500004
 41
0.0
 71
               1
 72
               1
  1
135
  7
ＭＳ ゴシック
 11
0.0
 21
1.0
 31
0.0
 73
               1
 44
0.7828267384257843
  0
POINT
  5
11F
100
AcDbEntity
  8
Defpoints
370
               0
390
0
 62
               0
100
AcDbPoint
 10
-543.03754527294677
 20
-517.28754506719099
 30
0.0
  0
POINT
  5
120
100
AcDbEntity
  8
Defpoints
370
               0
390
0
 62
               0
100
AcDbPoint
 10
-543.03754527294677
 20
-382.28754506719099
 30
0.0
  0
POINT
  5
121
100
AcDbEntity
  8
Defpoints
370
               0
390
0
 62
               0
100
AcDbPoint
 10
-817.97225085935236
 20
-382.28754506719099
 30
0.0
  0
ENDBLK
  5
122
100
AcDbEntity
  8
notes
390
0
100
AcDbBlockEnd
  0
BLOCK
  5
123
100
AcDbEntity
  8
notes
390
0
100
AcDbBlockBegin
  2
*D18
 70
               1
 10
0.0
 20
0.0
 30
0.0
  3
*D18
  1

  0
LINE
  5
124
100
AcDbEntity
  8
0
370
              -2
390
0
  6
Continuous
 62
               0
100
AcDbLine
 10
537.76245472705341
 20
-554.27550432296175
 30
0.0
 11
827.75213666870491
 21
-554.27550432296175
 31
0.0
  0
LINE
  5
125
100
AcDbEntity
  8
0
370
              -2
390
0
  6
Continuous
 62
               0
100
AcDbLine
 10
699.25213666870479
 20
-372.28953211655858
 30
0.0
 11
827.75213666870491
 21
-372.28953211655858
 31
0.0
  0
LINE
  5
126
100
AcDbEntity
  8
0
370
              -2
390
0
  6
Continuous
 62
               0
100
AcDbLine
 10
827.75213666870491
 20
-554.27550432296175
 30
0.0
 11
827.75213666870491
 21
-372.28953211655858
 31
0.0
  0
CIRCLE
  5
127
102
{ACAD_REACTORS
330
128
102
}
100
AcDbEntity
  8
0
370
              -2
390
0
  6
Continuous
 62
               0
100
AcDbCircle
 10
827.75213666870491
 20
-554.27550432296175
 30
0.0
 40
1.9998779296875
  0
HATCH
  5
128
100
AcDbEntity
  8
0
370
              -2
390
0
  6
Continuous
 62
               0
100
AcDbHatch
 10
0.0
 20
0.0
 30
0.0
210
0.0
220
0.0
230
1.0
  2
SOLID
 70
               1
 71
               1
 91
        1
 92
        1
 93
        1
 72
               2
 10
827.75213666870491
 20
-554.27550432296175
 40
1.9998779296875
 50
0.0
 51
360.0
 73
               0
 97
        1
330
127
 75
               0
 76
               1
 98
        1
 10
0.0
 20
0.0
  0
CIRCLE
  5
129
102
{ACAD_REACTORS
330
12A
102
}
100
AcDbEntity
  8
0
370
              -2
390
0
  6
Continuous
 62
               0
100
AcDbCircle
 10
827.75213666870491
 20
-372.28953211655858
 30
0.0
 40
1.9998779296875
  0
HATCH
  5
12A
100
AcDbEntity
  8
0
370
              -2
390
0
  6
Continuous
 62
               0
100
AcDbHatch
 10
0.0
 20
0.0
 30
0.0
210
0.0
220
0.0
230
1.0
  2
SOLID
 70
               1
 71
               1
 91
        1
 92
        1
 93
        1
 72
               2
 10
827.75213666870491
 20
-372.28953211655858
 40
1.9998779296875
 50
0.0
 51
360.0
 73
               0
 97
        1
330
129
 75
               0
 76
               1
 98
        1
 10
0.0
 20
0.0
  0
MTEXT
  5
12B
100
AcDbEntity
  8
0
390
0
 62
               0
100
AcDbMText
 10
793.87451948120486
 20
-487.09501990193576
 30
0.0
 40
24.432617187500004
 41
0.0
 71
               1
 72
               1
  1
182
  7
ＭＳ ゴシック
 11
0.0
 21
1.0
 31
0.0
 73
               1
 44
0.7828267384257843
  0
POINT
  5
12C
100
AcDbEntity
  8
Defpoints
370
               0
390
0
 62
               0
100
AcDbPoint
 10
674.25213666870479
 20
-372.28953211655858
 30
0.0
  0
POINT
  5
12D
100
AcDbEntity
  8
Defpoints
370
               0
390
0
 62
               0
100
AcDbPoint
 10
512.76245472705341
 20
-554.27550432296175
 30
0.0
  0
POINT
  5
12E
100
AcDbEntity
  8
Defpoints
370
               0
390
0
 62
               0
100
AcDbPoint
 10
827.75213666870491
 20
-554.27550432296175
 30
0.0
  0
ENDBLK
  5
12F
100
AcDbEntity
  8
notes
390
0
100
AcDbBlockEnd
  0
BLOCK
  5
130
100
AcDbEntity
  8
FAN70-0104
390
0
100
AcDbBlockBegin
  2
グループ-1
 70
               0
 10
0.0
 20
0.0
 30
0.0
  3
グループ-1
  1

  0
LINE
  5
131
100
AcDbEntity
  8
0
370
              15
390
0
  6
Continuous
 62
               7
100
AcDbLine
 10
-503.03754527294666
 20
-403.88953211655871
 30
0.0
 11
-503.03754527294666
 21
-430.87550432296189
 31
0.0
  0
LINE
  5
132
100
AcDbEntity
  8
0
370
              15
390
0
  6
Continuous
 62
               7
100
AcDbLine
 10
-503.03754527294666
 20
-430.87550432296189
 30
0.0
 11
-433.03754527294666
 21
-430.87550432296189
 31
0.0
  0
LINE
  5
133
100
AcDbEntity
  8
0
370
              15
390
0
  6
Continuous
 62
               7
100
AcDbLine
 10
-433.03754527294666
 20
-430.87550432296189
 30
0.0
 11
-433.03754527294666
 21
-403.88953211655871
 31
0.0
  0
ENDBLK
  5
134
100
AcDbEntity
  8
FAN70-0104
390
0
100
AcDbBlockEnd
  0
ENDSEC
  0
SECTION
  2
ENTITIES
  0
MTEXT
  5
135
100
AcDbEntity
  8
template
390
0
 62
               7
100
AcDbMText
 10
-967.99999999975921
 20
-1147.4176292337006
 30
0.0
 40
16.288411458333332
 41
0.0
 71
               1
 72
               1
  1
品名
  7
ＭＳ ゴシック
 73
               1
 44
0.7828267384257843
  0
MTEXT
  5
136
100
AcDbEntity
  8
template
390
0
 62
               7
100
AcDbMText
 10
-967.99999999975921
 20
-1232.4176292337004
 30
0.0
 40
16.288411458333332
 41
0.0
 71
               1
 72
               1
  1
仕様
  7
ＭＳ ゴシック
 73
               1
 44
0.7828267384257843
  0
LINE
  5
137
100
AcDbEntity
  8
template
370
               5
390
0
  6
Continuous
 62
               7
100
AcDbLine
 10
974.99999999975876
 20
-1224.0027073587005
 30
0.0
 11
-975.00000000024124
 21
-1224.0027073587005
 31
0.0
  0
LWPOLYLINE
  5
138
100
AcDbEntity
  8
template
370
               5
390
0
  6
Continuous
 62
               7
100
AcDbPolyline
 90
        5
 70
             128
 10
975.00000000024124
 20
1405.9972926412995
 10
-974.99999999975921
 20
1405.9972926412995
 10
-974.99999999975921
 20
-1394.0027073587005
 10
975.00000000024124
 20
-1394.0027073587005
 10
975.00000000024124
 20
1405.9972926412995
  0
LINE
  5
139
100
AcDbEntity
  8
template
370
               5
390
0
  6
Continuous
 62
               7
100
AcDbLine
 10
974.99999999975876
 20
-1139.0027073587005
 30
0.0
 11
-975.00000000024124
 21
-1139.0027073587005
 31
0.0
  0
LINE
  5
13A
100
AcDbEntity
  8
template
370
               5
390
0
  6
Continuous
 62
               7
100
AcDbLine
 10
975.00000000024124
 20
-1309.0027073587005
 30
0.0
 11
222.00000000024124
 21
-1309.0027073587005
 31
0.0
  0
MTEXT
  5
13B
100
AcDbEntity
  8
template
390
0
 62
               7
100
AcDbMText
 10
-974.99999999955594
 20
-1405.8565294155574
 30
0.0
 40
21.717881944444446
 41
0.0
 71
               1
 72
               1
  1
120501SH
  7
ＭＳ ゴシック
 73
               1
 44
0.7828267384257843
  0
MTEXT
  5
13C
100
AcDbEntity
  8
template
390
0
 62
               7
100
AcDbMText
 10
251.87140625250089
 20
-1338.9131018320081
 30
0.0
 40
24.432617187500004
 41
0.0
 71
               1
 72
               1
  1
大洋金物株式会社 ティーフォルム事業部
  7
ＭＳ ゴシック
 73
               1
 44
0.7828267384257843
  0
INSERT
  5
13D
100
AcDbEntity
  8
template
390
0
 62
               7
100
AcDbBlockReference
  2
グループ
 10
0.0
 20
-123.40000000000001
 30
0.0
  0
MTEXT
  5
13E
100
AcDbEntity
  8
template
390
0
 62
               7
100
AcDbMText
 10
784.00000000049999
 20
-1261.0000901712006
 30
0.0
 40
24.432617187500004
 41
0.0
 71
               1
 72
               1
  1
1:10
  7
ＭＳ ゴシック
 73
               1
 44
0.7828267384257843
  0
MTEXT
  5
13F
100
AcDbEntity
  8
template
390
0
 62
               7
100
AcDbMText
 10
731.00000000049999
 20
-1232.4176292337004
 30
0.0
 40
16.288411458333332
 41
0.0
 71
               1
 72
               1
  1
縮尺
  7
ＭＳ ゴシック
 73
               1
 44
0.7828267384257843
  0
LINE
  5
140
100
AcDbEntity
  8
template
370
               5
390
0
  6
Continuous
 62
               7
100
AcDbLine
 10
724.00000000049999
 20
-1309.0027073587005
 30
0.0
 11
724.00000000049999
 21
-1224.0027073587005
 31
0.0
  0
MTEXT
  5
141
100
AcDbEntity
  8
template
390
0
 62
               7
100
AcDbMText
 10
480.00000000049999
 20
-1232.4176292337004
 30
0.0
 40
16.288411458333332
 41
0.0
 71
               1
 72
               1
  1
容量
  7
ＭＳ ゴシック
 73
               1
 44
0.7828267384257843
  0
LINE
  5
142
100
AcDbEntity
  8
template
370
               5
390
0
  6
Continuous
 62
               7
100
AcDbLine
 10
473.00000000049999
 20
-1309.0027073587005
 30
0.0
 11
473.00000000049999
 21
-1224.0027073587005
 31
0.0
  0
MTEXT
  5
143
100
AcDbEntity
  8
template
390
0
 62
               7
100
AcDbMText
 10
229.00000000049999
 20
-1147.4176292337006
 30
0.0
 40
16.288411458333332
 41
0.0
 71
               1
 72
               1
  1
品番
  7
ＭＳ ゴシック
 73
               1
 44
0.7828267384257843
  0
MTEXT
  5
144
100
AcDbEntity
  8
template
390
0
 62
               7
100
AcDbMText
 10
229.00000000049999
 20
-1232.4176292337004
 30
0.0
 40
16.288411458333332
 41
0.0
 71
               1
 72
               1
  1
重量
  7
ＭＳ ゴシック
 73
               1
 44
0.7828267384257843
  0
MTEXT
  5
145
100
AcDbEntity
  8
template
390
0
 62
               7
100
AcDbMText
 10
282.00000000049999
 20
-1176.0000901712006
 30
0.0
 40
24.432617187500004
 41
0.0
 71
               1
 72
               1
  1
FAN70-0104
  7
ＭＳ ゴシック
 73
               1
 44
0.7828267384257843
  0
MTEXT
  5
146
100
AcDbEntity
  8
template
390
0
 62
               7
100
AcDbMText
 10
282.00000000049999
 20
-1261.0000901712006
 30
0.0
 40
24.432617187500004
 41
0.0
 71
               1
 72
               1
  1
5.5kg
  7
ＭＳ ゴシック
 73
               1
 44
0.7828267384257843
  0
LINE
  5
147
100
AcDbEntity
  8
template
370
               5
390
0
  6
Continuous
 62
               7
100
AcDbLine
 10
222.00000000049999
 20
-1394.0027073587005
 30
0.0
 11
222.00000000049999
 21
-1139.0027073587005
 31
0.0
  0
MTEXT
  5
148
100
AcDbEntity
  8
template
390
0
 62
               7
100
AcDbMText
 10
-914.99999999975921
 20
-1176.0000901712006
 30
0.0
 40
24.432617187500004
 41
0.0
 71
               1
 72
               1
  1
洗面器 -ALAPE-
  7
ＭＳ ゴシック
 73
               1
 44
0.7828267384257843
  0
MTEXT
  5
149
100
AcDbEntity
  8
template
390
0
 62
               7
100
AcDbMText
 10
-914.99999999975921
 20
-1261.0000901712006
 30
0.0
 40
24.432617187500004
 41
0.0
 71
               1
 72
               1
  1
壁掛け/オーバーフローなし/壁取付ボルト付属/\P鋼板ホーロー/ホワイト
  7
ＭＳ ゴシック
 73
               1
 44
1.1307497332816883
  0
MTEXT
  5
14A
100
AcDbEntity
  8
template
390
0
 62
               7
100
AcDbMText
 10
544.3125
 20
-1261.0000901712006
 30
0.0
 40
24.432617187500004
 41
0.0
 71
               1
 72
               1
  1
7L
  7
ＭＳ ゴシック
 73
               1
 44
0.7828267384257843
  0
MTEXT
  5
14B
100
AcDbEntity
  8
notes
390
0
 62
               7
100
AcDbMText
 10
-269.46733138737841
 20
-287.93747232196313
 30
0.0
 40
24.253472222222221
 41
0.0
 71
               1
 72
               1
  1
壁取付ボルト穴(4ヶ所)
  7
MS UI Gothic
 73
               1
 44
0.8762322015334064
  0
LINE
  5
14C
100
AcDbEntity
  8
notes
370
               5
390
0
  6
Continuous
 62
               7
100
AcDbLine
 10
-425.53754527294666
 20
-414.78754506719099
 30
0.0
 11
-237.74429551100803
 21
-328.03667357360985
 31
0.0
  0
DIMENSION
  5
14D
100
AcDbEntity
  8
notes
370
               5
390
0
  6
Continuous
 62
               7
100
AcDbDimension
  2
*D3
 10
477.76245472705341
 20
-627.28953211655858
 30
0.0
 11
367.78463727124745
 21
-627.28953211655858
 31
0.0
 71
               5
 72
               1
 41
1.0
 42
0.0
  3
tfrom線あり
100
AcDbAlignedDimension
 13
257.80681981544149
 23
-517.28953211655858
 33
0.0
 14
477.76245472705341
 24
-554.27550432296175
 34
0.0
100
AcDbRotatedDimension
1001
ACAD
1000
DSTYLE
1002
{
1070
             279
1070
               2
1070
             340
1005
36
1070
             147
1040
5.0
1002
}
  0
DIMENSION
  5
14E
100
AcDbEntity
  8
notes
370
               5
390
0
  6
Continuous
 62
               7
100
AcDbDimension
  2
*D4
 10
-643.02693400608848
 20
325.84894083007214
 30
0.0
 11
-468.02693400608837
 21
325.84894083007214
 31
0.0
 71
               5
 72
               1
 41
1.0
 42
0.0
  3
tfrom線あり
100
AcDbAlignedDimension
 13
-293.02693400608831
 23
529.02435717488686
 33
0.0
 14
-643.02693400608848
 24
529.02435717488686
 34
0.0
100
AcDbRotatedDimension
1001
ACAD
1000
DSTYLE
1002
{
1070
             271
1070
               2
1070
             279
1070
               2
1070
             340
1005
36
1070
             147
1040
5.0
1002
}
  0
DIMENSION
  5
14F
100
AcDbEntity
  8
notes
370
               5
390
0
  6
Continuous
 62
               7
100
AcDbDimension
  2
*D5
 10
-543.0269340060886
 20
945.84894083007259
 30
0.0
 11
-468.02693400608848
 21
945.84894083007259
 31
0.0
 71
               5
 72
               1
 41
1.0
 42
0.0
  3
tfrom線あり
100
AcDbAlignedDimension
 13
-393.02693400608837
 23
845.84894083007225
 33
0.0
 14
-543.0269340060886
 24
845.84894083007225
 34
0.0
100
AcDbRotatedDimension
1001
ACAD
1000
DSTYLE
1002
{
1070
             271
1070
               2
1070
             279
1070
               2
1070
             340
1005
36
1070
             147
1040
5.0
1002
}
  0
DIMENSION
  5
150
100
AcDbEntity
  8
notes
370
               5
390
0
  6
Continuous
 62
               7
100
AcDbDimension
  2
*D6
 10
-668.02693400608848
 20
275.84894083007225
 30
0.0
 11
-468.02693400608842
 21
275.84894083007225
 31
0.0
 71
               5
 72
               1
 41
1.0
 42
0.0
  3
tfrom線あり
100
AcDbAlignedDimension
 13
-268.02693400608837
 23
625.84894083007225
 33
0.0
 14
-668.02693400608848
 24
625.84894083007225
 34
0.0
100
AcDbRotatedDimension
1001
ACAD
1000
DSTYLE
1002
{
1070
             271
1070
               2
1070
             279
1070
               2
1070
             340
1005
36
1070
             147
1040
5.0
1002
}
  0
DIMENSION
  5
151
100
AcDbEntity
  8
notes
370
               5
390
0
  6
Continuous
 62
               7
100
AcDbDimension
  2
*D7
 10
-768.0269340060886
 20
845.84894083007237
 30
0.0
 11
-768.0269340060886
 21
835.84894083007237
 31
0.0
 71
               5
 72
               1
 41
1.0
 42
0.0
  3
tfrom線あり
100
AcDbAlignedDimension
 13
-543.02693400608848
 23
825.84894083007225
 33
0.0
 14
-543.0269340060886
 24
845.84894083007237
 34
0.0
 50
90.0
100
AcDbRotatedDimension
1001
ACAD
1000
DSTYLE
1002
{
1070
             279
1070
               2
1070
             340
1005
36
1070
             147
1040
5.0
1002
}
  0
DIMENSION
  5
152
100
AcDbEntity
  8
notes
370
               5
390
0
  6
Continuous
 62
               7
100
AcDbDimension
  2
*D8
 10
-768.0269340060886
 20
825.84894083007225
 30
0.0
 11
-768.0269340060886
 21
625.84894083007225
 31
0.0
 71
               5
 72
               1
 41
1.0
 42
0.0
  3
tfrom線あり
100
AcDbAlignedDimension
 13
-493.02693400608837
 23
425.84894083007225
 33
0.0
 14
-543.02693400608848
 24
825.84894083007225
 34
0.0
 50
90.0
100
AcDbRotatedDimension
1001
ACAD
1000
DSTYLE
1002
{
1070
             279
1070
               2
1070
             340
1005
36
1070
             147
1040
5.0
1002
}
  0
DIMENSION
  5
153
100
AcDbEntity
  8
notes
370
               5
390
0
  6
Continuous
 62
               7
100
AcDbDimension
  2
*D9
 10
-168.02693400608825
 20
845.84894083007237
 30
0.0
 11
-168.02693400608825
 21
635.84894083007237
 31
0.0
 71
               5
 72
               1
 41
1.0
 42
0.0
  3
tfrom線あり
100
AcDbAlignedDimension
 13
-443.02693400608837
 23
425.84894083007225
 33
0.0
 14
-393.02693400608837
 24
845.84894083007237
 34
0.0
 50
90.0
100
AcDbRotatedDimension
1001
ACAD
1000
DSTYLE
1002
{
1070
             279
1070
               2
1070
             340
1005
36
1070
             147
1040
5.0
1002
}
  0
DIMENSION
  5
154
100
AcDbEntity
  8
notes
370
               5
390
0
  6
Continuous
 62
               7
100
AcDbDimension
  2
*D10
 10
-168.08161715282455
 20
-372.28953211655858
 30
0.0
 11
-163.08161715282455
 21
-453.75554906482296
 31
0.0
 70
             128
 71
               5
 72
               1
 41
1.0
 42
0.0
  3
tfrom線あり
100
AcDbAlignedDimension
 13
-271.58161715282455
 23
-527.28953211655858
 33
0.0
 14
-271.58161715282455
 24
-372.28953211655858
 34
0.0
 50
90.0
100
AcDbRotatedDimension
1001
ACAD
1000
DSTYLE
1002
{
1070
             271
1070
               2
1070
             279
1070
               2
1070
             340
1005
36
1070
             147
1040
5.0
1002
}
  0
DIMENSION
  5
155
100
AcDbEntity
  8
notes
370
               5
390
0
  6
Continuous
 62
               7
100
AcDbDimension
  2
*D11
 10
157.80681981544149
 20
-382.28953211655858
 30
0.0
 11
152.80681981544149
 21
-457.22116694087936
 31
0.0
 70
             128
 71
               5
 72
               1
 41
1.0
 42
0.0
  3
tfrom線あり
100
AcDbAlignedDimension
 13
257.80681981544149
 23
-517.28953211655858
 33
0.0
 14
257.80681981544149
 24
-382.28953211655858
 34
0.0
 50
90.0
100
AcDbRotatedDimension
1001
ACAD
1000
DSTYLE
1002
{
1070
             271
1070
               2
1070
             279
1070
               2
1070
             340
1005
36
1070
             147
1040
5.0
1002
}
  0
DIMENSION
  5
156
100
AcDbEntity
  8
notes
370
               5
390
0
  6
Continuous
 62
               7
100
AcDbDimension
  2
*D12
 10
157.80681981544149
 20
-517.28953211655858
 30
0.0
 11
152.80681981544149
 21
-517.28953211655858
 31
0.0
 70
             128
 71
               5
 72
               1
 41
1.0
 42
0.0
  3
tfrom線あり
100
AcDbAlignedDimension
 13
281.36150296217744
 23
-527.28953211655858
 33
0.0
 14
257.80681981544149
 24
-517.28953211655858
 34
0.0
 50
90.0
100
AcDbRotatedDimension
1001
ACAD
1000
DSTYLE
1002
{
1070
             271
1070
               2
1070
             279
1070
               2
1070
             340
1005
36
1070
             147
1040
5.0
1002
}
  0
DIMENSION
  5
157
100
AcDbEntity
  8
notes
370
               5
390
0
  6
Continuous
 62
               7
100
AcDbDimension
  2
*D13
 10
157.80681981544149
 20
-382.28953211655858
 30
0.0
 11
157.80681981544149
 21
-377.28953211655858
 31
0.0
 71
               5
 72
               1
 41
1.0
 42
0.0
  3
tfrom線あり
100
AcDbAlignedDimension
 13
281.36150296217744
 23
-372.28953211655858
 33
0.0
 14
257.80681981544149
 24
-382.28953211655858
 34
0.0
 50
90.0
100
AcDbRotatedDimension
1001
ACAD
1000
DSTYLE
1002
{
1070
             279
1070
               2
1070
             340
1005
36
1070
             147
1040
5.0
1002
}
  0
DIMENSION
  5
158
100
AcDbEntity
  8
notes
370
               5
390
0
  6
Continuous
 62
               7
100
AcDbDimension
  2
*D14
 10
477.80681981544126
 20
-507.27550432296175
 30
0.0
 11
477.80681981544126
 21
-358.27550432296187
 31
0.0
 70
             128
 71
               5
 72
               1
 41
1.0
 42
0.0
  3
tfrom線あり
100
AcDbAlignedDimension
 13
477.80681981544126
 23
-372.27550432296187
 33
0.0
 14
477.80681981544126
 24
-507.27550432296175
 34
0.0
 50
90.0
100
AcDbRotatedDimension
1001
ACAD
1000
DSTYLE
1002
{
1070
             279
1070
               2
1070
             340
1005
36
1070
               3
1000
<>(深さ)
1070
             174
1070
               0
1070
             147
1040
5.0
1002
}
  0
DIMENSION
  5
159
100
AcDbEntity
  8
notes
370
               5
390
0
  6
Continuous
 62
               7
100
AcDbDimension
  2
*D15
 10
-510.53754527294672
 20
-272.28953211655846
 30
0.0
 11
-468.03754527294666
 21
-272.28953211655846
 31
0.0
 71
               5
 72
               1
 41
1.0
 42
0.0
  3
tfrom線あり
100
AcDbAlignedDimension
 13
-425.53754527294666
 23
-394.78754506719099
 33
0.0
 14
-510.53754527294672
 24
-394.78754506719099
 34
0.0
100
AcDbRotatedDimension
1001
ACAD
1000
DSTYLE
1002
{
1070
             279
1070
               2
1070
             340
1005
36
1070
             147
1040
5.0
1002
}
  0
DIMENSION
  5
15A
100
AcDbEntity
  8
notes
370
               5
390
0
  6
Continuous
 62
               7
100
AcDbDimension
  2
*D16
 10
-767.97225085935236
 20
-414.78754506719099
 30
0.0
 11
-767.97225085935236
 21
-449.78754506719099
 31
0.0
 71
               5
 72
               1
 41
1.0
 42
0.0
  3
tfrom線あり
100
AcDbAlignedDimension
 13
-530.53754527294677
 23
-484.78754506719099
 33
0.0
 14
-530.53754527294677
 24
-414.78754506719099
 34
0.0
 50
90.0
100
AcDbRotatedDimension
1001
ACAD
1000
DSTYLE
1002
{
1070
             279
1070
               2
1070
             340
1005
36
1070
             147
1040
5.0
1002
}
  0
DIMENSION
  5
15B
100
AcDbEntity
  8
notes
370
               5
390
0
  6
Continuous
 62
               7
100
AcDbDimension
  2
*D17
 10
-817.97225085935236
 20
-382.28754506719099
 30
0.0
 11
-817.97225085935236
 21
-449.78754506719099
 31
0.0
 71
               5
 72
               1
 41
1.0
 42
0.0
  3
tfrom線あり
100
AcDbAlignedDimension
 13
-543.03754527294677
 23
-517.28754506719099
 33
0.0
 14
-543.03754527294677
 24
-382.28754506719099
 34
0.0
 50
90.0
100
AcDbRotatedDimension
1001
ACAD
1000
DSTYLE
1002
{
1070
             279
1070
               2
1070
             340
1005
36
1070
             147
1040
5.0
1002
}
  0
DIMENSION
  5
15C
100
AcDbEntity
  8
notes
370
               5
390
0
  6
Continuous
 62
               7
100
AcDbDimension
  2
*D18
 10
827.75213666870491
 20
-554.27550432296175
 30
0.0
 11
827.75213666870491
 21
-463.28251821976016
 31
0.0
 71
               5
 72
               1
 41
1.0
 42
0.0
  3
tfrom線あり
100
AcDbAlignedDimension
 13
674.25213666870479
 23
-372.28953211655858
 33
0.0
 14
512.76245472705341
 24
-554.27550432296175
 34
0.0
 50
90.0
100
AcDbRotatedDimension
1001
ACAD
1000
DSTYLE
1002
{
1070
             279
1070
               2
1070
             340
1005
36
1070
             147
1040
5.0
1002
}
  0
LINE
  5
15D
100
AcDbEntity
  8
FAN70-0104
370
              15
390
0
  6
Continuous
 62
               7
100
AcDbLine
 10
-667.97225085935236
 20
-375.78953211655863
 30
0.0
 11
-667.97225085935236
 21
-523.78953211655858
 31
0.0
  0
LINE
  5
15E
100
AcDbEntity
  8
FAN70-0104
370
              15
390
0
  6
Continuous
 62
               7
100
AcDbLine
 10
-268.08161715282455
 20
-523.78953211655858
 30
0.0
 11
-268.08161715282455
 21
-375.78953211655863
 31
0.0
  0
ARC
  5
15F
100
AcDbEntity
  8
FAN70-0104
370
              15
390
0
  6
Continuous
 62
               7
100
AcDbCircle
 10
-664.47225085935236
 20
-523.78953211655858
 30
0.0
 40
3.5
100
AcDbArc
 50
180.0
 51
270.00000000000182
  0
ARC
  5
160
100
AcDbEntity
  8
FAN70-0104
370
              15
390
0
  6
Continuous
 62
               7
100
AcDbCircle
 10
-271.58161715282455
 20
-523.78953211655858
 30
0.0
 40
3.5
100
AcDbArc
 50
270.00000000000091
 51
0.0
  0
ARC
  5
161
100
AcDbEntity
  8
FAN70-0104
370
              15
390
0
  6
Continuous
 62
               7
100
AcDbCircle
 10
-271.58161715282455
 20
-375.78953211655863
 30
0.0
 40
3.5000000000001137
100
AcDbArc
 50
0.0
 51
90.0
  0
ARC
  5
162
100
AcDbEntity
  8
FAN70-0104
370
              15
390
0
  6
Continuous
 62
               7
100
AcDbCircle
 10
-664.47225085935236
 20
-375.78953211655863
 30
0.0
 40
3.5000000000000853
100
AcDbArc
 50
90.0
 51
180.0
  0
LINE
  5
163
100
AcDbEntity
  8
FAN70-0104
370
              15
390
0
  6
Continuous
 62
               7
100
AcDbLine
 10
-468.02693400608837
 20
-527.28953211655858
 30
0.0
 11
-664.47225085935167
 21
-527.28953211655858
 31
0.0
  0
LINE
  5
164
100
AcDbEntity
  8
FAN70-0104
370
              15
390
0
  6
Continuous
 62
               7
100
AcDbLine
 10
-271.58161715282608
 20
-527.28953211655858
 30
0.0
 11
-468.02693400608837
 21
-527.28953211655858
 31
0.0
  0
LINE
  5
165
100
AcDbEntity
  8
FAN70-0104
370
              15
390
0
  6
Continuous
 62
               7
100
AcDbLine
 10
-664.47225085935167
 20
-372.28953211655858
 30
0.0
 11
-271.58161715282608
 21
-372.28953211655858
 31
0.0
  0
CIRCLE
  5
166
100
AcDbEntity
  8
FAN70-0104
370
              15
390
0
  6
Continuous
 62
               7
100
AcDbCircle
 10
-468.02693400608837
 20
625.84894083007225
 30
0.0
 40
175.0
  0
CIRCLE
  5
167
100
AcDbEntity
  8
FAN70-0104
370
              15
390
0
  6
Continuous
 62
               7
100
AcDbCircle
 10
-468.02693400608837
 20
625.84894083007225
 30
0.0
 40
200.0
  0
LINE
  5
168
100
AcDbEntity
  8
FAN70-0104
370
              15
390
0
  6
Continuous
 62
               7
100
AcDbLine
 10
-396.94693400608833
 20
845.84894083007225
 30
0.0
 11
-539.10693400608852
 21
845.84894083007225
 31
0.0
  0
LINE
  5
169
100
AcDbEntity
  8
FAN70-0104
370
              15
390
0
  6
Continuous
 62
               7
100
AcDbLine
 10
-393.02693400608837
 20
845.84894083007237
 30
0.0
 11
-396.94693400608833
 21
845.84894083007225
 31
0.0
  0
LINE
  5
16A
100
AcDbEntity
  8
FAN70-0104
370
              15
390
0
  6
Continuous
 62
               7
100
AcDbLine
 10
-393.02693400608837
 20
811.19491389545101
 30
0.0
 11
-393.02693400608837
 21
845.84894083007237
 31
0.0
  0
LINE
  5
16B
100
AcDbEntity
  8
FAN70-0104
370
              15
390
0
  6
Continuous
 62
               7
100
AcDbLine
 10
-539.10693400608852
 20
845.84894083007225
 30
0.0
 11
-543.0269340060886
 21
845.84894083007237
 31
0.0
  0
LINE
  5
16C
100
AcDbEntity
  8
FAN70-0104
370
              15
390
0
  6
Continuous
 62
               7
100
AcDbLine
 10
-543.02693400608848
 20
811.19491389545101
 30
0.0
 11
-543.0269340060886
 21
845.84894083007237
 31
0.0
  0
CIRCLE
  5
16D
100
AcDbEntity
  8
FAN70-0104
370
              15
390
0
  6
Continuous
 62
               7
100
AcDbCircle
 10
-468.02693400608837
 20
625.84894083007271
 30
0.0
 40
21.000000000000057
  0
CIRCLE
  5
16E
100
AcDbEntity
  8
FAN70-0104
370
              15
390
0
  6
Continuous
 62
               7
100
AcDbCircle
 10
-468.02693400608837
 20
625.84894083007271
 30
0.0
 40
30.000000000000057
  0
LINE
  5
16F
100
AcDbEntity
  8
FAN70-0104
370
              15
390
0
  6
Continuous
 62
               7
100
AcDbLine
 10
363.03290116754823
 20
-372.28953211655869
 30
0.0
 11
262.16489466023751
 21
-372.28953211655869
 31
0.0
  0
LINE
  5
170
100
AcDbEntity
  8
FAN70-0104
370
              15
390
0
  6
Continuous
 62
               7
100
AcDbLine
 10
277.86150296217755
 20
-519.28953211655858
 30
0.0
 11
277.86150296217755
 21
-523.78953211655858
 31
0.0
  0
LINE
  5
171
100
AcDbEntity
  8
FAN70-0104
370
              15
390
0
  6
Continuous
 62
               7
100
AcDbLine
 10
277.86150296217755
 20
-375.78953211655863
 30
0.0
 11
277.86150296217755
 21
-380.28953211655858
 31
0.0
  0
LINE
  5
172
100
AcDbEntity
  8
FAN70-0104
370
              15
390
0
  6
Continuous
 62
               7
100
AcDbLine
 10
677.75213666870479
 20
-523.78953211655858
 30
0.0
 11
677.75213666870479
 21
-375.78953211655863
 31
0.0
  0
ARC
  5
173
100
AcDbEntity
  8
FAN70-0104
370
              15
390
0
  6
Continuous
 62
               7
100
AcDbCircle
 10
674.25213666870479
 20
-375.78953211655863
 30
0.0
 40
3.5000000000002274
100
AcDbArc
 50
0.0
 51
90.0
  0
ARC
  5
174
100
AcDbEntity
  8
FAN70-0104
370
              15
390
0
  6
Continuous
 62
               7
100
AcDbCircle
 10
281.36150296217744
 20
-375.78953211655863
 30
0.0
 40
3.5000000000000853
100
AcDbArc
 50
90.0
 51
180.0
  0
ARC
  5
175
100
AcDbEntity
  8
FAN70-0104
370
              15
390
0
  6
Continuous
 62
               7
100
AcDbCircle
 10
281.36150296217744
 20
-523.78953211655858
 30
0.0
 40
3.5
100
AcDbArc
 50
180.0
 51
270.0
  0
ARC
  5
176
100
AcDbEntity
  8
FAN70-0104
370
              15
390
0
  6
Continuous
 62
               7
100
AcDbCircle
 10
674.25213666870479
 20
-523.78953211655858
 30
0.0
 40
3.5
100
AcDbArc
 50
270.0
 51
0.0
  0
POLYLINE
  5
177
100
AcDbEntity
  8
FAN70-0104
370
              15
390
0
  6
Continuous
 62
               7
100
AcDb2dPolyline
 66
               1
 10
0.0
 20
0.0
 30
0.0
 75
               5
  0
VERTEX
  5
178
100
AcDbEntity
  8
FAN70-0104
370
              15
390
0
  6
Continuous
 62
               7
100
AcDbVertex
100
AcDb2dVertex
 10
290.89205386167299
 20
-380.28953211655858
 30
0.0
  0
VERTEX
  5
179
100
AcDbEntity
  8
FAN70-0104
370
              15
390
0
  6
Continuous
 62
               7
100
AcDbVertex
100
AcDb2dVertex
 10
291.7054810132359
 20
-380.67111066757798
 30
0.0
  0
VERTEX
  5
17A
100
AcDbEntity
  8
FAN70-0104
370
              15
390
0
  6
Continuous
 62
               7
100
AcDbVertex
100
AcDb2dVertex
 10
292.44664033565829
 20
-381.78623249591215
 30
0.0
  0
VERTEX
  5
17B
100
AcDbEntity
  8
FAN70-0104
370
              15
390
0
  6
Continuous
 62
               7
100
AcDbVertex
100
AcDb2dVertex
 10
292.99182970997646
 20
-383.47532138210431
 30
0.0
  0
VERTEX
  5
17C
100
AcDbEntity
  8
FAN70-0104
370
              15
390
0
  6
Continuous
 62
               7
100
AcDbVertex
100
AcDb2dVertex
 10
293.25614138105419
 20
-385.41678490659172
 30
0.0
  0
VERTEX
  5
17D
100
AcDbEntity
  8
FAN70-0104
370
              15
390
0
  6
Continuous
 62
               7
100
AcDbVertex
100
AcDb2dVertex
 10
293.28275707144036
 20
-386.28953211655858
 30
0.0
  0
SEQEND
  5
17E
100
AcDbEntity
  8
FAN70-0104
370
              15
390
0
  6
Continuous
 62
               7
  0
LINE
  5
17F
100
AcDbEntity
  8
FAN70-0104
370
              15
390
0
  6
Continuous
 62
               7
100
AcDbLine
 10
277.86150296217755
 20
-380.28953211655858
 30
0.0
 11
290.89205386167299
 21
-380.28953211655858
 31
0.0
  0
LINE
  5
180
100
AcDbEntity
  8
FAN70-0104
370
              15
390
0
  6
Continuous
 62
               7
100
AcDbLine
 10
290.89205386167299
 20
-519.28953211655858
 30
0.0
 11
277.86150296217755
 21
-519.28953211655858
 31
0.0
  0
POLYLINE
  5
181
100
AcDbEntity
  8
FAN70-0104
370
              15
390
0
  6
Continuous
 62
               7
100
AcDb2dPolyline
 66
               1
 10
0.0
 20
0.0
 30
0.0
 75
               5
  0
VERTEX
  5
182
100
AcDbEntity
  8
FAN70-0104
370
              15
390
0
  6
Continuous
 62
               7
100
AcDbVertex
100
AcDb2dVertex
 10
293.28275707144036
 20
-513.28953211655858
 30
0.0
  0
VERTEX
  5
183
100
AcDbEntity
  8
FAN70-0104
370
              15
390
0
  6
Continuous
 62
               7
100
AcDbVertex
100
AcDb2dVertex
 10
293.15768498512404
 20
-515.16428575186842
 30
0.0
  0
VERTEX
  5
184
100
AcDbEntity
  8
FAN70-0104
370
              15
390
0
  6
Continuous
 62
               7
100
AcDbVertex
100
AcDb2dVertex
 10
292.80586481546271
 20
-516.82591694627774
 30
0.0
  0
VERTEX
  5
185
100
AcDbEntity
  8
FAN70-0104
370
              15
390
0
  6
Continuous
 62
               7
100
AcDbVertex
100
AcDb2dVertex
 10
292.26247809238299
 20
-518.1572467641538
 30
0.0
  0
VERTEX
  5
186
100
AcDbEntity
  8
FAN70-0104
370
              15
390
0
  6
Continuous
 62
               7
100
AcDbVertex
100
AcDb2dVertex
 10
291.55692312356445
 20
-519.03584414152317
 30
0.0
  0
VERTEX
  5
187
100
AcDbEntity
  8
FAN70-0104
370
              15
390
0
  6
Continuous
 62
               7
100
AcDbVertex
100
AcDb2dVertex
 10
290.89205386167299
 20
-519.28953211655858
 30
0.0
  0
SEQEND
  5
188
100
AcDbEntity
  8
FAN70-0104
370
              15
390
0
  6
Continuous
 62
               7
  0
LINE
  5
189
100
AcDbEntity
  8
FAN70-0104
370
              15
390
0
  6
Continuous
 62
               7
100
AcDbLine
 10
293.28275707144036
 20
-386.28953211655858
 30
0.0
 11
293.28275707144036
 21
-513.28953211655858
 31
0.0
  0
LINE
  5
18A
100
AcDbEntity
  8
FAN70-0104
370
              15
390
0
  6
Continuous
 62
               7
100
AcDbLine
 10
281.36150296217744
 20
-372.28953211655858
 30
0.0
 11
674.25213666870479
 21
-372.28953211655858
 31
0.0
  0
LINE
  5
18B
100
AcDbEntity
  8
FAN70-0104
370
              15
390
0
  6
Continuous
 62
               7
100
AcDbLine
 10
674.25213666870479
 20
-527.28953211655858
 30
0.0
 11
281.36150296217744
 21
-527.28953211655858
 31
0.0
  0
LINE
  5
18C
100
AcDbEntity
  8
FAN70-0104
370
              15
390
0
  6
Continuous
 62
               7
100
AcDbLine
 10
257.80681981544149
 20
-386.20953211655853
 30
0.0
 11
257.80681981544149
 21
-513.36953211655862
 31
0.0
  0
LINE
  5
18D
100
AcDbEntity
  8
FAN70-0104
370
              15
390
0
  6
Continuous
 62
               7
100
AcDbLine
 10
257.80681981544149
 20
-382.28953211655858
 30
0.0
 11
257.80681981544149
 21
-386.20953211655853
 31
0.0
  0
LINE
  5
18E
100
AcDbEntity
  8
FAN70-0104
370
              15
390
0
  6
Continuous
 62
               7
100
AcDbLine
 10
292.60909099619954
 20
-382.28953211655858
 30
0.0
 11
257.80681981544149
 21
-382.28953211655858
 31
0.0
  0
LINE
  5
18F
100
AcDbEntity
  8
FAN70-0104
370
              15
390
0
  6
Continuous
 62
               7
100
AcDbLine
 10
292.61663873131266
 20
-517.28953211655858
 30
0.0
 11
257.80681981544149
 21
-517.28953211655858
 31
0.0
  0
LINE
  5
190
100
AcDbEntity
  8
FAN70-0104
370
              15
390
0
  6
Continuous
 62
               7
100
AcDbLine
 10
257.80681981544149
 20
-513.36953211655862
 30
0.0
 11
257.80681981544149
 21
-517.28953211655858
 31
0.0
  0
LINE
  5
191
100
AcDbEntity
  8
FAN70-0104
370
              15
390
0
  6
Continuous
 62
               7
100
AcDbLine
 10
292.46075830338992
 20
-382.28953211655858
 30
0.0
 11
281.36150296217755
 21
-382.28953211655858
 31
0.0
  0
ARC
  5
192
100
AcDbEntity
  8
FAN70-0104
370
              15
390
0
  6
STYLE_12
 62
               7
100
AcDbCircle
 10
-462.99839463565922
 20
-318.95880752878031
 30
0.0
 40
189.25000000000009
100
AcDbArc
 50
197.25747118319964
 51
256.23753565709006
  0
LINE
  5
193
100
AcDbEntity
  8
FAN70-0104
370
              15
390
0
  6
STYLE_12
 62
               7
100
AcDbLine
 10
-508.02043901034239
 20
-502.77550432296175
 30
0.0
 11
-468.02693400608837
 21
-502.77550432296175
 31
0.0
  0
LINE
  5
194
100
AcDbEntity
  8
FAN70-0104
370
              15
390
0
  6
STYLE_12
 62
               7
100
AcDbLine
 10
-489.52693400608837
 20
-512.77550432296175
 30
0.0
 11
-468.02693400608837
 21
-512.77550432296175
 31
0.0
  0
ARC
  5
195
100
AcDbEntity
  8
FAN70-0104
370
              15
390
0
  6
STYLE_12
 62
               7
100
AcDbCircle
 10
-647.54852473108974
 20
-376.28953211655841
 30
0.0
 40
3.999999999999893
100
AcDbArc
 50
17.257471183197833
 51
90.0
  0
LINE
  5
196
100
AcDbEntity
  8
FAN70-0104
370
              15
390
0
  6
STYLE_12
 62
               7
100
AcDbLine
 10
-489.52693400608837
 20
-512.77550432296175
 30
0.0
 11
-489.52693400608837
 21
-527.28953211655858
 31
0.0
  0
LINE
  5
197
100
AcDbEntity
  8
FAN70-0104
370
              15
390
0
  6
STYLE_12
 62
               7
100
AcDbLine
 10
-489.52693400608837
 20
-512.77550432296175
 30
0.0
 11
-508.02043901034239
 21
-502.77550432296175
 31
0.0
  0
ARC
  5
198
100
AcDbEntity
  8
FAN70-0104
370
              15
390
0
  6
STYLE_12
 62
               7
100
AcDbCircle
 10
-473.05547337651751
 20
-318.95880752878031
 30
0.0
 40
189.24999999999997
100
AcDbArc
 50
283.76246434290994
 51
342.74252881680036
  0
LINE
  5
199
100
AcDbEntity
  8
FAN70-0104
370
              15
390
0
  6
STYLE_12
 62
               7
100
AcDbLine
 10
-428.03342900183446
 20
-502.77550432296175
 30
0.0
 11
-468.02693400608837
 21
-502.77550432296175
 31
0.0
  0
LINE
  5
19A
100
AcDbEntity
  8
FAN70-0104
370
              15
390
0
  6
STYLE_12
 62
               7
100
AcDbLine
 10
-446.52693400608837
 20
-512.77550432296175
 30
0.0
 11
-468.02693400608837
 21
-512.77550432296175
 31
0.0
  0
ARC
  5
19B
100
AcDbEntity
  8
FAN70-0104
370
              15
390
0
  6
STYLE_12
 62
               7
100
AcDbCircle
 10
-288.50534328108711
 20
-376.28953211655841
 30
0.0
 40
3.9999999999998579
100
AcDbArc
 50
90.0
 51
162.74252881680218
  0
LINE
  5
19C
100
AcDbEntity
  8
FAN70-0104
370
              15
390
0
  6
STYLE_12
 62
               7
100
AcDbLine
 10
-446.52693400608837
 20
-512.77550432296175
 30
0.0
 11
-446.52693400608837
 21
-527.28953211655858
 31
0.0
  0
LINE
  5
19D
100
AcDbEntity
  8
FAN70-0104
370
              15
390
0
  6
STYLE_12
 62
               7
100
AcDbLine
 10
-446.52693400608837
 20
-512.77550432296175
 30
0.0
 11
-428.03342900183446
 21
-502.77550432296175
 31
0.0
  0
ARC
  5
19E
100
AcDbEntity
  8
FAN70-0104
370
              15
390
0
  6
STYLE_12
 62
               7
100
AcDbCircle
 10
482.8353591858704
 20
-318.95880752878031
 30
0.0
 40
189.24999999999994
100
AcDbArc
 50
197.25747118319964
 51
256.23753565709006
  0
LINE
  5
19F
100
AcDbEntity
  8
FAN70-0104
370
              15
390
0
  6
STYLE_12
 62
               7
100
AcDbLine
 10
437.81331481118741
 20
-502.77550432296175
 30
0.0
 11
477.80681981544126
 21
-502.77550432296175
 31
0.0
  0
LINE
  5
1A0
100
AcDbEntity
  8
FAN70-0104
370
              15
390
0
  6
STYLE_12
 62
               7
100
AcDbLine
 10
456.30681981544132
 20
-512.77550432296175
 30
0.0
 11
477.80681981544126
 21
-512.77550432296175
 31
0.0
  0
ARC
  5
1A1
100
AcDbEntity
  8
FAN70-0104
370
              15
390
0
  6
STYLE_12
 62
               7
100
AcDbCircle
 10
298.28522909044005
 20
-376.28953211655841
 30
0.0
 40
3.999999999999893
100
AcDbArc
 50
17.257471183197833
 51
90.0
  0
LINE
  5
1A2
100
AcDbEntity
  8
FAN70-0104
370
              15
390
0
  6
STYLE_12
 62
               7
100
AcDbLine
 10
456.30681981544132
 20
-512.77550432296175
 30
0.0
 11
456.30681981544132
 21
-527.28953211655858
 31
0.0
  0
LINE
  5
1A3
100
AcDbEntity
  8
FAN70-0104
370
              15
390
0
  6
STYLE_12
 62
               7
100
AcDbLine
 10
456.30681981544132
 20
-512.77550432296175
 30
0.0
 11
437.81331481118741
 21
-502.77550432296175
 31
0.0
  0
ARC
  5
1A4
100
AcDbEntity
  8
FAN70-0104
370
              15
390
0
  6
STYLE_12
 62
               7
100
AcDbCircle
 10
472.77828044501211
 20
-318.95880752878031
 30
0.0
 40
189.24999999999991
100
AcDbArc
 50
283.76246434290988
 51
342.7425288168003
  0
LINE
  5
1A5
100
AcDbEntity
  8
FAN70-0104
370
              15
390
0
  6
STYLE_12
 62
               7
100
AcDbLine
 10
517.80032481969499
 20
-502.77550432296175
 30
0.0
 11
477.80681981544126
 21
-502.77550432296175
 31
0.0
  0
LINE
  5
1A6
100
AcDbEntity
  8
FAN70-0104
370
              15
390
0
  6
STYLE_12
 62
               7
100
AcDbLine
 10
499.30681981544126
 20
-512.77550432296175
 30
0.0
 11
477.80681981544126
 21
-512.77550432296175
 31
0.0
  0
ARC
  5
1A7
100
AcDbEntity
  8
FAN70-0104
370
              15
390
0
  6
STYLE_12
 62
               7
100
AcDbCircle
 10
657.32841054044241
 20
-376.28953211655841
 30
0.0
 40
3.9999999999998579
100
AcDbArc
 50
90.0
 51
162.74252881680218
  0
LINE
  5
1A8
100
AcDbEntity
  8
FAN70-0104
370
              15
390
0
  6
STYLE_12
 62
               7
100
AcDbLine
 10
499.30681981544126
 20
-512.77550432296175
 30
0.0
 11
499.30681981544126
 21
-527.28953211655858
 31
0.0
  0
LINE
  5
1A9
100
AcDbEntity
  8
FAN70-0104
370
              15
390
0
  6
STYLE_12
 62
               7
100
AcDbLine
 10
499.30681981544126
 20
-512.77550432296175
 30
0.0
 11
517.80032481969499
 21
-502.77550432296175
 31
0.0
  0
POLYLINE
  5
1AA
100
AcDbEntity
  8
FAN70-0104
370
              15
390
0
  6
STYLE_12
 62
               7
100
AcDb2dPolyline
 66
               1
 10
0.0
 20
0.0
 30
0.0
 70
               1
 75
               5
  0
VERTEX
  5
1AB
100
AcDbEntity
  8
FAN70-0104
370
              15
390
0
  6
STYLE_12
 62
               7
100
AcDbVertex
100
AcDb2dVertex
 10
-543.03754527294677
 20
-382.28754506719099
 30
0.0
  0
VERTEX
  5
1AC
100
AcDbEntity
  8
FAN70-0104
370
              15
390
0
  6
STYLE_12
 62
               7
100
AcDbVertex
100
AcDb2dVertex
 10
-393.03754527294666
 20
-382.28754506719099
 30
0.0
  0
VERTEX
  5
1AD
100
AcDbEntity
  8
FAN70-0104
370
              15
390
0
  6
STYLE_12
 62
               7
100
AcDbVertex
100
AcDb2dVertex
 10
-393.03754527294666
 20
-517.28754506719099
 30
0.0
  0
VERTEX
  5
1AE
100
AcDbEntity
  8
FAN70-0104
370
              15
390
0
  6
STYLE_12
 62
               7
100
AcDbVertex
100
AcDb2dVertex
 10
-543.03754527294677
 20
-517.28754506719099
 30
0.0
  0
SEQEND
  5
1AF
100
AcDbEntity
  8
FAN70-0104
370
              15
390
0
  6
STYLE_12
 62
               7
  0
CIRCLE
  5
1B0
100
AcDbEntity
  8
FAN70-0104
370
              15
390
0
  6
STYLE_12
 62
               7
100
AcDbCircle
 10
-510.53754527294672
 20
-414.78754506719099
 30
0.0
 40
10.000000000000057
  0
LINE
  5
1B1
100
AcDbEntity
  8
FAN70-0104
370
              15
390
0
  6
STYLE_12
 62
               7
100
AcDbLine
 10
-530.53754527294677
 20
-414.78754506719099
 30
0.0
 11
-490.53754527294666
 21
-414.78754506719099
 31
0.0
  0
LINE
  5
1B2
100
AcDbEntity
  8
FAN70-0104
370
              15
390
0
  6
STYLE_12
 62
               7
100
AcDbLine
 10
-510.53754527294672
 20
-434.78754506719099
 30
0.0
 11
-510.53754527294672
 21
-394.78754506719099
 31
0.0
  0
CIRCLE
  5
1B3
100
AcDbEntity
  8
FAN70-0104
370
              15
390
0
  6
STYLE_12
 62
               7
100
AcDbCircle
 10
-425.53754527294666
 20
-414.78754506719099
 30
0.0
 40
10.0
  0
LINE
  5
1B4
100
AcDbEntity
  8
FAN70-0104
370
              15
390
0
  6
STYLE_12
 62
               7
100
AcDbLine
 10
-445.53754527294666
 20
-414.78754506719099
 30
0.0
 11
-405.53754527294666
 21
-414.78754506719099
 31
0.0
  0
LINE
  5
1B5
100
AcDbEntity
  8
FAN70-0104
370
              15
390
0
  6
STYLE_12
 62
               7
100
AcDbLine
 10
-425.53754527294666
 20
-434.78754506719099
 30
0.0
 11
-425.53754527294666
 21
-394.78754506719099
 31
0.0
  0
CIRCLE
  5
1B6
100
AcDbEntity
  8
FAN70-0104
370
              15
390
0
  6
STYLE_12
 62
               7
100
AcDbCircle
 10
-510.53754527294672
 20
-484.78754506719099
 30
0.0
 40
10.000000000000057
  0
LINE
  5
1B7
100
AcDbEntity
  8
FAN70-0104
370
              15
390
0
  6
STYLE_12
 62
               7
100
AcDbLine
 10
-530.53754527294677
 20
-484.78754506719099
 30
0.0
 11
-490.53754527294666
 21
-484.78754506719099
 31
0.0
  0
LINE
  5
1B8
100
AcDbEntity
  8
FAN70-0104
370
              15
390
0
  6
STYLE_12
 62
               7
100
AcDbLine
 10
-510.53754527294672
 20
-504.78754506719099
 30
0.0
 11
-510.53754527294672
 21
-464.78754506719099
 31
0.0
  0
CIRCLE
  5
1B9
100
AcDbEntity
  8
FAN70-0104
370
              15
390
0
  6
STYLE_12
 62
               7
100
AcDbCircle
 10
-425.53754527294666
 20
-484.78754506719099
 30
0.0
 40
10.0
  0
LINE
  5
1BA
100
AcDbEntity
  8
FAN70-0104
370
              15
390
0
  6
STYLE_12
 62
               7
100
AcDbLine
 10
-445.53754527294666
 20
-484.78754506719099
 30
0.0
 11
-405.53754527294666
 21
-484.78754506719099
 31
0.0
  0
LINE
  5
1BB
100
AcDbEntity
  8
FAN70-0104
370
              15
390
0
  6
STYLE_12
 62
               7
100
AcDbLine
 10
-425.53754527294666
 20
-504.78754506719099
 30
0.0
 11
-425.53754527294666
 21
-464.78754506719099
 31
0.0
  0
LINE
  5
1BC
100
AcDbEntity
  8
FAN70-0104
370
              15
390
0
  6
Continuous
 62
               7
100
AcDbLine
 10
442.76245472705341
 20
-527.28953211655858
 30
0.0
 11
442.76245472705341
 21
-554.27550432296175
 31
0.0
  0
LINE
  5
1BD
100
AcDbEntity
  8
FAN70-0104
370
              15
390
0
  6
Continuous
 62
               7
100
AcDbLine
 10
442.76245472705341
 20
-554.27550432296175
 30
0.0
 11
512.76245472705341
 21
-554.27550432296175
 31
0.0
  0
LINE
  5
1BE
100
AcDbEntity
  8
FAN70-0104
370
              15
390
0
  6
Continuous
 62
               7
100
AcDbLine
 10
512.76245472705341
 20
-554.27550432296175
 30
0.0
 11
512.76245472705341
 21
-527.28953211655858
 31
0.0
  0
INSERT
  5
1BF
100
AcDbEntity
  8
FAN70-0104
390
0
 62
               7
100
AcDbBlockReference
  2
グループ-1
 10
0.0
 20
-123.40000000000001
 30
0.0
  0
LINE
  5
1C0
100
AcDbEntity
  8
FAN70-0104
370
               5
390
0
  6
STYLE_12
 62
               7
100
AcDbLine
 10
442.76245472705341
 20
-527.28953211655858
 30
0.0
 11
442.76245472705341
 21
-505.45165463342346
 31
0.0
  0
LINE
  5
1C1
100
AcDbEntity
  8
FAN70-0104
370
               5
390
0
  6
STYLE_12
 62
               7
100
AcDbLine
 10
512.76245472705341
 20
-527.28953211655858
 30
0.0
 11
512.76245472705341
 21
-507.77550432296175
 31
0.0
  0
LINE
  5
1C2
100
AcDbEntity
  8
FAN70-0104
370
               5
390
0
  6
STYLE_12
 62
               7
100
AcDbLine
 10
512.56245472705336
 20
-507.28953211655846
 30
0.0
 11
442.76245472705341
 21
-507.28953211655846
 31
0.0
  0
LINE
  5
1C3
100
AcDbEntity
  8
FAN70-0104
370
               5
390
0
  6
STYLE_12
 62
               7
100
AcDbLine
 10
-503.03754527294666
 20
-527.28953211655869
 30
0.0
 11
-503.03754527294666
 21
-505.46990635018665
 31
0.0
  0
LINE
  5
1C4
100
AcDbEntity
  8
FAN70-0104
370
               5
390
0
  6
STYLE_12
 62
               7
100
AcDbLine
 10
-503.03754527294666
 20
-505.46990635018665
 30
0.0
 11
-433.01632273923002
 21
-505.46990635018665
 31
0.0
  0
LINE
  5
1C5
100
AcDbEntity
  8
FAN70-0104
370
               5
390
0
  6
STYLE_12
 62
               7
100
AcDbLine
 10
-433.03754527294666
 20
-505.46990635018665
 30
0.0
 11
-433.03754527294666
 21
-527.28953211655869
 31
0.0
  0
ENDSEC
  0
SECTION
  2
OBJECTS
  0
DICTIONARY
  5
19
100
AcDbDictionary
280
               0
281
               1
  3
ACAD_GROUP
350
1A
  3
ACAD_MLINESTYLE
350
1B
  3
ACAD_LAYOUT
350
1E
  3
ACAD_PLOTSETTINGS
350
22
  3
ACAD_PLOTSTYLENAME
350
1F
  0
DICTIONARY
  5
1A
102
{ACAD_REACTORS
330
19
102
}
100
AcDbDictionary
280
               0
281
               1
  0
DICTIONARY
  5
1B
102
{ACAD_REACTORS
330
19
102
}
100
AcDbDictionary
280
               0
281
               1
  3
Standard
350
1C
  0
MLINESTYLE
  5
1C
102
{ACAD_REACTORS
330
1B
102
}
100
AcDbMlineStyle
  2
Standard
 70
               0
  3

 62
               0
 51
90.0
 52
90.0
 71
               2
 49
0.5
 62
             256
  6
ByLayer
 49
-0.5
 62
             256
  6
ByLayer
  0
ACDBDICTIONARYWDFLT
  5
1F
102
{ACAD_REACTORS
330
19
102
}
100
AcDbDictionary
281
               1
  3
Normal
350
1D
100
AcDbDictionaryWithDefault
340
1D
  0
ACDBPLACEHOLDER
  5
1D
102
{ACAD_REACTORS
330
1F
102
}
  0
LAYOUT
  5
20
102
{ACAD_REACTORS
330
1E
102
}
100
AcDbPlotSettings
  1

  2

  4

  6

 40
0.0
 41
0.0
 42
0.0
 43
0.0
 44
0.0
 45
0.0
 46
0.0
 47
0.0
 48
0.0
 49
0.0
140
0.0
141
0.0
142
1.0
143
1.0
 70
            1024
 72
               0
 73
               0
 74
               0
  7

 75
               0
147
1.0
148
0.0
149
0.0
100
AcDbLayout
  1
Model
 70
               0
 71
               0
 10
0.0
 20
0.0
 11
0.0
 21
0.0
 12
0.0
 22
0.0
 32
0.0
 14
0.0
 24
0.0
 34
0.0
 15
0.0
 25
0.0
 35
0.0
146
0.0
 13
0.0
 23
0.0
 33
0.0
 16
0.0
 26
0.0
 36
0.0
 17
0.0
 27
0.0
 37
0.0
 76
               0
330
A
331
0
345
0
346
0
  0
LAYOUT
  5
21
102
{ACAD_REACTORS
330
1E
102
}
100
AcDbPlotSettings
  1

  2

  4

  6

 40
0.0
 41
0.0
 42
0.0
 43
0.0
 44
0.0
 45
0.0
 46
0.0
 47
0.0
 48
0.0
 49
0.0
140
0.0
141
0.0
142
1.0
143
1.0
 70
               0
 72
               0
 73
               0
 74
               0
  7

 75
               0
147
1.0
148
0.0
149
0.0
100
AcDbLayout
  1
Layout1
 70
               0
 71
               0
 10
0.0
 20
0.0
 11
0.0
 21
0.0
 12
0.0
 22
0.0
 32
0.0
 14
0.0
 24
0.0
 34
0.0
 15
0.0
 25
0.0
 35
0.0
146
0.0
 13
0.0
 23
0.0
 33
0.0
 16
0.0
 26
0.0
 36
0.0
 17
0.0
 27
0.0
 37
0.0
 76
               0
330
B
331
0
345
0
346
0
  0
DICTIONARY
  5
1E
102
{ACAD_REACTORS
330
19
102
}
100
AcDbDictionary
280
               0
281
               1
  3
Layout1
350
21
  3
Model
350
20
  0
DICTIONARY
  5
22
102
{ACAD_REACTORS
330
19
102
}
100
AcDbDictionary
280
               0
281
               1
  0
ENDSEC
  0
EOF
