  0
SECTION
  2
HEADER
  9
$ACADVER
  1
AC1015
  9
$ACADMAINTVER
 70
               6
  9
$DWGCODEPAGE
  3
ANSI_932
  9
$INSBASE
 10
0.0
 20
0.0
 30
0.0
  9
$EXTMIN
 10
-975.00000000024124
 20
-1431.5255224711129
 30
-14.428611111111111
  9
$EXTMAX
 10
975.00000000024124
 20
1405.9972926412995
 30
14.428611111111111
  9
$LIMMIN
 10
0.0
 20
0.0
  9
$LIMMAX
 10
0.0
 20
0.0
  9
$ORTHOMODE
 70
               0
  9
$REGENMODE
 70
               1
  9
$FILLMODE
 70
               1
  9
$QTEXTMODE
 70
               0
  9
$MIRRTEXT
 70
               1
  9
$LTSCALE
 40
50.799999999999997
  9
$ATTMODE
 70
               1
  9
$TEXTSIZE
 40
0.2
  9
$TRACEWID
 40
1.0
  9
$TEXTSTYLE
  7
Standard
  9
$CLAYER
  8
FAN70-0105
  9
$CELTYPE
  6
Continuous
  9
$CECOLOR
 62
             256
  9
$CELTSCALE
 40
1.0
  9
$DISPSILH
 70
               0
  9
$DIMSCALE
 40
1.0
  9
$DIMASZ
 40
31.75
  9
$DIMEXO
 40
0.0
  9
$DIMDLI
 40
6.9999999999999396
  9
$DIMRND
 40
0.0
  9
$DIMDLE
 40
0.0
  9
$DIMEXE
 40
19.999999999996199
  9
$DIMTP
 40
0.0
  9
$DIMTM
 40
0.0
  9
$DIMTXT
 40
24.432617187500004
  9
$DIMCEN
 40
0.0
  9
$DIMTSZ
 40
0.0
  9
$DIMTOL
 70
               0
  9
$DIMLIM
 70
               0
  9
$DIMTIH
 70
               0
  9
$DIMTOH
 70
               0
  9
$DIMSE1
 70
               0
  9
$DIMSE2
 70
               0
  9
$DIMTAD
 70
               1
  9
$DIMZIN
 70
              11
  9
$DIMBLK
  1
VW_FILLEDARROW
  9
$DIMASO
 70
               1
  9
$DIMSHO
 70
               1
  9
$DIMPOST
  1
<>
  9
$DIMAPOST
  1
[]
  9
$DIMALT
 70
               0
  9
$DIMALTD
 70
               1
  9
$DIMALTF
 40
1.0
  9
$DIMLFAC
 40
1.0
  9
$DIMTOFL
 70
               0
  9
$DIMTVP
 40
0.0
  9
$DIMTIX
 70
               1
  9
$DIMSOXD
 70
               0
  9
$DIMSAH
 70
               0
  9
$DIMBLK1
  1

  9
$DIMBLK2
  1

  9
$DIMSTYLE
  2
JIS
  9
$DIMCLRD
 70
               0
  9
$DIMCLRE
 70
               0
  9
$DIMCLRT
 70
               0
  9
$DIMTFAC
 40
1.0
  9
$DIMGAP
 40
1.00000000000108
  9
$DIMJUST
 70
               0
  9
$DIMSD1
 70
               0
  9
$DIMSD2
 70
               0
  9
$DIMTOLJ
 70
               1
  9
$DIMTZIN
 70
              11
  9
$DIMALTZ
 70
              11
  9
$DIMALTTZ
 70
              11
  9
$DIMUPT
 70
               0
  9
$DIMDEC
 70
               1
  9
$DIMTDEC
 70
               1
  9
$DIMALTU
 70
               2
  9
$DIMALTTD
 70
               2
  9
$DIMTXSTY
  7
ＭＳ ゴシック
  9
$DIMAUNIT
 70
               0
  9
$DIMADEC
 70
               2
  9
$DIMALTRND
 40
0.0
  9
$DIMAZIN
 70
               0
  9
$DIMDSEP
 70
              46
  9
$DIMATFIT
 70
               0
  9
$DIMFRAC
 70
               2
  9
$DIMLDRBLK
  1

  9
$DIMLUNIT
 70
               2
  9
$DIMLWD
 70
              -2
  9
$DIMLWE
 70
              -2
  9
$DIMTMOVE
 70
               0
  9
$LUNITS
 70
               2
  9
$LUPREC
 70
               4
  9
$SKETCHINC
 40
0.1
  9
$FILLETRAD
 40
0.0
  9
$AUNITS
 70
               0
  9
$AUPREC
 70
               0
  9
$MENU
  1
acad
  9
$ELEVATION
 40
0.0
  9
$PELEVATION
 40
0.0
  9
$THICKNESS
 40
0.0
  9
$LIMCHECK
 70
               0
  9
$CHAMFERA
 40
0.0
  9
$CHAMFERB
 40
0.0
  9
$CHAMFERC
 40
0.0
  9
$CHAMFERD
 40
0.0
  9
$SKPOLY
 70
               0
  9
$TDCREATE
 40
2456049.432291667
  9
$TDUCREATE
 40
0.000000000
  9
$TDUPDATE
 40
2456049.432291667
  9
$TDUUPDATE
 40
0.000000000
  9
$TDINDWG
 40
0.0000000000
  9
$TDUSRTIMER
 40
0.0000000000
  9
$USRTIMER
 70
               1
  9
$ANGBASE
 50
0.0
  9
$ANGDIR
 70
               0
  9
$PDMODE
 70
               1
  9
$PDSIZE
 40
-2.0
  9
$PLINEWID
 40
0.0
  9
$SPLFRAME
 70
               0
  9
$SPLINETYPE
 70
               6
  9
$SPLINESEGS
 70
               8
  9
$HANDSEED
  5
1BF
  9
$SURFTAB1
 70
               6
  9
$SURFTAB2
 70
               6
  9
$SURFTYPE
 70
               6
  9
$SURFU
 70
               6
  9
$SURFV
 70
               6
  9
$UCSBASE
  2

  9
$UCSNAME
  2

  9
$UCSORG
 10
0.0
 20
0.0
 30
0.0
  9
$UCSXDIR
 10
1.0
 20
0.0
 30
0.0
  9
$UCSYDIR
 10
0.0
 20
1.0
 30
0.0
  9
$UCSORTHOREF
  2

  9
$UCSORTHOVIEW
 70
               0
  9
$UCSORGTOP
 10
0.0
 20
0.0
 30
0.0
  9
$UCSORGBOTTOM
 10
0.0
 20
0.0
 30
0.0
  9
$UCSORGLEFT
 10
0.0
 20
0.0
 30
0.0
  9
$UCSORGRIGHT
 10
0.0
 20
0.0
 30
0.0
  9
$UCSORGFRONT
 10
0.0
 20
0.0
 30
0.0
  9
$UCSORGBACK
 10
0.0
 20
0.0
 30
0.0
  9
$PUCSBASE
  2

  9
$PUCSNAME
  2

  9
$PUCSORG
 10
0.0
 20
0.0
 30
0.0
  9
$PUCSXDIR
 10
1.0
 20
0.0
 30
0.0
  9
$PUCSYDIR
 10
0.0
 20
1.0
 30
0.0
  9
$PUCSORTHOREF
  2

  9
$PUCSORTHOVIEW
 70
               0
  9
$PUCSORGTOP
 10
0.0
 20
0.0
 30
0.0
  9
$PUCSORGBOTTOM
 10
0.0
 20
0.0
 30
0.0
  9
$PUCSORGLEFT
 10
0.0
 20
0.0
 30
0.0
  9
$PUCSORGRIGHT
 10
0.0
 20
0.0
 30
0.0
  9
$PUCSORGFRONT
 10
0.0
 20
0.0
 30
0.0
  9
$PUCSORGBACK
 10
0.0
 20
0.0
 30
0.0
  9
$USERI1
 70
               0
  9
$USERI2
 70
               0
  9
$USERI3
 70
               0
  9
$USERI4
 70
               0
  9
$USERI5
 70
               0
  9
$USERR1
 40
0.0
  9
$USERR2
 40
0.0
  9
$USERR3
 40
0.0
  9
$USERR4
 40
0.0
  9
$USERR5
 40
0.0
  9
$WORLDVIEW
 70
               1
  9
$SHADEDGE
 70
               3
  9
$SHADEDIF
 70
              70
  9
$TILEMODE
 70
               1
  9
$MAXACTVP
 70
              64
  9
$PINSBASE
 10
0.0
 20
0.0
 30
0.0
  9
$PLIMCHECK
 70
               0
  9
$PEXTMIN
 10
1.0000000000000000E+20
 20
1.0000000000000000E+20
 30
1.0000000000000000E+20
  9
$PEXTMAX
 10
-1.0000000000000000E+20
 20
-1.0000000000000000E+20
 30
-1.0000000000000000E+20
  9
$PLIMMIN
 10
0.0
 20
0.0
  9
$PLIMMAX
 10
12.0
 20
9.0
  9
$UNITMODE
 70
               0
  9
$VISRETAIN
 70
               0
  9
$PLINEGEN
 70
               1
  9
$PSLTSCALE
 70
               0
  9
$TREEDEPTH
 70
            3020
  9
$CMLSTYLE
  2
Standard
  9
$CMLJUST
 70
               0
  9
$CMLSCALE
 40
1.0
  9
$PROXYGRAPHICS
 70
               0
  9
$MEASUREMENT
 70
               1
  9
$CELWEIGHT
370
               0
  9
$ENDCAPS
280
               0
  9
$JOINSTYLE
280
               0
  9
$LWDISPLAY
290
               1
  9
$INSUNITS
 70
               4
  9
$HYPERLINKBASE
  1

  9
$STYLESHEET
  1

  9
$XEDIT
290
               1
  9
$CEPSNTYPE
380
               0
  9
$PSTYLEMODE
290
               1
  9
$FINGERPRINTGUID
  2

  9
$VERSIONGUID
  2

  9
$EXTNAMES
290
               1
  9
$PSVPSCALE
 40
0.0
  0
ENDSEC
  0
SECTION
  2
CLASSES
  0
CLASS
  1
LWPOLYLINE
  2
AcDbPolyline
  3
AutoCAD 2000
 90
        0
280
               0
281
               1
  0
CLASS
  1
IMAGE
  2
AcDbRasterImage
  3
ISM
 90
      127
280
               0
281
               1
  0
CLASS
  1
OLE2FRAME
  2
AcDbOle2Frame
  3
AutoCAD 2000
 90
        0
280
               0
281
               1
  0
CLASS
  1
HATCH
  2
AcDbHatch
  3
AutoCAD 2000
 90
        0
280
               0
281
               1
  0
CLASS
  1
DICTIONARYVAR
  2
AcDbDictionaryVar
  3
AutoCAD 2000
 90
        0
280
               0
281
               0
  0
CLASS
  1
RASTERVARIABLES
  2
AcDbRasterVariables
  3
ISM
 90
        0
280
               0
281
               0
  0
CLASS
  1
IMAGEDEF
  2
AcDbRasterImageDef
  3
ISM
 90
        0
280
               0
281
               0
  0
CLASS
  1
IMAGEDEF_REACTOR
  2
AcDbRasterImageDefReactor
  3
ISM
 90
        1
280
               0
281
               0
  0
CLASS
  1
IDBUFFER
  2
AcDbIdBuffer
  3
AutoCAD 2000
 90
        0
280
               0
281
               0
  0
CLASS
  1
SPATIAL_FILTER
  2
AcDbSpatialFilter
  3
AutoCAD 2000
 90
        0
280
               0
281
               0
  0
CLASS
  1
XRECORD
  2
AcDbXrecord
  3
AutoCAD 2000
 90
        0
280
               0
281
               0
  0
CLASS
  1
SORTENTSTABLE
  2
AcDbSortentsTable
  3
AutoCAD 2000
 90
        0
280
               0
281
               0
  0
CLASS
  1
LAYER_INDEX
  2
AcDbLayerIndex
  3
AutoCAD 2000
 90
        0
280
               0
281
               0
  0
CLASS
  1
SPATIAL_INDEX
  2
AcDbSpatialIndex
  3
AutoCAD 2000
 90
        0
280
               0
281
               0
  0
CLASS
  1
OBJECT_PTR
  2
CAseDLPNTableRecord
  3
"ASE-LPNTableRecord"
 90
        1
280
               0
281
               0
  0
CLASS
  1
LAYOUT
  2
AcDbLayout
  3
AutoCAD 2000
 90
        0
280
               0
281
               0
  0
CLASS
  1
PLOTSETTINGS
  2
AcDbPlotSettings
  3
AutoCAD 2000
 90
        0
280
               0
281
               0
  0
CLASS
  1
ACDBDICTIONARYWDFLT
  2
AcDbDictionaryWithDefault
  3
AutoCAD 2000
 90
        0
280
               0
281
               0
  0
CLASS
  1
ACDBPLACEHOLDER
  2
AcDbPlaceHolder
  3
AutoCAD 2000
 90
        0
280
               0
281
               0
  0
ENDSEC
  0
SECTION
  2
TABLES
  0
TABLE
  2
VPORT
  5
7
100
AcDbSymbolTable
 70
               1
  0
VPORT
  5
15
100
AcDbSymbolTableRecord
100
AcDbViewportTableRecord
  2
*ACTIVE
 70
               0
 10
0.0
 20
0.0
 11
1.0
 21
1.0
 12
0.0
 22
-12.764114914906713
 13
0.0
 23
0.0
 14
1.0
 24
1.0
 15
0.0
 25
0.0
 16
0.0
 26
0.0
 36
1.0
 17
0.0
 27
0.0
 37
0.0
 40
2837.5228151124124
 41
0.688564
 42
50.0
 43
0.0
 44
0.0
 50
0.0
 51
0.0
 71
               0
 72
            2000
 73
               1
 74
               1
 75
               0
 76
               0
 77
               0
 78
               0
281
               0
 65
               0
110
0.0
120
0.0
130
0.0
111
1.0
121
0.0
131
0.0
112
0.0
122
1.0
132
0.0
345
0
346
0
 79
               0
146
0.0
  0
ENDTAB
  0
TABLE
  2
LTYPE
  5
4
100
AcDbSymbolTable
 70
              17
  0
LTYPE
  5
11
100
AcDbSymbolTableRecord
100
AcDbLinetypeTableRecord
  2
ByBlock
 70
              64
  3

 72
              65
 73
               0
 40
0.0
  0
LTYPE
  5
12
100
AcDbSymbolTableRecord
100
AcDbLinetypeTableRecord
  2
ByLayer
 70
              64
  3

 72
              65
 73
               0
 40
0.0
  0
LTYPE
  5
13
100
AcDbSymbolTableRecord
100
AcDbLinetypeTableRecord
  2
Continuous
 70
              64
  3
Solid line
 72
              65
 73
               0
 40
0.0
  0
LTYPE
  5
36
100
AcDbSymbolTableRecord
100
AcDbLinetypeTableRecord
  2
STYLE_01
 70
               0
  3

 72
              65
 73
               4
 40
0.7999999999999998
 49
0.4999999999999999
 74
               0
 49
-0.1
 74
               0
 49
0.1
 74
               0
 49
-0.1
 74
               0
  0
LTYPE
  5
37
100
AcDbSymbolTableRecord
100
AcDbLinetypeTableRecord
  2
STYLE_02
 70
               0
  3

 72
              65
 73
               2
 40
0.6944250000000001
 49
0.48607
 74
               0
 49
-0.2083550000000001
 74
               0
  0
LTYPE
  5
38
100
AcDbSymbolTableRecord
100
AcDbLinetypeTableRecord
  2
STYLE_03
 70
               0
  3

 72
              65
 73
               2
 40
1.25
 49
1.0416400000000001
 74
               0
 49
-0.2083599999999999
 74
               0
  0
LTYPE
  5
39
100
AcDbSymbolTableRecord
100
AcDbLinetypeTableRecord
  2
STYLE_04
 70
               0
  3

 72
              65
 73
               2
 40
1.5277099999999999
 49
1.3194249999999998
 74
               0
 49
-0.208285
 74
               0
  0
LTYPE
  5
3A
100
AcDbSymbolTableRecord
100
AcDbLinetypeTableRecord
  2
STYLE_05
 70
               0
  3

 72
              65
 73
               2
 40
0.20828
 49
0.069425
 74
               0
 49
-0.138855
 74
               0
  0
LTYPE
  5
3B
100
AcDbSymbolTableRecord
100
AcDbLinetypeTableRecord
  2
STYLE_06
 70
               0
  3

 72
              65
 73
               4
 40
1.0416400000000001
 49
0.625
 74
               0
 49
-0.20828
 74
               0
 49
0.06943
 74
               0
 49
-0.13893
 74
               0
  0
LTYPE
  5
3C
100
AcDbSymbolTableRecord
100
AcDbLinetypeTableRecord
  2
STYLE_07
 70
               0
  3

 72
              65
 73
               6
 40
1.875
 49
0.625
 74
               0
 49
-0.20828
 74
               0
 49
0.6250000000000001
 74
               0
 49
-0.2083599999999999
 74
               0
 49
0.06943
 74
               0
 49
-0.1389299999999999
 74
               0
  0
LTYPE
  5
3D
100
AcDbSymbolTableRecord
100
AcDbLinetypeTableRecord
  2
STYLE_08
 70
               0
  3

 72
              65
 73
               6
 40
1.25
 49
0.625
 74
               0
 49
-0.20828
 74
               0
 49
0.06943
 74
               0
 49
-0.13893
 74
               0
 49
0.0694299999999999
 74
               0
 49
-0.13893
 74
               0
  0
LTYPE
  5
3E
100
AcDbSymbolTableRecord
100
AcDbLinetypeTableRecord
  2
STYLE_09
 70
               0
  3

 72
              65
 73
               4
 40
5.0
 49
3.75
 74
               0
 49
-0.2777849999999998
 74
               0
 49
0.6944300000000003
 74
               0
 49
-0.2777849999999998
 74
               0
  0
LTYPE
  5
3F
100
AcDbSymbolTableRecord
100
AcDbLinetypeTableRecord
  2
STYLE_10
 70
               0
  3

 72
              65
 73
               6
 40
5.9375
 49
3.75
 74
               0
 49
-0.2777849999999998
 74
               0
 49
0.6944300000000003
 74
               0
 49
-0.2777849999999998
 74
               0
 49
0.625
 74
               0
 49
-0.3125
 74
               0
  0
LTYPE
  5
40
100
AcDbSymbolTableRecord
100
AcDbLinetypeTableRecord
  2
STYLE_11
 70
               0
  3

 72
              65
 73
               2
 40
0.0694444881889764
 49
0.0347222440944882
 74
               0
 49
-0.0347222440944882
 74
               0
  0
LTYPE
  5
41
100
AcDbSymbolTableRecord
100
AcDbLinetypeTableRecord
  2
STYLE_12
 70
               0
  3

 72
              65
 73
               2
 40
0.3937007874015748
 49
0.1968503937007874
 74
               0
 49
-0.1968503937007874
 74
               0
  0
LTYPE
  5
42
100
AcDbSymbolTableRecord
100
AcDbLinetypeTableRecord
  2
STYLE_13
 70
               0
  3

 72
              65
 73
               2
 40
0.5905511811023622
 49
0.2952755905511811
 74
               0
 49
-0.2952755905511811
 74
               0
  0
LTYPE
  5
43
100
AcDbSymbolTableRecord
100
AcDbLinetypeTableRecord
  2
STYLE_14
 70
               0
  3

 72
              65
 73
               2
 40
1.9685039370078738
 49
0.9842519685039369
 74
               0
 49
-0.9842519685039369
 74
               0
  0
ENDTAB
  0
TABLE
  2
LAYER
  5
2
100
AcDbSymbolTable
 70
               5
  0
LAYER
  5
14
100
AcDbSymbolTableRecord
100
AcDbLayerTableRecord
  2
0
 70
               0
 62
               7
  6
Continuous
290
               1
370
              -3
390
1D
  0
LAYER
  5
44
100
AcDbSymbolTableRecord
100
AcDbLayerTableRecord
  2
Defpoints
 70
               0
 62
               7
  6
Continuous
290
               0
370
              -3
390
1D
  0
LAYER
  5
45
100
AcDbSymbolTableRecord
100
AcDbLayerTableRecord
  2
template
 70
               0
 62
               7
  6
Continuous
290
               1
370
              -3
390
1D
  0
LAYER
  5
46
100
AcDbSymbolTableRecord
100
AcDbLayerTableRecord
  2
notes
 70
               0
 62
               7
  6
Continuous
290
               1
370
              -3
390
1D
  0
LAYER
  5
47
100
AcDbSymbolTableRecord
100
AcDbLayerTableRecord
  2
FAN70-0105
 70
               0
 62
               7
  6
Continuous
290
               1
370
              -3
390
1D
  0
ENDTAB
  0
TABLE
  2
STYLE
  5
3
100
AcDbSymbolTable
 70
               2
  0
STYLE
  5
17
100
AcDbSymbolTableRecord
100
AcDbTextStyleTableRecord
  2
Standard
 70
               0
 40
0.0
 41
1.0
 50
0.0
 71
               0
 42
0.0
  3
txt
  4
BIGFONT.SHX
  0
STYLE
  5
35
100
AcDbSymbolTableRecord
100
AcDbTextStyleTableRecord
  2
ＭＳ ゴシック
 70
               0
 40
0.0
 41
1.0
 50
0.0
 71
               0
 42
0.0
  3

  4
ＭＳ ゴシック
1001
ACAD
1000
ＭＳ ゴシック
1071
        0
  0
ENDTAB
  0
TABLE
  2
VIEW
  5
5
100
AcDbSymbolTable
 70
               0
  0
ENDTAB
  0
TABLE
  2
UCS
  5
6
100
AcDbSymbolTable
 70
               0
  0
ENDTAB
  0
TABLE
  2
APPID
  5
8
100
AcDbSymbolTable
 70
               1
  0
APPID
  5
16
100
AcDbSymbolTableRecord
100
AcDbRegAppTableRecord
  2
ACAD
 70
               0
  0
ENDTAB
  0
TABLE
  2
DIMSTYLE
  5
9
100
AcDbSymbolTable
 70
               3
100
AcDbDimStyleTable
 71
               0
  0
DIMSTYLE
105
18
100
AcDbSymbolTableRecord
100
AcDbDimStyleTableRecord
  2
Standard
 70
               0
  3

  4

 40
1.0
 41
0.18
 42
0.0625
 43
0.38
 44
0.18
 45
0.0
 46
0.0
 47
0.0
 48
0.0
 71
               0
 72
               0
 73
               1
 74
               1
 75
               0
 76
               0
 77
               0
 78
               0
 79
               0
140
0.18
141
0.09
142
0.0
143
25.399999999999999
144
1.0
145
0.0
146
1.0
147
0.09
148
0.0
170
               0
171
               2
172
               0
173
               0
174
               0
175
               0
176
               0
177
               0
178
               0
179
               0
271
               4
272
               4
273
               2
274
               2
275
               0
276
               0
277
               2
278
              46
279
               0
280
               0
281
               0
282
               0
283
               1
284
               0
285
               0
286
               0
288
               0
289
               3
340
17
341
0
342
0
343
0
344
0
371
              -2
372
              -2
  0
DIMSTYLE
105
50
100
AcDbSymbolTableRecord
100
AcDbDimStyleTableRecord
  2
tfrom線あり
 70
               0
  3
<>
  4
[]
 40
1.0
 41
3.999755859375
 42
24.999999999999996
 43
0.9999999999999999
 44
0.0
 45
0.0
 46
0.0
 47
0.0
 48
0.0
 71
               0
 72
               0
 73
               0
 74
               0
 75
               0
 76
               0
 77
               1
 78
              11
 79
               0
140
24.432617187500004
141
0.0
142
0.0
143
1.0
144
1.0
145
0.0
146
1.0
147
0.4999999999999999
148
0.0
170
               0
171
               1
172
               0
173
               0
174
               1
175
               0
176
               0
177
               0
178
               0
179
               2
271
               1
272
               1
273
               2
274
               2
275
               0
276
               2
277
               2
278
              46
279
               0
280
               0
281
               0
282
               0
283
               1
284
              11
285
              11
286
              11
288
               0
289
               0
340
35
341
48
342
48
343
0
344
0
371
              -2
372
              -2
  0
DIMSTYLE
105
55
100
AcDbSymbolTableRecord
100
AcDbDimStyleTableRecord
  2
JIS
 70
               0
  3
<>
  4
[]
 40
1.0
 41
31.75
 42
0.0
 43
6.9999999999999396
 44
19.999999999996199
 45
0.0
 46
0.0
 47
0.0
 48
0.0
 71
               0
 72
               0
 73
               0
 74
               0
 75
               0
 76
               0
 77
               1
 78
              11
 79
               0
140
24.432617187500004
141
0.0
142
0.0
143
1.0
144
1.0
145
0.0
146
1.0
147
1.00000000000108
148
0.0
170
               0
171
               1
172
               0
173
               0
174
               1
175
               0
176
               0
177
               0
178
               0
179
               2
271
               1
272
               1
273
               2
274
               2
275
               0
276
               2
277
               2
278
              46
279
               0
280
               0
281
               0
282
               0
283
               1
284
              11
285
              11
286
              11
288
               0
289
               0
340
35
341
51
342
51
343
0
344
0
371
              -2
372
              -2
  0
ENDTAB
  0
TABLE
  2
BLOCK_RECORD
  5
1
100
AcDbSymbolTable
 70
              20
  0
BLOCK_RECORD
  5
A
100
AcDbSymbolTableRecord
100
AcDbBlockTableRecord
  2
*MODEL_SPACE
340
20
  0
BLOCK_RECORD
  5
B
100
AcDbSymbolTableRecord
100
AcDbBlockTableRecord
  2
*PAPER_SPACE
340
21
  0
BLOCK_RECORD
  5
48
100
AcDbSymbolTableRecord
100
AcDbBlockTableRecord
  2
_DOT
340
0
  0
BLOCK_RECORD
  5
51
100
AcDbSymbolTableRecord
100
AcDbBlockTableRecord
  2
VW_FILLEDARROW
340
0
  0
BLOCK_RECORD
  5
23
100
AcDbSymbolTableRecord
100
AcDbBlockTableRecord
  2
グループ
340
0
102
{BLKREFS
331
144
102
}
  0
BLOCK_RECORD
  5
24
100
AcDbSymbolTableRecord
100
AcDbBlockTableRecord
  2
*D3
340
0
  0
BLOCK_RECORD
  5
25
100
AcDbSymbolTableRecord
100
AcDbBlockTableRecord
  2
*D4
340
0
  0
BLOCK_RECORD
  5
26
100
AcDbSymbolTableRecord
100
AcDbBlockTableRecord
  2
*D5
340
0
  0
BLOCK_RECORD
  5
27
100
AcDbSymbolTableRecord
100
AcDbBlockTableRecord
  2
*D6
340
0
  0
BLOCK_RECORD
  5
28
100
AcDbSymbolTableRecord
100
AcDbBlockTableRecord
  2
*D7
340
0
  0
BLOCK_RECORD
  5
29
100
AcDbSymbolTableRecord
100
AcDbBlockTableRecord
  2
*D8
340
0
  0
BLOCK_RECORD
  5
2A
100
AcDbSymbolTableRecord
100
AcDbBlockTableRecord
  2
*D9
340
0
  0
BLOCK_RECORD
  5
2B
100
AcDbSymbolTableRecord
100
AcDbBlockTableRecord
  2
*D10
340
0
  0
BLOCK_RECORD
  5
2C
100
AcDbSymbolTableRecord
100
AcDbBlockTableRecord
  2
*D11
340
0
  0
BLOCK_RECORD
  5
2D
100
AcDbSymbolTableRecord
100
AcDbBlockTableRecord
  2
*D12
340
0
  0
BLOCK_RECORD
  5
2E
100
AcDbSymbolTableRecord
100
AcDbBlockTableRecord
  2
*D13
340
0
  0
BLOCK_RECORD
  5
2F
100
AcDbSymbolTableRecord
100
AcDbBlockTableRecord
  2
*D14
340
0
  0
BLOCK_RECORD
  5
30
100
AcDbSymbolTableRecord
100
AcDbBlockTableRecord
  2
*D15
340
0
  0
BLOCK_RECORD
  5
31
100
AcDbSymbolTableRecord
100
AcDbBlockTableRecord
  2
*D16
340
0
  0
BLOCK_RECORD
  5
32
100
AcDbSymbolTableRecord
100
AcDbBlockTableRecord
  2
*D17
340
0
  0
BLOCK_RECORD
  5
33
100
AcDbSymbolTableRecord
100
AcDbBlockTableRecord
  2
*D18
340
0
  0
BLOCK_RECORD
  5
34
100
AcDbSymbolTableRecord
100
AcDbBlockTableRecord
  2
*D19
340
0
  0
ENDTAB
  0
ENDSEC
  0
SECTION
  2
BLOCKS
  0
BLOCK
  5
D
100
AcDbEntity
  8
0
390
0
100
AcDbBlockBegin
  2
*MODEL_SPACE
 70
               0
 10
0.0
 20
0.0
 30
0.0
  3
*MODEL_SPACE
  1

  0
ENDBLK
  5
E
100
AcDbEntity
  8
0
390
0
100
AcDbBlockEnd
  0
BLOCK
  5
F
100
AcDbEntity
 67
               1
  8
0
390
0
100
AcDbBlockBegin
  2
*PAPER_SPACE
 70
               0
 10
0.0
 20
0.0
 30
0.0
  3
*PAPER_SPACE
  1

  0
ENDBLK
  5
10
100
AcDbEntity
 67
               1
  8
0
390
0
100
AcDbBlockEnd
  0
BLOCK
  5
49
100
AcDbEntity
  8
0
390
0
100
AcDbBlockBegin
  2
_DOT
 70
               0
 10
0.0
 20
0.0
 30
0.0
  3
_DOT
  1

  0
POLYLINE
  5
4A
100
AcDbEntity
  8
0
370
              -2
390
0
  6
ByBlock
 62
               0
100
AcDb2dPolyline
 66
               1
 10
0.0
 20
0.0
 30
0.0
 70
               1
 40
0.5
 41
0.5
  0
VERTEX
  5
4B
100
AcDbEntity
  8
0
370
              -2
390
0
  6
ByBlock
 62
               0
100
AcDbVertex
100
AcDb2dVertex
 10
-0.25
 20
0.0
 30
0.0
 42
1.0
  0
VERTEX
  5
4C
100
AcDbEntity
  8
0
370
              -2
390
0
  6
ByBlock
 62
               0
100
AcDbVertex
100
AcDb2dVertex
 10
0.25
 20
0.0
 30
0.0
 42
1.0
  0
SEQEND
  5
4D
100
AcDbEntity
  8
0
390
0
  0
LINE
  5
4E
100
AcDbEntity
  8
0
370
              -2
390
0
  6
ByBlock
 62
               0
100
AcDbLine
 10
-0.5
 20
0.0
 30
0.0
 11
-1.0
 21
0.0
 31
0.0
  0
ENDBLK
  5
4F
100
AcDbEntity
  8
0
390
0
100
AcDbBlockEnd
  0
BLOCK
  5
52
100
AcDbEntity
  8
0
370
              -2
390
0
  6
ByBlock
 62
               0
100
AcDbBlockBegin
  2
VW_FILLEDARROW
 70
               0
 10
0.0
 20
0.0
 30
0.0
  3
VW_FILLEDARROW
  1

  0
SOLID
  5
53
100
AcDbEntity
  8
0
370
              -2
390
0
 62
               0
100
AcDbTrace
 10
0.0
 20
0.0
 30
0.0
 11
-0.9921874999999999
 21
-0.2658558393652545
 31
0.0
 12
-0.9921874999999999
 22
0.2658558393652548
 32
0.0
 13
-0.9921874999999999
 23
0.2658558393652548
 33
0.0
  0
ENDBLK
  5
54
100
AcDbEntity
  8
0
390
0
100
AcDbBlockEnd
  0
BLOCK
  5
56
100
AcDbEntity
  8
template
390
0
100
AcDbBlockBegin
  2
グループ
 70
               0
 10
0.0
 20
0.0
 30
0.0
  3
グループ
  1

  0
LWPOLYLINE
  5
57
100
AcDbEntity
  8
0
370
              15
390
0
  6
Continuous
 62
               7
100
AcDbPolyline
 90
        8
 70
             129
 10
887.42850780307481
 20
-1151.3529285708557
 10
887.42850780307481
 20
-1157.3503172644316
 10
877.92731088507151
 20
-1157.3503172644316
 10
877.92731088507151
 20
-1181.8012805279404
 10
869.57193362328871
 20
-1181.8012805279404
 10
869.57193362328871
 20
-1157.3503172644316
 10
860.23897667697929
 20
-1157.3503172644316
 10
860.23897667697929
 20
-1151.3529285708557
  0
LWPOLYLINE
  5
58
100
AcDbEntity
  8
0
370
              15
390
0
  6
Continuous
 62
               7
100
AcDbPolyline
 90
      101
 70
             128
 10
900.15679963363175
 20
-1152.0811770637922
 10
900.17214966241681
 20
-1152.076816307107
 42
-0.0222221607812437
 10
900.46215423908779
 20
-1152.0081918418625
 10
900.47794800308122
 20
-1152.0051884187656
 42
-0.0146883565586991
 10
900.74065070830557
 20
-1151.9631852318162
 42
-0.0127458844187444
 10
901.00528967545358
 20
-1151.935648263744
 10
901.06774475377142
 20
-1151.9307548411555
 42
-0.0198099018566995
 10
901.45859386324832
 20
-1151.915669683759
 10
901.51040533269202
 20
-1151.915723459424
 42
-0.0147617382765157
 10
902.00502879366343
 20
-1151.9308434846687
 10
902.07772024853898
 20
-1151.9352160915564
 42
-0.016262454900472
 10
902.46787387800578
 20
-1151.9714489668288
 10
902.58940626926312
 20
-1151.986735525825
 42
-0.0080020874662745
 10
902.73498530035658
 20
-1152.0074183730937
 10
902.77330477094858
 20
-1152.0134896509044
 42
-0.0053821929678304
 10
902.84178887626638
 20
-1152.0250971747264
 10
902.11538317706777
 20
-1154.2060256304403
 42
0.0108667757406303
 10
902.04806610693811
 20
-1154.1928385152207
 10
902.01059808374748
 20
-1154.186340772626
 42
0.0170663203307658
 10
901.8673812968334
 20
-1154.1665111753343
 10
901.79950596414892
 20
-1154.1594640047467
 42
0.0220162375276673
 10
901.51912655629246
 20
-1154.1427816439766
 10
901.44127098924173
 20
-1154.1415822767101
 42
0.0282606915783955
 10
901.10563466566362
 20
-1154.155385553679
 10
901.06172139189118
 20
-1154.1596855436828
 42
0.0169677213690567
 10
900.8157968969324
 20
-1154.1922225932349
 42
0.0190576269865509
 10
900.57288893435555
 20
-1154.2423694653403
 10
900.56662974624146
 20
-1154.2439124394505
 42
0.0213685642844021
 10
900.3162452617612
 20
-1154.317112724556
 10
900.3107553668475
 20
-1154.3189757206142
 42
0.0237595297591213
 10
900.05726048194606
 20
-1154.4186602425109
 10
900.05215840791914
 20
-1154.4209520179879
 42
0.0261857468810989
 10
899.79998763168908
 20
-1154.5504883553624
 10
899.78956144260292
 20
-1154.5565538298304
 42
0.0272553062019101
 10
899.55313166736369
 20
-1154.7119260357754
 10
899.51836865385337
 20
-1154.7375871838683
 42
0.032599689317751
 10
899.36821331020269
 20
-1154.8643350568389
 10
899.34450388107427
 20
-1154.8871530853569
 42
0.0138050960639914
 10
899.25262072486953
 20
-1154.9806027469035
 42
0.0125280103807697
 10
899.16577819204315
 20
-1155.0787660734952
 10
899.14209774712765
 20
-1155.1069245716908
 42
0.0205218024738399
 10
899.01699767161153
 20
-1155.2687178859233
 10
898.99453133112684
 20
-1155.3003776157468
 42
0.0163110129581913
 10
898.83882095187528
 20
-1155.535708050817
 10
898.83609705582455
 20
-1155.5401318128022
 42
0.013189734190081
 10
898.68929653491568
 20
-1155.7932639051719
 10
898.68759643955218
 20
-1155.7963821443022
 42
0.0107895576063661
 10
898.54981973734107
 20
-1156.0625973539384
 10
898.5490868478164
 20
-1156.064091586584
 42
0.0091371507210245
 10
898.42060689916946
 20
-1156.3386167843375
 10
898.3908612677576
 20
-1156.4053232915026
 42
0.0135418326351868
 10
898.21914732868379
 20
-1156.8202610767769
 10
898.1855425202524
 20
-1156.9081272190508
 42
0.0092834542409608
 10
898.01431346033087
 20
-1157.3820257173579
 10
897.98869633261324
 20
-1157.457266787151
 42
0.0054261043578205
 10
897.88105818432018
 20
-1157.7850307602162
 10
897.86353219811349
 20
-1157.8404189225389
 42
0.0008225090822076
 10
897.79486214631277
 20
-1158.0586876805955
 10
896.8101730143793
 20
-1161.0835789738521
 10
900.04279685445317
 20
-1161.0835789738521
 10
899.53860442459973
 20
-1162.9880572722045
 10
896.28254814261641
 20
-1162.9880572722045
 10
890.45339911026258
 20
-1181.8012803382094
 10
888.62830149995227
 20
-1181.8012803382094
 10
894.4629795354532
 20
-1162.9880572722045
 10
892.05786316641286
 20
-1162.9880572722045
 10
892.5620555962663
 20
-1161.0835789738521
 10
894.99060440721632
 20
-1161.0835789738521
 10
895.85075932540497
 20
-1158.4471659731532
 42
-0.0005863560628843
 10
895.88749400360086
 20
-1158.3303395528853
 10
895.96358183726886
 20
-1158.089347253476
 42
-0.0087522378925503
 10
896.16304998072599
 20
-1157.4940711663287
 10
896.25531425614076
 20
-1157.2339309978122
 42
-0.0077400953830024
 10
896.51324791527031
 20
-1156.5409263202682
 10
896.52901288684689
 20
-1156.5004954368881
 42
-0.0082369946330518
 10
896.77609735746114
 20
-1155.8964163706864
 42
-0.0085725238363833
 10
897.0433434534657
 20
-1155.300990331396
 10
897.14497305447048
 20
-1155.0845692294163
 42
-0.0168109410596449
 10
897.43191748320146
 20
-1154.52336170331
 10
897.55776087360528
 20
-1154.296397670412
 42
-0.0007817726866814
 10
897.61204522371713
 20
-1154.1988534252814
 10
897.6121735297196
 20
-1154.1986237165715
 42
-0.0036626142161405
 10
897.6670613937556
 20
-1154.1020258365766
 42
-0.0080221150679748
 10
897.72418564916165
 20
-1154.0067466018249
 10
897.75488560052349
 20
-1153.9573556527016
 42
-0.020213932556849
 10
897.88254134033025
 20
-1153.7693740520201
 10
897.93660880551784
 20
-1153.6962951877792
 42
-0.0249323791798447
 10
898.1957715992371
 20
-1153.3802499456247
 10
898.219911413364
 20
-1153.3536356727122
 42
-0.0242132121539522
 10
898.55959215490293
 20
-1153.0137521865111
 10
898.60750372765756
 20
-1152.9702430503214
 42
-0.025101752785879
 10
898.8914854282973
 20
-1152.7372503045576
 10
898.8929309051116
 20
-1152.7361810469783
 42
-0.0130868069040762
 10
899.19119155506837
 20
-1152.5274005784361
 10
899.19275337420993
 20
-1152.5263671381617
 42
-0.0290329526391372
 10
899.50386451560439
 20
-1152.3455416365318
 10
899.53371007759586
 20
-1152.3304392536895
 42
-0.0160250190043653
 10
899.79961449135521
 20
-1152.2064231434788
 42
-0.0267600374781006
 10
900.07489056882639
 20
-1152.1056748229296
 10
900.10162648834478
 20
-1152.0974822641047
 42
-0.0049981587670053
 10
900.15679963363175
 20
-1152.0811770637922
 42
-0.0049981587670053
  0
LWPOLYLINE
  5
59
100
AcDbEntity
  8
0
370
              15
390
0
  6
Continuous
 62
               7
100
AcDbPolyline
 90
      118
 70
             128
 10
919.97116719807866
 20
-1161.1575623016795
 10
921.84628912257813
 20
-1161.1575623016795
 10
921.00825021697824
 20
-1163.8391288280795
 42
-0.0010587229255597
 10
921.03970603248558
 20
-1163.8022242947998
 10
921.09790012318217
 20
-1163.7342420385485
 42
-0.0071874740417101
 10
921.2482753412711
 20
-1163.5636013465294
 10
921.38999811454244
 20
-1163.4073652052061
 42
-0.0148118053512363
 10
921.84012740725746
 20
-1162.939751359191
 10
921.92734974215796
 20
-1162.8543540383387
 42
-0.0086273358692412
 10
922.26289854316542
 20
-1162.5369784043232
 10
922.30673225939188
 20
-1162.4969287599897
 42
-0.0103138323110657
 10
922.56475596162477
 20
-1162.2707656226519
 10
922.61053036794067
 20
-1162.232283575401
 42
-0.0060206748566775
 10
922.78337843206407
 20
-1162.0904889246372
 10
922.78540956294921
 20
-1162.0888632190065
 42
-0.0067069027288388
 10
922.95770237761258
 20
-1161.9547125852109
 10
922.96025114353938
 20
-1161.9527824153349
 42
-0.0076184352042701
 10
923.13115640940987
 20
-1161.8274075400918
 42
-0.0089652861674684
 10
923.30611737214042
 20
-1161.7077742797621
 10
923.34246909229182
 20
-1161.6838630662749
 42
-0.0156916245935726
 10
923.5384285894495
 20
-1161.5636005798019
 42
-0.002329901106332
 10
923.7386906333893
 20
-1161.4504226402835
 10
923.75407476580915
 20
-1161.4418226451965
 42
-0.0107669341484053
 10
923.98831159090878
 20
-1161.3174225118478
 10
924.0105763919853
 20
-1161.306205761897
 42
-0.0078058045895926
 10
924.29416650993699
 20
-1161.168844306259
 10
924.30407359764718
 20
-1161.1642351783901
 42
-0.0181829330473932
 10
924.61438300225871
 20
-1161.033371437296
 10
924.66843844483174
 20
-1161.01285631735
 42
-0.0208411536025736
 10
925.01752341227984
 20
-1160.8967658548577
 10
925.03187951240682
 20
-1160.8926474099044
 42
-0.0222799817135775
 10
925.3605993063245
 20
-1160.8140058437639
 10
925.36948826956063
 20
-1160.812293833179
 42
-0.0215509523883742
 10
925.68595923784142
 20
-1160.7653781446447
 10
925.72844119889146
 20
-1160.7609406178537
 42
-0.0182545924873373
 10
925.96254997819551
 20
-1160.7450967924628
 10
926.00195099454572
 20
-1160.7438722473835
 42
-0.0072962856529016
 10
926.15787387423256
 20
-1160.7413029188615
 10
926.18697354479764
 20
-1160.7412480834578
 42
-0.0059227516312711
 10
926.2847230439495
 20
-1160.742221795248
 10
926.31396526140736
 20
-1160.742859561851
 42
-0.0011833111893293
 10
926.35321654515383
 20
-1160.7438085661615
 10
925.55782994954666
 20
-1163.2825425112605
 42
0.0143932051524636
 10
925.53142856719489
 20
-1163.2723435412147
 10
925.52415659477879
 20
-1163.2697723223578
 42
0.0234388603495701
 10
925.48232572884672
 20
-1163.2571530866426
 10
925.47364406593397
 20
-1163.2549721246376
 42
0.0199162742988359
 10
925.41335523185239
 20
-1163.2423553893022
 10
925.39254129404776
 20
-1163.238858189874
 42
0.0293643550670598
 10
925.28946643528752
 20
-1163.2277081442207
 10
925.26478125456833
 20
-1163.2264965272022
 42
0.0214606686870507
 10
925.11164033861701
 20
-1163.2255579667849
 10
925.10226842779787
 20
-1163.2259028783292
 42
0.0167564054187902
 10
924.93074823669042
 20
-1163.2379799206972
 10
924.92228844393048
 20
-1163.2388612611244
 42
0.0137677553246384
 10
924.73493513066614
 20
-1163.2636105696677
 10
924.72758339115785
 20
-1163.2647884896357
 42
0.0118497261481275
 10
924.52708562705527
 20
-1163.301805839825
 10
924.52093561980928
 20
-1163.303092702545
 42
0.0106421143891844
 10
924.31005473252526
 20
-1163.3519250781196
 10
924.30514592413522
 20
-1163.3531724208049
 42
0.0099746379706335
 10
924.08668745497073
 20
-1163.4133469491203
 10
924.02513941480242
 20
-1163.4316288277503
 42
0.0191613675860962
 10
923.68915495228782
 20
-1163.545606208037
 10
923.60109517953936
 20
-1163.5792931183623
 42
0.0205274080147135
 10
923.21578840764073
 20
-1163.7451215261879
 10
923.15813912565523
 20
-1163.7727894907619
 42
0.0181256912193595
 10
922.89986218499178
 20
-1163.9084733097379
 10
922.84690680167512
 20
-1163.9387909229542
 42
0.0140709242412418
 10
922.7019518670495
 20
-1164.0272855963872
 10
922.6757029984326
 20
-1164.0443424151017
 42
0.0086667884399223
 10
922.58677683688848
 20
-1164.1043450829854
 42
0.003640819201488
 10
922.4993435988797
 20
-1164.16652594076
 10
922.46411672438649
 20
-1164.1919668866906
 42
0.0052260781283436
 10
922.30788802698567
 20
-1164.3072992733321
 10
922.29168117073573
 20
-1164.3195273839428
 42
0.0050024435892504
 10
922.1056778276743
 20
-1164.4628099522072
 10
922.09035967116176
 20
-1164.4748559746508
 42
0.0136138710277092
 10
921.87991840283541
 20
-1164.6498224795653
 10
921.84625052704291
 20
-1164.6794014522784
 42
0.0172815186909998
 10
921.58184698538162
 20
-1164.9283981249005
 10
921.57928463953772
 20
-1164.9309839420489
 42
0.0189403857991616
 10
921.32870284095702
 20
-1165.2037892068552
 10
921.29607134742253
 20
-1165.2421331383507
 42
0.0185044199506342
 10
921.10411490844263
 20
-1165.4853817194735
 42
0.0088565243900613
 10
920.92565480181463
 20
-1165.738898139623
 10
920.91647682216569
 20
-1165.7524395193834
 42
0.0157195347224029
 10
920.73325621583353
 20
-1166.0419617286959
 10
920.68717327389925
 20
-1166.1201139257225
 42
0.0095451879781822
 10
920.52208772376309
 20
-1166.4127085680766
 10
920.51093980483574
 20
-1166.4333792402042
 42
0.0100351706254988
 10
920.3788960556742
 20
-1166.6904348006992
 42
0.0086935915428606
 10
920.25656490388008
 20
-1166.9522679461038
 10
920.25324416246565
 20
-1166.9597102690755
 42
0.0072580174864106
 10
920.13289771052462
 20
-1167.2403022606491
 10
920.1296360772144
 20
-1167.2482222866765
 42
0.0060005122612748
 10
920.01043540887395
 20
-1167.5478319572755
 10
920.00722443053007
 20
-1167.5561934851862
 42
0.0049017786978771
 10
919.88832427166892
 20
-1167.875122465801
 10
919.88515846528219
 20
-1167.8838754030212
 42
0.0039415167601332
 10
919.76572218722583
 20
-1168.2224174654334
 10
919.76259108457339
 20
-1168.2315206663104
 42
0.0031035838758816
 10
919.64178629888499
 20
-1168.5899605280695
 10
919.63867625434989
 20
-1168.5993811494586
 42
0.0025070747153372
 10
919.51577490303214
 20
-1168.9780283664102
 10
919.47848100660917
 20
-1169.0949200316556
 42
0.0029081910282878
 10
919.28646270880768
 20
-1169.7090836899165
 10
919.24565954028128
 20
-1169.8423069322232
 42
0.0009266453734886
 10
918.97724216595361
 20
-1170.7245313921896
 10
918.9563546933739
 20
-1170.793643271224
 42
-0.0005809993666427
 10
918.67901801273479
 20
-1171.7074513780217
 10
918.61273621446651
 20
-1171.924936310166
 42
-0.0012018708167282
 10
918.46575190503268
 20
-1172.4030989747021
 10
918.41343205345527
 20
-1172.5718581156057
 42
-0.0002691059615676
 10
918.36986257229853
 20
-1172.7121257359097
 10
915.53690667400929
 20
-1181.8012803382094
 10
913.71891778203076
 20
-1181.8012803382094
 10
919.97116719807866
 20
-1161.1575623016795
  0
SPLINE
  5
5A
100
AcDbEntity
  8
0
370
              15
390
0
  6
Continuous
 62
               7
100
AcDbSpline
210
0.0
220
0.0
230
1.0
 70
              13
 71
               2
 72
             782
 73
             779
 74
               0
 42
0.000001
 43
0.000001
 40
0.0
 40
0.0
 40
0.0
 40
1.0
 40
1.0
 40
2.0
 40
2.0
 40
3.0
 40
3.0
 40
4.0
 40
4.0
 40
5.0
 40
5.0
 40
6.0
 40
6.0
 40
7.0
 40
7.0
 40
8.0
 40
8.0
 40
9.0
 40
9.0
 40
10.0
 40
10.0
 40
11.0
 40
11.0
 40
12.0
 40
12.0
 40
13.0
 40
13.0
 40
14.0
 40
14.0
 40
15.0
 40
15.0
 40
16.0
 40
16.0
 40
17.0
 40
17.0
 40
18.0
 40
18.0
 40
19.0
 40
19.0
 40
20.0
 40
20.0
 40
21.0
 40
21.0
 40
22.0
 40
22.0
 40
23.0
 40
23.0
 40
24.0
 40
24.0
 40
25.0
 40
25.0
 40
26.0
 40
26.0
 40
27.0
 40
27.0
 40
28.0
 40
28.0
 40
29.0
 40
29.0
 40
30.0
 40
30.0
 40
31.0
 40
31.0
 40
32.0
 40
32.0
 40
33.0
 40
33.0
 40
34.0
 40
34.0
 40
35.0
 40
35.0
 40
36.0
 40
36.0
 40
37.0
 40
37.0
 40
38.0
 40
38.0
 40
39.0
 40
39.0
 40
40.0
 40
40.0
 40
41.0
 40
41.0
 40
42.0
 40
42.0
 40
43.0
 40
43.0
 40
44.0
 40
44.0
 40
45.0
 40
45.0
 40
46.0
 40
46.0
 40
47.0
 40
47.0
 40
48.0
 40
48.0
 40
49.0
 40
49.0
 40
50.0
 40
50.0
 40
51.0
 40
51.0
 40
52.0
 40
52.0
 40
53.0
 40
53.0
 40
54.0
 40
54.0
 40
55.0
 40
55.0
 40
56.0
 40
56.0
 40
57.0
 40
57.0
 40
58.0
 40
58.0
 40
59.0
 40
59.0
 40
60.0
 40
60.0
 40
61.0
 40
61.0
 40
62.0
 40
62.0
 40
63.0
 40
63.0
 40
64.0
 40
64.0
 40
65.0
 40
65.0
 40
66.0
 40
66.0
 40
67.0
 40
67.0
 40
68.0
 40
68.0
 40
69.0
 40
69.0
 40
70.0
 40
70.0
 40
71.0
 40
71.0
 40
72.0
 40
72.0
 40
73.0
 40
73.0
 40
74.0
 40
74.0
 40
75.0
 40
75.0
 40
76.0
 40
76.0
 40
77.0
 40
77.0
 40
78.0
 40
78.0
 40
79.0
 40
79.0
 40
80.0
 40
80.0
 40
81.0
 40
81.0
 40
82.0
 40
82.0
 40
83.0
 40
83.0
 40
84.0
 40
84.0
 40
85.0
 40
85.0
 40
86.0
 40
86.0
 40
87.0
 40
87.0
 40
88.0
 40
88.0
 40
89.0
 40
89.0
 40
90.0
 40
90.0
 40
91.0
 40
91.0
 40
92.0
 40
92.0
 40
93.0
 40
93.0
 40
94.0
 40
94.0
 40
95.0
 40
95.0
 40
96.0
 40
96.0
 40
97.0
 40
97.0
 40
98.0
 40
98.0
 40
99.0
 40
99.0
 40
100.0
 40
100.0
 40
101.0
 40
101.0
 40
102.0
 40
102.0
 40
103.0
 40
103.0
 40
104.0
 40
104.0
 40
105.0
 40
105.0
 40
106.0
 40
106.0
 40
107.0
 40
107.0
 40
108.0
 40
108.0
 40
109.0
 40
109.0
 40
110.0
 40
110.0
 40
111.0
 40
111.0
 40
112.0
 40
112.0
 40
113.0
 40
113.0
 40
114.0
 40
114.0
 40
115.0
 40
115.0
 40
116.0
 40
116.0
 40
117.0
 40
117.0
 40
118.0
 40
118.0
 40
119.0
 40
119.0
 40
120.0
 40
120.0
 40
121.0
 40
121.0
 40
122.0
 40
122.0
 40
123.0
 40
123.0
 40
124.0
 40
124.0
 40
125.0
 40
125.0
 40
126.0
 40
126.0
 40
127.0
 40
127.0
 40
128.0
 40
128.0
 40
129.0
 40
129.0
 40
130.0
 40
130.0
 40
131.0
 40
131.0
 40
132.0
 40
132.0
 40
133.0
 40
133.0
 40
134.0
 40
134.0
 40
135.0
 40
135.0
 40
136.0
 40
136.0
 40
137.0
 40
137.0
 40
138.0
 40
138.0
 40
139.0
 40
139.0
 40
140.0
 40
140.0
 40
141.0
 40
141.0
 40
142.0
 40
142.0
 40
143.0
 40
143.0
 40
144.0
 40
144.0
 40
145.0
 40
145.0
 40
146.0
 40
146.0
 40
147.0
 40
147.0
 40
148.0
 40
148.0
 40
149.0
 40
149.0
 40
150.0
 40
150.0
 40
151.0
 40
151.0
 40
152.0
 40
152.0
 40
153.0
 40
153.0
 40
154.0
 40
154.0
 40
155.0
 40
155.0
 40
156.0
 40
156.0
 40
157.0
 40
157.0
 40
158.0
 40
158.0
 40
159.0
 40
159.0
 40
160.0
 40
160.0
 40
161.0
 40
161.0
 40
162.0
 40
162.0
 40
163.0
 40
163.0
 40
164.0
 40
164.0
 40
165.0
 40
165.0
 40
166.0
 40
166.0
 40
167.0
 40
167.0
 40
168.0
 40
168.0
 40
169.0
 40
169.0
 40
170.0
 40
170.0
 40
171.0
 40
171.0
 40
172.0
 40
172.0
 40
173.0
 40
173.0
 40
174.0
 40
174.0
 40
175.0
 40
175.0
 40
176.0
 40
176.0
 40
177.0
 40
177.0
 40
178.0
 40
178.0
 40
179.0
 40
179.0
 40
180.0
 40
180.0
 40
181.0
 40
181.0
 40
182.0
 40
182.0
 40
183.0
 40
183.0
 40
184.0
 40
184.0
 40
185.0
 40
185.0
 40
186.0
 40
186.0
 40
187.0
 40
187.0
 40
188.0
 40
188.0
 40
189.0
 40
189.0
 40
190.0
 40
190.0
 40
191.0
 40
191.0
 40
192.0
 40
192.0
 40
193.0
 40
193.0
 40
194.0
 40
194.0
 40
195.0
 40
195.0
 40
196.0
 40
196.0
 40
197.0
 40
197.0
 40
198.0
 40
198.0
 40
199.0
 40
199.0
 40
200.0
 40
200.0
 40
201.0
 40
201.0
 40
202.0
 40
202.0
 40
203.0
 40
203.0
 40
204.0
 40
204.0
 40
205.0
 40
205.0
 40
206.0
 40
206.0
 40
207.0
 40
207.0
 40
208.0
 40
208.0
 40
209.0
 40
209.0
 40
210.0
 40
210.0
 40
211.0
 40
211.0
 40
212.0
 40
212.0
 40
213.0
 40
213.0
 40
214.0
 40
214.0
 40
215.0
 40
215.0
 40
216.0
 40
216.0
 40
217.0
 40
217.0
 40
218.0
 40
218.0
 40
219.0
 40
219.0
 40
220.0
 40
220.0
 40
221.0
 40
221.0
 40
222.0
 40
222.0
 40
223.0
 40
223.0
 40
224.0
 40
224.0
 40
225.0
 40
225.0
 40
226.0
 40
226.0
 40
227.0
 40
227.0
 40
228.0
 40
228.0
 40
229.0
 40
229.0
 40
230.0
 40
230.0
 40
231.0
 40
231.0
 40
232.0
 40
232.0
 40
233.0
 40
233.0
 40
234.0
 40
234.0
 40
235.0
 40
235.0
 40
236.0
 40
236.0
 40
237.0
 40
237.0
 40
238.0
 40
238.0
 40
239.0
 40
239.0
 40
240.0
 40
240.0
 40
241.0
 40
241.0
 40
242.0
 40
242.0
 40
243.0
 40
243.0
 40
244.0
 40
244.0
 40
245.0
 40
245.0
 40
246.0
 40
246.0
 40
247.0
 40
247.0
 40
248.0
 40
248.0
 40
249.0
 40
249.0
 40
250.0
 40
250.0
 40
251.0
 40
251.0
 40
252.0
 40
252.0
 40
253.0
 40
253.0
 40
254.0
 40
254.0
 40
255.0
 40
255.0
 40
256.0
 40
256.0
 40
257.0
 40
257.0
 40
258.0
 40
258.0
 40
259.0
 40
259.0
 40
260.0
 40
260.0
 40
261.0
 40
261.0
 40
262.0
 40
262.0
 40
263.0
 40
263.0
 40
264.0
 40
264.0
 40
265.0
 40
265.0
 40
266.0
 40
266.0
 40
267.0
 40
267.0
 40
268.0
 40
268.0
 40
269.0
 40
269.0
 40
270.0
 40
270.0
 40
271.0
 40
271.0
 40
272.0
 40
272.0
 40
273.0
 40
273.0
 40
274.0
 40
274.0
 40
275.0
 40
275.0
 40
276.0
 40
276.0
 40
277.0
 40
277.0
 40
278.0
 40
278.0
 40
279.0
 40
279.0
 40
280.0
 40
280.0
 40
281.0
 40
281.0
 40
282.0
 40
282.0
 40
283.0
 40
283.0
 40
284.0
 40
284.0
 40
285.0
 40
285.0
 40
286.0
 40
286.0
 40
287.0
 40
287.0
 40
288.0
 40
288.0
 40
289.0
 40
289.0
 40
290.0
 40
290.0
 40
291.0
 40
291.0
 40
292.0
 40
292.0
 40
293.0
 40
293.0
 40
294.0
 40
294.0
 40
295.0
 40
295.0
 40
296.0
 40
296.0
 40
297.0
 40
297.0
 40
298.0
 40
298.0
 40
299.0
 40
299.0
 40
300.0
 40
300.0
 40
301.0
 40
301.0
 40
302.0
 40
302.0
 40
303.0
 40
303.0
 40
304.0
 40
304.0
 40
305.0
 40
305.0
 40
306.0
 40
306.0
 40
307.0
 40
307.0
 40
308.0
 40
308.0
 40
309.0
 40
309.0
 40
310.0
 40
310.0
 40
311.0
 40
311.0
 40
312.0
 40
312.0
 40
313.0
 40
313.0
 40
314.0
 40
314.0
 40
315.0
 40
315.0
 40
316.0
 40
316.0
 40
317.0
 40
317.0
 40
318.0
 40
318.0
 40
319.0
 40
319.0
 40
320.0
 40
320.0
 40
321.0
 40
321.0
 40
322.0
 40
322.0
 40
323.0
 40
323.0
 40
324.0
 40
324.0
 40
325.0
 40
325.0
 40
326.0
 40
326.0
 40
327.0
 40
327.0
 40
328.0
 40
328.0
 40
329.0
 40
329.0
 40
330.0
 40
330.0
 40
331.0
 40
331.0
 40
332.0
 40
332.0
 40
333.0
 40
333.0
 40
334.0
 40
334.0
 40
335.0
 40
335.0
 40
336.0
 40
336.0
 40
337.0
 40
337.0
 40
338.0
 40
338.0
 40
339.0
 40
339.0
 40
340.0
 40
340.0
 40
341.0
 40
341.0
 40
342.0
 40
342.0
 40
343.0
 40
343.0
 40
344.0
 40
344.0
 40
345.0
 40
345.0
 40
346.0
 40
346.0
 40
347.0
 40
347.0
 40
348.0
 40
348.0
 40
349.0
 40
349.0
 40
350.0
 40
350.0
 40
351.0
 40
351.0
 40
352.0
 40
352.0
 40
353.0
 40
353.0
 40
354.0
 40
354.0
 40
355.0
 40
355.0
 40
356.0
 40
356.0
 40
357.0
 40
357.0
 40
358.0
 40
358.0
 40
359.0
 40
359.0
 40
360.0
 40
360.0
 40
361.0
 40
361.0
 40
362.0
 40
362.0
 40
363.0
 40
363.0
 40
364.0
 40
364.0
 40
365.0
 40
365.0
 40
366.0
 40
366.0
 40
367.0
 40
367.0
 40
368.0
 40
368.0
 40
369.0
 40
369.0
 40
370.0
 40
370.0
 40
371.0
 40
371.0
 40
372.0
 40
372.0
 40
373.0
 40
373.0
 40
374.0
 40
374.0
 40
375.0
 40
375.0
 40
376.0
 40
376.0
 40
377.0
 40
377.0
 40
378.0
 40
378.0
 40
379.0
 40
379.0
 40
380.0
 40
380.0
 40
381.0
 40
381.0
 40
382.0
 40
382.0
 40
383.0
 40
383.0
 40
384.0
 40
384.0
 40
385.0
 40
385.0
 40
386.0
 40
386.0
 40
387.0
 40
387.0
 40
388.0
 40
388.0
 40
389.0
 40
389.0
 40
389.0
 10
930.29987164881129
 20
-1161.1466359383171
 30
0.0
 41
1.0
 10
931.11829575753177
 20
-1161.1466359383171
 30
0.0
 41
1.0
 10
931.93671986625225
 20
-1161.1466359383171
 30
0.0
 41
1.0
 10
931.52296613073554
 20
-1162.4892622025668
 30
0.0
 41
1.0
 10
931.10921239521872
 20
-1163.8318884668165
 30
0.0
 41
1.0
 10
931.12755189038626
 20
-1163.8031876939058
 30
0.0
 41
0.9999957264340734
 10
931.14605888723565
 20
-1163.7745946437262
 30
0.0
 41
1.0
 10
931.1764882113639
 20
-1163.7275817653644
 30
0.0
 41
1.0
 10
931.20691753549204
 20
-1163.6805688870027
 30
0.0
 41
1.0
 10
931.2862831805985
 20
-1163.5579500800984
 30
0.0
 41
0.9995394069080581
 10
931.3729415721516
 20
-1163.4403720183554
 30
0.0
 41
1.0
 10
931.40869843441237
 20
-1163.3918571257605
 30
0.0
 41
1.0
 10
931.44445529667325
 20
-1163.3433422331655
 30
0.0
 41
1.0
 10
931.57818196449057
 20
-1163.1619019580405
 30
0.0
 41
0.9994460617143309
 10
931.72368244577569
 20
-1162.9897595603943
 30
0.0
 41
1.0
 10
931.72807062675201
 20
-1162.9845678800102
 30
0.0
 41
1.0
 10
931.73245880772845
 20
-1162.9793761996259
 30
0.0
 41
1.0
 10
931.86918292706423
 20
-1162.817617162744
 30
0.0
 41
0.9994359394934378
 10
932.01645715741506
 20
-1162.66540096158
 30
0.0
 41
1.0
 10
932.01884051136688
 20
-1162.6629376312085
 30
0.0
 41
1.0
 10
932.02122386531869
 20
-1162.6604743008368
 30
0.0
 41
1.0
 10
932.16373138776441
 20
-1162.5131847604173
 30
0.0
 41
0.999529368856773
 10
932.31500306874864
 20
-1162.374911548251
 30
0.0
 41
1.0
 10
932.33429682800966
 20
-1162.357275662602
 30
0.0
 41
1.0
 10
932.35359058727079
 20
-1162.3396397769529
 30
0.0
 41
1.0
 10
932.46627474973047
 20
-1162.2366383360873
 30
0.0
 41
0.99970876148039
 10
932.58379763868584
 20
-1162.1391940552892
 30
0.0
 41
1.0
 10
932.6029637118711
 20
-1162.123302476773
 30
0.0
 41
1.0
 10
932.62212978505647
 20
-1162.1074108982571
 30
0.0
 41
1.0
 10
932.70132052764779
 20
-1162.0417497744857
 30
0.0
 41
0.9999595338701152
 10
932.78167979849604
 20
-1161.9775240438362
 30
0.0
 41
1.0
 10
932.86203906936078
 20
-1161.913298313174
 30
0.0
 41
0.9999749417497325
 10
932.94329960370794
 20
-1161.8502167592246
 30
0.0
 41
1.0
 10
932.96428574986498
 20
-1161.8339254719272
 30
0.0
 41
1.0
 10
932.98527189602214
 20
-1161.8176341846297
 30
0.0
 41
1.0
 10
933.06983978132359
 20
-1161.7519851747891
 30
0.0
 41
0.9999792037126249
 10
933.15524738109707
 20
-1161.6874323931424
 30
0.0
 41
1.0
 10
933.17607220707259
 20
-1161.6716925708361
 30
0.0
 41
1.0
 10
933.19689703304812
 20
-1161.6559527485299
 30
0.0
 41
1.0
 10
933.2406549809275
 20
-1161.6228796114526
 30
0.0
 41
0.9999993373911212
 10
933.28433666700971
 20
-1161.5897058160747
 30
0.0
 41
1.0
 10
933.32801835315365
 20
-1161.5565320206501
 30
0.0
 41
0.9999160953814502
 10
933.37254476407406
 20
-1161.5245009554512
 30
0.0
 41
1.0
 10
933.40536665149284
 20
-1161.5008897998669
 30
0.0
 41
1.0
 10
933.4381885389115
 20
-1161.4772786442827
 30
0.0
 41
1.0
 10
933.54835872467049
 20
-1161.3980252679144
 30
0.0
 41
0.9980964527231465
 10
933.66744771817071
 20
-1161.3329377950588
 30
0.0
 41
1.0
 10
933.70448032510012
 20
-1161.3126978154651
 30
0.0
 41
1.0
 10
933.74151293202942
 20
-1161.2924578358711
 30
0.0
 41
1.0
 10
933.92083994530083
 20
-1161.1944475851708
 30
0.0
 41
0.9984572810572661
 10
934.10992851165884
 20
-1161.1169253238249
 30
0.0
 41
1.0
 10
934.11357478105367
 20
-1161.1154304314873
 30
0.0
 41
1.0
 10
934.11722105044851
 20
-1161.1139355391499
 30
0.0
 41
1.0
 10
934.29901707801673
 20
-1161.0394030624789
 30
0.0
 41
0.9987838528033862
 10
934.48726973657699
 20
-1160.9831374223127
 30
0.0
 41
1.0
 10
934.4915076857742
 20
-1160.9818707686229
 30
0.0
 41
1.0
 10
934.49574563497151
 20
-1160.9806041149332
 30
0.0
 41
1.0
 10
934.67552239513429
 20
-1160.9268717821474
 30
0.0
 41
0.9990652816207084
 10
934.85926832685209
 20
-1160.8888681026049
 30
0.0
 41
1.0
 10
934.86445672788182
 20
-1160.8877949994987
 30
0.0
 41
1.0
 10
934.86964512891166
 20
-1160.8867218963926
 30
0.0
 41
1.0
 10
935.04301425856613
 20
-1160.8508644230631
 30
0.0
 41
0.9992909934270304
 10
935.21859002502629
 20
-1160.8281539905963
 30
0.0
 41
1.0
 10
935.39416579148269
 20
-1160.80544355813
 30
0.0
 41
0.9994553539448484
 10
935.57085722457441
 20
-1160.7943642539237
 30
0.0
 41
1.0
 10
935.60629163237218
 20
-1160.7921423658759
 30
0.0
 41
1.0
 10
935.64172604016983
 20
-1160.789920477828
 30
0.0
 41
1.0
 10
935.80795180673908
 20
-1160.7794974154162
 30
0.0
 41
0.9990928098293203
 10
935.97446159864103
 20
-1160.7832570566507
 30
0.0
 41
1.0
 10
936.01302343391262
 20
-1160.7841277481837
 30
0.0
 41
1.0
 10
936.05158526918422
 20
-1160.7849984397167
 30
0.0
 41
1.0
 10
936.14097139054343
 20
-1160.7870166978853
 30
0.0
 41
0.9998382089206531
 10
936.23022707332984
 20
-1160.7922488244135
 30
0.0
 41
1.0
 10
936.23065697954962
 20
-1160.7922740253157
 30
0.0
 41
1.0
 10
936.2310868857694
 20
-1160.7922992262179
 30
0.0
 41
1.0
 10
936.31948275611603
 20
-1160.7974809509415
 30
0.0
 41
0.9997558016757405
 10
936.40756333331683
 20
-1160.806563466308
 30
0.0
 41
1.0
 10
936.40803947174743
 20
-1160.8066125637906
 30
0.0
 41
1.0
 10
936.40851561017803
 20
-1160.8066616612734
 30
0.0
 41
1.0
 10
936.49564391051854
 20
-1160.8156459816746
 30
0.0
 41
0.9996565144181644
 10
936.58218176385981
 20
-1160.8291832883633
 30
0.0
 41
1.0
 10
936.58264768923755
 20
-1160.8292561740946
 30
0.0
 41
1.0
 10
936.58311361461517
 20
-1160.829329059826
 30
0.0
 41
1.0
 10
936.66871961720187
 20
-1160.8427205950525
 30
0.0
 41
0.9995321806867614
 10
936.75334669752976
 20
-1160.8613210834817
 30
0.0
 41
1.0
 10
936.75373589210108
 20
-1160.8614066259474
 30
0.0
 41
1.0
 10
936.7541250866725
 20
-1160.8614921684132
 30
0.0
 41
1.0
 10
936.8379737778572
 20
-1160.8799215719109
 30
0.0
 41
0.9993819199219686
 10
936.92032031205395
 20
-1160.9041969551718
 30
0.0
 41
1.0
 10
936.92055874555172
 20
-1160.9042672442811
 30
0.0
 41
1.0
 10
936.92079717904949
 20
-1160.9043375333904
 30
0.0
 41
1.0
 10
937.00266684624955
 20
-1160.9284723384319
 30
0.0
 41
0.9992088568504717
 10
937.0823593652384
 20
-1160.9590375742268
 30
0.0
 41
1.0
 10
937.16204035611759
 20
-1160.98959717496
 30
0.0
 41
0.99902261017734
 10
937.23871102602459
 20
-1161.0270746065744
 30
0.0
 41
1.0
 10
937.31537016782192
 20
-1161.0645464031275
 30
0.0
 41
0.9988424273972379
 10
937.38807379503442
 20
-1161.1092111783805
 30
0.0
 41
1.0
 10
937.38834150341404
 20
-1161.109375642453
 30
0.0
 41
1.0
 10
937.38860921179366
 20
-1161.1095401065254
 30
0.0
 41
1.0
 10
937.46184825576461
 20
-1161.1545338099227
 30
0.0
 41
0.998692884449067
 10
937.53011112247441
 20
-1161.2067695442024
 30
0.0
 41
1.0
 10
937.53069241469711
 20
-1161.2072143574303
 30
0.0
 41
1.0
 10
937.53127370691982
 20
-1161.2076591706582
 30
0.0
 41
1.0
 10
937.6006991580748
 20
-1161.2607845313933
 30
0.0
 41
0.9986007262277985
 10
937.66412532784125
 20
-1161.3209453010866
 30
0.0
 41
1.0
 10
937.66501974329879
 20
-1161.3217936689221
 30
0.0
 41
1.0
 10
937.66591415875632
 20
-1161.3226420367573
 30
0.0
 41
1.0
 10
937.73112915943818
 20
-1161.3844995421216
 30
0.0
 41
0.9985581491381195
 10
937.78933677113935
 20
-1161.4529920323928
 30
0.0
 41
1.0
 10
937.79859522473498
 20
-1161.4638863900946
 30
0.0
 41
1.0
 10
937.80785367833073
 20
-1161.4747807477961
 30
0.0
 41
1.0
 10
937.8845781972243
 20
-1161.5650619534715
 30
0.0
 41
0.9970460233520636
 10
937.9465700983842
 20
-1161.6660290376537
 30
0.0
 41
1.0
 10
937.96103946346375
 20
-1161.6895954967349
 30
0.0
 41
1.0
 10
937.9755088285433
 20
-1161.7131619558163
 30
0.0
 41
1.0
 10
938.01524552855506
 20
-1161.7778816798475
 30
0.0
 41
0.9988468816637008
 10
938.0485918993063
 20
-1161.8461141322746
 30
0.0
 41
1.0
 10
938.05562792179842
 20
-1161.8605110534131
 30
0.0
 41
1.0
 10
938.06266394429053
 20
-1161.8749079745519
 30
0.0
 41
1.0
 10
938.08193827005812
 20
-1161.914346584703
 30
0.0
 41
0.9998431189996929
 10
938.09980359755286
 20
-1161.954443139143
 30
0.0
 41
1.0
 10
938.11766892506489
 20
-1161.9945396936223
 30
0.0
 41
0.9999989989972418
 10
938.13564764850821
 20
-1162.0345855312535
 30
0.0
 41
1.0
 10
938.14181996008324
 20
-1162.0483337480232
 30
0.0
 41
1.0
 10
938.14799227165827
 20
-1162.0620819647929
 30
0.0
 41
1.0
 10
938.17831561826631
 20
-1162.1296242359958
 30
0.0
 41
0.999879035632118
 10
938.20652349840441
 20
-1162.1980769879337
 30
0.0
 41
1.0
 10
938.21335867969003
 20
-1162.2146640893643
 30
0.0
 41
1.0
 10
938.22019386097566
 20
-1162.2312511907949
 30
0.0
 41
1.0
 10
938.24375152335676
 20
-1162.2884191456824
 30
0.0
 41
0.9998227574560588
 10
938.26514027174494
 20
-1162.3464334539567
 30
0.0
 41
1.0
 10
938.28652902013471
 20
-1162.4044477622358
 30
0.0
 41
0.9996797971041512
 10
938.30495530509313
 20
-1162.4634698813513
 30
0.0
 41
1.0
 10
938.30885910781876
 20
-1162.4759743395207
 30
0.0
 41
1.0
 10
938.31276291054451
 20
-1162.4884787976903
 30
0.0
 41
1.0
 10
938.33899680095476
 20
-1162.5725098331459
 30
0.0
 41
0.9979274938733926
 10
938.35422132443387
 20
-1162.6592141918059
 30
0.0
 41
1.0
 10
938.3564450116952
 20
-1162.6718781926279
 30
0.0
 41
1.0
 10
938.35866869895654
 20
-1162.6845421934497
 30
0.0
 41
1.0
 10
938.36959863865479
 20
-1162.7467887007397
 30
0.0
 41
0.9994985982136752
 10
938.37656680383157
 20
-1162.8096022018813
 30
0.0
 41
1.0
 10
938.38353496900834
 20
-1162.872415703019
 30
0.0
 41
0.9996372611200984
 10
938.38711083477608
 20
-1162.9355132817018
 30
0.0
 41
1.0
 10
938.38727941226557
 20
-1162.9384878987858
 30
0.0
 41
1.0
 10
938.38744798975495
 20
-1162.9414625158697
 30
0.0
 41
1.0
 10
938.39136101050144
 20
-1163.0105093287148
 30
0.0
 41
0.9997730630735139
 10
938.39232932398932
 20
-1163.0796601527475
 30
0.0
 41
1.0
 10
938.39238643040744
 20
-1163.0837383318906
 30
0.0
 41
1.0
 10
938.39244353682557
 20
-1163.0878165110337
 30
0.0
 41
1.0
 10
938.39352606314969
 20
-1163.1651236933576
 30
0.0
 41
0.9998772614072637
 10
938.39218597641809
 20
-1163.2424268399207
 30
0.0
 41
1.0
 10
938.39209671321942
 20
-1163.2475760037532
 30
0.0
 41
1.0
 10
938.39200745002063
 20
-1163.2527251675858
 30
0.0
 41
1.0
 10
938.39048883689122
 20
-1163.3403266418245
 30
0.0
 41
0.9999415567324111
 10
938.38707652664516
 20
-1163.4278748035038
 30
0.0
 41
1.0
 10
938.38683520596999
 20
-1163.4340662632367
 30
0.0
 41
1.0
 10
938.38659388529481
 20
-1163.4402577229698
 30
0.0
 41
1.0
 10
938.38269893369829
 20
-1163.5401888041201
 30
0.0
 41
0.9999716810431689
 10
938.37730035057984
 20
-1163.6400499423469
 30
0.0
 41
1.0
 10
938.37408755179058
 20
-1163.6994791920124
 30
0.0
 41
1.0
 10
938.37087475300132
 20
-1163.7589084416779
 30
0.0
 41
1.0
 10
938.36280084384907
 20
-1163.9082568429517
 30
0.0
 41
0.9999819129896703
 10
938.35293105223286
 20
-1164.0574973206553
 30
0.0
 41
1.0
 10
938.34306126061631
 20
-1164.2067377983667
 30
0.0
 41
1.0
 10
938.34062194005242
 20
-1164.243930844216
 30
0.0
 41
1.0
 10
938.36332017392749
 20
-1164.2051898468119
 30
0.0
 41
0.9999982128193935
 10
938.38616473270929
 20
-1164.1665349528091
 30
0.0
 41
1.0
 10
938.41307429255892
 20
-1164.1210017388134
 30
0.0
 41
1.0
 10
938.43998385240855
 20
-1164.075468524818
 30
0.0
 41
1.0
 10
938.51664753093155
 20
-1163.9457472027527
 30
0.0
 41
0.9998609190058746
 10
938.59759484379163
 20
-1163.8186548208259
 30
0.0
 41
1.0
 10
938.62724316527374
 20
-1163.7721050878683
 30
0.0
 41
1.0
 10
938.65689148675574
 20
-1163.7255553549107
 30
0.0
 41
1.0
 10
938.7391637069951
 20
-1163.5963827849118
 30
0.0
 41
0.9999067609731702
 10
938.82493271646081
 20
-1163.4695050954683
 30
0.0
 41
1.0
 10
938.82733741966035
 20
-1163.4659478294157
 30
0.0
 41
1.0
 10
938.8297421228599
 20
-1163.4623905633628
 30
0.0
 41
1.0
 10
938.91070172592447
 20
-1163.3426274060273
 30
0.0
 41
0.99987849521479
 10
938.99535533560618
 20
-1163.2254461893181
 30
0.0
 41
1.0
 10
939.08000894528914
 20
-1163.1082649726075
 30
0.0
 41
0.9998532968284247
 10
939.16862656611295
 20
-1162.9940520641355
 30
0.0
 41
1.0
 10
939.18858835510105
 20
-1162.9683247431192
 30
0.0
 41
1.0
 10
939.20855014408926
 20
-1162.9425974221028
 30
0.0
 41
1.0
 10
939.32703419384961
 20
-1162.7898918111321
 30
0.0
 41
0.9991551975795099
 10
939.45765864347482
 20
-1162.6474322490467
 30
0.0
 41
1.0
 10
939.4611682594533
 20
-1162.6436046474237
 30
0.0
 41
1.0
 10
939.46467787543179
 20
-1162.6397770458007
 30
0.0
 41
1.0
 10
939.58828309309672
 20
-1162.5049726869649
 30
0.0
 41
0.9997418144180621
 10
939.71788523279884
 20
-1162.3759232763507
 30
0.0
 41
1.0
 10
939.84748737249856
 20
-1162.246873865739
 30
0.0
 41
0.9989238204632881
 10
939.98848992074863
 20
-1162.130388903701
 30
0.0
 41
1.0
 10
940.03373759889155
 20
-1162.0930089120895
 30
0.0
 41
1.0
 10
940.07898527703435
 20
-1162.0556289204781
 30
0.0
 41
1.0
 10
940.21922533425413
 20
-1161.9397738671887
 30
0.0
 41
0.9990825084096954
 10
940.36886526685498
 20
-1161.8363448693581
 30
0.0
 41
1.0
 10
940.37891063091308
 20
-1161.8294016562777
 30
0.0
 41
1.0
 10
940.38895599497118
 20
-1161.8224584431973
 30
0.0
 41
1.0
 10
940.51850519945867
 20
-1161.7329158715252
 30
0.0
 41
0.9998164899825629
 10
940.65138940283521
 20
-1161.6484016300087
 30
0.0
 41
1.0
 10
940.66323496335917
 20
-1161.6408678634843
 30
0.0
 41
1.0
 10
940.67508052388314
 20
-1161.63333409696
 30
0.0
 41
1.0
 10
940.78427360621083
 20
-1161.5638873884925
 30
0.0
 41
0.9997473449130689
 10
940.89647756346085
 20
-1161.4994184306765
 30
0.0
 41
1.0
 10
941.00868152070495
 20
-1161.4349494728638
 30
0.0
 41
0.999932786114679
 10
941.12235013146881
 20
-1161.3730994811822
 30
0.0
 41
1.0
 10
941.12290213403207
 20
-1161.3727991225016
 30
0.0
 41
1.0
 10
941.12345413659523
 20
-1161.3724987638211
 30
0.0
 41
1.0
 10
941.23822675248164
 20
-1161.3100480547807
 30
0.0
 41
0.9996956420484265
 10
941.35594007832333
 20
-1161.2533345878053
 30
0.0
 41
1.0
 10
941.38638048321604
 20
-1161.2386686110754
 30
0.0
 41
1.0
 10
941.41682088810865
 20
-1161.2240026343454
 30
0.0
 41
1.0
 10
941.51979799485105
 20
-1161.1743889759025
 30
0.0
 41
0.9998070570176726
 10
941.6246443837905
 20
-1161.1288583890023
 30
0.0
 41
1.0
 10
941.72949077272949
 20
-1161.0833278021018
 30
0.0
 41
0.9997827436147982
 10
941.83614370933537
 20
-1161.0422066307917
 30
0.0
 41
1.0
 10
941.85536655896976
 20
-1161.0347950571581
 30
0.0
 41
1.0
 10
941.87458940860415
 20
-1161.0273834835245
 30
0.0
 41
1.0
 10
942.01968804447711
 20
-1160.9714391649477
 30
0.0
 41
0.9988031841976705
 10
942.16955840708192
 20
-1160.9299391007798
 30
0.0
 41
1.0
 10
942.1944756554459
 20
-1160.9230393549728
 30
0.0
 41
1.0
 10
942.21939290380988
 20
-1160.9161396091658
 30
0.0
 41
1.0
 10
942.38666292945641
 20
-1160.8698214667593
 30
0.0
 41
0.9984748040550282
 10
942.55801983810409
 20
-1160.8422272344947
 30
0.0
 41
1.0
 10
942.56275897435319
 20
-1160.8414640739811
 30
0.0
 41
1.0
 10
942.56749811060229
 20
-1160.8407009134678
 30
0.0
 41
1.0
 10
942.72937674675325
 20
-1160.8146330022298
 30
0.0
 41
0.9984436495479846
 10
942.89315149047775
 20
-1160.8067550484111
 30
0.0
 41
1.0
 10
942.91484869860903
 20
-1160.8057113612115
 30
0.0
 41
1.0
 10
942.93654590674032
 20
-1160.8046676740119
 30
0.0
 41
1.0
 10
943.05692623420248
 20
-1160.7988770945924
 30
0.0
 41
0.9987954789335171
 10
943.17729447911233
 20
-1160.8049136223347
 30
0.0
 41
1.0
 10
943.19725927160812
 20
-1160.8059148666734
 30
0.0
 41
1.0
 10
943.21722406410402
 20
-1160.806916111012
 30
0.0
 41
1.0
 10
943.29766272402367
 20
-1160.8109501500771
 30
0.0
 41
0.9997941595877944
 10
943.37787150211659
 20
-1160.818244215998
 30
0.0
 41
1.0
 10
943.45808028021474
 20
-1160.8255382819195
 30
0.0
 41
0.9998589466236151
 10
943.53799882707324
 20
-1160.8355221363699
 30
0.0
 41
1.0
 10
943.57040502887787
 20
-1160.8395704932886
 30
0.0
 41
1.0
 10
943.60281123068251
 20
-1160.8436188502076
 30
0.0
 41
1.0
 10
943.74754218115277
 20
-1160.8616994184958
 30
0.0
 41
0.9993495063249256
 10
943.89059342491726
 20
-1160.8901651282374
 30
0.0
 41
1.0
 10
943.92352712206878
 20
-1160.8967185914521
 30
0.0
 41
1.0
 10
943.9564608192203
 20
-1160.9032720546668
 30
0.0
 41
1.0
 10
944.0657546424269
 20
-1160.9250203888023
 30
0.0
 41
0.9996788715560276
 10
944.17380621438463
 20
-1160.9522781881658
 30
0.0
 41
1.0
 10
944.17586921692441
 20
-1160.9527986147389
 30
0.0
 41
1.0
 10
944.1779322194642
 20
-1160.9533190413119
 30
0.0
 41
1.0
 10
944.28185778634236
 20
-1160.9795359875293
 30
0.0
 41
0.999548065449272
 10
944.38402002157045
 20
-1161.0119509441533
 30
0.0
 41
1.0
 10
944.38570966369957
 20
-1161.0124870490672
 30
0.0
 41
1.0
 10
944.38739930582869
 20
-1161.0130231539813
 30
0.0
 41
1.0
 10
944.48618225680048
 20
-1161.0443659007778
 30
0.0
 41
0.9993867959456048
 10
944.58252941524245
 20
-1161.0825452700674
 30
0.0
 41
1.0
 10
944.58377236432659
 20
-1161.0830378119633
 30
0.0
 41
1.0
 10
944.58501531341074
 20
-1161.0835303538593
 30
0.0
 41
1.0
 10
944.67887657368351
 20
-1161.1207246393565
 30
0.0
 41
0.9992050256521891
 10
944.76947624871832
 20
-1161.1652785385959
 30
0.0
 41
1.0
 10
944.77021093143162
 20
-1161.1656398310572
 30
0.0
 41
1.0
 10
944.77094561414503
 20
-1161.1660011235185
 30
0.0
 41
1.0
 10
944.86007592375199
 20
-1161.2098324378348
 30
0.0
 41
0.9990222350741262
 10
944.94498598514542
 20
-1161.2613657055331
 30
0.0
 41
1.0
 10
944.94516987042812
 20
-1161.2614773084379
 30
0.0
 41
1.0
 10
944.94535375571081
 20
-1161.2615889113426
 30
0.0
 41
1.0
 10
945.02989604653919
 20
-1161.3128989732313
 30
0.0
 41
0.9988642743805022
 10
945.10917058115797
 20
-1161.3720231607565
 30
0.0
 41
1.0
 10
945.18844511577674
 20
-1161.4311473482817
 30
0.0
 41
0.9987681233311231
 10
945.26146890005339
 20
-1161.4978380396826
 30
0.0
 41
1.0
 10
945.2617978280191
 20
-1161.4981384408966
 30
0.0
 41
1.0
 10
945.26212675598481
 20
-1161.4984388421108
 30
0.0
 41
1.0
 10
945.33580839619219
 20
-1161.5657303359399
 30
0.0
 41
0.9987496570898646
 10
945.40240220151941
 20
-1161.6400431500265
 30
0.0
 41
1.0
 10
945.40317437127999
 20
-1161.6409048233845
 30
0.0
 41
1.0
 10
945.40394654104057
 20
-1161.6417664967425
 30
0.0
 41
1.0
 10
945.47208468588781
 20
-1161.7178026575436
 30
0.0
 41
0.9988147669826533
 10
945.53250694011274
 20
-1161.8001036643861
 30
0.0
 41
1.0
 10
945.53362626619094
 20
-1161.8016282957392
 30
0.0
 41
1.0
 10
945.53474559226913
 20
-1161.8031529270925
 30
0.0
 41
1.0
 10
945.59740649864955
 20
-1161.8885031966399
 30
0.0
 41
0.9989452636216141
 10
945.65197341161104
 20
-1161.9792418857978
 30
0.0
 41
1.0
 10
945.6533221376967
 20
-1161.9814846668239
 30
0.0
 41
1.0
 10
945.65467086378226
 20
-1161.98372744785
 30
0.0
 41
1.0
 10
945.71193522891485
 20
-1162.0789516990601
 30
0.0
 41
0.9991046436070412
 10
945.76094444223747
 20
-1162.1786761320875
 30
0.0
 41
1.0
 10
945.76240830382699
 20
-1162.1816548121592
 30
0.0
 41
1.0
 10
945.76387216541661
 20
-1162.1846334922307
 30
0.0
 41
1.0
 10
945.81580910191849
 20
-1162.2903152854021
 30
0.0
 41
0.9992763831101611
 10
945.85956223047424
 20
-1162.399639347359
 30
0.0
 41
1.0
 10
945.86104150013716
 20
-1162.4033355348915
 30
0.0
 41
1.0
 10
945.86252076980008
 20
-1162.4070317224243
 30
0.0
 41
1.0
 10
945.90923243768168
 20
-1162.5237481594477
 30
0.0
 41
0.9994163472884043
 10
945.94786546887065
 20
-1162.6433817479087
 30
0.0
 41
1.0
 10
945.94910362111727
 20
-1162.6472158916913
 30
0.0
 41
1.0
 10
945.95034177336402
 20
-1162.6510500354736
 30
0.0
 41
1.0
 10
945.99022533438188
 20
-1162.7745560969536
 30
0.0
 41
0.9997268055890448
 10
946.02429339029436
 20
-1162.8997911289061
 30
0.0
 41
1.0
 10
946.02522357056341
 20
-1162.9032104950129
 30
0.0
 41
1.0
 10
946.02615375083246
 20
-1162.9066298611199
 30
0.0
 41
1.0
 10
946.05836144620582
 20
-1163.0250261608544
 30
0.0
 41
0.9996701319000434
 10
946.08444706297678
 20
-1163.1449201141204
 30
0.0
 41
1.0
 10
946.11053267974717
 20
-1163.2648140673828
 30
0.0
 41
0.9995785451109329
 10
946.12961625708738
 20
-1163.3860198284174
 30
0.0
 41
1.0
 10
946.13383603926081
 20
-1163.4128209831806
 30
0.0
 41
1.0
 10
946.13805582143414
 20
-1163.4396221379436
 30
0.0
 41
1.0
 10
946.16463079737321
 20
-1163.6084081116471
 30
0.0
 41
0.9979925101215645
 10
946.16965638329941
 20
-1163.7791994397401
 30
0.0
 41
1.0
 10
946.17048119572405
 20
-1163.8072301632228
 30
0.0
 41
1.0
 10
946.1713060081488
 20
-1163.8352608867053
 30
0.0
 41
1.0
 10
946.17468196922573
 20
-1163.9499907678348
 30
0.0
 41
0.9995314902263239
 10
946.17103177708725
 20
-1164.0647122515838
 30
0.0
 41
1.0
 10
946.16738158494866
 20
-1164.1794337353349
 30
0.0
 41
0.9996245486944262
 10
946.15745248981796
 20
-1164.2937830064589
 30
0.0
 41
1.0
 10
946.15728944182365
 20
-1164.2956607625945
 30
0.0
 41
1.0
 10
946.15712639382946
 20
-1164.2975385187301
 30
0.0
 41
1.0
 10
946.14687120271014
 20
-1164.415643302124
 30
0.0
 41
0.9997286095000615
 10
946.13112587913827
 20
-1164.5331422110214
 30
0.0
 41
1.0
 10
946.13073238648803
 20
-1164.5360786357223
 30
0.0
 41
1.0
 10
946.13033889383792
 20
-1164.539015060423
 30
0.0
 41
1.0
 10
946.11380658496546
 20
-1164.6623868187226
 30
0.0
 41
0.9998265533968451
 10
946.09269112623269
 20
-1164.785057293512
 30
0.0
 41
1.0
 10
946.09201458409575
 20
-1164.7889876720183
 30
0.0
 41
1.0
 10
946.09133804195881
 20
-1164.7929180505248
 30
0.0
 41
1.0
 10
946.0688694989509
 20
-1164.9234492823332
 30
0.0
 41
0.9999022530855379
 10
946.04276003433881
 20
-1165.0533012509823
 30
0.0
 41
1.0
 10
946.04178139317503
 20
-1165.0581683933619
 30
0.0
 41
1.0
 10
946.04080275201125
 20
-1165.0630355357414
 30
0.0
 41
1.0
 10
946.01273600507238
 20
-1165.202621789146
 30
0.0
 41
0.9999524761932079
 10
945.98195303623743
 20
-1165.341634282312
 30
0.0
 41
1.0
 10
945.98067692906113
 20
-1165.347397041618
 30
0.0
 41
1.0
 10
945.97940082188484
 20
-1165.353159800924
 30
0.0
 41
1.0
 10
945.94606563870298
 20
-1165.5036978126777
 30
0.0
 41
0.9999813588708286
 10
945.91089463790615
 20
-1165.6538175253372
 30
0.0
 41
1.0
 10
945.90934071244828
 20
-1165.6604501157653
 30
0.0
 41
1.0
 10
945.9077867869903
 20
-1165.6670827061937
 30
0.0
 41
1.0
 10
945.86950793528104
 20
-1165.830467599696
 30
0.0
 41
0.9999955237706465
 10
945.83025205729973
 20
-1165.9936205033057
 30
0.0
 41
1.0
 10
945.8179704216659
 20
-1166.0446646938262
 30
0.0
 41
1.0
 10
945.80568878603208
 20
-1166.095708884347
 30
0.0
 41
1.0
 10
945.74186963676425
 20
-1166.3609501690755
 30
0.0
 41
0.9999993604222683
 10
945.67745068959232
 20
-1166.6260464197765
 30
0.0
 41
1.0
 10
945.67273185405656
 20
-1166.6454653277706
 30
0.0
 41
1.0
 10
945.66801301852081
 20
-1166.6648842357645
 30
0.0
 41
1.0
 10
945.59415640026123
 20
-1166.9688183025198
 30
0.0
 41
0.9999659914727783
 10
945.51529680437375
 20
-1167.271492849088
 30
0.0
 41
1.0
 10
945.51034411544379
 20
-1167.2905019862678
 30
0.0
 41
1.0
 10
945.50539142651382
 20
-1167.3095111234475
 30
0.0
 41
1.0
 10
945.41662645277006
 20
-1167.6502039443615
 30
0.0
 41
0.9999441976027048
 10
945.32068341980721
 20
-1167.9889453696576
 30
0.0
 41
1.0
 10
945.30398290138055
 20
-1168.0479090821891
 30
0.0
 41
1.0
 10
945.28728238295389
 20
-1168.1068727947209
 30
0.0
 41
1.0
 10
945.15793831313886
 20
-1168.5635416450764
 30
0.0
 41
0.9999625120731456
 10
945.02070554581871
 20
-1169.0179021790616
 30
0.0
 41
1.0
 10
944.98491560273396
 20
-1169.1363982056946
 30
0.0
 41
1.0
 10
944.94912565964921
 20
-1169.2548942323274
 30
0.0
 41
1.0
 10
944.87460545560657
 20
-1169.501621310435
 30
0.0
 41
0.9999793386325312
 10
944.79691943247121
 20
-1169.7473699496636
 30
0.0
 41
1.0
 10
944.7192334093337
 20
-1169.9931185888997
 30
0.0
 41
1.0
 10
944.708453850463
 20
-1170.0271364932744
 30
0.0
 41
1.0
 10
942.85808079719391
 20
-1175.914208415742
 30
0.0
 41
1.0
 10
941.0077077439247
 20
-1181.8012803382094
 30
0.0
 41
1.0
 10
940.04645105390114
 20
-1181.8012803382094
 30
0.0
 41
1.0
 10
939.08519436387758
 20
-1181.8012803382094
 30
0.0
 41
1.0
 10
940.70413914255596
 20
-1176.6532518364199
 30
0.0
 41
1.0
 10
942.32308392123446
 20
-1171.5052233346305
 30
0.0
 41
1.0
 10
942.36824974440469
 20
-1171.3611921123736
 30
0.0
 41
1.0
 10
942.41341556757493
 20
-1171.2171608901167
 30
0.0
 41
1.0
 10
942.58371998494249
 20
-1170.6740698609392
 30
0.0
 41
0.9999911657888468
 10
942.74945279662597
 20
-1170.1295663295646
 30
0.0
 41
1.0
 10
942.77914874012833
 20
-1170.0320023895079
 30
0.0
 41
1.0
 10
942.8088446836307
 20
-1169.9344384494509
 30
0.0
 41
1.0
 10
942.91518560830878
 20
-1169.5850627981927
 30
0.0
 41
0.9999952428128422
 10
943.01936919763125
 20
-1169.2350377738512
 30
0.0
 41
1.0
 10
943.02442866796537
 20
-1169.2180394995703
 30
0.0
 41
1.0
 10
943.0294881382996
 20
-1169.2010412252891
 30
0.0
 41
1.0
 10
943.123552786956
 20
-1168.8850127495025
 30
0.0
 41
0.9999931687568561
 10
943.21527862482981
 20
-1168.5682975362313
 30
0.0
 41
1.0
 10
943.22021388928908
 20
-1168.551256826961
 30
0.0
 41
1.0
 10
943.22514915374836
 20
-1168.5342161176909
 30
0.0
 41
1.0
 10
943.30700446270703
 20
-1168.2515823229487
 30
0.0
 41
0.999989384080074
 10
943.3862516891603
 20
-1167.9682061937142
 30
0.0
 41
1.0
 10
943.46549891561813
 20
-1167.6848300644642
 30
0.0
 41
0.999983398005979
 10
943.5414751563535
 20
-1167.4005594814594
 30
0.0
 41
1.0
 10
943.55047909307984
 20
-1167.3668706029657
 30
0.0
 41
1.0
 10
943.55948302980619
 20
-1167.3331817244723
 30
0.0
 41
1.0
 10
943.62844757867026
 20
-1167.0751458921841
 30
0.0
 41
0.9999233658065484
 10
943.69100254989064
 20
-1166.8154817334612
 30
0.0
 41
1.0
 10
943.75355752111091
 20
-1166.5558175747387
 30
0.0
 41
1.0
 10
943.79304093996848
 20
-1166.3920109103126
 30
0.0
 41
1.0
 10
943.7980195439427
 20
-1166.3713559484549
 30
0.0
 41
1.0
 10
943.80299814791692
 20
-1166.3507009865973
 30
0.0
 41
1.0
 10
943.83252435882628
 20
-1166.2282042458855
 30
0.0
 41
0.9999868670859464
 10
943.86079344282223
 20
-1166.105411300241
 30
0.0
 41
1.0
 10
943.86469092998141
 20
-1166.0884817128176
 30
0.0
 41
1.0
 10
943.86858841714059
 20
-1166.0715521253942
 30
0.0
 41
1.0
 10
943.88906252682102
 20
-1165.9826183545838
 30
0.0
 41
0.9999778173351187
 10
943.9083501249338
 20
-1165.8934197373651
 30
0.0
 41
1.0
 10
943.92763772304784
 20
-1165.8042211201418
 30
0.0
 41
0.9999602692862507
 10
943.94533208167832
 20
-1165.7146928317175
 30
0.0
 41
1.0
 10
943.94853591375681
 20
-1165.6984823768271
 30
0.0
 41
1.0
 10
943.95173974583531
 20
-1165.6822719219369
 30
0.0
 41
1.0
 10
943.97584176862131
 20
-1165.5603227237395
 30
0.0
 41
0.9995617985320192
 10
943.99268511583978
 20
-1165.4371609760346
 30
0.0
 41
1.0
 10
943.99514960574606
 20
-1165.4191401586691
 30
0.0
 41
1.0
 10
943.99761409565224
 20
-1165.4011193413035
 30
0.0
 41
1.0
 10
944.0178973567007
 20
-1165.2528042916006
 30
0.0
 41
0.9991121410640059
 10
944.0256227102891
 20
-1165.1033081927944
 30
0.0
 41
1.0
 10
944.02654150031367
 20
-1165.0855283562169
 30
0.0
 41
1.0
 10
944.02746029033835
 20
-1165.0677485196393
 30
0.0
 41
1.0
 10
944.03334806387761
 20
-1164.9538120939858
 30
0.0
 41
0.998979249490451
 10
944.02892897176002
 20
-1164.8398092580901
 30
0.0
 41
1.0
 10
944.02828099989142
 20
-1164.8230930121626
 30
0.0
 41
1.0
 10
944.02763302802271
 20
-1164.8063767662354
 30
0.0
 41
1.0
 10
944.02450987964266
 20
-1164.7258064221942
 30
0.0
 41
0.9997820295394175
 10
944.01802588226701
 20
-1164.6454367004476
 30
0.0
 41
1.0
 10
944.01154188489124
 20
-1164.5650669787015
 30
0.0
 41
0.9998335105974672
 10
944.00212968937979
 20
-1164.4849873622554
 30
0.0
 41
1.0
 10
944.00053476470339
 20
-1164.4714176317716
 30
0.0
 41
1.0
 10
943.99893984002688
 20
-1164.4578479012876
 30
0.0
 41
1.0
 10
943.98633779516217
 20
-1164.3506288238673
 30
0.0
 41
0.999687645787859
 10
943.96839388236356
 20
-1164.2441733961516
 30
0.0
 41
1.0
 10
943.9661622192184
 20
-1164.230933660911
 30
0.0
 41
1.0
 10
943.96393055607336
 20
-1164.2176939256701
 30
0.0
 41
1.0
 10
943.95013473465235
 20
-1164.1358477817125
 30
0.0
 41
0.99955474964952
 10
943.93148141275992
 20
-1164.0549702845221
 30
0.0
 41
1.0
 10
943.93110745588842
 20
-1164.053348873816
 30
0.0
 41
1.0
 10
943.93073349901692
 20
-1164.0517274631097
 30
0.0
 41
1.0
 10
943.91282809086727
 20
-1163.9740927873304
 30
0.0
 41
0.9994899427174295
 10
943.89000318218791
 20
-1163.8977595044967
 30
0.0
 41
1.0
 10
943.8895446554468
 20
-1163.8962260547069
 30
0.0
 41
1.0
 10
943.88908612870569
 20
-1163.8946926049173
 30
0.0
 41
1.0
 10
943.86717827350833
 20
-1163.8214262216613
 30
0.0
 41
0.9993784877590231
 10
943.84016263840203
 20
-1163.7498855165031
 30
0.0
 41
1.0
 10
943.83963094742512
 20
-1163.7484775337825
 30
0.0
 41
1.0
 10
943.83909925644821
 20
-1163.7470695510619
 30
0.0
 41
1.0
 10
943.81314700329528
 20
-1163.6783448113435
 30
0.0
 41
0.9992430832254525
 10
943.78193046813612
 20
-1163.6118456592758
 30
0.0
 41
1.0
 10
943.7813483520797
 20
-1163.610605604159
 30
0.0
 41
1.0
 10
943.78076623602328
 20
-1163.609365549042
 30
0.0
 41
1.0
 10
943.75071393297685
 20
-1163.545346507208
 30
0.0
 41
0.9990789632799295
 10
943.71528330620004
 20
-1163.4841398954579
 30
0.0
 41
1.0
 10
943.71468760001767
 20
-1163.4831108095982
 30
0.0
 41
1.0
 10
943.71409189383542
 20
-1163.4820817237385
 30
0.0
 41
1.0
 10
943.67985267942231
 20
-1163.4229332837065
 30
0.0
 41
0.9988874801120632
 10
943.64019340339132
 20
-1163.3672735712903
 30
0.0
 41
1.0
 10
943.63963787732769
 20
-1163.3664939196165
 30
0.0
 41
1.0
 10
943.63908235126394
 20
-1163.3657142679424
 30
0.0
 41
1.0
 10
943.60053412736033
 20
-1163.3116138588739
 30
0.0
 41
0.998676206069311
 10
943.55663165608303
 20
-1163.2617601444335
 30
0.0
 41
1.0
 10
943.55618769575131
 20
-1163.2612560026173
 30
0.0
 41
1.0
 10
943.55574373541958
 20
-1163.2607518608013
 30
0.0
 41
1.0
 10
943.51272918480731
 20
-1163.2119064299948
 30
0.0
 41
0.9984621642488807
 10
943.46457162802903
 20
-1163.1681231295231
 30
0.0
 41
1.0
 10
943.46432499351272
 20
-1163.1678988973599
 30
0.0
 41
1.0
 10
943.46407835899629
 20
-1163.1676746651965
 30
0.0
 41
1.0
 10
943.4164140712511
 20
-1163.1243398290519
 30
0.0
 41
0.9982724693852217
 10
943.36399543940979
 20
-1163.0868954785342
 30
0.0
 41
1.0
 10
943.31157680756883
 20
-1163.0494511280169
 30
0.0
 41
0.9981399180158521
 10
943.25499074417519
 20
-1163.0186646085733
 30
0.0
 41
1.0
 10
943.25494508209658
 20
-1163.0186397654161
 30
0.0
 41
1.0
 10
943.25489942001809
 20
-1163.0186149222588
 30
0.0
 41
1.0
 10
943.19822203246792
 20
-1162.987778716501
 30
0.0
 41
0.9980927086836922
 10
943.13817668140155
 20
-1162.9641619076485
 30
0.0
 41
1.0
 10
943.13773651168981
 20
-1162.9639887817734
 30
0.0
 41
1.0
 10
943.13729634197807
 20
-1162.9638156558985
 30
0.0
 41
1.0
 10
943.07637065148765
 20
-1162.9398525952959
 30
0.0
 41
0.9981411356560805
 10
943.01298213008727
 20
-1162.9234799537901
 30
0.0
 41
1.0
 10
943.01210001338666
 20
-1162.9232521115848
 30
0.0
 41
1.0
 10
943.01121789668605
 20
-1162.9230242693795
 30
0.0
 41
1.0
 10
942.9460651418832
 20
-1162.9061959434628
 30
0.0
 41
0.9983031812935185
 10
942.87939771288757
 20
-1162.8970565822865
 30
0.0
 41
1.0
 10
942.87052668748595
 20
-1162.8958404636155
 30
0.0
 41
1.0
 10
942.86165566208433
 20
-1162.8946243449445
 30
0.0
 41
1.0
 10
942.80730601957862
 20
-1162.8871736149533
 30
0.0
 41
0.9983887708263893
 10
942.75246217028428
 20
-1162.8859289413199
 30
0.0
 41
1.0
 10
942.74439876507051
 20
-1162.885745943445
 30
0.0
 41
1.0
 10
942.73633535985675
 20
-1162.8855629455702
 30
0.0
 41
1.0
 10
942.69761832099505
 20
-1162.8846842676865
 30
0.0
 41
0.9998869563080561
 10
942.65889236778878
 20
-1162.8849701370461
 30
0.0
 41
1.0
 10
942.62016641454193
 20
-1162.8852560064061
 30
0.0
 41
0.999997232014718
 10
942.58144223528654
 20
-1162.8857241059359
 30
0.0
 41
1.0
 10
942.562089218751
 20
-1162.8859580460248
 30
0.0
 41
1.0
 10
942.54273620221534
 20
-1162.8861919861138
 30
0.0
 41
1.0
 10
942.4653059898435
 20
-1162.8871279658215
 30
0.0
 41
0.9997304945087412
 10
942.38800268360478
 20
-1162.8916570596075
 30
0.0
 41
1.0
 10
942.3789530419017
 20
-1162.8921872655974
 30
0.0
 41
1.0
 10
942.3699034001985
 20
-1162.8927174715873
 30
0.0
 41
1.0
 10
942.27450081055122
 20
-1162.8983069773533
 30
0.0
 41
0.9997888306414926
 10
942.17940847470788
 20
-1162.9078119418427
 30
0.0
 41
1.0
 10
942.17068741313608
 20
-1162.9086836564748
 30
0.0
 41
1.0
 10
942.16196635156427
 20
-1162.9095553711068
 30
0.0
 41
1.0
 10
942.0494318925754
 20
-1162.92080376486
 30
0.0
 41
0.9984170238190225
 10
941.93887274522331
 20
-1162.9446198467961
 30
0.0
 41
1.0
 10
941.90249161423731
 20
-1162.9524568826021
 30
0.0
 41
1.0
 10
941.86611048325142
 20
-1162.9602939184081
 30
0.0
 41
1.0
 10
941.75091941483038
 20
-1162.9851077849175
 30
0.0
 41
0.9976592854198741
 10
941.64019124842548
 20
-1163.0254064620649
 30
0.0
 41
1.0
 10
941.52946308201967
 20
-1163.0657051392122
 30
0.0
 41
0.9993255074351625
 10
941.42199128322716
 20
-1163.1140220377056
 30
0.0
 41
1.0
 10
941.41736610430507
 20
-1163.1161014139047
 30
0.0
 41
1.0
 10
941.4127409253831
 20
-1163.1181807901039
 30
0.0
 41
1.0
 10
941.29601876874528
 20
-1163.170656440996
 30
0.0
 41
0.9976475078274926
 10
941.18757142443451
 20
-1163.2386044306545
 30
0.0
 41
1.0
 10
941.16922903030127
 20
-1163.2500969094681
 30
0.0
 41
1.0
 10
941.15088663616814
 20
-1163.2615893882814
 30
0.0
 41
1.0
 10
941.06668444461548
 20
-1163.3143465090502
 30
0.0
 41
0.9995131336406915
 10
940.98593672965615
 20
-1163.3722527210048
 30
0.0
 41
1.0
 10
940.9051890146992
 20
-1163.4301589329575
 30
0.0
 41
0.9995810107606254
 10
940.82792736697081
 20
-1163.4926406154232
 30
0.0
 41
1.0
 10
940.82495733576025
 20
-1163.495042486888
 30
0.0
 41
1.0
 10
940.82198730454979
 20
-1163.4974443583528
 30
0.0
 41
1.0
 10
940.73878559440129
 20
-1163.5647297837477
 30
0.0
 41
0.9996617837954557
 10
940.65919490726583
 20
-1163.6362502393076
 30
0.0
 41
1.0
 10
940.64706415639353
 20
-1163.6471509722942
 30
0.0
 41
1.0
 10
940.63493340552122
 20
-1163.6580517052805
 30
0.0
 41
1.0
 10
940.56665787811858
 20
-1163.7194043207583
 30
0.0
 41
0.9997267750053495
 10
940.5013243698304
 20
-1163.7838808572878
 30
0.0
 41
1.0
 10
940.43599086154632
 20
-1163.8483573938133
 30
0.0
 41
0.9999667288965898
 10
940.37171791839887
 20
-1163.9138912007086
 30
0.0
 41
1.0
 10
940.30289047062433
 20
-1163.9840688594663
 30
0.0
 41
1.0
 10
940.2340630228498
 20
-1164.0542465182239
 30
0.0
 41
1.0
 10
940.03213518415248
 20
-1164.2601356426353
 30
0.0
 41
0.9988205335174978
 10
939.85112956717217
 20
-1164.484639874697
 30
0.0
 41
1.0
 10
939.82048960226814
 20
-1164.5226431251263
 30
0.0
 41
1.0
 10
939.78984963736411
 20
-1164.5606463755553
 30
0.0
 41
1.0
 10
939.54756409057563
 20
-1164.8611571084753
 30
0.0
 41
0.9997077826755412
 10
939.32008613947335
 20
-1165.1730269026873
 30
0.0
 41
1.0
 10
939.31836272434111
 20
-1165.1753896860691
 30
0.0
 41
1.0
 10
939.31663930920899
 20
-1165.1777524694512
 30
0.0
 41
1.0
 10
939.08571452784213
 20
-1165.4943478304276
 30
0.0
 41
0.9989147567078871
 10
938.88525102495782
 20
-1165.8310572916139
 30
0.0
 41
1.0
 10
938.86050987965291
 20
-1165.8726138721631
 30
0.0
 41
1.0
 10
938.83576873434799
 20
-1165.9141704527121
 30
0.0
 41
1.0
 10
938.68055743570892
 20
-1166.1748718371678
 30
0.0
 41
0.9997476598182256
 10
938.53721244819849
 20
-1166.4422815857515
 30
0.0
 41
1.0
 10
938.39386746068885
 20
-1166.7096913343339
 30
0.0
 41
0.9996258967109089
 10
938.26535920875699
 20
-1166.9845392709583
 30
0.0
 41
1.0
 10
938.25215929930482
 20
-1167.0127706710591
 30
0.0
 41
1.0
 10
938.23895938985265
 20
-1167.0410020711602
 30
0.0
 41
1.0
 10
938.0987506688557
 20
-1167.3408744691073
 30
0.0
 41
0.9998735413945613
 10
937.96814932213738
 20
-1167.6450540685705
 30
0.0
 41
1.0
 10
937.96470649407308
 20
-1167.6530726540441
 30
0.0
 41
1.0
 10
937.96126366600879
 20
-1167.6610912395176
 30
0.0
 41
1.0
 10
937.83754797541383
 20
-1167.9492336680455
 30
0.0
 41
0.9999377418858623
 10
937.72029317324223
 20
-1168.2400651357129
 30
0.0
 41
1.0
 10
937.60303837106551
 20
-1168.5308966033926
 30
0.0
 41
0.9999508299509609
 10
937.49157442768796
 20
-1168.8239962802152
 30
0.0
 41
1.0
 10
937.4884936590264
 20
-1168.8320973061768
 30
0.0
 41
1.0
 10
937.48541289036484
 20
-1168.8401983321382
 30
0.0
 41
1.0
 10
937.36778740966349
 20
-1169.1495000608843
 30
0.0
 41
0.9999609228430137
 10
937.2556488067894
 20
-1169.4608330769004
 30
0.0
 41
1.0
 10
937.25269279643931
 20
-1169.469039917311
 30
0.0
 41
1.0
 10
937.24973678608922
 20
-1169.4772467577218
 30
0.0
 41
1.0
 10
937.13168616251278
 20
-1169.8049934545652
 30
0.0
 41
0.9999674607402643
 10
937.01893863644489
 20
-1170.1346020745598
 30
0.0
 41
1.0
 10
936.96754024588654
 20
-1170.2848612702396
 30
0.0
 41
1.0
 10
936.91614185532808
 20
-1170.4351204659197
 30
0.0
 41
1.0
 10
936.80013124856748
 20
-1170.7742684484306
 30
0.0
 41
0.9999287532309058
 10
936.69224984459424
 20
-1171.1160891874138
 30
0.0
 41
1.0
 10
936.6457725884751
 20
-1171.2633517317213
 30
0.0
 41
1.0
 10
936.59929533235595
 20
-1171.4106142760288
 30
0.0
 41
1.0
 10
936.58436844063931
 20
-1171.4579099263387
 30
0.0
 41
0.9999998224039058
 10
936.56949793189301
 20
-1171.5052233346305
 30
0.0
 41
1.0
 10
934.94884179509756
 20
-1176.6532518364199
 30
0.0
 41
1.0
 10
933.32818565830212
 20
-1181.8012803382094
 30
0.0
 41
1.0
 10
932.42287721441119
 20
-1181.8012803382094
 30
0.0
 41
1.0
 10
931.51756877052026
 20
-1181.8012803382094
 30
0.0
 41
1.0
 10
933.3696531819063
 20
-1175.914208415742
 30
0.0
 41
1.0
 10
935.22173759329235
 20
-1170.0271364932744
 30
0.0
 41
1.0
 10
935.23185935159506
 20
-1169.9950932798247
 30
0.0
 41
1.0
 10
935.3044670204448
 20
-1169.7647937379988
 30
0.0
 41
1.0
 10
935.37707468928988
 20
-1169.5344941961876
 30
0.0
 41
0.9999825681963102
 10
935.4469577284973
 20
-1169.3033533011369
 30
0.0
 41
1.0
 10
935.49524879065746
 20
-1169.143628717643
 30
0.0
 41
1.0
 10
935.54353985281762
 20
-1168.9839041341493
 30
0.0
 41
1.0
 10
935.64069220613669
 20
-1168.6625689123671
 30
0.0
 41
0.9999672528970581
 10
935.7326310117669
 20
-1168.3397033667579
 30
0.0
 41
1.0
 10
935.73541989543651
 20
-1168.3299095213683
 30
0.0
 41
1.0
 10
935.73820877910623
 20
-1168.3201156759787
 30
0.0
 41
1.0
 10
935.82456981738744
 20
-1168.0168378211818
 30
0.0
 41
0.9999899749153135
 10
935.90821142692494
 20
-1167.7127987327194
 30
0.0
 41
1.0
 10
935.91831734594257
 20
-1167.6760634950406
 30
0.0
 41
1.0
 10
935.9284232649602
 20
-1167.6393282573617
 30
0.0
 41
1.0
 10
935.99185303645925
 20
-1167.4087596442687
 30
0.0
 41
0.9999214200503508
 10
936.04948246483741
 20
-1167.1766733020577
 30
0.0
 41
1.0
 10
936.06224831702059
 20
-1167.1252624166509
 30
0.0
 41
1.0
 10
936.07501416920377
 20
-1167.0738515312441
 30
0.0
 41
1.0
 10
936.10711189321955
 20
-1166.9445869598298
 30
0.0
 41
0.9999828681664491
 10
936.1376941452105
 20
-1166.8149554853808
 30
0.0
 41
1.0
 10
936.16827639720543
 20
-1166.6853240109149
 30
0.0
 41
0.9999389844480446
 10
936.1959873859945
 20
-1166.5550485550161
 30
0.0
 41
1.0
 10
936.20312512971509
 20
-1166.5214924511772
 30
0.0
 41
1.0
 10
936.21026287343557
 20
-1166.4879363473383
 30
0.0
 41
1.0
 10
936.25224934966502
 20
-1166.2905486837642
 30
0.0
 41
0.9998933699439463
 10
936.28845361406707
 20
-1166.0920190760069
 30
0.0
 41
1.0
 10
936.28982643928362
 20
-1166.0844910553092
 30
0.0
 41
1.0
 10
936.29119926450016
 20
-1166.0769630346117
 30
0.0
 41
1.0
 10
936.33014917933474
 20
-1165.8633773854619
 30
0.0
 41
0.9996850305193789
 10
936.35833285559386
 20
-1165.6481063800231
 30
0.0
 41
1.0
 10
936.36032788896318
 20
-1165.6328680259007
 30
0.0
 41
1.0
 10
936.36232292233262
 20
-1165.6176296717783
 30
0.0
 41
1.0
 10
936.3897307847916
 20
-1165.4082844446239
 30
0.0
 41
0.9994697936706484
 10
936.40345534401104
 20
-1165.1975992492939
 30
0.0
 41
1.0
 10
936.40393241326069
 20
-1165.1902757770827
 30
0.0
 41
1.0
 10
936.40440948251046
 20
-1165.1829523048714
 30
0.0
 41
1.0
 10
936.41717990323082
 20
-1164.9869140539618
 30
0.0
 41
0.9991804893136633
 10
936.41405158695784
 20
-1164.7904852039899
 30
0.0
 41
1.0
 10
936.41396770813571
 20
-1164.7852184025769
 30
0.0
 41
1.0
 10
936.41388382931359
 20
-1164.7799516011639
 30
0.0
 41
1.0
 10
936.41092327068509
 20
-1164.5940563540162
 30
0.0
 41
0.9988448329321696
 10
936.39013172506134
 20
-1164.4093037641831
 30
0.0
 41
1.0
 10
936.38853765135809
 20
-1164.3951389084107
 30
0.0
 41
1.0
 10
936.38694357765496
 20
-1164.3809740526383
 30
0.0
 41
1.0
 10
936.3693401794377
 20
-1164.2245511743497
 30
0.0
 41
0.9985503209457927
 10
936.33502390713807
 20
-1164.0709269902604
 30
0.0
 41
1.0
 10
936.32743791506709
 20
-1164.0369666628617
 30
0.0
 41
1.0
 10
936.31985192299624
 20
-1164.0030063354627
 30
0.0
 41
1.0
 10
936.300707634839
 20
-1163.9173028061739
 30
0.0
 41
0.9991036781371003
 10
936.2743827731872
 20
-1163.8335257188462
 30
0.0
 41
1.0
 10
936.27040054773101
 20
-1163.820852556335
 30
0.0
 41
1.0
 10
936.26641832227483
 20
-1163.8081793938238
 30
0.0
 41
1.0
 10
936.24805791153574
 20
-1163.7497486315203
 30
0.0
 41
0.9998874504368696
 10
936.22795270385768
 20
-1163.6918950292979
 30
0.0
 41
1.0
 10
936.20784749617826
 20
-1163.6340414270726
 30
0.0
 41
0.9994041637544384
 10
936.18379888324409
 20
-1163.5777127231827
 30
0.0
 41
1.0
 10
936.17960209902037
 20
-1163.5678826587016
 30
0.0
 41
1.0
 10
936.17540531479665
 20
-1163.5580525942205
 30
0.0
 41
1.0
 10
936.14752648380215
 20
-1163.4927524282534
 30
0.0
 41
0.9991846840701656
 10
936.11447012710926
 20
-1163.4299143969736
 30
0.0
 41
1.0
 10
936.11333352071449
 20
-1163.4277537805194
 30
0.0
 41
1.0
 10
936.11219691431972
 20
-1163.4255931640653
 30
0.0
 41
1.0
 10
936.08141377041682
 20
-1163.3670763656946
 30
0.0
 41
0.9989253167923567
 10
936.04534434636116
 20
-1163.311661437303
 30
0.0
 41
1.0
 10
936.04429022168711
 20
-1163.3100419425409
 30
0.0
 41
1.0
 10
936.04323609701316
 20
-1163.3084224477791
 30
0.0
 41
1.0
 10
936.00927492230687
 20
-1163.256246508914
 30
0.0
 41
0.9986467172838246
 10
935.97007776966893
 20
-1163.2078804752832
 30
0.0
 41
1.0
 10
935.9692036409682
 20
-1163.2068018730051
 30
0.0
 41
1.0
 10
935.96832951226747
 20
-1163.2057232707268
 30
0.0
 41
1.0
 10
935.93088061703133
 20
-1163.1595144416535
 30
0.0
 41
0.998400110426685
 10
935.8884538865143
 20
-1163.117829334285
 30
0.0
 41
1.0
 10
935.88786674840503
 20
-1163.117252459404
 30
0.0
 41
1.0
 10
935.88727961029588
 20
-1163.1166755845229
 30
0.0
 41
1.0
 10
935.84602715599783
 20
-1163.0761442269168
 30
0.0
 41
0.9982442159082329
 10
935.80027105466161
 20
-1163.0407756656559
 30
0.0
 41
1.0
 10
935.80005625919966
 20
-1163.0406096330125
 30
0.0
 41
1.0
 10
935.79984146373772
 20
-1163.0404436003691
 30
0.0
 41
1.0
 10
935.75451495332584
 20
-1163.0054071043958
 30
0.0
 41
0.9982450060837239
 10
935.70536397425417
 20
-1162.9759753213621
 30
0.0
 41
1.0
 10
935.65621299518284
 20
-1162.9465435383288
 30
0.0
 41
0.9983922639635469
 10
935.60404668901776
 20
-1162.9228639036746
 30
0.0
 41
1.0
 10
935.60381981169326
 20
-1162.922760918193
 30
0.0
 41
1.0
 10
935.60359293436863
 20
-1162.9226579327117
 30
0.0
 41
1.0
 10
935.55097287355488
 20
-1162.8987723270948
 30
0.0
 41
0.9986517147150245
 10
935.49615990068673
 20
-1162.880471207973
 30
0.0
 41
1.0
 10
935.49548197925901
 20
-1162.8802448615415
 30
0.0
 41
1.0
 10
935.49480405783129
 20
-1162.8800185151101
 30
0.0
 41
1.0
 10
935.43863524210747
 20
-1162.8612647031255
 30
0.0
 41
0.9989435598956683
 10
935.38098185495573
 20
-1162.8477470008909
 30
0.0
 41
1.0
 10
935.37990173537423
 20
-1162.847493750638
 30
0.0
 41
1.0
 10
935.37882161579273
 20
-1162.8472405003849
 30
0.0
 41
1.0
 10
935.31900798947754
 20
-1162.8332162976444
 30
0.0
 41
0.9992249241240599
 10
935.25827648058032
 20
-1162.823940954929
 30
0.0
 41
1.0
 10
935.25686279228944
 20
-1162.8237250465213
 30
0.0
 41
1.0
 10
935.25544910399856
 20
-1162.8235091381134
 30
0.0
 41
1.0
 10
935.19189021851844
 20
-1162.8138019785824
 30
0.0
 41
0.999439659783415
 10
935.12782428198057
 20
-1162.8083690562369
 30
0.0
 41
1.0
 10
935.10868361450355
 20
-1162.8067458885184
 30
0.0
 41
1.0
 10
935.08954294702653
 20
-1162.8051227207998
 30
0.0
 41
1.0
 10
934.98719567553405
 20
-1162.7964434630167
 30
0.0
 41
0.9987693403121671
 10
934.8844920519474
 20
-1162.7979465264691
 30
0.0
 41
1.0
 10
934.87423771771842
 20
-1162.7980965982433
 30
0.0
 41
1.0
 10
934.86398338348943
 20
-1162.7982466700175
 30
0.0
 41
1.0
 10
934.7544276173121
 20
-1162.7998500143051
 30
0.0
 41
0.9989753644966073
 10
934.64546561729708
 20
-1162.8113530212304
 30
0.0
 41
1.0
 10
934.53650361727955
 20
-1162.8228560281557
 30
0.0
 41
0.9983190067305424
 10
934.42960480631359
 20
-1162.8468910199426
 30
0.0
 41
1.0
 10
934.42070385470788
 20
-1162.8488922985052
 30
0.0
 41
1.0
 10
934.41180290310217
 20
-1162.8508935770676
 30
0.0
 41
1.0
 10
934.2871021889232
 20
-1162.8789311259798
 30
0.0
 41
0.9985539388302652
 10
934.16613243524512
 20
-1162.9201948020257
 30
0.0
 41
1.0
 10
934.16378700428515
 20
-1162.9209948458415
 30
0.0
 41
1.0
 10
934.16144157332519
 20
-1162.9217948896571
 30
0.0
 41
1.0
 10
934.03578095772764
 20
-1162.964658653334
 30
0.0
 41
0.9988468746493737
 10
933.91481061542822
 20
-1163.0193767383957
 30
0.0
 41
1.0
 10
933.91162779343858
 20
-1163.0208164129563
 30
0.0
 41
1.0
 10
933.90844497144894
 20
-1163.0222560875166
 30
0.0
 41
1.0
 10
933.78110898517116
 20
-1163.0798535216989
 30
0.0
 41
0.9991322885918755
 10
933.6590084011151
 20
-1163.1478488538805
 30
0.0
 41
1.0
 10
933.64140639006996
 20
-1163.1576510558709
 30
0.0
 41
1.0
 10
933.62380437902482
 20
-1163.1674532578613
 30
0.0
 41
1.0
 10
933.52162769796848
 20
-1163.2243533736414
 30
0.0
 41
0.9993860037849144
 10
933.423686693896
 20
-1163.2882693892295
 30
0.0
 41
1.0
 10
933.41806838104276
 20
-1163.2919358839249
 30
0.0
 41
1.0
 10
933.41245006818951
 20
-1163.2956023786205
 30
0.0
 41
1.0
 10
933.32574568982352
 20
-1163.3521854048174
 30
0.0
 41
0.9998821494955138
 10
933.24081931400974
 20
-1163.4114036348947
 30
0.0
 41
1.0
 10
933.15589293819244
 20
-1163.4706218649746
 30
0.0
 41
0.9997976482744052
 10
933.07341730778421
 20
-1163.5332082730201
 30
0.0
 41
1.0
 10
933.05878104298381
 20
-1163.5443149627965
 30
0.0
 41
1.0
 10
933.04414477818352
 20
-1163.5554216525729
 30
0.0
 41
1.0
 10
932.93239661817063
 20
-1163.6402214401739
 30
0.0
 41
0.9998091630799529
 10
932.82404634014642
 20
-1163.7293217908723
 30
0.0
 41
1.0
 10
932.81104058766709
 20
-1163.74001689132
 30
0.0
 41
1.0
 10
932.79803483518776
 20
-1163.7507119917677
 30
0.0
 41
1.0
 10
932.66367305220513
 20
-1163.8612025433617
 30
0.0
 41
0.9995035112317073
 10
932.53653717444104
 20
-1163.979936360377
 30
0.0
 41
1.0
 10
932.52688986405417
 20
-1163.9889461065345
 30
0.0
 41
1.0
 10
932.5172425536673
 20
-1163.997955852692
 30
0.0
 41
1.0
 10
932.39381949090239
 20
-1164.1132222244478
 30
0.0
 41
0.9994630424299369
 10
932.2782110851183
 20
-1164.236324967683
 30
0.0
 41
1.0
 10
932.2745282463477
 20
-1164.2402465471951
 30
0.0
 41
1.0
 10
932.27084540757721
 20
-1164.2441681267071
 30
0.0
 41
1.0
 10
932.16260267933535
 20
-1164.3594277109169
 30
0.0
 41
0.9995160693749906
 10
932.06173664980236
 20
-1164.4811951287907
 30
0.0
 41
1.0
 10
932.05980292972163
 20
-1164.4835295529988
 30
0.0
 41
1.0
 10
932.05786920964101
 20
-1164.4858639772069
 30
0.0
 41
1.0
 10
931.96087062027095
 20
-1164.6029625466626
 30
0.0
 41
0.9996561470514485
 10
931.87014440160453
 20
-1164.7249853091125
 30
0.0
 41
1.0
 10
931.86398673570466
 20
-1164.7332670981518
 30
0.0
 41
1.0
 10
931.85782906980489
 20
-1164.7415488871914
 30
0.0
 41
1.0
 10
931.7794181829405
 20
-1164.8470080715592
 30
0.0
 41
0.9998349055175018
 10
931.70489090100637
 20
-1164.955246655225
 30
0.0
 41
1.0
 10
931.63036361907075
 20
-1165.0634852388939
 30
0.0
 41
0.9999728109573848
 10
931.557440723166
 20
-1165.1728111644409
 30
0.0
 41
1.0
 10
931.55612550775322
 20
-1165.1747829339447
 30
0.0
 41
1.0
 10
931.55481029234056
 20
-1165.1767547034488
 30
0.0
 41
1.0
 10
931.47925696558627
 20
-1165.2900241680404
 30
0.0
 41
0.9999972147460084
 10
931.4042391551925
 20
-1165.4036490109058
 30
0.0
 41
1.0
 10
931.39926761259039
 20
-1165.4111790993475
 30
0.0
 41
1.0
 10
931.39429606998817
 20
-1165.4187091877893
 30
0.0
 41
1.0
 10
931.30933517436688
 20
-1165.5473942075737
 30
0.0
 41
0.9999371979005746
 10
931.22727982496156
 20
-1165.6779511213531
 30
0.0
 41
1.0
 10
931.2237709406013
 20
-1165.6835340494156
 30
0.0
 41
1.0
 10
931.22026205624115
 20
-1165.6891169774781
 30
0.0
 41
1.0
 10
931.13118893811179
 20
-1165.8308397473879
 30
0.0
 41
0.9998272025611418
 10
931.0474455472314
 20
-1165.9757756241274
 30
0.0
 41
1.0
 10
931.03223037520684
 20
-1166.0021087385849
 30
0.0
 41
1.0
 10
931.01701520318238
 20
-1166.0284418530423
 30
0.0
 41
1.0
 10
930.90284146825195
 20
-1166.2260439586989
 30
0.0
 41
0.9995217214838064
 10
930.80110177869619
 20
-1166.4303262865612
 30
0.0
 41
1.0
 10
930.7934582160633
 20
-1166.4456737362598
 30
0.0
 41
1.0
 10
930.78581465343041
 20
-1166.4610211859585
 30
0.0
 41
1.0
 10
930.69890936083891
 20
-1166.6355176440434
 30
0.0
 41
0.9998269762609202
 10
930.6185548945648
 20
-1166.8131259307711
 30
0.0
 41
1.0
 10
930.53820042829454
 20
-1166.9907342174904
 30
0.0
 41
0.9998944747387638
 10
930.46303963373157
 20
-1167.1706019431153
 30
0.0
 41
1.0
 10
930.45808596413713
 20
-1167.1824565980407
 30
0.0
 41
1.0
 10
930.45313229454257
 20
-1167.1943112529661
 30
0.0
 41
1.0
 10
930.37248523398932
 20
-1167.387308192986
 30
0.0
 41
0.9999506734410982
 10
930.29568770508899
 20
-1167.5818689978341
 30
0.0
 41
1.0
 10
930.28108773981705
 20
-1167.6188569196429
 30
0.0
 41
1.0
 10
930.26648777454511
 20
-1167.6558448414514
 30
0.0
 41
1.0
 10
930.21889017618196
 20
-1167.7764298026987
 30
0.0
 41
0.9999912393922585
 10
930.17230373216285
 20
-1167.897409005386
 30
0.0
 41
1.0
 10
930.1257172881426
 20
-1168.0183882080767
 30
0.0
 41
0.9999927113997817
 10
930.08005599376031
 20
-1168.1397196155463
 30
0.0
 41
1.0
 10
930.06608756235551
 20
-1168.176836597564
 30
0.0
 41
1.0
 10
930.05211913095081
 20
-1168.2139535795816
 30
0.0
 41
1.0
 10
929.97852097376335
 20
-1168.4095189510754
 30
0.0
 41
0.9999487550948564
 10
929.9088973487942
 20
-1168.6065343162504
 30
0.0
 41
1.0
 10
929.88530373885351
 20
-1168.6732976265544
 30
0.0
 41
1.0
 10
929.8617101289127
 20
-1168.7400609368581
 30
0.0
 41
1.0
 10
929.76702449454706
 20
-1169.0079947716681
 30
0.0
 41
0.9999808436945024
 10
929.67566290590366
 20
-1169.2770802029388
 30
0.0
 41
1.0
 10
929.58430131726698
 20
-1169.5461656341895
 30
0.0
 41
0.9999873932894653
 10
929.49564660855367
 20
-1169.8161549891881
 30
0.0
 41
1.0
 10
929.47555425167957
 20
-1169.8773443219552
 30
0.0
 41
1.0
 10
929.45546189480547
 20
-1169.9385336547225
 30
0.0
 41
1.0
 10
929.32662247234657
 20
-1170.3309016752473
 30
0.0
 41
0.9999794883020002
 10
929.20281968738527
 20
-1170.724887881536
 30
0.0
 41
1.0
 10
929.19166742795016
 20
-1170.7603784917656
 30
0.0
 41
1.0
 10
929.18051516851506
 20
-1170.7958691019949
 30
0.0
 41
1.0
 10
929.03795700462206
 20
-1171.2495418540675
 30
0.0
 41
0.9999982761780545
 10
928.89708456460289
 20
-1171.7037408762028
 30
0.0
 41
1.0
 10
927.30894423203029
 20
-1176.7525106072062
 30
0.0
 41
1.0
 10
925.72080389945768
 20
-1181.8012803382094
 30
0.0
 41
1.0
 10
924.77205328798129
 20
-1181.8012803382094
 30
0.0
 41
1.0
 10
923.82330267650491
 20
-1181.8012803382094
 30
0.0
 41
1.0
 10
927.06158716265804
 20
-1171.4739581382632
 30
0.0
 41
1.0
 10
930.29987164881129
 20
-1161.1466359383171
 30
0.0
 41
1.0
  0
LWPOLYLINE
  5
5B
100
AcDbEntity
  8
0
370
              15
390
0
  6
Continuous
 62
               7
100
AcDbPolyline
 90
      232
 70
             128
 10
904.59632587498425
 20
-1162.2309787698323
 42
0.0004370800691959
 10
904.54344870091234
 20
-1162.2996454090883
 10
904.50416446978477
 20
-1162.3507525219852
 42
0.0030481992182682
 10
904.37382575262939
 20
-1162.5224742143776
 10
904.33531408091517
 20
-1162.5738609981174
 42
0.0042058245756988
 10
904.13132903026974
 20
-1162.8508667431574
 10
904.07892390774464
 20
-1162.923299589972
 42
0.0120948898742033
 10
903.78287999098779
 20
-1163.3540491945139
 10
903.68668749185724
 20
-1163.501529929752
 42
0.0141601263949857
 10
903.38304344493929
 20
-1163.9971992664812
 10
903.34350617751545
 20
-1164.0660432339091
 42
0.0071131081298959
 10
903.13823385427486
 20
-1164.4355460327511
 42
0.006845879100065
 10
902.94335432743731
 20
-1164.8106375962163
 10
902.93654246497408
 20
-1164.8241993099509
 42
0.0064120880291788
 10
902.73840021492765
 20
-1165.2316237848743
 10
902.73086552941277
 20
-1165.2476356415909
 42
0.0058857236446621
 10
902.52811013754763
 20
-1165.6920117526111
 10
902.51993521124712
 20
-1165.7105019062599
 42
0.0053189741898597
 10
902.31123089857454
 20
-1166.1964653801899
 10
902.30248309289823
 20
-1166.2174472583738
 42
0.0047503650418258
 10
902.08650936674155
 20
-1166.7496466915984
 10
902.07724111839934
 20
-1166.7731230676914
 42
0.0042071762169229
 10
901.85269373467156
 20
-1167.3562166617614
 10
901.84294433232299
 20
-1167.3821828366308
 42
0.0036680086485545
 10
901.60848968900348
 20
-1168.0208182211829
 10
901.59828190916312
 20
-1168.0492667555068
 42
0.0032573142627999
 10
901.35264962319297
 20
-1168.7481194152701
 10
901.28399910234373
 20
-1168.9475824993481
 42
0.0026133366650678
 10
900.93555390359779
 20
-1169.9774457829849
 10
900.87229711610769
 20
-1170.1676766183459
 42
0.0020592950740643
 10
900.65843404712996
 20
-1170.819780270991
 10
900.65538225596345
 20
-1170.8292167594113
 42
0.0025609928535309
 10
900.45356175448103
 20
-1171.4643619817666
 10
900.45097038735753
 20
-1171.472664322697
 42
0.0031362356239478
 10
900.26147960167737
 20
-1172.0934271788867
 10
900.2593485587505
 20
-1172.1005684850959
 42
0.0037229918025463
 10
900.08254817182365
 20
-1172.7095537870719
 10
900.08086958261583
 20
-1172.7155006772514
 42
0.0043077623709361
 10
899.91712878055216
 20
-1173.3153194090155
 42
0.0047654161823748
 10
899.7643000580357
 20
-1173.9180054979197
 10
899.72983544919703
 20
-1174.0595672750674
 42
0.0112969368445368
 10
899.53397109105254
 20
-1174.951259435697
 10
899.50596470195683
 20
-1175.0940874817895
 42
0.0130056762570148
 10
899.30512745831015
 20
-1176.2810285534345
 10
899.28458770816371
 20
-1176.4251066669067
 42
0.013872153214418
 10
899.18088470362522
 20
-1177.3319361527372
 10
899.16158921571764
 20
-1177.5554338746597
 42
0.0071254697009177
 10
899.12824256979479
 20
-1178.0186208835094
 10
899.1232815956306
 20
-1178.1046248780854
 42
0.002888179920178
 10
899.10814330234166
 20
-1178.3963665879123
 42
0.006029729713647
 10
899.0982111025661
 20
-1178.6883155240259
 10
899.09714882089895
 20
-1178.7367078959639
 42
0.022952316416052
 10
899.10487984868473
 20
-1179.0594627422438
 10
899.10910562220545
 20
-1179.1198662762638
 42
0.0123673300678824
 10
899.12818426872343
 20
-1179.3209870014348
 42
0.0128577674470041
 10
899.15737965912945
 20
-1179.5208848513601
 10
899.16450553251673
 20
-1179.5622136659586
 42
0.0285717853763926
 10
899.22899953421245
 20
-1179.8403298172716
 10
899.24266805787886
 20
-1179.8869845867489
 42
0.0316283099153373
 10
899.35847863779304
 20
-1180.2059990885748
 10
899.36152732954861
 20
-1180.2129854609004
 42
0.0338984824234845
 10
899.51095904051579
 20
-1180.5005514250895
 10
899.51326776988617
 20
-1180.5043424543662
 42
0.0350228718351254
 10
899.69562806055922
 20
-1180.7613944390423
 10
899.6965133123341
 20
-1180.7624735168063
 42
0.0347476747530243
 10
899.91093799957434
 20
-1180.9896585640263
 42
0.0331337701908588
 10
900.15418132532091
 20
-1181.1857872261041
 10
900.15528142383687
 20
-1181.1865599292764
 42
0.0305233319079248
 10
900.42382611941002
 20
-1181.3516880993675
 10
900.4270561639114
 20
-1181.3534121112302
 42
0.0273744481157136
 10
900.71960987548698
 20
-1181.4895502551212
 10
900.72471441062328
 20
-1181.4915938395905
 42
0.0240964406196051
 10
901.04019148626878
 20
-1181.6005775658716
 10
901.04677481547901
 20
-1181.6025023055467
 42
0.0209636179813253
 10
901.38417496813292
 20
-1181.6859704534793
 10
901.39180742858025
 20
-1181.6875223664804
 42
0.0181388704693376
 10
901.75012982057876
 20
-1181.7469384596943
 10
901.75841066895691
 20
-1181.7480046435114
 42
0.0156086547585966
 10
902.13659803314567
 20
-1181.7847408300881
 10
902.17979328547915
 20
-1181.7875793325675
 42
0.0137148329026519
 10
902.50746643077161
 20
-1181.8000995878183
 10
902.55340262071343
 20
-1181.8005940209334
 42
0.0051057823887182
 10
902.78954820728984
 20
-1181.8007242753429
 42
0.0052256693311778
 10
903.02564549107444
 20
-1181.7959754508784
 10
903.09587227481791
 20
-1181.7938284848644
 42
0.0161507179048053
 10
903.47160935291924
 20
-1181.7701781145379
 10
903.49162231329228
 20
-1181.7682679192503
 42
0.0101216737832706
 10
903.90564953478167
 20
-1181.720274988885
 10
903.93970282420969
 20
-1181.7156272920752
 42
0.0245291776397622
 10
904.41649247975909
 20
-1181.6265522139993
 10
904.50131579528295
 20
-1181.6063562936536
 42
0.0143509212559003
 10
904.85794689922443
 20
-1181.5105516598742
 42
0.0156557857041937
 10
905.20816296395094
 20
-1181.3935404440556
 10
905.21566417844633
 20
-1181.3907702823012
 42
0.0170137333631318
 10
905.57226017412859
 20
-1181.2451126674298
 10
905.57936409653519
 20
-1181.2419248318665
 42
0.0183105364409703
 10
905.93871376470281
 20
-1181.0645897900415
 10
905.94566052934022
 20
-1181.0608393551702
 42
0.0194899958149863
 10
906.30414127032441
 20
-1180.8488603732792
 10
906.31115514966086
 20
-1180.8443350309844
 42
0.0204869852950445
 10
906.66516945175624
 20
-1180.5948150158974
 10
906.67243506034185
 20
-1180.5892349505502
 42
0.0212516938555694
 10
907.01842499145016
 20
-1180.2993309536553
 10
907.0649416855241
 20
-1180.2568636435633
 42
0.0215248918250838
 10
907.32496785441322
 20
-1179.9980993645672
 10
907.36999758879824
 20
-1179.9492552432125
 42
0.0114578554961629
 10
907.52478974247106
 20
-1179.7734323097593
 10
907.53598427847123
 20
-1179.7601135461978
 42
0.0061531305139987
 10
907.66245892445215
 20
-1179.6058240129082
 42
0.0006325587120629
 10
907.78683740858332
 20
-1179.4498206372582
 10
907.80987754365538
 20
-1179.420847116573
 42
0.0041897761562604
 10
907.97833294766122
 20
-1179.2053277404684
 10
908.0367950675203
 20
-1179.1292263935261
 42
0.0092993880038708
 10
908.31340699474731
 20
-1178.7549476296376
 10
908.39580148794505
 20
-1178.6390106260706
 42
0.0159321727086775
 10
908.7424079705853
 20
-1178.1168364053174
 10
908.78676410597825
 20
-1178.045156841061
 42
0.0085547317024815
 10
909.02127587130008
 20
-1177.6512818918427
 42
0.0084601156889796
 10
909.24225204874233
 20
-1177.2496550428104
 10
909.25036752257256
 20
-1177.2342953605375
 42
0.0081429654285291
 10
909.47361679301139
 20
-1176.7945738479941
 10
909.48247695719408
 20
-1176.7763950059775
 42
0.0076574581327662
 10
909.70888446776621
 20
-1176.2932121307124
 10
909.71836410848448
 20
-1176.2721476524212
 42
0.007068272420114
 10
909.94880901629483
 20
-1175.7401103476316
 10
909.95879930027297
 20
-1175.7161211586285
 42
0.0064559514449726
 10
910.19413250845673
 20
-1175.1298088921039
 10
910.20454186661959
 20
-1175.1028739666672
 42
0.0058311413907791
 10
910.44558860338441
 20
-1174.4568418722781
 10
910.45634368076992
 20
-1174.4269575311232
 42
0.0052312425819601
 10
910.70392495881345
 20
-1173.7157551172804
 10
910.71496879519054
 20
-1173.6829284052187
 42
0.0046680544796515
 10
910.96989722292653
 20
-1172.9011020894593
 10
911.01188937297275
 20
-1172.7681188521588
 42
0.0041666856445473
 10
911.21517538536364
 20
-1172.1051500771664
 10
911.25283782602696
 20
-1171.9785689695141
 42
0.0015170975153661
 10
911.37402440444043
 20
-1171.566700618019
 42
-0.0004887993113905
 10
911.49436417753179
 20
-1171.1545822060855
 10
911.57084143505858
 20
-1170.8936248200359
 42
0.0002583378926776
 10
911.84405600499008
 20
-1169.9595681173116
 10
911.92582885467448
 20
-1169.6794688573596
 42
0.0006636169670584
 10
912.11969661471085
 20
-1169.0121159336868
 10
912.12479326907169
 20
-1168.994484350759
 42
0.0010589131323852
 10
912.30624196997451
 20
-1168.3617530077579
 10
912.31122404046948
 20
-1168.3442401006866
 42
0.0015655524464142
 10
912.47949424763783
 20
-1167.7456234215369
 10
912.48432444805644
 20
-1167.728231262588
 42
0.0021640440480012
 10
912.63861442003872
 20
-1167.1632042445831
 10
912.64324863948264
 20
-1167.1459395145371
 42
0.0028763871855066
 10
912.78276435752173
 20
-1166.6139715637421
 10
912.78715022168819
 20
-1166.5968475855907
 42
0.0037310511943762
 10
912.91110691352583
 20
-1166.0973999915636
 10
912.91518213381789
 20
-1166.0804397203053
 42
0.0047652197769745
 10
913.02280603432325
 20
-1165.6129619520132
 10
913.02649663364787
 20
-1165.5962023968575
 42
0.006027669930269
 10
913.11702673280024
 20
-1165.160126601719
 10
913.12024542308882
 20
-1165.1436253874128
 42
0.0075824337754354
 10
913.19293473250491
 20
-1164.7383582229836
 10
913.19558010988624
 20
-1164.7222032755262
 42
0.0095130624612675
 10
913.24969534551633
 20
-1164.3471139224612
 10
913.25668156939969
 20
-1164.2911803643381
 42
0.0121054653230493
 10
913.28327289997685
 20
-1164.0262845358709
 10
913.28413938973756
 20
-1164.0148810929263
 42
0.0069050827382901
 10
913.29922820777415
 20
-1163.7719398660975
 10
913.30036350744251
 20
-1163.7484136090554
 42
0.0169063976694739
 10
913.30319078642287
 20
-1163.552220881752
 10
913.3020201348919
 20
-1163.4918851204145
 42
0.0052007732867814
 10
913.29976668629865
 20
-1163.4162917302508
 42
0.0054038123303146
 10
913.27980317445883
 20
-1163.2962734342352
 10
913.27471731858941
 20
-1163.2676149476597
 42
0.0112050460458506
 10
913.23933295652955
 20
-1163.0912885093146
 10
913.22150799449014
 20
-1163.0117469225997
 42
0.024076446800975
 10
913.13061062834413
 20
-1162.6815098870991
 10
913.11205186553093
 20
-1162.6248897221058
 42
0.0256812331834053
 10
912.968688945341
 20
-1162.2531655158475
 10
912.96327951951946
 20
-1162.2410341808575
 42
0.0268360501217043
 10
912.79385227866976
 20
-1161.9100410468368
 10
912.78831587103537
 20
-1161.9005213765256
 42
0.0274670231731511
 10
912.59611489462145
 20
-1161.6082340016073
 10
912.59073359465879
 20
-1161.600954854066
 42
0.0275035967101781
 10
912.37916071509699
 20
-1161.3454389637618
 10
912.37409121413066
 20
-1161.3399598761316
 42
0.0269557673526001
 10
912.14668767069088
 20
-1161.119317590169
 10
912.14194461290776
 20
-1161.1151876357078
 42
0.025912480220986
 10
911.9023897814775
 20
-1160.9274971085561
 10
911.89785893629505
 20
-1160.9243116062253
 42
0.024516215300471
 10
911.64994258320075
 20
-1160.7675785971151
 10
911.64541603687599
 20
-1160.765018399914
 42
0.0229282588837823
 10
911.39299648004919
 20
-1160.6371502074153
 10
911.38821598621178
 20
-1160.6349979076531
 42
0.0212984135693418
 10
911.13517803375066
 20
-1160.533798990411
 10
911.12987374878207
 20
-1160.5319354276514
 42
0.0197555462340629
 10
910.88009541105816
 20
-1160.4551200096862
 42
0.0183511896788059
 10
910.62516668559488
 20
-1160.3975371027209
 10
910.53880148887231
 20
-1160.3813343123359
 42
0.033805787715043
 10
910.25329413961174
 20
-1160.3475259071956
 10
910.16228873457555
 20
-1160.3429462519343
 42
0.0091990524488423
 10
910.0564416259358
 20
-1160.339570396012
 42
0.0028333980777286
 10
909.9505277099438
 20
-1160.3387422884953
 10
909.94961225689349
 20
-1160.3387403186712
 42
-0.002361982781212
 10
909.84186624179131
 20
-1160.3379994775928
 10
909.80546107161172
 20
-1160.3375771711299
 42
0.0008824598485377
 10
909.62490508169446
 20
-1160.335801392891
 10
909.58104364935593
 20
-1160.335447431366
 42
0.003813266576811
 10
909.31276075349149
 20
-1160.3353284952991
 10
909.29622709868363
 20
-1160.3354472614428
 42
0.0060665569335568
 10
908.9949466070974
 20
-1160.3412675608636
 10
908.98069627506698
 20
-1160.3417158688312
 42
0.0080356953336903
 10
908.65123755872389
 20
-1160.3573835908983
 10
908.6391675436405
 20
-1160.3581521738386
 42
0.0098996399105952
 10
908.28640445898736
 20
-1160.3876374030369
 10
908.27635874961493
 20
-1160.3886776992349
 42
0.0117740981366489
 10
907.90520189126732
 20
-1160.4359699467645
 10
907.89697919478363
 20
-1160.4372150633355
 42
0.013743521513501
 10
907.51239037529808
 20
-1160.5063120368973
 10
907.50573333617513
 20
-1160.5076979331307
 42
0.015835986938262
 10
907.11273624237356
 20
-1160.6025900216111
 10
907.1073230555055
 20
-1160.604079962482
 42
0.018055412402713
 10
906.71100801089335
 20
-1160.7287179787206
 10
906.70645122280973
 20
-1160.730334014987
 42
0.0203657431282945
 10
906.3119737049991
 20
-1160.8885943565026
 10
906.30783016599105
 20
-1160.8904559779448
 42
0.022681968465513
 10
905.92039410978794
 20
-1161.0860985566153
 10
905.91619431876927
 20
-1161.0884641485354
 42
0.0248634984606092
 10
905.5410123775888
 20
-1161.3250907944823
 10
905.49281744880352
 20
-1161.358947836309
 42
0.0267044190885524
 10
905.21852475188757
 20
-1161.5743882121765
 42
0.0139303002197481
 10
904.9623575859506
 20
-1161.8116270530868
 10
904.95750420022785
 20
-1161.8163797159486
 42
0.0283460963442526
 10
904.71343160599974
 20
-1162.0841103763948
 10
904.6737631008441
 20
-1162.1329119538668
 42
0.0070695364826285
 10
904.59632587498425
 20
-1162.2309787698323
 42
0.0070695364826285
  0
LWPOLYLINE
  5
5C
100
AcDbEntity
  8
0
370
              15
390
0
  6
Continuous
 62
               7
100
AcDbPolyline
 90
      226
 70
             128
 10
901.06750543773785
 20
-1177.9525675760162
 42
-0.0026277636622399
 10
901.06742755393793
 20
-1177.885795650247
 10
901.06764491216984
 20
-1177.83264043283
 42
-0.0088680296729785
 10
901.07142152846279
 20
-1177.6596246504294
 10
901.07376788757529
 20
-1177.6003446249733
 42
-0.0077381705617146
 10
901.08981399833806
 20
-1177.3090841291817
 10
901.09068190951155
 20
-1177.29679589549
 42
-0.0068872530529698
 10
901.11731398925883
 20
-1176.9815741434297
 10
901.11851821344578
 20
-1176.9693331644025
 42
-0.006213002148236
 10
901.15611193027451
 20
-1176.6304634731564
 10
901.15761583380868
 20
-1176.6182896012474
 42
-0.0056726929665583
 10
901.20653769331068
 20
-1176.2560943791357
 10
901.20831113895542
 20
-1176.2440005788885
 42
-0.0052341884489253
 10
901.26892172521661
 20
-1175.8588073233632
 10
901.27093971399199
 20
-1175.8468023933783
 42
-0.0049768450167559
 10
901.34367839541767
 20
-1175.4389578259497
 10
901.36792741014017
 20
-1175.3104098429399
 42
-0.0089029805622428
 10
901.50500826193581
 20
-1174.648634395513
 10
901.53775363725345
 20
-1174.5036029649939
 42
-0.0080318257097363
 10
901.76730225159542
 20
-1173.5578933331353
 10
901.77928717804241
 20
-1173.51176269795
 42
-0.0074265721318506
 10
902.06329871689172
 20
-1172.481698119572
 10
902.08317826001144
 20
-1172.4135640589718
 42
-0.0069711922701568
 10
902.41048283851569
 20
-1171.3472963186523
 10
902.47043478562171
 20
-1171.1612749602803
 42
-0.005207042289633
 10
902.69986001088046
 20
-1170.4740028832503
 10
902.71714120305626
 20
-1170.4239756026229
 42
-0.0009167004448166
 10
902.92023309034221
 20
-1169.8395197544792
 42
-0.0025162726945448
 10
903.12733072060666
 20
-1169.2564784903111
 10
903.16455533241003
 20
-1169.1533289444112
 42
-0.0028212681457016
 10
903.41273125137332
 20
-1168.4775983122399
 10
903.4225620141209
 20
-1168.4512908675715
 42
-0.0031964916821024
 10
903.65885427178625
 20
-1167.8310861054363
 10
903.66848872578635
 20
-1167.8062761152903
 42
-0.0036281836451908
 10
903.89359468688644
 20
-1167.2388354343998
 10
903.90303309704564
 20
-1167.2155380028928
 42
-0.0041269166833236
 10
904.11765079370309
 20
-1166.6980971069188
 10
904.15028375012298
 20
-1166.6212186605596
 42
-0.004747221305617
 10
904.30732855567749
 20
-1166.2607971926743
 10
904.31422263687273
 20
-1166.2453765953715
 42
-0.0025651659999156
 10
904.46258067073586
 20
-1165.9180485395939
 42
-0.0057144634991878
 10
904.6163303645136
 20
-1165.5932388662179
 10
904.64436106991161
 20
-1165.5357304838305
 42
-0.0065388068371207
 10
904.82782809764819
 20
-1165.1714979871722
 10
904.83628655342488
 20
-1165.1552384078061
 42
-0.0074510843021667
 10
905.01246879930454
 20
-1164.8285501266801
 10
905.02064846983785
 20
-1164.8139093494071
 42
-0.0084648979862929
 10
905.19028232293567
 20
-1164.52200033845
 10
905.19813844943042
 20
-1164.508993346788
 42
-0.0095638542802481
 10
905.36197389701795
 20
-1164.2491044748206
 10
905.36944884068498
 20
-1164.2377351133723
 42
-0.0107191626807893
 10
905.52825042107725
 20
-1164.0071238788209
 10
905.53526715480803
 20
-1163.9973877864568
 42
-0.0118458573902972
 10
905.68981525332083
 20
-1163.7933155911458
 42
-0.0129184518193892
 10
905.85426787692222
 20
-1163.5971550749757
 10
905.88441264928747
 20
-1163.5630289960736
 42
-0.02177425796298
 10
906.06102497162078
 20
-1163.3798222258256
 10
906.0717705160755
 20
-1163.369605392628
 42
-0.0097266568651055
 10
906.23782813493699
 20
-1163.2177578181854
 42
-0.0187720905728109
 10
906.41217571082154
 20
-1163.0756889648001
 10
906.44288170149798
 20
-1163.052529882402
 42
-0.017942820752072
 10
906.67530242149678
 20
-1162.8899777052884
 10
906.67895474841396
 20
-1162.8876137703999
 42
-0.0170047877699502
 10
906.91471838594293
 20
-1162.7461532562493
 10
906.91850137469214
 20
-1162.7440549512114
 42
-0.0160190788367999
 10
907.15540992232479
 20
-1162.6224036492249
 42
-0.0151102861496382
 10
907.39944170477122
 20
-1162.5157208731703
 10
907.45182820698324
 20
-1162.4946807402755
 42
-0.0271945441887118
 10
907.81049076604165
 20
-1162.3728159295695
 10
907.87955556653117
 20
-1162.3534663883029
 42
-0.0237596594021696
 10
908.29535241355211
 20
-1162.2580156763215
 10
908.36341526728256
 20
-1162.2457609881949
 42
-0.0213715440554837
 10
908.64929019872784
 20
-1162.206813956685
 10
908.70943736494155
 20
-1162.2012242419844
 42
-0.0101465655815673
 10
908.87692989693994
 20
-1162.1890806987199
 10
908.88627028313556
 20
-1162.1885937837228
 42
-0.0100375910879571
 10
909.03542438370073
 20
-1162.1838179657975
 10
909.04568365337718
 20
-1162.1836955267831
 42
-0.0103625633384128
 10
909.17439164803591
 20
-1162.1848269603097
 10
909.19665729930318
 20
-1162.1854843187746
 42
-0.0115689250225394
 10
909.28070803683079
 20
-1162.1899138250196
 42
-0.0072438037433704
 10
909.36454631627089
 20
-1162.1975030247693
 10
909.38134682574275
 20
-1162.1992695674933
 42
-0.0217917313138196
 10
909.49791658905701
 20
-1162.2166894602146
 10
909.56351667962645
 20
-1162.2294360686294
 42
-0.0332943556749611
 10
909.7679088446514
 20
-1162.2834763599358
 10
909.79808141320382
 20
-1162.293644437055
 42
-0.0184824084788148
 10
909.93658646966696
 20
-1162.3460954524407
 42
-0.0198002050689504
 10
910.07066081016615
 20
-1162.4089795126401
 10
910.07254744754323
 20
-1162.4099572995201
 42
-0.0212242342982324
 10
910.20468638994589
 20
-1162.4857200383137
 10
910.20650168548855
 20
-1162.4868658405217
 42
-0.022609060580686
 10
910.33500558671074
 20
-1162.5763454840865
 10
910.33685002844777
 20
-1162.5777577370736
 42
-0.0238457052246776
 10
910.4600321097405
 20
-1162.6817536329359
 10
910.46198483829971
 20
-1162.6835685107021
 42
-0.0248160564157572
 10
910.57818634559987
 20
-1162.8028431119103
 10
910.58028997900237
 20
-1162.8052284456153
 42
-0.0254109591459934
 10
910.68789519686845
 20
-1162.9405168315798
 10
910.6901432187824
 20
-1162.9436583799802
 42
-0.0255528488285827
 10
910.78758989758001
 20
-1163.0956854342151
 10
910.78992099749576
 20
-1163.0997670458219
 42
-0.0252146793219262
 10
910.87570202350503
 20
-1163.2692692918195
 10
910.87800426266244
 20
-1163.2744513737318
 42
-0.0244265635947783
 10
910.95065895642415
 20
-1163.4621979457788
 10
910.95990535789213
 20
-1163.4900633641155
 42
-0.0231319612907658
 10
911.00582813688436
 20
-1163.6533644109179
 42
-0.0112130424362394
 10
911.0404641594231
 20
-1163.8195680111087
 10
911.04166668453513
 20
-1163.826064597994
 42
-0.0210527881225694
 10
911.06735315990613
 20
-1164.0071202434374
 10
911.07086375472772
 20
-1164.0425257919824
 42
-0.0190029892425727
 10
911.08630522827229
 20
-1164.2960616382522
 10
911.08711520471638
 20
-1164.3315372526235
 42
-0.0137974553663375
 10
911.08556635188086
 20
-1164.6565686593563
 10
911.08472089692543
 20
-1164.6826874039441
 42
-0.008133663421549
 10
911.06986156170274
 20
-1164.9880348715492
 42
-0.0073526923578256
 10
911.0455530283283
 20
-1165.2927831158322
 10
911.04429160454538
 20
-1165.3061197905004
 42
-0.0066886138691465
 10
911.00855601850128
 20
-1165.6367058339779
 10
911.00689892902892
 20
-1165.6503274529891
 42
-0.0061359187355268
 10
910.95904832697863
 20
-1166.0070914330847
 10
910.95701082590517
 20
-1166.0209862359184
 42
-0.0056698610058724
 10
910.8963604951374
 20
-1166.4042648047616
 10
910.89395506181518
 20
-1166.4184239239871
 42
-0.0052721077276971
 10
910.8198228610172
 20
-1166.828551263656
 10
910.81705971217377
 20
-1166.842967899051
 42
-0.0049289272176601
 10
910.72876559407007
 20
-1167.2802764101903
 10
910.72565309939114
 20
-1167.2949452629891
 42
-0.0047415956711762
 10
910.62241510785907
 20
-1167.7597420203988
 10
910.5876468974991
 20
-1167.909549115783
 42
-0.0084404470905147
 10
910.39763045392817
 20
-1168.6697731403108
 10
910.39150376594159
 20
-1168.6926372644675
 42
-0.0039635940259901
 10
910.17005008165791
 20
-1169.4936261287137
 10
910.15667328647805
 20
-1169.5405577453066
 42
-0.0072475040835901
 10
909.88922639861289
 20
-1170.4297774617039
 10
909.81901407179146
 20
-1170.6515178116572
 42
-0.0051345458829167
 10
909.5322546997287
 20
-1171.5258429994801
 10
909.51072843295651
 20
-1171.5892692666241
 42
-0.0019150016601091
 10
909.2551950260945
 20
-1172.3328183868362
 10
909.24872742170169
 20
-1172.3514058517474
 42
-0.0021524362752881
 10
909.00024937063449
 20
-1173.0557316734657
 10
908.99103894993937
 20
-1173.0814852517635
 42
-0.002433128681876
 10
908.75478369090206
 20
-1173.7320845598852
 10
908.74573573834994
 20
-1173.7566278662439
 42
-0.0027449721789461
 10
908.52112116751607
 20
-1174.3557577451641
 10
908.51223116012352
 20
-1174.3790803350171
 42
-0.0031083229768579
 10
908.29868867351388
 20
-1174.929004372596
 10
908.28995254183644
 20
-1174.9510940884584
 42
-0.0035311343283131
 10
908.08691135624645
 20
-1175.4540772141838
 10
908.07832601709083
 20
-1175.4749199377134
 42
-0.0040245640948722
 10
907.88521421330438
 20
-1175.9332292602867
 10
907.87677809970603
 20
-1175.9528086283478
 42
-0.0046015135852457
 10
907.69302180653756
 20
-1176.3687136580008
 10
907.6847356287052
 20
-1176.3870107974619
 42
-0.005276863826829
 10
907.50975810975365
 20
-1176.7627836817232
 10
907.50162589912281
 20
-1176.7797770202747
 42
-0.0060672675640418
 10
907.33484628636074
 20
-1177.1176926433807
 10
907.32687680588162
 20
-1177.1333579023733
 42
-0.0069904648875565
 10
907.16770841187781
 20
-1177.4356937090415
 10
907.1599170122696
 20
-1177.450004258264
 42
-0.0080637022769557
 10
907.00776515192115
 20
-1177.7190395614221
 10
907.00017611929047
 20
-1177.7319674270218
 42
-0.0093006455665356
 10
906.85443544275836
 20
-1177.9699818255258
 10
906.84708477601612
 20
-1177.9814997946967
 42
-0.0107060778059661
 10
906.7071362325762
 20
-1178.1907701120781
 10
906.70007446429759
 20
-1178.2008556546425
 42
-0.0122723111415997
 10
906.56528074609855
 20
-1178.3836489841328
 10
906.56495452255001
 20
-1178.3840693719353
 42
-0.0141836319641338
 10
906.42137291957033
 20
-1178.558639129772
 10
906.41442516391794
 20
-1178.5666141300374
 42
-0.0175957477207174
 10
906.27451899588368
 20
-1178.7162350184417
 42
-0.0080466359680596
 10
906.12705523085583
 20
-1178.8585575465906
 10
906.08102068633605
 20
-1178.9015779846841
 42
-0.0269600260395902
 10
905.82774044035352
 20
-1179.1139012431929
 10
905.76117330405248
 20
-1179.1638526578199
 42
-0.0178362839751624
 10
905.52122881440027
 20
-1179.3308705840695
 10
905.51398384340109
 20
-1179.3355390962736
 42
-0.0174650732652146
 10
905.2776476459585
 20
-1179.4764000612336
 42
-0.0169240130163348
 10
905.03218140009903
 20
-1179.6006923210118
 10
904.98619524454307
 20
-1179.6220542765782
 42
-0.03188830368418
 10
904.63584438892519
 20
-1179.7583925860877
 10
904.56747885375785
 20
-1179.7800932065638
 42
-0.0284435909903825
 10
904.19142872746727
 20
-1179.8763106420383
 10
904.15627056696667
 20
-1179.8832042378672
 42
-0.024390934101408
 10
903.84282710604975
 20
-1179.928925268897
 10
903.79254637928307
 20
-1179.9337708157984
 42
-0.0196639292931273
 10
903.57695080175131
 20
-1179.9460191013122
 10
903.52512673058823
 20
-1179.946922362049
 42
-0.0100501510681231
 10
903.41270344892359
 20
-1179.9466219636959
 10
903.38104358754617
 20
-1179.9459008918097
 42
-0.0019752031102329
 10
903.33195125089821
 20
-1179.944588731601
 10
903.32919094767999
 20
-1179.9445040397748
 42
0.0065378751992327
 10
903.28561437292137
 20
-1179.9437371485596
 42
-0.016797469468816
 10
903.24208354999348
 20
-1179.9420772500337
 10
903.23800421072747
 20
-1179.9417842391385
 42
-0.0081283276280386
 10
903.18644441298738
 20
-1179.9372372455007
 10
903.17470483911029
 20
-1179.9360093279224
 42
-0.0126703440184251
 10
903.09998654331741
 20
-1179.926274536851
 10
903.07719867564015
 20
-1179.9227162809357
 42
-0.0117852088431722
 10
902.95765968980709
 20
-1179.9011532857785
 10
902.90227923804468
 20
-1179.889809745544
 42
-0.0251774592289559
 10
902.67543519903575
 20
-1179.8313117361108
 10
902.63071600918363
 20
-1179.817344916775
 42
-0.014652519988295
 10
902.44432302164728
 20
-1179.7530783895777
 42
-0.0166929435854322
 10
902.26234536552101
 20
-1179.6772712565232
 10
902.25768873424749
 20
-1179.675146355909
 42
-0.0191684358439037
 10
902.07250510299923
 20
-1179.5819102721196
 10
902.06917251724121
 20
-1179.5800690245655
 42
-0.0221181781813434
 10
901.88586221333844
 20
-1179.4679355261944
 10
901.88351240933059
 20
-1179.4663512282038
 42
-0.0254984685387022
 10
901.70722225894519
 20
-1179.333940078234
 10
901.6847401112434
 20
-1179.3151877692981
 42
-0.0292492648804751
 10
901.55997117240031
 20
-1179.1980949696549
 42
-0.0159048957495093
 10
901.44613117495066
 20
-1179.0700749780565
 10
901.44481238437083
 20
-1179.0684933650359
 42
-0.0343813379558462
 10
901.34217512274461
 20
-1178.9266220392662
 10
901.31068359138294
 20
-1178.8761186471711
 42
-0.0369117275698362
 10
901.22479108948653
 20
-1178.7126414062238
 42
-0.0191751379920098
 10
901.1575977039297
 20
-1178.5402368002181
 10
901.15583438017006
 20
-1178.535143455543
 42
-0.0378178042228349
 10
901.10603966138569
 20
-1178.3462026794612
 10
901.10004436565634
 20
-1178.3136420612698
 42
-0.0184846046478667
 10
901.07932716636105
 20
-1178.1718892407198
 42
-0.0179866351324468
 10
901.06899416128738
 20
-1178.0289984276376
 10
901.06893771884165
 20
-1178.0274407410261
 42
-0.0085497186109164
 10
901.06750543773785
 20
-1177.9525675760162
 42
-0.0085497186109164
  0
ENDBLK
  5
5D
100
AcDbEntity
  8
template
390
0
100
AcDbBlockEnd
  0
BLOCK
  5
5E
100
AcDbEntity
  8
notes
390
0
100
AcDbBlockBegin
  2
*D3
 70
               1
 10
0.0
 20
0.0
 30
0.0
  3
*D3
  1

  0
LINE
  5
5F
100
AcDbEntity
  8
0
370
              -2
390
0
  6
Continuous
 62
               0
100
AcDbLine
 10
-281.73484761487924
 20
-629.9583107521978
 30
0.0
 11
-203.2348476148793
 21
-629.9583107521978
 31
0.0
  0
LINE
  5
60
100
AcDbEntity
  8
0
370
              -2
390
0
  6
Continuous
 62
               0
100
AcDbLine
 10
-281.73484761487924
 20
-339.95831075219746
 30
0.0
 11
-203.2348476148793
 21
-339.95831075219746
 31
0.0
  0
LINE
  5
61
100
AcDbEntity
  8
0
370
              -2
390
0
  6
Continuous
 62
               0
100
AcDbLine
 10
-203.2348476148793
 20
-629.9583107521978
 30
0.0
 11
-203.2348476148793
 21
-339.95831075219746
 31
0.0
  0
CIRCLE
  5
62
102
{ACAD_REACTORS
330
63
102
}
100
AcDbEntity
  8
0
370
              -2
390
0
  6
Continuous
 62
               0
100
AcDbCircle
 10
-203.2348476148793
 20
-629.9583107521978
 30
0.0
 40
1.9998779296875
  0
HATCH
  5
63
100
AcDbEntity
  8
0
370
              -2
390
0
  6
Continuous
 62
               0
100
AcDbHatch
 10
0.0
 20
0.0
 30
0.0
210
0.0
220
0.0
230
1.0
  2
SOLID
 70
               1
 71
               1
 91
        1
 92
        1
 93
        1
 72
               2
 10
-203.2348476148793
 20
-629.9583107521978
 40
1.9998779296875
 50
0.0
 51
360.0
 73
               0
 97
        1
330
62
 75
               0
 76
               1
 98
        1
 10
0.0
 20
0.0
  0
CIRCLE
  5
64
102
{ACAD_REACTORS
330
65
102
}
100
AcDbEntity
  8
0
370
              -2
390
0
  6
Continuous
 62
               0
100
AcDbCircle
 10
-203.2348476148793
 20
-339.95831075219746
 30
0.0
 40
1.9998779296875
  0
HATCH
  5
65
100
AcDbEntity
  8
0
370
              -2
390
0
  6
Continuous
 62
               0
100
AcDbHatch
 10
0.0
 20
0.0
 30
0.0
210
0.0
220
0.0
230
1.0
  2
SOLID
 70
               1
 71
               1
 91
        1
 92
        1
 93
        1
 72
               2
 10
-203.2348476148793
 20
-339.95831075219746
 40
1.9998779296875
 50
0.0
 51
360.0
 73
               0
 97
        1
330
64
 75
               0
 76
               1
 98
        1
 10
0.0
 20
0.0
  0
MTEXT
  5
66
100
AcDbEntity
  8
0
390
0
 62
               0
100
AcDbMText
 10
-234.61246480237929
 20
-508.77081243437317
 30
0.0
 40
24.432617187500004
 41
0.0
 71
               1
 72
               1
  1
290
  7
ＭＳ ゴシック
 11
0.0
 21
1.0
 31
0.0
 73
               1
 44
0.7828267384257843
  0
POINT
  5
67
100
AcDbEntity
  8
Defpoints
370
               0
390
0
 62
               0
100
AcDbPoint
 10
-306.73484761487924
 20
-339.95831075219746
 30
0.0
  0
POINT
  5
68
100
AcDbEntity
  8
Defpoints
370
               0
390
0
 62
               0
100
AcDbPoint
 10
-306.73484761487924
 20
-629.9583107521978
 30
0.0
  0
POINT
  5
69
100
AcDbEntity
  8
Defpoints
370
               0
390
0
 62
               0
100
AcDbPoint
 10
-203.2348476148793
 20
-629.9583107521978
 30
0.0
  0
ENDBLK
  5
6A
100
AcDbEntity
  8
notes
390
0
100
AcDbBlockEnd
  0
BLOCK
  5
6B
100
AcDbEntity
  8
notes
390
0
100
AcDbBlockBegin
  2
*D4
 70
               1
 10
0.0
 20
0.0
 30
0.0
  3
*D4
  1

  0
LINE
  5
6C
100
AcDbEntity
  8
0
370
              -2
390
0
  6
Continuous
 62
               0
100
AcDbLine
 10
-603.17879845536436
 20
584.18283758456073
 30
0.0
 11
-603.17879845536436
 21
433.18016219443371
 31
0.0
  0
LINE
  5
6D
100
AcDbEntity
  8
0
370
              -2
390
0
  6
Continuous
 62
               0
100
AcDbLine
 10
-328.17879845536379
 20
582.26794705250336
 30
0.0
 11
-328.17879845536379
 21
433.18016219443371
 31
0.0
  0
LINE
  5
6E
100
AcDbEntity
  8
0
370
              -2
390
0
  6
Continuous
 62
               0
100
AcDbLine
 10
-603.17879845536436
 20
433.18016219443371
 30
0.0
 11
-328.17879845536379
 21
433.18016219443371
 31
0.0
  0
CIRCLE
  5
6F
102
{ACAD_REACTORS
330
70
102
}
100
AcDbEntity
  8
0
370
              -2
390
0
  6
Continuous
 62
               0
100
AcDbCircle
 10
-603.17879845536436
 20
433.18016219443371
 30
0.0
 40
1.9998779296875
  0
HATCH
  5
70
100
AcDbEntity
  8
0
370
              -2
390
0
  6
Continuous
 62
               0
100
AcDbHatch
 10
0.0
 20
0.0
 30
0.0
210
0.0
220
0.0
230
1.0
  2
SOLID
 70
               1
 71
               1
 91
        1
 92
        1
 93
        1
 72
               2
 10
-603.17879845536436
 20
433.18016219443371
 40
1.9998779296875
 50
0.0
 51
360.0
 73
               0
 97
        1
330
6F
 75
               0
 76
               1
 98
        1
 10
0.0
 20
0.0
  0
CIRCLE
  5
71
102
{ACAD_REACTORS
330
72
102
}
100
AcDbEntity
  8
0
370
              -2
390
0
  6
Continuous
 62
               0
100
AcDbCircle
 10
-328.17879845536379
 20
433.18016219443371
 30
0.0
 40
1.9998779296875
  0
HATCH
  5
72
100
AcDbEntity
  8
0
370
              -2
390
0
  6
Continuous
 62
               0
100
AcDbHatch
 10
0.0
 20
0.0
 30
0.0
210
0.0
220
0.0
230
1.0
  2
SOLID
 70
               1
 71
               1
 91
        1
 92
        1
 93
        1
 72
               2
 10
-328.17879845536379
 20
433.18016219443371
 40
1.9998779296875
 50
0.0
 51
360.0
 73
               0
 97
        1
330
71
 75
               0
 76
               1
 98
        1
 10
0.0
 20
0.0
  0
MTEXT
  5
73
100
AcDbEntity
  8
0
390
0
 62
               0
100
AcDbMText
 10
-489.66246084278339
 20
464.55777938193376
 30
0.0
 40
24.432617187500004
 41
0.0
 71
               1
 72
               1
  1
275
  7
ＭＳ ゴシック
 73
               1
 44
0.7828267384257843
  0
POINT
  5
74
100
AcDbEntity
  8
Defpoints
370
               0
390
0
 62
               0
100
AcDbPoint
 10
-328.17879845536379
 20
607.26794705250336
 30
0.0
  0
POINT
  5
75
100
AcDbEntity
  8
Defpoints
370
               0
390
0
 62
               0
100
AcDbPoint
 10
-603.17879845536436
 20
609.18283758456073
 30
0.0
  0
POINT
  5
76
100
AcDbEntity
  8
Defpoints
370
               0
390
0
 62
               0
100
AcDbPoint
 10
-603.17879845536436
 20
433.18016219443371
 30
0.0
  0
ENDBLK
  5
77
100
AcDbEntity
  8
notes
390
0
100
AcDbBlockEnd
  0
BLOCK
  5
78
100
AcDbEntity
  8
notes
390
0
100
AcDbBlockBegin
  2
*D5
 70
               1
 10
0.0
 20
0.0
 30
0.0
  3
*D5
  1

  0
LINE
  5
79
100
AcDbEntity
  8
0
370
              -2
390
0
  6
Continuous
 62
               0
100
AcDbLine
 10
-390.6787984553639
 20
903.18016219443348
 30
0.0
 11
-390.6787984553639
 21
978.18016219443348
 31
0.0
  0
LINE
  5
7A
100
AcDbEntity
  8
0
370
              -2
390
0
  6
Continuous
 62
               0
100
AcDbLine
 10
-540.67879845536424
 20
903.18016219443348
 30
0.0
 11
-540.67879845536424
 21
978.18016219443348
 31
0.0
  0
LINE
  5
7B
100
AcDbEntity
  8
0
370
              -2
390
0
  6
Continuous
 62
               0
100
AcDbLine
 10
-390.6787984553639
 20
978.18016219443348
 30
0.0
 11
-540.67879845536424
 21
978.18016219443348
 31
0.0
  0
CIRCLE
  5
7C
102
{ACAD_REACTORS
330
7D
102
}
100
AcDbEntity
  8
0
370
              -2
390
0
  6
Continuous
 62
               0
100
AcDbCircle
 10
-390.6787984553639
 20
978.18016219443348
 30
0.0
 40
1.9998779296875
  0
HATCH
  5
7D
100
AcDbEntity
  8
0
370
              -2
390
0
  6
Continuous
 62
               0
100
AcDbHatch
 10
0.0
 20
0.0
 30
0.0
210
0.0
220
0.0
230
1.0
  2
SOLID
 70
               1
 71
               1
 91
        1
 92
        1
 93
        1
 72
               2
 10
-390.6787984553639
 20
978.18016219443348
 40
1.9998779296875
 50
0.0
 51
360.0
 73
               0
 97
        1
330
7C
 75
               0
 76
               1
 98
        1
 10
0.0
 20
0.0
  0
CIRCLE
  5
7E
102
{ACAD_REACTORS
330
7F
102
}
100
AcDbEntity
  8
0
370
              -2
390
0
  6
Continuous
 62
               0
100
AcDbCircle
 10
-540.67879845536424
 20
978.18016219443348
 30
0.0
 40
1.9998779296875
  0
HATCH
  5
7F
100
AcDbEntity
  8
0
370
              -2
390
0
  6
Continuous
 62
               0
100
AcDbHatch
 10
0.0
 20
0.0
 30
0.0
210
0.0
220
0.0
230
1.0
  2
SOLID
 70
               1
 71
               1
 91
        1
 92
        1
 93
        1
 72
               2
 10
-540.67879845536424
 20
978.18016219443348
 40
1.9998779296875
 50
0.0
 51
360.0
 73
               0
 97
        1
330
7E
 75
               0
 76
               1
 98
        1
 10
0.0
 20
0.0
  0
MTEXT
  5
80
100
AcDbEntity
  8
0
390
0
 62
               0
100
AcDbMText
 10
-489.49130013753961
 20
1009.5577793819334
 30
0.0
 40
24.432617187500004
 41
0.0
 71
               1
 72
               1
  1
150
  7
ＭＳ ゴシック
 73
               1
 44
0.7828267384257843
  0
POINT
  5
81
100
AcDbEntity
  8
Defpoints
370
               0
390
0
 62
               0
100
AcDbPoint
 10
-540.67879845536424
 20
878.18016219443348
 30
0.0
  0
POINT
  5
82
100
AcDbEntity
  8
Defpoints
370
               0
390
0
 62
               0
100
AcDbPoint
 10
-390.6787984553639
 20
878.18016219443348
 30
0.0
  0
POINT
  5
83
100
AcDbEntity
  8
Defpoints
370
               0
390
0
 62
               0
100
AcDbPoint
 10
-390.6787984553639
 20
978.18016219443348
 30
0.0
  0
ENDBLK
  5
84
100
AcDbEntity
  8
notes
390
0
100
AcDbBlockEnd
  0
BLOCK
  5
85
100
AcDbEntity
  8
notes
390
0
100
AcDbBlockBegin
  2
*D6
 70
               1
 10
0.0
 20
0.0
 30
0.0
  3
*D6
  1

  0
LINE
  5
86
100
AcDbEntity
  8
0
370
              -2
390
0
  6
Continuous
 62
               0
100
AcDbLine
 10
-628.17879845536436
 20
658.18016219443359
 30
0.0
 11
-628.17879845536436
 21
383.18016219443359
 31
0.0
  0
LINE
  5
87
100
AcDbEntity
  8
0
370
              -2
390
0
  6
Continuous
 62
               0
100
AcDbLine
 10
-303.17879845536379
 20
658.18016219443359
 30
0.0
 11
-303.17879845536379
 21
383.18016219443359
 31
0.0
  0
LINE
  5
88
100
AcDbEntity
  8
0
370
              -2
390
0
  6
Continuous
 62
               0
100
AcDbLine
 10
-628.17879845536436
 20
383.18016219443359
 30
0.0
 11
-303.17879845536379
 21
383.18016219443359
 31
0.0
  0
CIRCLE
  5
89
102
{ACAD_REACTORS
330
8A
102
}
100
AcDbEntity
  8
0
370
              -2
390
0
  6
Continuous
 62
               0
100
AcDbCircle
 10
-628.17879845536436
 20
383.18016219443359
 30
0.0
 40
1.9998779296875
  0
HATCH
  5
8A
100
AcDbEntity
  8
0
370
              -2
390
0
  6
Continuous
 62
               0
100
AcDbHatch
 10
0.0
 20
0.0
 30
0.0
210
0.0
220
0.0
230
1.0
  2
SOLID
 70
               1
 71
               1
 91
        1
 92
        1
 93
        1
 72
               2
 10
-628.17879845536436
 20
383.18016219443359
 40
1.9998779296875
 50
0.0
 51
360.0
 73
               0
 97
        1
330
89
 75
               0
 76
               1
 98
        1
 10
0.0
 20
0.0
  0
CIRCLE
  5
8B
102
{ACAD_REACTORS
330
8C
102
}
100
AcDbEntity
  8
0
370
              -2
390
0
  6
Continuous
 62
               0
100
AcDbCircle
 10
-303.17879845536379
 20
383.18016219443359
 30
0.0
 40
1.9998779296875
  0
HATCH
  5
8C
100
AcDbEntity
  8
0
370
              -2
390
0
  6
Continuous
 62
               0
100
AcDbHatch
 10
0.0
 20
0.0
 30
0.0
210
0.0
220
0.0
230
1.0
  2
SOLID
 70
               1
 71
               1
 91
        1
 92
        1
 93
        1
 72
               2
 10
-303.17879845536379
 20
383.18016219443359
 40
1.9998779296875
 50
0.0
 51
360.0
 73
               0
 97
        1
330
8B
 75
               0
 76
               1
 98
        1
 10
0.0
 20
0.0
  0
MTEXT
  5
8D
100
AcDbEntity
  8
0
390
0
 62
               0
100
AcDbMText
 10
-488.51285933169407
 20
414.55777938193364
 30
0.0
 40
24.432617187500004
 41
0.0
 71
               1
 72
               1
  1
325
  7
ＭＳ ゴシック
 73
               1
 44
0.7828267384257843
  0
POINT
  5
8E
100
AcDbEntity
  8
Defpoints
370
               0
390
0
 62
               0
100
AcDbPoint
 10
-303.17879845536379
 20
683.18016219443359
 30
0.0
  0
POINT
  5
8F
100
AcDbEntity
  8
Defpoints
370
               0
390
0
 62
               0
100
AcDbPoint
 10
-628.17879845536436
 20
683.18016219443359
 30
0.0
  0
POINT
  5
90
100
AcDbEntity
  8
Defpoints
370
               0
390
0
 62
               0
100
AcDbPoint
 10
-628.17879845536436
 20
383.18016219443359
 30
0.0
  0
ENDBLK
  5
91
100
AcDbEntity
  8
notes
390
0
100
AcDbBlockEnd
  0
BLOCK
  5
92
100
AcDbEntity
  8
notes
390
0
100
AcDbBlockBegin
  2
*D7
 70
               1
 10
0.0
 20
0.0
 30
0.0
  3
*D7
  1

  0
LINE
  5
93
100
AcDbEntity
  8
0
370
              -2
390
0
  6
Continuous
 62
               0
100
AcDbLine
 10
272.65495536616606
 20
-349.95831075219746
 30
0.0
 11
197.65495536616618
 21
-349.95831075219746
 31
0.0
  0
LINE
  5
94
100
AcDbEntity
  8
0
370
              -2
390
0
  6
Continuous
 62
               0
100
AcDbLine
 10
272.65495536616606
 20
-619.95831075219758
 30
0.0
 11
197.65495536616618
 21
-619.95831075219758
 31
0.0
  0
LINE
  5
95
100
AcDbEntity
  8
0
370
              -2
390
0
  6
Continuous
 62
               0
100
AcDbLine
 10
197.65495536616618
 20
-349.95831075219746
 30
0.0
 11
197.65495536616618
 21
-619.95831075219758
 31
0.0
  0
CIRCLE
  5
96
102
{ACAD_REACTORS
330
97
102
}
100
AcDbEntity
  8
0
370
              -2
390
0
  6
Continuous
 62
               0
100
AcDbCircle
 10
197.65495536616618
 20
-349.95831075219746
 30
0.0
 40
1.9998779296875
  0
HATCH
  5
97
100
AcDbEntity
  8
0
370
              -2
390
0
  6
Continuous
 62
               0
100
AcDbHatch
 10
0.0
 20
0.0
 30
0.0
210
0.0
220
0.0
230
1.0
  2
SOLID
 70
               1
 71
               1
 91
        1
 92
        1
 93
        1
 72
               2
 10
197.65495536616618
 20
-349.95831075219746
 40
1.9998779296875
 50
0.0
 51
360.0
 73
               0
 97
        1
330
96
 75
               0
 76
               1
 98
        1
 10
0.0
 20
0.0
  0
CIRCLE
  5
98
102
{ACAD_REACTORS
330
99
102
}
100
AcDbEntity
  8
0
370
              -2
390
0
  6
Continuous
 62
               0
100
AcDbCircle
 10
197.65495536616618
 20
-619.95831075219758
 30
0.0
 40
1.9998779296875
  0
HATCH
  5
99
100
AcDbEntity
  8
0
370
              -2
390
0
  6
Continuous
 62
               0
100
AcDbHatch
 10
0.0
 20
0.0
 30
0.0
210
0.0
220
0.0
230
1.0
  2
SOLID
 70
               1
 71
               1
 91
        1
 92
        1
 93
        1
 72
               2
 10
197.65495536616618
 20
-619.95831075219758
 40
1.9998779296875
 50
0.0
 51
360.0
 73
               0
 97
        1
330
98
 75
               0
 76
               1
 98
        1
 10
0.0
 20
0.0
  0
MTEXT
  5
9A
100
AcDbEntity
  8
0
390
0
 62
               0
100
AcDbMText
 10
166.27733817866618
 20
-517.23059986110707
 30
0.0
 40
24.432617187500004
 41
0.0
 71
               1
 72
               1
  1
270
  7
ＭＳ ゴシック
 11
0.0
 21
1.0
 31
0.0
 73
               1
 44
0.7828267384257843
  0
POINT
  5
9B
100
AcDbEntity
  8
Defpoints
370
               0
390
0
 62
               0
100
AcDbPoint
 10
297.65495536616606
 20
-619.95831075219758
 30
0.0
  0
POINT
  5
9C
100
AcDbEntity
  8
Defpoints
370
               0
390
0
 62
               0
100
AcDbPoint
 10
297.65495536616606
 20
-349.95831075219746
 30
0.0
  0
POINT
  5
9D
100
AcDbEntity
  8
Defpoints
370
               0
390
0
 62
               0
100
AcDbPoint
 10
197.65495536616618
 20
-349.95831075219746
 30
0.0
  0
ENDBLK
  5
9E
100
AcDbEntity
  8
notes
390
0
100
AcDbBlockEnd
  0
BLOCK
  5
9F
100
AcDbEntity
  8
notes
390
0
100
AcDbBlockBegin
  2
*D8
 70
               1
 10
0.0
 20
0.0
 30
0.0
  3
*D8
  1

  0
LINE
  5
A0
100
AcDbEntity
  8
0
370
              -2
390
0
  6
Continuous
 62
               0
100
AcDbLine
 10
296.21100452568123
 20
-629.9583107521978
 30
0.0
 11
197.65495536616618
 21
-629.9583107521978
 31
0.0
  0
LINE
  5
A1
100
AcDbEntity
  8
0
370
              -2
390
0
  6
Continuous
 62
               0
100
AcDbLine
 10
272.65495536616606
 20
-619.95831075219758
 30
0.0
 11
197.65495536616618
 21
-619.95831075219758
 31
0.0
  0
LINE
  5
A2
100
AcDbEntity
  8
0
370
              -2
390
0
  6
Continuous
 62
               0
100
AcDbLine
 10
197.65495536616618
 20
-629.9583107521978
 30
0.0
 11
197.65495536616618
 21
-619.95831075219758
 31
0.0
  0
CIRCLE
  5
A3
102
{ACAD_REACTORS
330
A4
102
}
100
AcDbEntity
  8
0
370
              -2
390
0
  6
Continuous
 62
               0
100
AcDbCircle
 10
197.65495536616618
 20
-629.9583107521978
 30
0.0
 40
1.9998779296875
  0
HATCH
  5
A4
100
AcDbEntity
  8
0
370
              -2
390
0
  6
Continuous
 62
               0
100
AcDbHatch
 10
0.0
 20
0.0
 30
0.0
210
0.0
220
0.0
230
1.0
  2
SOLID
 70
               1
 71
               1
 91
        1
 92
        1
 93
        1
 72
               2
 10
197.65495536616618
 20
-629.9583107521978
 40
1.9998779296875
 50
0.0
 51
360.0
 73
               0
 97
        1
330
A3
 75
               0
 76
               1
 98
        1
 10
0.0
 20
0.0
  0
CIRCLE
  5
A5
102
{ACAD_REACTORS
330
A6
102
}
100
AcDbEntity
  8
0
370
              -2
390
0
  6
Continuous
 62
               0
100
AcDbCircle
 10
197.65495536616618
 20
-619.95831075219758
 30
0.0
 40
1.9998779296875
  0
HATCH
  5
A6
100
AcDbEntity
  8
0
370
              -2
390
0
  6
Continuous
 62
               0
100
AcDbHatch
 10
0.0
 20
0.0
 30
0.0
210
0.0
220
0.0
230
1.0
  2
SOLID
 70
               1
 71
               1
 91
        1
 92
        1
 93
        1
 72
               2
 10
197.65495536616618
 20
-619.95831075219758
 40
1.9998779296875
 50
0.0
 51
360.0
 73
               0
 97
        1
330
A5
 75
               0
 76
               1
 98
        1
 10
0.0
 20
0.0
  0
MTEXT
  5
A7
100
AcDbEntity
  8
0
390
0
 62
               0
100
AcDbMText
 10
166.27733817866618
 20
-640.83331075219758
 30
0.0
 40
24.432617187500004
 41
0.0
 71
               1
 72
               1
  1
10
  7
ＭＳ ゴシック
 11
0.0
 21
1.0
 31
0.0
 73
               1
 44
0.7828267384257843
  0
POINT
  5
A8
100
AcDbEntity
  8
Defpoints
370
               0
390
0
 62
               0
100
AcDbPoint
 10
297.65495536616606
 20
-619.95831075219758
 30
0.0
  0
POINT
  5
A9
100
AcDbEntity
  8
Defpoints
370
               0
390
0
 62
               0
100
AcDbPoint
 10
321.21100452568123
 20
-629.9583107521978
 30
0.0
  0
POINT
  5
AA
100
AcDbEntity
  8
Defpoints
370
               0
390
0
 62
               0
100
AcDbPoint
 10
197.65495536616618
 20
-629.9583107521978
 30
0.0
  0
ENDBLK
  5
AB
100
AcDbEntity
  8
notes
390
0
100
AcDbBlockEnd
  0
BLOCK
  5
AC
100
AcDbEntity
  8
notes
390
0
100
AcDbBlockBegin
  2
*D9
 70
               1
 10
0.0
 20
0.0
 30
0.0
  3
*D9
  1

  0
LINE
  5
AD
100
AcDbEntity
  8
0
370
              -2
390
0
  6
Continuous
 62
               0
100
AcDbLine
 10
-365.6787984553639
 20
878.18016219443348
 30
0.0
 11
-203.17879845536379
 21
878.18016219443348
 31
0.0
  0
LINE
  5
AE
100
AcDbEntity
  8
0
370
              -2
390
0
  6
Continuous
 62
               0
100
AcDbLine
 10
-428.17879845536379
 20
533.18016219443359
 30
0.0
 11
-203.17879845536379
 21
533.18016219443359
 31
0.0
  0
LINE
  5
AF
100
AcDbEntity
  8
0
370
              -2
390
0
  6
Continuous
 62
               0
100
AcDbLine
 10
-203.17879845536379
 20
878.18016219443348
 30
0.0
 11
-203.17879845536379
 21
533.18016219443359
 31
0.0
  0
CIRCLE
  5
B0
102
{ACAD_REACTORS
330
B1
102
}
100
AcDbEntity
  8
0
370
              -2
390
0
  6
Continuous
 62
               0
100
AcDbCircle
 10
-203.17879845536379
 20
878.18016219443348
 30
0.0
 40
1.9998779296875
  0
HATCH
  5
B1
100
AcDbEntity
  8
0
370
              -2
390
0
  6
Continuous
 62
               0
100
AcDbHatch
 10
0.0
 20
0.0
 30
0.0
210
0.0
220
0.0
230
1.0
  2
SOLID
 70
               1
 71
               1
 91
        1
 92
        1
 93
        1
 72
               2
 10
-203.17879845536379
 20
878.18016219443348
 40
1.9998779296875
 50
0.0
 51
360.0
 73
               0
 97
        1
330
B0
 75
               0
 76
               1
 98
        1
 10
0.0
 20
0.0
  0
CIRCLE
  5
B2
102
{ACAD_REACTORS
330
B3
102
}
100
AcDbEntity
  8
0
370
              -2
390
0
  6
Continuous
 62
               0
100
AcDbCircle
 10
-203.17879845536379
 20
533.18016219443359
 30
0.0
 40
1.9998779296875
  0
HATCH
  5
B3
100
AcDbEntity
  8
0
370
              -2
390
0
  6
Continuous
 62
               0
100
AcDbHatch
 10
0.0
 20
0.0
 30
0.0
210
0.0
220
0.0
230
1.0
  2
SOLID
 70
               1
 71
               1
 91
        1
 92
        1
 93
        1
 72
               2
 10
-203.17879845536379
 20
533.18016219443359
 40
1.9998779296875
 50
0.0
 51
360.0
 73
               0
 97
        1
330
B2
 75
               0
 76
               1
 98
        1
 10
0.0
 20
0.0
  0
MTEXT
  5
B4
100
AcDbEntity
  8
0
390
0
 62
               0
100
AcDbMText
 10
-234.55641564286378
 20
681.867660512258
 30
0.0
 40
24.432617187500004
 41
0.0
 71
               1
 72
               1
  1
345
  7
ＭＳ ゴシック
 11
0.0
 21
1.0
 31
0.0
 73
               1
 44
0.7828267384257843
  0
POINT
  5
B5
100
AcDbEntity
  8
Defpoints
370
               0
390
0
 62
               0
100
AcDbPoint
 10
-453.17879845536379
 20
533.18016219443359
 30
0.0
  0
POINT
  5
B6
100
AcDbEntity
  8
Defpoints
370
               0
390
0
 62
               0
100
AcDbPoint
 10
-390.6787984553639
 20
878.18016219443348
 30
0.0
  0
POINT
  5
B7
100
AcDbEntity
  8
Defpoints
370
               0
390
0
 62
               0
100
AcDbPoint
 10
-203.17879845536379
 20
878.18016219443348
 30
0.0
  0
ENDBLK
  5
B8
100
AcDbEntity
  8
notes
390
0
100
AcDbBlockEnd
  0
BLOCK
  5
B9
100
AcDbEntity
  8
notes
390
0
100
AcDbBlockBegin
  2
*D10
 70
               1
 10
0.0
 20
0.0
 30
0.0
  3
*D10
  1

  0
LINE
  5
BA
100
AcDbEntity
  8
0
370
              -2
390
0
  6
Continuous
 62
               0
100
AcDbLine
 10
-565.67879845536424
 20
878.18016219443348
 30
0.0
 11
-728.17879845536413
 21
878.18016219443348
 31
0.0
  0
LINE
  5
BB
100
AcDbEntity
  8
0
370
              -2
390
0
  6
Continuous
 62
               0
100
AcDbLine
 10
-575.54506854614147
 20
833.18016219443371
 30
0.0
 11
-728.17879845536413
 21
833.18016219443371
 31
0.0
  0
LINE
  5
BC
100
AcDbEntity
  8
0
370
              -2
390
0
  6
Continuous
 62
               0
100
AcDbLine
 10
-728.17879845536413
 20
878.18016219443348
 30
0.0
 11
-728.17879845536413
 21
833.18016219443371
 31
0.0
  0
CIRCLE
  5
BD
102
{ACAD_REACTORS
330
BE
102
}
100
AcDbEntity
  8
0
370
              -2
390
0
  6
Continuous
 62
               0
100
AcDbCircle
 10
-728.17879845536413
 20
878.18016219443348
 30
0.0
 40
1.9998779296875
  0
HATCH
  5
BE
100
AcDbEntity
  8
0
370
              -2
390
0
  6
Continuous
 62
               0
100
AcDbHatch
 10
0.0
 20
0.0
 30
0.0
210
0.0
220
0.0
230
1.0
  2
SOLID
 70
               1
 71
               1
 91
        1
 92
        1
 93
        1
 72
               2
 10
-728.17879845536413
 20
878.18016219443348
 40
1.9998779296875
 50
0.0
 51
360.0
 73
               0
 97
        1
330
BD
 75
               0
 76
               1
 98
        1
 10
0.0
 20
0.0
  0
CIRCLE
  5
BF
102
{ACAD_REACTORS
330
C0
102
}
100
AcDbEntity
  8
0
370
              -2
390
0
  6
Continuous
 62
               0
100
AcDbCircle
 10
-728.17879845536413
 20
833.18016219443371
 30
0.0
 40
1.9998779296875
  0
HATCH
  5
C0
100
AcDbEntity
  8
0
370
              -2
390
0
  6
Continuous
 62
               0
100
AcDbHatch
 10
0.0
 20
0.0
 30
0.0
210
0.0
220
0.0
230
1.0
  2
SOLID
 70
               1
 71
               1
 91
        1
 92
        1
 93
        1
 72
               2
 10
-728.17879845536413
 20
833.18016219443371
 40
1.9998779296875
 50
0.0
 51
360.0
 73
               0
 97
        1
330
BF
 75
               0
 76
               1
 98
        1
 10
0.0
 20
0.0
  0
MTEXT
  5
C1
100
AcDbEntity
  8
0
390
0
 62
               0
100
AcDbMText
 10
-759.55641564286418
 20
839.80516219443348
 30
0.0
 40
24.432617187500004
 41
0.0
 71
               1
 72
               1
  1
45
  7
ＭＳ ゴシック
 11
0.0
 21
1.0
 31
0.0
 73
               1
 44
0.7828267384257843
  0
POINT
  5
C2
100
AcDbEntity
  8
Defpoints
370
               0
390
0
 62
               0
100
AcDbPoint
 10
-550.54506854614147
 20
833.18016219443371
 30
0.0
  0
POINT
  5
C3
100
AcDbEntity
  8
Defpoints
370
               0
390
0
 62
               0
100
AcDbPoint
 10
-540.67879845536424
 20
878.18016219443348
 30
0.0
  0
POINT
  5
C4
100
AcDbEntity
  8
Defpoints
370
               0
390
0
 62
               0
100
AcDbPoint
 10
-728.17879845536413
 20
878.18016219443348
 30
0.0
  0
ENDBLK
  5
C5
100
AcDbEntity
  8
notes
390
0
100
AcDbBlockEnd
  0
BLOCK
  5
C6
100
AcDbEntity
  8
notes
390
0
100
AcDbBlockBegin
  2
*D11
 70
               1
 10
0.0
 20
0.0
 30
0.0
  3
*D11
  1

  0
LINE
  5
C7
100
AcDbEntity
  8
0
370
              -2
390
0
  6
Continuous
 62
               0
100
AcDbLine
 10
-577.28133883380792
 20
833.18016219443371
 30
0.0
 11
-728.17879845536436
 21
833.18016219443371
 31
0.0
  0
LINE
  5
C8
100
AcDbEntity
  8
0
370
              -2
390
0
  6
Continuous
 62
               0
100
AcDbLine
 10
-577.28133883380804
 20
558.18016219443348
 30
0.0
 11
-728.17879845536436
 21
558.18016219443348
 31
0.0
  0
LINE
  5
C9
100
AcDbEntity
  8
0
370
              -2
390
0
  6
Continuous
 62
               0
100
AcDbLine
 10
-728.17879845536436
 20
833.18016219443371
 30
0.0
 11
-728.17879845536436
 21
558.18016219443348
 31
0.0
  0
CIRCLE
  5
CA
102
{ACAD_REACTORS
330
CB
102
}
100
AcDbEntity
  8
0
370
              -2
390
0
  6
Continuous
 62
               0
100
AcDbCircle
 10
-728.17879845536436
 20
833.18016219443371
 30
0.0
 40
1.9998779296875
  0
HATCH
  5
CB
100
AcDbEntity
  8
0
370
              -2
390
0
  6
Continuous
 62
               0
100
AcDbHatch
 10
0.0
 20
0.0
 30
0.0
210
0.0
220
0.0
230
1.0
  2
SOLID
 70
               1
 71
               1
 91
        1
 92
        1
 93
        1
 72
               2
 10
-728.17879845536436
 20
833.18016219443371
 40
1.9998779296875
 50
0.0
 51
360.0
 73
               0
 97
        1
330
CA
 75
               0
 76
               1
 98
        1
 10
0.0
 20
0.0
  0
CIRCLE
  5
CC
102
{ACAD_REACTORS
330
CD
102
}
100
AcDbEntity
  8
0
370
              -2
390
0
  6
Continuous
 62
               0
100
AcDbCircle
 10
-728.17879845536436
 20
558.18016219443348
 30
0.0
 40
1.9998779296875
  0
HATCH
  5
CD
100
AcDbEntity
  8
0
370
              -2
390
0
  6
Continuous
 62
               0
100
AcDbHatch
 10
0.0
 20
0.0
 30
0.0
210
0.0
220
0.0
230
1.0
  2
SOLID
 70
               1
 71
               1
 91
        1
 92
        1
 93
        1
 72
               2
 10
-728.17879845536436
 20
558.18016219443348
 40
1.9998779296875
 50
0.0
 51
360.0
 73
               0
 97
        1
330
CC
 75
               0
 76
               1
 98
        1
 10
0.0
 20
0.0
  0
MTEXT
  5
CE
100
AcDbEntity
  8
0
390
0
 62
               0
100
AcDbMText
 10
-759.55641564286441
 20
671.86766051225811
 30
0.0
 40
24.432617187500004
 41
0.0
 71
               1
 72
               1
  1
275
  7
ＭＳ ゴシック
 11
0.0
 21
1.0
 31
0.0
 73
               1
 44
0.7828267384257843
  0
POINT
  5
CF
100
AcDbEntity
  8
Defpoints
370
               0
390
0
 62
               0
100
AcDbPoint
 10
-552.28133883380804
 20
558.18016219443348
 30
0.0
  0
POINT
  5
D0
100
AcDbEntity
  8
Defpoints
370
               0
390
0
 62
               0
100
AcDbPoint
 10
-552.28133883380792
 20
833.18016219443371
 30
0.0
  0
POINT
  5
D1
100
AcDbEntity
  8
Defpoints
370
               0
390
0
 62
               0
100
AcDbPoint
 10
-728.17879845536436
 20
833.18016219443371
 30
0.0
  0
ENDBLK
  5
D2
100
AcDbEntity
  8
notes
390
0
100
AcDbBlockEnd
  0
BLOCK
  5
D3
100
AcDbEntity
  8
notes
390
0
100
AcDbBlockBegin
  2
*D12
 70
               1
 10
0.0
 20
0.0
 30
0.0
  3
*D12
  1

  0
LINE
  5
D4
100
AcDbEntity
  8
0
370
              -2
390
0
  6
Continuous
 62
               0
100
AcDbLine
 10
480.15495536620529
 20
-654.9583107521978
 30
0.0
 11
480.15495536620529
 21
-729.9583107521978
 31
0.0
  0
LINE
  5
D5
100
AcDbEntity
  8
0
370
              -2
390
0
  6
Continuous
 62
               0
100
AcDbLine
 10
297.65495536616618
 20
-644.95831075219758
 30
0.0
 11
297.65495536616618
 21
-729.9583107521978
 31
0.0
  0
LINE
  5
D6
100
AcDbEntity
  8
0
370
              -2
390
0
  6
Continuous
 62
               0
100
AcDbLine
 10
480.15495536620529
 20
-729.9583107521978
 30
0.0
 11
297.65495536616618
 21
-729.9583107521978
 31
0.0
  0
CIRCLE
  5
D7
102
{ACAD_REACTORS
330
D8
102
}
100
AcDbEntity
  8
0
370
              -2
390
0
  6
Continuous
 62
               0
100
AcDbCircle
 10
480.15495536620529
 20
-729.9583107521978
 30
0.0
 40
1.9998779296875
  0
HATCH
  5
D8
100
AcDbEntity
  8
0
370
              -2
390
0
  6
Continuous
 62
               0
100
AcDbHatch
 10
0.0
 20
0.0
 30
0.0
210
0.0
220
0.0
230
1.0
  2
SOLID
 70
               1
 71
               1
 91
        1
 92
        1
 93
        1
 72
               2
 10
480.15495536620529
 20
-729.9583107521978
 40
1.9998779296875
 50
0.0
 51
360.0
 73
               0
 97
        1
330
D7
 75
               0
 76
               1
 98
        1
 10
0.0
 20
0.0
  0
CIRCLE
  5
D9
102
{ACAD_REACTORS
330
DA
102
}
100
AcDbEntity
  8
0
370
              -2
390
0
  6
Continuous
 62
               0
100
AcDbCircle
 10
297.65495536616618
 20
-729.9583107521978
 30
0.0
 40
1.9998779296875
  0
HATCH
  5
DA
100
AcDbEntity
  8
0
370
              -2
390
0
  6
Continuous
 62
               0
100
AcDbHatch
 10
0.0
 20
0.0
 30
0.0
210
0.0
220
0.0
230
1.0
  2
SOLID
 70
               1
 71
               1
 91
        1
 92
        1
 93
        1
 72
               2
 10
297.65495536616618
 20
-729.9583107521978
 40
1.9998779296875
 50
0.0
 51
360.0
 73
               0
 97
        1
330
D9
 75
               0
 76
               1
 98
        1
 10
0.0
 20
0.0
  0
MTEXT
  5
DB
100
AcDbEntity
  8
0
390
0
 62
               0
100
AcDbMText
 10
349.21745536618573
 20
-696.08069356469775
 30
0.0
 40
24.432617187500004
 41
0.0
 71
               1
 72
               1
  1
182.5
  7
ＭＳ ゴシック
 73
               1
 44
0.7828267384257843
  0
POINT
  5
DC
100
AcDbEntity
  8
Defpoints
370
               0
390
0
 62
               0
100
AcDbPoint
 10
297.65495536616618
 20
-619.95831075219758
 30
0.0
  0
POINT
  5
DD
100
AcDbEntity
  8
Defpoints
370
               0
390
0
 62
               0
100
AcDbPoint
 10
480.15495536620529
 20
-629.9583107521978
 30
0.0
  0
POINT
  5
DE
100
AcDbEntity
  8
Defpoints
370
               0
390
0
 62
               0
100
AcDbPoint
 10
480.15495536620529
 20
-729.9583107521978
 30
0.0
  0
ENDBLK
  5
DF
100
AcDbEntity
  8
notes
390
0
100
AcDbBlockEnd
  0
BLOCK
  5
E0
100
AcDbEntity
  8
notes
390
0
100
AcDbBlockBegin
  2
*D13
 70
               1
 10
0.0
 20
0.0
 30
0.0
  3
*D13
  1

  0
LINE
  5
E1
100
AcDbEntity
  8
0
370
              -2
390
0
  6
Continuous
 62
               0
100
AcDbLine
 10
468.14124733007935
 20
-439.95658956372637
 30
0.0
 11
483.1416596846949
 21
-439.95658956372637
 31
0.0
  0
LINE
  5
E2
100
AcDbEntity
  8
0
370
              -2
390
0
  6
Continuous
 62
               0
100
AcDbLine
 10
468.14124733003979
 20
-339.95658956372637
 30
0.0
 11
483.1416596846949
 21
-339.95658956372637
 31
0.0
  0
LINE
  5
E3
100
AcDbEntity
  8
0
370
              -2
390
0
  6
Continuous
 62
               0
100
AcDbLine
 10
483.1416596846949
 20
-339.95658956372637
 30
0.0
 11
483.1416596846949
 21
-157.0815895637264
 31
0.0
  0
LINE
  5
E4
100
AcDbEntity
  8
0
370
              -2
390
0
  6
Continuous
 62
               0
100
AcDbLine
 10
483.1416596846949
 20
-439.95658956372637
 30
0.0
 11
483.1416596846949
 21
-339.95658956372637
 31
0.0
  0
CIRCLE
  5
E5
102
{ACAD_REACTORS
330
E6
102
}
100
AcDbEntity
  8
0
370
              -2
390
0
  6
Continuous
 62
               0
100
AcDbCircle
 10
483.1416596846949
 20
-439.95658956372637
 30
0.0
 40
1.9998779296875
  0
HATCH
  5
E6
100
AcDbEntity
  8
0
370
              -2
390
0
  6
Continuous
 62
               0
100
AcDbHatch
 10
0.0
 20
0.0
 30
0.0
210
0.0
220
0.0
230
1.0
  2
SOLID
 70
               1
 71
               1
 91
        1
 92
        1
 93
        1
 72
               2
 10
483.1416596846949
 20
-439.95658956372637
 40
1.9998779296875
 50
0.0
 51
360.0
 73
               0
 97
        1
330
E5
 75
               0
 76
               1
 98
        1
 10
0.0
 20
0.0
  0
CIRCLE
  5
E7
102
{ACAD_REACTORS
330
E8
102
}
100
AcDbEntity
  8
0
370
              -2
390
0
  6
Continuous
 62
               0
100
AcDbCircle
 10
483.1416596846949
 20
-339.95658956372637
 30
0.0
 40
1.9998779296875
  0
HATCH
  5
E8
100
AcDbEntity
  8
0
370
              -2
390
0
  6
Continuous
 62
               0
100
AcDbHatch
 10
0.0
 20
0.0
 30
0.0
210
0.0
220
0.0
230
1.0
  2
SOLID
 70
               1
 71
               1
 91
        1
 92
        1
 93
        1
 72
               2
 10
483.1416596846949
 20
-339.95658956372637
 40
1.9998779296875
 50
0.0
 51
360.0
 73
               0
 97
        1
330
E7
 75
               0
 76
               1
 98
        1
 10
0.0
 20
0.0
  0
MTEXT
  5
E9
100
AcDbEntity
  8
0
390
0
 62
               0
100
AcDbMText
 10
449.26404249719491
 20
-299.95658956372637
 30
0.0
 40
24.432617187500004
 41
0.0
 71
               1
 72
               1
  1
100(深さ)
  7
ＭＳ ゴシック
 11
0.0
 21
1.0
 31
0.0
 73
               1
 44
0.7828267384257843
  0
POINT
  5
EA
100
AcDbEntity
  8
Defpoints
370
               0
390
0
 62
               0
100
AcDbPoint
 10
493.14124733003979
 20
-339.95658956372637
 30
0.0
  0
POINT
  5
EB
100
AcDbEntity
  8
Defpoints
370
               0
390
0
 62
               0
100
AcDbPoint
 10
493.14124733007935
 20
-439.95658956372637
 30
0.0
  0
POINT
  5
EC
100
AcDbEntity
  8
Defpoints
370
               0
390
0
 62
               0
100
AcDbPoint
 10
483.1416596846949
 20
-439.95658956372637
 30
0.0
  0
ENDBLK
  5
ED
100
AcDbEntity
  8
notes
390
0
100
AcDbBlockEnd
  0
BLOCK
  5
EE
100
AcDbEntity
  8
notes
390
0
100
AcDbBlockBegin
  2
*D14
 70
               1
 10
0.0
 20
0.0
 30
0.0
  3
*D14
  1

  0
LINE
  5
EF
100
AcDbEntity
  8
0
370
              -2
390
0
  6
Continuous
 62
               0
100
AcDbLine
 10
272.65495536616618
 20
-349.95831075219746
 30
0.0
 11
197.65495536616618
 21
-349.95831075219746
 31
0.0
  0
LINE
  5
F0
100
AcDbEntity
  8
0
370
              -2
390
0
  6
Continuous
 62
               0
100
AcDbLine
 10
296.21100452568135
 20
-339.95831075219746
 30
0.0
 11
197.65495536616618
 21
-339.95831075219746
 31
0.0
  0
LINE
  5
F1
100
AcDbEntity
  8
0
370
              -2
390
0
  6
Continuous
 62
               0
100
AcDbLine
 10
197.65495536616618
 20
-349.95831075219746
 30
0.0
 11
197.65495536616618
 21
-339.95831075219746
 31
0.0
  0
CIRCLE
  5
F2
102
{ACAD_REACTORS
330
F3
102
}
100
AcDbEntity
  8
0
370
              -2
390
0
  6
Continuous
 62
               0
100
AcDbCircle
 10
197.65495536616618
 20
-349.95831075219746
 30
0.0
 40
1.9998779296875
  0
HATCH
  5
F3
100
AcDbEntity
  8
0
370
              -2
390
0
  6
Continuous
 62
               0
100
AcDbHatch
 10
0.0
 20
0.0
 30
0.0
210
0.0
220
0.0
230
1.0
  2
SOLID
 70
               1
 71
               1
 91
        1
 92
        1
 93
        1
 72
               2
 10
197.65495536616618
 20
-349.95831075219746
 40
1.9998779296875
 50
0.0
 51
360.0
 73
               0
 97
        1
330
F2
 75
               0
 76
               1
 98
        1
 10
0.0
 20
0.0
  0
CIRCLE
  5
F4
102
{ACAD_REACTORS
330
F5
102
}
100
AcDbEntity
  8
0
370
              -2
390
0
  6
Continuous
 62
               0
100
AcDbCircle
 10
197.65495536616618
 20
-339.95831075219746
 30
0.0
 40
1.9998779296875
  0
HATCH
  5
F5
100
AcDbEntity
  8
0
370
              -2
390
0
  6
Continuous
 62
               0
100
AcDbHatch
 10
0.0
 20
0.0
 30
0.0
210
0.0
220
0.0
230
1.0
  2
SOLID
 70
               1
 71
               1
 91
        1
 92
        1
 93
        1
 72
               2
 10
197.65495536616618
 20
-339.95831075219746
 40
1.9998779296875
 50
0.0
 51
360.0
 73
               0
 97
        1
330
F4
 75
               0
 76
               1
 98
        1
 10
0.0
 20
0.0
  0
MTEXT
  5
F6
100
AcDbEntity
  8
0
390
0
 62
               0
100
AcDbMText
 10
163.77733817866618
 20
-360.83331075219746
 30
0.0
 40
24.432617187500004
 41
0.0
 71
               1
 72
               1
  1
10
  7
ＭＳ ゴシック
 11
0.0
 21
1.0
 31
0.0
 73
               1
 44
0.7828267384257843
  0
POINT
  5
F7
100
AcDbEntity
  8
Defpoints
370
               0
390
0
 62
               0
100
AcDbPoint
 10
321.21100452568135
 20
-339.95831075219746
 30
0.0
  0
POINT
  5
F8
100
AcDbEntity
  8
Defpoints
370
               0
390
0
 62
               0
100
AcDbPoint
 10
297.65495536616618
 20
-349.95831075219746
 30
0.0
  0
POINT
  5
F9
100
AcDbEntity
  8
Defpoints
370
               0
390
0
 62
               0
100
AcDbPoint
 10
197.65495536616618
 20
-349.95831075219746
 30
0.0
  0
ENDBLK
  5
FA
100
AcDbEntity
  8
notes
390
0
100
AcDbBlockEnd
  0
BLOCK
  5
FB
100
AcDbEntity
  8
notes
390
0
100
AcDbBlockBegin
  2
*D15
 70
               1
 10
0.0
 20
0.0
 30
0.0
  3
*D15
  1

  0
LINE
  5
FC
100
AcDbEntity
  8
0
370
              -2
390
0
  6
Continuous
 62
               0
100
AcDbLine
 10
-423.18940972222208
 20
-337.45831075219746
 30
0.0
 11
-423.18940972222208
 21
-239.95831075219749
 31
0.0
  0
LINE
  5
FD
100
AcDbEntity
  8
0
370
              -2
390
0
  6
Continuous
 62
               0
100
AcDbLine
 10
-508.18940972222208
 20
-337.45831075219746
 30
0.0
 11
-508.18940972222208
 21
-239.95831075219749
 31
0.0
  0
LINE
  5
FE
100
AcDbEntity
  8
0
370
              -2
390
0
  6
Continuous
 62
               0
100
AcDbLine
 10
-423.18940972222208
 20
-239.95831075219749
 30
0.0
 11
-508.18940972222208
 21
-239.95831075219749
 31
0.0
  0
CIRCLE
  5
FF
102
{ACAD_REACTORS
330
100
102
}
100
AcDbEntity
  8
0
370
              -2
390
0
  6
Continuous
 62
               0
100
AcDbCircle
 10
-423.18940972222208
 20
-239.95831075219749
 30
0.0
 40
1.9998779296875
  0
HATCH
  5
100
100
AcDbEntity
  8
0
370
              -2
390
0
  6
Continuous
 62
               0
100
AcDbHatch
 10
0.0
 20
0.0
 30
0.0
210
0.0
220
0.0
230
1.0
  2
SOLID
 70
               1
 71
               1
 91
        1
 92
        1
 93
        1
 72
               2
 10
-423.18940972222208
 20
-239.95831075219749
 40
1.9998779296875
 50
0.0
 51
360.0
 73
               0
 97
        1
330
FF
 75
               0
 76
               1
 98
        1
 10
0.0
 20
0.0
  0
CIRCLE
  5
101
102
{ACAD_REACTORS
330
102
102
}
100
AcDbEntity
  8
0
370
              -2
390
0
  6
Continuous
 62
               0
100
AcDbCircle
 10
-508.18940972222208
 20
-239.95831075219749
 30
0.0
 40
1.9998779296875
  0
HATCH
  5
102
100
AcDbEntity
  8
0
370
              -2
390
0
  6
Continuous
 62
               0
100
AcDbHatch
 10
0.0
 20
0.0
 30
0.0
210
0.0
220
0.0
230
1.0
  2
SOLID
 70
               1
 71
               1
 91
        1
 92
        1
 93
        1
 72
               2
 10
-508.18940972222208
 20
-239.95831075219749
 40
1.9998779296875
 50
0.0
 51
360.0
 73
               0
 97
        1
330
101
 75
               0
 76
               1
 98
        1
 10
0.0
 20
0.0
  0
MTEXT
  5
103
100
AcDbEntity
  8
0
390
0
 62
               0
100
AcDbMText
 10
-481.56440972222208
 20
-206.08069356469747
 30
0.0
 40
24.432617187500004
 41
0.0
 71
               1
 72
               1
  1
85
  7
ＭＳ ゴシック
 73
               1
 44
0.7828267384257843
  0
POINT
  5
104
100
AcDbEntity
  8
Defpoints
370
               0
390
0
 62
               0
100
AcDbPoint
 10
-508.18940972222208
 20
-362.45831075219746
 30
0.0
  0
POINT
  5
105
100
AcDbEntity
  8
Defpoints
370
               0
390
0
 62
               0
100
AcDbPoint
 10
-423.18940972222208
 20
-362.45831075219746
 30
0.0
  0
POINT
  5
106
100
AcDbEntity
  8
Defpoints
370
               0
390
0
 62
               0
100
AcDbPoint
 10
-423.18940972222208
 20
-239.95831075219749
 30
0.0
  0
ENDBLK
  5
107
100
AcDbEntity
  8
notes
390
0
100
AcDbBlockEnd
  0
BLOCK
  5
108
100
AcDbEntity
  8
notes
390
0
100
AcDbBlockBegin
  2
*D16
 70
               1
 10
0.0
 20
0.0
 30
0.0
  3
*D16
  1

  0
LINE
  5
109
100
AcDbEntity
  8
0
370
              -2
390
0
  6
Continuous
 62
               0
100
AcDbLine
 10
-553.18940972222231
 20
-382.45831075219746
 30
0.0
 11
-728.12274929584851
 21
-382.45831075219746
 31
0.0
  0
LINE
  5
10A
100
AcDbEntity
  8
0
370
              -2
390
0
  6
Continuous
 62
               0
100
AcDbLine
 10
-553.18940972222231
 20
-452.45831075219775
 30
0.0
 11
-728.12274929584851
 21
-452.45831075219775
 31
0.0
  0
LINE
  5
10B
100
AcDbEntity
  8
0
370
              -2
390
0
  6
Continuous
 62
               0
100
AcDbLine
 10
-728.12274929584851
 20
-382.45831075219746
 30
0.0
 11
-728.12274929584851
 21
-452.45831075219775
 31
0.0
  0
CIRCLE
  5
10C
102
{ACAD_REACTORS
330
10D
102
}
100
AcDbEntity
  8
0
370
              -2
390
0
  6
Continuous
 62
               0
100
AcDbCircle
 10
-728.12274929584851
 20
-382.45831075219746
 30
0.0
 40
1.9998779296875
  0
HATCH
  5
10D
100
AcDbEntity
  8
0
370
              -2
390
0
  6
Continuous
 62
               0
100
AcDbHatch
 10
0.0
 20
0.0
 30
0.0
210
0.0
220
0.0
230
1.0
  2
SOLID
 70
               1
 71
               1
 91
        1
 92
        1
 93
        1
 72
               2
 10
-728.12274929584851
 20
-382.45831075219746
 40
1.9998779296875
 50
0.0
 51
360.0
 73
               0
 97
        1
330
10C
 75
               0
 76
               1
 98
        1
 10
0.0
 20
0.0
  0
CIRCLE
  5
10E
102
{ACAD_REACTORS
330
10F
102
}
100
AcDbEntity
  8
0
370
              -2
390
0
  6
Continuous
 62
               0
100
AcDbCircle
 10
-728.12274929584851
 20
-452.45831075219775
 30
0.0
 40
1.9998779296875
  0
HATCH
  5
10F
100
AcDbEntity
  8
0
370
              -2
390
0
  6
Continuous
 62
               0
100
AcDbHatch
 10
0.0
 20
0.0
 30
0.0
210
0.0
220
0.0
230
1.0
  2
SOLID
 70
               1
 71
               1
 91
        1
 92
        1
 93
        1
 72
               2
 10
-728.12274929584851
 20
-452.45831075219775
 40
1.9998779296875
 50
0.0
 51
360.0
 73
               0
 97
        1
330
10E
 75
               0
 76
               1
 98
        1
 10
0.0
 20
0.0
  0
MTEXT
  5
110
100
AcDbEntity
  8
0
390
0
 62
               0
100
AcDbMText
 10
-762.00036648334856
 20
-433.33331075219763
 30
0.0
 40
24.432617187500004
 41
0.0
 71
               1
 72
               1
  1
70
  7
ＭＳ ゴシック
 11
0.0
 21
1.0
 31
0.0
 73
               1
 44
0.7828267384257843
  0
POINT
  5
111
100
AcDbEntity
  8
Defpoints
370
               0
390
0
 62
               0
100
AcDbPoint
 10
-528.18940972222231
 20
-452.45831075219775
 30
0.0
  0
POINT
  5
112
100
AcDbEntity
  8
Defpoints
370
               0
390
0
 62
               0
100
AcDbPoint
 10
-528.18940972222231
 20
-382.45831075219746
 30
0.0
  0
POINT
  5
113
100
AcDbEntity
  8
Defpoints
370
               0
390
0
 62
               0
100
AcDbPoint
 10
-728.12274929584851
 20
-382.45831075219746
 30
0.0
  0
ENDBLK
  5
114
100
AcDbEntity
  8
notes
390
0
100
AcDbBlockEnd
  0
BLOCK
  5
115
100
AcDbEntity
  8
notes
390
0
100
AcDbBlockBegin
  2
*D17
 70
               1
 10
0.0
 20
0.0
 30
0.0
  3
*D17
  1

  0
LINE
  5
116
100
AcDbEntity
  8
0
370
              -2
390
0
  6
Continuous
 62
               0
100
AcDbLine
 10
-565.68940972222242
 20
-349.95831075219746
 30
0.0
 11
-778.12274929584862
 21
-349.95831075219746
 31
0.0
  0
LINE
  5
117
100
AcDbEntity
  8
0
370
              -2
390
0
  6
Continuous
 62
               0
100
AcDbLine
 10
-565.68940972222242
 20
-619.9583107521978
 30
0.0
 11
-778.12274929584862
 21
-619.9583107521978
 31
0.0
  0
LINE
  5
118
100
AcDbEntity
  8
0
370
              -2
390
0
  6
Continuous
 62
               0
100
AcDbLine
 10
-778.12274929584862
 20
-349.95831075219746
 30
0.0
 11
-778.12274929584862
 21
-619.9583107521978
 31
0.0
  0
CIRCLE
  5
119
102
{ACAD_REACTORS
330
11A
102
}
100
AcDbEntity
  8
0
370
              -2
390
0
  6
Continuous
 62
               0
100
AcDbCircle
 10
-778.12274929584862
 20
-349.95831075219746
 30
0.0
 40
1.9998779296875
  0
HATCH
  5
11A
100
AcDbEntity
  8
0
370
              -2
390
0
  6
Continuous
 62
               0
100
AcDbHatch
 10
0.0
 20
0.0
 30
0.0
210
0.0
220
0.0
230
1.0
  2
SOLID
 70
               1
 71
               1
 91
        1
 92
        1
 93
        1
 72
               2
 10
-778.12274929584862
 20
-349.95831075219746
 40
1.9998779296875
 50
0.0
 51
360.0
 73
               0
 97
        1
330
119
 75
               0
 76
               1
 98
        1
 10
0.0
 20
0.0
  0
CIRCLE
  5
11B
102
{ACAD_REACTORS
330
11C
102
}
100
AcDbEntity
  8
0
370
              -2
390
0
  6
Continuous
 62
               0
100
AcDbCircle
 10
-778.12274929584862
 20
-619.9583107521978
 30
0.0
 40
1.9998779296875
  0
HATCH
  5
11C
100
AcDbEntity
  8
0
370
              -2
390
0
  6
Continuous
 62
               0
100
AcDbHatch
 10
0.0
 20
0.0
 30
0.0
210
0.0
220
0.0
230
1.0
  2
SOLID
 70
               1
 71
               1
 91
        1
 92
        1
 93
        1
 72
               2
 10
-778.12274929584862
 20
-619.9583107521978
 40
1.9998779296875
 50
0.0
 51
360.0
 73
               0
 97
        1
330
11B
 75
               0
 76
               1
 98
        1
 10
0.0
 20
0.0
  0
MTEXT
  5
11D
100
AcDbEntity
  8
0
390
0
 62
               0
100
AcDbMText
 10
-812.00036648334867
 20
-508.77081243437317
 30
0.0
 40
24.432617187500004
 41
0.0
 71
               1
 72
               1
  1
270
  7
ＭＳ ゴシック
 11
0.0
 21
1.0
 31
0.0
 73
               1
 44
0.7828267384257843
  0
POINT
  5
11E
100
AcDbEntity
  8
Defpoints
370
               0
390
0
 62
               0
100
AcDbPoint
 10
-540.68940972222242
 20
-619.9583107521978
 30
0.0
  0
POINT
  5
11F
100
AcDbEntity
  8
Defpoints
370
               0
390
0
 62
               0
100
AcDbPoint
 10
-540.68940972222242
 20
-349.95831075219746
 30
0.0
  0
POINT
  5
120
100
AcDbEntity
  8
Defpoints
370
               0
390
0
 62
               0
100
AcDbPoint
 10
-778.12274929584862
 20
-349.95831075219746
 30
0.0
  0
ENDBLK
  5
121
100
AcDbEntity
  8
notes
390
0
100
AcDbBlockEnd
  0
BLOCK
  5
122
100
AcDbEntity
  8
notes
390
0
100
AcDbBlockBegin
  2
*D18
 70
               1
 10
0.0
 20
0.0
 30
0.0
  3
*D18
  1

  0
LINE
  5
123
100
AcDbEntity
  8
0
370
              -2
390
0
  6
Continuous
 62
               0
100
AcDbLine
 10
540.11059027777742
 20
-492.95831075219775
 30
0.0
 11
792.59890620664964
 21
-492.95831075219775
 31
0.0
  0
LINE
  5
124
100
AcDbEntity
  8
0
370
              -2
390
0
  6
Continuous
 62
               0
100
AcDbLine
 10
664.09890620664987
 20
-339.95831075219746
 30
0.0
 11
792.59890620664964
 21
-339.95831075219746
 31
0.0
  0
LINE
  5
125
100
AcDbEntity
  8
0
370
              -2
390
0
  6
Continuous
 62
               0
100
AcDbLine
 10
792.59890620664964
 20
-492.95831075219775
 30
0.0
 11
792.59890620664964
 21
-339.95831075219746
 31
0.0
  0
CIRCLE
  5
126
102
{ACAD_REACTORS
330
127
102
}
100
AcDbEntity
  8
0
370
              -2
390
0
  6
Continuous
 62
               0
100
AcDbCircle
 10
792.59890620664964
 20
-492.95831075219775
 30
0.0
 40
1.9998779296875
  0
HATCH
  5
127
100
AcDbEntity
  8
0
370
              -2
390
0
  6
Continuous
 62
               0
100
AcDbHatch
 10
0.0
 20
0.0
 30
0.0
210
0.0
220
0.0
230
1.0
  2
SOLID
 70
               1
 71
               1
 91
        1
 92
        1
 93
        1
 72
               2
 10
792.59890620664964
 20
-492.95831075219775
 40
1.9998779296875
 50
0.0
 51
360.0
 73
               0
 97
        1
330
126
 75
               0
 76
               1
 98
        1
 10
0.0
 20
0.0
  0
CIRCLE
  5
128
102
{ACAD_REACTORS
330
129
102
}
100
AcDbEntity
  8
0
370
              -2
390
0
  6
Continuous
 62
               0
100
AcDbCircle
 10
792.59890620664964
 20
-339.95831075219746
 30
0.0
 40
1.9998779296875
  0
HATCH
  5
129
100
AcDbEntity
  8
0
370
              -2
390
0
  6
Continuous
 62
               0
100
AcDbHatch
 10
0.0
 20
0.0
 30
0.0
210
0.0
220
0.0
230
1.0
  2
SOLID
 70
               1
 71
               1
 91
        1
 92
        1
 93
        1
 72
               2
 10
792.59890620664964
 20
-339.95831075219746
 40
1.9998779296875
 50
0.0
 51
360.0
 73
               0
 97
        1
330
128
 75
               0
 76
               1
 98
        1
 10
0.0
 20
0.0
  0
MTEXT
  5
12A
100
AcDbEntity
  8
0
390
0
 62
               0
100
AcDbMText
 10
758.72128901914959
 20
-440.27081243437306
 30
0.0
 40
24.432617187500004
 41
0.0
 71
               1
 72
               1
  1
150
  7
ＭＳ ゴシック
 11
0.0
 21
1.0
 31
0.0
 73
               1
 44
0.7828267384257843
  0
POINT
  5
12B
100
AcDbEntity
  8
Defpoints
370
               0
390
0
 62
               0
100
AcDbPoint
 10
639.09890620664987
 20
-339.95831075219746
 30
0.0
  0
POINT
  5
12C
100
AcDbEntity
  8
Defpoints
370
               0
390
0
 62
               0
100
AcDbPoint
 10
515.11059027777742
 20
-492.95831075219775
 30
0.0
  0
POINT
  5
12D
100
AcDbEntity
  8
Defpoints
370
               0
390
0
 62
               0
100
AcDbPoint
 10
792.59890620664964
 20
-492.95831075219775
 30
0.0
  0
ENDBLK
  5
12E
100
AcDbEntity
  8
notes
390
0
100
AcDbBlockEnd
  0
BLOCK
  5
12F
100
AcDbEntity
  8
notes
390
0
100
AcDbBlockBegin
  2
*D19
 70
               1
 10
0.0
 20
0.0
 30
0.0
  3
*D19
  1

  0
LINE
  5
130
100
AcDbEntity
  8
0
370
              -2
390
0
  6
Continuous
 62
               0
100
AcDbLine
 10
515.11059027777742
 20
-517.9583107521978
 30
0.0
 11
515.11059027777742
 21
-551.41953125000009
 31
0.0
  0
LINE
  5
131
100
AcDbEntity
  8
0
370
              -2
390
0
  6
Continuous
 62
               0
100
AcDbLine
 10
445.11059027777799
 20
-517.9583107521978
 30
0.0
 11
445.11059027777799
 21
-551.41953125000009
 31
0.0
  0
LINE
  5
132
100
AcDbEntity
  8
0
370
              -2
390
0
  6
Continuous
 62
               0
100
AcDbLine
 10
515.11059027777742
 20
-551.41953125000009
 30
0.0
 11
445.11059027777799
 21
-551.41953125000009
 31
0.0
  0
CIRCLE
  5
133
102
{ACAD_REACTORS
330
134
102
}
100
AcDbEntity
  8
0
370
              -2
390
0
  6
Continuous
 62
               0
100
AcDbCircle
 10
515.11059027777742
 20
-551.41953125000009
 30
0.0
 40
1.9998779296875
  0
HATCH
  5
134
100
AcDbEntity
  8
0
370
              -2
390
0
  6
Continuous
 62
               0
100
AcDbHatch
 10
0.0
 20
0.0
 30
0.0
210
0.0
220
0.0
230
1.0
  2
SOLID
 70
               1
 71
               1
 91
        1
 92
        1
 93
        1
 72
               2
 10
515.11059027777742
 20
-551.41953125000009
 40
1.9998779296875
 50
0.0
 51
360.0
 73
               0
 97
        1
330
133
 75
               0
 76
               1
 98
        1
 10
0.0
 20
0.0
  0
CIRCLE
  5
135
102
{ACAD_REACTORS
330
136
102
}
100
AcDbEntity
  8
0
370
              -2
390
0
  6
Continuous
 62
               0
100
AcDbCircle
 10
445.11059027777799
 20
-551.41953125000009
 30
0.0
 40
1.9998779296875
  0
HATCH
  5
136
100
AcDbEntity
  8
0
370
              -2
390
0
  6
Continuous
 62
               0
100
AcDbHatch
 10
0.0
 20
0.0
 30
0.0
210
0.0
220
0.0
230
1.0
  2
SOLID
 70
               1
 71
               1
 91
        1
 92
        1
 93
        1
 72
               2
 10
445.11059027777799
 20
-551.41953125000009
 40
1.9998779296875
 50
0.0
 51
360.0
 73
               0
 97
        1
330
135
 75
               0
 76
               1
 98
        1
 10
0.0
 20
0.0
  0
MTEXT
  5
137
100
AcDbEntity
  8
0
390
0
 62
               0
100
AcDbMText
 10
464.2355902777777
 20
-517.54191406250015
 30
0.0
 40
24.432617187500004
 41
0.0
 71
               1
 72
               1
  1
70
  7
ＭＳ ゴシック
 73
               1
 44
0.7828267384257843
  0
POINT
  5
138
100
AcDbEntity
  8
Defpoints
370
               0
390
0
 62
               0
100
AcDbPoint
 10
445.11059027777799
 20
-492.95831075219775
 30
0.0
  0
POINT
  5
139
100
AcDbEntity
  8
Defpoints
370
               0
390
0
 62
               0
100
AcDbPoint
 10
515.11059027777742
 20
-492.95831075219775
 30
0.0
  0
POINT
  5
13A
100
AcDbEntity
  8
Defpoints
370
               0
390
0
 62
               0
100
AcDbPoint
 10
515.11059027777742
 20
-551.41953125000009
 30
0.0
  0
ENDBLK
  5
13B
100
AcDbEntity
  8
notes
390
0
100
AcDbBlockEnd
  0
ENDSEC
  0
SECTION
  2
ENTITIES
  0
MTEXT
  5
13C
100
AcDbEntity
  8
template
390
0
 62
               7
100
AcDbMText
 10
-967.99999999975921
 20
-1147.4176292337006
 30
0.0
 40
16.288411458333332
 41
0.0
 71
               1
 72
               1
  1
品名
  7
ＭＳ ゴシック
 73
               1
 44
0.7828267384257843
  0
MTEXT
  5
13D
100
AcDbEntity
  8
template
390
0
 62
               7
100
AcDbMText
 10
-967.99999999975921
 20
-1232.4176292337004
 30
0.0
 40
16.288411458333332
 41
0.0
 71
               1
 72
               1
  1
仕様
  7
ＭＳ ゴシック
 73
               1
 44
0.7828267384257843
  0
LINE
  5
13E
100
AcDbEntity
  8
template
370
               5
390
0
  6
Continuous
 62
               7
100
AcDbLine
 10
974.99999999975876
 20
-1224.0027073587005
 30
0.0
 11
-975.00000000024124
 21
-1224.0027073587005
 31
0.0
  0
LWPOLYLINE
  5
13F
100
AcDbEntity
  8
template
370
               5
390
0
  6
Continuous
 62
               7
100
AcDbPolyline
 90
        5
 70
             128
 10
975.00000000024124
 20
1405.9972926412995
 10
-974.99999999975921
 20
1405.9972926412995
 10
-974.99999999975921
 20
-1394.0027073587005
 10
975.00000000024124
 20
-1394.0027073587005
 10
975.00000000024124
 20
1405.9972926412995
  0
LINE
  5
140
100
AcDbEntity
  8
template
370
               5
390
0
  6
Continuous
 62
               7
100
AcDbLine
 10
974.99999999975876
 20
-1139.0027073587005
 30
0.0
 11
-975.00000000024124
 21
-1139.0027073587005
 31
0.0
  0
LINE
  5
141
100
AcDbEntity
  8
template
370
               5
390
0
  6
Continuous
 62
               7
100
AcDbLine
 10
975.00000000024124
 20
-1309.0027073587005
 30
0.0
 11
222.00000000024124
 21
-1309.0027073587005
 31
0.0
  0
MTEXT
  5
142
100
AcDbEntity
  8
template
390
0
 62
               7
100
AcDbMText
 10
-974.99999999955594
 20
-1405.8565294155574
 30
0.0
 40
21.717881944444446
 41
0.0
 71
               1
 72
               1
  1
120501SH
  7
ＭＳ ゴシック
 73
               1
 44
0.7828267384257843
  0
MTEXT
  5
143
100
AcDbEntity
  8
template
390
0
 62
               7
100
AcDbMText
 10
251.87140625250089
 20
-1338.9131018320081
 30
0.0
 40
24.432617187500004
 41
0.0
 71
               1
 72
               1
  1
大洋金物株式会社 ティーフォルム事業部
  7
ＭＳ ゴシック
 73
               1
 44
0.7828267384257843
  0
INSERT
  5
144
100
AcDbEntity
  8
template
390
0
 62
               7
100
AcDbBlockReference
  2
グループ
 10
0.0
 20
-183.13679245283015
 30
0.0
  0
MTEXT
  5
145
100
AcDbEntity
  8
template
390
0
 62
               7
100
AcDbMText
 10
784.00000000049999
 20
-1261.0000901712006
 30
0.0
 40
24.432617187500004
 41
0.0
 71
               1
 72
               1
  1
1:10
  7
ＭＳ ゴシック
 73
               1
 44
0.7828267384257843
  0
MTEXT
  5
146
100
AcDbEntity
  8
template
390
0
 62
               7
100
AcDbMText
 10
731.00000000049999
 20
-1232.4176292337004
 30
0.0
 40
16.288411458333332
 41
0.0
 71
               1
 72
               1
  1
縮尺
  7
ＭＳ ゴシック
 73
               1
 44
0.7828267384257843
  0
LINE
  5
147
100
AcDbEntity
  8
template
370
               5
390
0
  6
Continuous
 62
               7
100
AcDbLine
 10
724.00000000049999
 20
-1309.0027073587005
 30
0.0
 11
724.00000000049999
 21
-1224.0027073587005
 31
0.0
  0
MTEXT
  5
148
100
AcDbEntity
  8
template
390
0
 62
               7
100
AcDbMText
 10
480.00000000049999
 20
-1232.4176292337004
 30
0.0
 40
16.288411458333332
 41
0.0
 71
               1
 72
               1
  1
容量
  7
ＭＳ ゴシック
 73
               1
 44
0.7828267384257843
  0
LINE
  5
149
100
AcDbEntity
  8
template
370
               5
390
0
  6
Continuous
 62
               7
100
AcDbLine
 10
473.00000000049999
 20
-1309.0027073587005
 30
0.0
 11
473.00000000049999
 21
-1224.0027073587005
 31
0.0
  0
MTEXT
  5
14A
100
AcDbEntity
  8
template
390
0
 62
               7
100
AcDbMText
 10
229.00000000049999
 20
-1147.4176292337006
 30
0.0
 40
16.288411458333332
 41
0.0
 71
               1
 72
               1
  1
品番
  7
ＭＳ ゴシック
 73
               1
 44
0.7828267384257843
  0
MTEXT
  5
14B
100
AcDbEntity
  8
template
390
0
 62
               7
100
AcDbMText
 10
229.00000000049999
 20
-1232.4176292337004
 30
0.0
 40
16.288411458333332
 41
0.0
 71
               1
 72
               1
  1
重量
  7
ＭＳ ゴシック
 73
               1
 44
0.7828267384257843
  0
MTEXT
  5
14C
100
AcDbEntity
  8
template
390
0
 62
               7
100
AcDbMText
 10
282.00000000049999
 20
-1176.0000901712006
 30
0.0
 40
24.432617187500004
 41
0.0
 71
               1
 72
               1
  1
FAN70-0105
  7
ＭＳ ゴシック
 73
               1
 44
0.7828267384257843
  0
MTEXT
  5
14D
100
AcDbEntity
  8
template
390
0
 62
               7
100
AcDbMText
 10
282.00000000049999
 20
-1261.0000901712006
 30
0.0
 40
24.432617187500004
 41
0.0
 71
               1
 72
               1
  1
7.5kg
  7
ＭＳ ゴシック
 73
               1
 44
0.7828267384257843
  0
LINE
  5
14E
100
AcDbEntity
  8
template
370
               5
390
0
  6
Continuous
 62
               7
100
AcDbLine
 10
222.00000000049999
 20
-1394.0027073587005
 30
0.0
 11
222.00000000049999
 21
-1139.0027073587005
 31
0.0
  0
MTEXT
  5
14F
100
AcDbEntity
  8
template
390
0
 62
               7
100
AcDbMText
 10
-914.99999999975921
 20
-1176.0000901712003
 30
0.0
 40
24.432617187500004
 41
0.0
 71
               1
 72
               1
  1
手洗器 -ALAPE-
  7
ＭＳ ゴシック
 73
               1
 44
0.7828267384257843
  0
MTEXT
  5
150
100
AcDbEntity
  8
template
390
0
 62
               7
100
AcDbMText
 10
-914.99999999975921
 20
-1261.0000901712006
 30
0.0
 40
24.432617187500004
 41
0.0
 71
               1
 72
               1
  1
壁掛け/オーバーフローなし/壁取付ボルト付属/\P鋼板ホーロー/ホワイト
  7
ＭＳ ゴシック
 73
               1
 44
1.1307497332816883
  0
MTEXT
  5
151
100
AcDbEntity
  8
template
390
0
 62
               7
100
AcDbMText
 10
544.00000000049999
 20
-1261.0000901712006
 30
0.0
 40
24.432617187500004
 41
0.0
 71
               1
 72
               1
  1
3.8L
  7
ＭＳ ゴシック
 73
               1
 44
0.7828267384257843
  0
MTEXT
  5
152
100
AcDbEntity
  8
notes
390
0
 62
               7
100
AcDbMText
 10
-319.11919583665383
 20
-252.39321710343555
 30
0.0
 40
24.432617187500004
 41
0.0
 71
               1
 72
               1
  1
壁取付ボルト(4ヶ所)
  7
ＭＳ ゴシック
 73
               1
 44
0.7828267384257843
  0
LINE
  5
153
100
AcDbEntity
  8
notes
370
               5
390
0
  6
Continuous
 62
               7
100
AcDbLine
 10
-423.18940972222208
 20
-382.45831075219746
 30
0.0
 11
-301.08940972222206
 21
-286.41953124999998
 31
0.0
  0
DIMENSION
  5
154
100
AcDbEntity
  8
notes
370
               5
390
0
  6
Continuous
 62
               7
100
AcDbDimension
  2
*D3
 10
-203.2348476148793
 20
-629.9583107521978
 30
0.0
 11
-203.2348476148793
 21
-484.95831075219763
 31
0.0
 71
               5
 72
               1
 41
1.0
 42
0.0
  3
tfrom線あり
100
AcDbAlignedDimension
 13
-306.73484761487924
 23
-339.95831075219746
 33
0.0
 14
-306.73484761487924
 24
-629.9583107521978
 34
0.0
 50
90.0
100
AcDbRotatedDimension
1001
ACAD
1000
DSTYLE
1002
{
1070
             271
1070
               4
1070
             279
1070
               2
1070
             340
1005
35
1070
             147
1040
2.5
1002
}
  0
DIMENSION
  5
155
100
AcDbEntity
  8
notes
370
               5
390
0
  6
Continuous
 62
               7
100
AcDbDimension
  2
*D4
 10
-603.17879845536436
 20
433.18016219443371
 30
0.0
 11
-465.84995916060785
 21
435.68016219443371
 31
0.0
 70
             128
 71
               5
 72
               1
 41
1.0
 42
0.0
  3
tfrom線あり
100
AcDbAlignedDimension
 13
-328.17879845536379
 23
607.26794705250336
 33
0.0
 14
-603.17879845536436
 24
609.18283758456073
 34
0.0
100
AcDbRotatedDimension
1001
ACAD
1000
DSTYLE
1002
{
1070
             271
1070
               4
1070
             279
1070
               2
1070
             340
1005
35
1070
             147
1040
2.5
1002
}
  0
DIMENSION
  5
156
100
AcDbEntity
  8
notes
370
               5
390
0
  6
Continuous
 62
               7
100
AcDbDimension
  2
*D5
 10
-390.6787984553639
 20
978.18016219443348
 30
0.0
 11
-465.67879845536407
 21
980.68016219443348
 31
0.0
 70
             128
 71
               5
 72
               1
 41
1.0
 42
0.0
  3
tfrom線あり
100
AcDbAlignedDimension
 13
-540.67879845536424
 23
878.18016219443348
 33
0.0
 14
-390.6787984553639
 24
878.18016219443348
 34
0.0
100
AcDbRotatedDimension
1001
ACAD
1000
DSTYLE
1002
{
1070
             271
1070
               4
1070
             279
1070
               2
1070
             340
1005
35
1070
             147
1040
2.5
1002
}
  0
DIMENSION
  5
157
100
AcDbEntity
  8
notes
370
               5
390
0
  6
Continuous
 62
               7
100
AcDbDimension
  2
*D6
 10
-628.17879845536436
 20
383.18016219443359
 30
0.0
 11
-464.70035764951854
 21
385.68016219443359
 31
0.0
 70
             128
 71
               5
 72
               1
 41
1.0
 42
0.0
  3
tfrom線あり
100
AcDbAlignedDimension
 13
-303.17879845536379
 23
683.18016219443359
 33
0.0
 14
-628.17879845536436
 24
683.18016219443359
 34
0.0
100
AcDbRotatedDimension
1001
ACAD
1000
DSTYLE
1002
{
1070
             271
1070
               4
1070
             279
1070
               2
1070
             340
1005
35
1070
             147
1040
2.5
1002
}
  0
DIMENSION
  5
158
100
AcDbEntity
  8
notes
370
               5
390
0
  6
Continuous
 62
               7
100
AcDbDimension
  2
*D7
 10
197.65495536616618
 20
-349.95831075219746
 30
0.0
 11
195.15495536616618
 21
-493.41809817893147
 31
0.0
 70
             128
 71
               5
 72
               1
 41
1.0
 42
0.0
  3
tfrom線あり
100
AcDbAlignedDimension
 13
297.65495536616606
 23
-619.95831075219758
 33
0.0
 14
297.65495536616606
 24
-349.95831075219746
 34
0.0
 50
90.0
100
AcDbRotatedDimension
1001
ACAD
1000
DSTYLE
1002
{
1070
             271
1070
               4
1070
             279
1070
               2
1070
             340
1005
35
1070
             147
1040
2.5
1002
}
  0
DIMENSION
  5
159
100
AcDbEntity
  8
notes
370
               5
390
0
  6
Continuous
 62
               7
100
AcDbDimension
  2
*D8
 10
197.65495536616618
 20
-629.9583107521978
 30
0.0
 11
197.65495536616618
 21
-624.95831075219758
 31
0.0
 71
               5
 72
               1
 41
1.0
 42
0.0
  3
tfrom線あり
100
AcDbAlignedDimension
 13
297.65495536616606
 23
-619.95831075219758
 33
0.0
 14
321.21100452568123
 24
-629.9583107521978
 34
0.0
 50
90.0
100
AcDbRotatedDimension
1001
ACAD
1000
DSTYLE
1002
{
1070
             271
1070
               4
1070
             279
1070
               2
1070
             340
1005
35
1070
             147
1040
2.5
1002
}
  0
DIMENSION
  5
15A
100
AcDbEntity
  8
notes
370
               5
390
0
  6
Continuous
 62
               7
100
AcDbDimension
  2
*D9
 10
-203.17879845536379
 20
878.18016219443348
 30
0.0
 11
-203.17879845536379
 21
705.68016219443348
 31
0.0
 71
               5
 72
               1
 41
1.0
 42
0.0
  3
tfrom線あり
100
AcDbAlignedDimension
 13
-453.17879845536379
 23
533.18016219443359
 33
0.0
 14
-390.6787984553639
 24
878.18016219443348
 34
0.0
 50
90.0
100
AcDbRotatedDimension
1001
ACAD
1000
DSTYLE
1002
{
1070
             279
1070
               2
1070
             340
1005
35
1070
             147
1040
2.5
1002
}
  0
DIMENSION
  5
15B
100
AcDbEntity
  8
notes
370
               5
390
0
  6
Continuous
 62
               7
100
AcDbDimension
  2
*D10
 10
-728.17879845536413
 20
878.18016219443348
 30
0.0
 11
-728.17879845536413
 21
855.68016219443348
 31
0.0
 71
               5
 72
               1
 41
1.0
 42
0.0
  3
tfrom線あり
100
AcDbAlignedDimension
 13
-550.54506854614147
 23
833.18016219443371
 33
0.0
 14
-540.67879845536424
 24
878.18016219443348
 34
0.0
 50
90.0
100
AcDbRotatedDimension
1001
ACAD
1000
DSTYLE
1002
{
1070
             279
1070
               2
1070
             340
1005
35
1070
             147
1040
2.5
1002
}
  0
DIMENSION
  5
15C
100
AcDbEntity
  8
notes
370
               5
390
0
  6
Continuous
 62
               7
100
AcDbDimension
  2
*D11
 10
-728.17879845536436
 20
833.18016219443371
 30
0.0
 11
-728.17879845536436
 21
695.68016219443359
 31
0.0
 71
               5
 72
               1
 41
1.0
 42
0.0
  3
tfrom線あり
100
AcDbAlignedDimension
 13
-552.28133883380804
 23
558.18016219443348
 33
0.0
 14
-552.28133883380792
 24
833.18016219443371
 34
0.0
 50
90.0
100
AcDbRotatedDimension
1001
ACAD
1000
DSTYLE
1002
{
1070
             279
1070
               2
1070
             340
1005
35
1070
             147
1040
2.5
1002
}
  0
DIMENSION
  5
15D
100
AcDbEntity
  8
notes
370
               5
390
0
  6
Continuous
 62
               7
100
AcDbDimension
  2
*D12
 10
480.15495536620529
 20
-729.9583107521978
 30
0.0
 11
388.90495536618573
 21
-729.9583107521978
 31
0.0
 71
               5
 72
               1
 41
1.0
 42
0.0
  3
tfrom線あり
100
AcDbAlignedDimension
 13
297.65495536616618
 23
-619.95831075219758
 33
0.0
 14
480.15495536620529
 24
-629.9583107521978
 34
0.0
100
AcDbRotatedDimension
1001
ACAD
1000
DSTYLE
1002
{
1070
             279
1070
               2
1070
             340
1005
35
1070
             147
1040
5.0
1002
}
  0
DIMENSION
  5
15E
100
AcDbEntity
  8
notes
370
               5
390
0
  6
Continuous
 62
               7
100
AcDbDimension
  2
*D13
 10
483.1416596846949
 20
-439.95658956372637
 30
0.0
 11
478.1416596846949
 21
-299.95658956372637
 31
0.0
 70
             128
 71
               5
 72
               1
 41
1.0
 42
0.0
  3
tfrom線あり
100
AcDbAlignedDimension
 13
493.14124733003979
 23
-339.95658956372637
 33
0.0
 14
493.14124733007935
 24
-439.95658956372637
 34
0.0
 50
90.0
100
AcDbRotatedDimension
1001
ACAD
1000
DSTYLE
1002
{
1070
             279
1070
               2
1070
             340
1005
35
1070
               3
1000
<>(深さ)
1070
             174
1070
               0
1070
             147
1040
5.0
1002
}
  0
DIMENSION
  5
15F
100
AcDbEntity
  8
notes
370
               5
390
0
  6
Continuous
 62
               7
100
AcDbDimension
  2
*D14
 10
197.65495536616618
 20
-349.95831075219746
 30
0.0
 11
197.65495536616618
 21
-344.95831075219746
 31
0.0
 71
               5
 72
               1
 41
1.0
 42
0.0
  3
tfrom線あり
100
AcDbAlignedDimension
 13
321.21100452568135
 23
-339.95831075219746
 33
0.0
 14
297.65495536616618
 24
-349.95831075219746
 34
0.0
 50
90.0
100
AcDbRotatedDimension
1001
ACAD
1000
DSTYLE
1002
{
1070
             279
1070
               2
1070
             340
1005
35
1070
             147
1040
5.0
1002
}
  0
DIMENSION
  5
160
100
AcDbEntity
  8
notes
370
               5
390
0
  6
Continuous
 62
               7
100
AcDbDimension
  2
*D15
 10
-423.18940972222208
 20
-239.95831075219749
 30
0.0
 11
-465.68940972222208
 21
-239.95831075219749
 31
0.0
 71
               5
 72
               1
 41
1.0
 42
0.0
  3
tfrom線あり
100
AcDbAlignedDimension
 13
-508.18940972222208
 23
-362.45831075219746
 33
0.0
 14
-423.18940972222208
 24
-362.45831075219746
 34
0.0
100
AcDbRotatedDimension
1001
ACAD
1000
DSTYLE
1002
{
1070
             279
1070
               2
1070
             340
1005
35
1070
             147
1040
5.0
1002
}
  0
DIMENSION
  5
161
100
AcDbEntity
  8
notes
370
               5
390
0
  6
Continuous
 62
               7
100
AcDbDimension
  2
*D16
 10
-728.12274929584851
 20
-382.45831075219746
 30
0.0
 11
-728.12274929584851
 21
-417.45831075219763
 31
0.0
 71
               5
 72
               1
 41
1.0
 42
0.0
  3
tfrom線あり
100
AcDbAlignedDimension
 13
-528.18940972222231
 23
-452.45831075219775
 33
0.0
 14
-528.18940972222231
 24
-382.45831075219746
 34
0.0
 50
90.0
100
AcDbRotatedDimension
1001
ACAD
1000
DSTYLE
1002
{
1070
             279
1070
               2
1070
             340
1005
35
1070
             147
1040
5.0
1002
}
  0
DIMENSION
  5
162
100
AcDbEntity
  8
notes
370
               5
390
0
  6
Continuous
 62
               7
100
AcDbDimension
  2
*D17
 10
-778.12274929584862
 20
-349.95831075219746
 30
0.0
 11
-778.12274929584862
 21
-484.95831075219758
 31
0.0
 71
               5
 72
               1
 41
1.0
 42
0.0
  3
tfrom線あり
100
AcDbAlignedDimension
 13
-540.68940972222242
 23
-619.9583107521978
 33
0.0
 14
-540.68940972222242
 24
-349.95831075219746
 34
0.0
 50
90.0
100
AcDbRotatedDimension
1001
ACAD
1000
DSTYLE
1002
{
1070
             279
1070
               2
1070
             340
1005
35
1070
             147
1040
5.0
1002
}
  0
DIMENSION
  5
163
100
AcDbEntity
  8
notes
370
               5
390
0
  6
Continuous
 62
               7
100
AcDbDimension
  2
*D18
 10
792.59890620664964
 20
-492.95831075219775
 30
0.0
 11
797.59890620664964
 21
-416.45831075219752
 31
0.0
 70
             128
 71
               5
 72
               1
 41
1.0
 42
0.0
  1
150
  3
tfrom線あり
100
AcDbAlignedDimension
 13
639.09890620664987
 23
-339.95831075219746
 33
0.0
 14
515.11059027777742
 24
-492.95831075219775
 34
0.0
 50
90.0
100
AcDbRotatedDimension
1001
ACAD
1000
DSTYLE
1002
{
1070
             279
1070
               2
1070
             340
1005
35
1070
             147
1040
5.0
1002
}
  0
DIMENSION
  5
164
100
AcDbEntity
  8
notes
370
               5
390
0
  6
Continuous
 62
               7
100
AcDbDimension
  2
*D19
 10
515.11059027777742
 20
-551.41953125000009
 30
0.0
 11
480.1105902777777
 21
-551.41953125000009
 31
0.0
 71
               5
 72
               1
 41
1.0
 42
0.0
  3
tfrom線あり
100
AcDbAlignedDimension
 13
445.11059027777799
 23
-492.95831075219775
 33
0.0
 14
515.11059027777742
 24
-492.95831075219775
 34
0.0
100
AcDbRotatedDimension
1001
ACAD
1000
DSTYLE
1002
{
1070
             279
1070
               2
1070
             340
1005
35
1070
             147
1040
5.0
1002
}
  0
ARC
  5
165
100
AcDbEntity
  8
FAN70-0105
370
              15
390
0
  6
Continuous
 62
               7
100
AcDbCircle
 10
-306.73484761487924
 20
-343.45831075219746
 30
0.0
 40
3.5
100
AcDbArc
 50
0.0
 51
90.0
  0
ARC
  5
166
100
AcDbEntity
  8
FAN70-0105
370
              15
390
0
  6
Continuous
 62
               7
100
AcDbCircle
 10
-624.62274929584885
 20
-343.45831075219746
 30
0.0
 40
3.5
100
AcDbArc
 50
90.0
 51
180.0
  0
LINE
  5
167
100
AcDbEntity
  8
FAN70-0105
370
              15
390
0
  6
Continuous
 62
               7
100
AcDbLine
 10
-628.12274929584885
 20
-343.45831075219746
 30
0.0
 11
-628.12274929584885
 21
-626.4583107521978
 31
0.0
  0
LINE
  5
168
100
AcDbEntity
  8
FAN70-0105
370
              15
390
0
  6
Continuous
 62
               7
100
AcDbLine
 10
-303.2348476148793
 20
-626.4583107521978
 30
0.0
 11
-303.2348476148793
 21
-343.45831075219746
 31
0.0
  0
ARC
  5
169
100
AcDbEntity
  8
FAN70-0105
370
              15
390
0
  6
Continuous
 62
               7
100
AcDbCircle
 10
-624.62274929584885
 20
-626.4583107521978
 30
0.0
 40
3.5
100
AcDbArc
 50
180.0
 51
270.00000000000182
  0
ARC
  5
16A
100
AcDbEntity
  8
FAN70-0105
370
              15
390
0
  6
Continuous
 62
               7
100
AcDbCircle
 10
-306.73484761487924
 20
-626.4583107521978
 30
0.0
 40
3.5
100
AcDbArc
 50
270.00000000000091
 51
0.0
  0
LINE
  5
16B
100
AcDbEntity
  8
FAN70-0105
370
              15
390
0
  6
Continuous
 62
               7
100
AcDbLine
 10
-624.62274929584885
 20
-339.95831075219746
 30
0.0
 11
-306.73484761487924
 21
-339.95831075219746
 31
0.0
  0
LINE
  5
16C
100
AcDbEntity
  8
FAN70-0105
370
              15
390
0
  6
Continuous
 62
               7
100
AcDbLine
 10
-465.67879845536379
 20
-629.9583107521978
 30
0.0
 11
-624.62274929584885
 21
-629.9583107521978
 31
0.0
  0
LINE
  5
16D
100
AcDbEntity
  8
FAN70-0105
370
              15
390
0
  6
Continuous
 62
               7
100
AcDbLine
 10
-306.73484761487924
 20
-629.9583107521978
 30
0.0
 11
-465.67879845536379
 21
-629.9583107521978
 31
0.0
  0
CIRCLE
  5
16E
100
AcDbEntity
  8
FAN70-0105
370
              15
390
0
  6
Continuous
 62
               7
100
AcDbCircle
 10
-465.67879845536379
 20
695.68016219443359
 30
0.0
 40
137.50000000000006
  0
CIRCLE
  5
16F
100
AcDbEntity
  8
FAN70-0105
370
              15
390
0
  6
Continuous
 62
               7
100
AcDbCircle
 10
-465.67879845536379
 20
695.68016219443359
 30
0.0
 40
162.5
  0
LINE
  5
170
100
AcDbEntity
  8
FAN70-0105
370
              15
390
0
  6
Continuous
 62
               7
100
AcDbLine
 10
-394.59879845536375
 20
878.18016219443348
 30
0.0
 11
-390.6787984553639
 21
878.18016219443348
 31
0.0
  0
LINE
  5
171
100
AcDbEntity
  8
FAN70-0105
370
              15
390
0
  6
Continuous
 62
               7
100
AcDbLine
 10
-390.6787984553639
 20
839.7740106566971
 30
0.0
 11
-390.6787984553639
 21
878.18016219443348
 31
0.0
  0
LINE
  5
172
100
AcDbEntity
  8
FAN70-0105
370
              15
390
0
  6
Continuous
 62
               7
100
AcDbLine
 10
-536.75879845536417
 20
878.18016219443348
 30
0.0
 11
-394.59879845536375
 21
878.18016219443348
 31
0.0
  0
LINE
  5
173
100
AcDbEntity
  8
FAN70-0105
370
              15
390
0
  6
Continuous
 62
               7
100
AcDbLine
 10
-540.67879845536424
 20
878.18016219443348
 30
0.0
 11
-536.75879845536417
 21
878.18016219443348
 31
0.0
  0
LINE
  5
174
100
AcDbEntity
  8
FAN70-0105
370
              15
390
0
  6
Continuous
 62
               7
100
AcDbLine
 10
-540.67879845536424
 20
839.77401065669699
 30
0.0
 11
-540.67879845536424
 21
878.18016219443348
 31
0.0
  0
CIRCLE
  5
175
100
AcDbEntity
  8
FAN70-0105
370
              15
390
0
  6
Continuous
 62
               7
100
AcDbCircle
 10
-465.67879845536379
 20
695.68016219443393
 30
0.0
 40
21.0
  0
CIRCLE
  5
176
100
AcDbEntity
  8
FAN70-0105
370
              15
390
0
  6
Continuous
 62
               7
100
AcDbCircle
 10
-465.67879845536379
 20
695.68016219443393
 30
0.0
 40
30.0
  0
ARC
  5
177
100
AcDbEntity
  8
FAN70-0105
370
              15
390
0
  6
Continuous
 62
               7
100
AcDbCircle
 10
639.09890620664987
 20
-343.45831075219746
 30
0.0
 40
3.5
100
AcDbArc
 50
0.0
 51
90.0
  0
ARC
  5
178
100
AcDbEntity
  8
FAN70-0105
370
              15
390
0
  6
Continuous
 62
               7
100
AcDbCircle
 10
321.21100452568135
 20
-343.45831075219746
 30
0.0
 40
3.5
100
AcDbArc
 50
90.0
 51
180.0
  0
LINE
  5
179
100
AcDbEntity
  8
FAN70-0105
370
              15
390
0
  6
Continuous
 62
               7
100
AcDbLine
 10
317.71100452568135
 20
-621.9583107521978
 30
0.0
 11
317.71100452568135
 21
-626.4583107521978
 31
0.0
  0
LINE
  5
17A
100
AcDbEntity
  8
FAN70-0105
370
              15
390
0
  6
Continuous
 62
               7
100
AcDbLine
 10
317.71100452568135
 20
-343.45831075219746
 30
0.0
 11
317.71100452568135
 21
-347.95831075219746
 31
0.0
  0
LINE
  5
17B
100
AcDbEntity
  8
FAN70-0105
370
              15
390
0
  6
Continuous
 62
               7
100
AcDbLine
 10
642.59890620664964
 20
-626.4583107521978
 30
0.0
 11
642.59890620664964
 21
-343.45831075219746
 31
0.0
  0
ARC
  5
17C
100
AcDbEntity
  8
FAN70-0105
370
              15
390
0
  6
Continuous
 62
               7
100
AcDbCircle
 10
321.21100452568135
 20
-626.4583107521978
 30
0.0
 40
3.5000000000001137
100
AcDbArc
 50
180.0
 51
270.0
  0
ARC
  5
17D
100
AcDbEntity
  8
FAN70-0105
370
              15
390
0
  6
Continuous
 62
               7
100
AcDbCircle
 10
639.09890620664987
 20
-626.4583107521978
 30
0.0
 40
3.5
100
AcDbArc
 50
270.0
 51
0.0
  0
LINE
  5
17E
100
AcDbEntity
  8
FAN70-0105
370
              15
390
0
  6
Continuous
 62
               7
100
AcDbLine
 10
321.21100452568135
 20
-339.95831075219746
 30
0.0
 11
639.09890620657052
 21
-339.95831075219746
 31
0.0
  0
LWPOLYLINE
  5
17F
100
AcDbEntity
  8
FAN70-0105
370
              15
390
0
  6
Continuous
 62
               7
100
AcDbPolyline
 90
        6
 70
             128
 10
334.04870236970544
 20
-347.95831075219746
 10
335.12934815872904
 20
-348.36914998074224
 10
336.11384648300657
 20
-349.57883158975005
 10
336.80932948781174
 20
-351.38539603656523
 10
337.10361313335943
 20
-353.35710676755969
 10
337.11986469025635
 20
-353.95831075219746
  0
LINE
  5
180
100
AcDbEntity
  8
FAN70-0105
370
              15
390
0
  6
Continuous
 62
               7
100
AcDbLine
 10
317.71100452568135
 20
-347.95831075219746
 30
0.0
 11
334.04870236970544
 21
-347.95831075219746
 31
0.0
  0
LINE
  5
181
100
AcDbEntity
  8
FAN70-0105
370
              15
390
0
  6
Continuous
 62
               7
100
AcDbLine
 10
334.04870236970544
 20
-621.9583107521978
 30
0.0
 11
317.71100452568135
 21
-621.9583107521978
 31
0.0
  0
LWPOLYLINE
  5
182
100
AcDbEntity
  8
FAN70-0105
370
              15
390
0
  6
Continuous
 62
               7
100
AcDbPolyline
 90
        6
 70
             128
 10
337.11986469025635
 20
-615.9583107521978
 10
336.96893106245807
 20
-617.77309392935263
 10
336.54841650624769
 20
-619.37969351401989
 10
335.89409135028211
 20
-620.69861808743258
 10
335.01332649396477
 20
-621.63202402262573
 10
334.04870236970544
 20
-621.9583107521978
  0
LINE
  5
183
100
AcDbEntity
  8
FAN70-0105
370
              15
390
0
  6
Continuous
 62
               7
100
AcDbLine
 10
337.11986469025635
 20
-353.95831075219746
 30
0.0
 11
337.11986469025635
 21
-615.9583107521978
 31
0.0
  0
LINE
  5
184
100
AcDbEntity
  8
FAN70-0105
370
              15
390
0
  6
Continuous
 62
               7
100
AcDbLine
 10
639.09890620664987
 20
-629.9583107521978
 30
0.0
 11
321.21100452576047
 21
-629.9583107521978
 31
0.0
  0
LINE
  5
185
100
AcDbEntity
  8
FAN70-0105
370
              15
390
0
  6
Continuous
 62
               7
100
AcDbLine
 10
297.65495536616618
 20
-353.87831075219742
 30
0.0
 11
297.65495536616618
 21
-616.0383107521975
 31
0.0
  0
LINE
  5
186
100
AcDbEntity
  8
FAN70-0105
370
              15
390
0
  6
Continuous
 62
               7
100
AcDbLine
 10
297.65495536616618
 20
-353.87831075219742
 30
0.0
 11
297.65495536616618
 21
-349.95831075219746
 31
0.0
  0
LINE
  5
187
100
AcDbEntity
  8
FAN70-0105
370
              15
390
0
  6
Continuous
 62
               7
100
AcDbLine
 10
336.25993665356486
 20
-349.95831075219746
 30
0.0
 11
297.65495536616618
 21
-349.95831075219746
 31
0.0
  0
LINE
  5
188
100
AcDbEntity
  8
FAN70-0105
370
              15
390
0
  6
Continuous
 62
               7
100
AcDbLine
 10
297.65495536616618
 20
-619.95831075219758
 30
0.0
 11
336.26136156599784
 21
-619.95831075219758
 31
0.0
  0
LINE
  5
189
100
AcDbEntity
  8
FAN70-0105
370
              15
390
0
  6
Continuous
 62
               7
100
AcDbLine
 10
297.65495536616618
 20
-616.0383107521975
 30
0.0
 11
297.65495536616618
 21
-619.95831075219758
 31
0.0
  0
LINE
  5
18A
100
AcDbEntity
  8
FAN70-0105
370
              15
390
0
  6
Continuous
 62
               7
100
AcDbLine
 10
321.21100452568157
 20
-349.95831075219746
 30
0.0
 11
336.18144941907701
 21
-349.95831075219746
 31
0.0
  0
LINE
  5
18B
100
AcDbEntity
  8
FAN70-0105
370
              15
390
0
  6
Continuous
 62
               7
100
AcDbLine
 10
297.65495536616618
 20
-616.0383107521975
 30
0.0
 11
337.11321117352998
 21
-616.0383107521975
 31
0.0
  0
LINE
  5
18C
100
AcDbEntity
  8
FAN70-0105
370
              15
390
0
  6
Continuous
 62
               7
100
AcDbLine
 10
337.11770215543459
 20
-353.87831075219742
 30
0.0
 11
297.65495536616618
 21
-353.87831075219742
 31
0.0
  0
ARC
  5
18D
100
AcDbEntity
  8
FAN70-0105
370
              15
390
0
  6
STYLE_12
 62
               7
100
AcDbCircle
 10
-459.3864522111345
 20
-296.00590311992937
 30
0.0
 40
152.00000000000054
100
AcDbArc
 50
197.63299518656837
 51
251.27677901051422
  0
LINE
  5
18E
100
AcDbEntity
  8
FAN70-0105
370
              15
390
0
  6
STYLE_12
 62
               7
100
AcDbLine
 10
-508.17797374613269
 20
-439.96210279990106
 30
0.0
 11
-487.17879845536379
 21
-449.83325673563326
 31
0.0
  0
LINE
  5
18F
100
AcDbEntity
  8
FAN70-0105
370
              15
390
0
  6
STYLE_12
 62
               7
100
AcDbLine
 10
-508.17797374613269
 20
-439.96210279990106
 30
0.0
 11
-465.67879845536379
 21
-439.96210279990106
 31
0.0
  0
LINE
  5
190
100
AcDbEntity
  8
FAN70-0105
370
              15
390
0
  6
STYLE_12
 62
               7
100
AcDbLine
 10
-487.17879845536379
 20
-449.83325673563326
 30
0.0
 11
-444.17879845536379
 21
-449.83325673563326
 31
0.0
  0
ARC
  5
191
100
AcDbEntity
  8
FAN70-0105
370
              15
390
0
  6
STYLE_12
 62
               7
100
AcDbCircle
 10
-471.97114469959308
 20
-296.00590311992937
 30
0.0
 40
152.00000000000028
100
AcDbArc
 50
288.72322098948581
 51
342.36700481343155
  0
LINE
  5
192
100
AcDbEntity
  8
FAN70-0105
370
              15
390
0
  6
STYLE_12
 62
               7
100
AcDbLine
 10
-423.17962316459489
 20
-439.96210279990106
 30
0.0
 11
-465.67879845536379
 21
-439.96210279990106
 31
0.0
  0
LINE
  5
193
100
AcDbEntity
  8
FAN70-0105
370
              15
390
0
  6
STYLE_12
 62
               7
100
AcDbLine
 10
-444.17879845536379
 20
-449.83325673563326
 30
0.0
 11
-423.17962316459489
 21
-439.96210279990106
 31
0.0
  0
ARC
  5
194
100
AcDbEntity
  8
FAN70-0105
370
              15
390
0
  6
STYLE_12
 62
               7
100
AcDbCircle
 10
486.4473016103949
 20
-296.00590311992937
 30
0.0
 40
151.99999999999977
100
AcDbArc
 50
197.63299518656851
 51
251.2767790105143
  0
LINE
  5
195
100
AcDbEntity
  8
FAN70-0105
370
              15
390
0
  6
STYLE_12
 62
               7
100
AcDbLine
 10
437.65578007539693
 20
-439.96210279990106
 30
0.0
 11
458.65495536616584
 21
-449.83325673563326
 31
0.0
  0
LINE
  5
196
100
AcDbEntity
  8
FAN70-0105
370
              15
390
0
  6
STYLE_12
 62
               7
100
AcDbLine
 10
437.65578007539693
 20
-439.96210279990106
 30
0.0
 11
480.15495536616572
 21
-439.96210279990106
 31
0.0
  0
LINE
  5
197
100
AcDbEntity
  8
FAN70-0105
370
              15
390
0
  6
STYLE_12
 62
               7
100
AcDbLine
 10
458.65495536616584
 20
-449.83325673563326
 30
0.0
 11
501.65495536616544
 21
-449.83325673563326
 31
0.0
  0
ARC
  5
198
100
AcDbEntity
  8
FAN70-0105
370
              15
390
0
  6
STYLE_12
 62
               7
100
AcDbCircle
 10
473.86260912193649
 20
-296.00590311992937
 30
0.0
 40
152.00000000000011
100
AcDbArc
 50
288.72322098948558
 51
342.36700481343149
  0
LINE
  5
199
100
AcDbEntity
  8
FAN70-0105
370
              15
390
0
  6
STYLE_12
 62
               7
100
AcDbLine
 10
522.65413065693417
 20
-439.96210279990106
 30
0.0
 11
480.15495536616572
 21
-439.96210279990106
 31
0.0
  0
LINE
  5
19A
100
AcDbEntity
  8
FAN70-0105
370
              15
390
0
  6
STYLE_12
 62
               7
100
AcDbLine
 10
501.65495536616544
 20
-449.83325673563326
 30
0.0
 11
522.65413065693417
 21
-439.96210279990106
 31
0.0
  0
ARC
  5
19B
100
AcDbEntity
  8
FAN70-0105
370
              15
390
0
  6
STYLE_12
 62
               7
100
AcDbCircle
 10
621.58014842425894
 20
-342.95831075219746
 30
0.0
 40
3.0
100
AcDbArc
 50
90.0
 51
162.36700481343124
  0
ARC
  5
19C
100
AcDbEntity
  8
FAN70-0105
370
              15
390
0
  6
STYLE_12
 62
               7
100
AcDbCircle
 10
338.72976230807217
 20
-342.95831075219746
 30
0.0
 40
3.0
100
AcDbArc
 50
17.632995186568778
 51
90.0
  0
ARC
  5
19D
100
AcDbEntity
  8
FAN70-0105
370
              15
390
0
  6
STYLE_12
 62
               7
100
AcDbCircle
 10
-324.25360539727012
 20
-342.95831075219746
 30
0.0
 40
3.0
100
AcDbArc
 50
90.0
 51
162.36700481343124
  0
ARC
  5
19E
100
AcDbEntity
  8
FAN70-0105
370
              15
390
0
  6
STYLE_12
 62
               7
100
AcDbCircle
 10
-607.10399151345803
 20
-342.95831075219746
 30
0.0
 40
3.0
100
AcDbArc
 50
17.632995186568778
 51
90.0
  0
LINE
  5
19F
100
AcDbEntity
  8
FAN70-0105
370
              15
390
0
  6
STYLE_12
 62
               7
100
AcDbLine
 10
-540.68940972222242
 20
-349.95831075219746
 30
0.0
 11
-390.68940972222208
 21
-349.95831075219746
 31
0.0
  0
LINE
  5
1A0
100
AcDbEntity
  8
FAN70-0105
370
              15
390
0
  6
STYLE_12
 62
               7
100
AcDbLine
 10
-390.68940972222208
 20
-349.95831075219746
 30
0.0
 11
-390.68940972222208
 21
-619.9583107521978
 31
0.0
  0
LINE
  5
1A1
100
AcDbEntity
  8
FAN70-0105
370
              15
390
0
  6
STYLE_12
 62
               7
100
AcDbLine
 10
-540.68940972222242
 20
-619.9583107521978
 30
0.0
 11
-540.68940972222242
 21
-349.95831075219746
 31
0.0
  0
LINE
  5
1A2
100
AcDbEntity
  8
FAN70-0105
370
              15
390
0
  6
STYLE_12
 62
               7
100
AcDbLine
 10
-540.68940972222242
 20
-620.0
 30
0.0
 11
-390.68940972222208
 21
-620.0
 31
0.0
  0
CIRCLE
  5
1A3
100
AcDbEntity
  8
FAN70-0105
370
              15
390
0
  6
STYLE_12
 62
               7
100
AcDbCircle
 10
-508.18940972222208
 20
-382.45831075219746
 30
0.0
 40
10.0
  0
LINE
  5
1A4
100
AcDbEntity
  8
FAN70-0105
370
              15
390
0
  6
STYLE_12
 62
               7
100
AcDbLine
 10
-508.18940972222208
 20
-402.45831075219746
 30
0.0
 11
-508.18940972222208
 21
-362.45831075219746
 31
0.0
  0
LINE
  5
1A5
100
AcDbEntity
  8
FAN70-0105
370
              15
390
0
  6
STYLE_12
 62
               7
100
AcDbLine
 10
-488.18940972222208
 20
-382.45831075219746
 30
0.0
 11
-528.18940972222231
 21
-382.45831075219746
 31
0.0
  0
CIRCLE
  5
1A6
100
AcDbEntity
  8
FAN70-0105
370
              15
390
0
  6
STYLE_12
 62
               7
100
AcDbCircle
 10
-423.18940972222208
 20
-382.45831075219746
 30
0.0
 40
10.0
  0
LINE
  5
1A7
100
AcDbEntity
  8
FAN70-0105
370
              15
390
0
  6
STYLE_12
 62
               7
100
AcDbLine
 10
-423.18940972222208
 20
-402.45831075219746
 30
0.0
 11
-423.18940972222208
 21
-362.45831075219746
 31
0.0
  0
LINE
  5
1A8
100
AcDbEntity
  8
FAN70-0105
370
              15
390
0
  6
STYLE_12
 62
               7
100
AcDbLine
 10
-403.18940972222208
 20
-382.45831075219746
 30
0.0
 11
-443.18940972222208
 21
-382.45831075219746
 31
0.0
  0
CIRCLE
  5
1A9
100
AcDbEntity
  8
FAN70-0105
370
              15
390
0
  6
STYLE_12
 62
               7
100
AcDbCircle
 10
-508.18940972222208
 20
-452.45831075219775
 30
0.0
 40
10.0
  0
LINE
  5
1AA
100
AcDbEntity
  8
FAN70-0105
370
              15
390
0
  6
STYLE_12
 62
               7
100
AcDbLine
 10
-508.18940972222208
 20
-472.45831075219775
 30
0.0
 11
-508.18940972222208
 21
-432.45831075219769
 31
0.0
  0
LINE
  5
1AB
100
AcDbEntity
  8
FAN70-0105
370
              15
390
0
  6
STYLE_12
 62
               7
100
AcDbLine
 10
-488.18940972222208
 20
-452.45831075219775
 30
0.0
 11
-528.18940972222231
 21
-452.45831075219775
 31
0.0
  0
CIRCLE
  5
1AC
100
AcDbEntity
  8
FAN70-0105
370
              15
390
0
  6
STYLE_12
 62
               7
100
AcDbCircle
 10
-423.18940972222208
 20
-452.45831075219775
 30
0.0
 40
10.0
  0
LINE
  5
1AD
100
AcDbEntity
  8
FAN70-0105
370
              15
390
0
  6
STYLE_12
 62
               7
100
AcDbLine
 10
-423.18940972222208
 20
-472.45831075219775
 30
0.0
 11
-423.18940972222208
 21
-432.45831075219769
 31
0.0
  0
LINE
  5
1AE
100
AcDbEntity
  8
FAN70-0105
370
              15
390
0
  6
STYLE_12
 62
               7
100
AcDbLine
 10
-403.18940972222208
 20
-452.45831075219775
 30
0.0
 11
-443.18940972222208
 21
-452.45831075219775
 31
0.0
  0
LINE
  5
1AF
100
AcDbEntity
  8
FAN70-0105
370
              15
390
0
  6
STYLE_12
 62
               7
100
AcDbLine
 10
-540.68940972222242
 20
-349.95831075219746
 30
0.0
 11
-390.68940972222208
 21
-349.95831075219746
 31
0.0
  0
LINE
  5
1B0
100
AcDbEntity
  8
FAN70-0105
370
              15
390
0
  6
STYLE_12
 62
               7
100
AcDbLine
 10
-390.68940972222208
 20
-349.95831075219746
 30
0.0
 11
-390.68940972222208
 21
-619.9583107521978
 31
0.0
  0
LINE
  5
1B1
100
AcDbEntity
  8
FAN70-0105
370
              15
390
0
  6
STYLE_12
 62
               7
100
AcDbLine
 10
-540.68940972222242
 20
-349.95831075219746
 30
0.0
 11
-540.68940972222242
 21
-619.9583107521978
 31
0.0
  0
POLYLINE
  5
1B2
100
AcDbEntity
  8
FAN70-0105
370
              15
390
0
  6
STYLE_12
 62
               7
100
AcDb2dPolyline
 66
               1
 10
0.0
 20
0.0
 30
0.0
 70
               1
 75
               5
  0
VERTEX
  5
1B3
100
AcDbEntity
  8
FAN70-0105
370
              15
390
0
  6
STYLE_12
 62
               7
100
AcDbVertex
100
AcDb2dVertex
 10
445.11059027777799
 20
-445.95831075219775
 30
0.0
  0
VERTEX
  5
1B4
100
AcDbEntity
  8
FAN70-0105
370
              15
390
0
  6
STYLE_12
 62
               7
100
AcDbVertex
100
AcDb2dVertex
 10
515.11059027777742
 20
-445.95831075219775
 30
0.0
  0
VERTEX
  5
1B5
100
AcDbEntity
  8
FAN70-0105
370
              15
390
0
  6
STYLE_12
 62
               7
100
AcDbVertex
100
AcDb2dVertex
 10
515.11059027777742
 20
-492.95831075219775
 30
0.0
  0
VERTEX
  5
1B6
100
AcDbEntity
  8
FAN70-0105
370
              15
390
0
  6
STYLE_12
 62
               7
100
AcDbVertex
100
AcDb2dVertex
 10
445.11059027777799
 20
-492.95831075219775
 30
0.0
  0
SEQEND
  5
1B7
100
AcDbEntity
  8
FAN70-0105
370
              15
390
0
  6
STYLE_12
 62
               7
  0
POLYLINE
  5
1B8
100
AcDbEntity
  8
FAN70-0105
370
              15
390
0
  6
STYLE_12
 62
               7
100
AcDb2dPolyline
 66
               1
 10
0.0
 20
0.0
 30
0.0
 70
               1
 75
               5
  0
VERTEX
  5
1B9
100
AcDbEntity
  8
FAN70-0105
370
              15
390
0
  6
STYLE_12
 62
               7
100
AcDbVertex
100
AcDb2dVertex
 10
-500.68940972222208
 20
-445.91953125000015
 30
0.0
  0
VERTEX
  5
1BA
100
AcDbEntity
  8
FAN70-0105
370
              15
390
0
  6
STYLE_12
 62
               7
100
AcDbVertex
100
AcDb2dVertex
 10
-430.68940972222208
 20
-445.91953125000015
 30
0.0
  0
VERTEX
  5
1BB
100
AcDbEntity
  8
FAN70-0105
370
              15
390
0
  6
STYLE_12
 62
               7
100
AcDbVertex
100
AcDb2dVertex
 10
-430.68940972222208
 20
-492.91953125000015
 30
0.0
  0
VERTEX
  5
1BC
100
AcDbEntity
  8
FAN70-0105
370
              15
390
0
  6
STYLE_12
 62
               7
100
AcDbVertex
100
AcDb2dVertex
 10
-500.68940972222208
 20
-492.91953125000015
 30
0.0
  0
SEQEND
  5
1BD
100
AcDbEntity
  8
FAN70-0105
370
              15
390
0
  6
STYLE_12
 62
               7
  0
LINE
  5
1BE
100
AcDbEntity
  8
FAN70-0105
370
               5
390
0
  6
STYLE_12
 62
               7
100
AcDbLine
 10
445.11059027777799
 20
-459.0
 30
0.0
 11
515.11059027777742
 21
-459.0
 31
0.0
  0
ENDSEC
  0
SECTION
  2
OBJECTS
  0
DICTIONARY
  5
19
100
AcDbDictionary
280
               0
281
               1
  3
ACAD_GROUP
350
1A
  3
ACAD_MLINESTYLE
350
1B
  3
ACAD_LAYOUT
350
1E
  3
ACAD_PLOTSETTINGS
350
22
  3
ACAD_PLOTSTYLENAME
350
1F
  0
DICTIONARY
  5
1A
102
{ACAD_REACTORS
330
19
102
}
100
AcDbDictionary
280
               0
281
               1
  0
DICTIONARY
  5
1B
102
{ACAD_REACTORS
330
19
102
}
100
AcDbDictionary
280
               0
281
               1
  3
Standard
350
1C
  0
MLINESTYLE
  5
1C
102
{ACAD_REACTORS
330
1B
102
}
100
AcDbMlineStyle
  2
Standard
 70
               0
  3

 62
               0
 51
90.0
 52
90.0
 71
               2
 49
0.5
 62
             256
  6
ByLayer
 49
-0.5
 62
             256
  6
ByLayer
  0
ACDBDICTIONARYWDFLT
  5
1F
102
{ACAD_REACTORS
330
19
102
}
100
AcDbDictionary
281
               1
  3
Normal
350
1D
100
AcDbDictionaryWithDefault
340
1D
  0
ACDBPLACEHOLDER
  5
1D
102
{ACAD_REACTORS
330
1F
102
}
  0
LAYOUT
  5
20
102
{ACAD_REACTORS
330
1E
102
}
100
AcDbPlotSettings
  1

  2

  4

  6

 40
0.0
 41
0.0
 42
0.0
 43
0.0
 44
0.0
 45
0.0
 46
0.0
 47
0.0
 48
0.0
 49
0.0
140
0.0
141
0.0
142
1.0
143
1.0
 70
            1024
 72
               0
 73
               0
 74
               0
  7

 75
               0
147
1.0
148
0.0
149
0.0
100
AcDbLayout
  1
Model
 70
               0
 71
               0
 10
0.0
 20
0.0
 11
0.0
 21
0.0
 12
0.0
 22
0.0
 32
0.0
 14
0.0
 24
0.0
 34
0.0
 15
0.0
 25
0.0
 35
0.0
146
0.0
 13
0.0
 23
0.0
 33
0.0
 16
0.0
 26
0.0
 36
0.0
 17
0.0
 27
0.0
 37
0.0
 76
               0
330
A
331
0
345
0
346
0
  0
LAYOUT
  5
21
102
{ACAD_REACTORS
330
1E
102
}
100
AcDbPlotSettings
  1

  2

  4

  6

 40
0.0
 41
0.0
 42
0.0
 43
0.0
 44
0.0
 45
0.0
 46
0.0
 47
0.0
 48
0.0
 49
0.0
140
0.0
141
0.0
142
1.0
143
1.0
 70
               0
 72
               0
 73
               0
 74
               0
  7

 75
               0
147
1.0
148
0.0
149
0.0
100
AcDbLayout
  1
Layout1
 70
               0
 71
               0
 10
0.0
 20
0.0
 11
0.0
 21
0.0
 12
0.0
 22
0.0
 32
0.0
 14
0.0
 24
0.0
 34
0.0
 15
0.0
 25
0.0
 35
0.0
146
0.0
 13
0.0
 23
0.0
 33
0.0
 16
0.0
 26
0.0
 36
0.0
 17
0.0
 27
0.0
 37
0.0
 76
               0
330
B
331
0
345
0
346
0
  0
DICTIONARY
  5
1E
102
{ACAD_REACTORS
330
19
102
}
100
AcDbDictionary
280
               0
281
               1
  3
Layout1
350
21
  3
Model
350
20
  0
DICTIONARY
  5
22
102
{ACAD_REACTORS
330
19
102
}
100
AcDbDictionary
280
               0
281
               1
  0
ENDSEC
  0
EOF
