  0
SECTION
  2
HEADER
  9
$ACADVER
  1
AC1015
  9
$ACADMAINTVER
 70
               6
  9
$DWGCODEPAGE
  3
ANSI_932
  9
$INSBASE
 10
0.0
 20
0.0
 30
0.0
  9
$EXTMIN
 10
-975.00000000024124
 20
-1431.5255224711129
 30
-14.428611111111111
  9
$EXTMAX
 10
975.00000000024124
 20
1405.9972926412995
 30
14.428611111111111
  9
$LIMMIN
 10
0.0
 20
0.0
  9
$LIMMAX
 10
0.0
 20
0.0
  9
$ORTHOMODE
 70
               0
  9
$REGENMODE
 70
               1
  9
$FILLMODE
 70
               1
  9
$QTEXTMODE
 70
               0
  9
$MIRRTEXT
 70
               1
  9
$LTSCALE
 40
50.799999999999997
  9
$ATTMODE
 70
               1
  9
$TEXTSIZE
 40
0.2
  9
$TRACEWID
 40
1.0
  9
$TEXTSTYLE
  7
Standard
  9
$CLAYER
  8
template
  9
$CELTYPE
  6
Continuous
  9
$CECOLOR
 62
             256
  9
$CELTSCALE
 40
1.0
  9
$DISPSILH
 70
               0
  9
$DIMSCALE
 40
1.0
  9
$DIMASZ
 40
31.75
  9
$DIMEXO
 40
0.0
  9
$DIMDLI
 40
6.9999999999999396
  9
$DIMRND
 40
0.0
  9
$DIMDLE
 40
0.0
  9
$DIMEXE
 40
19.999999999996199
  9
$DIMTP
 40
0.0
  9
$DIMTM
 40
0.0
  9
$DIMTXT
 40
24.432617187500004
  9
$DIMCEN
 40
0.0
  9
$DIMTSZ
 40
0.0
  9
$DIMTOL
 70
               0
  9
$DIMLIM
 70
               0
  9
$DIMTIH
 70
               0
  9
$DIMTOH
 70
               0
  9
$DIMSE1
 70
               0
  9
$DIMSE2
 70
               0
  9
$DIMTAD
 70
               1
  9
$DIMZIN
 70
              11
  9
$DIMBLK
  1
VW_FILLEDARROW
  9
$DIMASO
 70
               1
  9
$DIMSHO
 70
               1
  9
$DIMPOST
  1
<>
  9
$DIMAPOST
  1
[]
  9
$DIMALT
 70
               0
  9
$DIMALTD
 70
               1
  9
$DIMALTF
 40
1.0
  9
$DIMLFAC
 40
1.0
  9
$DIMTOFL
 70
               0
  9
$DIMTVP
 40
0.0
  9
$DIMTIX
 70
               1
  9
$DIMSOXD
 70
               0
  9
$DIMSAH
 70
               0
  9
$DIMBLK1
  1

  9
$DIMBLK2
  1

  9
$DIMSTYLE
  2
JIS
  9
$DIMCLRD
 70
               0
  9
$DIMCLRE
 70
               0
  9
$DIMCLRT
 70
               0
  9
$DIMTFAC
 40
1.0
  9
$DIMGAP
 40
1.00000000000108
  9
$DIMJUST
 70
               0
  9
$DIMSD1
 70
               0
  9
$DIMSD2
 70
               0
  9
$DIMTOLJ
 70
               1
  9
$DIMTZIN
 70
              11
  9
$DIMALTZ
 70
              11
  9
$DIMALTTZ
 70
              11
  9
$DIMUPT
 70
               0
  9
$DIMDEC
 70
               1
  9
$DIMTDEC
 70
               1
  9
$DIMALTU
 70
               2
  9
$DIMALTTD
 70
               2
  9
$DIMTXSTY
  7
ＭＳ ゴシック
  9
$DIMAUNIT
 70
               0
  9
$DIMADEC
 70
               2
  9
$DIMALTRND
 40
0.0
  9
$DIMAZIN
 70
               0
  9
$DIMDSEP
 70
              46
  9
$DIMATFIT
 70
               0
  9
$DIMFRAC
 70
               2
  9
$DIMLDRBLK
  1

  9
$DIMLUNIT
 70
               2
  9
$DIMLWD
 70
              -2
  9
$DIMLWE
 70
              -2
  9
$DIMTMOVE
 70
               0
  9
$LUNITS
 70
               2
  9
$LUPREC
 70
               4
  9
$SKETCHINC
 40
0.1
  9
$FILLETRAD
 40
0.0
  9
$AUNITS
 70
               0
  9
$AUPREC
 70
               0
  9
$MENU
  1
acad
  9
$ELEVATION
 40
0.0
  9
$PELEVATION
 40
0.0
  9
$THICKNESS
 40
0.0
  9
$LIMCHECK
 70
               0
  9
$CHAMFERA
 40
0.0
  9
$CHAMFERB
 40
0.0
  9
$CHAMFERC
 40
0.0
  9
$CHAMFERD
 40
0.0
  9
$SKPOLY
 70
               0
  9
$TDCREATE
 40
2456049.436365741
  9
$TDUCREATE
 40
0.000000000
  9
$TDUPDATE
 40
2456049.436365741
  9
$TDUUPDATE
 40
0.000000000
  9
$TDINDWG
 40
0.0000000000
  9
$TDUSRTIMER
 40
0.0000000000
  9
$USRTIMER
 70
               1
  9
$ANGBASE
 50
0.0
  9
$ANGDIR
 70
               0
  9
$PDMODE
 70
               1
  9
$PDSIZE
 40
-2.0
  9
$PLINEWID
 40
0.0
  9
$SPLFRAME
 70
               0
  9
$SPLINETYPE
 70
               6
  9
$SPLINESEGS
 70
               8
  9
$HANDSEED
  5
234
  9
$SURFTAB1
 70
               6
  9
$SURFTAB2
 70
               6
  9
$SURFTYPE
 70
               6
  9
$SURFU
 70
               6
  9
$SURFV
 70
               6
  9
$UCSBASE
  2

  9
$UCSNAME
  2

  9
$UCSORG
 10
0.0
 20
0.0
 30
0.0
  9
$UCSXDIR
 10
1.0
 20
0.0
 30
0.0
  9
$UCSYDIR
 10
0.0
 20
1.0
 30
0.0
  9
$UCSORTHOREF
  2

  9
$UCSORTHOVIEW
 70
               0
  9
$UCSORGTOP
 10
0.0
 20
0.0
 30
0.0
  9
$UCSORGBOTTOM
 10
0.0
 20
0.0
 30
0.0
  9
$UCSORGLEFT
 10
0.0
 20
0.0
 30
0.0
  9
$UCSORGRIGHT
 10
0.0
 20
0.0
 30
0.0
  9
$UCSORGFRONT
 10
0.0
 20
0.0
 30
0.0
  9
$UCSORGBACK
 10
0.0
 20
0.0
 30
0.0
  9
$PUCSBASE
  2

  9
$PUCSNAME
  2

  9
$PUCSORG
 10
0.0
 20
0.0
 30
0.0
  9
$PUCSXDIR
 10
1.0
 20
0.0
 30
0.0
  9
$PUCSYDIR
 10
0.0
 20
1.0
 30
0.0
  9
$PUCSORTHOREF
  2

  9
$PUCSORTHOVIEW
 70
               0
  9
$PUCSORGTOP
 10
0.0
 20
0.0
 30
0.0
  9
$PUCSORGBOTTOM
 10
0.0
 20
0.0
 30
0.0
  9
$PUCSORGLEFT
 10
0.0
 20
0.0
 30
0.0
  9
$PUCSORGRIGHT
 10
0.0
 20
0.0
 30
0.0
  9
$PUCSORGFRONT
 10
0.0
 20
0.0
 30
0.0
  9
$PUCSORGBACK
 10
0.0
 20
0.0
 30
0.0
  9
$USERI1
 70
               0
  9
$USERI2
 70
               0
  9
$USERI3
 70
               0
  9
$USERI4
 70
               0
  9
$USERI5
 70
               0
  9
$USERR1
 40
0.0
  9
$USERR2
 40
0.0
  9
$USERR3
 40
0.0
  9
$USERR4
 40
0.0
  9
$USERR5
 40
0.0
  9
$WORLDVIEW
 70
               1
  9
$SHADEDGE
 70
               3
  9
$SHADEDIF
 70
              70
  9
$TILEMODE
 70
               1
  9
$MAXACTVP
 70
              64
  9
$PINSBASE
 10
0.0
 20
0.0
 30
0.0
  9
$PLIMCHECK
 70
               0
  9
$PEXTMIN
 10
1.0000000000000000E+20
 20
1.0000000000000000E+20
 30
1.0000000000000000E+20
  9
$PEXTMAX
 10
-1.0000000000000000E+20
 20
-1.0000000000000000E+20
 30
-1.0000000000000000E+20
  9
$PLIMMIN
 10
0.0
 20
0.0
  9
$PLIMMAX
 10
12.0
 20
9.0
  9
$UNITMODE
 70
               0
  9
$VISRETAIN
 70
               0
  9
$PLINEGEN
 70
               1
  9
$PSLTSCALE
 70
               0
  9
$TREEDEPTH
 70
            3020
  9
$CMLSTYLE
  2
Standard
  9
$CMLJUST
 70
               0
  9
$CMLSCALE
 40
1.0
  9
$PROXYGRAPHICS
 70
               0
  9
$MEASUREMENT
 70
               1
  9
$CELWEIGHT
370
               0
  9
$ENDCAPS
280
               0
  9
$JOINSTYLE
280
               0
  9
$LWDISPLAY
290
               1
  9
$INSUNITS
 70
               4
  9
$HYPERLINKBASE
  1

  9
$STYLESHEET
  1

  9
$XEDIT
290
               1
  9
$CEPSNTYPE
380
               0
  9
$PSTYLEMODE
290
               1
  9
$FINGERPRINTGUID
  2

  9
$VERSIONGUID
  2

  9
$EXTNAMES
290
               1
  9
$PSVPSCALE
 40
0.0
  0
ENDSEC
  0
SECTION
  2
CLASSES
  0
CLASS
  1
LWPOLYLINE
  2
AcDbPolyline
  3
AutoCAD 2000
 90
        0
280
               0
281
               1
  0
CLASS
  1
IMAGE
  2
AcDbRasterImage
  3
ISM
 90
      127
280
               0
281
               1
  0
CLASS
  1
OLE2FRAME
  2
AcDbOle2Frame
  3
AutoCAD 2000
 90
        0
280
               0
281
               1
  0
CLASS
  1
HATCH
  2
AcDbHatch
  3
AutoCAD 2000
 90
        0
280
               0
281
               1
  0
CLASS
  1
DICTIONARYVAR
  2
AcDbDictionaryVar
  3
AutoCAD 2000
 90
        0
280
               0
281
               0
  0
CLASS
  1
RASTERVARIABLES
  2
AcDbRasterVariables
  3
ISM
 90
        0
280
               0
281
               0
  0
CLASS
  1
IMAGEDEF
  2
AcDbRasterImageDef
  3
ISM
 90
        0
280
               0
281
               0
  0
CLASS
  1
IMAGEDEF_REACTOR
  2
AcDbRasterImageDefReactor
  3
ISM
 90
        1
280
               0
281
               0
  0
CLASS
  1
IDBUFFER
  2
AcDbIdBuffer
  3
AutoCAD 2000
 90
        0
280
               0
281
               0
  0
CLASS
  1
SPATIAL_FILTER
  2
AcDbSpatialFilter
  3
AutoCAD 2000
 90
        0
280
               0
281
               0
  0
CLASS
  1
XRECORD
  2
AcDbXrecord
  3
AutoCAD 2000
 90
        0
280
               0
281
               0
  0
CLASS
  1
SORTENTSTABLE
  2
AcDbSortentsTable
  3
AutoCAD 2000
 90
        0
280
               0
281
               0
  0
CLASS
  1
LAYER_INDEX
  2
AcDbLayerIndex
  3
AutoCAD 2000
 90
        0
280
               0
281
               0
  0
CLASS
  1
SPATIAL_INDEX
  2
AcDbSpatialIndex
  3
AutoCAD 2000
 90
        0
280
               0
281
               0
  0
CLASS
  1
OBJECT_PTR
  2
CAseDLPNTableRecord
  3
"ASE-LPNTableRecord"
 90
        1
280
               0
281
               0
  0
CLASS
  1
LAYOUT
  2
AcDbLayout
  3
AutoCAD 2000
 90
        0
280
               0
281
               0
  0
CLASS
  1
PLOTSETTINGS
  2
AcDbPlotSettings
  3
AutoCAD 2000
 90
        0
280
               0
281
               0
  0
CLASS
  1
ACDBDICTIONARYWDFLT
  2
AcDbDictionaryWithDefault
  3
AutoCAD 2000
 90
        0
280
               0
281
               0
  0
CLASS
  1
ACDBPLACEHOLDER
  2
AcDbPlaceHolder
  3
AutoCAD 2000
 90
        0
280
               0
281
               0
  0
ENDSEC
  0
SECTION
  2
TABLES
  0
TABLE
  2
VPORT
  5
7
100
AcDbSymbolTable
 70
               1
  0
VPORT
  5
15
100
AcDbSymbolTableRecord
100
AcDbViewportTableRecord
  2
*ACTIVE
 70
               0
 10
0.0
 20
0.0
 11
1.0
 21
1.0
 12
0.0
 22
-12.764114914906713
 13
0.0
 23
0.0
 14
1.0
 24
1.0
 15
0.0
 25
0.0
 16
0.0
 26
0.0
 36
1.0
 17
0.0
 27
0.0
 37
0.0
 40
2837.5228151124124
 41
0.688564
 42
50.0
 43
0.0
 44
0.0
 50
0.0
 51
0.0
 71
               0
 72
            2000
 73
               1
 74
               1
 75
               0
 76
               0
 77
               0
 78
               0
281
               0
 65
               0
110
0.0
120
0.0
130
0.0
111
1.0
121
0.0
131
0.0
112
0.0
122
1.0
132
0.0
345
0
346
0
 79
               0
146
0.0
  0
ENDTAB
  0
TABLE
  2
LTYPE
  5
4
100
AcDbSymbolTable
 70
              17
  0
LTYPE
  5
11
100
AcDbSymbolTableRecord
100
AcDbLinetypeTableRecord
  2
ByBlock
 70
              64
  3

 72
              65
 73
               0
 40
0.0
  0
LTYPE
  5
12
100
AcDbSymbolTableRecord
100
AcDbLinetypeTableRecord
  2
ByLayer
 70
              64
  3

 72
              65
 73
               0
 40
0.0
  0
LTYPE
  5
13
100
AcDbSymbolTableRecord
100
AcDbLinetypeTableRecord
  2
Continuous
 70
              64
  3
Solid line
 72
              65
 73
               0
 40
0.0
  0
LTYPE
  5
3D
100
AcDbSymbolTableRecord
100
AcDbLinetypeTableRecord
  2
STYLE_01
 70
               0
  3

 72
              65
 73
               4
 40
0.7999999999999998
 49
0.4999999999999999
 74
               0
 49
-0.1
 74
               0
 49
0.1
 74
               0
 49
-0.1
 74
               0
  0
LTYPE
  5
3E
100
AcDbSymbolTableRecord
100
AcDbLinetypeTableRecord
  2
STYLE_02
 70
               0
  3

 72
              65
 73
               2
 40
0.6944250000000001
 49
0.48607
 74
               0
 49
-0.2083550000000001
 74
               0
  0
LTYPE
  5
3F
100
AcDbSymbolTableRecord
100
AcDbLinetypeTableRecord
  2
STYLE_03
 70
               0
  3

 72
              65
 73
               2
 40
1.25
 49
1.0416400000000001
 74
               0
 49
-0.2083599999999999
 74
               0
  0
LTYPE
  5
40
100
AcDbSymbolTableRecord
100
AcDbLinetypeTableRecord
  2
STYLE_04
 70
               0
  3

 72
              65
 73
               2
 40
1.5277099999999999
 49
1.3194249999999998
 74
               0
 49
-0.208285
 74
               0
  0
LTYPE
  5
41
100
AcDbSymbolTableRecord
100
AcDbLinetypeTableRecord
  2
STYLE_05
 70
               0
  3

 72
              65
 73
               2
 40
0.20828
 49
0.069425
 74
               0
 49
-0.138855
 74
               0
  0
LTYPE
  5
42
100
AcDbSymbolTableRecord
100
AcDbLinetypeTableRecord
  2
STYLE_06
 70
               0
  3

 72
              65
 73
               4
 40
1.0416400000000001
 49
0.625
 74
               0
 49
-0.20828
 74
               0
 49
0.06943
 74
               0
 49
-0.13893
 74
               0
  0
LTYPE
  5
43
100
AcDbSymbolTableRecord
100
AcDbLinetypeTableRecord
  2
STYLE_07
 70
               0
  3

 72
              65
 73
               6
 40
1.875
 49
0.625
 74
               0
 49
-0.20828
 74
               0
 49
0.6250000000000001
 74
               0
 49
-0.2083599999999999
 74
               0
 49
0.06943
 74
               0
 49
-0.1389299999999999
 74
               0
  0
LTYPE
  5
44
100
AcDbSymbolTableRecord
100
AcDbLinetypeTableRecord
  2
STYLE_08
 70
               0
  3

 72
              65
 73
               6
 40
1.25
 49
0.625
 74
               0
 49
-0.20828
 74
               0
 49
0.06943
 74
               0
 49
-0.13893
 74
               0
 49
0.0694299999999999
 74
               0
 49
-0.13893
 74
               0
  0
LTYPE
  5
45
100
AcDbSymbolTableRecord
100
AcDbLinetypeTableRecord
  2
STYLE_09
 70
               0
  3

 72
              65
 73
               4
 40
5.0
 49
3.75
 74
               0
 49
-0.2777849999999998
 74
               0
 49
0.6944300000000003
 74
               0
 49
-0.2777849999999998
 74
               0
  0
LTYPE
  5
46
100
AcDbSymbolTableRecord
100
AcDbLinetypeTableRecord
  2
STYLE_10
 70
               0
  3

 72
              65
 73
               6
 40
5.9375
 49
3.75
 74
               0
 49
-0.2777849999999998
 74
               0
 49
0.6944300000000003
 74
               0
 49
-0.2777849999999998
 74
               0
 49
0.625
 74
               0
 49
-0.3125
 74
               0
  0
LTYPE
  5
47
100
AcDbSymbolTableRecord
100
AcDbLinetypeTableRecord
  2
STYLE_11
 70
               0
  3

 72
              65
 73
               2
 40
0.0694444881889764
 49
0.0347222440944882
 74
               0
 49
-0.0347222440944882
 74
               0
  0
LTYPE
  5
48
100
AcDbSymbolTableRecord
100
AcDbLinetypeTableRecord
  2
STYLE_12
 70
               0
  3

 72
              65
 73
               2
 40
0.3937007874015748
 49
0.1968503937007874
 74
               0
 49
-0.1968503937007874
 74
               0
  0
LTYPE
  5
49
100
AcDbSymbolTableRecord
100
AcDbLinetypeTableRecord
  2
STYLE_13
 70
               0
  3

 72
              65
 73
               2
 40
0.5905511811023622
 49
0.2952755905511811
 74
               0
 49
-0.2952755905511811
 74
               0
  0
LTYPE
  5
4A
100
AcDbSymbolTableRecord
100
AcDbLinetypeTableRecord
  2
STYLE_14
 70
               0
  3

 72
              65
 73
               2
 40
1.9685039370078738
 49
0.9842519685039369
 74
               0
 49
-0.9842519685039369
 74
               0
  0
ENDTAB
  0
TABLE
  2
LAYER
  5
2
100
AcDbSymbolTable
 70
               5
  0
LAYER
  5
14
100
AcDbSymbolTableRecord
100
AcDbLayerTableRecord
  2
0
 70
               0
 62
               7
  6
Continuous
290
               1
370
              -3
390
1D
  0
LAYER
  5
4B
100
AcDbSymbolTableRecord
100
AcDbLayerTableRecord
  2
Defpoints
 70
               0
 62
               7
  6
Continuous
290
               0
370
              -3
390
1D
  0
LAYER
  5
4C
100
AcDbSymbolTableRecord
100
AcDbLayerTableRecord
  2
template
 70
               0
 62
               7
  6
Continuous
290
               1
370
              -3
390
1D
  0
LAYER
  5
4D
100
AcDbSymbolTableRecord
100
AcDbLayerTableRecord
  2
notes
 70
               0
 62
               7
  6
Continuous
290
               1
370
              -3
390
1D
  0
LAYER
  5
4E
100
AcDbSymbolTableRecord
100
AcDbLayerTableRecord
  2
FAN70-0106
 70
               0
 62
               7
  6
Continuous
290
               1
370
              -3
390
1D
  0
ENDTAB
  0
TABLE
  2
STYLE
  5
3
100
AcDbSymbolTable
 70
               2
  0
STYLE
  5
17
100
AcDbSymbolTableRecord
100
AcDbTextStyleTableRecord
  2
Standard
 70
               0
 40
0.0
 41
1.0
 50
0.0
 71
               0
 42
0.0
  3
txt
  4
BIGFONT.SHX
  0
STYLE
  5
3C
100
AcDbSymbolTableRecord
100
AcDbTextStyleTableRecord
  2
ＭＳ ゴシック
 70
               0
 40
0.0
 41
1.0
 50
0.0
 71
               0
 42
0.0
  3

  4
ＭＳ ゴシック
1001
ACAD
1000
ＭＳ ゴシック
1071
        0
  0
ENDTAB
  0
TABLE
  2
VIEW
  5
5
100
AcDbSymbolTable
 70
               0
  0
ENDTAB
  0
TABLE
  2
UCS
  5
6
100
AcDbSymbolTable
 70
               0
  0
ENDTAB
  0
TABLE
  2
APPID
  5
8
100
AcDbSymbolTable
 70
               1
  0
APPID
  5
16
100
AcDbSymbolTableRecord
100
AcDbRegAppTableRecord
  2
ACAD
 70
               0
  0
ENDTAB
  0
TABLE
  2
DIMSTYLE
  5
9
100
AcDbSymbolTable
 70
               3
100
AcDbDimStyleTable
 71
               0
  0
DIMSTYLE
105
18
100
AcDbSymbolTableRecord
100
AcDbDimStyleTableRecord
  2
Standard
 70
               0
  3

  4

 40
1.0
 41
0.18
 42
0.0625
 43
0.38
 44
0.18
 45
0.0
 46
0.0
 47
0.0
 48
0.0
 71
               0
 72
               0
 73
               1
 74
               1
 75
               0
 76
               0
 77
               0
 78
               0
 79
               0
140
0.18
141
0.09
142
0.0
143
25.399999999999999
144
1.0
145
0.0
146
1.0
147
0.09
148
0.0
170
               0
171
               2
172
               0
173
               0
174
               0
175
               0
176
               0
177
               0
178
               0
179
               0
271
               4
272
               4
273
               2
274
               2
275
               0
276
               0
277
               2
278
              46
279
               0
280
               0
281
               0
282
               0
283
               1
284
               0
285
               0
286
               0
288
               0
289
               3
340
17
341
0
342
0
343
0
344
0
371
              -2
372
              -2
  0
DIMSTYLE
105
57
100
AcDbSymbolTableRecord
100
AcDbDimStyleTableRecord
  2
tfrom線あり
 70
               0
  3
<>
  4
[]
 40
1.0
 41
3.999755859375
 42
24.999999999999996
 43
0.9999999999999999
 44
0.0
 45
0.0
 46
0.0
 47
0.0
 48
0.0
 71
               0
 72
               0
 73
               0
 74
               0
 75
               0
 76
               0
 77
               1
 78
              11
 79
               0
140
24.432617187500004
141
0.0
142
0.0
143
1.0
144
1.0
145
0.0
146
1.0
147
0.4999999999999999
148
0.0
170
               0
171
               1
172
               0
173
               0
174
               1
175
               0
176
               0
177
               0
178
               0
179
               2
271
               1
272
               1
273
               2
274
               2
275
               0
276
               2
277
               2
278
              46
279
               0
280
               0
281
               0
282
               0
283
               1
284
              11
285
              11
286
              11
288
               0
289
               0
340
3C
341
4F
342
4F
343
0
344
0
371
              -2
372
              -2
  0
DIMSTYLE
105
5C
100
AcDbSymbolTableRecord
100
AcDbDimStyleTableRecord
  2
JIS
 70
               0
  3
<>
  4
[]
 40
1.0
 41
31.75
 42
0.0
 43
6.9999999999999396
 44
19.999999999996199
 45
0.0
 46
0.0
 47
0.0
 48
0.0
 71
               0
 72
               0
 73
               0
 74
               0
 75
               0
 76
               0
 77
               1
 78
              11
 79
               0
140
24.432617187500004
141
0.0
142
0.0
143
1.0
144
1.0
145
0.0
146
1.0
147
1.00000000000108
148
0.0
170
               0
171
               1
172
               0
173
               0
174
               1
175
               0
176
               0
177
               0
178
               0
179
               2
271
               1
272
               1
273
               2
274
               2
275
               0
276
               2
277
               2
278
              46
279
               0
280
               0
281
               0
282
               0
283
               1
284
              11
285
              11
286
              11
288
               0
289
               0
340
3C
341
58
342
58
343
0
344
0
371
              -2
372
              -2
  0
ENDTAB
  0
TABLE
  2
BLOCK_RECORD
  5
1
100
AcDbSymbolTable
 70
              27
  0
BLOCK_RECORD
  5
A
100
AcDbSymbolTableRecord
100
AcDbBlockTableRecord
  2
*MODEL_SPACE
340
20
  0
BLOCK_RECORD
  5
B
100
AcDbSymbolTableRecord
100
AcDbBlockTableRecord
  2
*PAPER_SPACE
340
21
  0
BLOCK_RECORD
  5
4F
100
AcDbSymbolTableRecord
100
AcDbBlockTableRecord
  2
_DOT
340
0
  0
BLOCK_RECORD
  5
58
100
AcDbSymbolTableRecord
100
AcDbBlockTableRecord
  2
VW_FILLEDARROW
340
0
  0
BLOCK_RECORD
  5
23
100
AcDbSymbolTableRecord
100
AcDbBlockTableRecord
  2
グループ
340
0
102
{BLKREFS
331
19C
102
}
  0
BLOCK_RECORD
  5
24
100
AcDbSymbolTableRecord
100
AcDbBlockTableRecord
  2
*D3
340
0
  0
BLOCK_RECORD
  5
25
100
AcDbSymbolTableRecord
100
AcDbBlockTableRecord
  2
*D4
340
0
  0
BLOCK_RECORD
  5
26
100
AcDbSymbolTableRecord
100
AcDbBlockTableRecord
  2
*D5
340
0
  0
BLOCK_RECORD
  5
27
100
AcDbSymbolTableRecord
100
AcDbBlockTableRecord
  2
*D6
340
0
  0
BLOCK_RECORD
  5
28
100
AcDbSymbolTableRecord
100
AcDbBlockTableRecord
  2
*D7
340
0
  0
BLOCK_RECORD
  5
29
100
AcDbSymbolTableRecord
100
AcDbBlockTableRecord
  2
*D8
340
0
  0
BLOCK_RECORD
  5
2A
100
AcDbSymbolTableRecord
100
AcDbBlockTableRecord
  2
*D9
340
0
  0
BLOCK_RECORD
  5
2B
100
AcDbSymbolTableRecord
100
AcDbBlockTableRecord
  2
*D10
340
0
  0
BLOCK_RECORD
  5
2C
100
AcDbSymbolTableRecord
100
AcDbBlockTableRecord
  2
*D11
340
0
  0
BLOCK_RECORD
  5
2D
100
AcDbSymbolTableRecord
100
AcDbBlockTableRecord
  2
*D12
340
0
  0
BLOCK_RECORD
  5
2E
100
AcDbSymbolTableRecord
100
AcDbBlockTableRecord
  2
*D13
340
0
  0
BLOCK_RECORD
  5
2F
100
AcDbSymbolTableRecord
100
AcDbBlockTableRecord
  2
*D14
340
0
  0
BLOCK_RECORD
  5
30
100
AcDbSymbolTableRecord
100
AcDbBlockTableRecord
  2
*D15
340
0
  0
BLOCK_RECORD
  5
31
100
AcDbSymbolTableRecord
100
AcDbBlockTableRecord
  2
*D16
340
0
  0
BLOCK_RECORD
  5
32
100
AcDbSymbolTableRecord
100
AcDbBlockTableRecord
  2
*D17
340
0
  0
BLOCK_RECORD
  5
33
100
AcDbSymbolTableRecord
100
AcDbBlockTableRecord
  2
*D18
340
0
  0
BLOCK_RECORD
  5
34
100
AcDbSymbolTableRecord
100
AcDbBlockTableRecord
  2
*D19
340
0
  0
BLOCK_RECORD
  5
35
100
AcDbSymbolTableRecord
100
AcDbBlockTableRecord
  2
*D20
340
0
  0
BLOCK_RECORD
  5
36
100
AcDbSymbolTableRecord
100
AcDbBlockTableRecord
  2
*D21
340
0
  0
BLOCK_RECORD
  5
37
100
AcDbSymbolTableRecord
100
AcDbBlockTableRecord
  2
*D22
340
0
  0
BLOCK_RECORD
  5
38
100
AcDbSymbolTableRecord
100
AcDbBlockTableRecord
  2
*D23
340
0
  0
BLOCK_RECORD
  5
39
100
AcDbSymbolTableRecord
100
AcDbBlockTableRecord
  2
*D24
340
0
  0
BLOCK_RECORD
  5
3A
100
AcDbSymbolTableRecord
100
AcDbBlockTableRecord
  2
*D25
340
0
  0
BLOCK_RECORD
  5
3B
100
AcDbSymbolTableRecord
100
AcDbBlockTableRecord
  2
グループ-1
340
0
102
{BLKREFS
331
21C
102
}
  0
ENDTAB
  0
ENDSEC
  0
SECTION
  2
BLOCKS
  0
BLOCK
  5
D
100
AcDbEntity
  8
0
390
0
100
AcDbBlockBegin
  2
*MODEL_SPACE
 70
               0
 10
0.0
 20
0.0
 30
0.0
  3
*MODEL_SPACE
  1

  0
ENDBLK
  5
E
100
AcDbEntity
  8
0
390
0
100
AcDbBlockEnd
  0
BLOCK
  5
F
100
AcDbEntity
 67
               1
  8
0
390
0
100
AcDbBlockBegin
  2
*PAPER_SPACE
 70
               0
 10
0.0
 20
0.0
 30
0.0
  3
*PAPER_SPACE
  1

  0
ENDBLK
  5
10
100
AcDbEntity
 67
               1
  8
0
390
0
100
AcDbBlockEnd
  0
BLOCK
  5
50
100
AcDbEntity
  8
0
390
0
100
AcDbBlockBegin
  2
_DOT
 70
               0
 10
0.0
 20
0.0
 30
0.0
  3
_DOT
  1

  0
POLYLINE
  5
51
100
AcDbEntity
  8
0
370
              -2
390
0
  6
ByBlock
 62
               0
100
AcDb2dPolyline
 66
               1
 10
0.0
 20
0.0
 30
0.0
 70
               1
 40
0.5
 41
0.5
  0
VERTEX
  5
52
100
AcDbEntity
  8
0
370
              -2
390
0
  6
ByBlock
 62
               0
100
AcDbVertex
100
AcDb2dVertex
 10
-0.25
 20
0.0
 30
0.0
 42
1.0
  0
VERTEX
  5
53
100
AcDbEntity
  8
0
370
              -2
390
0
  6
ByBlock
 62
               0
100
AcDbVertex
100
AcDb2dVertex
 10
0.25
 20
0.0
 30
0.0
 42
1.0
  0
SEQEND
  5
54
100
AcDbEntity
  8
0
390
0
  0
LINE
  5
55
100
AcDbEntity
  8
0
370
              -2
390
0
  6
ByBlock
 62
               0
100
AcDbLine
 10
-0.5
 20
0.0
 30
0.0
 11
-1.0
 21
0.0
 31
0.0
  0
ENDBLK
  5
56
100
AcDbEntity
  8
0
390
0
100
AcDbBlockEnd
  0
BLOCK
  5
59
100
AcDbEntity
  8
0
370
              -2
390
0
  6
ByBlock
 62
               0
100
AcDbBlockBegin
  2
VW_FILLEDARROW
 70
               0
 10
0.0
 20
0.0
 30
0.0
  3
VW_FILLEDARROW
  1

  0
SOLID
  5
5A
100
AcDbEntity
  8
0
370
              -2
390
0
 62
               0
100
AcDbTrace
 10
0.0
 20
0.0
 30
0.0
 11
-0.9921874999999999
 21
-0.2658558393652545
 31
0.0
 12
-0.9921874999999999
 22
0.2658558393652548
 32
0.0
 13
-0.9921874999999999
 23
0.2658558393652548
 33
0.0
  0
ENDBLK
  5
5B
100
AcDbEntity
  8
0
390
0
100
AcDbBlockEnd
  0
BLOCK
  5
5D
100
AcDbEntity
  8
template
390
0
100
AcDbBlockBegin
  2
グループ
 70
               0
 10
0.0
 20
0.0
 30
0.0
  3
グループ
  1

  0
LWPOLYLINE
  5
5E
100
AcDbEntity
  8
0
370
              15
390
0
  6
Continuous
 62
               7
100
AcDbPolyline
 90
        8
 70
             129
 10
887.42850780312665
 20
-1371.2062134020532
 10
887.42850780312665
 20
-1377.2036020956291
 10
877.92731088512335
 20
-1377.2036020956291
 10
877.92731088512335
 20
-1401.6545653591379
 10
869.57193362334056
 20
-1401.6545653591379
 10
869.57193362334056
 20
-1377.2036020956291
 10
860.23897667703113
 20
-1377.2036020956291
 10
860.23897667703113
 20
-1371.2062134020532
  0
LWPOLYLINE
  5
5F
100
AcDbEntity
  8
0
370
              15
390
0
  6
Continuous
 62
               7
100
AcDbPolyline
 90
      101
 70
             128
 10
900.15679963368359
 20
-1371.9344618949897
 10
900.1721496624715
 20
-1371.9301011383038
 42
-0.0222221607811758
 10
900.46215423913964
 20
-1371.86147667306
 10
900.47794800313488
 20
-1371.8584732499628
 42
-0.0146883565587412
 10
900.74065070835741
 20
-1371.8164700630136
 42
-0.0127458844184966
 10
901.0052896755077
 20
-1371.7889330949413
 10
901.06774475382326
 20
-1371.7840396723529
 42
-0.0198099018567297
 10
901.45859386329971
 20
-1371.7689545149565
 10
901.51040533274386
 20
-1371.7690082906215
 42
-0.0147617382763755
 10
902.00502879371936
 20
-1371.7841283158664
 10
902.07772024859821
 20
-1371.7885009227543
 42
-0.016262454900167
 10
902.46787387805762
 20
-1371.8247337980263
 10
902.58940626931565
 20
-1371.8400203570227
 42
-0.0080020874668054
 10
902.73498530040843
 20
-1371.8607032042912
 10
902.77330477097905
 20
-1371.8667744820984
 42
-0.0053821929693055
 10
902.84178887631822
 20
-1371.8783820059239
 10
902.11538317711961
 20
-1374.0593104616378
 42
0.0108667757393136
 10
902.048066106992
 20
-1374.0461233464184
 10
902.01059808379932
 20
-1374.0396256038234
 42
0.0170663203311643
 10
901.86738129688604
 20
-1374.019796006532
 10
901.79950596420076
 20
-1374.0127488359442
 42
0.022016237527708
 10
901.51912655634351
 20
-1373.9960664751741
 10
901.44127098929425
 20
-1373.9948671079076
 42
0.0282606915783014
 10
901.10563466571546
 20
-1374.0086703848765
 10
901.06172139194462
 20
-1374.0129703748801
 42
0.0169677213687684
 10
900.81579689698424
 20
-1374.0455074244323
 42
0.019057626987154
 10
900.57288893440113
 20
-1374.0956542965394
 10
900.5666297462933
 20
-1374.0971972706479
 42
0.0213685642844701
 10
900.31624526181224
 20
-1374.1703975557537
 10
900.31075536689934
 20
-1374.1722605518116
 42
0.0237595297591371
 10
900.05726048200188
 20
-1374.2719450737068
 10
900.05215840797098
 20
-1374.2742368491854
 42
0.0261857468809881
 10
899.79998763174342
 20
-1374.4037731865585
 10
899.78956144265601
 20
-1374.4098386610272
 42
0.0272553062017536
 10
899.55313166741553
 20
-1374.5652108669728
 10
899.51836865390499
 20
-1374.5908720150658
 42
0.0325996893178782
 10
899.36821331025453
 20
-1374.7176198880363
 10
899.34450388113601
 20
-1374.7404379165448
 42
0.0138050960633948
 10
899.25262072492137
 20
-1374.833887578101
 42
0.0125280103809327
 10
899.16577819208703
 20
-1374.932050904702
 10
899.14209774717949
 20
-1374.9602094028883
 42
0.0205218024730674
 10
899.01699767166713
 20
-1375.1220027171155
 10
898.99453133117868
 20
-1375.1536624469443
 42
0.0163110129586449
 10
898.83882095192519
 20
-1375.3889928820176
 10
898.83609705587639
 20
-1375.3934166439997
 42
0.0131897341896304
 10
898.68929653497185
 20
-1375.6465487363614
 10
898.68759643960402
 20
-1375.6496669754997
 42
0.0107895576060585
 10
898.54981973739564
 20
-1375.9158821851302
 10
898.54908684786824
 20
-1375.9173764177815
 42
0.0091371507219915
 10
898.42060689921607
 20
-1376.1919016155471
 10
898.39086126780944
 20
-1376.2586081227
 42
0.0135418326351134
 10
898.21914732873938
 20
-1376.6735459079648
 10
898.18554252030185
 20
-1376.7614120502544
 42
0.009283454241372
 10
898.01431346038271
 20
-1377.2353105485554
 10
897.98869633266725
 20
-1377.3105516183421
 42
0.0054261043578614
 10
897.88105818437202
 20
-1377.6383155914136
 10
897.86353219816124
 20
-1377.6937037537491
 42
0.0008225090821317
 10
897.79486214636461
 20
-1377.911972511793
 10
896.81017301443114
 20
-1380.9368638050496
 10
900.04279685450501
 20
-1380.9368638050496
 10
899.53860442465157
 20
-1382.841342103402
 10
896.28254814266825
 20
-1382.841342103402
 10
890.45339911031442
 20
-1401.6545651694069
 10
888.62830150000411
 20
-1401.6545651694069
 10
894.46297953550504
 20
-1382.841342103402
 10
892.0578631664647
 20
-1382.841342103402
 10
892.56205559631815
 20
-1380.9368638050496
 10
894.99060440726817
 20
-1380.9368638050496
 10
895.85075932545681
 20
-1378.3004508043507
 42
-0.0005863560636653
 10
895.8874940036186
 20
-1378.183624384191
 10
895.9635818373207
 20
-1377.9426320846735
 42
-0.0087522378928057
 10
896.16304998077885
 20
-1377.3473559975234
 10
896.25531425619226
 20
-1377.0872158290106
 42
-0.0077400953830706
 10
896.51324791532215
 20
-1376.3942111514657
 10
896.52901288690157
 20
-1376.3537802680783
 42
-0.0082369946330408
 10
896.77609735751298
 20
-1375.7497012018839
 42
-0.0085725238361315
 10
897.04334345351583
 20
-1375.1542751625968
 10
897.1449730545246
 20
-1374.9378540606092
 42
-0.0168109410596061
 10
897.4319174832533
 20
-1374.3766465345075
 10
897.55776087369122
 20
-1374.1496825015477
 42
-0.0007817726854654
 10
897.61204522376897
 20
-1374.0521382564789
 10
897.61217352978861
 20
-1374.0519085477383
 42
-0.003662614215521
 10
897.66706139380744
 20
-1373.955310667774
 42
-0.0080221150684862
 10
897.72418564921475
 20
-1373.8600314330201
 10
897.75488560057534
 20
-1373.8106404838991
 42
-0.020213932557604
 10
897.88254134038107
 20
-1373.6226588832189
 10
897.93660880556968
 20
-1373.5495800189767
 42
-0.0249323791796307
 10
898.19577159929122
 20
-1373.2335347768196
 10
898.21991141341584
 20
-1373.2069205039097
 42
-0.0242132121539197
 10
898.55959215495625
 20
-1372.8670370177072
 10
898.60750372770792
 20
-1372.8235278815202
 42
-0.0251017527861639
 10
898.89148542834914
 20
-1372.5905351357551
 10
898.89293090515901
 20
-1372.589465878179
 42
-0.0130868069040741
 10
899.19119155512021
 20
-1372.3806854096335
 10
899.19275337426313
 20
-1372.3796519693583
 42
-0.0290329526389811
 10
899.50386451565623
 20
-1372.1988264677293
 10
899.53371007764895
 20
-1372.1837240848863
 42
-0.0160250190042843
 10
899.79961449140706
 20
-1372.0597079746763
 42
-0.0267600374782569
 10
900.07489056887539
 20
-1371.958959654128
 10
900.10162648839662
 20
-1371.9507670953021
 42
-0.0049981587669998
 10
900.15679963368359
 20
-1371.9344618949897
 42
-0.0049981587669998
  0
LWPOLYLINE
  5
60
100
AcDbEntity
  8
0
370
              15
390
0
  6
Continuous
 62
               7
100
AcDbPolyline
 90
      118
 70
             128
 10
919.9711671981305
 20
-1381.010847132877
 10
921.84628912262997
 20
-1381.010847132877
 10
921.00825021703008
 20
-1383.692413659277
 42
-0.0010587229265493
 10
921.0397060326145
 20
-1383.6555091259072
 10
921.09790012323401
 20
-1383.5875268697459
 42
-0.0071874740410313
 10
921.24827534132987
 20
-1383.4168861777193
 10
921.38999811459428
 20
-1383.2606500364036
 42
-0.0148118053512222
 10
921.84012740730111
 20
-1382.7930361903964
 10
921.92734974220389
 20
-1382.7076388695418
 42
-0.0086273358693168
 10
922.26289854321726
 20
-1382.3902632355207
 10
922.30673225945191
 20
-1382.3502135911797
 42
-0.0103138323109379
 10
922.56475596167661
 20
-1382.1240504538493
 10
922.61053036800183
 20
-1382.0855684065907
 42
-0.0060206748565276
 10
922.78337843211591
 20
-1381.9437737558346
 10
922.7854095630031
 20
-1381.9421480502024
 42
-0.006706902728517
 10
922.95770237766442
 20
-1381.8079974164084
 10
922.96025114358486
 20
-1381.8060672465374
 42
-0.0076184352049033
 10
923.13115640946171
 20
-1381.6806923712893
 42
-0.0089652861674707
 10
923.30611737219226
 20
-1381.5610591109596
 10
923.34246909234503
 20
-1381.5371478974714
 42
-0.0156916245934482
 10
923.53842858950134
 20
-1381.4168854109994
 42
-0.0023299011056321
 10
923.7386906334857
 20
-1381.3037074714559
 10
923.75407476586099
 20
-1381.2951074763939
 42
-0.0107669341486851
 10
923.98831159096403
 20
-1381.1707073430434
 10
924.01057639203714
 20
-1381.1594905930945
 42
-0.0078058045901278
 10
924.29416650997962
 20
-1381.0221291374608
 10
924.30407359769902
 20
-1381.0175200095875
 42
-0.0181829330471716
 10
924.61438300231282
 20
-1380.8866562684925
 10
924.66843844488324
 20
-1380.8661411485477
 42
-0.020841153602756
 10
925.01752341233168
 20
-1380.7500506860551
 10
925.0318795124565
 20
-1380.7459322411025
 42
-0.0222799817137567
 10
925.36059930637634
 20
-1380.6672906749614
 10
925.36948826961725
 20
-1380.6655786643755
 42
-0.0215509523880597
 10
925.68595923789326
 20
-1380.6186629758422
 10
925.72844119894489
 20
-1380.614225449051
 42
-0.0182545924871017
 10
925.96254997824735
 20
-1380.5983816236603
 10
926.00195099460302
 20
-1380.5971570785809
 42
-0.007296285653187
 10
926.15787387428441
 20
-1380.594587750059
 10
926.18697354484175
 20
-1380.5945329146552
 42
-0.0059227516316929
 10
926.28472304400134
 20
-1380.5955066264455
 10
926.3139652614517
 20
-1380.5961443930485
 42
-0.0011833111915693
 10
926.35321654520567
 20
-1380.597093397359
 10
925.5578299495985
 20
-1383.135827342458
 42
0.0143932051543839
 10
925.53142856724594
 20
-1383.1256283724119
 10
925.52415659483063
 20
-1383.1230571535552
 42
0.0234388603515921
 10
925.48232572889481
 20
-1383.1104379178391
 10
925.47364406598581
 20
-1383.108256955835
 42
0.0199162742966371
 10
925.41335523190992
 20
-1383.0956402205006
 10
925.3925412940996
 20
-1383.0921430210715
 42
0.0293643550672346
 10
925.28946643533891
 20
-1383.0809929754182
 10
925.26478125462017
 20
-1383.0797813583997
 42
0.0214606686870698
 10
925.11164033866578
 20
-1383.0788427979824
 10
925.10226842784971
 20
-1383.0791877095266
 42
0.0167564054189307
 10
924.93074823673976
 20
-1383.0912647518949
 10
924.92228844398232
 20
-1383.0921460923219
 42
0.0137677553246934
 10
924.7349351307198
 20
-1383.1168954008649
 10
924.72758339120969
 20
-1383.1180733208332
 42
0.0118497261477485
 10
924.52708562711473
 20
-1383.1550906710208
 10
924.52093561986112
 20
-1383.1563775337424
 42
0.0106421143893156
 10
924.31005473256459
 20
-1383.20520990932
 10
924.30514592418706
 20
-1383.2064572520023
 42
0.0099746379703677
 10
924.08668745502462
 20
-1383.2666317803171
 10
924.02513941485427
 20
-1383.2849136589477
 42
0.0191613675862746
 10
923.68915495233728
 20
-1383.3988910392354
 10
923.60109517959484
 20
-1383.4325779495584
 42
0.0205274080145641
 10
923.21578840769257
 20
-1383.5984063573853
 10
923.15813912571161
 20
-1383.626074321957
 42
0.018125691218926
 10
922.89986218504362
 20
-1383.7617581409354
 10
922.84690680172889
 20
-1383.7920757541506
 42
0.0140709242408114
 10
922.70195186710134
 20
-1383.8805704275846
 10
922.67570299848865
 20
-1383.8976272462962
 42
0.0086667884395146
 10
922.58677683694032
 20
-1383.9576299141829
 42
0.0036408192023609
 10
922.49934359891108
 20
-1384.0198107719723
 10
922.46411672443833
 20
-1384.045251717888
 42
0.0052260781277779
 10
922.30788802704637
 20
-1384.1605841045227
 10
922.29168117078757
 20
-1384.1728122151403
 42
0.0050024435890312
 10
922.1056778277366
 20
-1384.3160947833965
 10
922.0903596712136
 20
-1384.3281408058483
 42
0.0136138710279469
 10
921.87991840288214
 20
-1384.5031073107671
 10
921.84625052709475
 20
-1384.5326862834759
 42
0.0172815186913556
 10
921.58184698542743
 20
-1384.7816829561041
 10
921.57928463958956
 20
-1384.7842687732464
 42
0.0189403857991969
 10
921.32870284100932
 20
-1385.0570740380522
 10
921.29607134747425
 20
-1385.0954179695482
 42
0.0185044199506319
 10
921.10411490849447
 20
-1385.338666550671
 42
0.0088565243902948
 10
920.92565480186465
 20
-1385.5921829708229
 10
920.91647682221753
 20
-1385.6057243505809
 42
0.0157195347230286
 10
920.73325621588106
 20
-1385.8952465599007
 10
920.68717327395098
 20
-1385.97339875692
 42
0.0095451879781837
 10
920.52208772381493
 20
-1386.2659933992741
 10
920.51093980488281
 20
-1386.2866640714105
 42
0.0100351706258606
 10
920.37889605572605
 20
-1386.5437196318967
 42
0.0086935915426227
 10
920.25656490393146
 20
-1386.8055527773024
 10
920.25324416251749
 20
-1386.8129951002729
 42
0.0072580174864594
 10
920.13289771057464
 20
-1387.0935870918508
 10
920.12963607726624
 20
-1387.101507117874
 42
0.0060005122611384
 10
920.01043540892545
 20
-1387.4011167884739
 10
920.00722443058191
 20
-1387.4094783163837
 42
0.0049017786977143
 10
919.88832427172463
 20
-1387.7284072969878
 10
919.88515846533403
 20
-1387.7371602342187
 42
0.0039415167604501
 10
919.7657221872762
 20
-1388.0757022966354
 10
919.76259108462523
 20
-1388.0848054975079
 42
0.0031035838758726
 10
919.64178629893775
 20
-1388.4432453592642
 10
919.63867625440173
 20
-1388.4526659806561
 42
0.0025070747151795
 10
919.51577490309262
 20
-1388.8313131975806
 10
919.47848100666101
 20
-1388.9482048628531
 42
0.0029081910286314
 10
919.28646270883951
 20
-1389.5623685211795
 10
919.24565954033312
 20
-1389.6955917634207
 42
0.0009266453734287
 10
918.97724216602637
 20
-1390.577816223318
 10
918.95635469338856
 20
-1390.6469281025443
 42
-0.0005809993666785
 10
918.67901801278663
 20
-1391.5607362092192
 10
918.61273621451301
 20
-1391.7782211413808
 42
-0.0012018708166473
 10
918.46575190508452
 20
-1392.2563838058995
 10
918.4134320535519
 20
-1392.4251429466592
 42
-0.0002691059613097
 10
918.36986257235037
 20
-1392.5654105671072
 10
915.53690667406113
 20
-1401.6545651694069
 10
913.7189177820826
 20
-1401.6545651694069
 10
919.9711671981305
 20
-1381.010847132877
  0
SPLINE
  5
61
100
AcDbEntity
  8
0
370
              15
390
0
  6
Continuous
 62
               7
100
AcDbSpline
210
0.0
220
0.0
230
1.0
 70
              13
 71
               2
 72
             782
 73
             779
 74
               0
 42
0.000001
 43
0.000001
 40
0.0
 40
0.0
 40
0.0
 40
1.0
 40
1.0
 40
2.0
 40
2.0
 40
3.0
 40
3.0
 40
4.0
 40
4.0
 40
5.0
 40
5.0
 40
6.0
 40
6.0
 40
7.0
 40
7.0
 40
8.0
 40
8.0
 40
9.0
 40
9.0
 40
10.0
 40
10.0
 40
11.0
 40
11.0
 40
12.0
 40
12.0
 40
13.0
 40
13.0
 40
14.0
 40
14.0
 40
15.0
 40
15.0
 40
16.0
 40
16.0
 40
17.0
 40
17.0
 40
18.0
 40
18.0
 40
19.0
 40
19.0
 40
20.0
 40
20.0
 40
21.0
 40
21.0
 40
22.0
 40
22.0
 40
23.0
 40
23.0
 40
24.0
 40
24.0
 40
25.0
 40
25.0
 40
26.0
 40
26.0
 40
27.0
 40
27.0
 40
28.0
 40
28.0
 40
29.0
 40
29.0
 40
30.0
 40
30.0
 40
31.0
 40
31.0
 40
32.0
 40
32.0
 40
33.0
 40
33.0
 40
34.0
 40
34.0
 40
35.0
 40
35.0
 40
36.0
 40
36.0
 40
37.0
 40
37.0
 40
38.0
 40
38.0
 40
39.0
 40
39.0
 40
40.0
 40
40.0
 40
41.0
 40
41.0
 40
42.0
 40
42.0
 40
43.0
 40
43.0
 40
44.0
 40
44.0
 40
45.0
 40
45.0
 40
46.0
 40
46.0
 40
47.0
 40
47.0
 40
48.0
 40
48.0
 40
49.0
 40
49.0
 40
50.0
 40
50.0
 40
51.0
 40
51.0
 40
52.0
 40
52.0
 40
53.0
 40
53.0
 40
54.0
 40
54.0
 40
55.0
 40
55.0
 40
56.0
 40
56.0
 40
57.0
 40
57.0
 40
58.0
 40
58.0
 40
59.0
 40
59.0
 40
60.0
 40
60.0
 40
61.0
 40
61.0
 40
62.0
 40
62.0
 40
63.0
 40
63.0
 40
64.0
 40
64.0
 40
65.0
 40
65.0
 40
66.0
 40
66.0
 40
67.0
 40
67.0
 40
68.0
 40
68.0
 40
69.0
 40
69.0
 40
70.0
 40
70.0
 40
71.0
 40
71.0
 40
72.0
 40
72.0
 40
73.0
 40
73.0
 40
74.0
 40
74.0
 40
75.0
 40
75.0
 40
76.0
 40
76.0
 40
77.0
 40
77.0
 40
78.0
 40
78.0
 40
79.0
 40
79.0
 40
80.0
 40
80.0
 40
81.0
 40
81.0
 40
82.0
 40
82.0
 40
83.0
 40
83.0
 40
84.0
 40
84.0
 40
85.0
 40
85.0
 40
86.0
 40
86.0
 40
87.0
 40
87.0
 40
88.0
 40
88.0
 40
89.0
 40
89.0
 40
90.0
 40
90.0
 40
91.0
 40
91.0
 40
92.0
 40
92.0
 40
93.0
 40
93.0
 40
94.0
 40
94.0
 40
95.0
 40
95.0
 40
96.0
 40
96.0
 40
97.0
 40
97.0
 40
98.0
 40
98.0
 40
99.0
 40
99.0
 40
100.0
 40
100.0
 40
101.0
 40
101.0
 40
102.0
 40
102.0
 40
103.0
 40
103.0
 40
104.0
 40
104.0
 40
105.0
 40
105.0
 40
106.0
 40
106.0
 40
107.0
 40
107.0
 40
108.0
 40
108.0
 40
109.0
 40
109.0
 40
110.0
 40
110.0
 40
111.0
 40
111.0
 40
112.0
 40
112.0
 40
113.0
 40
113.0
 40
114.0
 40
114.0
 40
115.0
 40
115.0
 40
116.0
 40
116.0
 40
117.0
 40
117.0
 40
118.0
 40
118.0
 40
119.0
 40
119.0
 40
120.0
 40
120.0
 40
121.0
 40
121.0
 40
122.0
 40
122.0
 40
123.0
 40
123.0
 40
124.0
 40
124.0
 40
125.0
 40
125.0
 40
126.0
 40
126.0
 40
127.0
 40
127.0
 40
128.0
 40
128.0
 40
129.0
 40
129.0
 40
130.0
 40
130.0
 40
131.0
 40
131.0
 40
132.0
 40
132.0
 40
133.0
 40
133.0
 40
134.0
 40
134.0
 40
135.0
 40
135.0
 40
136.0
 40
136.0
 40
137.0
 40
137.0
 40
138.0
 40
138.0
 40
139.0
 40
139.0
 40
140.0
 40
140.0
 40
141.0
 40
141.0
 40
142.0
 40
142.0
 40
143.0
 40
143.0
 40
144.0
 40
144.0
 40
145.0
 40
145.0
 40
146.0
 40
146.0
 40
147.0
 40
147.0
 40
148.0
 40
148.0
 40
149.0
 40
149.0
 40
150.0
 40
150.0
 40
151.0
 40
151.0
 40
152.0
 40
152.0
 40
153.0
 40
153.0
 40
154.0
 40
154.0
 40
155.0
 40
155.0
 40
156.0
 40
156.0
 40
157.0
 40
157.0
 40
158.0
 40
158.0
 40
159.0
 40
159.0
 40
160.0
 40
160.0
 40
161.0
 40
161.0
 40
162.0
 40
162.0
 40
163.0
 40
163.0
 40
164.0
 40
164.0
 40
165.0
 40
165.0
 40
166.0
 40
166.0
 40
167.0
 40
167.0
 40
168.0
 40
168.0
 40
169.0
 40
169.0
 40
170.0
 40
170.0
 40
171.0
 40
171.0
 40
172.0
 40
172.0
 40
173.0
 40
173.0
 40
174.0
 40
174.0
 40
175.0
 40
175.0
 40
176.0
 40
176.0
 40
177.0
 40
177.0
 40
178.0
 40
178.0
 40
179.0
 40
179.0
 40
180.0
 40
180.0
 40
181.0
 40
181.0
 40
182.0
 40
182.0
 40
183.0
 40
183.0
 40
184.0
 40
184.0
 40
185.0
 40
185.0
 40
186.0
 40
186.0
 40
187.0
 40
187.0
 40
188.0
 40
188.0
 40
189.0
 40
189.0
 40
190.0
 40
190.0
 40
191.0
 40
191.0
 40
192.0
 40
192.0
 40
193.0
 40
193.0
 40
194.0
 40
194.0
 40
195.0
 40
195.0
 40
196.0
 40
196.0
 40
197.0
 40
197.0
 40
198.0
 40
198.0
 40
199.0
 40
199.0
 40
200.0
 40
200.0
 40
201.0
 40
201.0
 40
202.0
 40
202.0
 40
203.0
 40
203.0
 40
204.0
 40
204.0
 40
205.0
 40
205.0
 40
206.0
 40
206.0
 40
207.0
 40
207.0
 40
208.0
 40
208.0
 40
209.0
 40
209.0
 40
210.0
 40
210.0
 40
211.0
 40
211.0
 40
212.0
 40
212.0
 40
213.0
 40
213.0
 40
214.0
 40
214.0
 40
215.0
 40
215.0
 40
216.0
 40
216.0
 40
217.0
 40
217.0
 40
218.0
 40
218.0
 40
219.0
 40
219.0
 40
220.0
 40
220.0
 40
221.0
 40
221.0
 40
222.0
 40
222.0
 40
223.0
 40
223.0
 40
224.0
 40
224.0
 40
225.0
 40
225.0
 40
226.0
 40
226.0
 40
227.0
 40
227.0
 40
228.0
 40
228.0
 40
229.0
 40
229.0
 40
230.0
 40
230.0
 40
231.0
 40
231.0
 40
232.0
 40
232.0
 40
233.0
 40
233.0
 40
234.0
 40
234.0
 40
235.0
 40
235.0
 40
236.0
 40
236.0
 40
237.0
 40
237.0
 40
238.0
 40
238.0
 40
239.0
 40
239.0
 40
240.0
 40
240.0
 40
241.0
 40
241.0
 40
242.0
 40
242.0
 40
243.0
 40
243.0
 40
244.0
 40
244.0
 40
245.0
 40
245.0
 40
246.0
 40
246.0
 40
247.0
 40
247.0
 40
248.0
 40
248.0
 40
249.0
 40
249.0
 40
250.0
 40
250.0
 40
251.0
 40
251.0
 40
252.0
 40
252.0
 40
253.0
 40
253.0
 40
254.0
 40
254.0
 40
255.0
 40
255.0
 40
256.0
 40
256.0
 40
257.0
 40
257.0
 40
258.0
 40
258.0
 40
259.0
 40
259.0
 40
260.0
 40
260.0
 40
261.0
 40
261.0
 40
262.0
 40
262.0
 40
263.0
 40
263.0
 40
264.0
 40
264.0
 40
265.0
 40
265.0
 40
266.0
 40
266.0
 40
267.0
 40
267.0
 40
268.0
 40
268.0
 40
269.0
 40
269.0
 40
270.0
 40
270.0
 40
271.0
 40
271.0
 40
272.0
 40
272.0
 40
273.0
 40
273.0
 40
274.0
 40
274.0
 40
275.0
 40
275.0
 40
276.0
 40
276.0
 40
277.0
 40
277.0
 40
278.0
 40
278.0
 40
279.0
 40
279.0
 40
280.0
 40
280.0
 40
281.0
 40
281.0
 40
282.0
 40
282.0
 40
283.0
 40
283.0
 40
284.0
 40
284.0
 40
285.0
 40
285.0
 40
286.0
 40
286.0
 40
287.0
 40
287.0
 40
288.0
 40
288.0
 40
289.0
 40
289.0
 40
290.0
 40
290.0
 40
291.0
 40
291.0
 40
292.0
 40
292.0
 40
293.0
 40
293.0
 40
294.0
 40
294.0
 40
295.0
 40
295.0
 40
296.0
 40
296.0
 40
297.0
 40
297.0
 40
298.0
 40
298.0
 40
299.0
 40
299.0
 40
300.0
 40
300.0
 40
301.0
 40
301.0
 40
302.0
 40
302.0
 40
303.0
 40
303.0
 40
304.0
 40
304.0
 40
305.0
 40
305.0
 40
306.0
 40
306.0
 40
307.0
 40
307.0
 40
308.0
 40
308.0
 40
309.0
 40
309.0
 40
310.0
 40
310.0
 40
311.0
 40
311.0
 40
312.0
 40
312.0
 40
313.0
 40
313.0
 40
314.0
 40
314.0
 40
315.0
 40
315.0
 40
316.0
 40
316.0
 40
317.0
 40
317.0
 40
318.0
 40
318.0
 40
319.0
 40
319.0
 40
320.0
 40
320.0
 40
321.0
 40
321.0
 40
322.0
 40
322.0
 40
323.0
 40
323.0
 40
324.0
 40
324.0
 40
325.0
 40
325.0
 40
326.0
 40
326.0
 40
327.0
 40
327.0
 40
328.0
 40
328.0
 40
329.0
 40
329.0
 40
330.0
 40
330.0
 40
331.0
 40
331.0
 40
332.0
 40
332.0
 40
333.0
 40
333.0
 40
334.0
 40
334.0
 40
335.0
 40
335.0
 40
336.0
 40
336.0
 40
337.0
 40
337.0
 40
338.0
 40
338.0
 40
339.0
 40
339.0
 40
340.0
 40
340.0
 40
341.0
 40
341.0
 40
342.0
 40
342.0
 40
343.0
 40
343.0
 40
344.0
 40
344.0
 40
345.0
 40
345.0
 40
346.0
 40
346.0
 40
347.0
 40
347.0
 40
348.0
 40
348.0
 40
349.0
 40
349.0
 40
350.0
 40
350.0
 40
351.0
 40
351.0
 40
352.0
 40
352.0
 40
353.0
 40
353.0
 40
354.0
 40
354.0
 40
355.0
 40
355.0
 40
356.0
 40
356.0
 40
357.0
 40
357.0
 40
358.0
 40
358.0
 40
359.0
 40
359.0
 40
360.0
 40
360.0
 40
361.0
 40
361.0
 40
362.0
 40
362.0
 40
363.0
 40
363.0
 40
364.0
 40
364.0
 40
365.0
 40
365.0
 40
366.0
 40
366.0
 40
367.0
 40
367.0
 40
368.0
 40
368.0
 40
369.0
 40
369.0
 40
370.0
 40
370.0
 40
371.0
 40
371.0
 40
372.0
 40
372.0
 40
373.0
 40
373.0
 40
374.0
 40
374.0
 40
375.0
 40
375.0
 40
376.0
 40
376.0
 40
377.0
 40
377.0
 40
378.0
 40
378.0
 40
379.0
 40
379.0
 40
380.0
 40
380.0
 40
381.0
 40
381.0
 40
382.0
 40
382.0
 40
383.0
 40
383.0
 40
384.0
 40
384.0
 40
385.0
 40
385.0
 40
386.0
 40
386.0
 40
387.0
 40
387.0
 40
388.0
 40
388.0
 40
389.0
 40
389.0
 40
389.0
 10
930.29987164886313
 20
-1380.9999207695146
 30
0.0
 41
1.0
 10
931.11829575758361
 20
-1380.9999207695146
 30
0.0
 41
1.0
 10
931.93671986630409
 20
-1380.9999207695146
 30
0.0
 41
1.0
 10
931.52296613078738
 20
-1382.3425470337643
 30
0.0
 41
1.0
 10
931.10921239527056
 20
-1383.685173298014
 30
0.0
 41
1.0
 10
931.12755189044969
 20
-1383.6564725250855
 30
0.0
 41
0.9999957264431967
 10
931.14605888727476
 20
-1383.6278794749433
 30
0.0
 41
1.0
 10
931.17648821140938
 20
-1383.5808665965717
 30
0.0
 41
1.0
 10
931.20691753554388
 20
-1383.5338537182001
 30
0.0
 41
1.0
 10
931.28628318064921
 20
-1383.4112349112977
 30
0.0
 41
0.9995394069080589
 10
931.37294157220094
 20
-1383.2936568495563
 30
0.0
 41
1.0
 10
931.40869843446103
 20
-1383.2451419569622
 30
0.0
 41
1.0
 10
931.44445529672123
 20
-1383.1966270643682
 30
0.0
 41
1.0
 10
931.57818196453854
 20
-1383.0151867892425
 30
0.0
 41
0.9994460617143334
 10
931.72368244582754
 20
-1382.8430443915918
 30
0.0
 41
1.0
 10
931.7280706268009
 20
-1382.8378527112113
 30
0.0
 41
1.0
 10
931.73245880777415
 20
-1382.8326610308306
 30
0.0
 41
1.0
 10
931.86918292711448
 20
-1382.6709019939431
 30
0.0
 41
0.9994359394934154
 10
932.0164571574669
 20
-1382.5186857927774
 30
0.0
 41
1.0
 10
932.01884051141997
 20
-1382.5162224624046
 30
0.0
 41
1.0
 10
932.02122386537314
 20
-1382.5137591320315
 30
0.0
 41
1.0
 10
932.16373138781671
 20
-1382.3664695916143
 30
0.0
 41
0.9995293688567667
 10
932.31500306880048
 20
-1382.2281963794485
 30
0.0
 41
1.0
 10
932.33429682806582
 20
-1382.2105604937956
 30
0.0
 41
1.0
 10
932.35359058733115
 20
-1382.1929246081424
 30
0.0
 41
1.0
 10
932.46627474978573
 20
-1382.089923167282
 30
0.0
 41
0.9997087614803228
 10
932.58379763873768
 20
-1381.9924788864867
 30
0.0
 41
1.0
 10
932.60296371191691
 20
-1381.9765873079755
 30
0.0
 41
1.0
 10
932.62212978509615
 20
-1381.9606957294645
 30
0.0
 41
1.0
 10
932.70132052769657
 20
-1381.8950346056856
 30
0.0
 41
0.9999595338697601
 10
932.78167979854788
 20
-1381.8308088750337
 30
0.0
 41
1.0
 10
932.86203906939636
 20
-1381.766583144384
 30
0.0
 41
0.9999749417504933
 10
932.94329960373489
 20
-1381.7035015904416
 30
0.0
 41
1.0
 10
932.96428574991921
 20
-1381.6872103031228
 30
0.0
 41
1.0
 10
932.98527189610354
 20
-1381.6709190158042
 30
0.0
 41
1.0
 10
933.0698397813901
 20
-1381.6052700059754
 30
0.0
 41
0.9999792037127515
 10
933.15524738114891
 20
-1381.5407172243399
 30
0.0
 41
1.0
 10
933.17607220694697
 20
-1381.5249774021681
 30
0.0
 41
1.0
 10
933.19689703274503
 20
-1381.5092375799961
 30
0.0
 41
1.0
 10
933.24065498079972
 20
-1381.4761644427858
 30
0.0
 41
0.9999993373855295
 10
933.28433666706155
 20
-1381.4429906472722
 30
0.0
 41
1.0
 10
933.3280183531989
 20
-1381.4098168518524
 30
0.0
 41
0.9999160953817022
 10
933.37254476411294
 20
-1381.3777857866583
 30
0.0
 41
1.0
 10
933.40536665153809
 20
-1381.3541746310693
 30
0.0
 41
1.0
 10
933.43818853896335
 20
-1381.3305634754802
 30
0.0
 41
1.0
 10
933.5483587247212
 20
-1381.2513100991125
 30
0.0
 41
0.9980964527231276
 10
933.6674477182213
 20
-1381.1862226262569
 30
0.0
 41
1.0
 10
933.70448032514946
 20
-1381.1659826466637
 30
0.0
 41
1.0
 10
933.74151293207774
 20
-1381.1457426670704
 30
0.0
 41
1.0
 10
933.9208399453513
 20
-1381.0477324163689
 30
0.0
 41
0.9984572810572521
 10
934.10992851171068
 20
-1380.9702101550224
 30
0.0
 41
1.0
 10
934.11357478110676
 20
-1380.9687152626843
 30
0.0
 41
1.0
 10
934.11722105050296
 20
-1380.9672203703462
 30
0.0
 41
1.0
 10
934.29901707807016
 20
-1380.8926878936757
 30
0.0
 41
0.9987838528034134
 10
934.48726973662883
 20
-1380.8364222535101
 30
0.0
 41
1.0
 10
934.49150768582604
 20
-1380.8351555998204
 30
0.0
 41
1.0
 10
934.49574563502335
 20
-1380.8338889461306
 30
0.0
 41
1.0
 10
934.67552239518625
 20
-1380.7801566133448
 30
0.0
 41
0.9990652816206977
 10
934.85926832690393
 20
-1380.7421529338023
 30
0.0
 41
1.0
 10
934.86445672793479
 20
-1380.741079830696
 30
0.0
 41
1.0
 10
934.86964512896554
 20
-1380.7400067275896
 30
0.0
 41
1.0
 10
935.04301425861922
 20
-1380.7041492542603
 30
0.0
 41
0.9992909934269724
 10
935.21859002507813
 20
-1380.6814388217938
 30
0.0
 41
1.0
 10
935.39416579153749
 20
-1380.6587283893273
 30
0.0
 41
0.9994553539448469
 10
935.57085722463182
 20
-1380.647649085121
 30
0.0
 41
1.0
 10
935.6062916324255
 20
-1380.6454271970733
 30
0.0
 41
1.0
 10
935.64172604021917
 20
-1380.6432053090255
 30
0.0
 41
1.0
 10
935.80795180678956
 20
-1380.6327822466137
 30
0.0
 41
0.9990928098293052
 10
935.97446159869287
 20
-1380.6365418878481
 30
0.0
 41
1.0
 10
936.0130234339631
 20
-1380.6374125793811
 30
0.0
 41
1.0
 10
936.05158526923333
 20
-1380.6382832709141
 30
0.0
 41
1.0
 10
936.14097139059402
 20
-1380.6403015290828
 30
0.0
 41
0.9998382089204273
 10
936.23022707338168
 20
-1380.645533655611
 30
0.0
 41
1.0
 10
936.23065697960078
 20
-1380.6455588565132
 30
0.0
 41
1.0
 10
936.23108688581988
 20
-1380.6455840574154
 30
0.0
 41
1.0
 10
936.31948275616696
 20
-1380.6507657821389
 30
0.0
 41
0.9997558016758421
 10
936.40756333336867
 20
-1380.6598482975055
 30
0.0
 41
1.0
 10
936.40803947179643
 20
-1380.6598973949879
 30
0.0
 41
1.0
 10
936.40851561022419
 20
-1380.6599464924702
 30
0.0
 41
1.0
 10
936.49564391056754
 20
-1380.6689308128716
 30
0.0
 41
0.9996565144181348
 10
936.58218176391165
 20
-1380.6824681195608
 30
0.0
 41
1.0
 10
936.58264768928962
 20
-1380.682541005292
 30
0.0
 41
1.0
 10
936.58311361466747
 20
-1380.6826138910235
 30
0.0
 41
1.0
 10
936.66871961725394
 20
-1380.6960054262499
 30
0.0
 41
0.9995321806867445
 10
936.75334669758161
 20
-1380.7146059146792
 30
0.0
 41
1.0
 10
936.75373589215258
 20
-1380.7146914571449
 30
0.0
 41
1.0
 10
936.75412508672355
 20
-1380.7147769996104
 30
0.0
 41
1.0
 10
936.83797377790904
 20
-1380.7332064031084
 30
0.0
 41
0.9993819199219661
 10
936.92032031210579
 20
-1380.7574817863692
 30
0.0
 41
1.0
 10
936.92055874560424
 20
-1380.7575520754785
 30
0.0
 41
1.0
 10
936.92079717910269
 20
-1380.7576223645881
 30
0.0
 41
1.0
 10
937.00266684630287
 20
-1380.7817571696301
 30
0.0
 41
0.9992088568505234
 10
937.08235936529024
 20
-1380.8123224054243
 30
0.0
 41
1.0
 10
937.16204035616931
 20
-1380.8428820061574
 30
0.0
 41
0.9990226101773151
 10
937.23871102607643
 20
-1380.8803594377719
 30
0.0
 41
1.0
 10
937.31537016787445
 20
-1380.9178312343254
 30
0.0
 41
0.9988424273972467
 10
937.38807379508762
 20
-1380.9624960095789
 30
0.0
 41
1.0
 10
937.38834150346656
 20
-1380.9626604736509
 30
0.0
 41
1.0
 10
937.38860921184551
 20
-1380.9628249377229
 30
0.0
 41
1.0
 10
937.46184825581724
 20
-1381.0078186411206
 30
0.0
 41
0.998692884449023
 10
937.53011112252636
 20
-1381.0600543754001
 30
0.0
 41
1.0
 10
937.53069241474896
 20
-1381.060499188628
 30
0.0
 41
1.0
 10
937.53127370697166
 20
-1381.0609440018557
 30
0.0
 41
1.0
 10
937.60069915812699
 20
-1381.114069362591
 30
0.0
 41
0.9986007262278003
 10
937.66412532789354
 20
-1381.1742301322845
 30
0.0
 41
1.0
 10
937.66501974335085
 20
-1381.1750785001195
 30
0.0
 41
1.0
 10
937.66591415880816
 20
-1381.1759268679548
 30
0.0
 41
1.0
 10
937.73112915948923
 20
-1381.2377843733184
 30
0.0
 41
0.9985581491381371
 10
937.78933677119107
 20
-1381.3062768635903
 30
0.0
 41
1.0
 10
937.79859522478682
 20
-1381.317171221292
 30
0.0
 41
1.0
 10
937.80785367838257
 20
-1381.3280655789936
 30
0.0
 41
1.0
 10
937.88457819727557
 20
-1381.4183467846681
 30
0.0
 41
0.9970460233519979
 10
937.9465700984349
 20
-1381.5193138688494
 30
0.0
 41
1.0
 10
937.96103946351491
 20
-1381.5428803279315
 30
0.0
 41
1.0
 10
937.9755088285948
 20
-1381.5664467870133
 30
0.0
 41
1.0
 10
938.01524552860724
 20
-1381.6311665110456
 30
0.0
 41
0.9988468816637055
 10
938.04859189935814
 20
-1381.699398963472
 30
0.0
 41
1.0
 10
938.05562792185003
 20
-1381.7137958846101
 30
0.0
 41
1.0
 10
938.06266394434192
 20
-1381.7281928057484
 30
0.0
 41
1.0
 10
938.08193827010984
 20
-1381.7676314159
 30
0.0
 41
0.9998431190000265
 10
938.0998035976047
 20
-1381.8077279703405
 30
0.0
 41
1.0
 10
938.11766892510582
 20
-1381.8478245247957
 30
0.0
 41
0.9999989989911036
 10
938.13564764850992
 20
-1381.8878703623391
 30
0.0
 41
1.0
 10
938.14181996011007
 20
-1381.9016185791647
 30
0.0
 41
1.0
 10
938.14799227171011
 20
-1381.9153667959904
 30
0.0
 41
1.0
 10
938.17831561832008
 20
-1381.9829090671979
 30
0.0
 41
0.9998790356321112
 10
938.2065234984575
 20
-1382.0513618191339
 30
0.0
 41
1.0
 10
938.21335867974324
 20
-1382.067948920565
 30
0.0
 41
1.0
 10
938.22019386102897
 20
-1382.084536021996
 30
0.0
 41
1.0
 10
938.24375152340838
 20
-1382.1417039768789
 30
0.0
 41
0.9998227574560406
 10
938.26514027179678
 20
-1382.1997182851542
 30
0.0
 41
1.0
 10
938.28652902018541
 20
-1382.2577325934296
 30
0.0
 41
0.9996797971041445
 10
938.3049553051452
 20
-1382.3167547125497
 30
0.0
 41
1.0
 10
938.30885910787083
 20
-1382.3292591707186
 30
0.0
 41
1.0
 10
938.31276291059635
 20
-1382.3417636288877
 30
0.0
 41
1.0
 10
938.3389968010066
 20
-1382.4257946643431
 30
0.0
 41
0.9979274938733881
 10
938.35422132448571
 20
-1382.5124990230033
 30
0.0
 41
1.0
 10
938.35644501174681
 20
-1382.525163023824
 30
0.0
 41
1.0
 10
938.35866869900792
 20
-1382.5378270246445
 30
0.0
 41
1.0
 10
938.36959863870641
 20
-1382.6000735319358
 30
0.0
 41
0.999498598213718
 10
938.37656680388341
 20
-1382.6628870330787
 30
0.0
 41
1.0
 10
938.38353496906052
 20
-1382.7257005342217
 30
0.0
 41
0.9996372611201058
 10
938.38711083482826
 20
-1382.7887981129056
 30
0.0
 41
1.0
 10
938.38727941231753
 20
-1382.7917727299864
 30
0.0
 41
1.0
 10
938.38744798980679
 20
-1382.7947473470672
 30
0.0
 41
1.0
 10
938.39136101055317
 20
-1382.8637941599129
 30
0.0
 41
0.9997730630736171
 10
938.39232932404127
 20
-1382.9329449839513
 30
0.0
 41
1.0
 10
938.39238643045928
 20
-1382.9370231630912
 30
0.0
 41
1.0
 10
938.39244353687741
 20
-1382.9411013422311
 30
0.0
 41
1.0
 10
938.39352606320176
 20
-1383.018408524553
 30
0.0
 41
0.9998772614069208
 10
938.3921859764697
 20
-1383.0957116711281
 30
0.0
 41
1.0
 10
938.39209671327103
 20
-1383.1008608349557
 30
0.0
 41
1.0
 10
938.39200745007247
 20
-1383.1060099987833
 30
0.0
 41
1.0
 10
938.39048883694295
 20
-1383.1936114730306
 30
0.0
 41
0.999941556732544
 10
938.38707652669632
 20
-1383.2811596347185
 30
0.0
 41
1.0
 10
938.38683520602149
 20
-1383.2873510944428
 30
0.0
 41
1.0
 10
938.38659388534666
 20
-1383.2935425541673
 30
0.0
 41
1.0
 10
938.38269893375025
 20
-1383.3934736353115
 30
0.0
 41
0.9999716810428543
 10
938.37730035063294
 20
-1383.493334773518
 30
0.0
 41
1.0
 10
938.3740875518439
 20
-1383.5527640231817
 30
0.0
 41
1.0
 10
938.37087475305486
 20
-1383.6121932728454
 30
0.0
 41
1.0
 10
938.36280084390251
 20
-1383.7615416741241
 30
0.0
 41
0.9999819129894383
 10
938.3529310522847
 20
-1383.9107821518528
 30
0.0
 41
1.0
 10
938.34306126066815
 20
-1384.0600226295642
 30
0.0
 41
1.0
 10
938.34062194010426
 20
-1384.0972156754135
 30
0.0
 41
1.0
 10
938.36332017394511
 20
-1384.0584746780673
 30
0.0
 41
0.9999982128181626
 10
938.38616473271918
 20
-1384.0198197840775
 30
0.0
 41
1.0
 10
938.41307429258973
 20
-1383.9742865700464
 30
0.0
 41
1.0
 10
938.43998385246039
 20
-1383.9287533560155
 30
0.0
 41
1.0
 10
938.51664753098385
 20
-1383.7990320339495
 30
0.0
 41
0.9998609190056764
 10
938.59759484384415
 20
-1383.6719396520225
 30
0.0
 41
1.0
 10
938.62724316532922
 20
-1383.6253899190601
 30
0.0
 41
1.0
 10
938.65689148681417
 20
-1383.5788401860978
 30
0.0
 41
1.0
 10
938.73916370705047
 20
-1383.4496676161041
 30
0.0
 41
0.9999067609733056
 10
938.82493271651265
 20
-1383.3227899266658
 30
0.0
 41
1.0
 10
938.82733741971765
 20
-1383.3192326606049
 30
0.0
 41
1.0
 10
938.82974212292277
 20
-1383.3156753945439
 30
0.0
 41
1.0
 10
938.91070172598029
 20
-1383.1959122372193
 30
0.0
 41
0.9998784952150381
 10
938.99535533565802
 20
-1383.0787310205155
 30
0.0
 41
1.0
 10
939.08000894533848
 20
-1382.9615498038083
 30
0.0
 41
0.9998532968283778
 10
939.16862656615626
 20
-1382.8473368953439
 30
0.0
 41
1.0
 10
939.18858835514948
 20
-1382.821609574321
 30
0.0
 41
1.0
 10
939.20855014414281
 20
-1382.795882253298
 30
0.0
 41
1.0
 10
939.32703419390293
 20
-1382.6431766423279
 30
0.0
 41
0.9991551975795252
 10
939.45765864352666
 20
-1382.5007170802442
 30
0.0
 41
1.0
 10
939.46116825950594
 20
-1382.4968894786202
 30
0.0
 41
1.0
 10
939.46467787548534
 20
-1382.4930618769963
 30
0.0
 41
1.0
 10
939.58828309314822
 20
-1382.3582575181626
 30
0.0
 41
0.9997418144181332
 10
939.71788523285068
 20
-1382.2292081075482
 30
0.0
 41
1.0
 10
939.84748737255211
 20
-1382.1001586969351
 30
0.0
 41
0.9989238204633582
 10
939.98848992080389
 20
-1381.9836737348955
 30
0.0
 41
1.0
 10
940.03373759894373
 20
-1381.9462937432866
 30
0.0
 41
1.0
 10
940.07898527708358
 20
-1381.9089137516776
 30
0.0
 41
1.0
 10
940.21922533430393
 20
-1381.7930586983878
 30
0.0
 41
0.9990825084096593
 10
940.36886526690682
 20
-1381.6896297005555
 30
0.0
 41
1.0
 10
940.37891063096265
 20
-1381.6826864874768
 30
0.0
 41
1.0
 10
940.38895599501848
 20
-1381.675743274398
 30
0.0
 41
1.0
 10
940.51850519951097
 20
-1381.5862007027222
 30
0.0
 41
0.9998164899825788
 10
940.65138940288705
 20
-1381.5016864612062
 30
0.0
 41
1.0
 10
940.66323496341465
 20
-1381.4941526946795
 30
0.0
 41
1.0
 10
940.67508052394237
 20
-1381.4866189281527
 30
0.0
 41
1.0
 10
940.78427360626529
 20
-1381.4171722196886
 30
0.0
 41
0.9997473449129978
 10
940.89647756351269
 20
-1381.352703261874
 30
0.0
 41
1.0
 10
941.00868152075941
 20
-1381.2882343040596
 30
0.0
 41
0.9999327861139253
 10
941.12235013152144
 20
-1381.2263843123792
 30
0.0
 41
1.0
 10
941.12290213408426
 20
-1381.2260839536989
 30
0.0
 41
1.0
 10
941.12345413664707
 20
-1381.2257835950186
 30
0.0
 41
1.0
 10
941.23822675253268
 20
-1381.1633328859784
 30
0.0
 41
0.9996956420483336
 10
941.35594007837358
 20
-1381.1066194190034
 30
0.0
 41
1.0
 10
941.38638048326766
 20
-1381.0919534422728
 30
0.0
 41
1.0
 10
941.41682088816174
 20
-1381.0772874655422
 30
0.0
 41
1.0
 10
941.51979799490459
 20
-1381.0276738070993
 30
0.0
 41
0.999807057017713
 10
941.62464438384234
 20
-1380.9821432201998
 30
0.0
 41
1.0
 10
941.72949077278463
 20
-1380.9366126332982
 30
0.0
 41
0.9997827436147805
 10
941.83614370939574
 20
-1380.8954914619858
 30
0.0
 41
1.0
 10
941.85536655902592
 20
-1380.8880798883538
 30
0.0
 41
1.0
 10
941.87458940865599
 20
-1380.880668314722
 30
0.0
 41
1.0
 10
942.01968804452974
 20
-1380.8247239961449
 30
0.0
 41
0.9988031841977066
 10
942.16955840713479
 20
-1380.7832239319771
 30
0.0
 41
1.0
 10
942.1944756554974
 20
-1380.7763241861703
 30
0.0
 41
1.0
 10
942.21939290386013
 20
-1380.7694244403638
 30
0.0
 41
1.0
 10
942.38666292950734
 20
-1380.723106297957
 30
0.0
 41
0.9984748040550062
 10
942.55801983815593
 20
-1380.6955120656921
 30
0.0
 41
1.0
 10
942.56275897440548
 20
-1380.6947489051786
 30
0.0
 41
1.0
 10
942.56749811065504
 20
-1380.693985744665
 30
0.0
 41
1.0
 10
942.72937674680543
 20
-1380.6679178334273
 30
0.0
 41
0.9984436495480035
 10
942.89315149052959
 20
-1380.6600398796086
 30
0.0
 41
1.0
 10
942.91484869866224
 20
-1380.6589961924087
 30
0.0
 41
1.0
 10
942.93654590679489
 20
-1380.6579525052091
 30
0.0
 41
1.0
 10
943.05692623425568
 20
-1380.6521619257899
 30
0.0
 41
0.9987954789335654
 10
943.17729447916417
 20
-1380.6581984535321
 30
0.0
 41
1.0
 10
943.19725927165837
 20
-1380.6591996978707
 30
0.0
 41
1.0
 10
943.21722406415267
 20
-1380.6602009422093
 30
0.0
 41
1.0
 10
943.29766272407392
 20
-1380.6642349812744
 30
0.0
 41
0.9997941595877474
 10
943.37787150216843
 20
-1380.6715290471955
 30
0.0
 41
1.0
 10
943.45808028026158
 20
-1380.6788231131163
 30
0.0
 41
0.9998589466237341
 10
943.53799882711508
 20
-1380.6888069675663
 30
0.0
 41
1.0
 10
943.57040502892471
 20
-1380.6928553244857
 30
0.0
 41
1.0
 10
943.60281123073435
 20
-1380.696903681405
 30
0.0
 41
1.0
 10
943.74754218120654
 20
-1380.7149842496938
 30
0.0
 41
0.9993495063249549
 10
943.89059342497296
 20
-1380.7434499594356
 30
0.0
 41
1.0
 10
943.92352712212619
 20
-1380.7500034226505
 30
0.0
 41
1.0
 10
943.95646081927953
 20
-1380.7565568858656
 30
0.0
 41
1.0
 10
944.06575464248169
 20
-1380.7783052200007
 30
0.0
 41
0.9996788715560784
 10
944.17380621443647
 20
-1380.8055630193633
 30
0.0
 41
1.0
 10
944.1758692169733
 20
-1380.8060834459357
 30
0.0
 41
1.0
 10
944.17793221951013
 20
-1380.806603872508
 30
0.0
 41
1.0
 10
944.28185778639136
 20
-1380.8328208187258
 30
0.0
 41
0.9995480654492271
 10
944.38402002162229
 20
-1380.8652357753508
 30
0.0
 41
1.0
 10
944.38570966375289
 20
-1380.8657718802651
 30
0.0
 41
1.0
 10
944.38739930588349
 20
-1380.8663079851797
 30
0.0
 41
1.0
 10
944.48618225685266
 20
-1380.8976507319755
 30
0.0
 41
0.9993867959456004
 10
944.58252941529429
 20
-1380.9358301012649
 30
0.0
 41
1.0
 10
944.583772364379
 20
-1380.936322643161
 30
0.0
 41
1.0
 10
944.58501531346371
 20
-1380.9368151850572
 30
0.0
 41
1.0
 10
944.67887657373592
 20
-1380.9740094705542
 30
0.0
 41
0.9992050256522
 10
944.76947624877016
 20
-1381.0185633697934
 30
0.0
 41
1.0
 10
944.77021093148301
 20
-1381.0189246622544
 30
0.0
 41
1.0
 10
944.77094561419597
 20
-1381.0192859547155
 30
0.0
 41
1.0
 10
944.8600759238044
 20
-1381.0631172690325
 30
0.0
 41
0.9990222350741417
 10
944.94498598519726
 20
-1381.1146505367306
 30
0.0
 41
1.0
 10
944.9451698704795
 20
-1381.1147621396351
 30
0.0
 41
1.0
 10
944.94535375576186
 20
-1381.1148737425397
 30
0.0
 41
1.0
 10
945.02989604659024
 20
-1381.1661838044283
 30
0.0
 41
0.9988642743804809
 10
945.10917058120981
 20
-1381.225307991954
 30
0.0
 41
1.0
 10
945.18844511582915
 20
-1381.2844321794796
 30
0.0
 41
0.9987681233311205
 10
945.26146890010614
 20
-1381.351122870881
 30
0.0
 41
1.0
 10
945.26179782807139
 20
-1381.3514232720945
 30
0.0
 41
1.0
 10
945.26212675603665
 20
-1381.3517236733082
 30
0.0
 41
1.0
 10
945.3358083962446
 20
-1381.4190151671378
 30
0.0
 41
0.9987496570898605
 10
945.40240220157295
 20
-1381.4933279812258
 30
0.0
 41
1.0
 10
945.40317437133263
 20
-1381.4941896545829
 30
0.0
 41
1.0
 10
945.40394654109241
 20
-1381.49505132794
 30
0.0
 41
1.0
 10
945.47208468594022
 20
-1381.571087488742
 30
0.0
 41
0.998814766982696
 10
945.53250694016594
 20
-1381.6533884955854
 30
0.0
 41
1.0
 10
945.53362626624346
 20
-1381.6549131269376
 30
0.0
 41
1.0
 10
945.53474559232097
 20
-1381.6564377582899
 30
0.0
 41
1.0
 10
945.5974064987023
 20
-1381.7417880278388
 30
0.0
 41
0.9989452636216252
 10
945.65197341166345
 20
-1381.8325267169962
 30
0.0
 41
1.0
 10
945.65332213774877
 20
-1381.8347694980218
 30
0.0
 41
1.0
 10
945.6546708638341
 20
-1381.8370122790475
 30
0.0
 41
1.0
 10
945.71193522896738
 20
-1381.9322365302589
 30
0.0
 41
0.9991046436071182
 10
945.76094444228841
 20
-1382.0319609632829
 30
0.0
 41
1.0
 10
945.76240830387837
 20
-1382.0349396433555
 30
0.0
 41
1.0
 10
945.76387216546846
 20
-1382.0379183234281
 30
0.0
 41
1.0
 10
945.81580910197044
 20
-1382.1436001165998
 30
0.0
 41
0.999276383110188
 10
945.85956223052631
 20
-1382.2529241785571
 30
0.0
 41
1.0
 10
945.86104150018912
 20
-1382.2566203660895
 30
0.0
 41
1.0
 10
945.86252076985193
 20
-1382.2603165536218
 30
0.0
 41
1.0
 10
945.90923243773295
 20
-1382.3770329906429
 30
0.0
 41
0.9994163472883628
 10
945.94786546892215
 20
-1382.4966665791053
 30
0.0
 41
1.0
 10
945.94910362116889
 20
-1382.5005007228879
 30
0.0
 41
1.0
 10
945.95034177341563
 20
-1382.5043348666704
 30
0.0
 41
1.0
 10
945.9902253344336
 20
-1382.6278409281506
 30
0.0
 41
0.9997268055891575
 10
946.0242933903462
 20
-1382.7530759601036
 30
0.0
 41
1.0
 10
946.02522357061571
 20
-1382.7564953262122
 30
0.0
 41
1.0
 10
946.02615375088533
 20
-1382.759914692321
 30
0.0
 41
1.0
 10
946.05836144625857
 20
-1382.8783109920557
 30
0.0
 41
0.9996701319000514
 10
946.08444706302862
 20
-1382.9982049453179
 30
0.0
 41
1.0
 10
946.11053267979923
 20
-1383.1180988985811
 30
0.0
 41
0.9995785451109355
 10
946.12961625713888
 20
-1383.239304659613
 30
0.0
 41
1.0
 10
946.13383603931254
 20
-1383.2661058143776
 30
0.0
 41
1.0
 10
946.1380558214862
 20
-1383.292906969142
 30
0.0
 41
1.0
 10
946.16463079742505
 20
-1383.4616929428466
 30
0.0
 41
0.9979925101216429
 10
946.16965638335125
 20
-1383.6324842709375
 30
0.0
 41
1.0
 10
946.17048119577589
 20
-1383.660514994418
 30
0.0
 41
1.0
 10
946.17130600820053
 20
-1383.6885457178983
 30
0.0
 41
1.0
 10
946.17468196927769
 20
-1383.803275599028
 30
0.0
 41
0.9995314902262965
 10
946.17103177713909
 20
-1383.9179970827813
 30
0.0
 41
1.0
 10
946.16738158500095
 20
-1384.0327185665296
 30
0.0
 41
0.9996245486944131
 10
946.15745248986991
 20
-1384.1470678376554
 30
0.0
 41
1.0
 10
946.15728944187561
 20
-1384.1489455937915
 30
0.0
 41
1.0
 10
946.1571263938813
 20
-1384.1508233499276
 30
0.0
 41
1.0
 10
946.14687120276221
 20
-1384.2689281333198
 30
0.0
 41
0.9997286095000874
 10
946.13112587919056
 20
-1384.3864270422162
 30
0.0
 41
1.0
 10
946.1307323865401
 20
-1384.3893634669184
 30
0.0
 41
1.0
 10
946.13033889388976
 20
-1384.3922998916205
 30
0.0
 41
1.0
 10
946.1138065850181
 20
-1384.5156716499171
 30
0.0
 41
0.9998265533969256
 10
946.09269112628567
 20
-1384.6383421247031
 30
0.0
 41
1.0
 10
946.09201458414816
 20
-1384.6422725032126
 30
0.0
 41
1.0
 10
946.09133804201065
 20
-1384.6462028817223
 30
0.0
 41
1.0
 10
946.06886949900468
 20
-1384.7767341135213
 30
0.0
 41
0.9999022530854551
 10
946.042760034396
 20
-1384.9065860821536
 30
0.0
 41
1.0
 10
946.04178139322948
 20
-1384.9114532245462
 30
0.0
 41
1.0
 10
946.04080275206309
 20
-1384.9163203669389
 30
0.0
 41
1.0
 10
946.01273600511968
 20
-1385.0559066203639
 30
0.0
 41
0.9999524761935938
 10
945.98195303628495
 20
-1385.1949191135286
 30
0.0
 41
1.0
 10
945.98067692911081
 20
-1385.200681872825
 30
0.0
 41
1.0
 10
945.97940082193668
 20
-1385.2064446321215
 30
0.0
 41
1.0
 10
945.94606563874993
 20
-1385.3569826438948
 30
0.0
 41
0.9999813588723072
 10
945.91089463795686
 20
-1385.5071023565392
 30
0.0
 41
1.0
 10
945.90934071249944
 20
-1385.5137349469651
 30
0.0
 41
1.0
 10
945.90778678704214
 20
-1385.5203675373912
 30
0.0
 41
1.0
 10
945.86950793533379
 20
-1385.6837524308901
 30
0.0
 41
0.9999955237716204
 10
945.83025205734486
 20
-1385.8469053345311
 30
0.0
 41
1.0
 10
945.81797042171434
 20
-1385.8979495250378
 30
0.0
 41
1.0
 10
945.80568878608392
 20
-1385.9489937155445
 30
0.0
 41
1.0
 10
945.74186963684122
 20
-1386.21423500017
 30
0.0
 41
0.9999993604241806
 10
945.67745068967383
 20
-1386.4793312508521
 30
0.0
 41
1.0
 10
945.67273185412319
 20
-1386.4987501589071
 30
0.0
 41
1.0
 10
945.66801301857265
 20
-1386.5181690669619
 30
0.0
 41
1.0
 10
945.59415640031023
 20
-1386.8221031337284
 30
0.0
 41
0.9999659914728586
 10
945.51529680442013
 20
-1387.1247776803061
 30
0.0
 41
1.0
 10
945.5103441154929
 20
-1387.1437868174755
 30
0.0
 41
1.0
 10
945.50539142656567
 20
-1387.1627959546449
 30
0.0
 41
1.0
 10
945.41662645282167
 20
-1387.5034887755596
 30
0.0
 41
0.9999441976028692
 10
945.32068341985598
 20
-1387.842230200866
 30
0.0
 41
1.0
 10
945.3039829014308
 20
-1387.901193913392
 30
0.0
 41
1.0
 10
945.28728238300573
 20
-1387.9601576259183
 30
0.0
 41
1.0
 10
945.15793831319615
 20
-1388.4168264762557
 30
0.0
 41
0.9999625120731913
 10
945.02070554587442
 20
-1388.8711870102463
 30
0.0
 41
1.0
 10
944.98491560278535
 20
-1388.9896830368939
 30
0.0
 41
1.0
 10
944.94912565969616
 20
-1389.1081790635412
 30
0.0
 41
1.0
 10
944.8746054556583
 20
-1389.3549061416325
 30
0.0
 41
0.9999793386309164
 10
944.79691943252305
 20
-1389.6006547808611
 30
0.0
 41
1.0
 10
944.71923340938554
 20
-1389.8464034200972
 30
0.0
 41
1.0
 10
944.70845385051484
 20
-1389.8804213244719
 30
0.0
 41
1.0
 10
942.85808079724575
 20
-1395.7674932469395
 30
0.0
 41
1.0
 10
941.00770774397654
 20
-1401.6545651694069
 30
0.0
 41
1.0
 10
940.04645105395298
 20
-1401.6545651694069
 30
0.0
 41
1.0
 10
939.08519436392942
 20
-1401.6545651694069
 30
0.0
 41
1.0
 10
940.7041391426078
 20
-1396.5065366676174
 30
0.0
 41
1.0
 10
942.3230839212863
 20
-1391.358508165828
 30
0.0
 41
1.0
 10
942.36824974446131
 20
-1391.2144769435561
 30
0.0
 41
1.0
 10
942.41341556763621
 20
-1391.0704457212842
 30
0.0
 41
1.0
 10
942.58371998499558
 20
-1390.5273546921321
 30
0.0
 41
0.9999911657887771
 10
942.74945279667782
 20
-1389.982851160762
 30
0.0
 41
1.0
 10
942.77914874017711
 20
-1389.8852872207153
 30
0.0
 41
1.0
 10
942.80884468367651
 20
-1389.7877232806684
 30
0.0
 41
1.0
 10
942.91518560836175
 20
-1389.438347629386
 30
0.0
 41
0.9999952428151353
 10
943.01936919768309
 20
-1389.0883226050487
 30
0.0
 41
1.0
 10
943.02442866801425
 20
-1389.0713243307782
 30
0.0
 41
1.0
 10
943.0294881383453
 20
-1389.0543260565075
 30
0.0
 41
1.0
 10
943.12355278701216
 20
-1388.738297580685
 30
0.0
 41
0.9999931687545123
 10
943.21527862488165
 20
-1388.4215823674288
 30
0.0
 41
1.0
 10
943.22021388933331
 20
-1388.4045416581848
 30
0.0
 41
1.0
 10
943.22514915378497
 20
-1388.3875009489409
 30
0.0
 41
1.0
 10
943.30700446274454
 20
-1388.1048671541957
 30
0.0
 41
0.9999893840804685
 10
943.38625168921214
 20
-1387.8214910249117
 30
0.0
 41
1.0
 10
943.46549891567292
 20
-1387.5381148956512
 30
0.0
 41
0.9999833980079602
 10
943.54147515641125
 20
-1387.2538443126348
 30
0.0
 41
1.0
 10
943.55047909313384
 20
-1387.2201554341555
 30
0.0
 41
1.0
 10
943.55948302985632
 20
-1387.1864665556759
 30
0.0
 41
1.0
 10
943.62844757872256
 20
-1386.9284307233802
 30
0.0
 41
0.9999233658069161
 10
943.69100254994248
 20
-1386.6687665646587
 30
0.0
 41
1.0
 10
943.75355752116275
 20
-1386.4091024059362
 30
0.0
 41
1.0
 10
943.79304094002032
 20
-1386.2452957415101
 30
0.0
 41
1.0
 10
943.79801954399863
 20
-1386.2246407796351
 30
0.0
 41
1.0
 10
943.80299814797706
 20
-1386.2039858177602
 30
0.0
 41
1.0
 10
943.83252435887982
 20
-1386.0814890770764
 30
0.0
 41
0.9999868670851667
 10
943.86079344287407
 20
-1385.9586961314385
 30
0.0
 41
1.0
 10
943.86469093002984
 20
-1385.9417665440301
 30
0.0
 41
1.0
 10
943.86858841718561
 20
-1385.9248369566214
 30
0.0
 41
1.0
 10
943.88906252686593
 20
-1385.8359031858124
 30
0.0
 41
0.9999778173343992
 10
943.90835012498565
 20
-1385.7467045685626
 30
0.0
 41
1.0
 10
943.92763772309809
 20
-1385.657505951347
 30
0.0
 41
0.9999602692856836
 10
943.94533208172697
 20
-1385.5679776629304
 30
0.0
 41
1.0
 10
943.94853591380706
 20
-1385.5517672080323
 30
0.0
 41
1.0
 10
943.95173974588715
 20
-1385.5355567531344
 30
0.0
 41
1.0
 10
943.97584176867349
 20
-1385.4136075549357
 30
0.0
 41
0.9995617985319784
 10
943.99268511589207
 20
-1385.2904458072294
 30
0.0
 41
1.0
 10
943.99514960579825
 20
-1385.2724249898638
 30
0.0
 41
1.0
 10
943.99761409570442
 20
-1385.2544041724982
 30
0.0
 41
1.0
 10
944.01789735675266
 20
-1385.106089122798
 30
0.0
 41
0.9991121410639623
 10
944.02562271034094
 20
-1384.9565930239919
 30
0.0
 41
1.0
 10
944.02654150036551
 20
-1384.9388131874157
 30
0.0
 41
1.0
 10
944.02746029039008
 20
-1384.9210333508395
 30
0.0
 41
1.0
 10
944.03334806392922
 20
-1384.8070969251858
 30
0.0
 41
0.9989792494905389
 10
944.02892897181187
 20
-1384.6930940892876
 30
0.0
 41
1.0
 10
944.02828099994326
 20
-1384.6763778433597
 30
0.0
 41
1.0
 10
944.02763302807455
 20
-1384.659661597432
 30
0.0
 41
1.0
 10
944.02450987969451
 20
-1384.5790912533912
 30
0.0
 41
0.9997820295394678
 10
944.01802588231885
 20
-1384.4987215316451
 30
0.0
 41
1.0
 10
944.01154188494309
 20
-1384.4183518099001
 30
0.0
 41
0.9998335105971897
 10
944.00212968943106
 20
-1384.3382721934483
 30
0.0
 41
1.0
 10
944.00053476475489
 20
-1384.3247024629668
 30
0.0
 41
1.0
 10
943.99893984007872
 20
-1384.311132732485
 30
0.0
 41
1.0
 10
943.98633779521424
 20
-1384.2039136550673
 30
0.0
 41
0.9996876457878833
 10
943.96839388241551
 20
-1384.09745822735
 30
0.0
 41
1.0
 10
943.96616221927059
 20
-1384.0842184921103
 30
0.0
 41
1.0
 10
943.96393055612566
 20
-1384.0709787568703
 30
0.0
 41
1.0
 10
943.95013473470431
 20
-1383.9891326129114
 30
0.0
 41
0.9995547496495429
 10
943.93148141281176
 20
-1383.9082551157196
 30
0.0
 41
1.0
 10
943.93110745594026
 20
-1383.9066337050135
 30
0.0
 41
1.0
 10
943.93073349906877
 20
-1383.9050122943072
 30
0.0
 41
1.0
 10
943.91282809091911
 20
-1383.8273776185276
 30
0.0
 41
0.9994899427174618
 10
943.89000318223975
 20
-1383.7510443356941
 30
0.0
 41
1.0
 10
943.88954465549853
 20
-1383.7495108859039
 30
0.0
 41
1.0
 10
943.8890861287573
 20
-1383.7479774361136
 30
0.0
 41
1.0
 10
943.86717827356006
 20
-1383.6747110528584
 30
0.0
 41
0.9993784877590578
 10
943.84016263845388
 20
-1383.6031703477006
 30
0.0
 41
1.0
 10
943.83963094747685
 20
-1383.6017623649798
 30
0.0
 41
1.0
 10
943.83909925649982
 20
-1383.600354382259
 30
0.0
 41
1.0
 10
943.81314700334701
 20
-1383.5316296425408
 30
0.0
 41
0.9992430832254127
 10
943.78193046818797
 20
-1383.4651304904733
 30
0.0
 41
1.0
 10
943.78134835213166
 20
-1383.4638904353565
 30
0.0
 41
1.0
 10
943.78076623607535
 20
-1383.4626503802399
 30
0.0
 41
1.0
 10
943.75071393302892
 20
-1383.3986313384057
 30
0.0
 41
0.9990789632798052
 10
943.71528330625188
 20
-1383.3374247266554
 30
0.0
 41
1.0
 10
943.71468760006974
 20
-1383.3363956407957
 30
0.0
 41
1.0
 10
943.71409189388748
 20
-1383.3353665549362
 30
0.0
 41
1.0
 10
943.67985267947427
 20
-1383.2762181149042
 30
0.0
 41
0.9988874801120811
 10
943.64019340344316
 20
-1383.2205584024878
 30
0.0
 41
1.0
 10
943.6396378773793
 20
-1383.2197787508135
 30
0.0
 41
1.0
 10
943.63908235131544
 20
-1383.2189990991394
 30
0.0
 41
1.0
 10
943.60053412741127
 20
-1383.1648986900702
 30
0.0
 41
0.9986762060693307
 10
943.55663165613487
 20
-1383.115044975631
 30
0.0
 41
1.0
 10
943.55618769580303
 20
-1383.1145408338148
 30
0.0
 41
1.0
 10
943.5557437354712
 20
-1383.1140366919985
 30
0.0
 41
1.0
 10
943.51272918485893
 20
-1383.065191261192
 30
0.0
 41
0.9984621642488487
 10
943.46457162808088
 20
-1383.0214079607206
 30
0.0
 41
1.0
 10
943.46432499356411
 20
-1383.0211837285569
 30
0.0
 41
1.0
 10
943.46407835904722
 20
-1383.0209594963931
 30
0.0
 41
1.0
 10
943.41641407130248
 20
-1382.9776246602489
 30
0.0
 41
0.9982724693852088
 10
943.36399543946163
 20
-1382.9401803097317
 30
0.0
 41
1.0
 10
943.31157680762044
 20
-1382.9027359592142
 30
0.0
 41
0.9981399180158137
 10
943.25499074422771
 20
-1382.8719494397712
 30
0.0
 41
1.0
 10
943.25494508214888
 20
-1382.8719245966138
 30
0.0
 41
1.0
 10
943.25489942006993
 20
-1382.8718997534563
 30
0.0
 41
1.0
 10
943.19822203251931
 20
-1382.8410635476982
 30
0.0
 41
0.9980927086836718
 10
943.13817668145225
 20
-1382.8174467388455
 30
0.0
 41
1.0
 10
943.13773651174108
 20
-1382.8172736129709
 30
0.0
 41
1.0
 10
943.13729634202991
 20
-1382.817100487096
 30
0.0
 41
1.0
 10
943.07637065153949
 20
-1382.7931374264931
 30
0.0
 41
0.9981411356560332
 10
943.01298213013968
 20
-1382.7767647849878
 30
0.0
 41
1.0
 10
943.01210001343884
 20
-1382.7765369427825
 30
0.0
 41
1.0
 10
943.01121789673789
 20
-1382.776309100577
 30
0.0
 41
1.0
 10
942.94606514193583
 20
-1382.7594807746605
 30
0.0
 41
0.9983031812935521
 10
942.87939771294089
 20
-1382.7503414134842
 30
0.0
 41
1.0
 10
942.87052668753836
 20
-1382.749125294813
 30
0.0
 41
1.0
 10
942.86165566213595
 20
-1382.747909176142
 30
0.0
 41
1.0
 10
942.80730601963057
 20
-1382.7404584461508
 30
0.0
 41
0.9983887708263749
 10
942.75246217033612
 20
-1382.7392137725174
 30
0.0
 41
1.0
 10
942.74439876511587
 20
-1382.7390307746423
 30
0.0
 41
1.0
 10
942.73633535989563
 20
-1382.7388477767674
 30
0.0
 41
1.0
 10
942.69761832104041
 20
-1382.7379690988839
 30
0.0
 41
0.9998869563080287
 10
942.65889236784062
 20
-1382.7382549682436
 30
0.0
 41
1.0
 10
942.62016641463788
 20
-1382.7385408376033
 30
0.0
 41
0.9999972320104875
 10
942.58144223542797
 20
-1382.7390089371324
 30
0.0
 41
1.0
 10
942.56208921884763
 20
-1382.7392428772218
 30
0.0
 41
1.0
 10
942.54273620226718
 20
-1382.7394768173112
 30
0.0
 41
1.0
 10
942.46530598989727
 20
-1382.740412797019
 30
0.0
 41
0.9997304945087604
 10
942.38800268366049
 20
-1382.7449418908047
 30
0.0
 41
1.0
 10
942.37895304195536
 20
-1382.7454720967949
 30
0.0
 41
1.0
 10
942.36990340025034
 20
-1382.7460023027847
 30
0.0
 41
1.0
 10
942.27450081060647
 20
-1382.7515918085508
 30
0.0
 41
0.9997888306414655
 10
942.17940847476609
 20
-1382.7610967730395
 30
0.0
 41
1.0
 10
942.1706874131911
 20
-1382.7619684876718
 30
0.0
 41
1.0
 10
942.16196635161612
 20
-1382.7628402023042
 30
0.0
 41
1.0
 10
942.04943189262815
 20
-1382.7740885960575
 30
0.0
 41
0.9984170238190822
 10
941.93887274527788
 20
-1382.7979046779928
 30
0.0
 41
1.0
 10
941.90249161429085
 20
-1382.8057417137991
 30
0.0
 41
1.0
 10
941.86611048330383
 20
-1382.8135787496053
 30
0.0
 41
1.0
 10
941.75091941488233
 20
-1382.838392616115
 30
0.0
 41
0.9976592854199243
 10
941.64019124847732
 20
-1382.8786912932624
 30
0.0
 41
1.0
 10
941.52946308207152
 20
-1382.9189899704097
 30
0.0
 41
0.9993255074351861
 10
941.4219912832815
 20
-1382.9673068689019
 30
0.0
 41
1.0
 10
941.41736610435828
 20
-1382.9693862451018
 30
0.0
 41
1.0
 10
941.41274092543495
 20
-1382.9714656213014
 30
0.0
 41
1.0
 10
941.29601876879769
 20
-1383.023941272193
 30
0.0
 41
0.9976475078275302
 10
941.18757142448806
 20
-1383.0918892618508
 30
0.0
 41
1.0
 10
941.1692290303522
 20
-1383.103381740666
 30
0.0
 41
1.0
 10
941.15088663621634
 20
-1383.1148742194814
 30
0.0
 41
1.0
 10
941.0666844446655
 20
-1383.167631340249
 30
0.0
 41
0.9995131336406466
 10
940.98593672970799
 20
-1383.2255375522022
 30
0.0
 41
1.0
 10
940.90518901474968
 20
-1383.2834437641559
 30
0.0
 41
0.9995810107606059
 10
940.82792736701822
 20
-1383.3459254466241
 30
0.0
 41
1.0
 10
940.82495733580993
 20
-1383.3483273180873
 30
0.0
 41
1.0
 10
940.82198730460163
 20
-1383.3507291895503
 30
0.0
 41
1.0
 10
940.73878559445188
 20
-1383.4180146149461
 30
0.0
 41
0.9996617837955113
 10
940.6591949073154
 20
-1383.4895350705071
 30
0.0
 41
1.0
 10
940.64706415643855
 20
-1383.5004358034976
 30
0.0
 41
1.0
 10
940.63493340556181
 20
-1383.5113365364882
 30
0.0
 41
1.0
 10
940.5666578781636
 20
-1383.5726891519621
 30
0.0
 41
0.9997267750051749
 10
940.50132436988224
 20
-1383.6371656884853
 30
0.0
 41
1.0
 10
940.43599086159827
 20
-1383.7016422250108
 30
0.0
 41
0.9999667288963966
 10
940.3717179184581
 20
-1383.7671760318988
 30
0.0
 41
1.0
 10
940.30289047067981
 20
-1383.8373536906602
 30
0.0
 41
1.0
 10
940.23406302290164
 20
-1383.9075313494213
 30
0.0
 41
1.0
 10
940.03213518420398
 20
-1384.113420473833
 30
0.0
 41
0.9988205335174987
 10
939.85112956722355
 20
-1384.3379247058951
 30
0.0
 41
1.0
 10
939.82048960231975
 20
-1384.3759279563239
 30
0.0
 41
1.0
 10
939.78984963741595
 20
-1384.4139312067527
 30
0.0
 41
1.0
 10
939.54756409062793
 20
-1384.714441939672
 30
0.0
 41
0.999707782675539
 10
939.3200861395261
 20
-1385.0263117338836
 30
0.0
 41
1.0
 10
939.31836272439341
 20
-1385.0286745172662
 30
0.0
 41
1.0
 10
939.31663930926084
 20
-1385.0310373006487
 30
0.0
 41
1.0
 10
939.08571452789533
 20
-1385.3476326616233
 30
0.0
 41
0.9989147567079003
 10
938.88525102501194
 20
-1385.6843421228077
 30
0.0
 41
1.0
 10
938.86050987970543
 20
-1385.7258987033597
 30
0.0
 41
1.0
 10
938.83576873439881
 20
-1385.7674552839114
 30
0.0
 41
1.0
 10
938.68055743576156
 20
-1386.0281566683641
 30
0.0
 41
0.9997476598181404
 10
938.53721244825033
 20
-1386.295566416949
 30
0.0
 41
1.0
 10
938.39386746073967
 20
-1386.5629761655334
 30
0.0
 41
0.9996258967109861
 10
938.26535920880553
 20
-1386.8378241021628
 30
0.0
 41
1.0
 10
938.25215929935825
 20
-1386.8660555022534
 30
0.0
 41
1.0
 10
938.23895938991086
 20
-1386.894286902344
 30
0.0
 41
1.0
 10
938.09875066891072
 20
-1387.1941593002978
 30
0.0
 41
0.9998735413945247
 10
937.96814932218922
 20
-1387.498338899768
 30
0.0
 41
1.0
 10
937.96470649412731
 20
-1387.5063574852361
 30
0.0
 41
1.0
 10
937.96126366606529
 20
-1387.5143760707042
 30
0.0
 41
1.0
 10
937.8375479754659
 20
-1387.8025184992423
 30
0.0
 41
0.9999377418858334
 10
937.72029317329407
 20
-1388.0933499669104
 30
0.0
 41
1.0
 10
937.60303837112042
 20
-1388.3841814345826
 30
0.0
 41
0.9999508299506383
 10
937.49157442774572
 20
-1388.6772811113972
 30
0.0
 41
1.0
 10
937.4884936590812
 20
-1388.6853821373666
 30
0.0
 41
1.0
 10
937.48541289041668
 20
-1388.6934831633357
 30
0.0
 41
1.0
 10
937.36778740971397
 20
-1389.0027848920854
 30
0.0
 41
0.9999609228428609
 10
937.25564880684294
 20
-1389.3141179080933
 30
0.0
 41
1.0
 10
937.25269279649206
 20
-1389.3223247485062
 30
0.0
 41
1.0
 10
937.24973678614106
 20
-1389.3305315889193
 30
0.0
 41
1.0
 10
937.13168616256769
 20
-1389.658278285754
 30
0.0
 41
0.9999674607408446
 10
937.01893863649798
 20
-1389.9878869057536
 30
0.0
 41
1.0
 10
936.96754024593542
 20
-1390.1381461014457
 30
0.0
 41
1.0
 10
936.91614185537276
 20
-1390.2884052971381
 30
0.0
 41
1.0
 10
936.80013124861716
 20
-1390.6275532796344
 30
0.0
 41
0.9999287532308766
 10
936.69224984464608
 20
-1390.9693740186112
 30
0.0
 41
1.0
 10
936.64577258854399
 20
-1391.1166365628646
 30
0.0
 41
1.0
 10
936.5992953324419
 20
-1391.263899107118
 30
0.0
 41
1.0
 10
936.58436844071275
 20
-1391.3111947574682
 30
0.0
 41
0.9999998224558413
 10
936.56949793194485
 20
-1391.358508165828
 30
0.0
 41
1.0
 10
934.94884179514941
 20
-1396.5065366676174
 30
0.0
 41
1.0
 10
933.32818565835396
 20
-1401.6545651694069
 30
0.0
 41
1.0
 10
932.42287721446303
 20
-1401.6545651694069
 30
0.0
 41
1.0
 10
931.5175687705721
 20
-1401.6545651694069
 30
0.0
 41
1.0
 10
933.36965318195814
 20
-1395.7674932469395
 30
0.0
 41
1.0
 10
935.22173759334419
 20
-1389.8804213244719
 30
0.0
 41
1.0
 10
935.2318593516469
 20
-1389.8483781110222
 30
0.0
 41
1.0
 10
935.30446702049665
 20
-1389.6180785691963
 30
0.0
 41
1.0
 10
935.37707468935332
 20
-1389.3877790273486
 30
0.0
 41
0.9999825681965366
 10
935.44695772856585
 20
-1389.1566381322789
 30
0.0
 41
1.0
 10
935.49524879072374
 20
-1388.9969135487922
 30
0.0
 41
1.0
 10
935.54353985288174
 20
-1388.8371889653058
 30
0.0
 41
1.0
 10
935.64069220619467
 20
-1388.5158537435441
 30
0.0
 41
0.9999672528966237
 10
935.73263101181874
 20
-1388.1929881979554
 30
0.0
 41
1.0
 10
935.73541989548858
 20
-1388.1831943525654
 30
0.0
 41
1.0
 10
935.7382087791583
 20
-1388.1734005071753
 30
0.0
 41
1.0
 10
935.82456981744622
 20
-1387.8701226523547
 30
0.0
 41
0.9999899749137989
 10
935.90821142697678
 20
-1387.5660835639169
 30
0.0
 41
1.0
 10
935.9183173459935
 20
-1387.5293483262412
 30
0.0
 41
1.0
 10
935.92842326501034
 20
-1387.4926130885656
 30
0.0
 41
1.0
 10
935.99185303651132
 20
-1387.2620444754648
 30
0.0
 41
0.9999214200502892
 10
936.04948246488925
 20
-1387.0299581332551
 30
0.0
 41
1.0
 10
936.0622483170722
 20
-1386.9785472478493
 30
0.0
 41
1.0
 10
936.07501416925516
 20
-1386.9271363624434
 30
0.0
 41
1.0
 10
936.10711189327117
 20
-1386.7978717910287
 30
0.0
 41
0.9999828681668076
 10
936.13769414526234
 20
-1386.6682403165782
 30
0.0
 41
1.0
 10
936.16827639725977
 20
-1386.5386088421019
 30
0.0
 41
0.9999389844477302
 10
936.19598738604873
 20
-1386.4083333862027
 30
0.0
 41
1.0
 10
936.20312512976807
 20
-1386.3747772823692
 30
0.0
 41
1.0
 10
936.21026287348741
 20
-1386.3412211785358
 30
0.0
 41
1.0
 10
936.25224934971789
 20
-1386.1438335149569
 30
0.0
 41
0.9998933699443212
 10
936.28845361411948
 20
-1385.9453039072014
 30
0.0
 41
1.0
 10
936.28982643933568
 20
-1385.9377758865053
 30
0.0
 41
1.0
 10
936.29119926455201
 20
-1385.9302478658092
 30
0.0
 41
1.0
 10
936.33014917938692
 20
-1385.7166622166578
 30
0.0
 41
0.9996850305193382
 10
936.35833285564559
 20
-1385.5013912112215
 30
0.0
 41
1.0
 10
936.36032788901502
 20
-1385.4861528570991
 30
0.0
 41
1.0
 10
936.36232292238435
 20
-1385.4709145029767
 30
0.0
 41
1.0
 10
936.38973078484366
 20
-1385.26156927582
 30
0.0
 41
0.9994697936706559
 10
936.40345534406288
 20
-1385.0508840804914
 30
0.0
 41
1.0
 10
936.4039324133123
 20
-1385.0435606082833
 30
0.0
 41
1.0
 10
936.40440948256185
 20
-1385.0362371360752
 30
0.0
 41
1.0
 10
936.41717990328243
 20
-1384.8401988851626
 30
0.0
 41
0.999180489313695
 10
936.41405158700968
 20
-1384.6437700351873
 30
0.0
 41
1.0
 10
936.41396770818756
 20
-1384.6385032337748
 30
0.0
 41
1.0
 10
936.41388382936543
 20
-1384.6332364323621
 30
0.0
 41
1.0
 10
936.41092327073693
 20
-1384.4473411852139
 30
0.0
 41
0.9988448329321494
 10
936.39013172511318
 20
-1384.2625885953805
 30
0.0
 41
1.0
 10
936.38853765141027
 20
-1384.2484237396104
 30
0.0
 41
1.0
 10
936.38694357770737
 20
-1384.2342588838403
 30
0.0
 41
1.0
 10
936.36934017948954
 20
-1384.0778360055483
 30
0.0
 41
0.9985503209458827
 10
936.33502390718991
 20
-1383.9242118214579
 30
0.0
 41
1.0
 10
936.32743791511871
 20
-1383.8902514940582
 30
0.0
 41
1.0
 10
936.31985192304762
 20
-1383.8562911666584
 30
0.0
 41
1.0
 10
936.30070763489073
 20
-1383.7705876373705
 30
0.0
 41
0.9991036781370498
 10
936.27438277323904
 20
-1383.6868105500437
 30
0.0
 41
1.0
 10
936.2704005477832
 20
-1383.6741373875334
 30
0.0
 41
1.0
 10
936.26641832232735
 20
-1383.6614642250231
 30
0.0
 41
1.0
 10
936.24805791158781
 20
-1383.6030334627185
 30
0.0
 41
0.999887450436873
 10
936.22795270390952
 20
-1383.5451798604954
 30
0.0
 41
1.0
 10
936.2078474962301
 20
-1383.4873262582698
 30
0.0
 41
0.9994041637544505
 10
936.18379888329594
 20
-1383.4309975543802
 30
0.0
 41
1.0
 10
936.17960209907244
 20
-1383.4211674898995
 30
0.0
 41
1.0
 10
936.17540531484894
 20
-1383.4113374254189
 30
0.0
 41
1.0
 10
936.14752648385422
 20
-1383.3460372594511
 30
0.0
 41
0.9991846840702121
 10
936.1144701271611
 20
-1383.283199228171
 30
0.0
 41
1.0
 10
936.11333352076633
 20
-1383.2810386117169
 30
0.0
 41
1.0
 10
936.11219691437157
 20
-1383.2788779952627
 30
0.0
 41
1.0
 10
936.08141377046866
 20
-1383.2203611968921
 30
0.0
 41
0.9989253167923546
 10
936.045344346413
 20
-1383.1649462685004
 30
0.0
 41
1.0
 10
936.04429022173895
 20
-1383.1633267737384
 30
0.0
 41
1.0
 10
936.04323609706501
 20
-1383.1617072789766
 30
0.0
 41
1.0
 10
936.00927492235871
 20
-1383.1095313401115
 30
0.0
 41
0.9986467172838226
 10
935.97007776972077
 20
-1383.0611653064807
 30
0.0
 41
1.0
 10
935.9692036410205
 20
-1383.0600867042031
 30
0.0
 41
1.0
 10
935.96832951232022
 20
-1383.0590081019254
 30
0.0
 41
1.0
 10
935.93088061708363
 20
-1383.0127992728517
 30
0.0
 41
0.9984001104268876
 10
935.88845388656614
 20
-1382.9711141654825
 30
0.0
 41
1.0
 10
935.8878667484571
 20
-1382.9705372906017
 30
0.0
 41
1.0
 10
935.88727961034817
 20
-1382.9699604157208
 30
0.0
 41
1.0
 10
935.84602715604899
 20
-1382.9294290581136
 30
0.0
 41
0.9982442159081578
 10
935.80027105471345
 20
-1382.8940604968534
 30
0.0
 41
1.0
 10
935.80005625925128
 20
-1382.89389446421
 30
0.0
 41
1.0
 10
935.79984146378911
 20
-1382.8937284315664
 30
0.0
 41
1.0
 10
935.75451495337745
 20
-1382.858691935593
 30
0.0
 41
0.9982450060836486
 10
935.70536397430601
 20
-1382.8292601525595
 30
0.0
 41
1.0
 10
935.6562129952348
 20
-1382.7998283695263
 30
0.0
 41
0.9983922639635501
 10
935.60404668906961
 20
-1382.7761487348721
 30
0.0
 41
1.0
 10
935.6038198117451
 20
-1382.7760457493905
 30
0.0
 41
1.0
 10
935.60359293442048
 20
-1382.7759427639091
 30
0.0
 41
1.0
 10
935.55097287360672
 20
-1382.7520571582922
 30
0.0
 41
0.9986517147149902
 10
935.49615990073903
 20
-1382.7337560391707
 30
0.0
 41
1.0
 10
935.49548197931108
 20
-1382.733529692739
 30
0.0
 41
1.0
 10
935.49480405788313
 20
-1382.7333033463076
 30
0.0
 41
1.0
 10
935.43863524216113
 20
-1382.7145495343236
 30
0.0
 41
0.9989435598957179
 10
935.38098185501121
 20
-1382.7010318320893
 30
0.0
 41
1.0
 10
935.37990173542789
 20
-1382.7007785818359
 30
0.0
 41
1.0
 10
935.37882161584457
 20
-1382.7005253315824
 30
0.0
 41
1.0
 10
935.31900798953041
 20
-1382.6865011288421
 30
0.0
 41
0.9992249241240282
 10
935.25827648063387
 20
-1382.6772257861269
 30
0.0
 41
1.0
 10
935.25686279234219
 20
-1382.6770098777188
 30
0.0
 41
1.0
 10
935.2554491040504
 20
-1382.6767939693109
 30
0.0
 41
1.0
 10
935.19189021857142
 20
-1382.6670868097801
 30
0.0
 41
0.9994396597833496
 10
935.12782428203582
 20
-1382.6616538874348
 30
0.0
 41
1.0
 10
935.10868361455709
 20
-1382.6600307197159
 30
0.0
 41
1.0
 10
935.08954294707837
 20
-1382.6584075519972
 30
0.0
 41
1.0
 10
934.98719567558669
 20
-1382.6497282942141
 30
0.0
 41
0.9987693403121644
 10
934.88449205200061
 20
-1382.6512313576666
 30
0.0
 41
1.0
 10
934.87423771777162
 20
-1382.6513814294408
 30
0.0
 41
1.0
 10
934.86398338354263
 20
-1382.651531501215
 30
0.0
 41
1.0
 10
934.75442761736463
 20
-1382.6531348455026
 30
0.0
 41
0.9989753644966266
 10
934.64546561734892
 20
-1382.6646378524279
 30
0.0
 41
1.0
 10
934.53650361733276
 20
-1382.6761408593529
 30
0.0
 41
0.9983190067305882
 10
934.4296048063685
 20
-1382.7001758511394
 30
0.0
 41
1.0
 10
934.42070385476131
 20
-1382.7021771297022
 30
0.0
 41
1.0
 10
934.41180290315401
 20
-1382.7041784082651
 30
0.0
 41
1.0
 10
934.28710218897413
 20
-1382.7322159571775
 30
0.0
 41
0.998553938830252
 10
934.16613243529514
 20
-1382.7734796332238
 30
0.0
 41
1.0
 10
934.16378700433609
 20
-1382.7742796770392
 30
0.0
 41
1.0
 10
934.16144157337703
 20
-1382.7750797208546
 30
0.0
 41
1.0
 10
934.03578095777846
 20
-1382.8179434845317
 30
0.0
 41
0.9988468746493381
 10
933.91481061547881
 20
-1382.8726615695939
 30
0.0
 41
1.0
 10
933.91162779348974
 20
-1382.874101244154
 30
0.0
 41
1.0
 10
933.90844497150078
 20
-1382.875540918714
 30
0.0
 41
1.0
 10
933.78110898522471
 20
-1382.9331383528956
 30
0.0
 41
0.9991322885919163
 10
933.65900840116763
 20
-1383.0011336850775
 30
0.0
 41
1.0
 10
933.64140639012498
 20
-1383.0109358870666
 30
0.0
 41
1.0
 10
933.62380437908234
 20
-1383.0207380890556
 30
0.0
 41
1.0
 10
933.52162769802351
 20
-1383.0776382048373
 30
0.0
 41
0.9993860037850019
 10
933.42368669394784
 20
-1383.141554220427
 30
0.0
 41
1.0
 10
933.41806838109346
 20
-1383.1452207151233
 30
0.0
 41
1.0
 10
933.41245006823908
 20
-1383.1488872098196
 30
0.0
 41
1.0
 10
933.32574568987059
 20
-1383.2054702360178
 30
0.0
 41
0.9998821494954848
 10
933.24081931406158
 20
-1383.2646884660921
 30
0.0
 41
1.0
 10
933.1558929382503
 20
-1383.323906696168
 30
0.0
 41
0.9997976482744176
 10
933.07341730785049
 20
-1383.3864931042067
 30
0.0
 41
1.0
 10
933.05878104304293
 20
-1383.3975997939885
 30
0.0
 41
1.0
 10
933.04414477823536
 20
-1383.4087064837704
 30
0.0
 41
1.0
 10
932.93239661821985
 20
-1383.4935062713732
 30
0.0
 41
0.9998091630800574
 10
932.82404634018781
 20
-1383.5826066220784
 30
0.0
 41
1.0
 10
932.81104058771371
 20
-1383.5933017225218
 30
0.0
 41
1.0
 10
932.7980348352396
 20
-1383.6039968229652
 30
0.0
 41
1.0
 10
932.66367305225504
 20
-1383.7144873745608
 30
0.0
 41
0.9995035112317003
 10
932.53653717449095
 20
-1383.8332211915763
 30
0.0
 41
1.0
 10
932.52688986410521
 20
-1383.8422309377329
 30
0.0
 41
1.0
 10
932.51724255371937
 20
-1383.8512406838893
 30
0.0
 41
1.0
 10
932.39381949095434
 20
-1383.9665070556453
 30
0.0
 41
0.9994630424299775
 10
932.27821108517014
 20
-1384.0896097988805
 30
0.0
 41
1.0
 10
932.27452824640216
 20
-1384.0935313783898
 30
0.0
 41
1.0
 10
932.27084540763417
 20
-1384.0974529578991
 30
0.0
 41
1.0
 10
932.16260267939083
 20
-1384.2127125421107
 30
0.0
 41
0.9995160693750168
 10
932.0617366498542
 20
-1384.3344799599881
 30
0.0
 41
1.0
 10
932.05980292977119
 20
-1384.336814384199
 30
0.0
 41
1.0
 10
932.05786920968831
 20
-1384.3391488084098
 30
0.0
 41
1.0
 10
931.96087062032052
 20
-1384.4562473778628
 30
0.0
 41
0.9996561470513854
 10
931.87014440165638
 20
-1384.57827014031
 30
0.0
 41
1.0
 10
931.86398673575559
 20
-1384.5865519293507
 30
0.0
 41
1.0
 10
931.85782906985492
 20
-1384.5948337183911
 30
0.0
 41
1.0
 10
931.77941818299144
 20
-1384.7002929027578
 30
0.0
 41
0.9998349055171676
 10
931.70489090105821
 20
-1384.8085314864225
 30
0.0
 41
1.0
 10
931.63036361912896
 20
-1384.9167700700818
 30
0.0
 41
0.9999728109555216
 10
931.55744072323057
 20
-1385.0260959956192
 30
0.0
 41
1.0
 10
931.55612550781143
 20
-1385.0280677651326
 30
0.0
 41
1.0
 10
931.5548102923924
 20
-1385.0300395346462
 30
0.0
 41
1.0
 10
931.47925696565471
 20
-1385.1433089992126
 30
0.0
 41
0.9999972147367381
 10
931.40423915525832
 20
-1385.2569338420822
 30
0.0
 41
1.0
 10
931.39926761264917
 20
-1385.2644639305345
 30
0.0
 41
1.0
 10
931.39429607004001
 20
-1385.2719940189868
 30
0.0
 41
1.0
 10
931.30933517441463
 20
-1385.4006790387773
 30
0.0
 41
0.9999371979003241
 10
931.22727982500521
 20
-1385.5312359525635
 30
0.0
 41
1.0
 10
931.22377094064905
 20
-1385.5368188806196
 30
0.0
 41
1.0
 10
931.220262056293
 20
-1385.5424018086755
 30
0.0
 41
1.0
 10
931.13118893816397
 20
-1385.6841245785849
 30
0.0
 41
0.9998272025610436
 10
931.0474455472837
 20
-1385.829060455324
 30
0.0
 41
1.0
 10
931.03223037525891
 20
-1385.8553935697819
 30
0.0
 41
1.0
 10
931.01701520323422
 20
-1385.8817266842398
 30
0.0
 41
1.0
 10
930.90284146830277
 20
-1386.0793287898982
 30
0.0
 41
0.9995217214838383
 10
930.80110177874622
 20
-1386.2836111177623
 30
0.0
 41
1.0
 10
930.79345821611173
 20
-1386.2989585674641
 30
0.0
 41
1.0
 10
930.78581465347725
 20
-1386.314306017166
 30
0.0
 41
1.0
 10
930.69890936088825
 20
-1386.4888024752458
 30
0.0
 41
0.999826976260801
 10
930.61855489461664
 20
-1386.6664107619686
 30
0.0
 41
1.0
 10
930.53820042834661
 20
-1386.8440190486872
 30
0.0
 41
0.9998944747387452
 10
930.46303963378386
 20
-1387.0238867743117
 30
0.0
 41
1.0
 10
930.4580859641959
 20
-1387.0357414292214
 30
0.0
 41
1.0
 10
930.45313229460794
 20
-1387.0475960841311
 30
0.0
 41
1.0
 10
930.37248523404992
 20
-1387.2405930241623
 30
0.0
 41
0.9999506734413592
 10
930.29568770514084
 20
-1387.4351538290316
 30
0.0
 41
1.0
 10
930.28108773986719
 20
-1387.4721417508447
 30
0.0
 41
1.0
 10
930.26648777459343
 20
-1387.5091296726578
 30
0.0
 41
1.0
 10
930.21889017623653
 20
-1387.6297146338893
 30
0.0
 41
0.9999912393911129
 10
930.17230373221469
 20
-1387.7506938365834
 30
0.0
 41
1.0
 10
930.12571728819262
 20
-1387.8716730392784
 30
0.0
 41
0.9999927113971859
 10
930.08005599379908
 20
-1387.9930044467783
 30
0.0
 41
1.0
 10
930.06608756240087
 20
-1388.0301214287788
 30
0.0
 41
1.0
 10
930.05211913100266
 20
-1388.0672384107791
 30
0.0
 41
1.0
 10
929.97852097381531
 20
-1388.2628037822724
 30
0.0
 41
0.9999487550948645
 10
929.90889734884252
 20
-1388.4598191474579
 30
0.0
 41
1.0
 10
929.88530373890285
 20
-1388.5265824577586
 30
0.0
 41
1.0
 10
929.86171012896318
 20
-1388.5933457680592
 30
0.0
 41
1.0
 10
929.76702449459799
 20
-1388.8612796028685
 30
0.0
 41
0.9999808436931066
 10
929.67566290595551
 20
-1389.1303650341363
 30
0.0
 41
1.0
 10
929.58430131731359
 20
-1389.3994504654022
 30
0.0
 41
0.9999873932889801
 10
929.49564660860153
 20
-1389.6694398203974
 30
0.0
 41
1.0
 10
929.47555425172936
 20
-1389.7306291531586
 30
0.0
 41
1.0
 10
929.45546189485731
 20
-1389.79181848592
 30
0.0
 41
1.0
 10
929.32662247239364
 20
-1390.1841865064594
 30
0.0
 41
0.9999794883040786
 10
929.20281968743313
 20
-1390.5781727127464
 30
0.0
 41
1.0
 10
929.19166742799166
 20
-1390.6136633229958
 30
0.0
 41
1.0
 10
929.1805151685503
 20
-1390.6491539332451
 30
0.0
 41
1.0
 10
929.03795700466799
 20
-1391.1028266852836
 30
0.0
 41
0.9999982761843153
 10
928.89708456465473
 20
-1391.5570257074003
 30
0.0
 41
1.0
 10
927.30894423208213
 20
-1396.6057954384037
 30
0.0
 41
1.0
 10
925.72080389950952
 20
-1401.6545651694069
 30
0.0
 41
1.0
 10
924.77205328803313
 20
-1401.6545651694069
 30
0.0
 41
1.0
 10
923.82330267655675
 20
-1401.6545651694069
 30
0.0
 41
1.0
 10
927.06158716270988
 20
-1391.3272429694607
 30
0.0
 41
1.0
 10
930.29987164886313
 20
-1380.9999207695146
 30
0.0
 41
1.0
  0
LWPOLYLINE
  5
62
100
AcDbEntity
  8
0
370
              15
390
0
  6
Continuous
 62
               7
100
AcDbPolyline
 90
      232
 70
             128
 10
904.59632587503609
 20
-1382.0842636010298
 42
0.00043708006918
 10
904.54344870105399
 20
-1382.1529302401691
 10
904.50416446983661
 20
-1382.2040373531827
 42
0.0030481992176604
 10
904.37382575271351
 20
-1382.375759045532
 10
904.33531408096701
 20
-1382.4271458293149
 42
0.0042058245762251
 10
904.13132903029418
 20
-1382.7041515743929
 10
904.07892390779648
 20
-1382.7765844211694
 42
0.0120948898744363
 10
903.78287999103259
 20
-1383.207334025722
 10
903.68668749191511
 20
-1383.3548147609401
 42
0.0141601263945993
 10
903.38304344499113
 20
-1383.8504840976786
 10
903.343506177569
 20
-1383.9193280651039
 42
0.0071131081303369
 10
903.1382338543267
 20
-1384.2888308639485
 42
0.0068458791002697
 10
902.94335432748414
 20
-1384.6639224274238
 10
902.93654246502592
 20
-1384.6774841411484
 42
0.0064120880289786
 10
902.73840021498404
 20
-1385.084908616062
 10
902.73086552946461
 20
-1385.1009204727884
 42
0.0058857236449674
 10
902.52811013758901
 20
-1385.5452965838322
 10
902.51993521129896
 20
-1385.5637867374573
 42
0.0053189741896744
 10
902.31123089863581
 20
-1386.0497502113647
 10
902.30248309295007
 20
-1386.0707320895713
 42
0.0047503650419223
 10
902.08650936679771
 20
-1386.602931522785
 10
902.07724111845118
 20
-1386.6264078988888
 42
0.0042071762170301
 10
901.85269373471783
 20
-1387.2095014929735
 10
901.84294433237483
 20
-1387.2354676678283
 42
0.0036680086484485
 10
901.60848968906907
 20
-1387.8741030523422
 10
901.59828190921496
 20
-1387.9025515867042
 42
0.0032573142628126
 10
901.35264962324857
 20
-1388.6014042464567
 10
901.28399910239932
 20
-1388.8008673305346
 42
0.0026133366649961
 10
900.93555390364963
 20
-1389.8307306141824
 10
900.87229711615259
 20
-1390.0209614495643
 42
0.0020592950739127
 10
900.6584340471818
 20
-1390.6730651021885
 10
900.65538225603382
 20
-1390.6825015905515
 42
0.0025609928533711
 10
900.45356175453287
 20
-1391.3176468129641
 10
900.450970387398
 20
-1391.3259491539309
 42
0.0031362356241248
 10
900.26147960172921
 20
-1391.9467120100842
 10
900.25934855880269
 20
-1391.9538533162925
 42
0.0037229918028482
 10
900.08254817187549
 20
-1392.5628386182693
 10
900.08086958267381
 20
-1392.568785508427
 42
0.0043077623705865
 10
899.917128780604
 20
-1393.168604240213
 42
0.0047654161823734
 10
899.76430005808743
 20
-1393.7712903291172
 10
899.72983544924887
 20
-1393.9128521062648
 42
0.0112969368445042
 10
899.53397109110392
 20
-1394.8045442668963
 10
899.50596470200867
 20
-1394.947372312987
 42
0.0130056762570154
 10
899.30512745836199
 20
-1396.1343133846319
 10
899.28458770821499
 20
-1396.2783914981087
 42
0.013872153214468
 10
899.18088470367707
 20
-1397.1852209839346
 10
899.16158921576914
 20
-1397.4087187058599
 42
0.007125469700719
 10
899.12824256984663
 20
-1397.8719057147068
 10
899.1232815956821
 20
-1397.9579097092892
 42
0.0028881799200891
 10
899.1081433023935
 20
-1398.2496514191098
 42
0.0060297297137943
 10
899.09821110261794
 20
-1398.5416003552261
 10
899.09714882095079
 20
-1398.5899927271569
 42
0.0229523164155618
 10
899.10487984873657
 20
-1398.9127475734413
 10
899.10910562225672
 20
-1398.9731511074549
 42
0.0123673300668758
 10
899.12818426877527
 20
-1399.1742718326323
 42
0.0128577674466563
 10
899.15737965918152
 20
-1399.3741696825584
 10
899.16450553256857
 20
-1399.415498497156
 42
0.0285717853764509
 10
899.22899953426474
 20
-1399.6936146484709
 10
899.2426680579307
 20
-1399.7402694179464
 42
0.031628309915338
 10
899.35847863784488
 20
-1400.0592839197723
 10
899.36152732960022
 20
-1400.0662702920974
 42
0.0338984824240389
 10
899.51095904056763
 20
-1400.353836256287
 10
899.51326776993767
 20
-1400.3576272855632
 42
0.035022871835448
 10
899.69562806061106
 20
-1400.6146792702398
 10
899.69651331238572
 20
-1400.6157583480033
 42
0.0347476747529581
 10
899.91093799962619
 20
-1400.8429433952238
 42
0.0331337701910128
 10
900.15418132537354
 20
-1401.0390720573021
 10
900.15528142388871
 20
-1401.0398447604739
 42
0.0305233319081317
 10
900.42382611946209
 20
-1401.204972930565
 10
900.42705616396324
 20
-1401.2066969424277
 42
0.0273744481153691
 10
900.71960987553746
 20
-1401.3428350863182
 10
900.72471441067512
 20
-1401.3448786707879
 42
0.024096440619716
 10
901.04019148632028
 20
-1401.4538623970689
 10
901.04677481553085
 20
-1401.4557871367442
 42
0.0209636179814765
 10
901.3841749681834
 20
-1401.5392552846763
 10
901.39180742863209
 20
-1401.5408071976779
 42
0.0181388704693636
 10
901.7501298206306
 20
-1401.6002232908918
 10
901.75841066900875
 20
-1401.6012894747089
 42
0.0156086547585885
 10
902.1365980331949
 20
-1401.6380256612854
 10
902.17979328552667
 20
-1401.6408641637647
 42
0.0137148329023724
 10
902.50746643082346
 20
-1401.6533844190158
 10
902.553402620773
 20
-1401.6538788521311
 42
0.0051057823885673
 10
902.78954820734168
 20
-1401.6540091065403
 42
0.0052256693309587
 10
903.02564549113129
 20
-1401.6492602820758
 10
903.09587227486975
 20
-1401.6471133160619
 42
0.0161507179049988
 10
903.47160935297245
 20
-1401.6234629457351
 10
903.49162231334412
 20
-1401.6215527504478
 42
0.0101216737833042
 10
903.90564953482965
 20
-1401.5735598200829
 10
903.93970282426153
 20
-1401.5689121232726
 42
0.0245291776399851
 10
904.41649247981456
 20
-1401.4798370451958
 10
904.50131579534184
 20
-1401.4596411248492
 42
0.0143509212562259
 10
904.85794689927627
 20
-1401.3638364910717
 42
0.0156557857040047
 10
905.20816296400324
 20
-1401.2468252752531
 10
905.21566417849817
 20
-1401.2440551134987
 42
0.0170137333630848
 10
905.57226017417986
 20
-1401.0983974986275
 10
905.57936409658703
 20
-1401.095209663064
 42
0.0183105364409862
 10
905.93871376475556
 20
-1400.9178746212385
 10
905.94566052939206
 20
-1400.9141241863676
 42
0.0194899958150673
 10
906.30414127038034
 20
-1400.7021452044742
 10
906.3111551497127
 20
-1400.6976198621819
 42
0.0204869852950584
 10
906.66516945180808
 20
-1400.4480998470949
 10
906.6724350603937
 20
-1400.4425197817477
 42
0.0212516938557837
 10
907.01842499150496
 20
-1400.15261578485
 10
907.06494168557822
 20
-1400.1101484747585
 42
0.0215248918254927
 10
907.32496785446506
 20
-1399.8513841957647
 10
907.3699975888502
 20
-1399.80254007441
 42
0.0114578554954461
 10
907.5247897425229
 20
-1399.6267171409568
 10
907.53598427850784
 20
-1399.6133983774134
 42
0.0061531305127332
 10
907.66245892450399
 20
-1399.4591088441057
 42
0.0006325587119093
 10
907.78683740867109
 20
-1399.3031054684104
 10
907.80987754370722
 20
-1399.2741319477705
 42
0.004189776155674
 10
907.97833294769191
 20
-1399.0586125716932
 10
908.03679506757214
 20
-1398.9825112247236
 42
0.0092993880035431
 10
908.31340699479074
 20
-1398.6082324608467
 10
908.39580148799314
 20
-1398.4922954572733
 42
0.0159321727084709
 10
908.74240797063715
 20
-1397.9701212365148
 10
908.78676410603055
 20
-1397.8984416722576
 42
0.0085547317025967
 10
909.02127587135192
 20
-1397.5045667230402
 42
0.008460115688978
 10
909.24225204879667
 20
-1397.1029398740034
 10
909.2503675226244
 20
-1397.087580191735
 42
0.0081429654285171
 10
909.47361679306232
 20
-1396.6478586791934
 10
909.48247695724592
 20
-1396.629679837175
 42
0.0076574581326982
 10
909.70888446781578
 20
-1396.1464969619149
 10
909.71836410853632
 20
-1396.1254324836186
 42
0.0070682724199196
 10
909.94880901634474
 20
-1395.5933951788338
 10
909.95879930032481
 20
-1395.569405989826
 42
0.0064559514448393
 10
910.19413250850755
 20
-1394.9830937233041
 10
910.20454186667143
 20
-1394.9561587978646
 42
0.0058311413908541
 10
910.44558860343727
 20
-1394.3101267034729
 10
910.45634368082176
 20
-1394.2802423623207
 42
0.0052312425820224
 10
910.70392495886938
 20
-1393.5690399484658
 10
910.71496879524238
 20
-1393.5362132364162
 42
0.0046680544796619
 10
910.96989722297758
 20
-1392.7543869206595
 10
911.01188937302425
 20
-1392.6214036833571
 42
0.0041666856448088
 10
911.21517538541548
 20
-1391.9584349083639
 10
911.25283782609449
 20
-1391.831853800659
 42
0.0015170975154942
 10
911.37402440449227
 20
-1391.4199854492165
 42
-0.0004887993116176
 10
911.49436417762604
 20
-1391.0078670371383
 10
911.57084143511042
 20
-1390.7469096512334
 42
0.0002583378927851
 10
911.84405600507705
 20
-1389.812852948389
 10
911.92582885472928
 20
-1389.532753688547
 42
0.0006636169672152
 10
912.11969661476269
 20
-1388.8654007648843
 10
912.12479326911773
 20
-1388.8477691819764
 42
0.0010589131326145
 10
912.30624197002635
 20
-1388.2150378389554
 10
912.31122404050279
 20
-1388.1975249319496
 42
0.0015655524460774
 10
912.47949424768967
 20
-1387.5989082527344
 10
912.48432444810624
 20
-1387.5815160937927
 42
0.0021640440476132
 10
912.63861442009056
 20
-1387.0164890757806
 10
912.64324863951163
 20
-1386.9992243458198
 42
0.0028763871847081
 10
912.78276435757357
 20
-1386.4672563949396
 10
912.78715022173515
 20
-1386.4501324168073
 42
0.0037310511941288
 10
912.91110691357767
 20
-1385.9506848227611
 10
912.91518213386667
 20
-1385.9337245515155
 42
0.0047652197769687
 10
913.02280603437509
 20
-1385.4662467832106
 10
913.02649663369868
 20
-1385.4494872280598
 42
0.0060276699297912
 10
913.11702673285208
 20
-1385.0134114329164
 10
913.12024542314077
 20
-1384.9969102186094
 42
0.007582433775656
 10
913.19293473255675
 20
-1384.5916430541811
 10
913.19558010993705
 20
-1384.5754881067301
 42
0.0095130624606297
 10
913.24969534556817
 20
-1384.2003987536586
 10
913.25668156945062
 20
-1384.1444651955437
 42
0.0121054653224597
 10
913.28327290002869
 20
-1383.8795693670684
 10
913.28413938978804
 20
-1383.8681659241411
 42
0.0069050827379021
 10
913.29922820782599
 20
-1383.6252246972949
 10
913.30036350749458
 20
-1383.6016984402484
 42
0.0169063976704026
 10
913.30319078647472
 20
-1383.4055057129494
 10
913.30202013494363
 20
-1383.3451699516074
 42
0.0052007732895182
 10
913.29976668635049
 20
-1383.2695765614483
 42
0.0054038123297097
 10
913.27980317451056
 20
-1383.1495582654318
 10
913.27471731864125
 20
-1383.1208997788572
 42
0.0112050460460972
 10
913.23933295658264
 20
-1382.9445733405182
 10
913.22150799454198
 20
-1382.8650317537972
 42
0.0240764468009848
 10
913.13061062839597
 20
-1382.5347947182966
 10
913.11205186558243
 20
-1382.4781745533023
 42
0.0256812331839193
 10
912.96868894539284
 20
-1382.106450347045
 10
912.96327951957107
 20
-1382.0943190120545
 42
0.0268360501217235
 10
912.7938522787216
 20
-1381.7633258780343
 10
912.78831587108664
 20
-1381.7538062077219
 42
0.0274670231727312
 10
912.59611489467329
 20
-1381.4615188328048
 10
912.59073359471142
 20
-1381.4542396852644
 42
0.0275035967100847
 10
912.37916071514883
 20
-1381.1987237949593
 10
912.37409121418193
 20
-1381.1932447073284
 42
0.0269557673525015
 10
912.14668767074272
 20
-1380.9726024213664
 10
912.14194461296029
 20
-1380.9684724669057
 42
0.0259124802206552
 10
911.90238978152934
 20
-1380.7807819397535
 10
911.89785893634735
 20
-1380.7775964374232
 42
0.0245162153005624
 10
911.6499425832526
 20
-1380.6208634283125
 10
911.64541603692874
 20
-1380.6183032311119
 42
0.0229282588837893
 10
911.39299648010103
 20
-1380.4904350386128
 10
911.38821598626555
 20
-1380.4882827388515
 42
0.0212984135691825
 10
911.1351780338025
 20
-1380.3870838216085
 10
911.12987374883528
 20
-1380.3852202588494
 42
0.0197555462338799
 10
910.88009541111001
 20
-1380.3084048408837
 42
0.0183511896790581
 10
910.62516668564308
 20
-1380.2508219339177
 10
910.53880148892642
 20
-1380.2346191435338
 42
0.033805787714828
 10
910.25329413966358
 20
-1380.2008107383931
 10
910.16228873462262
 20
-1380.1962310831316
 42
0.0091990524492936
 10
910.05644162598765
 20
-1380.1928552272095
 42
0.0028333980775131
 10
909.95052770997222
 20
-1380.1920271196925
 10
909.94961225694533
 20
-1380.1920251498686
 42
-0.0023619827806215
 10
909.84186624183565
 20
-1380.1912843087903
 10
909.80546107166356
 20
-1380.1908620023273
 42
0.0008824598484826
 10
909.62490508177154
 20
-1380.1890862240887
 10
909.58104364940777
 20
-1380.1887322625635
 42
0.0038132665772441
 10
909.31276075352901
 20
-1380.1886133264968
 10
909.29622709873547
 20
-1380.1887320926403
 42
0.0060665569336048
 10
908.99494660713924
 20
-1380.1945523920613
 10
908.98069627511882
 20
-1380.1950007000287
 42
0.0080356953336938
 10
908.65123755877096
 20
-1380.210668422096
 10
908.63916754369234
 20
-1380.211437005036
 42
0.0098996399105223
 10
908.28640445904944
 20
-1380.2409222342335
 10
908.27635874966677
 20
-1380.2419625304324
 42
0.0117740981367509
 10
907.90520189131985
 20
-1380.289254777962
 10
907.89697919483547
 20
-1380.290499894533
 42
0.0137435215132786
 10
907.51239037535026
 20
-1380.3595968680945
 10
907.50573333622697
 20
-1380.3609827643281
 42
0.0158359869385506
 10
907.11273624242347
 20
-1380.4558748528093
 10
907.10732305555734
 20
-1380.4573647936795
 42
0.0180554124026403
 10
906.7110080109444
 20
-1380.5820028099183
 10
906.70645122286157
 20
-1380.5836188461844
 42
0.0203657431284279
 10
906.31197370504833
 20
-1380.7418791877012
 10
906.30783016604289
 20
-1380.7437408091423
 42
0.0226819684655237
 10
905.92039410983978
 20
-1380.9393833878128
 10
905.91619431882111
 20
-1380.9417489797329
 42
0.0248634984606655
 10
905.5410123776411
 20
-1381.1783756256796
 10
905.492817448854
 20
-1381.2122326675074
 42
0.0267044190886246
 10
905.21852475193941
 20
-1381.4276730433739
 42
0.0139303002200621
 10
904.96235758599551
 20
-1381.6649118842911
 10
904.95750420027969
 20
-1381.6696645471461
 42
0.0283460963436001
 10
904.71343160605625
 20
-1381.9373952075866
 10
904.67376310089594
 20
-1381.9861967850643
 42
0.0070695364826246
 10
904.59632587503609
 20
-1382.0842636010298
 42
0.0070695364826246
  0
LWPOLYLINE
  5
63
100
AcDbEntity
  8
0
370
              15
390
0
  6
Continuous
 62
               7
100
AcDbPolyline
 90
      226
 70
             128
 10
901.06750543778969
 20
-1397.8058524072137
 42
-0.0026277636632804
 10
901.06742755398966
 20
-1397.7390804814836
 10
901.06764491222168
 20
-1397.6859252640274
 42
-0.0088680296723304
 10
901.07142152851509
 20
-1397.512909481615
 10
901.07376788762713
 20
-1397.4536294561708
 42
-0.0077381705617262
 10
901.08981399838967
 20
-1397.1623689603819
 10
901.09068190956339
 20
-1397.1500807266875
 42
-0.0068872530534656
 10
901.11731398931227
 20
-1396.8348589746117
 10
901.11851821349762
 20
-1396.8226179956
 42
-0.0062130021484114
 10
901.15611193032623
 20
-1396.4837483043548
 10
901.15761583386052
 20
-1396.4715744324449
 42
-0.0056726929665913
 10
901.20653769336298
 20
-1396.1093792103304
 10
901.20831113900726
 20
-1396.097285410086
 42
-0.0052341884492143
 10
901.26892172526743
 20
-1395.712092154567
 10
901.27093971404383
 20
-1395.7000872245758
 42
-0.0049768450166541
 10
901.34367839546996
 20
-1395.2922426571445
 10
901.36792741019201
 20
-1395.1636946741373
 42
-0.0089029805627004
 10
901.50500826198595
 20
-1394.5019192267187
 10
901.53775363730529
 20
-1394.3568877961914
 42
-0.0080318257100889
 10
901.76730225164704
 20
-1393.4111781643337
 10
901.77928717809425
 20
-1393.3650475291474
 42
-0.007426572131774
 10
902.06329871694322
 20
-1392.3349829507704
 10
902.08317826006112
 20
-1392.2668488901768
 42
-0.0069711922702723
 10
902.41048283856753
 20
-1391.2005811498498
 10
902.4704347856748
 20
-1391.0145597914739
 42
-0.0052070422895317
 10
902.6998600109323
 20
-1390.3272877144477
 10
902.71714120308479
 20
-1390.2772604338877
 42
-0.0009167004449604
 10
902.92023309039405
 20
-1389.6928045856766
 42
-0.0025162726944014
 10
903.12733072066624
 20
-1389.109763321487
 10
903.16455533246358
 20
-1389.0066137756041
 42
-0.0028212681456549
 10
903.41273125142516
 20
-1388.3308831434374
 10
903.42256201417706
 20
-1388.3045756987572
 42
-0.00319649168197
 10
903.65885427183809
 20
-1387.6843709366337
 10
903.66848872583705
 20
-1387.6595609464905
 42
-0.0036281836451468
 10
903.89359468693829
 20
-1387.0921202655973
 10
903.90303309709111
 20
-1387.0688228341057
 42
-0.0041269166833606
 10
904.11765079375493
 20
-1386.5513819381163
 10
904.150283750178
 20
-1386.4745034917498
 42
-0.004747221305633
 10
904.30732855572933
 20
-1386.1140820238718
 10
904.31422263694162
 20
-1386.0986614265307
 42
-0.0025651659995856
 10
904.4625806707877
 20
-1385.7713333707914
 42
-0.0057144634997914
 10
904.61633036455635
 20
-1385.446523697434
 10
904.64436106995845
 20
-1385.389015315038
 42
-0.0065388068371621
 10
904.82782809770003
 20
-1385.0247828183697
 10
904.83628655347616
 20
-1385.0085232390047
 42
-0.0074510843023604
 10
905.01246879935638
 20
-1384.6818349578775
 10
905.02064846988765
 20
-1384.6671941806082
 42
-0.0084648979863799
 10
905.19028232298751
 20
-1384.3752851696474
 10
905.19813844947976
 20
-1384.3622781779895
 42
-0.0095638542806574
 10
905.36197389706979
 20
-1384.102389306018
 10
905.36944884074205
 20
-1384.0910199445618
 42
-0.0107191626804305
 10
905.52825042112909
 20
-1383.8604087100184
 10
905.53526715486066
 20
-1383.8506726176531
 42
-0.0118458573900212
 10
905.68981525337267
 20
-1383.6466004223432
 42
-0.0129184518183346
 10
905.85426787697918
 20
-1383.4504399061673
 10
905.88441264933613
 20
-1383.4163138272747
 42
-0.0217742579634461
 10
906.06102497167262
 20
-1383.2331070570231
 10
906.07177051613792
 20
-1383.2228902238155
 42
-0.0097266568643818
 10
906.23782813498883
 20
-1383.0710426493829
 42
-0.0187720905726754
 10
906.41217571087157
 20
-1382.9289737959989
 10
906.44288170154414
 20
-1382.9058147136038
 42
-0.0179428207525754
 10
906.67530242154862
 20
-1382.7432625364859
 10
906.67895474846989
 20
-1382.7408986015946
 42
-0.0170047877695237
 10
906.91471838599477
 20
-1382.5994380874467
 10
906.91850137474137
 20
-1382.5973397824105
 42
-0.0160190788371043
 10
907.15540992237663
 20
-1382.4756884804224
 42
-0.0151102861490168
 10
907.39944170482681
 20
-1382.3690057043661
 10
907.45182820703508
 20
-1382.347965571473
 42
-0.0271945441888136
 10
907.81049076609088
 20
-1382.2261007607676
 10
907.87955556658358
 20
-1382.2067512195001
 42
-0.0237596594020285
 10
908.29535241360395
 20
-1382.111300507519
 10
908.36341526733509
 20
-1382.0990458193921
 42
-0.0213715440552485
 10
908.64929019877968
 20
-1382.0600987878825
 10
908.70943736500101
 20
-1382.0545090731814
 42
-0.0101465655818766
 10
908.87692989699178
 20
-1382.0423655299173
 10
908.88627028318558
 20
-1382.0418786149203
 42
-0.0100375910878091
 10
909.03542438375257
 20
-1382.037102796995
 10
909.04568365343493
 20
-1382.0369803579806
 42
-0.0103625633382346
 10
909.17439164808775
 20
-1382.0381117915072
 10
909.19665729934934
 20
-1382.0387691499718
 42
-0.0115689250229415
 10
909.28070803688263
 20
-1382.0431986562171
 42
-0.0072438037421431
 10
909.36454631632796
 20
-1382.0507878559672
 10
909.38134682579459
 20
-1382.0525543986907
 42
-0.0217917313128862
 10
909.49791658910976
 20
-1382.0699742914121
 10
909.56351667967806
 20
-1382.0827208998269
 42
-0.033294355675066
 10
909.76790884470324
 20
-1382.1367611911332
 10
909.79808141325407
 20
-1382.1469292682521
 42
-0.0184824084792994
 10
909.9365864697188
 20
-1382.1993802836382
 42
-0.0198002050686857
 10
910.07066081021776
 20
-1382.2622643438374
 10
910.07254744759507
 20
-1382.2632421307176
 42
-0.0212242342980382
 10
910.20468638999489
 20
-1382.3390048695094
 10
910.20650168554039
 20
-1382.3401506717191
 42
-0.0226090605801171
 10
910.33500558676224
 20
-1382.4296303152837
 10
910.33685002849961
 20
-1382.4310425682711
 42
-0.0238457052245656
 10
910.46003210979143
 20
-1382.5350384641324
 10
910.46198483835155
 20
-1382.5368533418996
 42
-0.0248160564153177
 10
910.57818634565251
 20
-1382.6561279431087
 10
910.58028997905421
 20
-1382.6585132768128
 42
-0.0254109591458514
 10
910.68789519692041
 20
-1382.7938016627775
 10
910.69014321883424
 20
-1382.7969432111777
 42
-0.0255528488293472
 10
910.78758989763105
 20
-1382.9489702654109
 10
910.7899209975476
 20
-1382.9530518770193
 42
-0.0252146793224244
 10
910.87570202355607
 20
-1383.1225541230151
 10
910.87800426271428
 20
-1383.1277362049293
 42
-0.024426563594833
 10
910.95065895647622
 20
-1383.3154827769772
 10
910.95990535794306
 20
-1383.3433481953102
 42
-0.0231319612911945
 10
911.0058281369362
 20
-1383.5066492421154
 42
-0.0112130424352965
 10
911.04046415947619
 20
-1383.6728528423125
 10
911.04166668458697
 20
-1383.6793494291915
 42
-0.0210527881241649
 10
911.06735315995775
 20
-1383.860405074633
 10
911.07086375477957
 20
-1383.8958106231798
 42
-0.019002989243123
 10
911.08630522832402
 20
-1384.149346469447
 10
911.08711520476822
 20
-1384.184822083821
 42
-0.0137974553663828
 10
911.08556635193281
 20
-1384.5098534905492
 10
911.08472089697716
 20
-1384.5359722351479
 42
-0.0081336634214253
 10
911.06986156175458
 20
-1384.8413197027467
 42
-0.0073526923572829
 10
911.04555302838025
 20
-1385.1460679470285
 10
911.04429160459722
 20
-1385.1594046216978
 42
-0.0066886138694153
 10
911.00855601855119
 20
-1385.4899906651908
 10
911.00689892908076
 20
-1385.5036122841866
 42
-0.0061359187353877
 10
910.95904832702956
 20
-1385.8603762642886
 10
910.95701082595701
 20
-1385.8742710671158
 42
-0.0056698610069361
 10
910.89636049519061
 20
-1386.2575496359507
 10
910.89395506186702
 20
-1386.2717087551846
 42
-0.0052721077270981
 10
910.81982286106859
 20
-1386.681836094856
 10
910.81705971222561
 20
-1386.6962527302485
 42
-0.0049289272179065
 10
910.7287655941268
 20
-1387.1335612413652
 10
910.72565309944298
 20
-1387.1482300941866
 42
-0.0047415956714864
 10
910.62241510791523
 20
-1387.6130268515772
 10
910.58764689755094
 20
-1387.7628339469804
 42
-0.0084404470900065
 10
910.39763045397683
 20
-1388.5230579715198
 10
910.39150376599343
 20
-1388.545922095665
 42
-0.0039635940260233
 10
910.17005008171157
 20
-1389.3469109599048
 10
910.15667328652989
 20
-1389.3938425765041
 42
-0.0072475040837768
 10
909.88922639867042
 20
-1390.2830622928832
 10
909.81901407184273
 20
-1390.5048026428562
 42
-0.0051345458830005
 10
909.53225469978054
 20
-1391.3791278306776
 10
909.51072843301756
 20
-1391.4425540977943
 42
-0.0019150016602685
 10
909.25519502614634
 20
-1392.1861032180336
 10
909.24872742174375
 20
-1392.2046906829733
 42
-0.0021524362751237
 10
909.00024937068633
 20
-1392.9090165046632
 10
908.99103894999644
 20
-1392.9347700829464
 42
-0.002433128681913
 10
908.7547836909539
 20
-1393.5853693910826
 10
908.74573573840007
 20
-1393.6099126974459
 42
-0.0027449721788652
 10
908.52112116756791
 20
-1394.2090425763615
 10
908.51223116016763
 20
-1394.2323651662348
 42
-0.0031083229767552
 10
908.29868867356572
 20
-1394.7822892037934
 10
908.28995254189272
 20
-1394.8043789196447
 42
-0.0035311343282718
 10
908.08691135629829
 20
-1395.3073620453813
 10
908.07832601714938
 20
-1395.3282047688945
 42
-0.0040245640951533
 10
907.88521421335622
 20
-1395.7865140914842
 10
907.87677809974309
 20
-1395.8060934595794
 42
-0.0046015135849502
 10
907.6930218065894
 20
-1396.2219984891983
 10
907.68473562876807
 20
-1396.2402956286351
 42
-0.0052768638270302
 10
907.50975810980549
 20
-1396.6160685129207
 10
907.50162589918079
 20
-1396.6330618514592
 42
-0.0060672675646194
 10
907.33484628641258
 20
-1396.9709774745781
 10
907.32687680592903
 20
-1396.9866427335794
 42
-0.0069904648872686
 10
907.16770841192965
 20
-1397.288978540239
 10
907.15991701232008
 20
-1397.3032890894642
 42
-0.0080637022767052
 10
907.00776515197299
 20
-1397.5723243926195
 10
907.00017611934481
 20
-1397.585252258215
 42
-0.0093006455667476
 10
906.8544354428102
 20
-1397.8232666567233
 10
906.84708477606296
 20
-1397.8347846259021
 42
-0.0107060778054285
 10
906.70713623262805
 20
-1398.0440549432756
 10
906.70007446434988
 20
-1398.0541404858395
 42
-0.0122723111413836
 10
906.56528074615039
 20
-1398.2369338153303
 10
906.56495452260174
 20
-1398.237354203133
 42
-0.0141836319638253
 10
906.42137291962217
 20
-1398.4119239609695
 10
906.41442516397433
 20
-1398.4198989612296
 42
-0.017595747721344
 10
906.27451899593552
 20
-1398.5695198496392
 42
-0.0080466359669357
 10
906.12705523089153
 20
-1398.7118423778034
 10
906.08102068638789
 20
-1398.7548628158816
 42
-0.0269600260393517
 10
905.82774044040798
 20
-1398.9671860743886
 10
905.76117330411205
 20
-1399.0171374890115
 42
-0.0178362839756914
 10
905.52122881445212
 20
-1399.184155415267
 10
905.51398384345021
 20
-1399.1888239274729
 42
-0.017465073264927
 10
905.27764764601034
 20
-1399.329684892431
 42
-0.0169240130168553
 10
905.03218140015383
 20
-1399.4539771522079
 10
904.98619524459491
 20
-1399.4753391077757
 42
-0.0318883036843321
 10
904.63584438897851
 20
-1399.6116774172847
 10
904.56747885380719
 20
-1399.6333780377622
 42
-0.0284435909899955
 10
904.19142872751911
 20
-1399.7295954732358
 10
904.15627056701953
 20
-1399.7364890690646
 42
-0.0243909341012013
 10
903.84282710610159
 20
-1399.7822101000945
 10
903.79254637933491
 20
-1399.7870556469959
 42
-0.0196639292930983
 10
903.57695080180315
 20
-1399.7993039325097
 10
903.52512673063802
 20
-1399.8002071932465
 42
-0.0100501510681155
 10
903.41270344897544
 20
-1399.7999067948933
 10
903.38104358760938
 20
-1399.7991857230074
 42
-0.0019752031110128
 10
903.33195125095006
 20
-1399.7978735627985
 10
903.32919094773251
 20
-1399.7977888709722
 42
0.0065378751988729
 10
903.28561437297321
 20
-1399.7970219797571
 42
-0.0167974694655245
 10
903.24208355004282
 20
-1399.7953620812311
 10
903.23800421077931
 20
-1399.795069070336
 42
-0.0081283276300111
 10
903.1864444130465
 20
-1399.7905220766988
 10
903.17470483916213
 20
-1399.7892941591199
 42
-0.0126703440178765
 10
903.09998654337153
 20
-1399.7795593680489
 10
903.07719867569199
 20
-1399.7760011121331
 42
-0.011785208843971
 10
902.95765968986279
 20
-1399.7544381169766
 10
902.90227923809653
 20
-1399.7430945767414
 42
-0.0251774592291661
 10
902.6754351990877
 20
-1399.6845965673083
 10
902.63071600923911
 20
-1399.6706297479739
 42
-0.0146525199880305
 10
902.44432302169912
 20
-1399.6063632207752
 42
-0.0166929435854701
 10
902.26234536557365
 20
-1399.5305560877209
 10
902.25768873429934
 20
-1399.5284311871064
 42
-0.0191684358437
 10
902.07250510304914
 20
-1399.4351951033159
 10
902.06917251729305
 20
-1399.433353855763
 42
-0.0221181781813113
 10
901.88586221339119
 20
-1399.3212203573926
 10
901.88351240938243
 20
-1399.3196360594013
 42
-0.0254984685379595
 10
901.70722225899715
 20
-1399.1872249094317
 10
901.68474011129535
 20
-1399.1684726004955
 42
-0.0292492648805929
 10
901.55997117245215
 20
-1399.0513798008524
 42
-0.0159048957501058
 10
901.44613117500444
 20
-1398.9233598092562
 10
901.44481238442268
 20
-1398.9217781962334
 42
-0.0343813379560128
 10
901.34217512279736
 20
-1398.7799068704653
 10
901.31068359143637
 20
-1398.7294034783711
 42
-0.0369117275705601
 10
901.22479108953837
 20
-1398.5659262374213
 42
-0.0191751379901428
 10
901.15759770398176
 20
-1398.3935216314164
 10
901.1558343802219
 20
-1398.3884282867405
 42
-0.0378178042237183
 10
901.10603966143765
 20
-1398.1994875106595
 10
901.10004436570682
 20
-1398.1669268924591
 42
-0.0184846046472886
 10
901.0793271664129
 20
-1398.0251740719173
 42
-0.0179866351323908
 10
901.06899416133922
 20
-1397.882283258836
 10
901.06893771889349
 20
-1397.8807255722236
 42
-0.0085497186109115
 10
901.06750543778969
 20
-1397.8058524072137
 42
-0.0085497186109115
  0
ENDBLK
  5
64
100
AcDbEntity
  8
template
390
0
100
AcDbBlockEnd
  0
BLOCK
  5
65
100
AcDbEntity
  8
notes
390
0
100
AcDbBlockBegin
  2
*D3
 70
               1
 10
0.0
 20
0.0
 30
0.0
  3
*D3
  1

  0
LINE
  5
66
100
AcDbEntity
  8
0
370
              -2
390
0
  6
Continuous
 62
               0
100
AcDbLine
 10
-568.97317708333321
 20
632.47190329809564
 30
0.0
 11
-568.97317708333321
 21
502.70877878087396
 31
0.0
  0
LINE
  5
67
100
AcDbEntity
  8
0
370
              -2
390
0
  6
Continuous
 62
               0
100
AcDbLine
 10
-293.97317708333338
 20
632.47190329809564
 30
0.0
 11
-293.97317708333338
 21
502.70877878087396
 31
0.0
  0
LINE
  5
68
100
AcDbEntity
  8
0
370
              -2
390
0
  6
Continuous
 62
               0
100
AcDbLine
 10
-568.97317708333321
 20
502.70877878087396
 30
0.0
 11
-293.97317708333338
 21
502.70877878087396
 31
0.0
  0
CIRCLE
  5
69
102
{ACAD_REACTORS
330
6A
102
}
100
AcDbEntity
  8
0
370
              -2
390
0
  6
Continuous
 62
               0
100
AcDbCircle
 10
-568.97317708333321
 20
502.70877878087396
 30
0.0
 40
1.9998779296875
  0
HATCH
  5
6A
100
AcDbEntity
  8
0
370
              -2
390
0
  6
Continuous
 62
               0
100
AcDbHatch
 10
0.0
 20
0.0
 30
0.0
210
0.0
220
0.0
230
1.0
  2
SOLID
 70
               1
 71
               1
 91
        1
 92
        1
 93
        1
 72
               2
 10
-568.97317708333321
 20
502.70877878087396
 40
1.9998779296875
 50
0.0
 51
360.0
 73
               0
 97
        1
330
69
 75
               0
 76
               1
 98
        1
 10
0.0
 20
0.0
  0
CIRCLE
  5
6B
102
{ACAD_REACTORS
330
6C
102
}
100
AcDbEntity
  8
0
370
              -2
390
0
  6
Continuous
 62
               0
100
AcDbCircle
 10
-293.97317708333338
 20
502.70877878087396
 30
0.0
 40
1.9998779296875
  0
HATCH
  5
6C
100
AcDbEntity
  8
0
370
              -2
390
0
  6
Continuous
 62
               0
100
AcDbHatch
 10
0.0
 20
0.0
 30
0.0
210
0.0
220
0.0
230
1.0
  2
SOLID
 70
               1
 71
               1
 91
        1
 92
        1
 93
        1
 72
               2
 10
-293.97317708333338
 20
502.70877878087396
 40
1.9998779296875
 50
0.0
 51
360.0
 73
               0
 97
        1
330
6B
 75
               0
 76
               1
 98
        1
 10
0.0
 20
0.0
  0
MTEXT
  5
6D
100
AcDbEntity
  8
0
390
0
 62
               0
100
AcDbMText
 10
-451.25205600890882
 20
536.58639596837395
 30
0.0
 40
24.432617187500004
 41
0.0
 71
               1
 72
               1
  1
275
  7
ＭＳ ゴシック
 73
               1
 44
0.7828267384257843
  0
POINT
  5
6E
100
AcDbEntity
  8
Defpoints
370
               0
390
0
 62
               0
100
AcDbPoint
 10
-293.97317708333338
 20
657.47190329809564
 30
0.0
  0
POINT
  5
6F
100
AcDbEntity
  8
Defpoints
370
               0
390
0
 62
               0
100
AcDbPoint
 10
-568.97317708333321
 20
657.47190329809564
 30
0.0
  0
POINT
  5
70
100
AcDbEntity
  8
Defpoints
370
               0
390
0
 62
               0
100
AcDbPoint
 10
-568.97317708333321
 20
502.70877878087396
 30
0.0
  0
ENDBLK
  5
71
100
AcDbEntity
  8
notes
390
0
100
AcDbBlockEnd
  0
BLOCK
  5
72
100
AcDbEntity
  8
notes
390
0
100
AcDbBlockBegin
  2
*D4
 70
               1
 10
0.0
 20
0.0
 30
0.0
  3
*D4
  1

  0
LINE
  5
73
100
AcDbEntity
  8
0
370
              -2
390
0
  6
Continuous
 62
               0
100
AcDbLine
 10
-358.47317708333338
 20
1067.7087787808739
 30
0.0
 11
-358.47317708333338
 21
1122.7087787808739
 31
0.0
  0
LINE
  5
74
100
AcDbEntity
  8
0
370
              -2
390
0
  6
Continuous
 62
               0
100
AcDbLine
 10
-504.47317708333333
 20
1067.7087787808739
 30
0.0
 11
-504.47317708333333
 21
1122.7087787808739
 31
0.0
  0
LINE
  5
75
100
AcDbEntity
  8
0
370
              -2
390
0
  6
Continuous
 62
               0
100
AcDbLine
 10
-358.47317708333338
 20
1122.7087787808739
 30
0.0
 11
-504.47317708333333
 21
1122.7087787808739
 31
0.0
  0
CIRCLE
  5
76
102
{ACAD_REACTORS
330
77
102
}
100
AcDbEntity
  8
0
370
              -2
390
0
  6
Continuous
 62
               0
100
AcDbCircle
 10
-358.47317708333338
 20
1122.7087787808739
 30
0.0
 40
1.9998779296875
  0
HATCH
  5
77
100
AcDbEntity
  8
0
370
              -2
390
0
  6
Continuous
 62
               0
100
AcDbHatch
 10
0.0
 20
0.0
 30
0.0
210
0.0
220
0.0
230
1.0
  2
SOLID
 70
               1
 71
               1
 91
        1
 92
        1
 93
        1
 72
               2
 10
-358.47317708333338
 20
1122.7087787808739
 40
1.9998779296875
 50
0.0
 51
360.0
 73
               0
 97
        1
330
76
 75
               0
 76
               1
 98
        1
 10
0.0
 20
0.0
  0
CIRCLE
  5
78
102
{ACAD_REACTORS
330
79
102
}
100
AcDbEntity
  8
0
370
              -2
390
0
  6
Continuous
 62
               0
100
AcDbCircle
 10
-504.47317708333333
 20
1122.7087787808739
 30
0.0
 40
1.9998779296875
  0
HATCH
  5
79
100
AcDbEntity
  8
0
370
              -2
390
0
  6
Continuous
 62
               0
100
AcDbHatch
 10
0.0
 20
0.0
 30
0.0
210
0.0
220
0.0
230
1.0
  2
SOLID
 70
               1
 71
               1
 91
        1
 92
        1
 93
        1
 72
               2
 10
-504.47317708333333
 20
1122.7087787808739
 40
1.9998779296875
 50
0.0
 51
360.0
 73
               0
 97
        1
330
78
 75
               0
 76
               1
 98
        1
 10
0.0
 20
0.0
  0
MTEXT
  5
7A
100
AcDbEntity
  8
0
390
0
 62
               0
100
AcDbMText
 10
-457.20795142533024
 20
1156.5863959683738
 30
0.0
 40
24.432617187500004
 41
0.0
 71
               1
 72
               1
  1
146
  7
ＭＳ ゴシック
 73
               1
 44
0.7828267384257843
  0
POINT
  5
7B
100
AcDbEntity
  8
Defpoints
370
               0
390
0
 62
               0
100
AcDbPoint
 10
-504.47317708333333
 20
1042.7087787808739
 30
0.0
  0
POINT
  5
7C
100
AcDbEntity
  8
Defpoints
370
               0
390
0
 62
               0
100
AcDbPoint
 10
-358.47317708333338
 20
1042.7087787808739
 30
0.0
  0
POINT
  5
7D
100
AcDbEntity
  8
Defpoints
370
               0
390
0
 62
               0
100
AcDbPoint
 10
-358.47317708333338
 20
1122.7087787808739
 30
0.0
  0
ENDBLK
  5
7E
100
AcDbEntity
  8
notes
390
0
100
AcDbBlockEnd
  0
BLOCK
  5
7F
100
AcDbEntity
  8
notes
390
0
100
AcDbBlockBegin
  2
*D5
 70
               1
 10
0.0
 20
0.0
 30
0.0
  3
*D5
  1

  0
LINE
  5
80
100
AcDbEntity
  8
0
370
              -2
390
0
  6
Continuous
 62
               0
100
AcDbLine
 10
-631.47317708333321
 20
752.70877878087413
 30
0.0
 11
-631.47317708333321
 21
452.70877878087407
 31
0.0
  0
LINE
  5
81
100
AcDbEntity
  8
0
370
              -2
390
0
  6
Continuous
 62
               0
100
AcDbLine
 10
-231.47317708333333
 20
752.70877878087413
 30
0.0
 11
-231.47317708333333
 21
452.70877878087407
 31
0.0
  0
LINE
  5
82
100
AcDbEntity
  8
0
370
              -2
390
0
  6
Continuous
 62
               0
100
AcDbLine
 10
-631.47317708333321
 20
452.70877878087407
 30
0.0
 11
-231.47317708333333
 21
452.70877878087407
 31
0.0
  0
CIRCLE
  5
83
102
{ACAD_REACTORS
330
84
102
}
100
AcDbEntity
  8
0
370
              -2
390
0
  6
Continuous
 62
               0
100
AcDbCircle
 10
-631.47317708333321
 20
452.70877878087407
 30
0.0
 40
1.9998779296875
  0
HATCH
  5
84
100
AcDbEntity
  8
0
370
              -2
390
0
  6
Continuous
 62
               0
100
AcDbHatch
 10
0.0
 20
0.0
 30
0.0
210
0.0
220
0.0
230
1.0
  2
SOLID
 70
               1
 71
               1
 91
        1
 92
        1
 93
        1
 72
               2
 10
-631.47317708333321
 20
452.70877878087407
 40
1.9998779296875
 50
0.0
 51
360.0
 73
               0
 97
        1
330
83
 75
               0
 76
               1
 98
        1
 10
0.0
 20
0.0
  0
CIRCLE
  5
85
102
{ACAD_REACTORS
330
86
102
}
100
AcDbEntity
  8
0
370
              -2
390
0
  6
Continuous
 62
               0
100
AcDbCircle
 10
-231.47317708333333
 20
452.70877878087407
 30
0.0
 40
1.9998779296875
  0
HATCH
  5
86
100
AcDbEntity
  8
0
370
              -2
390
0
  6
Continuous
 62
               0
100
AcDbHatch
 10
0.0
 20
0.0
 30
0.0
210
0.0
220
0.0
230
1.0
  2
SOLID
 70
               1
 71
               1
 91
        1
 92
        1
 93
        1
 72
               2
 10
-231.47317708333333
 20
452.70877878087407
 40
1.9998779296875
 50
0.0
 51
360.0
 73
               0
 97
        1
330
85
 75
               0
 76
               1
 98
        1
 10
0.0
 20
0.0
  0
MTEXT
  5
87
100
AcDbEntity
  8
0
390
0
 62
               0
100
AcDbMText
 10
-450.62603805980882
 20
486.58639596837406
 30
0.0
 40
24.432617187500004
 41
0.0
 71
               1
 72
               1
  1
400
  7
ＭＳ ゴシック
 73
               1
 44
0.7828267384257843
  0
POINT
  5
88
100
AcDbEntity
  8
Defpoints
370
               0
390
0
 62
               0
100
AcDbPoint
 10
-231.47317708333333
 20
777.70877878087413
 30
0.0
  0
POINT
  5
89
100
AcDbEntity
  8
Defpoints
370
               0
390
0
 62
               0
100
AcDbPoint
 10
-631.47317708333321
 20
777.70877878087413
 30
0.0
  0
POINT
  5
8A
100
AcDbEntity
  8
Defpoints
370
               0
390
0
 62
               0
100
AcDbPoint
 10
-631.47317708333321
 20
452.70877878087407
 30
0.0
  0
ENDBLK
  5
8B
100
AcDbEntity
  8
notes
390
0
100
AcDbBlockEnd
  0
BLOCK
  5
8C
100
AcDbEntity
  8
notes
390
0
100
AcDbBlockBegin
  2
*D6
 70
               1
 10
0.0
 20
0.0
 30
0.0
  3
*D6
  1

  0
LINE
  5
8D
100
AcDbEntity
  8
0
370
              -2
390
0
  6
Continuous
 62
               0
100
AcDbLine
 10
-529.51317708333329
 20
1042.7087787808739
 30
0.0
 11
-731.47317708333333
 21
1042.7087787808739
 31
0.0
  0
LINE
  5
8E
100
AcDbEntity
  8
0
370
              -2
390
0
  6
Continuous
 62
               0
100
AcDbLine
 10
-531.47317708333333
 20
1002.7087787808739
 30
0.0
 11
-731.47317708333333
 21
1002.7087787808739
 31
0.0
  0
LINE
  5
8F
100
AcDbEntity
  8
0
370
              -2
390
0
  6
Continuous
 62
               0
100
AcDbLine
 10
-731.47317708333333
 20
1042.7087787808739
 30
0.0
 11
-731.47317708333333
 21
1002.7087787808739
 31
0.0
  0
CIRCLE
  5
90
102
{ACAD_REACTORS
330
91
102
}
100
AcDbEntity
  8
0
370
              -2
390
0
  6
Continuous
 62
               0
100
AcDbCircle
 10
-731.47317708333333
 20
1042.7087787808739
 30
0.0
 40
1.9998779296875
  0
HATCH
  5
91
100
AcDbEntity
  8
0
370
              -2
390
0
  6
Continuous
 62
               0
100
AcDbHatch
 10
0.0
 20
0.0
 30
0.0
210
0.0
220
0.0
230
1.0
  2
SOLID
 70
               1
 71
               1
 91
        1
 92
        1
 93
        1
 72
               2
 10
-731.47317708333333
 20
1042.7087787808739
 40
1.9998779296875
 50
0.0
 51
360.0
 73
               0
 97
        1
330
90
 75
               0
 76
               1
 98
        1
 10
0.0
 20
0.0
  0
CIRCLE
  5
92
102
{ACAD_REACTORS
330
93
102
}
100
AcDbEntity
  8
0
370
              -2
390
0
  6
Continuous
 62
               0
100
AcDbCircle
 10
-731.47317708333333
 20
1002.7087787808739
 30
0.0
 40
1.9998779296875
  0
HATCH
  5
93
100
AcDbEntity
  8
0
370
              -2
390
0
  6
Continuous
 62
               0
100
AcDbHatch
 10
0.0
 20
0.0
 30
0.0
210
0.0
220
0.0
230
1.0
  2
SOLID
 70
               1
 71
               1
 91
        1
 92
        1
 93
        1
 72
               2
 10
-731.47317708333333
 20
1002.7087787808739
 40
1.9998779296875
 50
0.0
 51
360.0
 73
               0
 97
        1
330
92
 75
               0
 76
               1
 98
        1
 10
0.0
 20
0.0
  0
MTEXT
  5
94
100
AcDbEntity
  8
0
390
0
 62
               0
100
AcDbMText
 10
-765.35079427083338
 20
1006.8337787808739
 30
0.0
 40
24.432617187500004
 41
0.0
 71
               1
 72
               1
  1
40
  7
ＭＳ ゴシック
 11
0.0
 21
1.0
 31
0.0
 73
               1
 44
0.7828267384257843
  0
POINT
  5
95
100
AcDbEntity
  8
Defpoints
370
               0
390
0
 62
               0
100
AcDbPoint
 10
-506.47317708333333
 20
1002.7087787808739
 30
0.0
  0
POINT
  5
96
100
AcDbEntity
  8
Defpoints
370
               0
390
0
 62
               0
100
AcDbPoint
 10
-504.51317708333329
 20
1042.7087787808739
 30
0.0
  0
POINT
  5
97
100
AcDbEntity
  8
Defpoints
370
               0
390
0
 62
               0
100
AcDbPoint
 10
-731.47317708333333
 20
1042.7087787808739
 30
0.0
  0
ENDBLK
  5
98
100
AcDbEntity
  8
notes
390
0
100
AcDbBlockEnd
  0
BLOCK
  5
99
100
AcDbEntity
  8
notes
390
0
100
AcDbBlockBegin
  2
*D7
 70
               1
 10
0.0
 20
0.0
 30
0.0
  3
*D7
  1

  0
LINE
  5
9A
100
AcDbEntity
  8
0
370
              -2
390
0
  6
Continuous
 62
               0
100
AcDbLine
 10
-531.47317708333333
 20
1002.7087787808739
 30
0.0
 11
-731.47317708333333
 21
1002.7087787808739
 31
0.0
  0
LINE
  5
9B
100
AcDbEntity
  8
0
370
              -2
390
0
  6
Continuous
 62
               0
100
AcDbLine
 10
-629.67825784022079
 20
902.70877878087413
 30
0.0
 11
-731.47317708333333
 21
902.70877878087413
 31
0.0
  0
LINE
  5
9C
100
AcDbEntity
  8
0
370
              -2
390
0
  6
Continuous
 62
               0
100
AcDbLine
 10
-731.47317708333333
 20
1002.7087787808739
 30
0.0
 11
-731.47317708333333
 21
902.70877878087413
 31
0.0
  0
CIRCLE
  5
9D
102
{ACAD_REACTORS
330
9E
102
}
100
AcDbEntity
  8
0
370
              -2
390
0
  6
Continuous
 62
               0
100
AcDbCircle
 10
-731.47317708333333
 20
1002.7087787808739
 30
0.0
 40
1.9998779296875
  0
HATCH
  5
9E
100
AcDbEntity
  8
0
370
              -2
390
0
  6
Continuous
 62
               0
100
AcDbHatch
 10
0.0
 20
0.0
 30
0.0
210
0.0
220
0.0
230
1.0
  2
SOLID
 70
               1
 71
               1
 91
        1
 92
        1
 93
        1
 72
               2
 10
-731.47317708333333
 20
1002.7087787808739
 40
1.9998779296875
 50
0.0
 51
360.0
 73
               0
 97
        1
330
9D
 75
               0
 76
               1
 98
        1
 10
0.0
 20
0.0
  0
CIRCLE
  5
9F
102
{ACAD_REACTORS
330
A0
102
}
100
AcDbEntity
  8
0
370
              -2
390
0
  6
Continuous
 62
               0
100
AcDbCircle
 10
-731.47317708333333
 20
902.70877878087413
 30
0.0
 40
1.9998779296875
  0
HATCH
  5
A0
100
AcDbEntity
  8
0
370
              -2
390
0
  6
Continuous
 62
               0
100
AcDbHatch
 10
0.0
 20
0.0
 30
0.0
210
0.0
220
0.0
230
1.0
  2
SOLID
 70
               1
 71
               1
 91
        1
 92
        1
 93
        1
 72
               2
 10
-731.47317708333333
 20
902.70877878087413
 40
1.9998779296875
 50
0.0
 51
360.0
 73
               0
 97
        1
330
9F
 75
               0
 76
               1
 98
        1
 10
0.0
 20
0.0
  0
MTEXT
  5
A1
100
AcDbEntity
  8
0
390
0
 62
               0
100
AcDbMText
 10
-765.35079427083338
 20
928.89627709869865
 30
0.0
 40
24.432617187500004
 41
0.0
 71
               1
 72
               1
  1
100
  7
ＭＳ ゴシック
 11
0.0
 21
1.0
 31
0.0
 73
               1
 44
0.7828267384257843
  0
POINT
  5
A2
100
AcDbEntity
  8
Defpoints
370
               0
390
0
 62
               0
100
AcDbPoint
 10
-604.67825784022079
 20
902.70877878087413
 30
0.0
  0
POINT
  5
A3
100
AcDbEntity
  8
Defpoints
370
               0
390
0
 62
               0
100
AcDbPoint
 10
-506.47317708333333
 20
1002.7087787808739
 30
0.0
  0
POINT
  5
A4
100
AcDbEntity
  8
Defpoints
370
               0
390
0
 62
               0
100
AcDbPoint
 10
-731.47317708333333
 20
1002.7087787808739
 30
0.0
  0
ENDBLK
  5
A5
100
AcDbEntity
  8
notes
390
0
100
AcDbBlockEnd
  0
BLOCK
  5
A6
100
AcDbEntity
  8
notes
390
0
100
AcDbBlockBegin
  2
*D8
 70
               1
 10
0.0
 20
0.0
 30
0.0
  3
*D8
  1

  0
LINE
  5
A7
100
AcDbEntity
  8
0
370
              -2
390
0
  6
Continuous
 62
               0
100
AcDbLine
 10
-629.67825784022079
 20
902.70877878087413
 30
0.0
 11
-731.47317708333321
 21
902.70877878087413
 31
0.0
  0
LINE
  5
A8
100
AcDbEntity
  8
0
370
              -2
390
0
  6
Continuous
 62
               0
100
AcDbLine
 10
-553.29776073851872
 20
627.70877878087367
 30
0.0
 11
-731.47317708333321
 21
627.70877878087367
 31
0.0
  0
LINE
  5
A9
100
AcDbEntity
  8
0
370
              -2
390
0
  6
Continuous
 62
               0
100
AcDbLine
 10
-731.47317708333321
 20
902.70877878087413
 30
0.0
 11
-731.47317708333321
 21
627.70877878087367
 31
0.0
  0
CIRCLE
  5
AA
102
{ACAD_REACTORS
330
AB
102
}
100
AcDbEntity
  8
0
370
              -2
390
0
  6
Continuous
 62
               0
100
AcDbCircle
 10
-731.47317708333321
 20
902.70877878087413
 30
0.0
 40
1.9998779296875
  0
HATCH
  5
AB
100
AcDbEntity
  8
0
370
              -2
390
0
  6
Continuous
 62
               0
100
AcDbHatch
 10
0.0
 20
0.0
 30
0.0
210
0.0
220
0.0
230
1.0
  2
SOLID
 70
               1
 71
               1
 91
        1
 92
        1
 93
        1
 72
               2
 10
-731.47317708333321
 20
902.70877878087413
 40
1.9998779296875
 50
0.0
 51
360.0
 73
               0
 97
        1
330
AA
 75
               0
 76
               1
 98
        1
 10
0.0
 20
0.0
  0
CIRCLE
  5
AC
102
{ACAD_REACTORS
330
AD
102
}
100
AcDbEntity
  8
0
370
              -2
390
0
  6
Continuous
 62
               0
100
AcDbCircle
 10
-731.47317708333321
 20
627.70877878087367
 30
0.0
 40
1.9998779296875
  0
HATCH
  5
AD
100
AcDbEntity
  8
0
370
              -2
390
0
  6
Continuous
 62
               0
100
AcDbHatch
 10
0.0
 20
0.0
 30
0.0
210
0.0
220
0.0
230
1.0
  2
SOLID
 70
               1
 71
               1
 91
        1
 92
        1
 93
        1
 72
               2
 10
-731.47317708333321
 20
627.70877878087367
 40
1.9998779296875
 50
0.0
 51
360.0
 73
               0
 97
        1
330
AC
 75
               0
 76
               1
 98
        1
 10
0.0
 20
0.0
  0
MTEXT
  5
AE
100
AcDbEntity
  8
0
390
0
 62
               0
100
AcDbMText
 10
-765.35079427083326
 20
741.39627709869842
 30
0.0
 40
24.432617187500004
 41
0.0
 71
               1
 72
               1
  1
275
  7
ＭＳ ゴシック
 11
0.0
 21
1.0
 31
0.0
 73
               1
 44
0.7828267384257843
  0
POINT
  5
AF
100
AcDbEntity
  8
Defpoints
370
               0
390
0
 62
               0
100
AcDbPoint
 10
-528.29776073851872
 20
627.70877878087367
 30
0.0
  0
POINT
  5
B0
100
AcDbEntity
  8
Defpoints
370
               0
390
0
 62
               0
100
AcDbPoint
 10
-604.67825784022079
 20
902.70877878087413
 30
0.0
  0
POINT
  5
B1
100
AcDbEntity
  8
Defpoints
370
               0
390
0
 62
               0
100
AcDbPoint
 10
-731.47317708333321
 20
902.70877878087413
 30
0.0
  0
ENDBLK
  5
B2
100
AcDbEntity
  8
notes
390
0
100
AcDbBlockEnd
  0
BLOCK
  5
B3
100
AcDbEntity
  8
notes
390
0
100
AcDbBlockBegin
  2
*D9
 70
               1
 10
0.0
 20
0.0
 30
0.0
  3
*D9
  1

  0
LINE
  5
B4
100
AcDbEntity
  8
0
370
              -2
390
0
  6
Continuous
 62
               0
100
AcDbLine
 10
-331.47317708333338
 20
1042.7087787808739
 30
0.0
 11
-131.47317708333338
 21
1042.7087787808739
 31
0.0
  0
LINE
  5
B5
100
AcDbEntity
  8
0
370
              -2
390
0
  6
Continuous
 62
               0
100
AcDbLine
 10
-381.47317708333338
 20
602.70877878087322
 30
0.0
 11
-131.47317708333338
 21
602.70877878087322
 31
0.0
  0
LINE
  5
B6
100
AcDbEntity
  8
0
370
              -2
390
0
  6
Continuous
 62
               0
100
AcDbLine
 10
-131.47317708333338
 20
1042.7087787808739
 30
0.0
 11
-131.47317708333338
 21
602.70877878087322
 31
0.0
  0
CIRCLE
  5
B7
102
{ACAD_REACTORS
330
B8
102
}
100
AcDbEntity
  8
0
370
              -2
390
0
  6
Continuous
 62
               0
100
AcDbCircle
 10
-131.47317708333338
 20
1042.7087787808739
 30
0.0
 40
1.9998779296875
  0
HATCH
  5
B8
100
AcDbEntity
  8
0
370
              -2
390
0
  6
Continuous
 62
               0
100
AcDbHatch
 10
0.0
 20
0.0
 30
0.0
210
0.0
220
0.0
230
1.0
  2
SOLID
 70
               1
 71
               1
 91
        1
 92
        1
 93
        1
 72
               2
 10
-131.47317708333338
 20
1042.7087787808739
 40
1.9998779296875
 50
0.0
 51
360.0
 73
               0
 97
        1
330
B7
 75
               0
 76
               1
 98
        1
 10
0.0
 20
0.0
  0
CIRCLE
  5
B9
102
{ACAD_REACTORS
330
BA
102
}
100
AcDbEntity
  8
0
370
              -2
390
0
  6
Continuous
 62
               0
100
AcDbCircle
 10
-131.47317708333338
 20
602.70877878087322
 30
0.0
 40
1.9998779296875
  0
HATCH
  5
BA
100
AcDbEntity
  8
0
370
              -2
390
0
  6
Continuous
 62
               0
100
AcDbHatch
 10
0.0
 20
0.0
 30
0.0
210
0.0
220
0.0
230
1.0
  2
SOLID
 70
               1
 71
               1
 91
        1
 92
        1
 93
        1
 72
               2
 10
-131.47317708333338
 20
602.70877878087322
 40
1.9998779296875
 50
0.0
 51
360.0
 73
               0
 97
        1
330
B9
 75
               0
 76
               1
 98
        1
 10
0.0
 20
0.0
  0
MTEXT
  5
BB
100
AcDbEntity
  8
0
390
0
 62
               0
100
AcDbMText
 10
-165.35079427083338
 20
798.89627709869819
 30
0.0
 40
24.432617187500004
 41
0.0
 71
               1
 72
               1
  1
440
  7
ＭＳ ゴシック
 11
0.0
 21
1.0
 31
0.0
 73
               1
 44
0.7828267384257843
  0
POINT
  5
BC
100
AcDbEntity
  8
Defpoints
370
               0
390
0
 62
               0
100
AcDbPoint
 10
-406.47317708333338
 20
602.70877878087322
 30
0.0
  0
POINT
  5
BD
100
AcDbEntity
  8
Defpoints
370
               0
390
0
 62
               0
100
AcDbPoint
 10
-356.47317708333338
 20
1042.7087787808739
 30
0.0
  0
POINT
  5
BE
100
AcDbEntity
  8
Defpoints
370
               0
390
0
 62
               0
100
AcDbPoint
 10
-131.47317708333338
 20
1042.7087787808739
 30
0.0
  0
ENDBLK
  5
BF
100
AcDbEntity
  8
notes
390
0
100
AcDbBlockEnd
  0
BLOCK
  5
C0
100
AcDbEntity
  8
notes
390
0
100
AcDbBlockBegin
  2
*D10
 70
               1
 10
0.0
 20
0.0
 30
0.0
  3
*D10
  1

  0
LINE
  5
C1
100
AcDbEntity
  8
0
370
              -2
390
0
  6
Continuous
 62
               0
100
AcDbLine
 10
-417.10897009253603
 20
963.55633876114325
 30
0.0
 11
-272.88378835019114
 21
1072.4722928836106
 31
0.0
  0
CIRCLE
  5
C2
102
{ACAD_REACTORS
330
C3
102
}
100
AcDbEntity
  8
0
370
              -2
390
0
  6
Continuous
 62
               0
100
AcDbCircle
 10
-417.10897009253603
 20
963.55633876114325
 30
0.0
 40
1.9998779296875
  0
HATCH
  5
C3
100
AcDbEntity
  8
0
370
              -2
390
0
  6
Continuous
 62
               0
100
AcDbHatch
 10
0.0
 20
0.0
 30
0.0
210
0.0
220
0.0
230
1.0
  2
SOLID
 70
               1
 71
               1
 91
        1
 92
        1
 93
        1
 72
               2
 10
-417.10897009253603
 20
963.55633876114325
 40
1.9998779296875
 50
0.0
 51
360.0
 73
               0
 97
        1
330
C2
 75
               0
 76
               1
 98
        1
 10
0.0
 20
0.0
  0
LINE
  5
C4
100
AcDbEntity
  8
0
370
              -2
390
0
  6
Continuous
 62
               0
100
AcDbLine
 10
-272.88378835019114
 20
1072.4722928836106
 30
0.0
 11
-149.38378835019114
 21
1072.4722928836106
 31
0.0
  0
MTEXT
  5
C5
100
AcDbEntity
  8
0
390
0
 62
               0
100
AcDbMText
 10
-212.88378835019114
 20
1106.3499100711106
 30
0.0
 40
24.432617187500004
 41
0.0
 71
               1
 72
               1
  1
φ36
  7
ＭＳ ゴシック
 73
               1
 44
0.7828267384257843
  0
POINT
  5
C6
100
AcDbEntity
  8
Defpoints
370
               0
390
0
 62
               0
100
AcDbPoint
 10
-445.83738407413074
 20
941.86121880060477
 30
0.0
  0
POINT
  5
C7
100
AcDbEntity
  8
Defpoints
370
               0
390
0
 62
               0
100
AcDbPoint
 10
-417.10897009253603
 20
963.55633876114325
 30
0.0
  0
ENDBLK
  5
C8
100
AcDbEntity
  8
notes
390
0
100
AcDbBlockEnd
  0
BLOCK
  5
C9
100
AcDbEntity
  8
notes
390
0
100
AcDbBlockBegin
  2
*D11
 70
               1
 10
0.0
 20
0.0
 30
0.0
  3
*D11
  1

  0
LINE
  5
CA
100
AcDbEntity
  8
0
370
              -2
390
0
  6
Continuous
 62
               0
100
AcDbLine
 10
220.02682291666633
 20
-79.496901828066129
 30
0.0
 11
145.02682291666667
 21
-79.496901828066129
 31
0.0
  0
LINE
  5
CB
100
AcDbEntity
  8
0
370
              -2
390
0
  6
Continuous
 62
               0
100
AcDbLine
 10
220.02682291666713
 20
-479.4969018280654
 30
0.0
 11
145.02682291666667
 21
-479.4969018280654
 31
0.0
  0
LINE
  5
CC
100
AcDbEntity
  8
0
370
              -2
390
0
  6
Continuous
 62
               0
100
AcDbLine
 10
145.02682291666667
 20
-79.496901828066129
 30
0.0
 11
145.02682291666667
 21
-479.4969018280654
 31
0.0
  0
CIRCLE
  5
CD
102
{ACAD_REACTORS
330
CE
102
}
100
AcDbEntity
  8
0
370
              -2
390
0
  6
Continuous
 62
               0
100
AcDbCircle
 10
145.02682291666667
 20
-79.496901828066129
 30
0.0
 40
1.9998779296875
  0
HATCH
  5
CE
100
AcDbEntity
  8
0
370
              -2
390
0
  6
Continuous
 62
               0
100
AcDbHatch
 10
0.0
 20
0.0
 30
0.0
210
0.0
220
0.0
230
1.0
  2
SOLID
 70
               1
 71
               1
 91
        1
 92
        1
 93
        1
 72
               2
 10
145.02682291666667
 20
-79.496901828066129
 40
1.9998779296875
 50
0.0
 51
360.0
 73
               0
 97
        1
330
CD
 75
               0
 76
               1
 98
        1
 10
0.0
 20
0.0
  0
CIRCLE
  5
CF
102
{ACAD_REACTORS
330
D0
102
}
100
AcDbEntity
  8
0
370
              -2
390
0
  6
Continuous
 62
               0
100
AcDbCircle
 10
145.02682291666667
 20
-479.4969018280654
 30
0.0
 40
1.9998779296875
  0
HATCH
  5
D0
100
AcDbEntity
  8
0
370
              -2
390
0
  6
Continuous
 62
               0
100
AcDbHatch
 10
0.0
 20
0.0
 30
0.0
210
0.0
220
0.0
230
1.0
  2
SOLID
 70
               1
 71
               1
 91
        1
 92
        1
 93
        1
 72
               2
 10
145.02682291666667
 20
-479.4969018280654
 40
1.9998779296875
 50
0.0
 51
360.0
 73
               0
 97
        1
330
CF
 75
               0
 76
               1
 98
        1
 10
0.0
 20
0.0
  0
MTEXT
  5
D1
100
AcDbEntity
  8
0
390
0
 62
               0
100
AcDbMText
 10
111.14920572916668
 20
-291.44605479614967
 30
0.0
 40
24.432617187500004
 41
0.0
 71
               1
 72
               1
  1
400
  7
ＭＳ ゴシック
 11
0.0
 21
1.0
 31
0.0
 73
               1
 44
0.7828267384257843
  0
POINT
  5
D2
100
AcDbEntity
  8
Defpoints
370
               0
390
0
 62
               0
100
AcDbPoint
 10
245.02682291666713
 20
-479.4969018280654
 30
0.0
  0
POINT
  5
D3
100
AcDbEntity
  8
Defpoints
370
               0
390
0
 62
               0
100
AcDbPoint
 10
245.02682291666633
 20
-79.496901828066129
 30
0.0
  0
POINT
  5
D4
100
AcDbEntity
  8
Defpoints
370
               0
390
0
 62
               0
100
AcDbPoint
 10
145.02682291666667
 20
-79.496901828066129
 30
0.0
  0
ENDBLK
  5
D5
100
AcDbEntity
  8
notes
390
0
100
AcDbBlockEnd
  0
BLOCK
  5
D6
100
AcDbEntity
  8
notes
390
0
100
AcDbBlockBegin
  2
*D12
 70
               1
 10
0.0
 20
0.0
 30
0.0
  3
*D12
  1

  0
LINE
  5
D7
100
AcDbEntity
  8
0
370
              -2
390
0
  6
Continuous
 62
               0
100
AcDbLine
 10
220.02682291666633
 20
-79.496901828066129
 30
0.0
 11
145.02682291666667
 21
-79.496901828066129
 31
0.0
  0
LINE
  5
D8
100
AcDbEntity
  8
0
370
              -2
390
0
  6
Continuous
 62
               0
100
AcDbLine
 10
262.02682291666662
 20
70.503098171933672
 30
0.0
 11
145.02682291666667
 21
70.503098171933672
 31
0.0
  0
LINE
  5
D9
100
AcDbEntity
  8
0
370
              -2
390
0
  6
Continuous
 62
               0
100
AcDbLine
 10
145.02682291666667
 20
-79.496901828066129
 30
0.0
 11
145.02682291666667
 21
70.503098171933672
 31
0.0
  0
CIRCLE
  5
DA
102
{ACAD_REACTORS
330
DB
102
}
100
AcDbEntity
  8
0
370
              -2
390
0
  6
Continuous
 62
               0
100
AcDbCircle
 10
145.02682291666667
 20
-79.496901828066129
 30
0.0
 40
1.9998779296875
  0
HATCH
  5
DB
100
AcDbEntity
  8
0
370
              -2
390
0
  6
Continuous
 62
               0
100
AcDbHatch
 10
0.0
 20
0.0
 30
0.0
210
0.0
220
0.0
230
1.0
  2
SOLID
 70
               1
 71
               1
 91
        1
 92
        1
 93
        1
 72
               2
 10
145.02682291666667
 20
-79.496901828066129
 40
1.9998779296875
 50
0.0
 51
360.0
 73
               0
 97
        1
330
DA
 75
               0
 76
               1
 98
        1
 10
0.0
 20
0.0
  0
CIRCLE
  5
DC
102
{ACAD_REACTORS
330
DD
102
}
100
AcDbEntity
  8
0
370
              -2
390
0
  6
Continuous
 62
               0
100
AcDbCircle
 10
145.02682291666667
 20
70.503098171933672
 30
0.0
 40
1.9998779296875
  0
HATCH
  5
DD
100
AcDbEntity
  8
0
370
              -2
390
0
  6
Continuous
 62
               0
100
AcDbHatch
 10
0.0
 20
0.0
 30
0.0
210
0.0
220
0.0
230
1.0
  2
SOLID
 70
               1
 71
               1
 91
        1
 92
        1
 93
        1
 72
               2
 10
145.02682291666667
 20
70.503098171933672
 40
1.9998779296875
 50
0.0
 51
360.0
 73
               0
 97
        1
330
DC
 75
               0
 76
               1
 98
        1
 10
0.0
 20
0.0
  0
MTEXT
  5
DE
100
AcDbEntity
  8
0
390
0
 62
               0
100
AcDbMText
 10
111.14920572916668
 20
-20.459639881530713
 30
0.0
 40
24.432617187500004
 41
0.0
 71
               1
 72
               1
  1
150
  7
ＭＳ ゴシック
 11
0.0
 21
1.0
 31
0.0
 73
               1
 44
0.7828267384257843
  0
POINT
  5
DF
100
AcDbEntity
  8
Defpoints
370
               0
390
0
 62
               0
100
AcDbPoint
 10
287.02682291666662
 20
70.503098171933672
 30
0.0
  0
POINT
  5
E0
100
AcDbEntity
  8
Defpoints
370
               0
390
0
 62
               0
100
AcDbPoint
 10
245.02682291666633
 20
-79.496901828066129
 30
0.0
  0
POINT
  5
E1
100
AcDbEntity
  8
Defpoints
370
               0
390
0
 62
               0
100
AcDbPoint
 10
145.02682291666667
 20
-79.496901828066129
 30
0.0
  0
ENDBLK
  5
E2
100
AcDbEntity
  8
notes
390
0
100
AcDbBlockEnd
  0
BLOCK
  5
E3
100
AcDbEntity
  8
notes
390
0
100
AcDbBlockBegin
  2
*D13
 70
               1
 10
0.0
 20
0.0
 30
0.0
  3
*D13
  1

  0
LINE
  5
E4
100
AcDbEntity
  8
0
370
              -2
390
0
  6
Continuous
 62
               0
100
AcDbLine
 10
243.52682291666667
 20
-54.213296959607177
 30
0.0
 11
243.52682291666667
 21
170.78670304039292
 31
0.0
  0
LINE
  5
E5
100
AcDbEntity
  8
0
370
              -2
390
0
  6
Continuous
 62
               0
100
AcDbLine
 10
333.52682291666662
 20
95.786703040392624
 30
0.0
 11
333.52682291666662
 21
170.78670304039292
 31
0.0
  0
LINE
  5
E6
100
AcDbEntity
  8
0
370
              -2
390
0
  6
Continuous
 62
               0
100
AcDbLine
 10
243.52682291666667
 20
170.78670304039292
 30
0.0
 11
333.52682291666662
 21
170.78670304039292
 31
0.0
  0
CIRCLE
  5
E7
102
{ACAD_REACTORS
330
E8
102
}
100
AcDbEntity
  8
0
370
              -2
390
0
  6
Continuous
 62
               0
100
AcDbCircle
 10
243.52682291666667
 20
170.78670304039292
 30
0.0
 40
1.9998779296875
  0
HATCH
  5
E8
100
AcDbEntity
  8
0
370
              -2
390
0
  6
Continuous
 62
               0
100
AcDbHatch
 10
0.0
 20
0.0
 30
0.0
210
0.0
220
0.0
230
1.0
  2
SOLID
 70
               1
 71
               1
 91
        1
 92
        1
 93
        1
 72
               2
 10
243.52682291666667
 20
170.78670304039292
 40
1.9998779296875
 50
0.0
 51
360.0
 73
               0
 97
        1
330
E7
 75
               0
 76
               1
 98
        1
 10
0.0
 20
0.0
  0
CIRCLE
  5
E9
102
{ACAD_REACTORS
330
EA
102
}
100
AcDbEntity
  8
0
370
              -2
390
0
  6
Continuous
 62
               0
100
AcDbCircle
 10
333.52682291666662
 20
170.78670304039292
 30
0.0
 40
1.9998779296875
  0
HATCH
  5
EA
100
AcDbEntity
  8
0
370
              -2
390
0
  6
Continuous
 62
               0
100
AcDbHatch
 10
0.0
 20
0.0
 30
0.0
210
0.0
220
0.0
230
1.0
  2
SOLID
 70
               1
 71
               1
 91
        1
 92
        1
 93
        1
 72
               2
 10
333.52682291666662
 20
170.78670304039292
 40
1.9998779296875
 50
0.0
 51
360.0
 73
               0
 97
        1
330
E9
 75
               0
 76
               1
 98
        1
 10
0.0
 20
0.0
  0
MTEXT
  5
EB
100
AcDbEntity
  8
0
390
0
 62
               0
100
AcDbMText
 10
272.65182291666667
 20
204.66432022789292
 30
0.0
 40
24.432617187500004
 41
0.0
 71
               1
 72
               1
  1
90
  7
ＭＳ ゴシック
 73
               1
 44
0.7828267384257843
  0
POINT
  5
EC
100
AcDbEntity
  8
Defpoints
370
               0
390
0
 62
               0
100
AcDbPoint
 10
333.52682291666662
 20
70.786703040392624
 30
0.0
  0
POINT
  5
ED
100
AcDbEntity
  8
Defpoints
370
               0
390
0
 62
               0
100
AcDbPoint
 10
243.52682291666667
 20
-79.213296959607177
 30
0.0
  0
POINT
  5
EE
100
AcDbEntity
  8
Defpoints
370
               0
390
0
 62
               0
100
AcDbPoint
 10
243.52682291666667
 20
170.78670304039292
 30
0.0
  0
ENDBLK
  5
EF
100
AcDbEntity
  8
notes
390
0
100
AcDbBlockEnd
  0
BLOCK
  5
F0
100
AcDbEntity
  8
notes
390
0
100
AcDbBlockBegin
  2
*D14
 70
               1
 10
0.0
 20
0.0
 30
0.0
  3
*D14
  1

  0
LINE
  5
F1
100
AcDbEntity
  8
0
370
              -2
390
0
  6
Continuous
 62
               0
100
AcDbLine
 10
581.0132038926331
 20
-79.496901828066001
 30
0.0
 11
833.5268229166669
 21
-79.496901828066001
 31
0.0
  0
LINE
  5
F2
100
AcDbEntity
  8
0
370
              -2
390
0
  6
Continuous
 62
               0
100
AcDbLine
 10
705.02682291666679
 20
70.503098171933999
 30
0.0
 11
833.5268229166669
 21
70.503098171933999
 31
0.0
  0
LINE
  5
F3
100
AcDbEntity
  8
0
370
              -2
390
0
  6
Continuous
 62
               0
100
AcDbLine
 10
833.5268229166669
 20
-79.496901828066001
 30
0.0
 11
833.5268229166669
 21
70.503098171933999
 31
0.0
  0
CIRCLE
  5
F4
102
{ACAD_REACTORS
330
F5
102
}
100
AcDbEntity
  8
0
370
              -2
390
0
  6
Continuous
 62
               0
100
AcDbCircle
 10
833.5268229166669
 20
-79.496901828066001
 30
0.0
 40
1.9998779296875
  0
HATCH
  5
F5
100
AcDbEntity
  8
0
370
              -2
390
0
  6
Continuous
 62
               0
100
AcDbHatch
 10
0.0
 20
0.0
 30
0.0
210
0.0
220
0.0
230
1.0
  2
SOLID
 70
               1
 71
               1
 91
        1
 92
        1
 93
        1
 72
               2
 10
833.5268229166669
 20
-79.496901828066001
 40
1.9998779296875
 50
0.0
 51
360.0
 73
               0
 97
        1
330
F4
 75
               0
 76
               1
 98
        1
 10
0.0
 20
0.0
  0
CIRCLE
  5
F6
102
{ACAD_REACTORS
330
F7
102
}
100
AcDbEntity
  8
0
370
              -2
390
0
  6
Continuous
 62
               0
100
AcDbCircle
 10
833.5268229166669
 20
70.503098171933999
 30
0.0
 40
1.9998779296875
  0
HATCH
  5
F7
100
AcDbEntity
  8
0
370
              -2
390
0
  6
Continuous
 62
               0
100
AcDbHatch
 10
0.0
 20
0.0
 30
0.0
210
0.0
220
0.0
230
1.0
  2
SOLID
 70
               1
 71
               1
 91
        1
 92
        1
 93
        1
 72
               2
 10
833.5268229166669
 20
70.503098171933999
 40
1.9998779296875
 50
0.0
 51
360.0
 73
               0
 97
        1
330
F6
 75
               0
 76
               1
 98
        1
 10
0.0
 20
0.0
  0
MTEXT
  5
F8
100
AcDbEntity
  8
0
390
0
 62
               0
100
AcDbMText
 10
799.64920572916685
 20
-28.309403510241538
 30
0.0
 40
24.432617187500004
 41
0.0
 71
               1
 72
               1
  1
150
  7
ＭＳ ゴシック
 11
0.0
 21
1.0
 31
0.0
 73
               1
 44
0.7828267384257843
  0
POINT
  5
F9
100
AcDbEntity
  8
Defpoints
370
               0
390
0
 62
               0
100
AcDbPoint
 10
680.02682291666679
 20
70.503098171933999
 30
0.0
  0
POINT
  5
FA
100
AcDbEntity
  8
Defpoints
370
               0
390
0
 62
               0
100
AcDbPoint
 10
556.0132038926331
 20
-79.496901828066001
 30
0.0
  0
POINT
  5
FB
100
AcDbEntity
  8
Defpoints
370
               0
390
0
 62
               0
100
AcDbPoint
 10
833.5268229166669
 20
-79.496901828066001
 30
0.0
  0
ENDBLK
  5
FC
100
AcDbEntity
  8
notes
390
0
100
AcDbBlockEnd
  0
BLOCK
  5
FD
100
AcDbEntity
  8
notes
390
0
100
AcDbBlockBegin
  2
*D15
 70
               1
 10
0.0
 20
0.0
 30
0.0
  3
*D15
  1

  0
LINE
  5
FE
100
AcDbEntity
  8
0
370
              -2
390
0
  6
Continuous
 62
               0
100
AcDbLine
 10
521.01320389263299
 20
-107.496901828066
 30
0.0
 11
521.01320389263299
 21
-182.496901828066
 31
0.0
  0
LINE
  5
FF
100
AcDbEntity
  8
0
370
              -2
390
0
  6
Continuous
 62
               0
100
AcDbLine
 10
243.52682291666667
 20
-108.49690182806611
 30
0.0
 11
243.52682291666667
 21
-182.496901828066
 31
0.0
  0
LINE
  5
100
100
AcDbEntity
  8
0
370
              -2
390
0
  6
Continuous
 62
               0
100
AcDbLine
 10
521.01320389263299
 20
-182.496901828066
 30
0.0
 11
243.52682291666667
 21
-182.496901828066
 31
0.0
  0
CIRCLE
  5
101
102
{ACAD_REACTORS
330
102
102
}
100
AcDbEntity
  8
0
370
              -2
390
0
  6
Continuous
 62
               0
100
AcDbCircle
 10
521.01320389263299
 20
-182.496901828066
 30
0.0
 40
1.9998779296875
  0
HATCH
  5
102
100
AcDbEntity
  8
0
370
              -2
390
0
  6
Continuous
 62
               0
100
AcDbHatch
 10
0.0
 20
0.0
 30
0.0
210
0.0
220
0.0
230
1.0
  2
SOLID
 70
               1
 71
               1
 91
        1
 92
        1
 93
        1
 72
               2
 10
521.01320389263299
 20
-182.496901828066
 40
1.9998779296875
 50
0.0
 51
360.0
 73
               0
 97
        1
330
101
 75
               0
 76
               1
 98
        1
 10
0.0
 20
0.0
  0
CIRCLE
  5
103
102
{ACAD_REACTORS
330
104
102
}
100
AcDbEntity
  8
0
370
              -2
390
0
  6
Continuous
 62
               0
100
AcDbCircle
 10
243.52682291666667
 20
-182.496901828066
 30
0.0
 40
1.9998779296875
  0
HATCH
  5
104
100
AcDbEntity
  8
0
370
              -2
390
0
  6
Continuous
 62
               0
100
AcDbHatch
 10
0.0
 20
0.0
 30
0.0
210
0.0
220
0.0
230
1.0
  2
SOLID
 70
               1
 71
               1
 91
        1
 92
        1
 93
        1
 72
               2
 10
243.52682291666667
 20
-182.496901828066
 40
1.9998779296875
 50
0.0
 51
360.0
 73
               0
 97
        1
330
103
 75
               0
 76
               1
 98
        1
 10
0.0
 20
0.0
  0
MTEXT
  5
105
100
AcDbEntity
  8
0
390
0
 62
               0
100
AcDbMText
 10
342.58251340464983
 20
-148.61928464056598
 30
0.0
 40
24.432617187500004
 41
0.0
 71
               1
 72
               1
  1
277.5
  7
ＭＳ ゴシック
 73
               1
 44
0.7828267384257843
  0
POINT
  5
106
100
AcDbEntity
  8
Defpoints
370
               0
390
0
 62
               0
100
AcDbPoint
 10
243.52682291666667
 20
-83.496901828066115
 30
0.0
  0
POINT
  5
107
100
AcDbEntity
  8
Defpoints
370
               0
390
0
 62
               0
100
AcDbPoint
 10
521.01320389263299
 20
-82.496901828066001
 30
0.0
  0
POINT
  5
108
100
AcDbEntity
  8
Defpoints
370
               0
390
0
 62
               0
100
AcDbPoint
 10
521.01320389263299
 20
-182.496901828066
 30
0.0
  0
ENDBLK
  5
109
100
AcDbEntity
  8
notes
390
0
100
AcDbBlockEnd
  0
BLOCK
  5
10A
100
AcDbEntity
  8
notes
390
0
100
AcDbBlockBegin
  2
*D16
 70
               1
 10
0.0
 20
0.0
 30
0.0
  3
*D16
  1

  0
LINE
  5
10B
100
AcDbEntity
  8
0
370
              -2
390
0
  6
Continuous
 62
               0
100
AcDbLine
 10
-209.97317708333333
 20
70.503098171933672
 30
0.0
 11
-81.473177083333312
 21
70.503098171933672
 31
0.0
  0
LINE
  5
10C
100
AcDbEntity
  8
0
370
              -2
390
0
  6
Continuous
 62
               0
100
AcDbLine
 10
-209.97317708333333
 20
-829.49690182806512
 30
0.0
 11
-81.473177083333312
 21
-829.49690182806512
 31
0.0
  0
LINE
  5
10D
100
AcDbEntity
  8
0
370
              -2
390
0
  6
Continuous
 62
               0
100
AcDbLine
 10
-81.473177083333312
 20
70.503098171933672
 30
0.0
 11
-81.473177083333312
 21
-829.49690182806512
 31
0.0
  0
CIRCLE
  5
10E
102
{ACAD_REACTORS
330
10F
102
}
100
AcDbEntity
  8
0
370
              -2
390
0
  6
Continuous
 62
               0
100
AcDbCircle
 10
-81.473177083333312
 20
70.503098171933672
 30
0.0
 40
1.9998779296875
  0
HATCH
  5
10F
100
AcDbEntity
  8
0
370
              -2
390
0
  6
Continuous
 62
               0
100
AcDbHatch
 10
0.0
 20
0.0
 30
0.0
210
0.0
220
0.0
230
1.0
  2
SOLID
 70
               1
 71
               1
 91
        1
 92
        1
 93
        1
 72
               2
 10
-81.473177083333312
 20
70.503098171933672
 40
1.9998779296875
 50
0.0
 51
360.0
 73
               0
 97
        1
330
10E
 75
               0
 76
               1
 98
        1
 10
0.0
 20
0.0
  0
CIRCLE
  5
110
102
{ACAD_REACTORS
330
111
102
}
100
AcDbEntity
  8
0
370
              -2
390
0
  6
Continuous
 62
               0
100
AcDbCircle
 10
-81.473177083333312
 20
-829.49690182806512
 30
0.0
 40
1.9998779296875
  0
HATCH
  5
111
100
AcDbEntity
  8
0
370
              -2
390
0
  6
Continuous
 62
               0
100
AcDbHatch
 10
0.0
 20
0.0
 30
0.0
210
0.0
220
0.0
230
1.0
  2
SOLID
 70
               1
 71
               1
 91
        1
 92
        1
 93
        1
 72
               2
 10
-81.473177083333312
 20
-829.49690182806512
 40
1.9998779296875
 50
0.0
 51
360.0
 73
               0
 97
        1
330
110
 75
               0
 76
               1
 98
        1
 10
0.0
 20
0.0
  0
MTEXT
  5
112
100
AcDbEntity
  8
0
390
0
 62
               0
100
AcDbMText
 10
-115.35079427083332
 20
-403.30940351024122
 30
0.0
 40
24.432617187500004
 41
0.0
 71
               1
 72
               1
  1
900
  7
ＭＳ ゴシック
 11
0.0
 21
1.0
 31
0.0
 73
               1
 44
0.7828267384257843
  0
POINT
  5
113
100
AcDbEntity
  8
Defpoints
370
               0
390
0
 62
               0
100
AcDbPoint
 10
-234.97317708333333
 20
-829.49690182806512
 30
0.0
  0
POINT
  5
114
100
AcDbEntity
  8
Defpoints
370
               0
390
0
 62
               0
100
AcDbPoint
 10
-234.97317708333333
 20
70.503098171933672
 30
0.0
  0
POINT
  5
115
100
AcDbEntity
  8
Defpoints
370
               0
390
0
 62
               0
100
AcDbPoint
 10
-81.473177083333312
 20
70.503098171933672
 30
0.0
  0
ENDBLK
  5
116
100
AcDbEntity
  8
notes
390
0
100
AcDbBlockEnd
  0
BLOCK
  5
117
100
AcDbEntity
  8
notes
390
0
100
AcDbBlockBegin
  2
*D17
 70
               1
 10
0.0
 20
0.0
 30
0.0
  3
*D17
  1

  0
LINE
  5
118
100
AcDbEntity
  8
0
370
              -2
390
0
  6
Continuous
 62
               0
100
AcDbLine
 10
-488.97317708333338
 20
-479.49690182806552
 30
0.0
 11
-488.97317708333338
 21
-568.7675347222214
 31
0.0
  0
LINE
  5
119
100
AcDbEntity
  8
0
370
              -2
390
0
  6
Continuous
 62
               0
100
AcDbLine
 10
-373.97317708333338
 20
-479.49690182806552
 30
0.0
 11
-373.97317708333338
 21
-568.7675347222214
 31
0.0
  0
LINE
  5
11A
100
AcDbEntity
  8
0
370
              -2
390
0
  6
Continuous
 62
               0
100
AcDbLine
 10
-488.97317708333338
 20
-568.7675347222214
 30
0.0
 11
-373.97317708333338
 21
-568.7675347222214
 31
0.0
  0
CIRCLE
  5
11B
102
{ACAD_REACTORS
330
11C
102
}
100
AcDbEntity
  8
0
370
              -2
390
0
  6
Continuous
 62
               0
100
AcDbCircle
 10
-488.97317708333338
 20
-568.7675347222214
 30
0.0
 40
1.9998779296875
  0
HATCH
  5
11C
100
AcDbEntity
  8
0
370
              -2
390
0
  6
Continuous
 62
               0
100
AcDbHatch
 10
0.0
 20
0.0
 30
0.0
210
0.0
220
0.0
230
1.0
  2
SOLID
 70
               1
 71
               1
 91
        1
 92
        1
 93
        1
 72
               2
 10
-488.97317708333338
 20
-568.7675347222214
 40
1.9998779296875
 50
0.0
 51
360.0
 73
               0
 97
        1
330
11B
 75
               0
 76
               1
 98
        1
 10
0.0
 20
0.0
  0
CIRCLE
  5
11D
102
{ACAD_REACTORS
330
11E
102
}
100
AcDbEntity
  8
0
370
              -2
390
0
  6
Continuous
 62
               0
100
AcDbCircle
 10
-373.97317708333338
 20
-568.7675347222214
 30
0.0
 40
1.9998779296875
  0
HATCH
  5
11E
100
AcDbEntity
  8
0
370
              -2
390
0
  6
Continuous
 62
               0
100
AcDbHatch
 10
0.0
 20
0.0
 30
0.0
210
0.0
220
0.0
230
1.0
  2
SOLID
 70
               1
 71
               1
 91
        1
 92
        1
 93
        1
 72
               2
 10
-373.97317708333338
 20
-568.7675347222214
 40
1.9998779296875
 50
0.0
 51
360.0
 73
               0
 97
        1
330
11D
 75
               0
 76
               1
 98
        1
 10
0.0
 20
0.0
  0
MTEXT
  5
11F
100
AcDbEntity
  8
0
390
0
 62
               0
100
AcDbMText
 10
-455.28567876550892
 20
-534.88991753472123
 30
0.0
 40
24.432617187500004
 41
0.0
 71
               1
 72
               1
  1
115
  7
ＭＳ ゴシック
 73
               1
 44
0.7828267384257843
  0
POINT
  5
120
100
AcDbEntity
  8
Defpoints
370
               0
390
0
 62
               0
100
AcDbPoint
 10
-373.97317708333338
 20
-454.49690182806557
 30
0.0
  0
POINT
  5
121
100
AcDbEntity
  8
Defpoints
370
               0
390
0
 62
               0
100
AcDbPoint
 10
-488.97317708333338
 20
-454.49690182806557
 30
0.0
  0
POINT
  5
122
100
AcDbEntity
  8
Defpoints
370
               0
390
0
 62
               0
100
AcDbPoint
 10
-488.97317708333338
 20
-568.7675347222214
 30
0.0
  0
ENDBLK
  5
123
100
AcDbEntity
  8
notes
390
0
100
AcDbBlockEnd
  0
BLOCK
  5
124
100
AcDbEntity
  8
notes
390
0
100
AcDbBlockBegin
  2
*D18
 70
               1
 10
0.0
 20
0.0
 30
0.0
  3
*D18
  1

  0
LINE
  5
125
100
AcDbEntity
  8
0
370
              -2
390
0
  6
Continuous
 62
               0
100
AcDbLine
 10
-533.97317708333321
 20
-134.49690182806617
 30
0.0
 11
-731.47317708333321
 21
-134.49690182806617
 31
0.0
  0
LINE
  5
126
100
AcDbEntity
  8
0
370
              -2
390
0
  6
Continuous
 62
               0
100
AcDbLine
 10
-533.97317708333321
 20
-434.49690182806586
 30
0.0
 11
-731.47317708333321
 21
-434.49690182806586
 31
0.0
  0
LINE
  5
127
100
AcDbEntity
  8
0
370
              -2
390
0
  6
Continuous
 62
               0
100
AcDbLine
 10
-731.47317708333321
 20
-134.49690182806617
 30
0.0
 11
-731.47317708333321
 21
-434.49690182806586
 31
0.0
  0
CIRCLE
  5
128
102
{ACAD_REACTORS
330
129
102
}
100
AcDbEntity
  8
0
370
              -2
390
0
  6
Continuous
 62
               0
100
AcDbCircle
 10
-731.47317708333321
 20
-134.49690182806617
 30
0.0
 40
1.9998779296875
  0
HATCH
  5
129
100
AcDbEntity
  8
0
370
              -2
390
0
  6
Continuous
 62
               0
100
AcDbHatch
 10
0.0
 20
0.0
 30
0.0
210
0.0
220
0.0
230
1.0
  2
SOLID
 70
               1
 71
               1
 91
        1
 92
        1
 93
        1
 72
               2
 10
-731.47317708333321
 20
-134.49690182806617
 40
1.9998779296875
 50
0.0
 51
360.0
 73
               0
 97
        1
330
128
 75
               0
 76
               1
 98
        1
 10
0.0
 20
0.0
  0
CIRCLE
  5
12A
102
{ACAD_REACTORS
330
12B
102
}
100
AcDbEntity
  8
0
370
              -2
390
0
  6
Continuous
 62
               0
100
AcDbCircle
 10
-731.47317708333321
 20
-434.49690182806586
 30
0.0
 40
1.9998779296875
  0
HATCH
  5
12B
100
AcDbEntity
  8
0
370
              -2
390
0
  6
Continuous
 62
               0
100
AcDbHatch
 10
0.0
 20
0.0
 30
0.0
210
0.0
220
0.0
230
1.0
  2
SOLID
 70
               1
 71
               1
 91
        1
 92
        1
 93
        1
 72
               2
 10
-731.47317708333321
 20
-434.49690182806586
 40
1.9998779296875
 50
0.0
 51
360.0
 73
               0
 97
        1
330
12A
 75
               0
 76
               1
 98
        1
 10
0.0
 20
0.0
  0
MTEXT
  5
12C
100
AcDbEntity
  8
0
390
0
 62
               0
100
AcDbMText
 10
-765.35079427083326
 20
-366.58003640439733
 30
0.0
 40
24.432617187500004
 41
0.0
 71
               1
 72
               1
  1
300
  7
ＭＳ ゴシック
 11
0.0
 21
1.0
 31
0.0
 73
               1
 44
0.7828267384257843
  0
POINT
  5
12D
100
AcDbEntity
  8
Defpoints
370
               0
390
0
 62
               0
100
AcDbPoint
 10
-508.97317708333327
 20
-434.49690182806586
 30
0.0
  0
POINT
  5
12E
100
AcDbEntity
  8
Defpoints
370
               0
390
0
 62
               0
100
AcDbPoint
 10
-508.97317708333327
 20
-134.49690182806617
 30
0.0
  0
POINT
  5
12F
100
AcDbEntity
  8
Defpoints
370
               0
390
0
 62
               0
100
AcDbPoint
 10
-731.47317708333321
 20
-134.49690182806617
 30
0.0
  0
ENDBLK
  5
130
100
AcDbEntity
  8
notes
390
0
100
AcDbBlockEnd
  0
BLOCK
  5
131
100
AcDbEntity
  8
notes
390
0
100
AcDbBlockBegin
  2
*D19
 70
               1
 10
0.0
 20
0.0
 30
0.0
  3
*D19
  1

  0
LINE
  5
132
100
AcDbEntity
  8
0
370
              -2
390
0
  6
Continuous
 62
               0
100
AcDbLine
 10
-533.97317708333321
 20
-134.49690182806617
 30
0.0
 11
-731.47317708333321
 21
-134.49690182806617
 31
0.0
  0
LINE
  5
133
100
AcDbEntity
  8
0
370
              -2
390
0
  6
Continuous
 62
               0
100
AcDbLine
 10
-529.47317708333333
 20
-79.467534722221941
 30
0.0
 11
-731.47317708333321
 21
-79.467534722221941
 31
0.0
  0
LINE
  5
134
100
AcDbEntity
  8
0
370
              -2
390
0
  6
Continuous
 62
               0
100
AcDbLine
 10
-731.47317708333321
 20
-134.49690182806617
 30
0.0
 11
-731.47317708333321
 21
-79.467534722221941
 31
0.0
  0
CIRCLE
  5
135
102
{ACAD_REACTORS
330
136
102
}
100
AcDbEntity
  8
0
370
              -2
390
0
  6
Continuous
 62
               0
100
AcDbCircle
 10
-731.47317708333321
 20
-134.49690182806617
 30
0.0
 40
1.9998779296875
  0
HATCH
  5
136
100
AcDbEntity
  8
0
370
              -2
390
0
  6
Continuous
 62
               0
100
AcDbHatch
 10
0.0
 20
0.0
 30
0.0
210
0.0
220
0.0
230
1.0
  2
SOLID
 70
               1
 71
               1
 91
        1
 92
        1
 93
        1
 72
               2
 10
-731.47317708333321
 20
-134.49690182806617
 40
1.9998779296875
 50
0.0
 51
360.0
 73
               0
 97
        1
330
135
 75
               0
 76
               1
 98
        1
 10
0.0
 20
0.0
  0
CIRCLE
  5
137
102
{ACAD_REACTORS
330
138
102
}
100
AcDbEntity
  8
0
370
              -2
390
0
  6
Continuous
 62
               0
100
AcDbCircle
 10
-731.47317708333321
 20
-79.467534722221941
 30
0.0
 40
1.9998779296875
  0
HATCH
  5
138
100
AcDbEntity
  8
0
370
              -2
390
0
  6
Continuous
 62
               0
100
AcDbHatch
 10
0.0
 20
0.0
 30
0.0
210
0.0
220
0.0
230
1.0
  2
SOLID
 70
               1
 71
               1
 91
        1
 92
        1
 93
        1
 72
               2
 10
-731.47317708333321
 20
-79.467534722221941
 40
1.9998779296875
 50
0.0
 51
360.0
 73
               0
 97
        1
330
137
 75
               0
 76
               1
 98
        1
 10
0.0
 20
0.0
  0
MTEXT
  5
139
100
AcDbEntity
  8
0
390
0
 62
               0
100
AcDbMText
 10
-765.35079427083326
 20
-122.85721827514405
 30
0.0
 40
24.432617187500004
 41
0.0
 71
               1
 72
               1
  1
55
  7
ＭＳ ゴシック
 11
0.0
 21
1.0
 31
0.0
 73
               1
 44
0.7828267384257843
  0
POINT
  5
13A
100
AcDbEntity
  8
Defpoints
370
               0
390
0
 62
               0
100
AcDbPoint
 10
-504.47317708333333
 20
-79.467534722221941
 30
0.0
  0
POINT
  5
13B
100
AcDbEntity
  8
Defpoints
370
               0
390
0
 62
               0
100
AcDbPoint
 10
-508.97317708333327
 20
-134.49690182806617
 30
0.0
  0
POINT
  5
13C
100
AcDbEntity
  8
Defpoints
370
               0
390
0
 62
               0
100
AcDbPoint
 10
-731.47317708333321
 20
-134.49690182806617
 30
0.0
  0
ENDBLK
  5
13D
100
AcDbEntity
  8
notes
390
0
100
AcDbBlockEnd
  0
BLOCK
  5
13E
100
AcDbEntity
  8
notes
390
0
100
AcDbBlockBegin
  2
*D20
 70
               1
 10
0.0
 20
0.0
 30
0.0
  3
*D20
  1

  0
LINE
  5
13F
100
AcDbEntity
  8
0
370
              -2
390
0
  6
Continuous
 62
               0
100
AcDbLine
 10
-391.47289132897373
 20
-194.49690182806677
 30
0.0
 11
-391.47289132897373
 21
-173.01753472222265
 31
0.0
  0
LINE
  5
140
100
AcDbEntity
  8
0
370
              -2
390
0
  6
Continuous
 62
               0
100
AcDbLine
 10
-471.47289132897373
 20
-194.49690182806677
 30
0.0
 11
-471.47289132897373
 21
-173.01753472222265
 31
0.0
  0
LINE
  5
141
100
AcDbEntity
  8
0
370
              -2
390
0
  6
Continuous
 62
               0
100
AcDbLine
 10
-391.47289132897373
 20
-173.01753472222265
 30
0.0
 11
-471.47289132897373
 21
-173.01753472222265
 31
0.0
  0
CIRCLE
  5
142
102
{ACAD_REACTORS
330
143
102
}
100
AcDbEntity
  8
0
370
              -2
390
0
  6
Continuous
 62
               0
100
AcDbCircle
 10
-391.47289132897373
 20
-173.01753472222265
 30
0.0
 40
1.9998779296875
  0
HATCH
  5
143
100
AcDbEntity
  8
0
370
              -2
390
0
  6
Continuous
 62
               0
100
AcDbHatch
 10
0.0
 20
0.0
 30
0.0
210
0.0
220
0.0
230
1.0
  2
SOLID
 70
               1
 71
               1
 91
        1
 92
        1
 93
        1
 72
               2
 10
-391.47289132897373
 20
-173.01753472222265
 40
1.9998779296875
 50
0.0
 51
360.0
 73
               0
 97
        1
330
142
 75
               0
 76
               1
 98
        1
 10
0.0
 20
0.0
  0
CIRCLE
  5
144
102
{ACAD_REACTORS
330
145
102
}
100
AcDbEntity
  8
0
370
              -2
390
0
  6
Continuous
 62
               0
100
AcDbCircle
 10
-471.47289132897373
 20
-173.01753472222265
 30
0.0
 40
1.9998779296875
  0
HATCH
  5
145
100
AcDbEntity
  8
0
370
              -2
390
0
  6
Continuous
 62
               0
100
AcDbHatch
 10
0.0
 20
0.0
 30
0.0
210
0.0
220
0.0
230
1.0
  2
SOLID
 70
               1
 71
               1
 91
        1
 92
        1
 93
        1
 72
               2
 10
-471.47289132897373
 20
-173.01753472222265
 40
1.9998779296875
 50
0.0
 51
360.0
 73
               0
 97
        1
330
144
 75
               0
 76
               1
 98
        1
 10
0.0
 20
0.0
  0
MTEXT
  5
146
100
AcDbEntity
  8
0
390
0
 62
               0
100
AcDbMText
 10
-447.34789132897373
 20
-139.13991753472266
 30
0.0
 40
24.432617187500004
 41
0.0
 71
               1
 72
               1
  1
80
  7
ＭＳ ゴシック
 73
               1
 44
0.7828267384257843
  0
POINT
  5
147
100
AcDbEntity
  8
Defpoints
370
               0
390
0
 62
               0
100
AcDbPoint
 10
-471.47289132897373
 20
-219.49690182806677
 30
0.0
  0
POINT
  5
148
100
AcDbEntity
  8
Defpoints
370
               0
390
0
 62
               0
100
AcDbPoint
 10
-391.47289132897373
 20
-219.49690182806677
 30
0.0
  0
POINT
  5
149
100
AcDbEntity
  8
Defpoints
370
               0
390
0
 62
               0
100
AcDbPoint
 10
-391.47289132897373
 20
-173.01753472222265
 30
0.0
  0
ENDBLK
  5
14A
100
AcDbEntity
  8
notes
390
0
100
AcDbBlockEnd
  0
BLOCK
  5
14B
100
AcDbEntity
  8
notes
390
0
100
AcDbBlockBegin
  2
*D21
 70
               1
 10
0.0
 20
0.0
 30
0.0
  3
*D21
  1

  0
LINE
  5
14C
100
AcDbEntity
  8
0
370
              -2
390
0
  6
Continuous
 62
               0
100
AcDbLine
 10
-506.47289132897373
 20
-229.49690182806677
 30
0.0
 11
-831.47317708333344
 21
-229.49690182806677
 31
0.0
  0
LINE
  5
14D
100
AcDbEntity
  8
0
370
              -2
390
0
  6
Continuous
 62
               0
100
AcDbLine
 10
-652.97247236919054
 20
-829.49690182806512
 30
0.0
 11
-831.47317708333344
 21
-829.49690182806512
 31
0.0
  0
LINE
  5
14E
100
AcDbEntity
  8
0
370
              -2
390
0
  6
Continuous
 62
               0
100
AcDbLine
 10
-831.47317708333344
 20
-229.49690182806677
 30
0.0
 11
-831.47317708333344
 21
-829.49690182806512
 31
0.0
  0
CIRCLE
  5
14F
102
{ACAD_REACTORS
330
150
102
}
100
AcDbEntity
  8
0
370
              -2
390
0
  6
Continuous
 62
               0
100
AcDbCircle
 10
-831.47317708333344
 20
-229.49690182806677
 30
0.0
 40
1.9998779296875
  0
HATCH
  5
150
100
AcDbEntity
  8
0
370
              -2
390
0
  6
Continuous
 62
               0
100
AcDbHatch
 10
0.0
 20
0.0
 30
0.0
210
0.0
220
0.0
230
1.0
  2
SOLID
 70
               1
 71
               1
 91
        1
 92
        1
 93
        1
 72
               2
 10
-831.47317708333344
 20
-229.49690182806677
 40
1.9998779296875
 50
0.0
 51
360.0
 73
               0
 97
        1
330
14F
 75
               0
 76
               1
 98
        1
 10
0.0
 20
0.0
  0
CIRCLE
  5
151
102
{ACAD_REACTORS
330
152
102
}
100
AcDbEntity
  8
0
370
              -2
390
0
  6
Continuous
 62
               0
100
AcDbCircle
 10
-831.47317708333344
 20
-829.49690182806512
 30
0.0
 40
1.9998779296875
  0
HATCH
  5
152
100
AcDbEntity
  8
0
370
              -2
390
0
  6
Continuous
 62
               0
100
AcDbHatch
 10
0.0
 20
0.0
 30
0.0
210
0.0
220
0.0
230
1.0
  2
SOLID
 70
               1
 71
               1
 91
        1
 92
        1
 93
        1
 72
               2
 10
-831.47317708333344
 20
-829.49690182806512
 40
1.9998779296875
 50
0.0
 51
360.0
 73
               0
 97
        1
330
151
 75
               0
 76
               1
 98
        1
 10
0.0
 20
0.0
  0
MTEXT
  5
153
100
AcDbEntity
  8
0
390
0
 62
               0
100
AcDbMText
 10
-865.35079427083349
 20
-553.30940351024151
 30
0.0
 40
24.432617187500004
 41
0.0
 71
               1
 72
               1
  1
600
  7
ＭＳ ゴシック
 11
0.0
 21
1.0
 31
0.0
 73
               1
 44
0.7828267384257843
  0
POINT
  5
154
100
AcDbEntity
  8
Defpoints
370
               0
390
0
 62
               0
100
AcDbPoint
 10
-627.97247236919054
 20
-829.49690182806512
 30
0.0
  0
POINT
  5
155
100
AcDbEntity
  8
Defpoints
370
               0
390
0
 62
               0
100
AcDbPoint
 10
-481.47289132897373
 20
-229.49690182806677
 30
0.0
  0
POINT
  5
156
100
AcDbEntity
  8
Defpoints
370
               0
390
0
 62
               0
100
AcDbPoint
 10
-831.47317708333344
 20
-229.49690182806677
 30
0.0
  0
ENDBLK
  5
157
100
AcDbEntity
  8
notes
390
0
100
AcDbBlockEnd
  0
BLOCK
  5
158
100
AcDbEntity
  8
notes
390
0
100
AcDbBlockBegin
  2
*D22
 70
               1
 10
0.0
 20
0.0
 30
0.0
  3
*D22
  1

  0
LINE
  5
159
100
AcDbEntity
  8
0
370
              -2
390
0
  6
Continuous
 62
               0
100
AcDbLine
 10
-472.47289132897373
 20
-279.49690182806677
 30
0.0
 11
-781.47317708333344
 21
-279.49690182806677
 31
0.0
  0
LINE
  5
15A
100
AcDbEntity
  8
0
370
              -2
390
0
  6
Continuous
 62
               0
100
AcDbLine
 10
-652.97247236919054
 20
-829.49690182806512
 30
0.0
 11
-781.47317708333344
 21
-829.49690182806512
 31
0.0
  0
LINE
  5
15B
100
AcDbEntity
  8
0
370
              -2
390
0
  6
Continuous
 62
               0
100
AcDbLine
 10
-781.47317708333344
 20
-279.49690182806677
 30
0.0
 11
-781.47317708333344
 21
-829.49690182806512
 31
0.0
  0
CIRCLE
  5
15C
102
{ACAD_REACTORS
330
15D
102
}
100
AcDbEntity
  8
0
370
              -2
390
0
  6
Continuous
 62
               0
100
AcDbCircle
 10
-781.47317708333344
 20
-279.49690182806677
 30
0.0
 40
1.9998779296875
  0
HATCH
  5
15D
100
AcDbEntity
  8
0
370
              -2
390
0
  6
Continuous
 62
               0
100
AcDbHatch
 10
0.0
 20
0.0
 30
0.0
210
0.0
220
0.0
230
1.0
  2
SOLID
 70
               1
 71
               1
 91
        1
 92
        1
 93
        1
 72
               2
 10
-781.47317708333344
 20
-279.49690182806677
 40
1.9998779296875
 50
0.0
 51
360.0
 73
               0
 97
        1
330
15C
 75
               0
 76
               1
 98
        1
 10
0.0
 20
0.0
  0
CIRCLE
  5
15E
102
{ACAD_REACTORS
330
15F
102
}
100
AcDbEntity
  8
0
370
              -2
390
0
  6
Continuous
 62
               0
100
AcDbCircle
 10
-781.47317708333344
 20
-829.49690182806512
 30
0.0
 40
1.9998779296875
  0
HATCH
  5
15F
100
AcDbEntity
  8
0
370
              -2
390
0
  6
Continuous
 62
               0
100
AcDbHatch
 10
0.0
 20
0.0
 30
0.0
210
0.0
220
0.0
230
1.0
  2
SOLID
 70
               1
 71
               1
 91
        1
 92
        1
 93
        1
 72
               2
 10
-781.47317708333344
 20
-829.49690182806512
 40
1.9998779296875
 50
0.0
 51
360.0
 73
               0
 97
        1
330
15E
 75
               0
 76
               1
 98
        1
 10
0.0
 20
0.0
  0
MTEXT
  5
160
100
AcDbEntity
  8
0
390
0
 62
               0
100
AcDbMText
 10
-815.35079427083349
 20
-578.30940351024151
 30
0.0
 40
24.432617187500004
 41
0.0
 71
               1
 72
               1
  1
550
  7
ＭＳ ゴシック
 11
0.0
 21
1.0
 31
0.0
 73
               1
 44
0.7828267384257843
  0
POINT
  5
161
100
AcDbEntity
  8
Defpoints
370
               0
390
0
 62
               0
100
AcDbPoint
 10
-627.97247236919054
 20
-829.49690182806512
 30
0.0
  0
POINT
  5
162
100
AcDbEntity
  8
Defpoints
370
               0
390
0
 62
               0
100
AcDbPoint
 10
-447.47289132897373
 20
-279.49690182806677
 30
0.0
  0
POINT
  5
163
100
AcDbEntity
  8
Defpoints
370
               0
390
0
 62
               0
100
AcDbPoint
 10
-781.47317708333344
 20
-279.49690182806677
 30
0.0
  0
ENDBLK
  5
164
100
AcDbEntity
  8
notes
390
0
100
AcDbBlockEnd
  0
BLOCK
  5
165
100
AcDbEntity
  8
notes
390
0
100
AcDbBlockBegin
  2
*D23
 70
               1
 10
0.0
 20
0.0
 30
0.0
  3
*D23
  1

  0
LINE
  5
166
100
AcDbEntity
  8
0
370
              -2
390
0
  6
Continuous
 62
               0
100
AcDbLine
 10
-416.10488379490835
 20
-275.04444807390644
 30
0.0
 11
-249.47317708333338
 21
-226.76753472222265
 31
0.0
  0
CIRCLE
  5
167
102
{ACAD_REACTORS
330
168
102
}
100
AcDbEntity
  8
0
370
              -2
390
0
  6
Continuous
 62
               0
100
AcDbCircle
 10
-416.10488379490835
 20
-275.04444807390644
 30
0.0
 40
1.9998779296875
  0
HATCH
  5
168
100
AcDbEntity
  8
0
370
              -2
390
0
  6
Continuous
 62
               0
100
AcDbHatch
 10
0.0
 20
0.0
 30
0.0
210
0.0
220
0.0
230
1.0
  2
SOLID
 70
               1
 71
               1
 91
        1
 92
        1
 93
        1
 72
               2
 10
-416.10488379490835
 20
-275.04444807390644
 40
1.9998779296875
 50
0.0
 51
360.0
 73
               0
 97
        1
330
167
 75
               0
 76
               1
 98
        1
 10
0.0
 20
0.0
  0
LINE
  5
169
100
AcDbEntity
  8
0
370
              -2
390
0
  6
Continuous
 62
               0
100
AcDbLine
 10
-249.47317708333338
 20
-226.76753472222265
 30
0.0
 11
-125.9731770833334
 21
-226.76753472222265
 31
0.0
  0
MTEXT
  5
16A
100
AcDbEntity
  8
0
390
0
 62
               0
100
AcDbMText
 10
-189.47317708333338
 20
-192.88991753472266
 30
0.0
 40
24.432617187500004
 41
0.0
 71
               1
 72
               1
  1
φ32
  7
ＭＳ ゴシック
 73
               1
 44
0.7828267384257843
  0
POINT
  5
16B
100
AcDbEntity
  8
Defpoints
370
               0
390
0
 62
               0
100
AcDbPoint
 10
-446.84089886303917
 20
-283.94935558222716
 30
0.0
  0
POINT
  5
16C
100
AcDbEntity
  8
Defpoints
370
               0
390
0
 62
               0
100
AcDbPoint
 10
-416.10488379490835
 20
-275.04444807390644
 30
0.0
  0
ENDBLK
  5
16D
100
AcDbEntity
  8
notes
390
0
100
AcDbBlockEnd
  0
BLOCK
  5
16E
100
AcDbEntity
  8
notes
390
0
100
AcDbBlockBegin
  2
*D24
 70
               1
 10
0.0
 20
0.0
 30
0.0
  3
*D24
  1

  0
LINE
  5
16F
100
AcDbEntity
  8
0
370
              -2
390
0
  6
Continuous
 62
               0
100
AcDbLine
 10
496.02682291666679
 20
-29.496901828066157
 30
0.0
 11
517.61320389263301
 21
-29.496901828066157
 31
0.0
  0
LINE
  5
170
100
AcDbEntity
  8
0
370
              -2
390
0
  6
Continuous
 62
               0
100
AcDbLine
 10
496.02682291666679
 20
70.503098171933843
 30
0.0
 11
517.61320389263301
 21
70.503098171933843
 31
0.0
  0
LINE
  5
171
100
AcDbEntity
  8
0
370
              -2
390
0
  6
Continuous
 62
               0
100
AcDbLine
 10
517.61320389263301
 20
70.503098171933843
 30
0.0
 11
517.61320389263301
 21
221.28008522130131
 31
0.0
  0
LINE
  5
172
100
AcDbEntity
  8
0
370
              -2
390
0
  6
Continuous
 62
               0
100
AcDbLine
 10
517.61320389263301
 20
-29.496901828066157
 30
0.0
 11
517.61320389263301
 21
70.503098171933843
 31
0.0
  0
CIRCLE
  5
173
102
{ACAD_REACTORS
330
174
102
}
100
AcDbEntity
  8
0
370
              -2
390
0
  6
Continuous
 62
               0
100
AcDbCircle
 10
517.61320389263301
 20
-29.496901828066157
 30
0.0
 40
1.9998779296875
  0
HATCH
  5
174
100
AcDbEntity
  8
0
370
              -2
390
0
  6
Continuous
 62
               0
100
AcDbHatch
 10
0.0
 20
0.0
 30
0.0
210
0.0
220
0.0
230
1.0
  2
SOLID
 70
               1
 71
               1
 91
        1
 92
        1
 93
        1
 72
               2
 10
517.61320389263301
 20
-29.496901828066157
 40
1.9998779296875
 50
0.0
 51
360.0
 73
               0
 97
        1
330
173
 75
               0
 76
               1
 98
        1
 10
0.0
 20
0.0
  0
CIRCLE
  5
175
102
{ACAD_REACTORS
330
176
102
}
100
AcDbEntity
  8
0
370
              -2
390
0
  6
Continuous
 62
               0
100
AcDbCircle
 10
517.61320389263301
 20
70.503098171933843
 30
0.0
 40
1.9998779296875
  0
HATCH
  5
176
100
AcDbEntity
  8
0
370
              -2
390
0
  6
Continuous
 62
               0
100
AcDbHatch
 10
0.0
 20
0.0
 30
0.0
210
0.0
220
0.0
230
1.0
  2
SOLID
 70
               1
 71
               1
 91
        1
 92
        1
 93
        1
 72
               2
 10
517.61320389263301
 20
70.503098171933843
 40
1.9998779296875
 50
0.0
 51
360.0
 73
               0
 97
        1
330
175
 75
               0
 76
               1
 98
        1
 10
0.0
 20
0.0
  0
MTEXT
  5
177
100
AcDbEntity
  8
0
390
0
 62
               0
100
AcDbMText
 10
483.73558670513302
 20
78.405085221301292
 30
0.0
 40
24.432617187500004
 41
0.0
 71
               1
 72
               1
  1
100(深さ)
  7
ＭＳ ゴシック
 11
0.0
 21
1.0
 31
0.0
 73
               1
 44
0.7828267384257843
  0
POINT
  5
178
100
AcDbEntity
  8
Defpoints
370
               0
390
0
 62
               0
100
AcDbPoint
 10
521.02682291666679
 20
70.503098171933843
 30
0.0
  0
POINT
  5
179
100
AcDbEntity
  8
Defpoints
370
               0
390
0
 62
               0
100
AcDbPoint
 10
521.02682291666679
 20
-29.496901828066157
 30
0.0
  0
POINT
  5
17A
100
AcDbEntity
  8
Defpoints
370
               0
390
0
 62
               0
100
AcDbPoint
 10
517.61320389263301
 20
-29.496901828066157
 30
0.0
  0
ENDBLK
  5
17B
100
AcDbEntity
  8
notes
390
0
100
AcDbBlockEnd
  0
BLOCK
  5
17C
100
AcDbEntity
  8
notes
390
0
100
AcDbBlockBegin
  2
*D25
 70
               1
 10
0.0
 20
0.0
 30
0.0
  3
*D25
  1

  0
LINE
  5
17D
100
AcDbEntity
  8
0
370
              -2
390
0
  6
Continuous
 62
               0
100
AcDbLine
 10
-382.259120707303
 20
-225.61020259462379
 30
0.0
 11
-266.47317708333338
 21
-176.76753472222262
 31
0.0
  0
CIRCLE
  5
17E
102
{ACAD_REACTORS
330
17F
102
}
100
AcDbEntity
  8
0
370
              -2
390
0
  6
Continuous
 62
               0
100
AcDbCircle
 10
-382.259120707303
 20
-225.61020259462379
 30
0.0
 40
1.9998779296875
  0
HATCH
  5
17F
100
AcDbEntity
  8
0
370
              -2
390
0
  6
Continuous
 62
               0
100
AcDbHatch
 10
0.0
 20
0.0
 30
0.0
210
0.0
220
0.0
230
1.0
  2
SOLID
 70
               1
 71
               1
 91
        1
 92
        1
 93
        1
 72
               2
 10
-382.259120707303
 20
-225.61020259462379
 40
1.9998779296875
 50
0.0
 51
360.0
 73
               0
 97
        1
330
17E
 75
               0
 76
               1
 98
        1
 10
0.0
 20
0.0
  0
LINE
  5
180
100
AcDbEntity
  8
0
370
              -2
390
0
  6
Continuous
 62
               0
100
AcDbLine
 10
-266.47317708333338
 20
-176.76753472222262
 30
0.0
 11
-127.0981770833334
 21
-176.76753472222262
 31
0.0
  0
MTEXT
  5
181
100
AcDbEntity
  8
0
390
0
 62
               0
100
AcDbMText
 10
-206.47317708333338
 20
-142.8899175347226
 30
0.0
 40
24.432617187500004
 41
0.0
 71
               1
 72
               1
  1
G 1/2
  7
ＭＳ ゴシック
 73
               1
 44
0.7828267384257843
  0
POINT
  5
182
100
AcDbEntity
  8
Defpoints
370
               0
390
0
 62
               0
100
AcDbPoint
 10
-400.68666195064446
 20
-233.38360106150975
 30
0.0
  0
POINT
  5
183
100
AcDbEntity
  8
Defpoints
370
               0
390
0
 62
               0
100
AcDbPoint
 10
-382.259120707303
 20
-225.61020259462379
 30
0.0
  0
ENDBLK
  5
184
100
AcDbEntity
  8
notes
390
0
100
AcDbBlockEnd
  0
BLOCK
  5
185
100
AcDbEntity
  8
FAN70-0106
390
0
100
AcDbBlockBegin
  2
グループ-1
 70
               0
 10
0.0
 20
0.0
 30
0.0
  3
グループ-1
  1

  0
LINE
  5
186
100
AcDbEntity
  8
0
370
              15
390
0
  6
STYLE_12
 62
               7
100
AcDbLine
 10
-467.59185312461119
 20
-68.3114071570661
 30
0.0
 11
-395.35450104195166
 21
-68.3114071570661
 31
0.0
  0
ARC
  5
187
100
AcDbEntity
  8
0
370
              15
390
0
  6
STYLE_12
 62
               7
100
AcDbCircle
 10
-431.9563481828805
 20
71.218116858738185
 30
0.0
 40
143.00000000000011
100
AcDbArc
 50
196.07695280358075
 51
253.95802757190719
  0
ARC
  5
188
100
AcDbEntity
  8
0
370
              15
390
0
  6
STYLE_12
 62
               7
100
AcDbCircle
 10
-430.99000598368235
 20
71.218116858738185
 30
0.0
 40
142.99999999999991
100
AcDbArc
 50
286.04197242809283
 51
343.92304719641919
  0
ARC
  5
189
100
AcDbEntity
  8
0
370
              15
390
0
  6
STYLE_12
 62
               7
100
AcDbCircle
 10
-572.24637959276708
 20
30.786605793565727
 30
0.0
 40
3.000000000000532
100
AcDbArc
 50
16.076952803591478
 51
90.0
  0
ARC
  5
18A
100
AcDbEntity
  8
0
370
              15
390
0
  6
STYLE_12
 62
               7
100
AcDbCircle
 10
-290.69997457379583
 20
30.786605793566295
 30
0.0
 40
3.0
100
AcDbArc
 50
90.0
 51
163.92304719641862
  0
LINE
  5
18B
100
AcDbEntity
  8
0
370
              15
390
0
  6
Continuous
 62
               7
100
AcDbLine
 10
-452.97317708328143
 20
-76.21339420643352
 30
0.0
 11
-409.97317708328143
 21
-76.21339420643352
 31
0.0
  0
LINE
  5
18C
100
AcDbEntity
  8
0
370
              15
390
0
  6
STYLE_12
 62
               7
100
AcDbLine
 10
-452.97317708328143
 20
-76.21339420643352
 30
0.0
 11
-471.47317708328143
 21
-66.213394206433549
 31
0.0
  0
LINE
  5
18D
100
AcDbEntity
  8
0
370
              15
390
0
  6
STYLE_12
 62
               7
100
AcDbLine
 10
-409.97317708328143
 20
-76.21339420643352
 30
0.0
 11
-391.47317708328143
 21
-66.213394206433549
 31
0.0
  0
POLYLINE
  5
18E
100
AcDbEntity
  8
0
370
              15
390
0
  6
STYLE_12
 62
               7
100
AcDb2dPolyline
 66
               1
 10
0.0
 20
0.0
 30
0.0
 70
               1
 75
               5
  0
VERTEX
  5
18F
100
AcDbEntity
  8
0
370
              15
390
0
  6
STYLE_12
 62
               7
100
AcDbVertex
100
AcDb2dVertex
 10
-466.48679610731512
 20
-72.213394206433534
 30
0.0
  0
VERTEX
  5
190
100
AcDbEntity
  8
0
370
              15
390
0
  6
STYLE_12
 62
               7
100
AcDbVertex
100
AcDb2dVertex
 10
-396.48679610731512
 20
-72.213394206433534
 30
0.0
  0
VERTEX
  5
191
100
AcDbEntity
  8
0
370
              15
390
0
  6
STYLE_12
 62
               7
100
AcDbVertex
100
AcDb2dVertex
 10
-396.48679610731512
 20
-119.21339420643338
 30
0.0
  0
VERTEX
  5
192
100
AcDbEntity
  8
0
370
              15
390
0
  6
STYLE_12
 62
               7
100
AcDbVertex
100
AcDb2dVertex
 10
-466.48679610731512
 20
-119.21339420643338
 30
0.0
  0
SEQEND
  5
193
100
AcDbEntity
  8
0
370
              15
390
0
  6
STYLE_12
 62
               7
  0
ENDBLK
  5
194
100
AcDbEntity
  8
FAN70-0106
390
0
100
AcDbBlockEnd
  0
ENDSEC
  0
SECTION
  2
ENTITIES
  0
MTEXT
  5
195
100
AcDbEntity
  8
template
390
0
 62
               7
100
AcDbMText
 10
-967.99999999975921
 20
-1147.4176292337004
 30
0.0
 40
16.288411458333332
 41
0.0
 71
               1
 72
               1
  1
品名
  7
ＭＳ ゴシック
 73
               1
 44
0.7828267384257843
  0
MTEXT
  5
196
100
AcDbEntity
  8
template
390
0
 62
               7
100
AcDbMText
 10
-967.99999999975921
 20
-1232.4176292337004
 30
0.0
 40
16.288411458333332
 41
0.0
 71
               1
 72
               1
  1
仕様
  7
ＭＳ ゴシック
 73
               1
 44
0.7828267384257843
  0
LINE
  5
197
100
AcDbEntity
  8
template
370
               5
390
0
  6
Continuous
 62
               7
100
AcDbLine
 10
974.99999999975876
 20
-1224.0027073587005
 30
0.0
 11
-975.00000000024124
 21
-1224.0027073587005
 31
0.0
  0
LWPOLYLINE
  5
198
100
AcDbEntity
  8
template
370
               5
390
0
  6
Continuous
 62
               7
100
AcDbPolyline
 90
        5
 70
             128
 10
975.00000000024124
 20
1405.9972926412995
 10
-974.99999999975921
 20
1405.9972926412995
 10
-974.99999999975921
 20
-1394.0027073587005
 10
975.00000000024124
 20
-1394.0027073587005
 10
975.00000000024124
 20
1405.9972926412995
  0
LINE
  5
199
100
AcDbEntity
  8
template
370
               5
390
0
  6
Continuous
 62
               7
100
AcDbLine
 10
974.99999999975876
 20
-1139.0027073587005
 30
0.0
 11
-975.00000000024124
 21
-1139.0027073587005
 31
0.0
  0
LINE
  5
19A
100
AcDbEntity
  8
template
370
               5
390
0
  6
Continuous
 62
               7
100
AcDbLine
 10
975.00000000024124
 20
-1309.0027073587005
 30
0.0
 11
222.00000000024124
 21
-1309.0027073587005
 31
0.0
  0
MTEXT
  5
19B
100
AcDbEntity
  8
template
390
0
 62
               7
100
AcDbMText
 10
251.87140625250089
 20
-1338.9131018320081
 30
0.0
 40
24.432617187500004
 41
0.0
 71
               1
 72
               1
  1
大洋金物株式会社 ティーフォルム事業部
  7
ＭＳ ゴシック
 73
               1
 44
0.7828267384257843
  0
INSERT
  5
19C
100
AcDbEntity
  8
template
390
0
 62
               7
100
AcDbBlockReference
  2
グループ
 10
-0.0000000000518554
 20
36.716492378367377
 30
0.0
  0
MTEXT
  5
19D
100
AcDbEntity
  8
template
390
0
 62
               7
100
AcDbMText
 10
784.00000000049999
 20
-1261.0000901712006
 30
0.0
 40
24.432617187500004
 41
0.0
 71
               1
 72
               1
  1
1:10
  7
ＭＳ ゴシック
 73
               1
 44
0.7828267384257843
  0
MTEXT
  5
19E
100
AcDbEntity
  8
template
390
0
 62
               7
100
AcDbMText
 10
731.00000000049999
 20
-1232.4176292337004
 30
0.0
 40
16.288411458333332
 41
0.0
 71
               1
 72
               1
  1
縮尺
  7
ＭＳ ゴシック
 73
               1
 44
0.7828267384257843
  0
LINE
  5
19F
100
AcDbEntity
  8
template
370
               5
390
0
  6
Continuous
 62
               7
100
AcDbLine
 10
724.00000000049999
 20
-1309.0027073587005
 30
0.0
 11
724.00000000049999
 21
-1224.0027073587005
 31
0.0
  0
MTEXT
  5
1A0
100
AcDbEntity
  8
template
390
0
 62
               7
100
AcDbMText
 10
480.00000000049999
 20
-1232.4176292337004
 30
0.0
 40
16.288411458333332
 41
0.0
 71
               1
 72
               1
  1
容量
  7
ＭＳ ゴシック
 73
               1
 44
0.7828267384257843
  0
LINE
  5
1A1
100
AcDbEntity
  8
template
370
               5
390
0
  6
Continuous
 62
               7
100
AcDbLine
 10
473.00000000049999
 20
-1309.0027073587005
 30
0.0
 11
473.00000000049999
 21
-1224.0027073587005
 31
0.0
  0
MTEXT
  5
1A2
100
AcDbEntity
  8
template
390
0
 62
               7
100
AcDbMText
 10
229.00000000049999
 20
-1147.4176292337004
 30
0.0
 40
16.288411458333332
 41
0.0
 71
               1
 72
               1
  1
品番
  7
ＭＳ ゴシック
 73
               1
 44
0.7828267384257843
  0
MTEXT
  5
1A3
100
AcDbEntity
  8
template
390
0
 62
               7
100
AcDbMText
 10
229.00000000049999
 20
-1232.4176292337004
 30
0.0
 40
16.288411458333332
 41
0.0
 71
               1
 72
               1
  1
重量
  7
ＭＳ ゴシック
 73
               1
 44
0.7828267384257843
  0
MTEXT
  5
1A4
100
AcDbEntity
  8
template
390
0
 62
               7
100
AcDbMText
 10
282.00000000049999
 20
-1176.0000901712006
 30
0.0
 40
24.432617187500004
 41
0.0
 71
               1
 72
               1
  1
FAN70-0106
  7
ＭＳ ゴシック
 73
               1
 44
0.7828267384257843
  0
MTEXT
  5
1A5
100
AcDbEntity
  8
template
390
0
 62
               7
100
AcDbMText
 10
282.00000000049999
 20
-1261.0000901712006
 30
0.0
 40
24.432617187500004
 41
0.0
 71
               1
 72
               1
  1
23kg
  7
ＭＳ ゴシック
 73
               1
 44
0.7828267384257843
  0
LINE
  5
1A6
100
AcDbEntity
  8
template
370
               5
390
0
  6
Continuous
 62
               7
100
AcDbLine
 10
222.00000000049999
 20
-1394.0027073587005
 30
0.0
 11
222.00000000049999
 21
-1139.0027073587005
 31
0.0
  0
MTEXT
  5
1A7
100
AcDbEntity
  8
template
390
0
 62
               7
100
AcDbMText
 10
-974.99999999955594
 20
-1405.8565294155574
 30
0.0
 40
21.717881944444446
 41
0.0
 71
               1
 72
               1
  1
120501SH
  7
ＭＳ ゴシック
 73
               1
 44
0.7828267384257843
  0
MTEXT
  5
1A8
100
AcDbEntity
  8
template
390
0
 62
               7
100
AcDbMText
 10
-914.99999999975921
 20
-1176.0000901712006
 30
0.0
 40
24.432617187500004
 41
0.0
 71
               1
 72
               1
  1
手洗器 -ALAPE-
  7
ＭＳ ゴシック
 73
               1
 44
0.7828267384257843
  0
MTEXT
  5
1A9
100
AcDbEntity
  8
template
390
0
 62
               7
100
AcDbMText
 10
-914.99999999975921
 20
-1261.0000901712006
 30
0.0
 40
24.432617187500004
 41
0.0
 71
               1
 72
               1
  1
フロアースタンド/オーバーフローなし/壁取付ボルト付属/\P{\H0.9667x;\l鋼板ホーロー}/ホワイト
  7
ＭＳ ゴシック
 73
               1
 44
1.1307497332816883
  0
LINE
  5
1AA
100
AcDbEntity
  8
template
370
               5
390
0
  6
STYLE_12
 62
               7
100
AcDbLine
 10
486.01320389263293
 20
-45.0
 30
0.0
 11
556.0132038926331
 21
-45.0
 31
0.0
  0
MTEXT
  5
1AB
100
AcDbEntity
  8
template
390
0
 62
               7
100
AcDbMText
 10
551.00000000049999
 20
-1261.0000901712006
 30
0.0
 40
24.432617187500004
 41
0.0
 71
               1
 72
               1
  1
3.8L
  7
ＭＳ ゴシック
 73
               1
 44
0.7828267384257843
  0
MTEXT
  5
1AC
100
AcDbEntity
  8
notes
390
0
 62
               7
100
AcDbMText
 10
-870.50296319781683
 20
174.11206425553974
 30
0.0
 40
24.432617187500004
 41
0.0
 71
               1
 72
               1
  1
壁取付ボルト穴(4ヶ所)
  7
ＭＳ ゴシック
 73
               1
 44
0.7828267384257843
  0
LINE
  5
1AD
100
AcDbEntity
  8
notes
370
               5
390
0
  6
Continuous
 62
               7
100
AcDbLine
 10
-662.47317708333321
 20
139.23246527777775
 30
0.0
 11
-488.97317708333338
 21
-134.49690182806617
 31
0.0
  0
DIMENSION
  5
1AE
100
AcDbEntity
  8
notes
370
               5
390
0
  6
Continuous
 62
               7
100
AcDbDimension
  2
*D3
 10
-568.97317708333321
 20
502.70877878087396
 30
0.0
 11
-427.43955432673329
 21
507.70877878087396
 31
0.0
 70
             128
 71
               5
 72
               1
 41
1.0
 42
0.0
  3
tfrom線あり
100
AcDbAlignedDimension
 13
-293.97317708333338
 23
657.47190329809564
 33
0.0
 14
-568.97317708333321
 24
657.47190329809564
 34
0.0
100
AcDbRotatedDimension
1001
ACAD
1000
DSTYLE
1002
{
1070
             271
1070
               4
1070
             279
1070
               2
1070
             340
1005
3C
1070
             147
1040
5.0
1002
}
  0
DIMENSION
  5
1AF
100
AcDbEntity
  8
notes
370
               5
390
0
  6
Continuous
 62
               7
100
AcDbDimension
  2
*D4
 10
-358.47317708333338
 20
1122.7087787808739
 30
0.0
 11
-433.3954497431547
 21
1127.7087787808739
 31
0.0
 70
             128
 71
               5
 72
               1
 41
1.0
 42
0.0
  3
tfrom線あり
100
AcDbAlignedDimension
 13
-504.47317708333333
 23
1042.7087787808739
 33
0.0
 14
-358.47317708333338
 24
1042.7087787808739
 34
0.0
100
AcDbRotatedDimension
1001
ACAD
1000
DSTYLE
1002
{
1070
             271
1070
               4
1070
             279
1070
               2
1070
             340
1005
3C
1070
             147
1040
5.0
1002
}
  0
DIMENSION
  5
1B0
100
AcDbEntity
  8
notes
370
               5
390
0
  6
Continuous
 62
               7
100
AcDbDimension
  2
*D5
 10
-631.47317708333321
 20
452.70877878087407
 30
0.0
 11
-426.81353637763328
 21
457.70877878087407
 31
0.0
 70
             128
 71
               5
 72
               1
 41
1.0
 42
0.0
  3
tfrom線あり
100
AcDbAlignedDimension
 13
-231.47317708333333
 23
777.70877878087413
 33
0.0
 14
-631.47317708333321
 24
777.70877878087413
 34
0.0
100
AcDbRotatedDimension
1001
ACAD
1000
DSTYLE
1002
{
1070
             271
1070
               4
1070
             279
1070
               2
1070
             340
1005
3C
1070
             147
1040
5.0
1002
}
  0
DIMENSION
  5
1B1
100
AcDbEntity
  8
notes
370
               5
390
0
  6
Continuous
 62
               7
100
AcDbDimension
  2
*D6
 10
-731.47317708333333
 20
1042.7087787808739
 30
0.0
 11
-731.47317708333333
 21
1022.7087787808739
 31
0.0
 71
               5
 72
               1
 41
1.0
 42
0.0
  3
tfrom線あり
100
AcDbAlignedDimension
 13
-506.47317708333333
 23
1002.7087787808739
 33
0.0
 14
-504.51317708333329
 24
1042.7087787808739
 34
0.0
 50
90.0
100
AcDbRotatedDimension
1001
ACAD
1000
DSTYLE
1002
{
1070
             279
1070
               2
1070
             340
1005
3C
1070
             147
1040
5.0
1002
}
  0
DIMENSION
  5
1B2
100
AcDbEntity
  8
notes
370
               5
390
0
  6
Continuous
 62
               7
100
AcDbDimension
  2
*D7
 10
-731.47317708333333
 20
1002.7087787808739
 30
0.0
 11
-731.47317708333333
 21
952.70877878087413
 31
0.0
 71
               5
 72
               1
 41
1.0
 42
0.0
  3
tfrom線あり
100
AcDbAlignedDimension
 13
-604.67825784022079
 23
902.70877878087413
 33
0.0
 14
-506.47317708333333
 24
1002.7087787808739
 34
0.0
 50
90.0
100
AcDbRotatedDimension
1001
ACAD
1000
DSTYLE
1002
{
1070
             279
1070
               2
1070
             340
1005
3C
1070
             147
1040
5.0
1002
}
  0
DIMENSION
  5
1B3
100
AcDbEntity
  8
notes
370
               5
390
0
  6
Continuous
 62
               7
100
AcDbDimension
  2
*D8
 10
-731.47317708333321
 20
902.70877878087413
 30
0.0
 11
-731.47317708333321
 21
765.2087787808739
 31
0.0
 71
               5
 72
               1
 41
1.0
 42
0.0
  3
tfrom線あり
100
AcDbAlignedDimension
 13
-528.29776073851872
 23
627.70877878087367
 33
0.0
 14
-604.67825784022079
 24
902.70877878087413
 34
0.0
 50
90.0
100
AcDbRotatedDimension
1001
ACAD
1000
DSTYLE
1002
{
1070
             279
1070
               2
1070
             340
1005
3C
1070
             147
1040
5.0
1002
}
  0
DIMENSION
  5
1B4
100
AcDbEntity
  8
notes
370
               5
390
0
  6
Continuous
 62
               7
100
AcDbDimension
  2
*D9
 10
-131.47317708333338
 20
1042.7087787808739
 30
0.0
 11
-131.47317708333338
 21
822.70877878087367
 31
0.0
 71
               5
 72
               1
 41
1.0
 42
0.0
  3
tfrom線あり
100
AcDbAlignedDimension
 13
-406.47317708333338
 23
602.70877878087322
 33
0.0
 14
-356.47317708333338
 24
1042.7087787808739
 34
0.0
 50
90.0
100
AcDbRotatedDimension
1001
ACAD
1000
DSTYLE
1002
{
1070
             279
1070
               2
1070
             340
1005
3C
1070
             147
1040
5.0
1002
}
  0
DIMENSION
  5
1B5
100
AcDbEntity
  8
notes
370
               5
390
0
  6
Continuous
 62
               7
100
AcDbDimension
  2
*D10
 10
-445.83738407413074
 20
941.86121880060477
 30
0.0
 11
-212.88378835019137
 21
1072.4722928836111
 31
0.0
 70
               3
 71
               5
 72
               1
 41
1.0
 42
0.0
  3
tfrom線あり
100
AcDbDiametricDimension
 15
-417.10897009253603
 25
963.55633876114325
 35
0.0
 40
180.73070605467083
1001
ACAD
1000
DSTYLE
1002
{
1070
             289
1070
               0
1070
             342
1005
4F
1070
             340
1005
3C
1070
              73
1070
               1
1070
              74
1070
               1
1070
              75
1070
               1
1070
              76
1070
               1
1070
               3
1000

1070
             174
1070
               0
1070
             147
1040
5.0
1002
}
  0
DIMENSION
  5
1B6
100
AcDbEntity
  8
notes
370
               5
390
0
  6
Continuous
 62
               7
100
AcDbDimension
  2
*D11
 10
145.02682291666667
 20
-79.496901828066129
 30
0.0
 11
140.02682291666667
 21
-267.63355311397413
 31
0.0
 70
             128
 71
               5
 72
               1
 41
1.0
 42
0.0
  3
tfrom線あり
100
AcDbAlignedDimension
 13
245.02682291666713
 23
-479.4969018280654
 33
0.0
 14
245.02682291666633
 24
-79.496901828066129
 34
0.0
 50
90.0
100
AcDbRotatedDimension
1001
ACAD
1000
DSTYLE
1002
{
1070
             271
1070
               2
1070
             279
1070
               2
1070
             340
1005
3C
1070
             147
1040
5.0
1002
}
  0
DIMENSION
  5
1B7
100
AcDbEntity
  8
notes
370
               5
390
0
  6
Continuous
 62
               7
100
AcDbDimension
  2
*D12
 10
145.02682291666667
 20
-79.496901828066129
 30
0.0
 11
140.02682291666667
 21
3.352861800644817
 31
0.0
 70
             128
 71
               5
 72
               1
 41
1.0
 42
0.0
  3
tfrom線あり
100
AcDbAlignedDimension
 13
287.02682291666662
 23
70.503098171933672
 33
0.0
 14
245.02682291666633
 24
-79.496901828066129
 34
0.0
 50
90.0
100
AcDbRotatedDimension
1001
ACAD
1000
DSTYLE
1002
{
1070
             271
1070
               2
1070
             279
1070
               2
1070
             340
1005
3C
1070
             147
1040
5.0
1002
}
  0
DIMENSION
  5
1B8
100
AcDbEntity
  8
notes
370
               5
390
0
  6
Continuous
 62
               7
100
AcDbDimension
  2
*D13
 10
243.52682291666667
 20
170.78670304039292
 30
0.0
 11
288.52682291666667
 21
170.78670304039292
 31
0.0
 71
               5
 72
               1
 41
1.0
 42
0.0
  3
tfrom線あり
100
AcDbAlignedDimension
 13
333.52682291666662
 23
70.786703040392624
 33
0.0
 14
243.52682291666667
 24
-79.213296959607177
 34
0.0
100
AcDbRotatedDimension
1001
ACAD
1000
DSTYLE
1002
{
1070
             279
1070
               2
1070
             340
1005
3C
1070
             147
1040
5.0
1002
}
  0
DIMENSION
  5
1B9
100
AcDbEntity
  8
notes
370
               5
390
0
  6
Continuous
 62
               7
100
AcDbDimension
  2
*D14
 10
833.5268229166669
 20
-79.496901828066001
 30
0.0
 11
833.5268229166669
 21
-4.4969018280660009
 31
0.0
 71
               5
 72
               1
 41
1.0
 42
0.0
  3
tfrom線あり
100
AcDbAlignedDimension
 13
680.02682291666679
 23
70.503098171933999
 33
0.0
 14
556.0132038926331
 24
-79.496901828066001
 34
0.0
 50
90.0
100
AcDbRotatedDimension
1001
ACAD
1000
DSTYLE
1002
{
1070
             279
1070
               2
1070
             340
1005
3C
1070
             147
1040
5.0
1002
}
  0
DIMENSION
  5
1BA
100
AcDbEntity
  8
notes
370
               5
390
0
  6
Continuous
 62
               7
100
AcDbDimension
  2
*D15
 10
521.01320389263299
 20
-182.496901828066
 30
0.0
 11
382.27001340464983
 21
-182.496901828066
 31
0.0
 71
               5
 72
               1
 41
1.0
 42
0.0
  3
tfrom線あり
100
AcDbAlignedDimension
 13
243.52682291666667
 23
-83.496901828066115
 33
0.0
 14
521.01320389263299
 24
-82.496901828066001
 34
0.0
100
AcDbRotatedDimension
1001
ACAD
1000
DSTYLE
1002
{
1070
             279
1070
               2
1070
             340
1005
3C
1070
             147
1040
5.0
1002
}
  0
DIMENSION
  5
1BB
100
AcDbEntity
  8
notes
370
               5
390
0
  6
Continuous
 62
               7
100
AcDbDimension
  2
*D16
 10
-81.473177083333312
 20
70.503098171933672
 30
0.0
 11
-81.473177083333312
 21
-379.49690182806569
 31
0.0
 71
               5
 72
               1
 41
1.0
 42
0.0
  3
tfrom線あり
100
AcDbAlignedDimension
 13
-234.97317708333333
 23
-829.49690182806512
 33
0.0
 14
-234.97317708333333
 24
70.503098171933672
 34
0.0
 50
90.0
100
AcDbRotatedDimension
1001
ACAD
1000
DSTYLE
1002
{
1070
             279
1070
               2
1070
             340
1005
3C
1070
             147
1040
5.0
1002
}
  0
DIMENSION
  5
1BC
100
AcDbEntity
  8
notes
370
               5
390
0
  6
Continuous
 62
               7
100
AcDbDimension
  2
*D17
 10
-488.97317708333338
 20
-568.7675347222214
 30
0.0
 11
-431.47317708333338
 21
-568.7675347222214
 31
0.0
 71
               5
 72
               1
 41
1.0
 42
0.0
  3
tfrom線あり
100
AcDbAlignedDimension
 13
-373.97317708333338
 23
-454.49690182806557
 33
0.0
 14
-488.97317708333338
 24
-454.49690182806557
 34
0.0
100
AcDbRotatedDimension
1001
ACAD
1000
DSTYLE
1002
{
1070
             279
1070
               2
1070
             340
1005
3C
1070
             147
1040
5.0
1002
}
  0
DIMENSION
  5
1BD
100
AcDbEntity
  8
notes
370
               5
390
0
  6
Continuous
 62
               7
100
AcDbDimension
  2
*D18
 10
-731.47317708333321
 20
-134.49690182806617
 30
0.0
 11
-736.47317708333321
 21
-342.7675347222218
 31
0.0
 70
             128
 71
               5
 72
               1
 41
1.0
 42
0.0
  3
tfrom線あり
100
AcDbAlignedDimension
 13
-508.97317708333327
 23
-434.49690182806586
 33
0.0
 14
-508.97317708333327
 24
-134.49690182806617
 34
0.0
 50
90.0
100
AcDbRotatedDimension
1001
ACAD
1000
DSTYLE
1002
{
1070
             279
1070
               2
1070
             340
1005
3C
1070
             147
1040
5.0
1002
}
  0
DIMENSION
  5
1BE
100
AcDbEntity
  8
notes
370
               5
390
0
  6
Continuous
 62
               7
100
AcDbDimension
  2
*D19
 10
-731.47317708333321
 20
-134.49690182806617
 30
0.0
 11
-731.47317708333321
 21
-106.98221827514405
 31
0.0
 71
               5
 72
               1
 41
1.0
 42
0.0
  3
tfrom線あり
100
AcDbAlignedDimension
 13
-504.47317708333333
 23
-79.467534722221941
 33
0.0
 14
-508.97317708333327
 24
-134.49690182806617
 34
0.0
 50
90.0
100
AcDbRotatedDimension
1001
ACAD
1000
DSTYLE
1002
{
1070
             279
1070
               2
1070
             340
1005
3C
1070
             147
1040
5.0
1002
}
  0
DIMENSION
  5
1BF
100
AcDbEntity
  8
notes
370
               5
390
0
  6
Continuous
 62
               7
100
AcDbDimension
  2
*D20
 10
-391.47289132897373
 20
-173.01753472222265
 30
0.0
 11
-431.47289132897373
 21
-173.01753472222265
 31
0.0
 71
               5
 72
               1
 41
1.0
 42
0.0
  3
tfrom線あり
100
AcDbAlignedDimension
 13
-471.47289132897373
 23
-219.49690182806677
 33
0.0
 14
-391.47289132897373
 24
-219.49690182806677
 34
0.0
100
AcDbRotatedDimension
1001
ACAD
1000
DSTYLE
1002
{
1070
             279
1070
               2
1070
             340
1005
3C
1070
             147
1040
5.0
1002
}
  0
DIMENSION
  5
1C0
100
AcDbEntity
  8
notes
370
               5
390
0
  6
Continuous
 62
               7
100
AcDbDimension
  2
*D21
 10
-831.47317708333344
 20
-229.49690182806677
 30
0.0
 11
-831.47317708333344
 21
-529.49690182806603
 31
0.0
 71
               5
 72
               1
 41
1.0
 42
0.0
  3
tfrom線あり
100
AcDbAlignedDimension
 13
-627.97247236919054
 23
-829.49690182806512
 33
0.0
 14
-481.47289132897373
 24
-229.49690182806677
 34
0.0
 50
90.0
100
AcDbRotatedDimension
1001
ACAD
1000
DSTYLE
1002
{
1070
             279
1070
               2
1070
             340
1005
3C
1070
             147
1040
5.0
1002
}
  0
DIMENSION
  5
1C1
100
AcDbEntity
  8
notes
370
               5
390
0
  6
Continuous
 62
               7
100
AcDbDimension
  2
*D22
 10
-781.47317708333344
 20
-279.49690182806677
 30
0.0
 11
-781.47317708333344
 21
-554.49690182806603
 31
0.0
 71
               5
 72
               1
 41
1.0
 42
0.0
  3
tfrom線あり
100
AcDbAlignedDimension
 13
-627.97247236919054
 23
-829.49690182806512
 33
0.0
 14
-447.47289132897373
 24
-279.49690182806677
 34
0.0
 50
90.0
100
AcDbRotatedDimension
1001
ACAD
1000
DSTYLE
1002
{
1070
             279
1070
               2
1070
             340
1005
3C
1070
             147
1040
5.0
1002
}
  0
DIMENSION
  5
1C2
100
AcDbEntity
  8
notes
370
               5
390
0
  6
Continuous
 62
               7
100
AcDbDimension
  2
*D23
 10
-446.84089886303917
 20
-283.94935558222716
 30
0.0
 11
-189.47317708333333
 21
-226.76753472222299
 31
0.0
 70
               3
 71
               5
 72
               1
 41
1.0
 42
0.0
  3
tfrom線あり
100
AcDbDiametricDimension
 15
-416.10488379490835
 25
-275.04444807390644
 35
0.0
 40
173.48425301559308
1001
ACAD
1000
DSTYLE
1002
{
1070
             289
1070
               0
1070
             342
1005
4F
1070
             340
1005
3C
1070
              73
1070
               1
1070
              74
1070
               1
1070
              75
1070
               1
1070
              76
1070
               1
1070
               3
1000

1070
             174
1070
               0
1070
             147
1040
5.0
1002
}
  0
DIMENSION
  5
1C3
100
AcDbEntity
  8
notes
370
               5
390
0
  6
Continuous
 62
               7
100
AcDbDimension
  2
*D24
 10
517.61320389263301
 20
-29.496901828066157
 30
0.0
 11
512.61320389263301
 21
78.405085221301292
 31
0.0
 70
             128
 71
               5
 72
               1
 41
1.0
 42
0.0
  3
tfrom線あり
100
AcDbAlignedDimension
 13
521.02682291666679
 23
70.503098171933843
 33
0.0
 14
521.02682291666679
 24
-29.496901828066157
 34
0.0
 50
90.0
100
AcDbRotatedDimension
1001
ACAD
1000
DSTYLE
1002
{
1070
             279
1070
               2
1070
             340
1005
3C
1070
               3
1000
<>(深さ)
1070
             174
1070
               0
1070
             147
1040
5.0
1002
}
  0
DIMENSION
  5
1C4
100
AcDbEntity
  8
notes
370
               5
390
0
  6
Continuous
 62
               7
100
AcDbDimension
  2
*D25
 10
-400.68666195064446
 20
-233.38360106150975
 30
0.0
 11
-206.47317708333355
 21
-176.76753472222225
 31
0.0
 70
               3
 71
               5
 72
               1
 41
1.0
 42
0.0
  1
G 1/2
  3
tfrom線あり
100
AcDbDiametricDimension
 15
-382.259120707303
 25
-225.61020259462379
 35
0.0
 40
125.66618855438703
1001
ACAD
1000
DSTYLE
1002
{
1070
             289
1070
               0
1070
             342
1005
4F
1070
             340
1005
3C
1070
              73
1070
               1
1070
              74
1070
               1
1070
              75
1070
               1
1070
              76
1070
               1
1070
             174
1070
               0
1070
             147
1040
5.0
1002
}
  0
ARC
  5
1C5
100
AcDbEntity
  8
FAN70-0106
370
              15
390
0
  6
Continuous
 62
               7
100
AcDbCircle
 10
680.02682291666679
 20
-825.99690182806512
 30
0.0
 40
3.5
100
AcDbArc
 50
270.0
 51
0.0
  0
LINE
  5
1C6
100
AcDbEntity
  8
FAN70-0106
370
              15
390
0
  6
Continuous
 62
               7
100
AcDbLine
 10
683.52682291666679
 20
-825.99690182806512
 30
0.0
 11
683.52682291666679
 21
19.503098171933672
 31
0.0
  0
ARC
  5
1C7
100
AcDbEntity
  8
FAN70-0106
370
              15
390
0
  6
Continuous
 62
               7
100
AcDbCircle
 10
680.02682291666679
 20
67.003098171933559
 30
0.0
 40
3.5000000000001137
100
AcDbArc
 50
0.0
 51
90.0
  0
ARC
  5
1C8
100
AcDbEntity
  8
FAN70-0106
370
              15
390
0
  6
Continuous
 62
               7
100
AcDbCircle
 10
287.02682291666662
 20
67.003098171933559
 30
0.0
 40
3.5000000000001137
100
AcDbArc
 50
90.0
 51
180.0
  0
LINE
  5
1C9
100
AcDbEntity
  8
FAN70-0106
370
              15
390
0
  6
Continuous
 62
               7
100
AcDbLine
 10
283.52682291666662
 20
67.003098171933559
 30
0.0
 11
283.52682291666662
 21
-79.496901828066129
 31
0.0
  0
LINE
  5
1CA
100
AcDbEntity
  8
FAN70-0106
370
              15
390
0
  6
Continuous
 62
               7
100
AcDbLine
 10
683.52682291666679
 20
20.503098171933672
 30
0.0
 11
683.52682291666679
 21
67.003098171933559
 31
0.0
  0
POLYLINE
  5
1CB
100
AcDbEntity
  8
FAN70-0106
370
              15
390
0
  6
Continuous
 62
               7
100
AcDb2dPolyline
 66
               1
 10
0.0
 20
0.0
 30
0.0
 75
               5
  0
VERTEX
  5
1CC
100
AcDbEntity
  8
FAN70-0106
370
              15
390
0
  6
Continuous
 62
               7
100
AcDbVertex
100
AcDb2dVertex
 10
297.32531916334079
 20
-475.49690182806529
 30
0.0
  0
VERTEX
  5
1CD
100
AcDbEntity
  8
FAN70-0106
370
              15
390
0
  6
Continuous
 62
               7
100
AcDbVertex
100
AcDb2dVertex
 10
297.28271433825427
 20
-476.7977272799032
 30
0.0
  0
VERTEX
  5
1CE
100
AcDbEntity
  8
FAN70-0106
370
              15
390
0
  6
Continuous
 62
               7
100
AcDbVertex
100
AcDb2dVertex
 10
297.16051541659573
 20
-477.95386543040212
 30
0.0
  0
VERTEX
  5
1CF
100
AcDbEntity
  8
FAN70-0106
370
              15
390
0
  6
Continuous
 62
               7
100
AcDbVertex
100
AcDb2dVertex
 10
296.97176411523986
 20
-478.84846205579578
 30
0.0
  0
VERTEX
  5
1D0
100
AcDbEntity
  8
FAN70-0106
370
              15
390
0
  6
Continuous
 62
               7
100
AcDbVertex
100
AcDb2dVertex
 10
296.735719204791
 20
-479.38104979802819
 30
0.0
  0
VERTEX
  5
1D1
100
AcDbEntity
  8
FAN70-0106
370
              15
390
0
  6
Continuous
 62
               7
100
AcDbVertex
100
AcDb2dVertex
 10
296.5535627964029
 20
-479.49690182806529
 30
0.0
  0
SEQEND
  5
1D2
100
AcDbEntity
  8
FAN70-0106
370
              15
390
0
  6
Continuous
 62
               7
  0
LINE
  5
1D3
100
AcDbEntity
  8
FAN70-0106
370
              15
390
0
  6
Continuous
 62
               7
100
AcDbLine
 10
296.5535627964029
 20
-479.49690182806529
 30
0.0
 11
243.52682291666667
 21
-479.4969018280654
 31
0.0
  0
LINE
  5
1D4
100
AcDbEntity
  8
FAN70-0106
370
              15
390
0
  6
Continuous
 62
               7
100
AcDbLine
 10
243.52682291666667
 20
-479.4969018280654
 30
0.0
 11
243.52682291666667
 21
-475.4969018280654
 31
0.0
  0
LINE
  5
1D5
100
AcDbEntity
  8
FAN70-0106
370
              15
390
0
  6
Continuous
 62
               7
100
AcDbLine
 10
296.55356279640267
 20
-79.496901828066129
 30
0.0
 11
243.52682291666667
 21
-79.496901828066129
 31
0.0
  0
POLYLINE
  5
1D6
100
AcDbEntity
  8
FAN70-0106
370
              15
390
0
  6
Continuous
 62
               7
100
AcDb2dPolyline
 66
               1
 10
0.0
 20
0.0
 30
0.0
 75
               5
  0
VERTEX
  5
1D7
100
AcDbEntity
  8
FAN70-0106
370
              15
390
0
  6
Continuous
 62
               7
100
AcDbVertex
100
AcDb2dVertex
 10
296.55356279640267
 20
-79.496901828066129
 30
0.0
  0
VERTEX
  5
1D8
100
AcDbEntity
  8
FAN70-0106
370
              15
390
0
  6
Continuous
 62
               7
100
AcDbVertex
100
AcDb2dVertex
 10
296.81060950869465
 20
-79.730347120063797
 30
0.0
  0
VERTEX
  5
1D9
100
AcDbEntity
  8
FAN70-0106
370
              15
390
0
  6
Continuous
 62
               7
100
AcDbVertex
100
AcDb2dVertex
 10
297.04057282433524
 20
-80.406041277499739
 30
0.0
  0
VERTEX
  5
1DA
100
AcDbEntity
  8
FAN70-0106
370
              15
390
0
  6
Continuous
 62
               7
100
AcDbVertex
100
AcDb2dVertex
 10
297.21388686742517
 20
-81.439542209666442
 30
0.0
  0
VERTEX
  5
1DB
100
AcDbEntity
  8
FAN70-0106
370
              15
390
0
  6
Continuous
 62
               7
100
AcDbVertex
100
AcDb2dVertex
 10
297.30945067609167
 20
-82.696114867421755
 30
0.0
  0
VERTEX
  5
1DC
100
AcDbEntity
  8
FAN70-0106
370
              15
390
0
  6
Continuous
 62
               7
100
AcDbVertex
100
AcDb2dVertex
 10
297.32531916334057
 20
-83.496901828066115
 30
0.0
  0
SEQEND
  5
1DD
100
AcDbEntity
  8
FAN70-0106
370
              15
390
0
  6
Continuous
 62
               7
  0
LINE
  5
1DE
100
AcDbEntity
  8
FAN70-0106
370
              15
390
0
  6
Continuous
 62
               7
100
AcDbLine
 10
243.52682291666667
 20
-83.496901828066115
 30
0.0
 11
243.52682291666667
 21
-79.496901828066129
 31
0.0
  0
LINE
  5
1DF
100
AcDbEntity
  8
FAN70-0106
370
              15
390
0
  6
Continuous
 62
               7
100
AcDbLine
 10
243.52682291666667
 20
-475.4969018280654
 30
0.0
 11
243.52682291666622
 21
-83.496901828066115
 31
0.0
  0
LINE
  5
1E0
100
AcDbEntity
  8
FAN70-0106
370
              15
390
0
  6
Continuous
 62
               7
100
AcDbLine
 10
297.32531916334057
 20
-83.496901828066115
 30
0.0
 11
297.32531916334079
 21
-475.49690182806529
 31
0.0
  0
LINE
  5
1E1
100
AcDbEntity
  8
FAN70-0106
370
              15
390
0
  6
Continuous
 62
               7
100
AcDbLine
 10
680.02682291666679
 20
-829.49690182806512
 30
0.0
 11
287.02752763080929
 21
-829.49690182806512
 31
0.0
  0
POLYLINE
  5
1E2
100
AcDbEntity
  8
FAN70-0106
370
              15
390
0
  6
Continuous
 62
               7
100
AcDb2dPolyline
 66
               1
 10
0.0
 20
0.0
 30
0.0
 75
               5
  0
VERTEX
  5
1E3
100
AcDbEntity
  8
FAN70-0106
370
              15
390
0
  6
Continuous
 62
               7
100
AcDbVertex
100
AcDb2dVertex
 10
287.02752763080929
 20
-829.49690182806512
 30
0.0
  0
VERTEX
  5
1E4
100
AcDbEntity
  8
FAN70-0106
370
              15
390
0
  6
Continuous
 62
               7
100
AcDbVertex
100
AcDb2dVertex
 10
286.34471395255781
 20
-829.4296503094763
 30
0.0
  0
VERTEX
  5
1E5
100
AcDbEntity
  8
FAN70-0106
370
              15
390
0
  6
Continuous
 62
               7
100
AcDbVertex
100
AcDb2dVertex
 10
285.68814042103526
 20
-829.23048019185467
 30
0.0
  0
VERTEX
  5
1E6
100
AcDbEntity
  8
FAN70-0106
370
              15
390
0
  6
Continuous
 62
               7
100
AcDbVertex
100
AcDb2dVertex
 10
285.08303878884732
 20
-828.90704547112409
 30
0.0
  0
VERTEX
  5
1E7
100
AcDbEntity
  8
FAN70-0106
370
              15
390
0
  6
Continuous
 62
               7
100
AcDbVertex
100
AcDb2dVertex
 10
284.55266277237405
 20
-828.471775562218
 30
0.0
  0
VERTEX
  5
1E8
100
AcDbEntity
  8
FAN70-0106
370
              15
390
0
  6
Continuous
 62
               7
100
AcDbVertex
100
AcDb2dVertex
 10
284.11739442449021
 20
-827.94139764363376
 30
0.0
  0
VERTEX
  5
1E9
100
AcDbEntity
  8
FAN70-0106
370
              15
390
0
  6
Continuous
 62
               7
100
AcDbVertex
100
AcDb2dVertex
 10
283.79396086370383
 20
-827.33629384134292
 30
0.0
  0
VERTEX
  5
1EA
100
AcDbEntity
  8
FAN70-0106
370
              15
390
0
  6
Continuous
 62
               7
100
AcDbVertex
100
AcDb2dVertex
 10
283.59479146037216
 20
-826.67971795512153
 30
0.0
  0
VERTEX
  5
1EB
100
AcDbEntity
  8
FAN70-0106
370
              15
390
0
  6
Continuous
 62
               7
100
AcDbVertex
100
AcDb2dVertex
 10
283.52754018296952
 20
-825.99690182806512
 30
0.0
  0
SEQEND
  5
1EC
100
AcDbEntity
  8
FAN70-0106
370
              15
390
0
  6
Continuous
 62
               7
  0
LINE
  5
1ED
100
AcDbEntity
  8
FAN70-0106
370
              15
390
0
  6
Continuous
 62
               7
100
AcDbLine
 10
283.52742450479212
 20
-479.49690182806529
 30
0.0
 11
283.52754018296952
 21
-825.99690182806512
 31
0.0
  0
LINE
  5
1EE
100
AcDbEntity
  8
FAN70-0106
370
              15
390
0
  6
Continuous
 62
               7
100
AcDbLine
 10
283.52754018296952
 20
-479.49690182806529
 30
0.0
 11
283.52754018296952
 21
-825.99690182806512
 31
0.0
  0
LINE
  5
1EF
100
AcDbEntity
  8
FAN70-0106
370
              15
390
0
  6
Continuous
 62
               7
100
AcDbLine
 10
673.52682291666679
 20
-829.49690182806535
 30
0.0
 11
293.52739442538592
 21
-829.49690182806535
 31
0.0
  0
LINE
  5
1F0
100
AcDbEntity
  8
FAN70-0106
370
              15
390
0
  6
Continuous
 62
               7
100
AcDbLine
 10
293.52739442538592
 20
-829.49690182806535
 30
0.0
 11
287.02752763080929
 21
-829.49690182806512
 31
0.0
  0
LINE
  5
1F1
100
AcDbEntity
  8
FAN70-0106
370
              15
390
0
  6
Continuous
 62
               7
100
AcDbLine
 10
283.52754018296952
 20
19.503098171933672
 30
0.0
 11
283.52742450479212
 21
19.503098171933672
 31
0.0
  0
LINE
  5
1F2
100
AcDbEntity
  8
FAN70-0106
370
              15
390
0
  6
Continuous
 62
               7
100
AcDbLine
 10
287.02682291666662
 20
70.503098171933672
 30
0.0
 11
680.02682291666679
 21
70.503098171933672
 31
0.0
  0
CIRCLE
  5
1F3
100
AcDbEntity
  8
FAN70-0106
370
              15
390
0
  6
Continuous
 62
               7
100
AcDbCircle
 10
-431.47317708333338
 20
765.20877878087413
 30
0.0
 40
137.5
  0
CIRCLE
  5
1F4
100
AcDbEntity
  8
FAN70-0106
370
              15
390
0
  6
Continuous
 62
               7
100
AcDbCircle
 10
-431.47317708333338
 20
802.70877878087413
 30
0.0
 40
200.00000000000009
  0
CIRCLE
  5
1F5
100
AcDbEntity
  8
FAN70-0106
370
              15
390
0
  6
Continuous
 62
               7
100
AcDbCircle
 10
-431.47317708333338
 20
952.70877878087413
 30
0.0
 40
18.0
  0
LINE
  5
1F6
100
AcDbEntity
  8
FAN70-0106
370
              15
390
0
  6
Continuous
 62
               7
100
AcDbLine
 10
-504.47317708333333
 20
1042.7087787808739
 30
0.0
 11
-358.47317708333338
 21
1042.7087787808739
 31
0.0
  0
CIRCLE
  5
1F7
100
AcDbEntity
  8
FAN70-0106
370
              15
390
0
  6
Continuous
 62
               7
100
AcDbCircle
 10
-431.47317708333338
 20
765.20877878087413
 30
0.0
 40
21.0
  0
CIRCLE
  5
1F8
100
AcDbEntity
  8
FAN70-0106
370
              15
390
0
  6
Continuous
 62
               7
100
AcDbCircle
 10
-431.47317708333338
 20
765.20877878087413
 30
0.0
 40
30.0
  0
ARC
  5
1F9
100
AcDbEntity
  8
FAN70-0106
370
              15
390
0
  6
Continuous
 62
               7
100
AcDbCircle
 10
-234.97317708333333
 20
-825.99690182806512
 30
0.0
 40
3.5
100
AcDbArc
 50
270.0
 51
0.0
  0
ARC
  5
1FA
100
AcDbEntity
  8
FAN70-0106
370
              15
390
0
  6
Continuous
 62
               7
100
AcDbCircle
 10
-234.97317708333333
 20
67.003098171933559
 30
0.0
 40
3.5000000000001137
100
AcDbArc
 50
0.0
 51
90.0
  0
ARC
  5
1FB
100
AcDbEntity
  8
FAN70-0106
370
              15
390
0
  6
Continuous
 62
               7
100
AcDbCircle
 10
-627.97317708333321
 20
67.003098171933559
 30
0.0
 40
3.5000000000001137
100
AcDbArc
 50
90.0
 51
180.0
  0
LINE
  5
1FC
100
AcDbEntity
  8
FAN70-0106
370
              15
390
0
  6
Continuous
 62
               7
100
AcDbLine
 10
-631.47317708333321
 20
67.003098171933559
 30
0.0
 11
-631.47317708333321
 21
-825.99690182806512
 31
0.0
  0
LINE
  5
1FD
100
AcDbEntity
  8
FAN70-0106
370
              15
390
0
  6
Continuous
 62
               7
100
AcDbLine
 10
-231.47317708333338
 20
-825.99690182806512
 30
0.0
 11
-231.47317708333333
 21
67.003098171933559
 31
0.0
  0
LINE
  5
1FE
100
AcDbEntity
  8
FAN70-0106
370
              15
390
0
  6
Continuous
 62
               7
100
AcDbLine
 10
-234.97317708333333
 20
-829.49690182806512
 30
0.0
 11
-627.97247236919054
 21
-829.49690182806512
 31
0.0
  0
POLYLINE
  5
1FF
100
AcDbEntity
  8
FAN70-0106
370
              15
390
0
  6
Continuous
 62
               7
100
AcDb2dPolyline
 66
               1
 10
0.0
 20
0.0
 30
0.0
 75
               5
  0
VERTEX
  5
200
100
AcDbEntity
  8
FAN70-0106
370
              15
390
0
  6
Continuous
 62
               7
100
AcDbVertex
100
AcDb2dVertex
 10
-627.97247236919054
 20
-829.49690182806512
 30
0.0
  0
VERTEX
  5
201
100
AcDbEntity
  8
FAN70-0106
370
              15
390
0
  6
Continuous
 62
               7
100
AcDbVertex
100
AcDb2dVertex
 10
-628.65528604744202
 20
-829.4296503094763
 30
0.0
  0
VERTEX
  5
202
100
AcDbEntity
  8
FAN70-0106
370
              15
390
0
  6
Continuous
 62
               7
100
AcDbVertex
100
AcDb2dVertex
 10
-629.31185957896457
 20
-829.23048019185467
 30
0.0
  0
VERTEX
  5
203
100
AcDbEntity
  8
FAN70-0106
370
              15
390
0
  6
Continuous
 62
               7
100
AcDbVertex
100
AcDb2dVertex
 10
-629.91696121115251
 20
-828.90704547112409
 30
0.0
  0
VERTEX
  5
204
100
AcDbEntity
  8
FAN70-0106
370
              15
390
0
  6
Continuous
 62
               7
100
AcDbVertex
100
AcDb2dVertex
 10
-630.44733722762578
 20
-828.471775562218
 30
0.0
  0
VERTEX
  5
205
100
AcDbEntity
  8
FAN70-0106
370
              15
390
0
  6
Continuous
 62
               7
100
AcDbVertex
100
AcDb2dVertex
 10
-630.88260557550961
 20
-827.94139764363376
 30
0.0
  0
VERTEX
  5
206
100
AcDbEntity
  8
FAN70-0106
370
              15
390
0
  6
Continuous
 62
               7
100
AcDbVertex
100
AcDb2dVertex
 10
-631.206039136296
 20
-827.33629384134292
 30
0.0
  0
VERTEX
  5
207
100
AcDbEntity
  8
FAN70-0106
370
              15
390
0
  6
Continuous
 62
               7
100
AcDbVertex
100
AcDb2dVertex
 10
-631.40520853962767
 20
-826.67971795512153
 30
0.0
  0
VERTEX
  5
208
100
AcDbEntity
  8
FAN70-0106
370
              15
390
0
  6
Continuous
 62
               7
100
AcDbVertex
100
AcDb2dVertex
 10
-631.47245981703031
 20
-825.99690182806512
 30
0.0
  0
SEQEND
  5
209
100
AcDbEntity
  8
FAN70-0106
370
              15
390
0
  6
Continuous
 62
               7
  0
LINE
  5
20A
100
AcDbEntity
  8
FAN70-0106
370
              15
390
0
  6
Continuous
 62
               7
100
AcDbLine
 10
-241.47317708333333
 20
-829.49690182806535
 30
0.0
 11
-621.47260557461391
 21
-829.49690182806535
 31
0.0
  0
LINE
  5
20B
100
AcDbEntity
  8
FAN70-0106
370
              15
390
0
  6
Continuous
 62
               7
100
AcDbLine
 10
-621.47260557461391
 20
-829.49690182806535
 30
0.0
 11
-627.97247236919054
 21
-829.49690182806512
 31
0.0
  0
LINE
  5
20C
100
AcDbEntity
  8
FAN70-0106
370
              15
390
0
  6
Continuous
 62
               7
100
AcDbLine
 10
-631.47245981703031
 20
19.503098171933672
 30
0.0
 11
-631.47257549520771
 21
19.503098171933672
 31
0.0
  0
LINE
  5
20D
100
AcDbEntity
  8
FAN70-0106
370
              15
390
0
  6
Continuous
 62
               7
100
AcDbLine
 10
-627.97317708333321
 20
70.503098171933672
 30
0.0
 11
-234.97317708333333
 21
70.503098171933672
 31
0.0
  0
LINE
  5
20E
100
AcDbEntity
  8
FAN70-0106
370
              15
390
0
  6
STYLE_12
 62
               7
100
AcDbLine
 10
484.90814687533685
 20
-31.594914778698723
 30
0.0
 11
557.14549895799655
 21
-31.594914778698723
 31
0.0
  0
ARC
  5
20F
100
AcDbEntity
  8
FAN70-0106
370
              15
390
0
  6
STYLE_12
 62
               7
100
AcDbCircle
 10
520.5436518170676
 20
107.93460923710556
 30
0.0
 40
143.00000000000034
100
AcDbArc
 50
196.07695280358072
 51
253.95802757190711
  0
ARC
  5
210
100
AcDbEntity
  8
FAN70-0106
370
              15
390
0
  6
STYLE_12
 62
               7
100
AcDbCircle
 10
521.50999401626586
 20
107.93460923710556
 30
0.0
 40
142.99999999999991
100
AcDbArc
 50
286.04197242809283
 51
343.92304719641919
  0
ARC
  5
211
100
AcDbEntity
  8
FAN70-0106
370
              15
390
0
  6
STYLE_12
 62
               7
100
AcDbCircle
 10
380.25362040718079
 20
67.503098171933104
 30
0.0
 40
3.000000000000532
100
AcDbArc
 50
16.076952803591478
 51
90.0
  0
ARC
  5
212
100
AcDbEntity
  8
FAN70-0106
370
              15
390
0
  6
STYLE_12
 62
               7
100
AcDbCircle
 10
661.80002542615239
 20
67.503098171933672
 30
0.0
 40
3.0
100
AcDbArc
 50
90.0
 51
163.92304719641862
  0
LINE
  5
213
100
AcDbEntity
  8
FAN70-0106
370
              15
390
0
  6
Continuous
 62
               7
100
AcDbLine
 10
499.52682291666662
 20
-39.496901828066143
 30
0.0
 11
542.52682291666679
 21
-39.496901828066143
 31
0.0
  0
LINE
  5
214
100
AcDbEntity
  8
FAN70-0106
370
              15
390
0
  6
STYLE_12
 62
               7
100
AcDbLine
 10
499.52682291666662
 20
-39.496901828066143
 30
0.0
 11
481.02682291666662
 21
-29.496901828066171
 31
0.0
  0
LINE
  5
215
100
AcDbEntity
  8
FAN70-0106
370
              15
390
0
  6
STYLE_12
 62
               7
100
AcDbLine
 10
542.52682291666679
 20
-39.496901828066143
 30
0.0
 11
561.02682291666679
 21
-29.496901828066171
 31
0.0
  0
POLYLINE
  5
216
100
AcDbEntity
  8
FAN70-0106
370
              15
390
0
  6
STYLE_12
 62
               7
100
AcDb2dPolyline
 66
               1
 10
0.0
 20
0.0
 30
0.0
 70
               1
 75
               5
  0
VERTEX
  5
217
100
AcDbEntity
  8
FAN70-0106
370
              15
390
0
  6
STYLE_12
 62
               7
100
AcDbVertex
100
AcDb2dVertex
 10
486.01320389263293
 20
-35.496901828066157
 30
0.0
  0
VERTEX
  5
218
100
AcDbEntity
  8
FAN70-0106
370
              15
390
0
  6
STYLE_12
 62
               7
100
AcDbVertex
100
AcDb2dVertex
 10
556.0132038926331
 20
-35.496901828066157
 30
0.0
  0
VERTEX
  5
219
100
AcDbEntity
  8
FAN70-0106
370
              15
390
0
  6
STYLE_12
 62
               7
100
AcDbVertex
100
AcDb2dVertex
 10
556.0132038926331
 20
-79.496901828066001
 30
0.0
  0
VERTEX
  5
21A
100
AcDbEntity
  8
FAN70-0106
370
              15
390
0
  6
STYLE_12
 62
               7
100
AcDbVertex
100
AcDb2dVertex
 10
486.01320389263293
 20
-79.496901828066001
 30
0.0
  0
SEQEND
  5
21B
100
AcDbEntity
  8
FAN70-0106
370
              15
390
0
  6
STYLE_12
 62
               7
  0
INSERT
  5
21C
100
AcDbEntity
  8
FAN70-0106
390
0
 62
               7
100
AcDbBlockReference
  2
グループ-1
 10
-0.0000000000518554
 20
36.716492378367377
 30
0.0
  0
POLYLINE
  5
21D
100
AcDbEntity
  8
FAN70-0106
370
              15
390
0
  6
STYLE_12
 62
               7
100
AcDb2dPolyline
 66
               1
 10
0.0
 20
0.0
 30
0.0
 70
               1
 75
               5
  0
VERTEX
  5
21E
100
AcDbEntity
  8
FAN70-0106
370
              15
390
0
  6
STYLE_12
 62
               7
100
AcDbVertex
100
AcDb2dVertex
 10
-504.47317708333333
 20
-79.467534722221941
 30
0.0
  0
VERTEX
  5
21F
100
AcDbEntity
  8
FAN70-0106
370
              15
390
0
  6
STYLE_12
 62
               7
100
AcDbVertex
100
AcDb2dVertex
 10
-358.47317708333338
 20
-79.467534722221941
 30
0.0
  0
VERTEX
  5
220
100
AcDbEntity
  8
FAN70-0106
370
              15
390
0
  6
STYLE_12
 62
               7
100
AcDbVertex
100
AcDb2dVertex
 10
-358.47317708333338
 20
-479.46753472222116
 30
0.0
  0
VERTEX
  5
221
100
AcDbEntity
  8
FAN70-0106
370
              15
390
0
  6
STYLE_12
 62
               7
100
AcDbVertex
100
AcDb2dVertex
 10
-504.47317708333333
 20
-479.46753472222116
 30
0.0
  0
SEQEND
  5
222
100
AcDbEntity
  8
FAN70-0106
370
              15
390
0
  6
STYLE_12
 62
               7
  0
LINE
  5
223
100
AcDbEntity
  8
FAN70-0106
370
              15
390
0
  6
Continuous
 62
               7
100
AcDbLine
 10
-358.47317708333338
 20
1042.7087787808739
 30
0.0
 11
-358.47317708333338
 21
988.91028253420041
 31
0.0
  0
LINE
  5
224
100
AcDbEntity
  8
FAN70-0106
370
              15
390
0
  6
Continuous
 62
               7
100
AcDbLine
 10
-504.47317708333333
 20
1042.7087787808739
 30
0.0
 11
-504.47317708333333
 21
988.91028253420041
 31
0.0
  0
CIRCLE
  5
225
100
AcDbEntity
  8
FAN70-0106
370
              15
390
0
  6
STYLE_12
 62
               7
100
AcDbCircle
 10
-488.97317708333338
 20
-134.49690182806617
 30
0.0
 40
10.0
  0
LINE
  5
226
100
AcDbEntity
  8
FAN70-0106
370
              15
390
0
  6
STYLE_12
 62
               7
100
AcDbLine
 10
-488.97317708333338
 20
-154.49690182806629
 30
0.0
 11
-488.97317708333338
 21
-114.49690182806603
 31
0.0
  0
LINE
  5
227
100
AcDbEntity
  8
FAN70-0106
370
              15
390
0
  6
STYLE_12
 62
               7
100
AcDbLine
 10
-468.97317708333338
 20
-134.49690182806617
 30
0.0
 11
-508.97317708333327
 21
-134.49690182806617
 31
0.0
  0
CIRCLE
  5
228
100
AcDbEntity
  8
FAN70-0106
370
              15
390
0
  6
STYLE_12
 62
               7
100
AcDbCircle
 10
-373.97317708333338
 20
-134.49690182806617
 30
0.0
 40
10.0
  0
LINE
  5
229
100
AcDbEntity
  8
FAN70-0106
370
              15
390
0
  6
STYLE_12
 62
               7
100
AcDbLine
 10
-373.97317708333338
 20
-154.49690182806629
 30
0.0
 11
-373.97317708333338
 21
-114.49690182806603
 31
0.0
  0
LINE
  5
22A
100
AcDbEntity
  8
FAN70-0106
370
              15
390
0
  6
STYLE_12
 62
               7
100
AcDbLine
 10
-353.97317708333338
 20
-134.49690182806617
 30
0.0
 11
-393.97317708333338
 21
-134.49690182806617
 31
0.0
  0
CIRCLE
  5
22B
100
AcDbEntity
  8
FAN70-0106
370
              15
390
0
  6
STYLE_12
 62
               7
100
AcDbCircle
 10
-488.97317708333338
 20
-434.49690182806586
 30
0.0
 40
10.0
  0
LINE
  5
22C
100
AcDbEntity
  8
FAN70-0106
370
              15
390
0
  6
STYLE_12
 62
               7
100
AcDbLine
 10
-488.97317708333338
 20
-454.49690182806557
 30
0.0
 11
-488.97317708333338
 21
-414.49690182806609
 31
0.0
  0
LINE
  5
22D
100
AcDbEntity
  8
FAN70-0106
370
              15
390
0
  6
STYLE_12
 62
               7
100
AcDbLine
 10
-468.97317708333338
 20
-434.49690182806586
 30
0.0
 11
-508.97317708333327
 21
-434.49690182806586
 31
0.0
  0
CIRCLE
  5
22E
100
AcDbEntity
  8
FAN70-0106
370
              15
390
0
  6
STYLE_12
 62
               7
100
AcDbCircle
 10
-373.97317708333338
 20
-434.49690182806586
 30
0.0
 40
10.0
  0
LINE
  5
22F
100
AcDbEntity
  8
FAN70-0106
370
              15
390
0
  6
STYLE_12
 62
               7
100
AcDbLine
 10
-373.97317708333338
 20
-454.49690182806557
 30
0.0
 11
-373.97317708333338
 21
-414.49690182806609
 31
0.0
  0
LINE
  5
230
100
AcDbEntity
  8
FAN70-0106
370
              15
390
0
  6
STYLE_12
 62
               7
100
AcDbLine
 10
-353.97317708333338
 20
-434.49690182806586
 30
0.0
 11
-393.97317708333338
 21
-434.49690182806586
 31
0.0
  0
CIRCLE
  5
231
100
AcDbEntity
  8
FAN70-0106
370
              15
390
0
  6
STYLE_12
 62
               7
100
AcDbCircle
 10
-431.47289132897373
 20
-279.49690182806677
 30
0.0
 40
16.0
  0
CIRCLE
  5
232
100
AcDbEntity
  8
FAN70-0106
370
              15
390
0
  6
STYLE_12
 62
               7
100
AcDbCircle
 10
-391.47289132897373
 20
-229.49690182806677
 30
0.0
 40
10.0
  0
CIRCLE
  5
233
100
AcDbEntity
  8
FAN70-0106
370
              15
390
0
  6
STYLE_12
 62
               7
100
AcDbCircle
 10
-471.47289132897373
 20
-229.49690182806677
 30
0.0
 40
10.0
  0
ENDSEC
  0
SECTION
  2
OBJECTS
  0
DICTIONARY
  5
19
100
AcDbDictionary
280
               0
281
               1
  3
ACAD_GROUP
350
1A
  3
ACAD_MLINESTYLE
350
1B
  3
ACAD_LAYOUT
350
1E
  3
ACAD_PLOTSETTINGS
350
22
  3
ACAD_PLOTSTYLENAME
350
1F
  0
DICTIONARY
  5
1A
102
{ACAD_REACTORS
330
19
102
}
100
AcDbDictionary
280
               0
281
               1
  0
DICTIONARY
  5
1B
102
{ACAD_REACTORS
330
19
102
}
100
AcDbDictionary
280
               0
281
               1
  3
Standard
350
1C
  0
MLINESTYLE
  5
1C
102
{ACAD_REACTORS
330
1B
102
}
100
AcDbMlineStyle
  2
Standard
 70
               0
  3

 62
               0
 51
90.0
 52
90.0
 71
               2
 49
0.5
 62
             256
  6
ByLayer
 49
-0.5
 62
             256
  6
ByLayer
  0
ACDBDICTIONARYWDFLT
  5
1F
102
{ACAD_REACTORS
330
19
102
}
100
AcDbDictionary
281
               1
  3
Normal
350
1D
100
AcDbDictionaryWithDefault
340
1D
  0
ACDBPLACEHOLDER
  5
1D
102
{ACAD_REACTORS
330
1F
102
}
  0
LAYOUT
  5
20
102
{ACAD_REACTORS
330
1E
102
}
100
AcDbPlotSettings
  1

  2

  4

  6

 40
0.0
 41
0.0
 42
0.0
 43
0.0
 44
0.0
 45
0.0
 46
0.0
 47
0.0
 48
0.0
 49
0.0
140
0.0
141
0.0
142
1.0
143
1.0
 70
            1024
 72
               0
 73
               0
 74
               0
  7

 75
               0
147
1.0
148
0.0
149
0.0
100
AcDbLayout
  1
Model
 70
               0
 71
               0
 10
0.0
 20
0.0
 11
0.0
 21
0.0
 12
0.0
 22
0.0
 32
0.0
 14
0.0
 24
0.0
 34
0.0
 15
0.0
 25
0.0
 35
0.0
146
0.0
 13
0.0
 23
0.0
 33
0.0
 16
0.0
 26
0.0
 36
0.0
 17
0.0
 27
0.0
 37
0.0
 76
               0
330
A
331
0
345
0
346
0
  0
LAYOUT
  5
21
102
{ACAD_REACTORS
330
1E
102
}
100
AcDbPlotSettings
  1

  2

  4

  6

 40
0.0
 41
0.0
 42
0.0
 43
0.0
 44
0.0
 45
0.0
 46
0.0
 47
0.0
 48
0.0
 49
0.0
140
0.0
141
0.0
142
1.0
143
1.0
 70
               0
 72
               0
 73
               0
 74
               0
  7

 75
               0
147
1.0
148
0.0
149
0.0
100
AcDbLayout
  1
Layout1
 70
               0
 71
               0
 10
0.0
 20
0.0
 11
0.0
 21
0.0
 12
0.0
 22
0.0
 32
0.0
 14
0.0
 24
0.0
 34
0.0
 15
0.0
 25
0.0
 35
0.0
146
0.0
 13
0.0
 23
0.0
 33
0.0
 16
0.0
 26
0.0
 36
0.0
 17
0.0
 27
0.0
 37
0.0
 76
               0
330
B
331
0
345
0
346
0
  0
DICTIONARY
  5
1E
102
{ACAD_REACTORS
330
19
102
}
100
AcDbDictionary
280
               0
281
               1
  3
Layout1
350
21
  3
Model
350
20
  0
DICTIONARY
  5
22
102
{ACAD_REACTORS
330
19
102
}
100
AcDbDictionary
280
               0
281
               1
  0
ENDSEC
  0
EOF
