  0
SECTION
  2
HEADER
  9
$ACADVER
  1
AC1015
  9
$ACADMAINTVER
 70
               6
  9
$DWGCODEPAGE
  3
ANSI_932
  9
$INSBASE
 10
0.0
 20
0.0
 30
0.0
  9
$EXTMIN
 10
-975.00000000024124
 20
-1431.5255224711129
 30
-14.428611111111111
  9
$EXTMAX
 10
975.00000000024124
 20
1405.9972926412995
 30
14.428611111111111
  9
$LIMMIN
 10
0.0
 20
0.0
  9
$LIMMAX
 10
0.0
 20
0.0
  9
$ORTHOMODE
 70
               0
  9
$REGENMODE
 70
               1
  9
$FILLMODE
 70
               1
  9
$QTEXTMODE
 70
               0
  9
$MIRRTEXT
 70
               1
  9
$LTSCALE
 40
50.799999999999997
  9
$ATTMODE
 70
               1
  9
$TEXTSIZE
 40
0.2
  9
$TRACEWID
 40
1.0
  9
$TEXTSTYLE
  7
Standard
  9
$CLAYER
  8
FAN70-0107
  9
$CELTYPE
  6
Continuous
  9
$CECOLOR
 62
             256
  9
$CELTSCALE
 40
1.0
  9
$DISPSILH
 70
               0
  9
$DIMSCALE
 40
1.0
  9
$DIMASZ
 40
31.75
  9
$DIMEXO
 40
0.0
  9
$DIMDLI
 40
6.9999999999999396
  9
$DIMRND
 40
0.0
  9
$DIMDLE
 40
0.0
  9
$DIMEXE
 40
19.999999999996199
  9
$DIMTP
 40
0.0
  9
$DIMTM
 40
0.0
  9
$DIMTXT
 40
24.432617187500004
  9
$DIMCEN
 40
0.0
  9
$DIMTSZ
 40
0.0
  9
$DIMTOL
 70
               0
  9
$DIMLIM
 70
               0
  9
$DIMTIH
 70
               0
  9
$DIMTOH
 70
               0
  9
$DIMSE1
 70
               0
  9
$DIMSE2
 70
               0
  9
$DIMTAD
 70
               1
  9
$DIMZIN
 70
              11
  9
$DIMBLK
  1
VW_FILLEDARROW
  9
$DIMASO
 70
               1
  9
$DIMSHO
 70
               1
  9
$DIMPOST
  1
<>
  9
$DIMAPOST
  1
[]
  9
$DIMALT
 70
               0
  9
$DIMALTD
 70
               1
  9
$DIMALTF
 40
1.0
  9
$DIMLFAC
 40
1.0
  9
$DIMTOFL
 70
               0
  9
$DIMTVP
 40
0.0
  9
$DIMTIX
 70
               1
  9
$DIMSOXD
 70
               0
  9
$DIMSAH
 70
               0
  9
$DIMBLK1
  1

  9
$DIMBLK2
  1

  9
$DIMSTYLE
  2
JIS
  9
$DIMCLRD
 70
               0
  9
$DIMCLRE
 70
               0
  9
$DIMCLRT
 70
               0
  9
$DIMTFAC
 40
1.0
  9
$DIMGAP
 40
1.00000000000108
  9
$DIMJUST
 70
               0
  9
$DIMSD1
 70
               0
  9
$DIMSD2
 70
               0
  9
$DIMTOLJ
 70
               1
  9
$DIMTZIN
 70
              11
  9
$DIMALTZ
 70
              11
  9
$DIMALTTZ
 70
              11
  9
$DIMUPT
 70
               0
  9
$DIMDEC
 70
               1
  9
$DIMTDEC
 70
               1
  9
$DIMALTU
 70
               2
  9
$DIMALTTD
 70
               2
  9
$DIMTXSTY
  7
ＭＳ ゴシック
  9
$DIMAUNIT
 70
               0
  9
$DIMADEC
 70
               2
  9
$DIMALTRND
 40
0.0
  9
$DIMAZIN
 70
               0
  9
$DIMDSEP
 70
              46
  9
$DIMATFIT
 70
               0
  9
$DIMFRAC
 70
               2
  9
$DIMLDRBLK
  1

  9
$DIMLUNIT
 70
               2
  9
$DIMLWD
 70
              -2
  9
$DIMLWE
 70
              -2
  9
$DIMTMOVE
 70
               0
  9
$LUNITS
 70
               2
  9
$LUPREC
 70
               4
  9
$SKETCHINC
 40
0.1
  9
$FILLETRAD
 40
0.0
  9
$AUNITS
 70
               0
  9
$AUPREC
 70
               0
  9
$MENU
  1
acad
  9
$ELEVATION
 40
0.0
  9
$PELEVATION
 40
0.0
  9
$THICKNESS
 40
0.0
  9
$LIMCHECK
 70
               0
  9
$CHAMFERA
 40
0.0
  9
$CHAMFERB
 40
0.0
  9
$CHAMFERC
 40
0.0
  9
$CHAMFERD
 40
0.0
  9
$SKPOLY
 70
               0
  9
$TDCREATE
 40
2456049.439918981
  9
$TDUCREATE
 40
0.000000000
  9
$TDUPDATE
 40
2456049.439918981
  9
$TDUUPDATE
 40
0.000000000
  9
$TDINDWG
 40
0.0000000000
  9
$TDUSRTIMER
 40
0.0000000000
  9
$USRTIMER
 70
               1
  9
$ANGBASE
 50
0.0
  9
$ANGDIR
 70
               0
  9
$PDMODE
 70
               1
  9
$PDSIZE
 40
-2.0
  9
$PLINEWID
 40
0.0
  9
$SPLFRAME
 70
               0
  9
$SPLINETYPE
 70
               6
  9
$SPLINESEGS
 70
               8
  9
$HANDSEED
  5
1E2
  9
$SURFTAB1
 70
               6
  9
$SURFTAB2
 70
               6
  9
$SURFTYPE
 70
               6
  9
$SURFU
 70
               6
  9
$SURFV
 70
               6
  9
$UCSBASE
  2

  9
$UCSNAME
  2

  9
$UCSORG
 10
0.0
 20
0.0
 30
0.0
  9
$UCSXDIR
 10
1.0
 20
0.0
 30
0.0
  9
$UCSYDIR
 10
0.0
 20
1.0
 30
0.0
  9
$UCSORTHOREF
  2

  9
$UCSORTHOVIEW
 70
               0
  9
$UCSORGTOP
 10
0.0
 20
0.0
 30
0.0
  9
$UCSORGBOTTOM
 10
0.0
 20
0.0
 30
0.0
  9
$UCSORGLEFT
 10
0.0
 20
0.0
 30
0.0
  9
$UCSORGRIGHT
 10
0.0
 20
0.0
 30
0.0
  9
$UCSORGFRONT
 10
0.0
 20
0.0
 30
0.0
  9
$UCSORGBACK
 10
0.0
 20
0.0
 30
0.0
  9
$PUCSBASE
  2

  9
$PUCSNAME
  2

  9
$PUCSORG
 10
0.0
 20
0.0
 30
0.0
  9
$PUCSXDIR
 10
1.0
 20
0.0
 30
0.0
  9
$PUCSYDIR
 10
0.0
 20
1.0
 30
0.0
  9
$PUCSORTHOREF
  2

  9
$PUCSORTHOVIEW
 70
               0
  9
$PUCSORGTOP
 10
0.0
 20
0.0
 30
0.0
  9
$PUCSORGBOTTOM
 10
0.0
 20
0.0
 30
0.0
  9
$PUCSORGLEFT
 10
0.0
 20
0.0
 30
0.0
  9
$PUCSORGRIGHT
 10
0.0
 20
0.0
 30
0.0
  9
$PUCSORGFRONT
 10
0.0
 20
0.0
 30
0.0
  9
$PUCSORGBACK
 10
0.0
 20
0.0
 30
0.0
  9
$USERI1
 70
               0
  9
$USERI2
 70
               0
  9
$USERI3
 70
               0
  9
$USERI4
 70
               0
  9
$USERI5
 70
               0
  9
$USERR1
 40
0.0
  9
$USERR2
 40
0.0
  9
$USERR3
 40
0.0
  9
$USERR4
 40
0.0
  9
$USERR5
 40
0.0
  9
$WORLDVIEW
 70
               1
  9
$SHADEDGE
 70
               3
  9
$SHADEDIF
 70
              70
  9
$TILEMODE
 70
               1
  9
$MAXACTVP
 70
              64
  9
$PINSBASE
 10
0.0
 20
0.0
 30
0.0
  9
$PLIMCHECK
 70
               0
  9
$PEXTMIN
 10
1.0000000000000000E+20
 20
1.0000000000000000E+20
 30
1.0000000000000000E+20
  9
$PEXTMAX
 10
-1.0000000000000000E+20
 20
-1.0000000000000000E+20
 30
-1.0000000000000000E+20
  9
$PLIMMIN
 10
0.0
 20
0.0
  9
$PLIMMAX
 10
12.0
 20
9.0
  9
$UNITMODE
 70
               0
  9
$VISRETAIN
 70
               0
  9
$PLINEGEN
 70
               1
  9
$PSLTSCALE
 70
               0
  9
$TREEDEPTH
 70
            3020
  9
$CMLSTYLE
  2
Standard
  9
$CMLJUST
 70
               0
  9
$CMLSCALE
 40
1.0
  9
$PROXYGRAPHICS
 70
               0
  9
$MEASUREMENT
 70
               1
  9
$CELWEIGHT
370
               0
  9
$ENDCAPS
280
               0
  9
$JOINSTYLE
280
               0
  9
$LWDISPLAY
290
               1
  9
$INSUNITS
 70
               4
  9
$HYPERLINKBASE
  1

  9
$STYLESHEET
  1

  9
$XEDIT
290
               1
  9
$CEPSNTYPE
380
               0
  9
$PSTYLEMODE
290
               1
  9
$FINGERPRINTGUID
  2

  9
$VERSIONGUID
  2

  9
$EXTNAMES
290
               1
  9
$PSVPSCALE
 40
0.0
  0
ENDSEC
  0
SECTION
  2
CLASSES
  0
CLASS
  1
LWPOLYLINE
  2
AcDbPolyline
  3
AutoCAD 2000
 90
        0
280
               0
281
               1
  0
CLASS
  1
IMAGE
  2
AcDbRasterImage
  3
ISM
 90
      127
280
               0
281
               1
  0
CLASS
  1
OLE2FRAME
  2
AcDbOle2Frame
  3
AutoCAD 2000
 90
        0
280
               0
281
               1
  0
CLASS
  1
HATCH
  2
AcDbHatch
  3
AutoCAD 2000
 90
        0
280
               0
281
               1
  0
CLASS
  1
DICTIONARYVAR
  2
AcDbDictionaryVar
  3
AutoCAD 2000
 90
        0
280
               0
281
               0
  0
CLASS
  1
RASTERVARIABLES
  2
AcDbRasterVariables
  3
ISM
 90
        0
280
               0
281
               0
  0
CLASS
  1
IMAGEDEF
  2
AcDbRasterImageDef
  3
ISM
 90
        0
280
               0
281
               0
  0
CLASS
  1
IMAGEDEF_REACTOR
  2
AcDbRasterImageDefReactor
  3
ISM
 90
        1
280
               0
281
               0
  0
CLASS
  1
IDBUFFER
  2
AcDbIdBuffer
  3
AutoCAD 2000
 90
        0
280
               0
281
               0
  0
CLASS
  1
SPATIAL_FILTER
  2
AcDbSpatialFilter
  3
AutoCAD 2000
 90
        0
280
               0
281
               0
  0
CLASS
  1
XRECORD
  2
AcDbXrecord
  3
AutoCAD 2000
 90
        0
280
               0
281
               0
  0
CLASS
  1
SORTENTSTABLE
  2
AcDbSortentsTable
  3
AutoCAD 2000
 90
        0
280
               0
281
               0
  0
CLASS
  1
LAYER_INDEX
  2
AcDbLayerIndex
  3
AutoCAD 2000
 90
        0
280
               0
281
               0
  0
CLASS
  1
SPATIAL_INDEX
  2
AcDbSpatialIndex
  3
AutoCAD 2000
 90
        0
280
               0
281
               0
  0
CLASS
  1
OBJECT_PTR
  2
CAseDLPNTableRecord
  3
"ASE-LPNTableRecord"
 90
        1
280
               0
281
               0
  0
CLASS
  1
LAYOUT
  2
AcDbLayout
  3
AutoCAD 2000
 90
        0
280
               0
281
               0
  0
CLASS
  1
PLOTSETTINGS
  2
AcDbPlotSettings
  3
AutoCAD 2000
 90
        0
280
               0
281
               0
  0
CLASS
  1
ACDBDICTIONARYWDFLT
  2
AcDbDictionaryWithDefault
  3
AutoCAD 2000
 90
        0
280
               0
281
               0
  0
CLASS
  1
ACDBPLACEHOLDER
  2
AcDbPlaceHolder
  3
AutoCAD 2000
 90
        0
280
               0
281
               0
  0
ENDSEC
  0
SECTION
  2
TABLES
  0
TABLE
  2
VPORT
  5
7
100
AcDbSymbolTable
 70
               1
  0
VPORT
  5
15
100
AcDbSymbolTableRecord
100
AcDbViewportTableRecord
  2
*ACTIVE
 70
               0
 10
0.0
 20
0.0
 11
1.0
 21
1.0
 12
0.0
 22
-12.764114914906713
 13
0.0
 23
0.0
 14
1.0
 24
1.0
 15
0.0
 25
0.0
 16
0.0
 26
0.0
 36
1.0
 17
0.0
 27
0.0
 37
0.0
 40
2837.5228151124124
 41
0.688564
 42
50.0
 43
0.0
 44
0.0
 50
0.0
 51
0.0
 71
               0
 72
            2000
 73
               1
 74
               1
 75
               0
 76
               0
 77
               0
 78
               0
281
               0
 65
               0
110
0.0
120
0.0
130
0.0
111
1.0
121
0.0
131
0.0
112
0.0
122
1.0
132
0.0
345
0
346
0
 79
               0
146
0.0
  0
ENDTAB
  0
TABLE
  2
LTYPE
  5
4
100
AcDbSymbolTable
 70
              17
  0
LTYPE
  5
11
100
AcDbSymbolTableRecord
100
AcDbLinetypeTableRecord
  2
ByBlock
 70
              64
  3

 72
              65
 73
               0
 40
0.0
  0
LTYPE
  5
12
100
AcDbSymbolTableRecord
100
AcDbLinetypeTableRecord
  2
ByLayer
 70
              64
  3

 72
              65
 73
               0
 40
0.0
  0
LTYPE
  5
13
100
AcDbSymbolTableRecord
100
AcDbLinetypeTableRecord
  2
Continuous
 70
              64
  3
Solid line
 72
              65
 73
               0
 40
0.0
  0
LTYPE
  5
35
100
AcDbSymbolTableRecord
100
AcDbLinetypeTableRecord
  2
STYLE_01
 70
               0
  3

 72
              65
 73
               4
 40
0.7999999999999998
 49
0.4999999999999999
 74
               0
 49
-0.1
 74
               0
 49
0.1
 74
               0
 49
-0.1
 74
               0
  0
LTYPE
  5
36
100
AcDbSymbolTableRecord
100
AcDbLinetypeTableRecord
  2
STYLE_02
 70
               0
  3

 72
              65
 73
               2
 40
0.6944250000000001
 49
0.48607
 74
               0
 49
-0.2083550000000001
 74
               0
  0
LTYPE
  5
37
100
AcDbSymbolTableRecord
100
AcDbLinetypeTableRecord
  2
STYLE_03
 70
               0
  3

 72
              65
 73
               2
 40
1.25
 49
1.0416400000000001
 74
               0
 49
-0.2083599999999999
 74
               0
  0
LTYPE
  5
38
100
AcDbSymbolTableRecord
100
AcDbLinetypeTableRecord
  2
STYLE_04
 70
               0
  3

 72
              65
 73
               2
 40
1.5277099999999999
 49
1.3194249999999998
 74
               0
 49
-0.208285
 74
               0
  0
LTYPE
  5
39
100
AcDbSymbolTableRecord
100
AcDbLinetypeTableRecord
  2
STYLE_05
 70
               0
  3

 72
              65
 73
               2
 40
0.20828
 49
0.069425
 74
               0
 49
-0.138855
 74
               0
  0
LTYPE
  5
3A
100
AcDbSymbolTableRecord
100
AcDbLinetypeTableRecord
  2
STYLE_06
 70
               0
  3

 72
              65
 73
               4
 40
1.0416400000000001
 49
0.625
 74
               0
 49
-0.20828
 74
               0
 49
0.06943
 74
               0
 49
-0.13893
 74
               0
  0
LTYPE
  5
3B
100
AcDbSymbolTableRecord
100
AcDbLinetypeTableRecord
  2
STYLE_07
 70
               0
  3

 72
              65
 73
               6
 40
1.875
 49
0.625
 74
               0
 49
-0.20828
 74
               0
 49
0.6250000000000001
 74
               0
 49
-0.2083599999999999
 74
               0
 49
0.06943
 74
               0
 49
-0.1389299999999999
 74
               0
  0
LTYPE
  5
3C
100
AcDbSymbolTableRecord
100
AcDbLinetypeTableRecord
  2
STYLE_08
 70
               0
  3

 72
              65
 73
               6
 40
1.25
 49
0.625
 74
               0
 49
-0.20828
 74
               0
 49
0.06943
 74
               0
 49
-0.13893
 74
               0
 49
0.0694299999999999
 74
               0
 49
-0.13893
 74
               0
  0
LTYPE
  5
3D
100
AcDbSymbolTableRecord
100
AcDbLinetypeTableRecord
  2
STYLE_09
 70
               0
  3

 72
              65
 73
               4
 40
5.0
 49
3.75
 74
               0
 49
-0.2777849999999998
 74
               0
 49
0.6944300000000003
 74
               0
 49
-0.2777849999999998
 74
               0
  0
LTYPE
  5
3E
100
AcDbSymbolTableRecord
100
AcDbLinetypeTableRecord
  2
STYLE_10
 70
               0
  3

 72
              65
 73
               6
 40
5.9375
 49
3.75
 74
               0
 49
-0.2777849999999998
 74
               0
 49
0.6944300000000003
 74
               0
 49
-0.2777849999999998
 74
               0
 49
0.625
 74
               0
 49
-0.3125
 74
               0
  0
LTYPE
  5
3F
100
AcDbSymbolTableRecord
100
AcDbLinetypeTableRecord
  2
STYLE_11
 70
               0
  3

 72
              65
 73
               2
 40
0.0694444881889764
 49
0.0347222440944882
 74
               0
 49
-0.0347222440944882
 74
               0
  0
LTYPE
  5
40
100
AcDbSymbolTableRecord
100
AcDbLinetypeTableRecord
  2
STYLE_12
 70
               0
  3

 72
              65
 73
               2
 40
0.3937007874015748
 49
0.1968503937007874
 74
               0
 49
-0.1968503937007874
 74
               0
  0
LTYPE
  5
41
100
AcDbSymbolTableRecord
100
AcDbLinetypeTableRecord
  2
STYLE_13
 70
               0
  3

 72
              65
 73
               2
 40
0.5905511811023622
 49
0.2952755905511811
 74
               0
 49
-0.2952755905511811
 74
               0
  0
LTYPE
  5
42
100
AcDbSymbolTableRecord
100
AcDbLinetypeTableRecord
  2
STYLE_14
 70
               0
  3

 72
              65
 73
               2
 40
1.9685039370078738
 49
0.9842519685039369
 74
               0
 49
-0.9842519685039369
 74
               0
  0
ENDTAB
  0
TABLE
  2
LAYER
  5
2
100
AcDbSymbolTable
 70
               5
  0
LAYER
  5
14
100
AcDbSymbolTableRecord
100
AcDbLayerTableRecord
  2
0
 70
               0
 62
               7
  6
Continuous
290
               1
370
              -3
390
1D
  0
LAYER
  5
43
100
AcDbSymbolTableRecord
100
AcDbLayerTableRecord
  2
Defpoints
 70
               0
 62
               7
  6
Continuous
290
               0
370
              -3
390
1D
  0
LAYER
  5
44
100
AcDbSymbolTableRecord
100
AcDbLayerTableRecord
  2
template
 70
               0
 62
               7
  6
Continuous
290
               1
370
              -3
390
1D
  0
LAYER
  5
45
100
AcDbSymbolTableRecord
100
AcDbLayerTableRecord
  2
notes
 70
               0
 62
               7
  6
Continuous
290
               1
370
              -3
390
1D
  0
LAYER
  5
46
100
AcDbSymbolTableRecord
100
AcDbLayerTableRecord
  2
FAN70-0107
 70
               0
 62
               7
  6
Continuous
290
               1
370
              -3
390
1D
  0
ENDTAB
  0
TABLE
  2
STYLE
  5
3
100
AcDbSymbolTable
 70
               2
  0
STYLE
  5
17
100
AcDbSymbolTableRecord
100
AcDbTextStyleTableRecord
  2
Standard
 70
               0
 40
0.0
 41
1.0
 50
0.0
 71
               0
 42
0.0
  3
txt
  4
BIGFONT.SHX
  0
STYLE
  5
34
100
AcDbSymbolTableRecord
100
AcDbTextStyleTableRecord
  2
ＭＳ ゴシック
 70
               0
 40
0.0
 41
1.0
 50
0.0
 71
               0
 42
0.0
  3

  4
ＭＳ ゴシック
1001
ACAD
1000
ＭＳ ゴシック
1071
        0
  0
ENDTAB
  0
TABLE
  2
VIEW
  5
5
100
AcDbSymbolTable
 70
               0
  0
ENDTAB
  0
TABLE
  2
UCS
  5
6
100
AcDbSymbolTable
 70
               0
  0
ENDTAB
  0
TABLE
  2
APPID
  5
8
100
AcDbSymbolTable
 70
               1
  0
APPID
  5
16
100
AcDbSymbolTableRecord
100
AcDbRegAppTableRecord
  2
ACAD
 70
               0
  0
ENDTAB
  0
TABLE
  2
DIMSTYLE
  5
9
100
AcDbSymbolTable
 70
               3
100
AcDbDimStyleTable
 71
               0
  0
DIMSTYLE
105
18
100
AcDbSymbolTableRecord
100
AcDbDimStyleTableRecord
  2
Standard
 70
               0
  3

  4

 40
1.0
 41
0.18
 42
0.0625
 43
0.38
 44
0.18
 45
0.0
 46
0.0
 47
0.0
 48
0.0
 71
               0
 72
               0
 73
               1
 74
               1
 75
               0
 76
               0
 77
               0
 78
               0
 79
               0
140
0.18
141
0.09
142
0.0
143
25.399999999999999
144
1.0
145
0.0
146
1.0
147
0.09
148
0.0
170
               0
171
               2
172
               0
173
               0
174
               0
175
               0
176
               0
177
               0
178
               0
179
               0
271
               4
272
               4
273
               2
274
               2
275
               0
276
               0
277
               2
278
              46
279
               0
280
               0
281
               0
282
               0
283
               1
284
               0
285
               0
286
               0
288
               0
289
               3
340
17
341
0
342
0
343
0
344
0
371
              -2
372
              -2
  0
DIMSTYLE
105
4F
100
AcDbSymbolTableRecord
100
AcDbDimStyleTableRecord
  2
tfrom線あり
 70
               0
  3
<>
  4
[]
 40
1.0
 41
3.999755859375
 42
24.999999999999996
 43
0.9999999999999999
 44
0.0
 45
0.0
 46
0.0
 47
0.0
 48
0.0
 71
               0
 72
               0
 73
               0
 74
               0
 75
               0
 76
               0
 77
               1
 78
              11
 79
               0
140
24.432617187500004
141
0.0
142
0.0
143
1.0
144
1.0
145
0.0
146
1.0
147
0.4999999999999999
148
0.0
170
               0
171
               1
172
               0
173
               0
174
               1
175
               0
176
               0
177
               0
178
               0
179
               2
271
               1
272
               1
273
               2
274
               2
275
               0
276
               2
277
               2
278
              46
279
               0
280
               0
281
               0
282
               0
283
               1
284
              11
285
              11
286
              11
288
               0
289
               0
340
34
341
47
342
47
343
0
344
0
371
              -2
372
              -2
  0
DIMSTYLE
105
54
100
AcDbSymbolTableRecord
100
AcDbDimStyleTableRecord
  2
JIS
 70
               0
  3
<>
  4
[]
 40
1.0
 41
31.75
 42
0.0
 43
6.9999999999999396
 44
19.999999999996199
 45
0.0
 46
0.0
 47
0.0
 48
0.0
 71
               0
 72
               0
 73
               0
 74
               0
 75
               0
 76
               0
 77
               1
 78
              11
 79
               0
140
24.432617187500004
141
0.0
142
0.0
143
1.0
144
1.0
145
0.0
146
1.0
147
1.00000000000108
148
0.0
170
               0
171
               1
172
               0
173
               0
174
               1
175
               0
176
               0
177
               0
178
               0
179
               2
271
               1
272
               1
273
               2
274
               2
275
               0
276
               2
277
               2
278
              46
279
               0
280
               0
281
               0
282
               0
283
               1
284
              11
285
              11
286
              11
288
               0
289
               0
340
34
341
50
342
50
343
0
344
0
371
              -2
372
              -2
  0
ENDTAB
  0
TABLE
  2
BLOCK_RECORD
  5
1
100
AcDbSymbolTable
 70
              19
  0
BLOCK_RECORD
  5
A
100
AcDbSymbolTableRecord
100
AcDbBlockTableRecord
  2
*MODEL_SPACE
340
20
  0
BLOCK_RECORD
  5
B
100
AcDbSymbolTableRecord
100
AcDbBlockTableRecord
  2
*PAPER_SPACE
340
21
  0
BLOCK_RECORD
  5
47
100
AcDbSymbolTableRecord
100
AcDbBlockTableRecord
  2
_DOT
340
0
  0
BLOCK_RECORD
  5
50
100
AcDbSymbolTableRecord
100
AcDbBlockTableRecord
  2
VW_FILLEDARROW
340
0
  0
BLOCK_RECORD
  5
23
100
AcDbSymbolTableRecord
100
AcDbBlockTableRecord
  2
グループ
340
0
102
{BLKREFS
331
133
102
}
  0
BLOCK_RECORD
  5
24
100
AcDbSymbolTableRecord
100
AcDbBlockTableRecord
  2
*D3
340
0
  0
BLOCK_RECORD
  5
25
100
AcDbSymbolTableRecord
100
AcDbBlockTableRecord
  2
*D4
340
0
  0
BLOCK_RECORD
  5
26
100
AcDbSymbolTableRecord
100
AcDbBlockTableRecord
  2
*D5
340
0
  0
BLOCK_RECORD
  5
27
100
AcDbSymbolTableRecord
100
AcDbBlockTableRecord
  2
*D6
340
0
  0
BLOCK_RECORD
  5
28
100
AcDbSymbolTableRecord
100
AcDbBlockTableRecord
  2
*D7
340
0
  0
BLOCK_RECORD
  5
29
100
AcDbSymbolTableRecord
100
AcDbBlockTableRecord
  2
*D8
340
0
  0
BLOCK_RECORD
  5
2A
100
AcDbSymbolTableRecord
100
AcDbBlockTableRecord
  2
*D9
340
0
  0
BLOCK_RECORD
  5
2B
100
AcDbSymbolTableRecord
100
AcDbBlockTableRecord
  2
*D10
340
0
  0
BLOCK_RECORD
  5
2C
100
AcDbSymbolTableRecord
100
AcDbBlockTableRecord
  2
*D11
340
0
  0
BLOCK_RECORD
  5
2D
100
AcDbSymbolTableRecord
100
AcDbBlockTableRecord
  2
*D12
340
0
  0
BLOCK_RECORD
  5
2E
100
AcDbSymbolTableRecord
100
AcDbBlockTableRecord
  2
*D13
340
0
  0
BLOCK_RECORD
  5
2F
100
AcDbSymbolTableRecord
100
AcDbBlockTableRecord
  2
*D14
340
0
  0
BLOCK_RECORD
  5
30
100
AcDbSymbolTableRecord
100
AcDbBlockTableRecord
  2
*D15
340
0
  0
BLOCK_RECORD
  5
31
100
AcDbSymbolTableRecord
100
AcDbBlockTableRecord
  2
*D16
340
0
  0
BLOCK_RECORD
  5
32
100
AcDbSymbolTableRecord
100
AcDbBlockTableRecord
  2
*D17
340
0
  0
BLOCK_RECORD
  5
33
100
AcDbSymbolTableRecord
100
AcDbBlockTableRecord
  2
*D18
340
0
  0
ENDTAB
  0
ENDSEC
  0
SECTION
  2
BLOCKS
  0
BLOCK
  5
D
100
AcDbEntity
  8
0
390
0
100
AcDbBlockBegin
  2
*MODEL_SPACE
 70
               0
 10
0.0
 20
0.0
 30
0.0
  3
*MODEL_SPACE
  1

  0
ENDBLK
  5
E
100
AcDbEntity
  8
0
390
0
100
AcDbBlockEnd
  0
BLOCK
  5
F
100
AcDbEntity
 67
               1
  8
0
390
0
100
AcDbBlockBegin
  2
*PAPER_SPACE
 70
               0
 10
0.0
 20
0.0
 30
0.0
  3
*PAPER_SPACE
  1

  0
ENDBLK
  5
10
100
AcDbEntity
 67
               1
  8
0
390
0
100
AcDbBlockEnd
  0
BLOCK
  5
48
100
AcDbEntity
  8
0
390
0
100
AcDbBlockBegin
  2
_DOT
 70
               0
 10
0.0
 20
0.0
 30
0.0
  3
_DOT
  1

  0
POLYLINE
  5
49
100
AcDbEntity
  8
0
370
              -2
390
0
  6
ByBlock
 62
               0
100
AcDb2dPolyline
 66
               1
 10
0.0
 20
0.0
 30
0.0
 70
               1
 40
0.5
 41
0.5
  0
VERTEX
  5
4A
100
AcDbEntity
  8
0
370
              -2
390
0
  6
ByBlock
 62
               0
100
AcDbVertex
100
AcDb2dVertex
 10
-0.25
 20
0.0
 30
0.0
 42
1.0
  0
VERTEX
  5
4B
100
AcDbEntity
  8
0
370
              -2
390
0
  6
ByBlock
 62
               0
100
AcDbVertex
100
AcDb2dVertex
 10
0.25
 20
0.0
 30
0.0
 42
1.0
  0
SEQEND
  5
4C
100
AcDbEntity
  8
0
390
0
  0
LINE
  5
4D
100
AcDbEntity
  8
0
370
              -2
390
0
  6
ByBlock
 62
               0
100
AcDbLine
 10
-0.5
 20
0.0
 30
0.0
 11
-1.0
 21
0.0
 31
0.0
  0
ENDBLK
  5
4E
100
AcDbEntity
  8
0
390
0
100
AcDbBlockEnd
  0
BLOCK
  5
51
100
AcDbEntity
  8
0
370
              -2
390
0
  6
ByBlock
 62
               0
100
AcDbBlockBegin
  2
VW_FILLEDARROW
 70
               0
 10
0.0
 20
0.0
 30
0.0
  3
VW_FILLEDARROW
  1

  0
SOLID
  5
52
100
AcDbEntity
  8
0
370
              -2
390
0
 62
               0
100
AcDbTrace
 10
0.0
 20
0.0
 30
0.0
 11
-0.9921874999999999
 21
-0.2658558393652545
 31
0.0
 12
-0.9921874999999999
 22
0.2658558393652548
 32
0.0
 13
-0.9921874999999999
 23
0.2658558393652548
 33
0.0
  0
ENDBLK
  5
53
100
AcDbEntity
  8
0
390
0
100
AcDbBlockEnd
  0
BLOCK
  5
55
100
AcDbEntity
  8
template
390
0
100
AcDbBlockBegin
  2
グループ
 70
               0
 10
0.0
 20
0.0
 30
0.0
  3
グループ
  1

  0
LWPOLYLINE
  5
56
100
AcDbEntity
  8
0
370
              15
390
0
  6
Continuous
 62
               7
100
AcDbPolyline
 90
        8
 70
             129
 10
887.42850780309709
 20
-1440.1000589184171
 10
887.42850780309709
 20
-1446.0974476119929
 10
877.92731088509379
 20
-1446.0974476119929
 10
877.92731088509379
 20
-1470.5484108755018
 10
869.571933623311
 20
-1470.5484108755018
 10
869.571933623311
 20
-1446.0974476119929
 10
860.23897667700157
 20
-1446.0974476119929
 10
860.23897667700157
 20
-1440.1000589184171
  0
LWPOLYLINE
  5
57
100
AcDbEntity
  8
0
370
              15
390
0
  6
Continuous
 62
               7
100
AcDbPolyline
 90
      101
 70
             128
 10
900.15679963365403
 20
-1440.8283074113535
 10
900.17214966244285
 20
-1440.8239466546675
 42
-0.0222221607811426
 10
900.46215423911008
 20
-1440.7553221894239
 10
900.4779480031043
 20
-1440.7523187663267
 42
-0.0146883565584901
 10
900.74065070832785
 20
-1440.7103155793775
 42
-0.0127458844183026
 10
901.00528967548439
 20
-1440.6827786113047
 10
901.0677447537937
 20
-1440.6778851887168
 42
-0.0198099018569192
 10
901.45859386326629
 20
-1440.6628000313203
 10
901.5104053327143
 20
-1440.6628538069854
 42
-0.0147617382763543
 10
902.0050287936873
 20
-1440.67797383223
 10
902.07772024856547
 20
-1440.682346439118
 42
-0.0162624549002328
 10
902.46787387802806
 20
-1440.7185793143901
 10
902.5894062692895
 20
-1440.733865873387
 42
-0.0080020874665981
 10
902.73498530037887
 20
-1440.7545487206551
 10
902.77330477096746
 20
-1440.760619998465
 42
-0.0053821929670942
 10
902.84178887628866
 20
-1440.7722275222877
 10
902.11538317709005
 20
-1442.9531559780016
 42
0.0108667757393449
 10
902.04806610696107
 20
-1442.9399688627821
 10
902.01059808376976
 20
-1442.9334711201873
 42
0.0170663203316963
 10
901.86738129685034
 20
-1442.9136415228952
 10
901.7995059641712
 20
-1442.906594352308
 42
0.022016237527462
 10
901.51912655631656
 20
-1442.8899119915379
 10
901.44127098926765
 20
-1442.8887126242714
 42
0.0282606915779745
 10
901.1056346656859
 20
-1442.9025159012403
 10
901.06172139190824
 20
-1442.9068158912446
 42
0.0169677213692425
 10
900.81579689695468
 20
-1442.9393529407962
 42
0.0190576269870049
 10
900.5728889343734
 20
-1442.9894998129027
 10
900.56662974626374
 20
-1442.9910427870118
 42
0.0213685642844649
 10
900.31624526178291
 20
-1443.0642430721175
 10
900.31075536686978
 20
-1443.0661060681755
 42
0.0237595297592454
 10
900.05726048196948
 20
-1443.1657905900718
 10
900.05215840794142
 20
-1443.1680823655493
 42
0.0261857468811069
 10
899.79998763171136
 20
-1443.2976187029237
 10
899.78956144262111
 20
-1443.3036841773942
 42
0.0272553062025426
 10
899.55313166738597
 20
-1443.4590563833367
 10
899.51836865387372
 20
-1443.484717531431
 42
0.0325996893178991
 10
899.36821331022497
 20
-1443.6114654044002
 10
899.34450388110042
 20
-1443.6342834329146
 42
0.0138050960654657
 10
899.25262072489181
 20
-1443.7277330944648
 42
0.0125280103802355
 10
899.16577819206066
 20
-1443.825896421062
 10
899.14209774714993
 20
-1443.8540549192521
 42
0.020521802473111
 10
899.01699767163473
 20
-1444.0158482334832
 10
898.99453133114912
 20
-1444.0475079633081
 42
0.01631101295813
 10
898.83882095189961
 20
-1444.2828383983751
 10
898.83609705584684
 20
-1444.2872621603635
 42
0.0131897341903237
 10
898.68929653493672
 20
-1444.5403942527355
 10
898.68759643957446
 20
-1444.5435124918636
 42
0.0107895576062065
 10
898.54981973736312
 20
-1444.8097277014999
 10
898.54908684783868
 20
-1444.8112219341454
 42
0.0091371507210579
 10
898.42060689919197
 20
-1445.0857471318984
 10
898.39086126777988
 20
-1445.1524536390639
 42
0.0135418326353483
 10
898.21914732870573
 20
-1445.5673914243391
 10
898.18554252027195
 20
-1445.6552575666192
 42
0.0092834542417047
 10
898.01431346035315
 20
-1446.1291560649192
 10
897.98869633263985
 20
-1446.2043971346995
 42
0.0054261043582131
 10
897.88105818434246
 20
-1446.5321611077775
 10
897.86353219814089
 20
-1446.5875492700839
 42
0.0008225090812881
 10
897.79486214633505
 20
-1446.8058180281569
 10
896.81017301440158
 20
-1449.8307093214135
 10
900.04279685447545
 20
-1449.8307093214135
 10
899.53860442462201
 20
-1451.7351876197658
 10
896.28254814263869
 20
-1451.7351876197658
 10
890.45339911028486
 20
-1470.5484106857707
 10
888.62830149997455
 20
-1470.5484106857707
 10
894.46297953547548
 20
-1451.7351876197658
 10
892.05786316643514
 20
-1451.7351876197658
 10
892.56205559628859
 20
-1449.8307093214135
 10
894.99060440723861
 20
-1449.8307093214135
 10
895.85075932542725
 20
-1447.1942963207146
 42
-0.0005863560653812
 10
895.88749400357847
 20
-1447.0774699005885
 10
895.96358183729114
 20
-1446.8364776010374
 42
-0.0087522378927462
 10
896.16304998075066
 20
-1446.2412015138834
 10
896.25531425616464
 20
-1445.9810613453687
 42
-0.007740095382885
 10
896.5132479152926
 20
-1445.2880566678296
 10
896.52901288687167
 20
-1445.247625784443
 42
-0.0082369946329759
 10
896.77609735748342
 20
-1444.6435467182478
 42
-0.0085725238365549
 10
897.0433434534832
 20
-1444.0481206789675
 10
897.14497305449549
 20
-1443.8316995769721
 42
-0.0168109410596003
 10
897.43191748322374
 20
-1443.2704920508713
 10
897.55776087365189
 20
-1443.0435280179292
 42
-0.0007817726858382
 10
897.61204522373941
 20
-1442.9459837728427
 10
897.61217352975791
 20
-1442.9457540641042
 42
-0.0036626142156195
 10
897.66706139377789
 20
-1442.8491561841379
 42
-0.0080221150672342
 10
897.72418564918462
 20
-1442.7538769493849
 10
897.75488560054578
 20
-1442.7044860002629
 42
-0.0202139325582982
 10
897.88254134035049
 20
-1442.5165043995842
 10
897.93660880554012
 20
-1442.4434255353406
 42
-0.02493237918004
 10
898.19577159925871
 20
-1442.1273802931869
 10
898.21991141338628
 20
-1442.1007660202736
 42
-0.0242132121533593
 10
898.55959215492965
 20
-1441.7608825340683
 10
898.60750372768337
 20
-1441.7173733978796
 42
-0.0251017527856983
 10
898.89148542831958
 20
-1441.4843806521189
 10
898.89293090513024
 20
-1441.4833113945422
 42
-0.0130868069040247
 10
899.19119155509065
 20
-1441.2745309259974
 10
899.19275337423448
 20
-1441.2734974857217
 42
-0.0290329526389168
 10
899.50386451562667
 20
-1441.0926719840932
 10
899.5337100776145
 20
-1441.0775696012527
 42
-0.0160250190045478
 10
899.7996144913775
 20
-1440.9535534910401
 42
-0.0267600374779438
 10
900.07489056884879
 20
-1440.8528051704909
 10
900.10162648836706
 20
-1440.844612611666
 42
-0.0049981587669914
 10
900.15679963365403
 20
-1440.8283074113535
 42
-0.0049981587669914
  0
LWPOLYLINE
  5
58
100
AcDbEntity
  8
0
370
              15
390
0
  6
Continuous
 62
               7
100
AcDbPolyline
 90
      118
 70
             128
 10
919.97116719810094
 20
-1449.9046926492408
 10
921.84628912260041
 20
-1449.9046926492408
 10
921.00825021700052
 20
-1452.5862591756409
 42
-0.0010587229239736
 10
921.0397060325538
 20
-1452.5493546423074
 10
921.09790012320445
 20
-1452.4813723861098
 42
-0.0071874740407358
 10
921.24827534130395
 20
-1452.3107316940791
 10
921.38999811456472
 20
-1452.1544955527675
 42
-0.0148118053512504
 10
921.84012740727928
 20
-1451.6868817067527
 10
921.92734974216398
 20
-1451.6014843859159
 42
-0.0086273358695864
 10
922.2628985431877
 20
-1451.2841087518846
 10
922.30673225940677
 20
-1451.2440591075576
 42
-0.0103138323113081
 10
922.56475596164705
 20
-1451.0178959702132
 10
922.6105303679858
 20
-1450.9794139229432
 42
-0.0060206748562222
 10
922.78337843208635
 20
-1450.8376192721985
 10
922.78540956299003
 20
-1450.835993566553
 42
-0.0067069027280379
 10
922.95770237763486
 20
-1450.7018429327723
 10
922.96025114355609
 20
-1450.6999127629006
 42
-0.0076184352048687
 10
923.13115640943215
 20
-1450.5745378876532
 42
-0.0089652861675628
 10
923.30611737216134
 20
-1450.4549046273244
 10
923.34246909231661
 20
-1450.4309934138346
 42
-0.0156916245934513
 10
923.53842858947178
 20
-1450.3107309273632
 42
-0.0023299011067132
 10
923.73869063340408
 20
-1450.1975529878489
 10
923.75407476583143
 20
-1450.1889529927578
 42
-0.0107669341484221
 10
923.98831159093595
 20
-1450.0645528594066
 10
924.01057639200758
 20
-1450.0533361094583
 42
-0.0078058045895321
 10
924.29416650996211
 20
-1449.9159746538189
 10
924.30407359766946
 20
-1449.9113655259514
 42
-0.0181829330472916
 10
924.61438300228417
 20
-1449.7805017848561
 10
924.66843844485368
 20
-1449.7599866649116
 42
-0.020841153602756
 10
925.01752341230213
 20
-1449.643896202419
 10
925.03187951242796
 20
-1449.6397777574659
 42
-0.0222799817134284
 10
925.36059930634678
 20
-1449.5611361913252
 10
925.36948826958496
 20
-1449.5594241807398
 42
-0.0215509523881158
 10
925.6859592378637
 20
-1449.5125084922061
 10
925.72844119891238
 20
-1449.5080709654151
 42
-0.0182545924871539
 10
925.96254997821779
 20
-1449.4922271400242
 10
926.00195099457028
 20
-1449.4910025949448
 42
-0.0072962856530348
 10
926.15787387425485
 20
-1449.4884332664228
 10
926.18697354481378
 20
-1449.4883784310191
 42
-0.0059227516315851
 10
926.28472304397178
 20
-1449.4893521428094
 10
926.31396526148126
 20
-1449.4899899094137
 42
-0.0011833111907542
 10
926.35321654517611
 20
-1449.4909389137229
 10
925.55782994956894
 20
-1452.0296728588219
 42
0.0143932051545518
 10
925.53142856722059
 20
-1452.0194738887774
 10
925.52415659480107
 20
-1452.0169026699191
 42
0.0234388603504409
 10
925.48232572886661
 20
-1452.0042834342032
 10
925.47364406595625
 20
-1452.0021024721989
 42
0.019916274298266
 10
925.41335523187945
 20
-1451.9894857368645
 10
925.39254129407004
 20
-1451.9859885374353
 42
0.029364355068475
 10
925.28946643530708
 20
-1451.9748384917821
 10
925.26478125459062
 20
-1451.9736268747636
 42
0.0214606686870905
 10
925.11164033863713
 20
-1451.9726883143462
 10
925.10226842782015
 20
-1451.9730332258905
 42
0.0167564054186306
 10
924.93074823670861
 20
-1451.9851102682587
 10
924.92228844395277
 20
-1451.9859916086857
 42
0.0137677553251176
 10
924.73493513068456
 20
-1452.0107409172297
 10
924.72758339118013
 20
-1452.0119188371971
 42
0.0118497261483906
 10
924.52708562707926
 20
-1452.0489361873861
 10
924.52093561983156
 20
-1452.0502230501063
 42
0.0106421143886776
 10
924.31005473255357
 20
-1452.0990554256794
 10
924.3051459241575
 20
-1452.1003027683662
 42
0.0099746379702675
 10
924.08668745499074
 20
-1452.1604772966821
 10
924.02513941482471
 20
-1452.1787591753116
 42
0.0191613675861792
 10
923.68915495230829
 20
-1452.292736555599
 10
923.60109517956391
 20
-1452.3264234659227
 42
0.0205274080145503
 10
923.21578840766301
 20
-1452.4922518737492
 10
923.15813912568217
 20
-1452.5199198383211
 42
0.0181256912196175
 10
922.89986218501406
 20
-1452.6556036572993
 10
922.84690680169979
 20
-1452.6859212705142
 42
0.0140709242408395
 10
922.70195186707178
 20
-1452.7744159439485
 10
922.67570299846432
 20
-1452.7914727626567
 42
0.0086667884389444
 10
922.58677683691076
 20
-1452.8514754305468
 42
0.003640819203493
 10
922.49934359885754
 20
-1452.9136562883534
 10
922.46411672440877
 20
-1452.9390972342519
 42
0.0052260781275893
 10
922.30788802701977
 20
-1453.0544296208843
 10
922.29168117075801
 20
-1453.0666577315042
 42
0.0050024435887149
 10
922.10567782770897
 20
-1453.2099402997587
 10
922.09035967118405
 20
-1453.2219863222122
 42
0.0136138710272164
 10
921.87991840286236
 20
-1453.3969528271223
 10
921.84625052706519
 20
-1453.4265317998397
 42
0.0172815186911574
 10
921.58184698540094
 20
-1453.6755284724647
 10
921.57928463956
 20
-1453.6781142896102
 42
0.0189403857993275
 10
921.32870284097874
 20
-1453.9509195544172
 10
921.29607134744765
 20
-1453.9892634859086
 42
0.0185044199504104
 10
921.10411490846491
 20
-1454.2325120670348
 42
0.0088565243904986
 10
920.92565480182668
 20
-1454.4860284871993
 10
920.91647682218797
 20
-1454.4995698669447
 42
0.0157195347227785
 10
920.73325621585298
 20
-1454.789092076262
 10
920.68717327392324
 20
-1454.8672442732809
 42
0.0095451879784789
 10
920.52208772378538
 20
-1455.1598389156379
 10
920.51093980485086
 20
-1455.1805095877789
 42
0.0100351706256157
 10
920.37889605569649
 20
-1455.4375651482605
 42
0.0086935915423999
 10
920.25656490390463
 20
-1455.6993982936601
 10
920.25324416248793
 20
-1455.7068406166368
 42
0.0072580174869194
 10
920.13289771054167
 20
-1455.9874326082233
 10
920.12963607723668
 20
-1455.9953526342379
 42
0.0060005122613766
 10
920.01043540889316
 20
-1456.2949623048451
 10
920.00722443055236
 20
-1456.3033238327475
 42
0.0049017786976095
 10
919.88832427169712
 20
-1456.622252813346
 10
919.88515846530447
 20
-1456.6310057505825
 42
0.0039415167601332
 10
919.76572218724812
 20
-1456.9695478129947
 10
919.76259108459567
 20
-1456.9786510138717
 42
0.0031035838761677
 10
919.64178629890762
 20
-1457.3370908756301
 10
919.63867625437217
 20
-1457.3465114970199
 42
0.0025070747155559
 10
919.51577490305272
 20
-1457.725158713977
 10
919.47848100663145
 20
-1457.842050379217
 42
0.0029081910283761
 10
919.28646270882723
 20
-1458.4562140374869
 10
919.24565954030356
 20
-1458.5894372797845
 42
0.0009266453734886
 10
918.97724216597283
 20
-1459.4716617397607
 10
918.95635469328613
 20
-1459.5407736191491
 42
-0.0005809993664994
 10
918.67901801275707
 20
-1460.454581725583
 10
918.61273621447708
 20
-1460.6720666577655
 42
-0.0012018708165954
 10
918.46575190505496
 20
-1461.1502293222634
 10
918.4134320534331
 20
-1461.3189884633107
 42
-0.0002691059613613
 10
918.36986257232081
 20
-1461.459256083471
 10
915.53690667403157
 20
-1470.5484106857707
 10
913.71891778205304
 20
-1470.5484106857707
 10
919.97116719810094
 20
-1449.9046926492408
  0
SPLINE
  5
59
100
AcDbEntity
  8
0
370
              15
390
0
  6
Continuous
 62
               7
100
AcDbSpline
210
0.0
220
0.0
230
1.0
 70
              13
 71
               2
 72
             782
 73
             779
 74
               0
 42
0.000001
 43
0.000001
 40
0.0
 40
0.0
 40
0.0
 40
1.0
 40
1.0
 40
2.0
 40
2.0
 40
3.0
 40
3.0
 40
4.0
 40
4.0
 40
5.0
 40
5.0
 40
6.0
 40
6.0
 40
7.0
 40
7.0
 40
8.0
 40
8.0
 40
9.0
 40
9.0
 40
10.0
 40
10.0
 40
11.0
 40
11.0
 40
12.0
 40
12.0
 40
13.0
 40
13.0
 40
14.0
 40
14.0
 40
15.0
 40
15.0
 40
16.0
 40
16.0
 40
17.0
 40
17.0
 40
18.0
 40
18.0
 40
19.0
 40
19.0
 40
20.0
 40
20.0
 40
21.0
 40
21.0
 40
22.0
 40
22.0
 40
23.0
 40
23.0
 40
24.0
 40
24.0
 40
25.0
 40
25.0
 40
26.0
 40
26.0
 40
27.0
 40
27.0
 40
28.0
 40
28.0
 40
29.0
 40
29.0
 40
30.0
 40
30.0
 40
31.0
 40
31.0
 40
32.0
 40
32.0
 40
33.0
 40
33.0
 40
34.0
 40
34.0
 40
35.0
 40
35.0
 40
36.0
 40
36.0
 40
37.0
 40
37.0
 40
38.0
 40
38.0
 40
39.0
 40
39.0
 40
40.0
 40
40.0
 40
41.0
 40
41.0
 40
42.0
 40
42.0
 40
43.0
 40
43.0
 40
44.0
 40
44.0
 40
45.0
 40
45.0
 40
46.0
 40
46.0
 40
47.0
 40
47.0
 40
48.0
 40
48.0
 40
49.0
 40
49.0
 40
50.0
 40
50.0
 40
51.0
 40
51.0
 40
52.0
 40
52.0
 40
53.0
 40
53.0
 40
54.0
 40
54.0
 40
55.0
 40
55.0
 40
56.0
 40
56.0
 40
57.0
 40
57.0
 40
58.0
 40
58.0
 40
59.0
 40
59.0
 40
60.0
 40
60.0
 40
61.0
 40
61.0
 40
62.0
 40
62.0
 40
63.0
 40
63.0
 40
64.0
 40
64.0
 40
65.0
 40
65.0
 40
66.0
 40
66.0
 40
67.0
 40
67.0
 40
68.0
 40
68.0
 40
69.0
 40
69.0
 40
70.0
 40
70.0
 40
71.0
 40
71.0
 40
72.0
 40
72.0
 40
73.0
 40
73.0
 40
74.0
 40
74.0
 40
75.0
 40
75.0
 40
76.0
 40
76.0
 40
77.0
 40
77.0
 40
78.0
 40
78.0
 40
79.0
 40
79.0
 40
80.0
 40
80.0
 40
81.0
 40
81.0
 40
82.0
 40
82.0
 40
83.0
 40
83.0
 40
84.0
 40
84.0
 40
85.0
 40
85.0
 40
86.0
 40
86.0
 40
87.0
 40
87.0
 40
88.0
 40
88.0
 40
89.0
 40
89.0
 40
90.0
 40
90.0
 40
91.0
 40
91.0
 40
92.0
 40
92.0
 40
93.0
 40
93.0
 40
94.0
 40
94.0
 40
95.0
 40
95.0
 40
96.0
 40
96.0
 40
97.0
 40
97.0
 40
98.0
 40
98.0
 40
99.0
 40
99.0
 40
100.0
 40
100.0
 40
101.0
 40
101.0
 40
102.0
 40
102.0
 40
103.0
 40
103.0
 40
104.0
 40
104.0
 40
105.0
 40
105.0
 40
106.0
 40
106.0
 40
107.0
 40
107.0
 40
108.0
 40
108.0
 40
109.0
 40
109.0
 40
110.0
 40
110.0
 40
111.0
 40
111.0
 40
112.0
 40
112.0
 40
113.0
 40
113.0
 40
114.0
 40
114.0
 40
115.0
 40
115.0
 40
116.0
 40
116.0
 40
117.0
 40
117.0
 40
118.0
 40
118.0
 40
119.0
 40
119.0
 40
120.0
 40
120.0
 40
121.0
 40
121.0
 40
122.0
 40
122.0
 40
123.0
 40
123.0
 40
124.0
 40
124.0
 40
125.0
 40
125.0
 40
126.0
 40
126.0
 40
127.0
 40
127.0
 40
128.0
 40
128.0
 40
129.0
 40
129.0
 40
130.0
 40
130.0
 40
131.0
 40
131.0
 40
132.0
 40
132.0
 40
133.0
 40
133.0
 40
134.0
 40
134.0
 40
135.0
 40
135.0
 40
136.0
 40
136.0
 40
137.0
 40
137.0
 40
138.0
 40
138.0
 40
139.0
 40
139.0
 40
140.0
 40
140.0
 40
141.0
 40
141.0
 40
142.0
 40
142.0
 40
143.0
 40
143.0
 40
144.0
 40
144.0
 40
145.0
 40
145.0
 40
146.0
 40
146.0
 40
147.0
 40
147.0
 40
148.0
 40
148.0
 40
149.0
 40
149.0
 40
150.0
 40
150.0
 40
151.0
 40
151.0
 40
152.0
 40
152.0
 40
153.0
 40
153.0
 40
154.0
 40
154.0
 40
155.0
 40
155.0
 40
156.0
 40
156.0
 40
157.0
 40
157.0
 40
158.0
 40
158.0
 40
159.0
 40
159.0
 40
160.0
 40
160.0
 40
161.0
 40
161.0
 40
162.0
 40
162.0
 40
163.0
 40
163.0
 40
164.0
 40
164.0
 40
165.0
 40
165.0
 40
166.0
 40
166.0
 40
167.0
 40
167.0
 40
168.0
 40
168.0
 40
169.0
 40
169.0
 40
170.0
 40
170.0
 40
171.0
 40
171.0
 40
172.0
 40
172.0
 40
173.0
 40
173.0
 40
174.0
 40
174.0
 40
175.0
 40
175.0
 40
176.0
 40
176.0
 40
177.0
 40
177.0
 40
178.0
 40
178.0
 40
179.0
 40
179.0
 40
180.0
 40
180.0
 40
181.0
 40
181.0
 40
182.0
 40
182.0
 40
183.0
 40
183.0
 40
184.0
 40
184.0
 40
185.0
 40
185.0
 40
186.0
 40
186.0
 40
187.0
 40
187.0
 40
188.0
 40
188.0
 40
189.0
 40
189.0
 40
190.0
 40
190.0
 40
191.0
 40
191.0
 40
192.0
 40
192.0
 40
193.0
 40
193.0
 40
194.0
 40
194.0
 40
195.0
 40
195.0
 40
196.0
 40
196.0
 40
197.0
 40
197.0
 40
198.0
 40
198.0
 40
199.0
 40
199.0
 40
200.0
 40
200.0
 40
201.0
 40
201.0
 40
202.0
 40
202.0
 40
203.0
 40
203.0
 40
204.0
 40
204.0
 40
205.0
 40
205.0
 40
206.0
 40
206.0
 40
207.0
 40
207.0
 40
208.0
 40
208.0
 40
209.0
 40
209.0
 40
210.0
 40
210.0
 40
211.0
 40
211.0
 40
212.0
 40
212.0
 40
213.0
 40
213.0
 40
214.0
 40
214.0
 40
215.0
 40
215.0
 40
216.0
 40
216.0
 40
217.0
 40
217.0
 40
218.0
 40
218.0
 40
219.0
 40
219.0
 40
220.0
 40
220.0
 40
221.0
 40
221.0
 40
222.0
 40
222.0
 40
223.0
 40
223.0
 40
224.0
 40
224.0
 40
225.0
 40
225.0
 40
226.0
 40
226.0
 40
227.0
 40
227.0
 40
228.0
 40
228.0
 40
229.0
 40
229.0
 40
230.0
 40
230.0
 40
231.0
 40
231.0
 40
232.0
 40
232.0
 40
233.0
 40
233.0
 40
234.0
 40
234.0
 40
235.0
 40
235.0
 40
236.0
 40
236.0
 40
237.0
 40
237.0
 40
238.0
 40
238.0
 40
239.0
 40
239.0
 40
240.0
 40
240.0
 40
241.0
 40
241.0
 40
242.0
 40
242.0
 40
243.0
 40
243.0
 40
244.0
 40
244.0
 40
245.0
 40
245.0
 40
246.0
 40
246.0
 40
247.0
 40
247.0
 40
248.0
 40
248.0
 40
249.0
 40
249.0
 40
250.0
 40
250.0
 40
251.0
 40
251.0
 40
252.0
 40
252.0
 40
253.0
 40
253.0
 40
254.0
 40
254.0
 40
255.0
 40
255.0
 40
256.0
 40
256.0
 40
257.0
 40
257.0
 40
258.0
 40
258.0
 40
259.0
 40
259.0
 40
260.0
 40
260.0
 40
261.0
 40
261.0
 40
262.0
 40
262.0
 40
263.0
 40
263.0
 40
264.0
 40
264.0
 40
265.0
 40
265.0
 40
266.0
 40
266.0
 40
267.0
 40
267.0
 40
268.0
 40
268.0
 40
269.0
 40
269.0
 40
270.0
 40
270.0
 40
271.0
 40
271.0
 40
272.0
 40
272.0
 40
273.0
 40
273.0
 40
274.0
 40
274.0
 40
275.0
 40
275.0
 40
276.0
 40
276.0
 40
277.0
 40
277.0
 40
278.0
 40
278.0
 40
279.0
 40
279.0
 40
280.0
 40
280.0
 40
281.0
 40
281.0
 40
282.0
 40
282.0
 40
283.0
 40
283.0
 40
284.0
 40
284.0
 40
285.0
 40
285.0
 40
286.0
 40
286.0
 40
287.0
 40
287.0
 40
288.0
 40
288.0
 40
289.0
 40
289.0
 40
290.0
 40
290.0
 40
291.0
 40
291.0
 40
292.0
 40
292.0
 40
293.0
 40
293.0
 40
294.0
 40
294.0
 40
295.0
 40
295.0
 40
296.0
 40
296.0
 40
297.0
 40
297.0
 40
298.0
 40
298.0
 40
299.0
 40
299.0
 40
300.0
 40
300.0
 40
301.0
 40
301.0
 40
302.0
 40
302.0
 40
303.0
 40
303.0
 40
304.0
 40
304.0
 40
305.0
 40
305.0
 40
306.0
 40
306.0
 40
307.0
 40
307.0
 40
308.0
 40
308.0
 40
309.0
 40
309.0
 40
310.0
 40
310.0
 40
311.0
 40
311.0
 40
312.0
 40
312.0
 40
313.0
 40
313.0
 40
314.0
 40
314.0
 40
315.0
 40
315.0
 40
316.0
 40
316.0
 40
317.0
 40
317.0
 40
318.0
 40
318.0
 40
319.0
 40
319.0
 40
320.0
 40
320.0
 40
321.0
 40
321.0
 40
322.0
 40
322.0
 40
323.0
 40
323.0
 40
324.0
 40
324.0
 40
325.0
 40
325.0
 40
326.0
 40
326.0
 40
327.0
 40
327.0
 40
328.0
 40
328.0
 40
329.0
 40
329.0
 40
330.0
 40
330.0
 40
331.0
 40
331.0
 40
332.0
 40
332.0
 40
333.0
 40
333.0
 40
334.0
 40
334.0
 40
335.0
 40
335.0
 40
336.0
 40
336.0
 40
337.0
 40
337.0
 40
338.0
 40
338.0
 40
339.0
 40
339.0
 40
340.0
 40
340.0
 40
341.0
 40
341.0
 40
342.0
 40
342.0
 40
343.0
 40
343.0
 40
344.0
 40
344.0
 40
345.0
 40
345.0
 40
346.0
 40
346.0
 40
347.0
 40
347.0
 40
348.0
 40
348.0
 40
349.0
 40
349.0
 40
350.0
 40
350.0
 40
351.0
 40
351.0
 40
352.0
 40
352.0
 40
353.0
 40
353.0
 40
354.0
 40
354.0
 40
355.0
 40
355.0
 40
356.0
 40
356.0
 40
357.0
 40
357.0
 40
358.0
 40
358.0
 40
359.0
 40
359.0
 40
360.0
 40
360.0
 40
361.0
 40
361.0
 40
362.0
 40
362.0
 40
363.0
 40
363.0
 40
364.0
 40
364.0
 40
365.0
 40
365.0
 40
366.0
 40
366.0
 40
367.0
 40
367.0
 40
368.0
 40
368.0
 40
369.0
 40
369.0
 40
370.0
 40
370.0
 40
371.0
 40
371.0
 40
372.0
 40
372.0
 40
373.0
 40
373.0
 40
374.0
 40
374.0
 40
375.0
 40
375.0
 40
376.0
 40
376.0
 40
377.0
 40
377.0
 40
378.0
 40
378.0
 40
379.0
 40
379.0
 40
380.0
 40
380.0
 40
381.0
 40
381.0
 40
382.0
 40
382.0
 40
383.0
 40
383.0
 40
384.0
 40
384.0
 40
385.0
 40
385.0
 40
386.0
 40
386.0
 40
387.0
 40
387.0
 40
388.0
 40
388.0
 40
389.0
 40
389.0
 40
389.0
 10
930.29987164883357
 20
-1449.8937662858784
 30
0.0
 41
1.0
 10
931.11829575755405
 20
-1449.8937662858784
 30
0.0
 41
1.0
 10
931.93671986627453
 20
-1449.8937662858784
 30
0.0
 41
1.0
 10
931.52296613075782
 20
-1451.2363925501281
 30
0.0
 41
1.0
 10
931.109212395241
 20
-1452.5790188143778
 30
0.0
 41
1.0
 10
931.12755189039535
 20
-1452.5503180414873
 30
0.0
 41
0.9999957264341365
 10
931.14605888721326
 20
-1452.5217249913567
 30
0.0
 41
1.0
 10
931.17648821136379
 20
-1452.4747121129603
 30
0.0
 41
1.0
 10
931.20691753551432
 20
-1452.427699234564
 30
0.0
 41
1.0
 10
931.28628318062295
 20
-1452.3050804276572
 30
0.0
 41
0.9995394069081947
 10
931.37294157217775
 20
-1452.1875023659113
 30
0.0
 41
1.0
 10
931.40869843443534
 20
-1452.1389874733209
 30
0.0
 41
1.0
 10
931.44445529669304
 20
-1452.0904725807302
 30
0.0
 41
1.0
 10
931.57818196450967
 20
-1451.9090323056057
 30
0.0
 41
0.9994460617143183
 10
931.72368244579798
 20
-1451.7368899079556
 30
0.0
 41
1.0
 10
931.72807062677327
 20
-1451.7316982275727
 30
0.0
 41
1.0
 10
931.73245880774857
 20
-1451.7265065471897
 30
0.0
 41
1.0
 10
931.86918292708617
 20
-1451.5647475103056
 30
0.0
 41
0.9994359394934423
 10
932.01645715743734
 20
-1451.4125313091413
 30
0.0
 41
1.0
 10
932.0188405113895
 20
-1451.4100679787693
 30
0.0
 41
1.0
 10
932.02122386534165
 20
-1451.4076046483974
 30
0.0
 41
1.0
 10
932.16373138778692
 20
-1451.2603151079784
 30
0.0
 41
0.9995293688567799
 10
932.31500306877092
 20
-1451.1220418958123
 30
0.0
 41
1.0
 10
932.33429682803387
 20
-1451.1044060101615
 30
0.0
 41
1.0
 10
932.35359058729682
 20
-1451.0867701245106
 30
0.0
 41
1.0
 10
932.46627474975367
 20
-1450.9837686836481
 30
0.0
 41
0.9997087614804154
 10
932.58379763870812
 20
-1450.8863244028505
 30
0.0
 41
1.0
 10
932.60296371187133
 20
-1450.8704328243527
 30
0.0
 41
1.0
 10
932.62212978503442
 20
-1450.854541245855
 30
0.0
 41
1.0
 10
932.70132052765382
 20
-1450.7888801220599
 30
0.0
 41
0.9999595338698486
 10
932.78167979851833
 20
-1450.7246543913975
 30
0.0
 41
1.0
 10
932.86203906937681
 20
-1450.6604286607401
 30
0.0
 41
0.9999749417502637
 10
932.94329960372511
 20
-1450.5973471067898
 30
0.0
 41
1.0
 10
932.96428574988477
 20
-1450.5810558194903
 30
0.0
 41
1.0
 10
932.98527189604442
 20
-1450.564764532191
 30
0.0
 41
1.0
 10
933.06983978134576
 20
-1450.4991155223504
 30
0.0
 41
0.9999792037120691
 10
933.15524738111935
 20
-1450.4345627407038
 30
0.0
 41
1.0
 10
933.17607220707259
 20
-1450.4188229184142
 30
0.0
 41
1.0
 10
933.19689703302583
 20
-1450.4030830961249
 30
0.0
 41
1.0
 10
933.24065498092546
 20
-1450.3700099590324
 30
0.0
 41
0.9999993374150284
 10
933.28433666703199
 20
-1450.336836163636
 30
0.0
 41
1.0
 10
933.32801835317616
 20
-1450.3036623682112
 30
0.0
 41
0.9999160953817077
 10
933.37254476409703
 20
-1450.2716313030121
 30
0.0
 41
1.0
 10
933.40536665151535
 20
-1450.2480201474282
 30
0.0
 41
1.0
 10
933.43818853893379
 20
-1450.224408991844
 30
0.0
 41
1.0
 10
933.54835872469152
 20
-1450.1451556154764
 30
0.0
 41
0.9980964527231387
 10
933.66744771819049
 20
-1450.0800681426213
 30
0.0
 41
1.0
 10
933.70448032511888
 20
-1450.0598281630282
 30
0.0
 41
1.0
 10
933.74151293204727
 20
-1450.0395881834349
 30
0.0
 41
1.0
 10
933.92083994532106
 20
-1449.941577932733
 30
0.0
 41
0.9984572810572164
 10
934.10992851168112
 20
-1449.8640556713863
 30
0.0
 41
1.0
 10
934.11357478107811
 20
-1449.8625607790477
 30
0.0
 41
1.0
 10
934.11722105047522
 20
-1449.8610658867094
 30
0.0
 41
1.0
 10
934.29901707804095
 20
-1449.7865334100395
 30
0.0
 41
0.9987838528033929
 10
934.48726973659927
 20
-1449.730267769874
 30
0.0
 41
1.0
 10
934.49150768579887
 20
-1449.7290011161836
 30
0.0
 41
1.0
 10
934.49574563499846
 20
-1449.7277344624931
 30
0.0
 41
1.0
 10
934.67552239515953
 20
-1449.674002129708
 30
0.0
 41
0.9990652816207352
 10
934.85926832687437
 20
-1449.6359984501662
 30
0.0
 41
1.0
 10
934.86445672790535
 20
-1449.6349253470598
 30
0.0
 41
1.0
 10
934.86964512893633
 20
-1449.6338522439532
 30
0.0
 41
1.0
 10
935.04301425858989
 20
-1449.5979947706242
 30
0.0
 41
0.9992909934270167
 10
935.21859002504857
 20
-1449.5752843381576
 30
0.0
 41
1.0
 10
935.39416579150691
 20
-1449.5525739056911
 30
0.0
 41
0.9994553539448631
 10
935.57085722459999
 20
-1449.5414946014848
 30
0.0
 41
1.0
 10
935.60629163239503
 20
-1449.5392727134372
 30
0.0
 41
1.0
 10
935.64172604019006
 20
-1449.5370508253893
 30
0.0
 41
1.0
 10
935.80795180675989
 20
-1449.5266277629776
 30
0.0
 41
0.9990928098293173
 10
935.97446159866331
 20
-1449.530387404212
 30
0.0
 41
1.0
 10
936.01302343393786
 20
-1449.531258095745
 30
0.0
 41
1.0
 10
936.05158526921241
 20
-1449.532128787278
 30
0.0
 41
1.0
 10
936.14097139056867
 20
-1449.5341470454468
 30
0.0
 41
0.9998382089206704
 10
936.23022707335213
 20
-1449.5393791719748
 30
0.0
 41
1.0
 10
936.2306569795752
 20
-1449.5394043728772
 30
0.0
 41
1.0
 10
936.23108688579828
 20
-1449.5394295737797
 30
0.0
 41
1.0
 10
936.3194827561415
 20
-1449.544611298503
 30
0.0
 41
0.9997558016759007
 10
936.40756333333911
 20
-1449.5536938138694
 30
0.0
 41
1.0
 10
936.40803947177085
 20
-1449.5537429113522
 30
0.0
 41
1.0
 10
936.40851561020258
 20
-1449.553792008835
 30
0.0
 41
1.0
 10
936.49564391054196
 20
-1449.5627763292359
 30
0.0
 41
0.9996565144181642
 10
936.58218176388209
 20
-1449.5763136359246
 30
0.0
 41
1.0
 10
936.58264768926097
 20
-1449.5763865216563
 30
0.0
 41
1.0
 10
936.58311361463973
 20
-1449.5764594073878
 30
0.0
 41
1.0
 10
936.66871961722552
 20
-1449.589850942614
 30
0.0
 41
0.9995321806867618
 10
936.75334669755205
 20
-1449.608451431043
 30
0.0
 41
1.0
 10
936.75373589212541
 20
-1449.6085369735092
 30
0.0
 41
1.0
 10
936.75412508669865
 20
-1449.6086225159754
 30
0.0
 41
1.0
 10
936.83797377788153
 20
-1449.6270519194727
 30
0.0
 41
0.9993819199219504
 10
936.92032031207623
 20
-1449.6513273027331
 30
0.0
 41
1.0
 10
936.92055874557468
 20
-1449.6513975918424
 30
0.0
 41
1.0
 10
936.92079717907313
 20
-1449.6514678809519
 30
0.0
 41
1.0
 10
937.00266684627331
 20
-1449.6756026859939
 30
0.0
 41
0.9992088568505249
 10
937.08235936526069
 20
-1449.7061679217882
 30
0.0
 41
1.0
 10
937.16204035613964
 20
-1449.7367275225213
 30
0.0
 41
0.9990226101773454
 10
937.23871102604687
 20
-1449.7742049541357
 30
0.0
 41
1.0
 10
937.31537016784432
 20
-1449.811676750689
 30
0.0
 41
0.9988424273972977
 10
937.38807379505567
 20
-1449.8563415259412
 30
0.0
 41
1.0
 10
937.38834150343587
 20
-1449.8565059900138
 30
0.0
 41
1.0
 10
937.38860921181595
 20
-1449.8566704540867
 30
0.0
 41
1.0
 10
937.46184825578666
 20
-1449.9016641574838
 30
0.0
 41
0.9986928844490871
 10
937.53011112249726
 20
-1449.9538998917642
 30
0.0
 41
1.0
 10
937.53069241471962
 20
-1449.9543447049919
 30
0.0
 41
1.0
 10
937.5312737069421
 20
-1449.9547895182195
 30
0.0
 41
1.0
 10
937.60069915809777
 20
-1450.007914878955
 30
0.0
 41
0.9986007262277438
 10
937.66412532786364
 20
-1450.0680756486481
 30
0.0
 41
1.0
 10
937.66501974332118
 20
-1450.0689240164834
 30
0.0
 41
1.0
 10
937.66591415877861
 20
-1450.0697723843186
 30
0.0
 41
1.0
 10
937.73112915945944
 20
-1450.1316298896818
 30
0.0
 41
0.9985581491380186
 10
937.78933677116083
 20
-1450.2001223799532
 30
0.0
 41
1.0
 10
937.79859522475692
 20
-1450.2110167376554
 30
0.0
 41
1.0
 10
937.80785367835301
 20
-1450.2219110953574
 30
0.0
 41
1.0
 10
937.88457819724579
 20
-1450.3121923010317
 30
0.0
 41
0.9970460233520068
 10
937.94657009840523
 20
-1450.4131593852132
 30
0.0
 41
1.0
 10
937.96103946348535
 20
-1450.4367258442953
 30
0.0
 41
1.0
 10
937.97550882856558
 20
-1450.4602923033776
 30
0.0
 41
1.0
 10
938.01524552857734
 20
-1450.5250120274088
 30
0.0
 41
0.9988468816636844
 10
938.04859189932858
 20
-1450.5932444798359
 30
0.0
 41
1.0
 10
938.05562792182025
 20
-1450.6076414009735
 30
0.0
 41
1.0
 10
938.06266394431191
 20
-1450.6220383221114
 30
0.0
 41
1.0
 10
938.08193827007995
 20
-1450.6614769322632
 30
0.0
 41
0.9998431189998385
 10
938.09980359757515
 20
-1450.7015734867043
 30
0.0
 41
1.0
 10
938.11766892504954
 20
-1450.741670041099
 30
0.0
 41
0.9999989989724625
 10
938.13564764848604
 20
-1450.7817158787157
 30
0.0
 41
1.0
 10
938.14181996008324
 20
-1450.795464095535
 30
0.0
 41
1.0
 10
938.14799227168055
 20
-1450.8092123123542
 30
0.0
 41
1.0
 10
938.17831561829166
 20
-1450.8767545835649
 30
0.0
 41
0.9998790356320503
 10
938.20652349842783
 20
-1450.9452073354978
 30
0.0
 41
1.0
 10
938.21335867971288
 20
-1450.961794436927
 30
0.0
 41
1.0
 10
938.22019386099794
 20
-1450.9783815383562
 30
0.0
 41
1.0
 10
938.24375152337905
 20
-1451.0355494932435
 30
0.0
 41
0.9998227574561497
 10
938.26514027176722
 20
-1451.093563801518
 30
0.0
 41
1.0
 10
938.28652902015699
 20
-1451.1515781097971
 30
0.0
 41
0.9996797971041627
 10
938.30495530511541
 20
-1451.2106002289127
 30
0.0
 41
1.0
 10
938.30885910784104
 20
-1451.223104687082
 30
0.0
 41
1.0
 10
938.31276291056679
 20
-1451.2356091452516
 30
0.0
 41
1.0
 10
938.33899680097716
 20
-1451.3196401807077
 30
0.0
 41
0.9979274938734368
 10
938.35422132445638
 20
-1451.4063445393681
 30
0.0
 41
1.0
 10
938.35644501171714
 20
-1451.4190085401865
 30
0.0
 41
1.0
 10
938.35866869897779
 20
-1451.4316725410049
 30
0.0
 41
1.0
 10
938.36959863867651
 20
-1451.493919048296
 30
0.0
 41
0.9994985982136569
 10
938.37656680385385
 20
-1451.5567325494426
 30
0.0
 41
1.0
 10
938.38353496903096
 20
-1451.6195460505862
 30
0.0
 41
0.9996372611201734
 10
938.38711083479859
 20
-1451.6826436292667
 30
0.0
 41
1.0
 10
938.38727941228785
 20
-1451.6856182463489
 30
0.0
 41
1.0
 10
938.38744798977723
 20
-1451.688592863431
 30
0.0
 41
1.0
 10
938.39136101052361
 20
-1451.7576396762754
 30
0.0
 41
0.9997730630736661
 10
938.39232932401148
 20
-1451.8267905003015
 30
0.0
 41
1.0
 10
938.39238643042972
 20
-1451.8308686794483
 30
0.0
 41
1.0
 10
938.39244353684785
 20
-1451.834946858595
 30
0.0
 41
1.0
 10
938.39352606317198
 20
-1451.9122540409189
 30
0.0
 41
0.9998772614070092
 10
938.39218597644037
 20
-1451.989557187482
 30
0.0
 41
1.0
 10
938.3920967132417
 20
-1451.9947063513146
 30
0.0
 41
1.0
 10
938.39200745004291
 20
-1451.9998555151471
 30
0.0
 41
1.0
 10
938.39048883691351
 20
-1452.0874569893858
 30
0.0
 41
0.9999415567327501
 10
938.38707652666744
 20
-1452.1750051510651
 30
0.0
 41
1.0
 10
938.38683520599227
 20
-1452.181196610798
 30
0.0
 41
1.0
 10
938.3865938853171
 20
-1452.1873880705311
 30
0.0
 41
1.0
 10
938.38269893372058
 20
-1452.287319151681
 30
0.0
 41
0.9999716810423112
 10
938.37730035060213
 20
-1452.3871802899082
 30
0.0
 41
1.0
 10
938.37408755181229
 20
-1452.4466095395846
 30
0.0
 41
1.0
 10
938.37087475302246
 20
-1452.5060387892611
 30
0.0
 41
1.0
 10
938.36280084387067
 20
-1452.6553871905232
 30
0.0
 41
0.9999819129897596
 10
938.35293105225514
 20
-1452.8046276682167
 30
0.0
 41
1.0
 10
938.34306126063859
 20
-1452.953868145928
 30
0.0
 41
1.0
 10
938.3406219400747
 20
-1452.9910611917774
 30
0.0
 41
1.0
 10
938.36332017388304
 20
-1452.9523201944862
 30
0.0
 41
0.9999982128163811
 10
938.38616473262482
 20
-1452.9136653005512
 30
0.0
 41
1.0
 10
938.41307429252788
 20
-1452.8681320864653
 30
0.0
 41
1.0
 10
938.43998385243083
 20
-1452.8225988723793
 30
0.0
 41
1.0
 10
938.51664753096168
 20
-1452.6928775503018
 30
0.0
 41
0.999860919005644
 10
938.59759484382937
 20
-1452.5657851683629
 30
0.0
 41
1.0
 10
938.62724316530148
 20
-1452.5192354354208
 30
0.0
 41
1.0
 10
938.65689148677359
 20
-1452.4726857024789
 30
0.0
 41
1.0
 10
938.73916370701318
 20
-1452.3435131324795
 30
0.0
 41
0.9999067609731499
 10
938.82493271648309
 20
-1452.2166354430296
 30
0.0
 41
1.0
 10
938.82733741967968
 20
-1452.2130781769813
 30
0.0
 41
1.0
 10
938.82974212287616
 20
-1452.209520910933
 30
0.0
 41
1.0
 10
938.91070172594198
 20
-1452.0897577535952
 30
0.0
 41
0.9998784952149761
 10
938.99535533562846
 20
-1451.9725765368794
 30
0.0
 41
1.0
 10
939.08000894531278
 20
-1451.855395320167
 30
0.0
 41
0.9998532968282732
 10
939.16862656613841
 20
-1451.7411824116928
 30
0.0
 41
1.0
 10
939.18858835512788
 20
-1451.7154550906748
 30
0.0
 41
1.0
 10
939.20855014411723
 20
-1451.6897277696567
 30
0.0
 41
1.0
 10
939.32703419387485
 20
-1451.5370221586902
 30
0.0
 41
0.9991551975795555
 10
939.4576586434971
 20
-1451.394562596608
 30
0.0
 41
1.0
 10
939.46116825947729
 20
-1451.3907349949832
 30
0.0
 41
1.0
 10
939.46467787545748
 20
-1451.3869073933583
 30
0.0
 41
1.0
 10
939.58828309312082
 20
-1451.2521030345242
 30
0.0
 41
0.9997418144181397
 10
939.71788523282112
 20
-1451.123053623912
 30
0.0
 41
1.0
 10
939.84748737252278
 20
-1450.9940042132987
 30
0.0
 41
0.9989238204633554
 10
939.98848992077478
 20
-1450.8775192512589
 30
0.0
 41
1.0
 10
940.0337375989136
 20
-1450.8401392596509
 30
0.0
 41
1.0
 10
940.07898527705242
 20
-1450.8027592680428
 30
0.0
 41
1.0
 10
940.21922533427346
 20
-1450.6869042147521
 30
0.0
 41
0.9990825084096215
 10
940.36886526687726
 20
-1450.5834752169194
 30
0.0
 41
1.0
 10
940.37891063093389
 20
-1450.5765320038399
 30
0.0
 41
1.0
 10
940.3889559949904
 20
-1450.5695887907607
 30
0.0
 41
1.0
 10
940.51850519948084
 20
-1450.4800462190865
 30
0.0
 41
0.9998164899826004
 10
940.65138940285749
 20
-1450.39553197757
 30
0.0
 41
1.0
 10
940.66323496337782
 20
-1450.3879982110479
 30
0.0
 41
1.0
 10
940.67508052389815
 20
-1450.3804644445258
 30
0.0
 41
1.0
 10
940.78427360622936
 20
-1450.3110177360561
 30
0.0
 41
0.9997473449130376
 10
940.89647756348313
 20
-1450.2465487782379
 30
0.0
 41
1.0
 10
941.00868152072746
 20
-1450.1820798204251
 30
0.0
 41
0.9999327861142725
 10
941.12235013149132
 20
-1450.1202298287433
 30
0.0
 41
1.0
 10
941.12290213405436
 20
-1450.1199294700627
 30
0.0
 41
1.0
 10
941.12345413661751
 20
-1450.1196291113824
 30
0.0
 41
1.0
 10
941.23822675249994
 20
-1450.0571784023439
 30
0.0
 41
0.9996956420483232
 10
941.35594007833743
 20
-1450.0004649353705
 30
0.0
 41
1.0
 10
941.38638048323571
 20
-1449.9857989586378
 30
0.0
 41
1.0
 10
941.416820888134
 20
-1449.9711329819052
 30
0.0
 41
1.0
 10
941.51979799487594
 20
-1449.9215193234627
 30
0.0
 41
0.9998070570176219
 10
941.62464438381278
 20
-1449.8759887365636
 30
0.0
 41
1.0
 10
941.72949077275746
 20
-1449.8304581496609
 30
0.0
 41
0.9997827436147833
 10
941.83614370936903
 20
-1449.7893369783485
 30
0.0
 41
1.0
 10
941.85536655899773
 20
-1449.7819254047172
 30
0.0
 41
1.0
 10
941.87458940862643
 20
-1449.7745138310859
 30
0.0
 41
1.0
 10
942.0196880444978
 20
-1449.7185695125095
 30
0.0
 41
0.9988031841976627
 10
942.16955840710136
 20
-1449.6770694483421
 30
0.0
 41
1.0
 10
942.19447565546602
 20
-1449.6701697025346
 30
0.0
 41
1.0
 10
942.21939290383079
 20
-1449.6632699567274
 30
0.0
 41
1.0
 10
942.38666292947767
 20
-1449.6169518143208
 30
0.0
 41
0.9984748040550243
 10
942.55801983812637
 20
-1449.589357582056
 30
0.0
 41
1.0
 10
942.56275897437524
 20
-1449.5885944215424
 30
0.0
 41
1.0
 10
942.56749811062411
 20
-1449.5878312610291
 30
0.0
 41
1.0
 10
942.72937674677507
 20
-1449.5617633497911
 30
0.0
 41
0.9984436495479945
 10
942.89315149050003
 20
-1449.5538853959724
 30
0.0
 41
1.0
 10
942.91484869863223
 20
-1449.5528417087726
 30
0.0
 41
1.0
 10
942.93654590676442
 20
-1449.5517980215729
 30
0.0
 41
1.0
 10
943.05692623422567
 20
-1449.5460074421537
 30
0.0
 41
0.9987954789335649
 10
943.17729447913462
 20
-1449.552043969896
 30
0.0
 41
1.0
 10
943.19725927163063
 20
-1449.5530452142348
 30
0.0
 41
1.0
 10
943.21722406412653
 20
-1449.5540464585733
 30
0.0
 41
1.0
 10
943.29766272404595
 20
-1449.5580804976385
 30
0.0
 41
0.9997941595876377
 10
943.37787150213887
 20
-1449.5653745635593
 30
0.0
 41
1.0
 10
943.45808028023475
 20
-1449.5726686294806
 30
0.0
 41
0.9998589466235811
 10
943.53799882709097
 20
-1449.5826524839308
 30
0.0
 41
1.0
 10
943.57040502889788
 20
-1449.58670084085
 30
0.0
 41
1.0
 10
943.60281123070479
 20
-1449.5907491977689
 30
0.0
 41
1.0
 10
943.74754218117573
 20
-1449.6088297660574
 30
0.0
 41
0.9993495063249265
 10
943.89059342494113
 20
-1449.637295475799
 30
0.0
 41
1.0
 10
943.92352712209527
 20
-1449.6438489390143
 30
0.0
 41
1.0
 10
943.95646081924929
 20
-1449.6504024022295
 30
0.0
 41
1.0
 10
944.0657546424527
 20
-1449.6721507363645
 30
0.0
 41
0.9996788715560591
 10
944.17380621440691
 20
-1449.6994085357271
 30
0.0
 41
1.0
 10
944.17586921694533
 20
-1449.6999289623
 30
0.0
 41
1.0
 10
944.17793221948375
 20
-1449.7004493888728
 30
0.0
 41
1.0
 10
944.2818577863635
 20
-1449.7266663350902
 30
0.0
 41
0.999548065449223
 10
944.38402002159273
 20
-1449.7590812917147
 30
0.0
 41
1.0
 10
944.38570966372117
 20
-1449.7596173966285
 30
0.0
 41
1.0
 10
944.38739930584961
 20
-1449.7601535015422
 30
0.0
 41
1.0
 10
944.48618225682219
 20
-1449.7914962483389
 30
0.0
 41
0.9993867959455944
 10
944.58252941526473
 20
-1449.8296756176287
 30
0.0
 41
1.0
 10
944.58377236435047
 20
-1449.8301681595253
 30
0.0
 41
1.0
 10
944.5850153134362
 20
-1449.8306607014219
 30
0.0
 41
1.0
 10
944.67887657370818
 20
-1449.8678549869189
 30
0.0
 41
0.9992050256522329
 10
944.7694762487406
 20
-1449.9124088861572
 30
0.0
 41
1.0
 10
944.77021093145333
 20
-1449.9127701786183
 30
0.0
 41
1.0
 10
944.77094561416607
 20
-1449.9131314710792
 30
0.0
 41
1.0
 10
944.86007592377405
 20
-1449.9569627853959
 30
0.0
 41
0.9990222350741158
 10
944.9449859851677
 20
-1450.0084960530944
 30
0.0
 41
1.0
 10
944.94516987045017
 20
-1450.0086076559992
 30
0.0
 41
1.0
 10
944.94535375573275
 20
-1450.0087192589037
 30
0.0
 41
1.0
 10
945.02989604656079
 20
-1450.0600293207922
 30
0.0
 41
0.9988642743804966
 10
945.10917058118025
 20
-1450.1191535083178
 30
0.0
 41
1.0
 10
945.1884451157988
 20
-1450.1782776958426
 30
0.0
 41
0.9987681233310752
 10
945.26146890007578
 20
-1450.2449683872439
 30
0.0
 41
1.0
 10
945.26179782804138
 20
-1450.2452687884579
 30
0.0
 41
1.0
 10
945.26212675600709
 20
-1450.2455691896721
 30
0.0
 41
1.0
 10
945.33580839621584
 20
-1450.3128606835025
 30
0.0
 41
0.9987496570898683
 10
945.40240220154294
 20
-1450.3871734975892
 30
0.0
 41
1.0
 10
945.40317437130284
 20
-1450.3880351709465
 30
0.0
 41
1.0
 10
945.40394654106285
 20
-1450.3888968443039
 30
0.0
 41
1.0
 10
945.47208468591054
 20
-1450.4649330051059
 30
0.0
 41
0.9988147669826779
 10
945.53250694013639
 20
-1450.5472340119493
 30
0.0
 41
1.0
 10
945.5336262662139
 20
-1450.5487586433014
 30
0.0
 41
1.0
 10
945.53474559229142
 20
-1450.5502832746538
 30
0.0
 41
1.0
 10
945.59740649867092
 20
-1450.6356335441999
 30
0.0
 41
0.9989452636216274
 10
945.65197341163275
 20
-1450.7263722333582
 30
0.0
 41
1.0
 10
945.65332213771865
 20
-1450.7286150143848
 30
0.0
 41
1.0
 10
945.65467086380454
 20
-1450.7308577954113
 30
0.0
 41
1.0
 10
945.71193522893805
 20
-1450.8260820466232
 30
0.0
 41
0.9991046436071063
 10
945.76094444225907
 20
-1450.9258064796475
 30
0.0
 41
1.0
 10
945.76240830384904
 20
-1450.9287851597196
 30
0.0
 41
1.0
 10
945.7638721654389
 20
-1450.931763839792
 30
0.0
 41
1.0
 10
945.81580910194009
 20
-1451.0374456329619
 30
0.0
 41
0.9992763831101572
 10
945.85956223049516
 20
-1451.1467696949171
 30
0.0
 41
1.0
 10
945.86104150015876
 20
-1451.1504658824515
 30
0.0
 41
1.0
 10
945.86252076982237
 20
-1451.1541620699857
 30
0.0
 41
1.0
 10
945.90923243770442
 20
-1451.2708785070101
 30
0.0
 41
0.9994163472883689
 10
945.94786546889384
 20
-1451.3905120954728
 30
0.0
 41
1.0
 10
945.94910362114001
 20
-1451.394346239254
 30
0.0
 41
1.0
 10
945.9503417733863
 20
-1451.3981803830352
 30
0.0
 41
1.0
 10
945.99022533440416
 20
-1451.5216864445151
 30
0.0
 41
0.9997268055891924
 10
946.02429339031664
 20
-1451.6469214764675
 30
0.0
 41
1.0
 10
946.02522357058604
 20
-1451.6503408425756
 30
0.0
 41
1.0
 10
946.02615375085543
 20
-1451.6537602086839
 30
0.0
 41
1.0
 10
946.05836144622845
 20
-1451.7721565084173
 30
0.0
 41
0.9996701319000348
 10
946.08444706299906
 20
-1451.8920504616817
 30
0.0
 41
1.0
 10
946.11053267976945
 20
-1452.0119444149441
 30
0.0
 41
0.9995785451109281
 10
946.12961625710966
 20
-1452.1331501759787
 30
0.0
 41
1.0
 10
946.1338360392831
 20
-1452.1599513307419
 30
0.0
 41
1.0
 10
946.13805582145653
 20
-1452.1867524855049
 30
0.0
 41
1.0
 10
946.16463079739549
 20
-1452.3555384592091
 30
0.0
 41
0.9979925101216018
 10
946.16965638332169
 20
-1452.5263297873014
 30
0.0
 41
1.0
 10
946.17048119574633
 20
-1452.5543605107805
 30
0.0
 41
1.0
 10
946.17130600817097
 20
-1452.5823912342594
 30
0.0
 41
1.0
 10
946.17468196924824
 20
-1452.6971211153902
 30
0.0
 41
0.9995314902262855
 10
946.17103177710953
 20
-1452.8118425991452
 30
0.0
 41
1.0
 10
946.16738158497094
 20
-1452.9265640828964
 30
0.0
 41
0.9996245486944079
 10
946.15745248984024
 20
-1453.0409133540202
 30
0.0
 41
1.0
 10
946.15728944184593
 20
-1453.0427911101558
 30
0.0
 41
1.0
 10
946.15712639385174
 20
-1453.0446688662914
 30
0.0
 41
1.0
 10
946.1468712027322
 20
-1453.1627736496876
 30
0.0
 41
0.9997286095000383
 10
946.13112587916066
 20
-1453.2802725585827
 30
0.0
 41
1.0
 10
946.13073238651043
 20
-1453.2832089832837
 30
0.0
 41
1.0
 10
946.1303388938602
 20
-1453.2861454079843
 30
0.0
 41
1.0
 10
946.11380658498786
 20
-1453.4095171662848
 30
0.0
 41
0.9998265533969367
 10
946.09269112625475
 20
-1453.5321876410751
 30
0.0
 41
1.0
 10
946.09201458411792
 20
-1453.5361180195805
 30
0.0
 41
1.0
 10
946.09133804198109
 20
-1453.5400483980861
 30
0.0
 41
1.0
 10
946.0688694989741
 20
-1453.6705796298902
 30
0.0
 41
0.9999022530854498
 10
946.04276003436439
 20
-1453.8004315985272
 30
0.0
 41
1.0
 10
946.04178139319902
 20
-1453.8052987409151
 30
0.0
 41
1.0
 10
946.04080275203353
 20
-1453.8101658833027
 30
0.0
 41
1.0
 10
946.01273600509433
 20
-1453.9497521367089
 30
0.0
 41
0.9999524761943379
 10
945.9819530362588
 20
-1454.088764629877
 30
0.0
 41
1.0
 10
945.98067692908296
 20
-1454.0945273891812
 30
0.0
 41
1.0
 10
945.97940082190712
 20
-1454.1002901484853
 30
0.0
 41
1.0
 10
945.94606563872117
 20
-1454.2508281602559
 30
0.0
 41
0.9999813588711048
 10
945.91089463792025
 20
-1454.4009478729331
 30
0.0
 41
1.0
 10
945.90934071246647
 20
-1454.4075804633439
 30
0.0
 41
1.0
 10
945.90778678701258
 20
-1454.414213053755
 30
0.0
 41
1.0
 10
945.86950793531014
 20
-1454.5775979472296
 30
0.0
 41
0.9999955237651227
 10
945.83025205732599
 20
-1454.7407508508506
 30
0.0
 41
1.0
 10
945.81797042169023
 20
-1454.7917950413794
 30
0.0
 41
1.0
 10
945.80568878605436
 20
-1454.8428392319083
 30
0.0
 41
1.0
 10
945.74186963681223
 20
-1455.108080516532
 30
0.0
 41
0.9999993604463446
 10
945.67745068961437
 20
-1455.3731767673387
 30
0.0
 41
1.0
 10
945.67273185407873
 20
-1455.3925956753324
 30
0.0
 41
1.0
 10
945.66801301854309
 20
-1455.4120145833258
 30
0.0
 41
1.0
 10
945.59415640028419
 20
-1455.7159486500786
 30
0.0
 41
0.9999659914723018
 10
945.51529680439739
 20
-1456.0186231966438
 30
0.0
 41
1.0
 10
945.51034411546675
 20
-1456.0376323338264
 30
0.0
 41
1.0
 10
945.50539142653611
 20
-1456.0566414710088
 30
0.0
 41
1.0
 10
945.41662645279052
 20
-1456.3973342919285
 30
0.0
 41
0.9999441976027098
 10
945.32068341982608
 20
-1456.7360757172307
 30
0.0
 41
1.0
 10
945.30398290140113
 20
-1456.7950394297563
 30
0.0
 41
1.0
 10
945.28728238297617
 20
-1456.8540031422822
 30
0.0
 41
1.0
 10
945.15793831316114
 20
-1457.3106719926377
 30
0.0
 41
0.9999625120730263
 10
945.0207055458377
 20
-1457.7650325266338
 30
0.0
 41
1.0
 10
944.9849156027509
 20
-1457.8835285532737
 30
0.0
 41
1.0
 10
944.94912565966411
 20
-1458.0020245799133
 30
0.0
 41
1.0
 10
944.87460545562749
 20
-1458.2487516580004
 30
0.0
 41
0.9999793386320717
 10
944.7969194324935
 20
-1458.4945002972249
 30
0.0
 41
1.0
 10
944.71923340935598
 20
-1458.7402489364611
 30
0.0
 41
1.0
 10
944.70845385048528
 20
-1458.7742668408357
 30
0.0
 41
1.0
 10
942.85808079721619
 20
-1464.6613387633033
 30
0.0
 41
1.0
 10
941.00770774394698
 20
-1470.5484106857707
 30
0.0
 41
1.0
 10
940.04645105392342
 20
-1470.5484106857707
 30
0.0
 41
1.0
 10
939.08519436389986
 20
-1470.5484106857707
 30
0.0
 41
1.0
 10
940.70413914257824
 20
-1465.4003821839813
 30
0.0
 41
1.0
 10
942.32308392125674
 20
-1460.2523536821918
 30
0.0
 41
1.0
 10
942.36824974443311
 20
-1460.1083224599154
 30
0.0
 41
1.0
 10
942.41341556760938
 20
-1459.9642912376389
 30
0.0
 41
1.0
 10
942.5837199849675
 20
-1459.4212002084914
 30
0.0
 41
0.9999911657888359
 10
942.74945279664826
 20
-1458.8766966771259
 30
0.0
 41
1.0
 10
942.77914874014039
 20
-1458.7791327371028
 30
0.0
 41
1.0
 10
942.80884468363251
 20
-1458.6815687970795
 30
0.0
 41
1.0
 10
942.91518560832083
 20
-1458.3321931457876
 30
0.0
 41
0.9999952428109427
 10
943.01936919765353
 20
-1457.9821681214125
 30
0.0
 41
1.0
 10
943.02442866798481
 20
-1457.9651698471416
 30
0.0
 41
1.0
 10
943.02948813831608
 20
-1457.9481715728705
 30
0.0
 41
1.0
 10
943.12355278697828
 20
-1457.6321430970629
 30
0.0
 41
0.9999931687555239
 10
943.21527862485209
 20
-1457.3154278837926
 30
0.0
 41
1.0
 10
943.22021388931114
 20
-1457.2983871745232
 30
0.0
 41
1.0
 10
943.22514915377019
 20
-1457.2813464652538
 30
0.0
 41
1.0
 10
943.30700446272886
 20
-1456.9987126705107
 30
0.0
 41
0.999989384079603
 10
943.38625168918259
 20
-1456.7153365412755
 30
0.0
 41
1.0
 10
943.46549891563961
 20
-1456.4319604120283
 30
0.0
 41
0.9999833980079128
 10
943.54147515637487
 20
-1456.1476898290241
 30
0.0
 41
1.0
 10
943.55047909309928
 20
-1456.1140009505375
 30
0.0
 41
1.0
 10
943.55948302982381
 20
-1456.0803120720507
 30
0.0
 41
1.0
 10
943.62844757869129
 20
-1455.8222762397495
 30
0.0
 41
0.9999233658063913
 10
943.69100254991292
 20
-1455.5626120810225
 30
0.0
 41
1.0
 10
943.75355752113319
 20
-1455.3029479223001
 30
0.0
 41
1.0
 10
943.79304093999076
 20
-1455.1391412578739
 30
0.0
 41
1.0
 10
943.7980195439709
 20
-1455.1184862959917
 30
0.0
 41
1.0
 10
943.80299814795092
 20
-1455.0978313341095
 30
0.0
 41
1.0
 10
943.83252435885174
 20
-1454.9753345934328
 30
0.0
 41
0.9999868670875165
 10
943.86079344284451
 20
-1454.8525416478024
 30
0.0
 41
1.0
 10
943.86469093000073
 20
-1454.8356120603917
 30
0.0
 41
1.0
 10
943.86858841715707
 20
-1454.818682472981
 30
0.0
 41
1.0
 10
943.88906252683864
 20
-1454.729748702166
 30
0.0
 41
0.9999778173343769
 10
943.90835012495609
 20
-1454.6405500849264
 30
0.0
 41
1.0
 10
943.9276377230733
 20
-1454.5513514676886
 30
0.0
 41
0.9999602692866408
 10
943.94533208170628
 20
-1454.4618231792497
 30
0.0
 41
1.0
 10
943.94853591378194
 20
-1454.4456127243739
 30
0.0
 41
1.0
 10
943.95173974585759
 20
-1454.4294022694983
 30
0.0
 41
1.0
 10
943.97584176864439
 20
-1454.3074530712972
 30
0.0
 41
0.9995617985320007
 10
943.99268511586263
 20
-1454.1842913235923
 30
0.0
 41
1.0
 10
943.99514960576869
 20
-1454.1662705062276
 30
0.0
 41
1.0
 10
943.99761409567475
 20
-1454.148249688863
 30
0.0
 41
1.0
 10
944.01789735672298
 20
-1453.9999346391637
 30
0.0
 41
0.9991121410639543
 10
944.02562271031138
 20
-1453.8504385403558
 30
0.0
 41
1.0
 10
944.02654150033595
 20
-1453.8326587037782
 30
0.0
 41
1.0
 10
944.02746029036064
 20
-1453.8148788672006
 30
0.0
 41
1.0
 10
944.03334806389989
 20
-1453.7009424415471
 30
0.0
 41
0.9989792494904473
 10
944.02892897178231
 20
-1453.5869396056514
 30
0.0
 41
1.0
 10
944.0282809999137
 20
-1453.570223359724
 30
0.0
 41
1.0
 10
944.02763302804499
 20
-1453.5535071137967
 30
0.0
 41
1.0
 10
944.02450987966495
 20
-1453.4729367697555
 30
0.0
 41
0.99978202953936
 10
944.01802588228929
 20
-1453.3925670480089
 30
0.0
 41
1.0
 10
944.01154188491375
 20
-1453.3121973262662
 30
0.0
 41
0.9998335105974663
 10
944.00212968940139
 20
-1453.2321177098113
 30
0.0
 41
1.0
 10
944.00053476472522
 20
-1453.2185479793302
 30
0.0
 41
1.0
 10
943.99893984004916
 20
-1453.2049782488489
 30
0.0
 41
1.0
 10
943.98633779518548
 20
-1453.0977591714377
 30
0.0
 41
0.9996876457878985
 10
943.96839388238743
 20
-1452.991303743722
 30
0.0
 41
1.0
 10
943.96616221924148
 20
-1452.9780640084768
 30
0.0
 41
1.0
 10
943.96393055609553
 20
-1452.9648242732314
 30
0.0
 41
1.0
 10
943.95013473467441
 20
-1452.882978129272
 30
0.0
 41
0.9995547496494281
 10
943.9314814127822
 20
-1452.8021006320835
 30
0.0
 41
1.0
 10
943.93110745591127
 20
-1452.8004792213796
 30
0.0
 41
1.0
 10
943.93073349904034
 20
-1452.7988578106758
 30
0.0
 41
1.0
 10
943.91282809089012
 20
-1452.7212231348942
 30
0.0
 41
0.9994899427174779
 10
943.89000318221019
 20
-1452.644889852058
 30
0.0
 41
1.0
 10
943.88954465546965
 20
-1452.64335640227
 30
0.0
 41
1.0
 10
943.8890861287291
 20
-1452.6418229524822
 30
0.0
 41
1.0
 10
943.86717827353118
 20
-1452.5685565692245
 30
0.0
 41
0.9993784877591067
 10
943.84016263842432
 20
-1452.4970158640645
 30
0.0
 41
1.0
 10
943.8396309474474
 20
-1452.4956078813441
 30
0.0
 41
1.0
 10
943.8390992564706
 20
-1452.4941998986237
 30
0.0
 41
1.0
 10
943.81314700331723
 20
-1452.4254751589037
 30
0.0
 41
0.9992430832253605
 10
943.78193046815841
 20
-1452.3589760068371
 30
0.0
 41
1.0
 10
943.78134835210176
 20
-1452.3577359517199
 30
0.0
 41
1.0
 10
943.78076623604522
 20
-1452.3564958966024
 30
0.0
 41
1.0
 10
943.75071393299959
 20
-1452.29247685477
 30
0.0
 41
0.9990789632799144
 10
943.71528330622232
 20
-1452.2312702430193
 30
0.0
 41
1.0
 10
943.71468760004086
 20
-1452.2302411571609
 30
0.0
 41
1.0
 10
943.71409189385929
 20
-1452.2292120713025
 30
0.0
 41
1.0
 10
943.67985267944641
 20
-1452.170063631271
 30
0.0
 41
0.9988874801121832
 10
943.6401934034136
 20
-1452.1144039188516
 30
0.0
 41
1.0
 10
943.63963787734883
 20
-1452.113624267176
 30
0.0
 41
1.0
 10
943.63908235128395
 20
-1452.1128446155005
 30
0.0
 41
1.0
 10
943.60053412738148
 20
-1452.0587442064336
 30
0.0
 41
0.9986762060692466
 10
943.55663165610531
 20
-1452.0088904919949
 30
0.0
 41
1.0
 10
943.55618769577336
 20
-1452.0083863501786
 30
0.0
 41
1.0
 10
943.55574373544152
 20
-1452.0078822083622
 30
0.0
 41
1.0
 10
943.51272918482994
 20
-1451.9590367775563
 30
0.0
 41
0.9984621642488574
 10
943.46457162805132
 20
-1451.9152534770844
 30
0.0
 41
1.0
 10
943.46432499353489
 20
-1451.915029244921
 30
0.0
 41
1.0
 10
943.46407835901846
 20
-1451.9148050127576
 30
0.0
 41
1.0
 10
943.41641407127383
 20
-1451.8714701766135
 30
0.0
 41
0.9982724693851927
 10
943.36399543943207
 20
-1451.8340258260955
 30
0.0
 41
1.0
 10
943.31157680759065
 20
-1451.7965814755778
 30
0.0
 41
0.998139918015841
 10
943.25499074419713
 20
-1451.7657949561344
 30
0.0
 41
1.0
 10
943.25494508211875
 20
-1451.7657701129774
 30
0.0
 41
1.0
 10
943.25489942004037
 20
-1451.7657452698202
 30
0.0
 41
1.0
 10
943.19822203249112
 20
-1451.734909064063
 30
0.0
 41
0.998092708683699
 10
943.13817668142588
 20
-1451.7112922552108
 30
0.0
 41
1.0
 10
943.13773651171311
 20
-1451.7111191293352
 30
0.0
 41
1.0
 10
943.13729634200035
 20
-1451.7109460034599
 30
0.0
 41
1.0
 10
943.07637065151141
 20
-1451.6869829428576
 30
0.0
 41
0.9981411356561409
 10
943.01298213011194
 20
-1451.6706103013521
 30
0.0
 41
1.0
 10
943.01210001341019
 20
-1451.6703824591464
 30
0.0
 41
1.0
 10
943.01121789670833
 20
-1451.6701546169409
 30
0.0
 41
1.0
 10
942.94606514190582
 20
-1451.6533262910243
 30
0.0
 41
0.9983031812934634
 10
942.87939771291042
 20
-1451.644186929848
 30
0.0
 41
1.0
 10
942.87052668750812
 20
-1451.6429708111768
 30
0.0
 41
1.0
 10
942.8616556621057
 20
-1451.6417546925059
 30
0.0
 41
1.0
 10
942.80730601960033
 20
-1451.6343039625144
 30
0.0
 41
0.9983887708262957
 10
942.75246217030656
 20
-1451.6330592888812
 30
0.0
 41
1.0
 10
942.74439876508563
 20
-1451.6328762910061
 30
0.0
 41
1.0
 10
942.73633535986471
 20
-1451.6326932931313
 30
0.0
 41
1.0
 10
942.69761832101028
 20
-1451.6318146152478
 30
0.0
 41
0.999886956307963
 10
942.65889236781106
 20
-1451.6321004846075
 30
0.0
 41
1.0
 10
942.62016641463833
 20
-1451.6323863539669
 30
0.0
 41
0.9999972320178517
 10
942.58144223545753
 20
-1451.6328544534956
 30
0.0
 41
1.0
 10
942.56208921884763
 20
-1451.6330883935852
 30
0.0
 41
1.0
 10
942.54273620223762
 20
-1451.6333223336751
 30
0.0
 41
1.0
 10
942.46530598986305
 20
-1451.6342583133828
 30
0.0
 41
0.9997304945087266
 10
942.38800268362161
 20
-1451.6387874071693
 30
0.0
 41
1.0
 10
942.37895304192125
 20
-1451.6393176131589
 30
0.0
 41
1.0
 10
942.36990340022078
 20
-1451.6398478191486
 30
0.0
 41
1.0
 10
942.27450081057884
 20
-1451.6454373249144
 30
0.0
 41
0.9997888306416448
 10
942.17940847474063
 20
-1451.6549422894029
 30
0.0
 41
1.0
 10
942.17068741316359
 20
-1451.6558140040356
 30
0.0
 41
1.0
 10
942.16196635158656
 20
-1451.6566857186681
 30
0.0
 41
1.0
 10
942.04943189259882
 20
-1451.6679341124213
 30
0.0
 41
0.9984170238190749
 10
941.93887274524832
 20
-1451.6917501943567
 30
0.0
 41
1.0
 10
941.90249161426175
 20
-1451.6995872301629
 30
0.0
 41
1.0
 10
941.86611048327518
 20
-1451.7074242659692
 30
0.0
 41
1.0
 10
941.75091941485334
 20
-1451.7322381324789
 30
0.0
 41
0.9976592854198859
 10
941.64019124844776
 20
-1451.7725368096262
 30
0.0
 41
1.0
 10
941.52946308203968
 20
-1451.8128354867742
 30
0.0
 41
0.9993255074351356
 10
941.42199128324739
 20
-1451.8611523852678
 30
0.0
 41
1.0
 10
941.41736610432645
 20
-1451.8632317614665
 30
0.0
 41
1.0
 10
941.41274092540539
 20
-1451.8653111376652
 30
0.0
 41
1.0
 10
941.29601876876814
 20
-1451.9177867885569
 30
0.0
 41
0.997647507827539
 10
941.1875714244585
 20
-1451.9857347782147
 30
0.0
 41
1.0
 10
941.16922903032219
 20
-1451.9972272570303
 30
0.0
 41
1.0
 10
941.15088663618576
 20
-1452.0087197358457
 30
0.0
 41
1.0
 10
941.06668444463469
 20
-1452.0614768566136
 30
0.0
 41
0.9995131336406807
 10
940.98593672967843
 20
-1452.1193830685661
 30
0.0
 41
1.0
 10
940.9051890147191
 20
-1452.1772892805207
 30
0.0
 41
0.9995810107606328
 10
940.82792736698832
 20
-1452.2397709629881
 30
0.0
 41
1.0
 10
940.82495733578025
 20
-1452.2421728344511
 30
0.0
 41
1.0
 10
940.82198730457208
 20
-1452.2445747059141
 30
0.0
 41
1.0
 10
940.73878559442676
 20
-1452.3118601313063
 30
0.0
 41
0.9996617837955319
 10
940.65919490729425
 20
-1452.3833805868635
 30
0.0
 41
1.0
 10
940.64706415641717
 20
-1452.3942813198541
 30
0.0
 41
1.0
 10
940.63493340553998
 20
-1452.405182052845
 30
0.0
 41
1.0
 10
940.56665787813779
 20
-1452.4665346683225
 30
0.0
 41
0.9997267750052119
 10
940.50132436985268
 20
-1452.5310112048492
 30
0.0
 41
1.0
 10
940.43599086157417
 20
-1452.5954877413692
 30
0.0
 41
0.999966728895986
 10
940.37171791843207
 20
-1452.6610215482588
 30
0.0
 41
1.0
 10
940.30289047065207
 20
-1452.731199207022
 30
0.0
 41
1.0
 10
940.23406302287208
 20
-1452.8013768657852
 30
0.0
 41
1.0
 10
940.03213518417454
 20
-1453.0072659901969
 30
0.0
 41
0.9988205335174792
 10
939.85112956719524
 20
-1453.2317702222574
 30
0.0
 41
1.0
 10
939.82048960229076
 20
-1453.2697734726871
 30
0.0
 41
1.0
 10
939.7898496373864
 20
-1453.3077767231166
 30
0.0
 41
1.0
 10
939.54756409059871
 20
-1453.6082874560354
 30
0.0
 41
0.9997077826755159
 10
939.3200861394929
 20
-1453.9201572502525
 30
0.0
 41
1.0
 10
939.31836272436203
 20
-1453.9225200336325
 30
0.0
 41
1.0
 10
939.31663930923128
 20
-1453.9248828170125
 30
0.0
 41
1.0
 10
939.08571452786657
 20
-1454.241478177986
 30
0.0
 41
0.9989147567078998
 10
938.88525102498249
 20
-1454.5781876391713
 30
0.0
 41
1.0
 10
938.86050987967349
 20
-1454.6197442197272
 30
0.0
 41
1.0
 10
938.83576873436448
 20
-1454.6613008002832
 30
0.0
 41
1.0
 10
938.68055743572734
 20
-1454.9220021847357
 30
0.0
 41
0.9997476598180767
 10
938.53721244822077
 20
-1455.1894119333128
 30
0.0
 41
1.0
 10
938.39386746071057
 20
-1455.4568216818964
 30
0.0
 41
0.9996258967109659
 10
938.26535920877836
 20
-1455.7316696185217
 30
0.0
 41
1.0
 10
938.25215929932835
 20
-1455.7599010186179
 30
0.0
 41
1.0
 10
938.23895938987835
 20
-1455.7881324187142
 30
0.0
 41
1.0
 10
938.09875066887957
 20
-1456.088004816665
 30
0.0
 41
0.9998735413945799
 10
937.96814932215966
 20
-1456.3921844161318
 30
0.0
 41
1.0
 10
937.96470649409707
 20
-1456.4002030016013
 30
0.0
 41
1.0
 10
937.96126366603448
 20
-1456.4082215870708
 30
0.0
 41
1.0
 10
937.8375479754377
 20
-1456.6963640156032
 30
0.0
 41
0.9999377418863039
 10
937.72029317326451
 20
-1456.9871954832743
 30
0.0
 41
1.0
 10
937.60303837108791
 20
-1457.278026950954
 30
0.0
 41
0.9999508299505892
 10
937.49157442771445
 20
-1457.5711266277656
 30
0.0
 41
1.0
 10
937.48849365905085
 20
-1457.5792276537327
 30
0.0
 41
1.0
 10
937.48541289038712
 20
-1457.5873286796996
 30
0.0
 41
1.0
 10
937.36778740968725
 20
-1457.896630408442
 30
0.0
 41
0.9999609228433158
 10
937.25564880681043
 20
-1458.2079634244653
 30
0.0
 41
1.0
 10
937.25269279646091
 20
-1458.2161702648741
 30
0.0
 41
1.0
 10
937.2497367861115
 20
-1458.2243771052831
 30
0.0
 41
1.0
 10
937.13168616253984
 20
-1458.5521238021131
 30
0.0
 41
0.9999674607400994
 10
937.01893863647183
 20
-1458.8817324221072
 30
0.0
 41
1.0
 10
936.96754024590723
 20
-1459.0319916178055
 30
0.0
 41
1.0
 10
936.91614185534263
 20
-1459.1822508135035
 30
0.0
 41
1.0
 10
936.8001312485859
 20
-1459.5213987960033
 30
0.0
 41
0.9999287532308427
 10
936.69224984461653
 20
-1459.8632195349751
 30
0.0
 41
1.0
 10
936.64577258854411
 20
-1460.0104820791344
 30
0.0
 41
1.0
 10
936.59929533247168
 20
-1460.1577446232936
 30
0.0
 41
1.0
 10
936.58436844071161
 20
-1460.2050402737425
 30
0.0
 41
0.99999982239368
 10
936.56949793191529
 20
-1460.2523536821918
 30
0.0
 41
1.0
 10
934.94884179511985
 20
-1465.4003821839813
 30
0.0
 41
1.0
 10
933.3281856583244
 20
-1470.5484106857707
 30
0.0
 41
1.0
 10
932.42287721443347
 20
-1470.5484106857707
 30
0.0
 41
1.0
 10
931.51756877054254
 20
-1470.5484106857707
 30
0.0
 41
1.0
 10
933.36965318192858
 20
-1464.6613387633033
 30
0.0
 41
1.0
 10
935.22173759331463
 20
-1458.7742668408357
 30
0.0
 41
1.0
 10
935.23185935161735
 20
-1458.742223627386
 30
0.0
 41
1.0
 10
935.30446702046709
 20
-1458.5119240855602
 30
0.0
 41
1.0
 10
935.37707468931421
 20
-1458.2816245437427
 30
0.0
 41
0.9999825681970813
 10
935.44695772852833
 20
-1458.0504836486691
 30
0.0
 41
1.0
 10
935.49524879068872
 20
-1457.8907590651743
 30
0.0
 41
1.0
 10
935.54353985284922
 20
-1457.7310344816797
 30
0.0
 41
1.0
 10
935.64069220616761
 20
-1457.4096992599002
 30
0.0
 41
0.9999672528952975
 10
935.73263101178918
 20
-1457.0868337143193
 30
0.0
 41
1.0
 10
935.73541989545879
 20
-1457.0770398689301
 30
0.0
 41
1.0
 10
935.73820877912829
 20
-1457.067246023541
 30
0.0
 41
1.0
 10
935.82456981741643
 20
-1456.7639681687197
 30
0.0
 41
0.9999899749179939
 10
935.90821142694722
 20
-1456.4599290802807
 30
0.0
 41
1.0
 10
935.91831734596576
 20
-1456.4231938425987
 30
0.0
 41
1.0
 10
935.92842326498419
 20
-1456.3864586049167
 30
0.0
 41
1.0
 10
935.99185303648119
 20
-1456.1558899918307
 30
0.0
 41
0.9999214200502659
 10
936.04948246485969
 20
-1455.923803649619
 30
0.0
 41
1.0
 10
936.06224831704196
 20
-1455.8723927642159
 30
0.0
 41
1.0
 10
936.07501416922423
 20
-1455.8209818788127
 30
0.0
 41
1.0
 10
936.10711189324093
 20
-1455.691717307395
 30
0.0
 41
0.9999828681677839
 10
936.13769414523279
 20
-1455.5620858329421
 30
0.0
 41
1.0
 10
936.16827639722703
 20
-1455.4324543584794
 30
0.0
 41
0.9999389844474449
 10
936.19598738601542
 20
-1455.3021789025838
 30
0.0
 41
1.0
 10
936.20312512973669
 20
-1455.2686227987417
 30
0.0
 41
1.0
 10
936.21026287345785
 20
-1455.2350666948996
 30
0.0
 41
1.0
 10
936.25224934968628
 20
-1455.0376790313303
 30
0.0
 41
0.999893369944114
 10
936.28845361408901
 20
-1454.83914942357
 30
0.0
 41
1.0
 10
936.28982643930567
 20
-1454.8316214028714
 30
0.0
 41
1.0
 10
936.29119926452245
 20
-1454.824093382173
 30
0.0
 41
1.0
 10
936.33014917935793
 20
-1454.6105077330185
 30
0.0
 41
0.9996850305193928
 10
936.35833285561694
 20
-1454.395236727579
 30
0.0
 41
1.0
 10
936.36032788898569
 20
-1454.3799983734611
 30
0.0
 41
1.0
 10
936.36232292235445
 20
-1454.3647600193433
 30
0.0
 41
1.0
 10
936.38973078481365
 20
-1454.155414792187
 30
0.0
 41
0.9994697936707082
 10
936.40345534403332
 20
-1453.9447295968553
 30
0.0
 41
1.0
 10
936.40393241328297
 20
-1453.9374061246458
 30
0.0
 41
1.0
 10
936.40440948253251
 20
-1453.9300826524363
 30
0.0
 41
1.0
 10
936.41717990325276
 20
-1453.7340444015279
 30
0.0
 41
0.9991804893137205
 10
936.41405158698012
 20
-1453.5376155515512
 30
0.0
 41
1.0
 10
936.413967708158
 20
-1453.5323487501419
 30
0.0
 41
1.0
 10
936.41388382933599
 20
-1453.5270819487323
 30
0.0
 41
1.0
 10
936.41092327070737
 20
-1453.341186701582
 30
0.0
 41
0.9988448329322396
 10
936.39013172508362
 20
-1453.1564341117444
 30
0.0
 41
1.0
 10
936.38853765138037
 20
-1453.142269255972
 30
0.0
 41
1.0
 10
936.38694357767724
 20
-1453.1281044001996
 30
0.0
 41
1.0
 10
936.36934017945998
 20
-1452.971681521911
 30
0.0
 41
0.9985503209458171
 10
936.33502390716035
 20
-1452.8180573378218
 30
0.0
 41
1.0
 10
936.32743791508904
 20
-1452.7840970104212
 30
0.0
 41
1.0
 10
936.31985192301772
 20
-1452.7501366830204
 30
0.0
 41
1.0
 10
936.30070763486049
 20
-1452.664433153732
 30
0.0
 41
0.9991036781370773
 10
936.27438277320948
 20
-1452.5806560664075
 30
0.0
 41
1.0
 10
936.2704005477533
 20
-1452.5679829038963
 30
0.0
 41
1.0
 10
936.26641832229723
 20
-1452.5553097413854
 30
0.0
 41
1.0
 10
936.24805791155711
 20
-1452.496878979078
 30
0.0
 41
0.9998874504368593
 10
936.22795270387996
 20
-1452.4390253768593
 30
0.0
 41
1.0
 10
936.20784749620134
 20
-1452.381171774636
 30
0.0
 41
0.9994041637544765
 10
936.1837988832682
 20
-1452.3248430707486
 30
0.0
 41
1.0
 10
936.1796020990439
 20
-1452.3150130062661
 30
0.0
 41
1.0
 10
936.17540531481973
 20
-1452.3051829417836
 30
0.0
 41
1.0
 10
936.14752648382421
 20
-1452.2398827758145
 30
0.0
 41
0.9991846840702374
 10
936.11447012713154
 20
-1452.1770447445349
 30
0.0
 41
1.0
 10
936.11333352073632
 20
-1452.1748841280798
 30
0.0
 41
1.0
 10
936.1121969143411
 20
-1452.1727235116248
 30
0.0
 41
1.0
 10
936.08141377043864
 20
-1452.114206713255
 30
0.0
 41
0.9989253167923494
 10
936.04534434638344
 20
-1452.0587917848643
 30
0.0
 41
1.0
 10
936.04429022170893
 20
-1452.0571722901018
 30
0.0
 41
1.0
 10
936.04323609703454
 20
-1452.0555527953391
 30
0.0
 41
1.0
 10
936.00927492232881
 20
-1452.0033768564747
 30
0.0
 41
0.9986467172837906
 10
935.97007776969122
 20
-1451.9550108228445
 30
0.0
 41
1.0
 10
935.96920364099037
 20
-1451.953932220566
 30
0.0
 41
1.0
 10
935.96832951228953
 20
-1451.9528536182877
 30
0.0
 41
1.0
 10
935.93088061705339
 20
-1451.9066447892149
 30
0.0
 41
0.998400110426901
 10
935.88845388653658
 20
-1451.8649596818464
 30
0.0
 41
1.0
 10
935.88786674842731
 20
-1451.8643828069653
 30
0.0
 41
1.0
 10
935.88727961031805
 20
-1451.863805932084
 30
0.0
 41
1.0
 10
935.84602715601955
 20
-1451.8232745744776
 30
0.0
 41
0.9982442159083251
 10
935.80027105468389
 20
-1451.7879060132173
 30
0.0
 41
1.0
 10
935.80005625922195
 20
-1451.7877399805739
 30
0.0
 41
1.0
 10
935.79984146375989
 20
-1451.7875739479305
 30
0.0
 41
1.0
 10
935.75451495334846
 20
-1451.7525374519571
 30
0.0
 41
0.9982450060836428
 10
935.70536397427645
 20
-1451.7231056689234
 30
0.0
 41
1.0
 10
935.65621299520581
 20
-1451.6936738858906
 30
0.0
 41
0.9983922639636218
 10
935.60404668904118
 20
-1451.6699942512364
 30
0.0
 41
1.0
 10
935.60381981171599
 20
-1451.6698912657548
 30
0.0
 41
1.0
 10
935.60359293439092
 20
-1451.669788280273
 30
0.0
 41
1.0
 10
935.55097287357728
 20
-1451.6459026746561
 30
0.0
 41
0.9986517147150668
 10
935.49615990071004
 20
-1451.6276015555345
 30
0.0
 41
1.0
 10
935.49548197928175
 20
-1451.6273752091029
 30
0.0
 41
1.0
 10
935.49480405785357
 20
-1451.6271488626714
 30
0.0
 41
1.0
 10
935.43863524212929
 20
-1451.6083950506866
 30
0.0
 41
0.998943559895633
 10
935.38098185497677
 20
-1451.594877348452
 30
0.0
 41
1.0
 10
935.37990173539583
 20
-1451.5946240981991
 30
0.0
 41
1.0
 10
935.37882161581501
 20
-1451.5943708479463
 30
0.0
 41
1.0
 10
935.31900798950028
 20
-1451.5803466452057
 30
0.0
 41
0.9992249241240734
 10
935.25827648060238
 20
-1451.5710713024903
 30
0.0
 41
1.0
 10
935.25686279231161
 20
-1451.5708553940826
 30
0.0
 41
1.0
 10
935.25544910402084
 20
-1451.5706394856747
 30
0.0
 41
1.0
 10
935.19189021854152
 20
-1451.560932326144
 30
0.0
 41
0.9994396597833664
 10
935.12782428200512
 20
-1451.5554994037984
 30
0.0
 41
1.0
 10
935.10868361452697
 20
-1451.5538762360798
 30
0.0
 41
1.0
 10
935.08954294704881
 20
-1451.5522530683611
 30
0.0
 41
1.0
 10
934.9871956755569
 20
-1451.543573810578
 30
0.0
 41
0.9987693403121671
 10
934.88449205197082
 20
-1451.5450768740304
 30
0.0
 41
1.0
 10
934.87423771774399
 20
-1451.5452269458046
 30
0.0
 41
1.0
 10
934.86398338351717
 20
-1451.5453770175789
 30
0.0
 41
1.0
 10
934.754427617337
 20
-1451.5469803618664
 30
0.0
 41
0.9989753644966449
 10
934.64546561731936
 20
-1451.5584833687917
 30
0.0
 41
1.0
 10
934.5365036173024
 20
-1451.5699863757168
 30
0.0
 41
0.9983190067305728
 10
934.42960480633701
 20
-1451.5940213675037
 30
0.0
 41
1.0
 10
934.42070385473073
 20
-1451.5960226460663
 30
0.0
 41
1.0
 10
934.41180290312445
 20
-1451.5980239246289
 30
0.0
 41
1.0
 10
934.28710218894707
 20
-1451.6260614735409
 30
0.0
 41
0.9985539388303348
 10
934.16613243526979
 20
-1451.6673251495861
 30
0.0
 41
1.0
 10
934.16378700430869
 20
-1451.6681251934024
 30
0.0
 41
1.0
 10
934.16144157334747
 20
-1451.6689252372184
 30
0.0
 41
1.0
 10
934.03578095775026
 20
-1451.7117890008951
 30
0.0
 41
0.9988468746493421
 10
933.91481061545096
 20
-1451.7665070859571
 30
0.0
 41
1.0
 10
933.91162779346109
 20
-1451.7679467605176
 30
0.0
 41
1.0
 10
933.90844497147123
 20
-1451.7693864350779
 30
0.0
 41
1.0
 10
933.78110898519128
 20
-1451.8269838692611
 30
0.0
 41
0.9991322885918345
 10
933.65900840113204
 20
-1451.8949792014448
 30
0.0
 41
1.0
 10
933.64140639009111
 20
-1451.9047814034329
 30
0.0
 41
1.0
 10
933.62380437905017
 20
-1451.9145836054211
 30
0.0
 41
1.0
 10
933.52162769799327
 20
-1451.9714837212014
 30
0.0
 41
0.9993860037849265
 10
933.42368669391828
 20
-1452.0353997367909
 30
0.0
 41
1.0
 10
933.418068381068
 20
-1452.0390662314844
 30
0.0
 41
1.0
 10
933.41245006821771
 20
-1452.042732726178
 30
0.0
 41
1.0
 10
933.32574568984512
 20
-1452.0993157523792
 30
0.0
 41
0.9998821494954007
 10
933.24081931403202
 20
-1452.158533982456
 30
0.0
 41
1.0
 10
933.15589293822188
 20
-1452.217752212531
 30
0.0
 41
0.9997976482744246
 10
933.07341730782082
 20
-1452.2803386205708
 30
0.0
 41
1.0
 10
933.05878104301337
 20
-1452.2914453103526
 30
0.0
 41
1.0
 10
933.0441447782058
 20
-1452.3025520001343
 30
0.0
 41
1.0
 10
932.93239661819098
 20
-1452.3873517877366
 30
0.0
 41
0.9998091630799171
 10
932.82404634015984
 20
-1452.4764521384409
 30
0.0
 41
1.0
 10
932.81104058768494
 20
-1452.487147238885
 30
0.0
 41
1.0
 10
932.79803483521005
 20
-1452.4978423393291
 30
0.0
 41
1.0
 10
932.66367305222832
 20
-1452.6083328909224
 30
0.0
 41
0.9995035112317328
 10
932.53653717446366
 20
-1452.7270667079381
 30
0.0
 41
1.0
 10
932.5268898640752
 20
-1452.7360764540972
 30
0.0
 41
1.0
 10
932.51724255368663
 20
-1452.7450862002561
 30
0.0
 41
1.0
 10
932.39381949092308
 20
-1452.8603525720105
 30
0.0
 41
0.9994630424298968
 10
932.27821108514058
 20
-1452.9834553152443
 30
0.0
 41
1.0
 10
932.27452824637021
 20
-1452.9873768947562
 30
0.0
 41
1.0
 10
932.27084540759984
 20
-1452.991298474268
 30
0.0
 41
1.0
 10
932.16260267935695
 20
-1453.1065580584791
 30
0.0
 41
0.9995160693750474
 10
932.06173664982464
 20
-1453.228325476352
 30
0.0
 41
1.0
 10
932.05980292974482
 20
-1453.230659900559
 30
0.0
 41
1.0
 10
932.057869209665
 20
-1453.232994324766
 30
0.0
 41
1.0
 10
931.96087062029312
 20
-1453.3500928942242
 30
0.0
 41
0.9996561470514673
 10
931.87014440162682
 20
-1453.4721156566739
 30
0.0
 41
1.0
 10
931.86398673572603
 20
-1453.4803974457145
 30
0.0
 41
1.0
 10
931.85782906982524
 20
-1453.4886792347554
 30
0.0
 41
1.0
 10
931.77941818296028
 20
-1453.594138419124
 30
0.0
 41
0.9998349055172329
 10
931.70489090102865
 20
-1453.7023770027863
 30
0.0
 41
1.0
 10
931.63036361910724
 20
-1453.8106155864343
 30
0.0
 41
0.9999728109565502
 10
931.55744072320169
 20
-1453.919941511982
 30
0.0
 41
1.0
 10
931.55612550778233
 20
-1453.921913281496
 30
0.0
 41
1.0
 10
931.55481029236284
 20
-1453.9238850510101
 30
0.0
 41
1.0
 10
931.47925696562788
 20
-1454.0371545155724
 30
0.0
 41
0.9999972147450703
 10
931.40423915522877
 20
-1454.150779358446
 30
0.0
 41
1.0
 10
931.39926761261961
 20
-1454.1583094468983
 30
0.0
 41
1.0
 10
931.39429607001045
 20
-1454.1658395353506
 30
0.0
 41
1.0
 10
931.30933517439325
 20
-1454.2945245551289
 30
0.0
 41
0.9999371979005683
 10
931.22727982498691
 20
-1454.4250814689094
 30
0.0
 41
1.0
 10
931.22377094062517
 20
-1454.4306643969744
 30
0.0
 41
1.0
 10
931.22026205626344
 20
-1454.4362473250394
 30
0.0
 41
1.0
 10
931.13118893813134
 20
-1454.5779700949536
 30
0.0
 41
0.9998272025609611
 10
931.04744554724846
 20
-1454.7229059716976
 30
0.0
 41
1.0
 10
931.03223037522662
 20
-1454.7492390861507
 30
0.0
 41
1.0
 10
931.01701520320466
 20
-1454.7755722006036
 30
0.0
 41
1.0
 10
930.90284146827344
 20
-1454.9731743062616
 30
0.0
 41
0.9995217214838154
 10
930.80110177871688
 20
-1455.1774566341257
 30
0.0
 41
1.0
 10
930.7934582160849
 20
-1455.1928040838225
 30
0.0
 41
1.0
 10
930.78581465345303
 20
-1455.208151533519
 30
0.0
 41
1.0
 10
930.69890936086279
 20
-1455.3826479916017
 30
0.0
 41
0.9998269762608066
 10
930.61855489458708
 20
-1455.5602562783324
 30
0.0
 41
1.0
 10
930.53820042831182
 20
-1455.7378645650626
 30
0.0
 41
0.9998944747386817
 10
930.4630396337443
 20
-1455.9177322906994
 30
0.0
 41
1.0
 10
930.45808596415827
 20
-1455.9295869456046
 30
0.0
 41
1.0
 10
930.45313229457236
 20
-1455.9414416005095
 30
0.0
 41
1.0
 10
930.37248523401945
 20
-1456.1344385405282
 30
0.0
 41
0.9999506734415028
 10
930.29568770511128
 20
-1456.3289993453955
 30
0.0
 41
1.0
 10
930.28108773983854
 20
-1456.3659872672063
 30
0.0
 41
1.0
 10
930.26648777456569
 20
-1456.4029751890171
 30
0.0
 41
1.0
 10
930.21889017620754
 20
-1456.5235601502516
 30
0.0
 41
0.9999912393948411
 10
930.17230373218513
 20
-1456.6445393529473
 30
0.0
 41
1.0
 10
930.12571728816749
 20
-1456.7655185556309
 30
0.0
 41
0.9999927113936031
 10
930.0800559937685
 20
-1456.8868499631451
 30
0.0
 41
1.0
 10
930.06608756237074
 20
-1456.923966945144
 30
0.0
 41
1.0
 10
930.0521191309731
 20
-1456.9610839271429
 30
0.0
 41
1.0
 10
929.97852097378438
 20
-1457.1566492986401
 30
0.0
 41
0.9999487550947617
 10
929.90889734881421
 20
-1457.3536646638183
 30
0.0
 41
1.0
 10
929.88530373888
 20
-1457.4204279741034
 30
0.0
 41
1.0
 10
929.86171012894579
 20
-1457.4871912843885
 30
0.0
 41
1.0
 10
929.76702449457173
 20
-1457.7551251192233
 30
0.0
 41
0.9999808436946442
 10
929.67566290592595
 20
-1458.0242105505001
 30
0.0
 41
1.0
 10
929.58430131727653
 20
-1458.2932959817881
 30
0.0
 41
0.9999873932921876
 10
929.49564660855879
 20
-1458.5632853368013
 30
0.0
 41
1.0
 10
929.47555425169321
 20
-1458.6244746695425
 30
0.0
 41
1.0
 10
929.45546189482775
 20
-1458.6856640022838
 30
0.0
 41
1.0
 10
929.32662247236749
 20
-1459.0780320228127
 30
0.0
 41
0.9999794883027675
 10
929.20281968740926
 20
-1459.4720182290919
 30
0.0
 41
1.0
 10
929.19166742797279
 20
-1459.507508839326
 30
0.0
 41
1.0
 10
929.1805151685362
 20
-1459.5429994495598
 30
0.0
 41
1.0
 10
929.03795700464366
 20
-1459.9966722016306
 30
0.0
 41
0.9999982761740469
 10
928.89708456462517
 20
-1460.4508712237641
 30
0.0
 41
1.0
 10
927.30894423205257
 20
-1465.4996409547675
 30
0.0
 41
1.0
 10
925.72080389947996
 20
-1470.5484106857707
 30
0.0
 41
1.0
 10
924.77205328800358
 20
-1470.5484106857707
 30
0.0
 41
1.0
 10
923.82330267652719
 20
-1470.5484106857707
 30
0.0
 41
1.0
 10
927.06158716268033
 20
-1460.2210884858246
 30
0.0
 41
1.0
 10
930.29987164883357
 20
-1449.8937662858784
 30
0.0
 41
1.0
  0
LWPOLYLINE
  5
5A
100
AcDbEntity
  8
0
370
              15
390
0
  6
Continuous
 62
               7
100
AcDbPolyline
 90
      232
 70
             128
 10
904.59632587500653
 20
-1450.9781091173936
 42
0.000437080068291
 10
904.54344870108366
 20
-1451.0467757564556
 10
904.50416446980705
 20
-1451.0978828695465
 42
0.0030481992181612
 10
904.37382575266145
 20
-1451.2696045619259
 10
904.33531408093745
 20
-1451.3209913456787
 42
0.0042058245758737
 10
904.13132903026678
 20
-1451.5979970907536
 10
904.07892390776692
 20
-1451.6704299375333
 42
0.0120948898745862
 10
903.78287999100212
 20
-1452.1011795420875
 10
903.68668749188294
 20
-1452.2486602773079
 42
0.0141601263947258
 10
903.38304344496157
 20
-1452.7443296140425
 10
903.3435061775383
 20
-1452.8131735814695
 42
0.0071131081298139
 10
903.13823385429714
 20
-1453.1826763803124
 42
0.0068458791004401
 10
902.94335432745049
 20
-1453.5577679437959
 10
902.93654246499636
 20
-1453.5713296575123
 42
0.006412088029036
 10
902.738400214953
 20
-1453.9787541324292
 10
902.73086552943505
 20
-1453.9947659891523
 42
0.0058857236447776
 10
902.52811013756548
 20
-1454.4391421001826
 10
902.5199352112694
 20
-1454.4576322538212
 42
0.0053189741896496
 10
902.31123089860534
 20
-1454.9435957277306
 10
902.30248309292051
 20
-1454.9645776059351
 42
0.0047503650419018
 10
902.08650936676668
 20
-1455.4967770391527
 10
902.07724111842163
 20
-1455.5202534152527
 42
0.0042071762169625
 10
901.85269373469168
 20
-1456.1033470093282
 10
901.84294433234527
 20
-1456.1293131841921
 42
0.0036680086483766
 10
901.60848968903986
 20
-1456.7679485687052
 10
901.5982819091854
 20
-1456.7963971030681
 42
0.0032573142629362
 10
901.35264962321685
 20
-1457.4952497628269
 10
901.28399910237511
 20
-1457.694712846883
 42
0.0026133366650121
 10
900.93555390362008
 20
-1458.7245761305462
 10
900.87229711611781
 20
-1458.9148069659439
 42
0.0020592950739531
 10
900.65843404715224
 20
-1459.5669106185524
 10
900.65538225598164
 20
-1459.5763471069854
 42
0.0025609928535933
 10
900.45356175450331
 20
-1460.2114923293279
 10
900.45097038737867
 20
-1460.219794670262
 42
0.0031362356242996
 10
900.26147960169965
 20
-1460.840557526448
 10
900.25934855876574
 20
-1460.8476988326809
 42
0.003722991803208
 10
900.08254817184593
 20
-1461.4566841346332
 10
900.08086958264494
 20
-1461.4626310247882
 42
0.0043077623706767
 10
899.91712878057444
 20
-1462.0624497565768
 42
0.0047654161821811
 10
899.76430005805946
 20
-1462.6651358454747
 10
899.72983544921931
 20
-1462.8066976226287
 42
0.0112969368444096
 10
899.53397109107618
 20
-1463.6983897832511
 10
899.50596470197911
 20
-1463.8412178293509
 42
0.0130056762570186
 10
899.30512745833244
 20
-1465.0281589009958
 10
899.284587708186
 20
-1465.172237014468
 42
0.013872153214424
 10
899.18088470364751
 20
-1466.0790665002985
 10
899.16158921573981
 20
-1466.302564222221
 42
0.0071254697009128
 10
899.12824256981708
 20
-1466.7657512310707
 10
899.12328159565334
 20
-1466.8517552256394
 42
0.0028881799201636
 10
899.10814330236394
 20
-1467.1434969354736
 42
0.0060297297132188
 10
899.09821110258861
 20
-1467.43544587158
 10
899.09714882092123
 20
-1467.4838382435216
 42
0.0229523164156451
 10
899.10487984870701
 20
-1467.8065930898051
 10
899.10910562222773
 20
-1467.8669966238251
 42
0.0123673300678672
 10
899.12818426874571
 20
-1468.0681173489961
 42
0.0128577674471045
 10
899.15737965915332
 20
-1468.2680151989305
 10
899.16450553253901
 20
-1468.3093440135199
 42
0.0285717853763861
 10
899.22899953423473
 20
-1468.5874601648329
 10
899.24266805790114
 20
-1468.6341149343102
 42
0.0316283099153332
 10
899.35847863781532
 20
-1468.9531294361361
 10
899.36152732957112
 20
-1468.9601158084622
 42
0.0338984824242266
 10
899.51095904053807
 20
-1469.2476817726508
 10
899.51326776990697
 20
-1469.2514728019253
 42
0.0350228718351768
 10
899.6956280605815
 20
-1469.5085247866036
 10
899.69651331235696
 20
-1469.5096038643683
 42
0.034747674752682
 10
899.91093799959663
 20
-1469.7367889115876
 42
0.0331337701908969
 10
900.15418132534319
 20
-1469.9329175736655
 10
900.15528142385915
 20
-1469.9336902768378
 42
0.0305233319080717
 10
900.42382611943208
 20
-1470.0988184469286
 10
900.42705616393368
 20
-1470.1005424587916
 42
0.027374448115435
 10
900.71960987550904
 20
-1470.2366806026826
 10
900.72471441064556
 20
-1470.2387241871518
 42
0.024096440619746
 10
901.04019148629072
 20
-1470.3477079134327
 10
901.04677481550129
 20
-1470.3496326531081
 42
0.0209636179813276
 10
901.38417496815157
 20
-1470.4331008010397
 10
901.39180742860253
 20
-1470.4346527140417
 42
0.0181388704696497
 10
901.75012982060525
 20
-1470.4940688072561
 10
901.7584106689792
 20
-1470.4951349910727
 42
0.0156086547587665
 10
902.13659803316671
 20
-1470.5318711776492
 10
902.17979328549825
 20
-1470.5347096801286
 42
0.0137148329025891
 10
902.5074664307939
 20
-1470.5472299353796
 10
902.55340262073571
 20
-1470.5477243684948
 42
0.0051057823887182
 10
902.78954820731212
 20
-1470.5478546229042
 42
0.0052256693307356
 10
903.02564549109559
 20
-1470.5431057984399
 10
903.09587227484019
 20
-1470.5409588324258
 42
0.0161507179050212
 10
903.47160935294607
 20
-1470.5173084620988
 10
903.49162231331456
 20
-1470.5153982668116
 42
0.0101216737833405
 10
903.90564953480373
 20
-1470.4674053364463
 10
903.93970282423197
 20
-1470.4627576396365
 42
0.0245291776400075
 10
904.41649247978592
 20
-1470.3736825615595
 10
904.50131579531228
 20
-1470.3534866412131
 42
0.0143509212562259
 10
904.85794689924671
 20
-1470.2576820074355
 42
0.0156557857040158
 10
905.20816296397425
 20
-1470.1406707916167
 10
905.21566417846861
 20
-1470.1379006298625
 42
0.0170137333631301
 10
905.57226017415201
 20
-1469.9922430149907
 10
905.57936409655747
 20
-1469.9890551794279
 42
0.0183105364408056
 10
905.93871376472043
 20
-1469.8117201376053
 10
905.9456605293625
 20
-1469.8079697027315
 42
0.0194899958151899
 10
906.30414127034965
 20
-1469.5959907208387
 10
906.31115514968315
 20
-1469.5914653785458
 42
0.0204869852950469
 10
906.66516945177852
 20
-1469.3419453634588
 10
906.67243506036414
 20
-1469.3363652981116
 42
0.0212516938559449
 10
907.01842499147801
 20
-1469.0464613012116
 10
907.06494168554411
 20
-1469.0039939911267
 42
0.0215248918247182
 10
907.3249678544355
 20
-1468.7452297121285
 10
907.36999758881029
 20
-1468.696385590785
 42
0.0114578554953637
 10
907.52478974249334
 20
-1468.5205626573206
 10
907.53598427847817
 20
-1468.5072438937775
 42
0.0061531305127817
 10
907.66245892447444
 20
-1468.3529543604695
 42
0.0006325587119313
 10
907.78683740856127
 20
-1468.1969509848752
 10
907.80987754367766
 20
-1468.1679774641343
 42
0.0041897761559821
 10
907.97833294768009
 20
-1467.9524580880341
 10
908.03679506754258
 20
-1467.8763567410874
 42
0.0092993880035588
 10
908.31340699475993
 20
-1467.5020779772124
 10
908.39580148796142
 20
-1467.3861409736401
 42
0.0159321727084844
 10
908.74240797060759
 20
-1466.8639667528787
 10
908.7867641060044
 20
-1466.792287188616
 42
0.0085547317024799
 10
909.02127587132236
 20
-1466.398412239404
 42
0.008460115688891
 10
909.2422520487637
 20
-1465.9967853903736
 10
909.25036752259484
 20
-1465.9814257080989
 42
0.0081429654284788
 10
909.47361679302935
 20
-1465.5417041955641
 10
909.48247695721636
 20
-1465.5235253535388
 42
0.0076574581327862
 10
909.70888446778144
 20
-1465.0403424782892
 10
909.71836410850676
 20
-1465.0192779999825
 42
0.0070682724202407
 10
909.94880901632325
 20
-1464.4872406951783
 10
909.95879930029525
 20
-1464.4632515061899
 42
0.006455951444792
 10
910.19413250847367
 20
-1463.8769392396789
 10
910.20454186664188
 20
-1463.8500043142285
 42
0.0058311413908636
 10
910.4455886034051
 20
-1463.203972219844
 10
910.4563436807922
 20
-1463.1740878786845
 42
0.0052312425819084
 10
910.70392495883391
 20
-1462.4628854648472
 10
910.71496879521283
 20
-1462.43005875278
 42
0.0046680544798789
 10
910.96989722295132
 20
-1461.6482324370124
 10
911.01188937298787
 20
-1461.5152491997428
 42
0.0041666856446256
 10
911.21517538538592
 20
-1460.8522804247277
 10
911.25283782602821
 20
-1460.7256993171463
 42
0.0015170975154027
 10
911.37402440446272
 20
-1460.3138309655803
 42
-0.0004887993107942
 10
911.49436417765583
 20
-1459.9017125532994
 10
911.57084143508087
 20
-1459.6407551675973
 42
0.0002583378928388
 10
911.84405600510661
 20
-1458.7066984645501
 10
911.92582885470551
 20
-1458.4265992048909
 42
0.0006636169671943
 10
912.11969661473313
 20
-1457.7592462812481
 10
912.12479326908215
 20
-1457.7416146983612
 42
0.0010589131323197
 10
912.30624196999679
 20
-1457.1088833553192
 10
912.31122404048972
 20
-1457.0913704482552
 42
0.0015655524461926
 10
912.47949424766011
 20
-1456.4927537690983
 10
912.48432444807747
 20
-1456.4753616101539
 42
0.0021640440478761
 10
912.638614420061
 20
-1455.9103345921444
 10
912.64324863949059
 20
-1455.8930698621521
 42
0.0028763871851447
 10
912.78276435754401
 20
-1455.3611019113034
 10
912.78715022171536
 20
-1455.3439779331329
 42
0.0037310511948467
 10
912.91110691354811
 20
-1454.844530339125
 10
912.91518213383893
 20
-1454.8275700678721
 42
0.004765219776976
 10
913.02280603434554
 20
-1454.3600922995745
 10
913.0264966336689
 20
-1454.3433327444243
 42
0.0060276699301171
 10
913.11702673282252
 20
-1453.9072569492803
 10
913.12024542311315
 20
-1453.8907557349632
 42
0.007582433776283
 10
913.19293473252719
 20
-1453.4854885705449
 10
913.19558010990795
 20
-1453.4693336230912
 42
0.0095130624606881
 10
913.24969534553861
 20
-1453.0942442700225
 10
913.25668156942106
 20
-1453.0383107119067
 42
0.0121054653227189
 10
913.28327289999913
 20
-1452.7734148834322
 10
913.28413938976007
 20
-1452.762011440484
 42
0.0069050827398962
 10
913.29922820779643
 20
-1452.5190702136588
 10
913.30036350746479
 20
-1452.4955439566168
 42
0.0169063976694226
 10
913.30319078644516
 20
-1452.2993512293133
 10
913.30202013491385
 20
-1452.2390154679613
 42
0.0052007732903988
 10
913.29976668632094
 20
-1452.1634220778121
 42
0.0054038123297149
 10
913.27980317448146
 20
-1452.0434037817984
 10
913.27471731861169
 20
-1452.014745295221
 42
0.0112050460453333
 10
913.2393329565524
 20
-1451.8384188568784
 10
913.22150799451242
 20
-1451.7588772701611
 42
0.0240764468010279
 10
913.13061062836607
 20
-1451.4286402346597
 10
913.11205186555253
 20
-1451.3720200696653
 42
0.0256812331836378
 10
912.96868894536328
 20
-1451.0002958634088
 10
912.96327951954243
 20
-1450.9881645284202
 42
0.026836050121482
 10
912.79385227869204
 20
-1450.6571713943981
 10
912.78831587105674
 20
-1450.6476517240853
 42
0.0274670231726993
 10
912.59611489464373
 20
-1450.3553643491687
 10
912.59073359468152
 20
-1450.3480852016278
 42
0.027503596710003
 10
912.37916071511927
 20
-1450.0925693113231
 10
912.37409121415294
 20
-1450.0870902236929
 42
0.0269557673525927
 10
912.14668767071316
 20
-1449.8664479377303
 10
912.14194461293016
 20
-1449.8623179832691
 42
0.0259124802209334
 10
911.90238978149978
 20
-1449.6746274561174
 10
911.89785893631711
 20
-1449.6714419537866
 42
0.0245162153001952
 10
911.64994258322304
 20
-1449.5147089446764
 10
911.645416036901
 20
-1449.5121487474767
 42
0.022928258883462
 10
911.39299648007147
 20
-1449.3842805549766
 10
911.38821598623088
 20
-1449.3821282552128
 42
0.0212984135693679
 10
911.13517803377295
 20
-1449.2809293379723
 10
911.12987374880186
 20
-1449.2790657752118
 42
0.019755546234161
 10
910.88009541108045
 20
-1449.2022503572475
 42
0.0183511896789585
 10
910.62516668561375
 20
-1449.1446674502815
 10
910.538801488893
 20
-1449.128464659897
 42
0.033805787715362
 10
910.25329413963402
 20
-1449.094656254757
 10
910.16228873457806
 20
-1449.0900765994948
 42
0.0091990524510192
 10
910.05644162595809
 20
-1449.0867007435734
 42
0.0028333980764135
 10
909.95052771000178
 20
-1449.0858726360566
 10
909.94961225691577
 20
-1449.0858706662325
 42
-0.0023619827799281
 10
909.84186624176903
 20
-1449.0851298251537
 10
909.805461071634
 20
-1449.0847075186912
 42
0.0008824598481366
 10
909.6249050818011
 20
-1449.082931740453
 10
909.58104364937822
 20
-1449.0825777789273
 42
0.0038132665772514
 10
909.31276075349899
 20
-1449.0824588428607
 10
909.29622709870591
 20
-1449.0825776090041
 42
0.0060665569337032
 10
908.99494660711264
 20
-1449.0883979084251
 10
908.98069627508926
 20
-1449.0888462163925
 42
0.0080356953338441
 10
908.6512375587439
 20
-1449.1045139384598
 10
908.63916754366278
 20
-1449.1052825213999
 42
0.0098996399106976
 10
908.28640445901056
 20
-1449.1347677505983
 10
908.27635874963721
 20
-1449.1358080467962
 42
0.0117740981367981
 10
907.90520189129234
 20
-1449.1831002943256
 10
907.89697919480591
 20
-1449.1843454108969
 42
0.0137435215136172
 10
907.51239037531582
 20
-1449.2534423844595
 10
907.50573333619741
 20
-1449.254828280692
 42
0.0158359869385063
 10
907.11273624239186
 20
-1449.3497203691736
 10
907.10732305552779
 20
-1449.3512103100434
 42
0.0180554124025083
 10
906.71100801091677
 20
-1449.4758483262815
 10
906.70645122283202
 20
-1449.4774643625483
 42
0.0203657431282795
 10
906.31197370502025
 20
-1449.6357247040644
 10
906.30783016601333
 20
-1449.6375863255062
 42
0.022681968465414
 10
905.92039410981363
 20
-1449.8332289041748
 10
905.91619431879155
 20
-1449.8355944960967
 42
0.0248634984606554
 10
905.54101237760904
 20
-1450.072221142045
 10
905.4928174488258
 20
-1450.1060781838703
 42
0.026704419088568
 10
905.21852475190985
 20
-1450.3215185597378
 42
0.0139303002198169
 10
904.96235758597209
 20
-1450.558757400649
 10
904.95750420025013
 20
-1450.56351006351
 42
0.0283460963443982
 10
904.71343160602112
 20
-1450.8312407239573
 10
904.67376310086638
 20
-1450.8800423014281
 42
0.0070695364826246
 10
904.59632587500653
 20
-1450.9781091173936
 42
0.0070695364826246
  0
LWPOLYLINE
  5
5B
100
AcDbEntity
  8
0
370
              15
390
0
  6
Continuous
 62
               7
100
AcDbPolyline
 90
      226
 70
             128
 10
901.06750543776013
 20
-1466.6996979235776
 42
-0.0026277636629027
 10
901.06742755395999
 20
-1466.6329259978666
 10
901.06764491219212
 20
-1466.5797707803913
 42
-0.0088680296729722
 10
901.07142152848508
 20
-1466.4067549979907
 10
901.07376788759757
 20
-1466.3474749725347
 42
-0.0077381705615836
 10
901.08981399836057
 20
-1466.0562144767393
 10
901.09068190953383
 20
-1466.0439262430514
 42
-0.0068872530535462
 10
901.11731398928225
 20
-1465.7287044909801
 10
901.11851821346806
 20
-1465.7164635119639
 42
-0.0062130021490503
 10
901.15611193029565
 20
-1465.3775938207268
 10
901.15761583383096
 20
-1465.3654199488087
 42
-0.0056726929672091
 10
901.20653769333092
 20
-1465.0032247267116
 10
901.20831113897771
 20
-1464.9911309264498
 42
-0.005234188449453
 10
901.26892172524049
 20
-1464.6059376709154
 10
901.27093971401428
 20
-1464.5939327409396
 42
-0.004976845017071
 10
901.34367839543756
 20
-1464.1860881735238
 10
901.36792741016245
 20
-1464.0575401905012
 42
-0.0089029805625539
 10
901.5050082619573
 20
-1463.395764743078
 10
901.53775363727573
 20
-1463.2507333125552
 42
-0.0080318257100698
 10
901.7673022516135
 20
-1462.305023680713
 10
901.77928717806469
 20
-1462.2588930455113
 42
-0.0074265721319244
 10
902.06329871691662
 20
-1461.2288284671242
 10
902.08317826003406
 20
-1461.1606944065322
 42
-0.0069711922701349
 10
902.41048283853797
 20
-1460.0944266662136
 10
902.47043478564729
 20
-1459.9084053078313
 42
-0.005207042289481
 10
902.69986001090274
 20
-1459.2211332308116
 10
902.71714120306092
 20
-1459.1711059502352
 42
-0.000916700444968
 10
902.92023309036449
 20
-1458.5866501020405
 42
-0.0025162726943876
 10
903.12733072062463
 20
-1458.0036088378843
 10
903.16455533243561
 20
-1457.9004592919634
 42
-0.0028212681455983
 10
903.4127312513956
 20
-1457.2247286598013
 10
903.42256201414375
 20
-1457.198421215131
 42
-0.0031964916819331
 10
903.65885427180854
 20
-1456.5782164529976
 10
903.66848872581534
 20
-1456.5534064628343
 42
-0.0036281836449918
 10
903.89359468690873
 20
-1455.9859657819611
 10
903.90303309706383
 20
-1455.9626683504641
 42
-0.0041269166833758
 10
904.11765079372537
 20
-1455.4452274544801
 10
904.15028375014629
 20
-1455.3683490081187
 42
-0.0047472213055234
 10
904.30732855569977
 20
-1455.0079275402356
 10
904.31422263691047
 20
-1454.992506942898
 42
-0.0025651659995261
 10
904.46258067075814
 20
-1454.6651788871552
 42
-0.0057144634993384
 10
904.6163303645352
 20
-1454.3403692137808
 10
904.64436106993139
 20
-1454.2828608313969
 42
-0.0065388068373956
 10
904.82782809767048
 20
-1453.9186283347335
 10
904.83628655345092
 20
-1453.9023687553602
 42
-0.0074510843021043
 10
905.01246879932683
 20
-1453.5756804742414
 10
905.02064846986298
 20
-1453.5610396969635
 42
-0.0084648979860666
 10
905.19028232295796
 20
-1453.2691306860113
 10
905.19813844944235
 20
-1453.2561236943666
 42
-0.0095638542811611
 10
905.36197389704023
 20
-1452.9962348223819
 10
905.36944884071033
 20
-1452.9848654609291
 42
-0.0107191626808709
 10
905.52825042109953
 20
-1452.7542542263823
 10
905.53526715482769
 20
-1452.7445181340215
 42
-0.0118458573904215
 10
905.68981525334311
 20
-1452.5404459387071
 42
-0.0129184518195762
 10
905.85426787694337
 20
-1452.3442854225384
 10
905.88441264931078
 20
-1452.3101593436338
 42
-0.0217742579627099
 10
906.06102497164306
 20
-1452.1269525733869
 10
906.07177051610392
 20
-1452.1167357401835
 42
-0.0097266568646067
 10
906.23782813495927
 20
-1451.9648881657467
 42
-0.0187720905727169
 10
906.4121757108428
 20
-1451.8228193123623
 10
906.44288170151833
 20
-1451.799660229965
 42
-0.0179428207525278
 10
906.67530242151906
 20
-1451.6371080528497
 10
906.67895474843567
 20
-1451.6347441179614
 42
-0.0170047877698967
 10
906.91471838596522
 20
-1451.4932836038106
 10
906.91850137470931
 20
-1451.4911852987757
 42
-0.0160190788372396
 10
907.15540992234708
 20
-1451.3695339967862
 42
-0.0151102861488831
 10
907.39944170479953
 20
-1451.2628512207291
 10
907.45182820700552
 20
-1451.2418110878368
 42
-0.0271945441887778
 10
907.81049076606428
 20
-1451.1199462771308
 10
907.87955556654981
 20
-1451.1005967358651
 42
-0.023759659402256
 10
908.29535241357439
 20
-1451.0051460238828
 10
908.36341526730189
 20
-1450.9928913357567
 42
-0.0213715440555832
 10
908.64929019875012
 20
-1450.9539443042463
 10
908.70943736496383
 20
-1450.9483545895457
 42
-0.0101465655815776
 10
908.87692989696222
 20
-1450.9362110462812
 10
908.88627028315852
 20
-1450.9357241312841
 42
-0.0100375910880872
 10
909.03542438372301
 20
-1450.9309483133588
 10
909.04568365339878
 20
-1450.9308258743445
 42
-0.0103625633384443
 10
909.17439164805819
 20
-1450.931957307871
 10
909.19665729932024
 20
-1450.9326146663357
 42
-0.0115689250227831
 10
909.28070803685307
 20
-1450.937044172581
 42
-0.0072438037432286
 10
909.36454631629522
 20
-1450.9446333723308
 10
909.38134682576504
 20
-1450.9463999150546
 42
-0.0217917313141253
 10
909.49791658907816
 20
-1450.9638198077757
 10
909.56351667965032
 20
-1450.9765664161912
 42
-0.0332943556750026
 10
909.76790884467368
 20
-1451.0306067074971
 10
909.79808141322451
 20
-1451.0407747846159
 42
-0.0184824084792772
 10
909.93658646968925
 20
-1451.0932258000021
 42
-0.0198002050692557
 10
910.07066081018854
 20
-1451.1561098602015
 10
910.07254744756551
 20
-1451.1570876470814
 42
-0.0212242342983166
 10
910.20468638996601
 20
-1451.2328503858737
 10
910.20650168551083
 20
-1451.233996188083
 42
-0.0226090605800759
 10
910.33500558673268
 20
-1451.3234758316476
 10
910.33685002847005
 20
-1451.3248880846349
 42
-0.0238457052237108
 10
910.46003210976153
 20
-1451.4288839804958
 10
910.461984838322
 20
-1451.4306988582634
 42
-0.0248160564158062
 10
910.57818634562216
 20
-1451.5499734594716
 10
910.58028997902466
 20
-1451.5523587931766
 42
-0.0254109591455653
 10
910.6878951968913
 20
-1451.6876471791418
 10
910.69014321880468
 20
-1451.6907887275415
 42
-0.0255528488290978
 10
910.78758989760263
 20
-1451.8428157817768
 10
910.78992099751804
 20
-1451.8468973933832
 42
-0.0252146793219234
 10
910.87570202352731
 20
-1452.0163996393808
 10
910.87800426268473
 20
-1452.0215817212932
 42
-0.0244265635952567
 10
910.95065895644609
 20
-1452.2093282933392
 10
910.95990535791441
 20
-1452.2371937116768
 42
-0.0231319612907769
 10
911.00582813690664
 20
-1452.4004947584792
 42
-0.0112130424363273
 10
911.04046415944435
 20
-1452.5666983586646
 10
911.04166668455741
 20
-1452.5731949455553
 42
-0.0210527881241411
 10
911.06735315992819
 20
-1452.7542505909969
 10
911.07086375475001
 20
-1452.7896561395437
 42
-0.0190029892420322
 10
911.08630522829469
 20
-1453.0431919858172
 10
911.08711520473867
 20
-1453.0786676001849
 42
-0.0137974553656591
 10
911.08556635190291
 20
-1453.4036990069249
 10
911.0847208969476
 20
-1453.4298177515091
 42
-0.0081336634216386
 10
911.06986156172502
 20
-1453.7351652191105
 42
-0.0073526923575821
 10
911.04555302835035
 20
-1454.0399134633969
 10
911.04429160456766
 20
-1454.0532501380617
 42
-0.0066886138690646
 10
911.00855601852027
 20
-1454.3838361815665
 10
911.0068989290512
 20
-1454.3974578005505
 42
-0.0061359187356376
 10
910.95904832699932
 20
-1454.754221780657
 10
910.95701082592745
 20
-1454.7681165834797
 42
-0.0056698610064991
 10
910.89636049516184
 20
-1455.1513951523102
 10
910.89395506183746
 20
-1455.1655542715484
 42
-0.0052721077270837
 10
910.81982286103812
 20
-1455.5756816112244
 10
910.81705971219606
 20
-1455.5900982466123
 42
-0.0049289272177728
 10
910.72876559409508
 20
-1456.0274067577388
 10
910.72565309941342
 20
-1456.0420756105505
 42
-0.0047415956711586
 10
910.62241510788169
 20
-1456.5068723679583
 10
910.58764689752138
 20
-1456.6566794633443
 42
-0.0084404470904917
 10
910.39763045394977
 20
-1457.4169034878746
 10
910.39150376596388
 20
-1457.4397676120288
 42
-0.0039635940260916
 10
910.17005008168428
 20
-1458.2407564762605
 10
910.15667328650034
 20
-1458.2876880928679
 42
-0.007247504083705
 10
909.88922639863767
 20
-1459.176907809257
 10
909.81901407181635
 20
-1459.3986481592101
 42
-0.0051345458830519
 10
909.53225469975098
 20
-1460.2729733470414
 10
909.51072843297186
 20
-1460.3363996142054
 42
-0.0019150016600728
 10
909.25519502611678
 20
-1461.0799487343975
 10
909.24872742172624
 20
-1461.0985361993023
 42
-0.0021524362752655
 10
909.00024937065677
 20
-1461.8028620210271
 10
908.99103894994994
 20
-1461.8286155993576
 42
-0.0024331286816792
 10
908.75478369092434
 20
-1462.4792149074465
 10
908.74573573837858
 20
-1462.5037582137879
 42
-0.002744972179027
 10
908.52112116753835
 20
-1463.1028880927254
 10
908.51223116015831
 20
-1463.1262106825454
 42
-0.0031083229770878
 10
908.29868867353616
 20
-1463.6761347201573
 10
908.28995254185918
 20
-1463.6982244360188
 42
-0.0035311343282424
 10
908.08691135626873
 20
-1464.2012075617452
 10
908.07832601711914
 20
-1464.2220502852601
 42
-0.0040245640948619
 10
907.88521421332666
 20
-1464.680359607848
 10
907.87677809972399
 20
-1464.6999389759192
 42
-0.0046015135851477
 10
907.69302180655984
 20
-1465.1158440055622
 10
907.68473562873635
 20
-1465.1341411450037
 42
-0.0052768638268329
 10
907.50975810977593
 20
-1465.5099140292846
 10
907.5016258991443
 20
-1465.5269073678376
 42
-0.0060672675641928
 10
907.33484628638303
 20
-1465.864822990942
 10
907.32687680590209
 20
-1465.8804882499383
 42
-0.0069904648874324
 10
907.16770841190009
 20
-1466.1828240566028
 10
907.15991701228847
 20
-1466.1971346058317
 42
-0.0080637022763729
 10
907.00776515194343
 20
-1466.4661699089834
 10
907.00017611931469
 20
-1466.4790977745799
 42
-0.0093006455667215
 10
906.85443544278064
 20
-1466.7171121730871
 10
906.8470847760334
 20
-1466.728630142266
 42
-0.0107060778054292
 10
906.70713623259849
 20
-1466.9379004596394
 10
906.70007446431453
 20
-1466.9479860022116
 42
-0.0122723111411714
 10
906.56528074612083
 20
-1467.1307793316942
 10
906.56495452256684
 20
-1467.1311997195037
 42
-0.0141836319631516
 10
906.42137291959261
 20
-1467.3057694773333
 10
906.41442516394341
 20
-1467.313744477595
 42
-0.0175957477211126
 10
906.27451899590596
 20
-1467.463365366003
 42
-0.0080466359675283
 10
906.12705523087732
 20
-1467.6056878941529
 10
906.08102068635833
 20
-1467.6487083322454
 42
-0.0269600260398723
 10
905.82774044037853
 20
-1467.8610315907522
 10
905.76117330408169
 20
-1467.910983005376
 42
-0.0178362839756408
 10
905.52122881442256
 20
-1468.0780009316309
 10
905.51398384341758
 20
-1468.0826694438388
 42
-0.0174650732646986
 10
905.27764764598078
 20
-1468.2235304087949
 42
-0.0169240130158804
 10
905.03218140011927
 20
-1468.3478226685743
 10
904.98619524456535
 20
-1468.3691846241395
 42
-0.0318883036840419
 10
904.63584438894623
 20
-1468.5055229336494
 10
904.56747885378036
 20
-1468.5272235541252
 42
-0.0284435909902593
 10
904.19142872748955
 20
-1468.6234409895997
 10
904.15627056698986
 20
-1468.6303345854283
 42
-0.0243909341015426
 10
903.84282710607204
 20
-1468.6760556164584
 10
903.79254637930103
 20
-1468.68090116336
 42
-0.0196639292931633
 10
903.57695080177359
 20
-1468.6931494488736
 10
903.52512673061119
 20
-1468.6940527096103
 42
-0.0100501510681591
 10
903.41270344894588
 20
-1468.6937523112572
 10
903.38104358758142
 20
-1468.6930312393713
 42
-0.0019752031115081
 10
903.3319512509205
 20
-1468.6917190791623
 10
903.32919094770978
 20
-1468.6916343873363
 42
0.0065378751980757
 10
903.28561437294366
 20
-1468.690867496121
 42
-0.0167974694662007
 10
903.24208355001167
 20
-1468.6892075975948
 10
903.23800421074975
 20
-1468.6889145866999
 42
-0.0081283276269004
 10
903.18644441300671
 20
-1468.6843675930618
 10
903.17470483913257
 20
-1468.6831396754837
 42
-0.0126703440178294
 10
903.09998654333924
 20
-1468.6734048844123
 10
903.07719867566243
 20
-1468.669846628497
 42
-0.0117852088430661
 10
902.95765968982698
 20
-1468.6482836333394
 10
902.90227923806697
 20
-1468.6369400931053
 42
-0.025177459229751
 10
902.67543519906212
 20
-1468.5784420836733
 10
902.63071600920625
 20
-1468.5644752643366
 42
-0.0146525199881187
 10
902.44432302166956
 20
-1468.500208737139
 42
-0.0166929435849337
 10
902.2623453655392
 20
-1468.4244016040827
 10
902.25768873426978
 20
-1468.4222767034703
 42
-0.019168435843721
 10
902.07250510301958
 20
-1468.3290406196797
 10
902.0691725172635
 20
-1468.3271993721269
 42
-0.0221181781812881
 10
901.88586221336095
 20
-1468.215065873756
 10
901.88351240935287
 20
-1468.2134815757652
 42
-0.0254984685390157
 10
901.70722225896827
 20
-1468.081070425796
 10
901.68474011126534
 20
-1468.0623181168589
 42
-0.0292492648810161
 10
901.55997117242259
 20
-1467.9452253172162
 42
-0.0159048957505919
 10
901.44613117497386
 20
-1467.8172053256189
 10
901.44481238439312
 20
-1467.8156237125972
 42
-0.0343813379569193
 10
901.34217512276746
 20
-1467.6737523868285
 10
901.31068359140579
 20
-1467.6232489947331
 42
-0.0369117275700957
 10
901.22479108950881
 20
-1467.4597717537852
 42
-0.0191751379906813
 10
901.15759770395096
 20
-1467.2873671477766
 10
901.15583438019235
 20
-1467.2822738031043
 42
-0.0378178042229026
 10
901.10603966140798
 20
-1467.0933330270225
 10
901.10004436567795
 20
-1467.0607724088275
 42
-0.0184846046481114
 10
901.07932716638334
 20
-1466.9190195882811
 42
-0.0179866351316406
 10
901.06899416130977
 20
-1466.7761287752026
 10
901.06893771886394
 20
-1466.7745710885874
 42
-0.0085497186109009
 10
901.06750543776013
 20
-1466.6996979235776
 42
-0.0085497186109009
  0
ENDBLK
  5
5C
100
AcDbEntity
  8
template
390
0
100
AcDbBlockEnd
  0
BLOCK
  5
5D
100
AcDbEntity
  8
notes
390
0
100
AcDbBlockBegin
  2
*D3
 70
               1
 10
0.0
 20
0.0
 30
0.0
  3
*D3
  1

  0
LINE
  5
5E
100
AcDbEntity
  8
0
370
              -2
390
0
  6
Continuous
 62
               0
100
AcDbLine
 10
-581.51556964696863
 20
715.70379147284348
 30
0.0
 11
-581.51556964696863
 21
564.70111608271634
 31
0.0
  0
LINE
  5
5F
100
AcDbEntity
  8
0
370
              -2
390
0
  6
Continuous
 62
               0
100
AcDbLine
 10
-306.51556964696852
 20
713.78890094078611
 30
0.0
 11
-306.51556964696852
 21
564.70111608271634
 31
0.0
  0
LINE
  5
60
100
AcDbEntity
  8
0
370
              -2
390
0
  6
Continuous
 62
               0
100
AcDbLine
 10
-581.51556964696863
 20
564.70111608271634
 30
0.0
 11
-306.51556964696852
 21
564.70111608271634
 31
0.0
  0
CIRCLE
  5
61
102
{ACAD_REACTORS
330
62
102
}
100
AcDbEntity
  8
0
370
              -2
390
0
  6
Continuous
 62
               0
100
AcDbCircle
 10
-581.51556964696863
 20
564.70111608271634
 30
0.0
 40
1.9998779296875
  0
HATCH
  5
62
100
AcDbEntity
  8
0
370
              -2
390
0
  6
Continuous
 62
               0
100
AcDbHatch
 10
0.0
 20
0.0
 30
0.0
210
0.0
220
0.0
230
1.0
  2
SOLID
 70
               1
 71
               1
 91
        1
 92
        1
 93
        1
 72
               2
 10
-581.51556964696863
 20
564.70111608271634
 40
1.9998779296875
 50
0.0
 51
360.0
 73
               0
 97
        1
330
61
 75
               0
 76
               1
 98
        1
 10
0.0
 20
0.0
  0
CIRCLE
  5
63
102
{ACAD_REACTORS
330
64
102
}
100
AcDbEntity
  8
0
370
              -2
390
0
  6
Continuous
 62
               0
100
AcDbCircle
 10
-306.51556964696852
 20
564.70111608271634
 30
0.0
 40
1.9998779296875
  0
HATCH
  5
64
100
AcDbEntity
  8
0
370
              -2
390
0
  6
Continuous
 62
               0
100
AcDbHatch
 10
0.0
 20
0.0
 30
0.0
210
0.0
220
0.0
230
1.0
  2
SOLID
 70
               1
 71
               1
 91
        1
 92
        1
 93
        1
 72
               2
 10
-306.51556964696852
 20
564.70111608271634
 40
1.9998779296875
 50
0.0
 51
360.0
 73
               0
 97
        1
330
63
 75
               0
 76
               1
 98
        1
 10
0.0
 20
0.0
  0
MTEXT
  5
65
100
AcDbEntity
  8
0
390
0
 62
               0
100
AcDbMText
 10
-467.82807132914411
 20
596.07873327021639
 30
0.0
 40
24.432617187500004
 41
0.0
 71
               1
 72
               1
  1
275
  7
ＭＳ ゴシック
 73
               1
 44
0.7828267384257843
  0
POINT
  5
66
100
AcDbEntity
  8
Defpoints
370
               0
390
0
 62
               0
100
AcDbPoint
 10
-306.51556964696852
 20
738.78890094078611
 30
0.0
  0
POINT
  5
67
100
AcDbEntity
  8
Defpoints
370
               0
390
0
 62
               0
100
AcDbPoint
 10
-581.51556964696863
 20
740.70379147284348
 30
0.0
  0
POINT
  5
68
100
AcDbEntity
  8
Defpoints
370
               0
390
0
 62
               0
100
AcDbPoint
 10
-581.51556964696863
 20
564.70111608271634
 30
0.0
  0
ENDBLK
  5
69
100
AcDbEntity
  8
notes
390
0
100
AcDbBlockEnd
  0
BLOCK
  5
6A
100
AcDbEntity
  8
notes
390
0
100
AcDbBlockBegin
  2
*D4
 70
               1
 10
0.0
 20
0.0
 30
0.0
  3
*D4
  1

  0
LINE
  5
6B
100
AcDbEntity
  8
0
370
              -2
390
0
  6
Continuous
 62
               0
100
AcDbLine
 10
-371.01556964696852
 20
1054.7011160827165
 30
0.0
 11
-371.01556964696852
 21
1129.7011160827165
 31
0.0
  0
LINE
  5
6C
100
AcDbEntity
  8
0
370
              -2
390
0
  6
Continuous
 62
               0
100
AcDbLine
 10
-517.01556964696863
 20
1054.7011160827165
 30
0.0
 11
-517.01556964696863
 21
1129.7011160827165
 31
0.0
  0
LINE
  5
6D
100
AcDbEntity
  8
0
370
              -2
390
0
  6
Continuous
 62
               0
100
AcDbLine
 10
-371.01556964696852
 20
1129.7011160827165
 30
0.0
 11
-517.01556964696863
 21
1129.7011160827165
 31
0.0
  0
CIRCLE
  5
6E
102
{ACAD_REACTORS
330
6F
102
}
100
AcDbEntity
  8
0
370
              -2
390
0
  6
Continuous
 62
               0
100
AcDbCircle
 10
-371.01556964696852
 20
1129.7011160827165
 30
0.0
 40
1.9998779296875
  0
HATCH
  5
6F
100
AcDbEntity
  8
0
370
              -2
390
0
  6
Continuous
 62
               0
100
AcDbHatch
 10
0.0
 20
0.0
 30
0.0
210
0.0
220
0.0
230
1.0
  2
SOLID
 70
               1
 71
               1
 91
        1
 92
        1
 93
        1
 72
               2
 10
-371.01556964696852
 20
1129.7011160827165
 40
1.9998779296875
 50
0.0
 51
360.0
 73
               0
 97
        1
330
6E
 75
               0
 76
               1
 98
        1
 10
0.0
 20
0.0
  0
CIRCLE
  5
70
102
{ACAD_REACTORS
330
71
102
}
100
AcDbEntity
  8
0
370
              -2
390
0
  6
Continuous
 62
               0
100
AcDbCircle
 10
-517.01556964696863
 20
1129.7011160827165
 30
0.0
 40
1.9998779296875
  0
HATCH
  5
71
100
AcDbEntity
  8
0
370
              -2
390
0
  6
Continuous
 62
               0
100
AcDbHatch
 10
0.0
 20
0.0
 30
0.0
210
0.0
220
0.0
230
1.0
  2
SOLID
 70
               1
 71
               1
 91
        1
 92
        1
 93
        1
 72
               2
 10
-517.01556964696863
 20
1129.7011160827165
 40
1.9998779296875
 50
0.0
 51
360.0
 73
               0
 97
        1
330
70
 75
               0
 76
               1
 98
        1
 10
0.0
 20
0.0
  0
MTEXT
  5
72
100
AcDbEntity
  8
0
390
0
 62
               0
100
AcDbMText
 10
-467.82807132914411
 20
1161.0787332702164
 30
0.0
 40
24.432617187500004
 41
0.0
 71
               1
 72
               1
  1
146
  7
ＭＳ ゴシック
 73
               1
 44
0.7828267384257843
  0
POINT
  5
73
100
AcDbEntity
  8
Defpoints
370
               0
390
0
 62
               0
100
AcDbPoint
 10
-517.01556964696863
 20
1029.7011160827165
 30
0.0
  0
POINT
  5
74
100
AcDbEntity
  8
Defpoints
370
               0
390
0
 62
               0
100
AcDbPoint
 10
-371.01556964696852
 20
1029.7011160827165
 30
0.0
  0
POINT
  5
75
100
AcDbEntity
  8
Defpoints
370
               0
390
0
 62
               0
100
AcDbPoint
 10
-371.01556964696852
 20
1129.7011160827165
 30
0.0
  0
ENDBLK
  5
76
100
AcDbEntity
  8
notes
390
0
100
AcDbBlockEnd
  0
BLOCK
  5
77
100
AcDbEntity
  8
notes
390
0
100
AcDbBlockBegin
  2
*D5
 70
               1
 10
0.0
 20
0.0
 30
0.0
  3
*D5
  1

  0
LINE
  5
78
100
AcDbEntity
  8
0
370
              -2
390
0
  6
Continuous
 62
               0
100
AcDbLine
 10
-606.51556964696863
 20
789.70111608271645
 30
0.0
 11
-606.51556964696863
 21
514.70111608271645
 31
0.0
  0
LINE
  5
79
100
AcDbEntity
  8
0
370
              -2
390
0
  6
Continuous
 62
               0
100
AcDbLine
 10
-281.51556964696852
 20
789.70111608271645
 30
0.0
 11
-281.51556964696852
 21
514.70111608271645
 31
0.0
  0
LINE
  5
7A
100
AcDbEntity
  8
0
370
              -2
390
0
  6
Continuous
 62
               0
100
AcDbLine
 10
-606.51556964696863
 20
514.70111608271645
 30
0.0
 11
-281.51556964696852
 21
514.70111608271645
 31
0.0
  0
CIRCLE
  5
7B
102
{ACAD_REACTORS
330
7C
102
}
100
AcDbEntity
  8
0
370
              -2
390
0
  6
Continuous
 62
               0
100
AcDbCircle
 10
-606.51556964696863
 20
514.70111608271645
 30
0.0
 40
1.9998779296875
  0
HATCH
  5
7C
100
AcDbEntity
  8
0
370
              -2
390
0
  6
Continuous
 62
               0
100
AcDbHatch
 10
0.0
 20
0.0
 30
0.0
210
0.0
220
0.0
230
1.0
  2
SOLID
 70
               1
 71
               1
 91
        1
 92
        1
 93
        1
 72
               2
 10
-606.51556964696863
 20
514.70111608271645
 40
1.9998779296875
 50
0.0
 51
360.0
 73
               0
 97
        1
330
7B
 75
               0
 76
               1
 98
        1
 10
0.0
 20
0.0
  0
CIRCLE
  5
7D
102
{ACAD_REACTORS
330
7E
102
}
100
AcDbEntity
  8
0
370
              -2
390
0
  6
Continuous
 62
               0
100
AcDbCircle
 10
-281.51556964696852
 20
514.70111608271645
 30
0.0
 40
1.9998779296875
  0
HATCH
  5
7E
100
AcDbEntity
  8
0
370
              -2
390
0
  6
Continuous
 62
               0
100
AcDbHatch
 10
0.0
 20
0.0
 30
0.0
210
0.0
220
0.0
230
1.0
  2
SOLID
 70
               1
 71
               1
 91
        1
 92
        1
 93
        1
 72
               2
 10
-281.51556964696852
 20
514.70111608271645
 40
1.9998779296875
 50
0.0
 51
360.0
 73
               0
 97
        1
330
7D
 75
               0
 76
               1
 98
        1
 10
0.0
 20
0.0
  0
MTEXT
  5
7F
100
AcDbEntity
  8
0
390
0
 62
               0
100
AcDbMText
 10
-467.82807132914411
 20
546.07873327021639
 30
0.0
 40
24.432617187500004
 41
0.0
 71
               1
 72
               1
  1
325
  7
ＭＳ ゴシック
 73
               1
 44
0.7828267384257843
  0
POINT
  5
80
100
AcDbEntity
  8
Defpoints
370
               0
390
0
 62
               0
100
AcDbPoint
 10
-281.51556964696852
 20
814.70111608271645
 30
0.0
  0
POINT
  5
81
100
AcDbEntity
  8
Defpoints
370
               0
390
0
 62
               0
100
AcDbPoint
 10
-606.51556964696863
 20
814.70111608271645
 30
0.0
  0
POINT
  5
82
100
AcDbEntity
  8
Defpoints
370
               0
390
0
 62
               0
100
AcDbPoint
 10
-606.51556964696863
 20
514.70111608271645
 30
0.0
  0
ENDBLK
  5
83
100
AcDbEntity
  8
notes
390
0
100
AcDbBlockEnd
  0
BLOCK
  5
84
100
AcDbEntity
  8
notes
390
0
100
AcDbBlockBegin
  2
*D6
 70
               1
 10
0.0
 20
0.0
 30
0.0
  3
*D6
  1

  0
LINE
  5
85
100
AcDbEntity
  8
0
370
              -2
390
0
  6
Continuous
 62
               0
100
AcDbLine
 10
-344.01556964696852
 20
1029.7011160827165
 30
0.0
 11
-181.51556964696854
 21
1029.7011160827165
 31
0.0
  0
LINE
  5
86
100
AcDbEntity
  8
0
370
              -2
390
0
  6
Continuous
 62
               0
100
AcDbLine
 10
-394.01556964696852
 20
664.70111608271645
 30
0.0
 11
-181.51556964696854
 21
664.70111608271645
 31
0.0
  0
LINE
  5
87
100
AcDbEntity
  8
0
370
              -2
390
0
  6
Continuous
 62
               0
100
AcDbLine
 10
-181.51556964696854
 20
1029.7011160827165
 30
0.0
 11
-181.51556964696854
 21
664.70111608271645
 31
0.0
  0
CIRCLE
  5
88
102
{ACAD_REACTORS
330
89
102
}
100
AcDbEntity
  8
0
370
              -2
390
0
  6
Continuous
 62
               0
100
AcDbCircle
 10
-181.51556964696854
 20
1029.7011160827165
 30
0.0
 40
1.9998779296875
  0
HATCH
  5
89
100
AcDbEntity
  8
0
370
              -2
390
0
  6
Continuous
 62
               0
100
AcDbHatch
 10
0.0
 20
0.0
 30
0.0
210
0.0
220
0.0
230
1.0
  2
SOLID
 70
               1
 71
               1
 91
        1
 92
        1
 93
        1
 72
               2
 10
-181.51556964696854
 20
1029.7011160827165
 40
1.9998779296875
 50
0.0
 51
360.0
 73
               0
 97
        1
330
88
 75
               0
 76
               1
 98
        1
 10
0.0
 20
0.0
  0
CIRCLE
  5
8A
102
{ACAD_REACTORS
330
8B
102
}
100
AcDbEntity
  8
0
370
              -2
390
0
  6
Continuous
 62
               0
100
AcDbCircle
 10
-181.51556964696854
 20
664.70111608271645
 30
0.0
 40
1.9998779296875
  0
HATCH
  5
8B
100
AcDbEntity
  8
0
370
              -2
390
0
  6
Continuous
 62
               0
100
AcDbHatch
 10
0.0
 20
0.0
 30
0.0
210
0.0
220
0.0
230
1.0
  2
SOLID
 70
               1
 71
               1
 91
        1
 92
        1
 93
        1
 72
               2
 10
-181.51556964696854
 20
664.70111608271645
 40
1.9998779296875
 50
0.0
 51
360.0
 73
               0
 97
        1
330
8A
 75
               0
 76
               1
 98
        1
 10
0.0
 20
0.0
  0
MTEXT
  5
8C
100
AcDbEntity
  8
0
390
0
 62
               0
100
AcDbMText
 10
-212.89318683446854
 20
823.38861440054097
 30
0.0
 40
24.432617187500004
 41
0.0
 71
               1
 72
               1
  1
365
  7
ＭＳ ゴシック
 11
0.0
 21
1.0
 31
0.0
 73
               1
 44
0.7828267384257843
  0
POINT
  5
8D
100
AcDbEntity
  8
Defpoints
370
               0
390
0
 62
               0
100
AcDbPoint
 10
-419.01556964696852
 20
664.70111608271645
 30
0.0
  0
POINT
  5
8E
100
AcDbEntity
  8
Defpoints
370
               0
390
0
 62
               0
100
AcDbPoint
 10
-369.01556964696852
 20
1029.7011160827165
 30
0.0
  0
POINT
  5
8F
100
AcDbEntity
  8
Defpoints
370
               0
390
0
 62
               0
100
AcDbPoint
 10
-181.51556964696854
 20
1029.7011160827165
 30
0.0
  0
ENDBLK
  5
90
100
AcDbEntity
  8
notes
390
0
100
AcDbBlockEnd
  0
BLOCK
  5
91
100
AcDbEntity
  8
notes
390
0
100
AcDbBlockBegin
  2
*D7
 70
               1
 10
0.0
 20
0.0
 30
0.0
  3
*D7
  1

  0
LINE
  5
92
100
AcDbEntity
  8
0
370
              -2
390
0
  6
Continuous
 62
               0
100
AcDbLine
 10
-544.01556964696863
 20
1029.7011160827165
 30
0.0
 11
-706.51556964696863
 21
1029.7011160827165
 31
0.0
  0
LINE
  5
93
100
AcDbEntity
  8
0
370
              -2
390
0
  6
Continuous
 62
               0
100
AcDbLine
 10
-553.88183973774585
 20
964.70111608271645
 30
0.0
 11
-706.51556964696863
 21
964.70111608271645
 31
0.0
  0
LINE
  5
94
100
AcDbEntity
  8
0
370
              -2
390
0
  6
Continuous
 62
               0
100
AcDbLine
 10
-706.51556964696863
 20
1029.7011160827165
 30
0.0
 11
-706.51556964696863
 21
964.70111608271645
 31
0.0
  0
CIRCLE
  5
95
102
{ACAD_REACTORS
330
96
102
}
100
AcDbEntity
  8
0
370
              -2
390
0
  6
Continuous
 62
               0
100
AcDbCircle
 10
-706.51556964696863
 20
1029.7011160827165
 30
0.0
 40
1.9998779296875
  0
HATCH
  5
96
100
AcDbEntity
  8
0
370
              -2
390
0
  6
Continuous
 62
               0
100
AcDbHatch
 10
0.0
 20
0.0
 30
0.0
210
0.0
220
0.0
230
1.0
  2
SOLID
 70
               1
 71
               1
 91
        1
 92
        1
 93
        1
 72
               2
 10
-706.51556964696863
 20
1029.7011160827165
 40
1.9998779296875
 50
0.0
 51
360.0
 73
               0
 97
        1
330
95
 75
               0
 76
               1
 98
        1
 10
0.0
 20
0.0
  0
CIRCLE
  5
97
102
{ACAD_REACTORS
330
98
102
}
100
AcDbEntity
  8
0
370
              -2
390
0
  6
Continuous
 62
               0
100
AcDbCircle
 10
-706.51556964696863
 20
964.70111608271645
 30
0.0
 40
1.9998779296875
  0
HATCH
  5
98
100
AcDbEntity
  8
0
370
              -2
390
0
  6
Continuous
 62
               0
100
AcDbHatch
 10
0.0
 20
0.0
 30
0.0
210
0.0
220
0.0
230
1.0
  2
SOLID
 70
               1
 71
               1
 91
        1
 92
        1
 93
        1
 72
               2
 10
-706.51556964696863
 20
964.70111608271645
 40
1.9998779296875
 50
0.0
 51
360.0
 73
               0
 97
        1
330
97
 75
               0
 76
               1
 98
        1
 10
0.0
 20
0.0
  0
MTEXT
  5
99
100
AcDbEntity
  8
0
390
0
 62
               0
100
AcDbMText
 10
-737.89318683446868
 20
981.32611608271645
 30
0.0
 40
24.432617187500004
 41
0.0
 71
               1
 72
               1
  1
65
  7
ＭＳ ゴシック
 11
0.0
 21
1.0
 31
0.0
 73
               1
 44
0.7828267384257843
  0
POINT
  5
9A
100
AcDbEntity
  8
Defpoints
370
               0
390
0
 62
               0
100
AcDbPoint
 10
-528.88183973774585
 20
964.70111608271645
 30
0.0
  0
POINT
  5
9B
100
AcDbEntity
  8
Defpoints
370
               0
390
0
 62
               0
100
AcDbPoint
 10
-519.01556964696863
 20
1029.7011160827165
 30
0.0
  0
POINT
  5
9C
100
AcDbEntity
  8
Defpoints
370
               0
390
0
 62
               0
100
AcDbPoint
 10
-706.51556964696863
 20
1029.7011160827165
 30
0.0
  0
ENDBLK
  5
9D
100
AcDbEntity
  8
notes
390
0
100
AcDbBlockEnd
  0
BLOCK
  5
9E
100
AcDbEntity
  8
notes
390
0
100
AcDbBlockBegin
  2
*D8
 70
               1
 10
0.0
 20
0.0
 30
0.0
  3
*D8
  1

  0
LINE
  5
9F
100
AcDbEntity
  8
0
370
              -2
390
0
  6
Continuous
 62
               0
100
AcDbLine
 10
-555.61811002541219
 20
964.70111608271645
 30
0.0
 11
-706.51556964696852
 21
964.70111608271645
 31
0.0
  0
LINE
  5
A0
100
AcDbEntity
  8
0
370
              -2
390
0
  6
Continuous
 62
               0
100
AcDbLine
 10
-555.61811002541242
 20
689.70111608271645
 30
0.0
 11
-706.51556964696852
 21
689.70111608271645
 31
0.0
  0
LINE
  5
A1
100
AcDbEntity
  8
0
370
              -2
390
0
  6
Continuous
 62
               0
100
AcDbLine
 10
-706.51556964696852
 20
964.70111608271645
 30
0.0
 11
-706.51556964696852
 21
689.70111608271645
 31
0.0
  0
CIRCLE
  5
A2
102
{ACAD_REACTORS
330
A3
102
}
100
AcDbEntity
  8
0
370
              -2
390
0
  6
Continuous
 62
               0
100
AcDbCircle
 10
-706.51556964696852
 20
964.70111608271645
 30
0.0
 40
1.9998779296875
  0
HATCH
  5
A3
100
AcDbEntity
  8
0
370
              -2
390
0
  6
Continuous
 62
               0
100
AcDbHatch
 10
0.0
 20
0.0
 30
0.0
210
0.0
220
0.0
230
1.0
  2
SOLID
 70
               1
 71
               1
 91
        1
 92
        1
 93
        1
 72
               2
 10
-706.51556964696852
 20
964.70111608271645
 40
1.9998779296875
 50
0.0
 51
360.0
 73
               0
 97
        1
330
A2
 75
               0
 76
               1
 98
        1
 10
0.0
 20
0.0
  0
CIRCLE
  5
A4
102
{ACAD_REACTORS
330
A5
102
}
100
AcDbEntity
  8
0
370
              -2
390
0
  6
Continuous
 62
               0
100
AcDbCircle
 10
-706.51556964696852
 20
689.70111608271645
 30
0.0
 40
1.9998779296875
  0
HATCH
  5
A5
100
AcDbEntity
  8
0
370
              -2
390
0
  6
Continuous
 62
               0
100
AcDbHatch
 10
0.0
 20
0.0
 30
0.0
210
0.0
220
0.0
230
1.0
  2
SOLID
 70
               1
 71
               1
 91
        1
 92
        1
 93
        1
 72
               2
 10
-706.51556964696852
 20
689.70111608271645
 40
1.9998779296875
 50
0.0
 51
360.0
 73
               0
 97
        1
330
A4
 75
               0
 76
               1
 98
        1
 10
0.0
 20
0.0
  0
MTEXT
  5
A6
100
AcDbEntity
  8
0
390
0
 62
               0
100
AcDbMText
 10
-737.89318683446857
 20
803.38861440054097
 30
0.0
 40
24.432617187500004
 41
0.0
 71
               1
 72
               1
  1
275
  7
ＭＳ ゴシック
 11
0.0
 21
1.0
 31
0.0
 73
               1
 44
0.7828267384257843
  0
POINT
  5
A7
100
AcDbEntity
  8
Defpoints
370
               0
390
0
 62
               0
100
AcDbPoint
 10
-530.61811002541242
 20
689.70111608271645
 30
0.0
  0
POINT
  5
A8
100
AcDbEntity
  8
Defpoints
370
               0
390
0
 62
               0
100
AcDbPoint
 10
-530.61811002541219
 20
964.70111608271645
 30
0.0
  0
POINT
  5
A9
100
AcDbEntity
  8
Defpoints
370
               0
390
0
 62
               0
100
AcDbPoint
 10
-706.51556964696852
 20
964.70111608271645
 30
0.0
  0
ENDBLK
  5
AA
100
AcDbEntity
  8
notes
390
0
100
AcDbBlockEnd
  0
BLOCK
  5
AB
100
AcDbEntity
  8
notes
390
0
100
AcDbBlockBegin
  2
*D9
 70
               1
 10
0.0
 20
0.0
 30
0.0
  3
*D9
  1

  0
LINE
  5
AC
100
AcDbEntity
  8
0
370
              -2
390
0
  6
Continuous
 62
               0
100
AcDbLine
 10
-260.12766796599954
 20
77.495435473777576
 30
0.0
 11
-98.0
 21
77.495435473777576
 31
0.0
  0
LINE
  5
AD
100
AcDbEntity
  8
0
370
              -2
390
0
  6
Continuous
 62
               0
100
AcDbLine
 10
-260.07161880648391
 20
-822.50456452622257
 30
0.0
 11
-98.0
 21
-822.50456452622257
 31
0.0
  0
LINE
  5
AE
100
AcDbEntity
  8
0
370
              -2
390
0
  6
Continuous
 62
               0
100
AcDbLine
 10
-98.0
 20
77.495435473777576
 30
0.0
 11
-98.0
 21
-822.50456452622257
 31
0.0
  0
CIRCLE
  5
AF
102
{ACAD_REACTORS
330
B0
102
}
100
AcDbEntity
  8
0
370
              -2
390
0
  6
Continuous
 62
               0
100
AcDbCircle
 10
-98.0
 20
77.495435473777576
 30
0.0
 40
1.9998779296875
  0
HATCH
  5
B0
100
AcDbEntity
  8
0
370
              -2
390
0
  6
Continuous
 62
               0
100
AcDbHatch
 10
0.0
 20
0.0
 30
0.0
210
0.0
220
0.0
230
1.0
  2
SOLID
 70
               1
 71
               1
 91
        1
 92
        1
 93
        1
 72
               2
 10
-98.0
 20
77.495435473777576
 40
1.9998779296875
 50
0.0
 51
360.0
 73
               0
 97
        1
330
AF
 75
               0
 76
               1
 98
        1
 10
0.0
 20
0.0
  0
CIRCLE
  5
B1
102
{ACAD_REACTORS
330
B2
102
}
100
AcDbEntity
  8
0
370
              -2
390
0
  6
Continuous
 62
               0
100
AcDbCircle
 10
-98.0
 20
-822.50456452622257
 30
0.0
 40
1.9998779296875
  0
HATCH
  5
B2
100
AcDbEntity
  8
0
370
              -2
390
0
  6
Continuous
 62
               0
100
AcDbHatch
 10
0.0
 20
0.0
 30
0.0
210
0.0
220
0.0
230
1.0
  2
SOLID
 70
               1
 71
               1
 91
        1
 92
        1
 93
        1
 72
               2
 10
-98.0
 20
-822.50456452622257
 40
1.9998779296875
 50
0.0
 51
360.0
 73
               0
 97
        1
330
B1
 75
               0
 76
               1
 98
        1
 10
0.0
 20
0.0
  0
MTEXT
  5
B3
100
AcDbEntity
  8
0
390
0
 62
               0
100
AcDbMText
 10
-129.37761718750002
 20
-371.67076753074434
 30
0.0
 40
24.432617187500004
 41
0.0
 71
               1
 72
               1
  1
900
  7
ＭＳ ゴシック
 11
0.0
 21
1.0
 31
0.0
 73
               1
 44
0.7828267384257843
  0
POINT
  5
B4
100
AcDbEntity
  8
Defpoints
370
               0
390
0
 62
               0
100
AcDbPoint
 10
-285.07161880648391
 20
-822.50456452622257
 30
0.0
  0
POINT
  5
B5
100
AcDbEntity
  8
Defpoints
370
               0
390
0
 62
               0
100
AcDbPoint
 10
-285.12766796599954
 20
77.495435473777576
 30
0.0
  0
POINT
  5
B6
100
AcDbEntity
  8
Defpoints
370
               0
390
0
 62
               0
100
AcDbPoint
 10
-98.0
 20
77.495435473777576
 30
0.0
  0
ENDBLK
  5
B7
100
AcDbEntity
  8
notes
390
0
100
AcDbBlockEnd
  0
BLOCK
  5
B8
100
AcDbEntity
  8
notes
390
0
100
AcDbBlockBegin
  2
*D10
 70
               1
 10
0.0
 20
0.0
 30
0.0
  3
*D10
  1

  0
LINE
  5
B9
100
AcDbEntity
  8
0
370
              -2
390
0
  6
Continuous
 62
               0
100
AcDbLine
 10
-546.58754506719117
 20
-127.50456452622223
 30
0.0
 11
-706.39056964696863
 21
-127.50456452622223
 31
0.0
  0
LINE
  5
BA
100
AcDbEntity
  8
0
370
              -2
390
0
  6
Continuous
 62
               0
100
AcDbLine
 10
-546.58754506719117
 20
-427.50456452622285
 30
0.0
 11
-706.39056964696863
 21
-427.50456452622285
 31
0.0
  0
LINE
  5
BB
100
AcDbEntity
  8
0
370
              -2
390
0
  6
Continuous
 62
               0
100
AcDbLine
 10
-706.39056964696863
 20
-127.50456452622223
 30
0.0
 11
-706.39056964696863
 21
-427.50456452622285
 31
0.0
  0
CIRCLE
  5
BC
102
{ACAD_REACTORS
330
BD
102
}
100
AcDbEntity
  8
0
370
              -2
390
0
  6
Continuous
 62
               0
100
AcDbCircle
 10
-706.39056964696863
 20
-127.50456452622223
 30
0.0
 40
1.9998779296875
  0
HATCH
  5
BD
100
AcDbEntity
  8
0
370
              -2
390
0
  6
Continuous
 62
               0
100
AcDbHatch
 10
0.0
 20
0.0
 30
0.0
210
0.0
220
0.0
230
1.0
  2
SOLID
 70
               1
 71
               1
 91
        1
 92
        1
 93
        1
 72
               2
 10
-706.39056964696863
 20
-127.50456452622223
 40
1.9998779296875
 50
0.0
 51
360.0
 73
               0
 97
        1
330
BC
 75
               0
 76
               1
 98
        1
 10
0.0
 20
0.0
  0
CIRCLE
  5
BE
102
{ACAD_REACTORS
330
BF
102
}
100
AcDbEntity
  8
0
370
              -2
390
0
  6
Continuous
 62
               0
100
AcDbCircle
 10
-706.39056964696863
 20
-427.50456452622285
 30
0.0
 40
1.9998779296875
  0
HATCH
  5
BF
100
AcDbEntity
  8
0
370
              -2
390
0
  6
Continuous
 62
               0
100
AcDbHatch
 10
0.0
 20
0.0
 30
0.0
210
0.0
220
0.0
230
1.0
  2
SOLID
 70
               1
 71
               1
 91
        1
 92
        1
 93
        1
 72
               2
 10
-706.39056964696863
 20
-427.50456452622285
 40
1.9998779296875
 50
0.0
 51
360.0
 73
               0
 97
        1
330
BE
 75
               0
 76
               1
 98
        1
 10
0.0
 20
0.0
  0
MTEXT
  5
C0
100
AcDbEntity
  8
0
390
0
 62
               0
100
AcDbMText
 10
-740.26818683446868
 20
-307.81250168217554
 30
0.0
 40
24.432617187500004
 41
0.0
 71
               1
 72
               1
  1
300
  7
ＭＳ ゴシック
 11
0.0
 21
1.0
 31
0.0
 73
               1
 44
0.7828267384257843
  0
POINT
  5
C1
100
AcDbEntity
  8
Defpoints
370
               0
390
0
 62
               0
100
AcDbPoint
 10
-521.58754506719117
 20
-427.50456452622285
 30
0.0
  0
POINT
  5
C2
100
AcDbEntity
  8
Defpoints
370
               0
390
0
 62
               0
100
AcDbPoint
 10
-521.58754506719117
 20
-127.50456452622223
 30
0.0
  0
POINT
  5
C3
100
AcDbEntity
  8
Defpoints
370
               0
390
0
 62
               0
100
AcDbPoint
 10
-706.39056964696863
 20
-127.50456452622223
 30
0.0
  0
ENDBLK
  5
C4
100
AcDbEntity
  8
notes
390
0
100
AcDbBlockEnd
  0
BLOCK
  5
C5
100
AcDbEntity
  8
notes
390
0
100
AcDbBlockBegin
  2
*D11
 70
               1
 10
0.0
 20
0.0
 30
0.0
  3
*D11
  1

  0
LINE
  5
C6
100
AcDbEntity
  8
0
370
              -2
390
0
  6
Continuous
 62
               0
100
AcDbLine
 10
-542.08754506719117
 20
77.495435473777576
 30
0.0
 11
-706.36254506719115
 21
77.495435473777576
 31
0.0
  0
LINE
  5
C7
100
AcDbEntity
  8
0
370
              -2
390
0
  6
Continuous
 62
               0
100
AcDbLine
 10
-546.58754506719117
 20
-127.50456452622223
 30
0.0
 11
-706.36254506719115
 21
-127.50456452622223
 31
0.0
  0
LINE
  5
C8
100
AcDbEntity
  8
0
370
              -2
390
0
  6
Continuous
 62
               0
100
AcDbLine
 10
-706.36254506719115
 20
77.495435473777576
 30
0.0
 11
-706.36254506719115
 21
-127.50456452622223
 31
0.0
  0
CIRCLE
  5
C9
102
{ACAD_REACTORS
330
CA
102
}
100
AcDbEntity
  8
0
370
              -2
390
0
  6
Continuous
 62
               0
100
AcDbCircle
 10
-706.36254506719115
 20
77.495435473777576
 30
0.0
 40
1.9998779296875
  0
HATCH
  5
CA
100
AcDbEntity
  8
0
370
              -2
390
0
  6
Continuous
 62
               0
100
AcDbHatch
 10
0.0
 20
0.0
 30
0.0
210
0.0
220
0.0
230
1.0
  2
SOLID
 70
               1
 71
               1
 91
        1
 92
        1
 93
        1
 72
               2
 10
-706.36254506719115
 20
77.495435473777576
 40
1.9998779296875
 50
0.0
 51
360.0
 73
               0
 97
        1
330
C9
 75
               0
 76
               1
 98
        1
 10
0.0
 20
0.0
  0
CIRCLE
  5
CB
102
{ACAD_REACTORS
330
CC
102
}
100
AcDbEntity
  8
0
370
              -2
390
0
  6
Continuous
 62
               0
100
AcDbCircle
 10
-706.36254506719115
 20
-127.50456452622223
 30
0.0
 40
1.9998779296875
  0
HATCH
  5
CC
100
AcDbEntity
  8
0
370
              -2
390
0
  6
Continuous
 62
               0
100
AcDbHatch
 10
0.0
 20
0.0
 30
0.0
210
0.0
220
0.0
230
1.0
  2
SOLID
 70
               1
 71
               1
 91
        1
 92
        1
 93
        1
 72
               2
 10
-706.36254506719115
 20
-127.50456452622223
 40
1.9998779296875
 50
0.0
 51
360.0
 73
               0
 97
        1
330
CB
 75
               0
 76
               1
 98
        1
 10
0.0
 20
0.0
  0
MTEXT
  5
CD
100
AcDbEntity
  8
0
390
0
 62
               0
100
AcDbMText
 10
-740.2401622546912
 20
-48.817066208397847
 30
0.0
 40
24.432617187500004
 41
0.0
 71
               1
 72
               1
  1
205
  7
ＭＳ ゴシック
 11
0.0
 21
1.0
 31
0.0
 73
               1
 44
0.7828267384257843
  0
POINT
  5
CE
100
AcDbEntity
  8
Defpoints
370
               0
390
0
 62
               0
100
AcDbPoint
 10
-521.58754506719117
 20
-127.50456452622223
 30
0.0
  0
POINT
  5
CF
100
AcDbEntity
  8
Defpoints
370
               0
390
0
 62
               0
100
AcDbPoint
 10
-517.08754506719117
 20
77.495435473777576
 30
0.0
  0
POINT
  5
D0
100
AcDbEntity
  8
Defpoints
370
               0
390
0
 62
               0
100
AcDbPoint
 10
-706.36254506719115
 20
77.495435473777576
 30
0.0
  0
ENDBLK
  5
D1
100
AcDbEntity
  8
notes
390
0
100
AcDbBlockEnd
  0
BLOCK
  5
D2
100
AcDbEntity
  8
notes
390
0
100
AcDbBlockBegin
  2
*D12
 70
               1
 10
0.0
 20
0.0
 30
0.0
  3
*D12
  1

  0
LINE
  5
D3
100
AcDbEntity
  8
0
370
              -2
390
0
  6
Continuous
 62
               0
100
AcDbLine
 10
-435.0712560837319
 20
-272.50456452622188
 30
0.0
 11
-208.0
 21
-272.50456452622188
 31
0.0
  0
LINE
  5
D4
100
AcDbEntity
  8
0
370
              -2
390
0
  6
Continuous
 62
               0
100
AcDbLine
 10
-578.0708661419809
 20
-822.50456452622257
 30
0.0
 11
-208.00000000000003
 21
-822.50456452622257
 31
0.0
  0
LINE
  5
D5
100
AcDbEntity
  8
0
370
              -2
390
0
  6
Continuous
 62
               0
100
AcDbLine
 10
-208.0
 20
-272.50456452622188
 30
0.0
 11
-208.00000000000003
 21
-822.50456452622257
 31
0.0
  0
CIRCLE
  5
D6
102
{ACAD_REACTORS
330
D7
102
}
100
AcDbEntity
  8
0
370
              -2
390
0
  6
Continuous
 62
               0
100
AcDbCircle
 10
-208.0
 20
-272.50456452622188
 30
0.0
 40
1.9998779296875
  0
HATCH
  5
D7
100
AcDbEntity
  8
0
370
              -2
390
0
  6
Continuous
 62
               0
100
AcDbHatch
 10
0.0
 20
0.0
 30
0.0
210
0.0
220
0.0
230
1.0
  2
SOLID
 70
               1
 71
               1
 91
        1
 92
        1
 93
        1
 72
               2
 10
-208.0
 20
-272.50456452622188
 40
1.9998779296875
 50
0.0
 51
360.0
 73
               0
 97
        1
330
D6
 75
               0
 76
               1
 98
        1
 10
0.0
 20
0.0
  0
CIRCLE
  5
D8
102
{ACAD_REACTORS
330
D9
102
}
100
AcDbEntity
  8
0
370
              -2
390
0
  6
Continuous
 62
               0
100
AcDbCircle
 10
-208.00000000000003
 20
-822.50456452622257
 30
0.0
 40
1.9998779296875
  0
HATCH
  5
D9
100
AcDbEntity
  8
0
370
              -2
390
0
  6
Continuous
 62
               0
100
AcDbHatch
 10
0.0
 20
0.0
 30
0.0
210
0.0
220
0.0
230
1.0
  2
SOLID
 70
               1
 71
               1
 91
        1
 92
        1
 93
        1
 72
               2
 10
-208.00000000000003
 20
-822.50456452622257
 40
1.9998779296875
 50
0.0
 51
360.0
 73
               0
 97
        1
330
D8
 75
               0
 76
               1
 98
        1
 10
0.0
 20
0.0
  0
MTEXT
  5
DA
100
AcDbEntity
  8
0
390
0
 62
               0
100
AcDbMText
 10
-241.87761718750002
 20
-571.31706620839782
 30
0.0
 40
24.432617187500004
 41
0.0
 71
               1
 72
               1
  1
550
  7
ＭＳ ゴシック
 11
0.0
 21
1.0
 31
0.0
 73
               1
 44
0.7828267384257843
  0
POINT
  5
DB
100
AcDbEntity
  8
Defpoints
370
               0
390
0
 62
               0
100
AcDbPoint
 10
-603.0708661419809
 20
-822.50456452622257
 30
0.0
  0
POINT
  5
DC
100
AcDbEntity
  8
Defpoints
370
               0
390
0
 62
               0
100
AcDbPoint
 10
-460.0712560837319
 20
-272.50456452622188
 30
0.0
  0
POINT
  5
DD
100
AcDbEntity
  8
Defpoints
370
               0
390
0
 62
               0
100
AcDbPoint
 10
-208.0
 20
-272.50456452622188
 30
0.0
  0
ENDBLK
  5
DE
100
AcDbEntity
  8
notes
390
0
100
AcDbBlockEnd
  0
BLOCK
  5
DF
100
AcDbEntity
  8
notes
390
0
100
AcDbBlockBegin
  2
*D13
 70
               1
 10
0.0
 20
0.0
 30
0.0
  3
*D13
  1

  0
LINE
  5
E0
100
AcDbEntity
  8
0
370
              -2
390
0
  6
Continuous
 62
               0
100
AcDbLine
 10
-501.58754506719106
 20
-472.50456452622285
 30
0.0
 11
-501.58754506719106
 21
-572.50456452622279
 31
0.0
  0
LINE
  5
E1
100
AcDbEntity
  8
0
370
              -2
390
0
  6
Continuous
 62
               0
100
AcDbLine
 10
-386.58754506719106
 20
-472.50456452622285
 30
0.0
 11
-386.58754506719106
 21
-572.50456452622279
 31
0.0
  0
LINE
  5
E2
100
AcDbEntity
  8
0
370
              -2
390
0
  6
Continuous
 62
               0
100
AcDbLine
 10
-501.58754506719106
 20
-572.50456452622279
 30
0.0
 11
-386.58754506719106
 21
-572.50456452622279
 31
0.0
  0
CIRCLE
  5
E3
102
{ACAD_REACTORS
330
E4
102
}
100
AcDbEntity
  8
0
370
              -2
390
0
  6
Continuous
 62
               0
100
AcDbCircle
 10
-501.58754506719106
 20
-572.50456452622279
 30
0.0
 40
1.9998779296875
  0
HATCH
  5
E4
100
AcDbEntity
  8
0
370
              -2
390
0
  6
Continuous
 62
               0
100
AcDbHatch
 10
0.0
 20
0.0
 30
0.0
210
0.0
220
0.0
230
1.0
  2
SOLID
 70
               1
 71
               1
 91
        1
 92
        1
 93
        1
 72
               2
 10
-501.58754506719106
 20
-572.50456452622279
 40
1.9998779296875
 50
0.0
 51
360.0
 73
               0
 97
        1
330
E3
 75
               0
 76
               1
 98
        1
 10
0.0
 20
0.0
  0
CIRCLE
  5
E5
102
{ACAD_REACTORS
330
E6
102
}
100
AcDbEntity
  8
0
370
              -2
390
0
  6
Continuous
 62
               0
100
AcDbCircle
 10
-386.58754506719106
 20
-572.50456452622279
 30
0.0
 40
1.9998779296875
  0
HATCH
  5
E6
100
AcDbEntity
  8
0
370
              -2
390
0
  6
Continuous
 62
               0
100
AcDbHatch
 10
0.0
 20
0.0
 30
0.0
210
0.0
220
0.0
230
1.0
  2
SOLID
 70
               1
 71
               1
 91
        1
 92
        1
 93
        1
 72
               2
 10
-386.58754506719106
 20
-572.50456452622279
 40
1.9998779296875
 50
0.0
 51
360.0
 73
               0
 97
        1
330
E5
 75
               0
 76
               1
 98
        1
 10
0.0
 20
0.0
  0
MTEXT
  5
E7
100
AcDbEntity
  8
0
390
0
 62
               0
100
AcDbMText
 10
-467.90004674936665
 20
-538.62694733872286
 30
0.0
 40
24.432617187500004
 41
0.0
 71
               1
 72
               1
  1
115
  7
ＭＳ ゴシック
 73
               1
 44
0.7828267384257843
  0
POINT
  5
E8
100
AcDbEntity
  8
Defpoints
370
               0
390
0
 62
               0
100
AcDbPoint
 10
-386.58754506719106
 20
-447.50456452622285
 30
0.0
  0
POINT
  5
E9
100
AcDbEntity
  8
Defpoints
370
               0
390
0
 62
               0
100
AcDbPoint
 10
-501.58754506719106
 20
-447.50456452622285
 30
0.0
  0
POINT
  5
EA
100
AcDbEntity
  8
Defpoints
370
               0
390
0
 62
               0
100
AcDbPoint
 10
-501.58754506719106
 20
-572.50456452622279
 30
0.0
  0
ENDBLK
  5
EB
100
AcDbEntity
  8
notes
390
0
100
AcDbBlockEnd
  0
BLOCK
  5
EC
100
AcDbEntity
  8
notes
390
0
100
AcDbBlockBegin
  2
*D14
 70
               1
 10
0.0
 20
0.0
 30
0.0
  3
*D14
  1

  0
LINE
  5
ED
100
AcDbEntity
  8
0
370
              -2
390
0
  6
Continuous
 62
               0
100
AcDbLine
 10
-431.23838000835417
 20
-262.94855638296229
 30
0.0
 11
-331.48754506719104
 21
-188.66904293674173
 31
0.0
  0
CIRCLE
  5
EE
102
{ACAD_REACTORS
330
EF
102
}
100
AcDbEntity
  8
0
370
              -2
390
0
  6
Continuous
 62
               0
100
AcDbCircle
 10
-431.23838000835417
 20
-262.94855638296229
 30
0.0
 40
1.9998779296875
  0
HATCH
  5
EF
100
AcDbEntity
  8
0
370
              -2
390
0
  6
Continuous
 62
               0
100
AcDbHatch
 10
0.0
 20
0.0
 30
0.0
210
0.0
220
0.0
230
1.0
  2
SOLID
 70
               1
 71
               1
 91
        1
 92
        1
 93
        1
 72
               2
 10
-431.23838000835417
 20
-262.94855638296229
 40
1.9998779296875
 50
0.0
 51
360.0
 73
               0
 97
        1
330
EE
 75
               0
 76
               1
 98
        1
 10
0.0
 20
0.0
  0
LINE
  5
F0
100
AcDbEntity
  8
0
370
              -2
390
0
  6
Continuous
 62
               0
100
AcDbLine
 10
-331.48754506719104
 20
-188.66904293674173
 30
0.0
 11
-207.98754506719106
 21
-188.66904293674173
 31
0.0
  0
MTEXT
  5
F1
100
AcDbEntity
  8
0
390
0
 62
               0
100
AcDbMText
 10
-271.48754506719104
 20
-154.79142574924174
 30
0.0
 40
24.432617187500004
 41
0.0
 71
               1
 72
               1
  1
φ32
  7
ＭＳ ゴシック
 73
               1
 44
0.7828267384257843
  0
POINT
  5
F2
100
AcDbEntity
  8
Defpoints
370
               0
390
0
 62
               0
100
AcDbPoint
 10
-456.90413215910974
 20
-282.06057266948159
 30
0.0
  0
POINT
  5
F3
100
AcDbEntity
  8
Defpoints
370
               0
390
0
 62
               0
100
AcDbPoint
 10
-431.23838000835417
 20
-262.94855638296229
 30
0.0
  0
ENDBLK
  5
F4
100
AcDbEntity
  8
notes
390
0
100
AcDbBlockEnd
  0
BLOCK
  5
F5
100
AcDbEntity
  8
notes
390
0
100
AcDbBlockBegin
  2
*D15
 70
               1
 10
0.0
 20
0.0
 30
0.0
  3
*D15
  1

  0
LINE
  5
F6
100
AcDbEntity
  8
0
370
              -2
390
0
  6
Continuous
 62
               0
100
AcDbLine
 10
244.98443035307079
 20
-72.504564526295695
 30
0.0
 11
168.43873635482421
 21
-72.504564526295695
 31
0.0
  0
LINE
  5
F7
100
AcDbEntity
  8
0
370
              -2
390
0
  6
Continuous
 62
               0
100
AcDbLine
 10
287.04047951258656
 20
77.495435473777576
 30
0.0
 11
168.43873635482421
 21
77.495435473777576
 31
0.0
  0
LINE
  5
F8
100
AcDbEntity
  8
0
370
              -2
390
0
  6
Continuous
 62
               0
100
AcDbLine
 10
168.43873635482421
 20
-72.504564526295695
 30
0.0
 11
168.43873635482421
 21
77.495435473777576
 31
0.0
  0
CIRCLE
  5
F9
102
{ACAD_REACTORS
330
FA
102
}
100
AcDbEntity
  8
0
370
              -2
390
0
  6
Continuous
 62
               0
100
AcDbCircle
 10
168.43873635482421
 20
-72.504564526295695
 30
0.0
 40
1.9998779296875
  0
HATCH
  5
FA
100
AcDbEntity
  8
0
370
              -2
390
0
  6
Continuous
 62
               0
100
AcDbHatch
 10
0.0
 20
0.0
 30
0.0
210
0.0
220
0.0
230
1.0
  2
SOLID
 70
               1
 71
               1
 91
        1
 92
        1
 93
        1
 72
               2
 10
168.43873635482421
 20
-72.504564526295695
 40
1.9998779296875
 50
0.0
 51
360.0
 73
               0
 97
        1
330
F9
 75
               0
 76
               1
 98
        1
 10
0.0
 20
0.0
  0
CIRCLE
  5
FB
102
{ACAD_REACTORS
330
FC
102
}
100
AcDbEntity
  8
0
370
              -2
390
0
  6
Continuous
 62
               0
100
AcDbCircle
 10
168.43873635482421
 20
77.495435473777576
 30
0.0
 40
1.9998779296875
  0
HATCH
  5
FC
100
AcDbEntity
  8
0
370
              -2
390
0
  6
Continuous
 62
               0
100
AcDbHatch
 10
0.0
 20
0.0
 30
0.0
210
0.0
220
0.0
230
1.0
  2
SOLID
 70
               1
 71
               1
 91
        1
 92
        1
 93
        1
 72
               2
 10
168.43873635482421
 20
77.495435473777576
 40
1.9998779296875
 50
0.0
 51
360.0
 73
               0
 97
        1
330
FB
 75
               0
 76
               1
 98
        1
 10
0.0
 20
0.0
  0
MTEXT
  5
FD
100
AcDbEntity
  8
0
390
0
 62
               0
100
AcDbMText
 10
137.06111916732422
 20
-21.317066208434596
 30
0.0
 40
24.432617187500004
 41
0.0
 71
               1
 72
               1
  1
150
  7
ＭＳ ゴシック
 11
0.0
 21
1.0
 31
0.0
 73
               1
 44
0.7828267384257843
  0
POINT
  5
FE
100
AcDbEntity
  8
Defpoints
370
               0
390
0
 62
               0
100
AcDbPoint
 10
312.04047951258656
 20
77.495435473777576
 30
0.0
  0
POINT
  5
FF
100
AcDbEntity
  8
Defpoints
370
               0
390
0
 62
               0
100
AcDbPoint
 10
269.98443035307082
 20
-72.504564526295695
 30
0.0
  0
POINT
  5
100
100
AcDbEntity
  8
Defpoints
370
               0
390
0
 62
               0
100
AcDbPoint
 10
168.43873635482421
 20
-72.504564526295695
 30
0.0
  0
ENDBLK
  5
101
100
AcDbEntity
  8
notes
390
0
100
AcDbBlockEnd
  0
BLOCK
  5
102
100
AcDbEntity
  8
notes
390
0
100
AcDbBlockBegin
  2
*D16
 70
               1
 10
0.0
 20
0.0
 30
0.0
  3
*D16
  1

  0
LINE
  5
103
100
AcDbEntity
  8
0
370
              -2
390
0
  6
Continuous
 62
               0
100
AcDbLine
 10
244.98443035307079
 20
-72.504564526295752
 30
0.0
 11
168.43873635482404
 21
-72.504564526295979
 31
0.0
  0
LINE
  5
104
100
AcDbEntity
  8
0
370
              -2
390
0
  6
Continuous
 62
               0
100
AcDbLine
 10
244.98443035307307
 20
-472.50456452630141
 30
0.0
 11
168.43873635482512
 21
-472.50456452630152
 31
0.0
  0
LINE
  5
105
100
AcDbEntity
  8
0
370
              -2
390
0
  6
Continuous
 62
               0
100
AcDbLine
 10
168.43873635482404
 20
-72.504564526295979
 30
0.0
 11
168.43873635482512
 21
-472.50456452630152
 31
0.0
  0
CIRCLE
  5
106
102
{ACAD_REACTORS
330
107
102
}
100
AcDbEntity
  8
0
370
              -2
390
0
  6
Continuous
 62
               0
100
AcDbCircle
 10
168.43873635482404
 20
-72.504564526295979
 30
0.0
 40
1.9998779296875
  0
HATCH
  5
107
100
AcDbEntity
  8
0
370
              -2
390
0
  6
Continuous
 62
               0
100
AcDbHatch
 10
0.0
 20
0.0
 30
0.0
210
0.0
220
0.0
230
1.0
  2
SOLID
 70
               1
 71
               1
 91
        1
 92
        1
 93
        1
 72
               2
 10
168.43873635482404
 20
-72.504564526295979
 40
1.9998779296875
 50
0.0
 51
360.0
 73
               0
 97
        1
330
106
 75
               0
 76
               1
 98
        1
 10
0.0
 20
0.0
  0
CIRCLE
  5
108
102
{ACAD_REACTORS
330
109
102
}
100
AcDbEntity
  8
0
370
              -2
390
0
  6
Continuous
 62
               0
100
AcDbCircle
 10
168.43873635482512
 20
-472.50456452630152
 30
0.0
 40
1.9998779296875
  0
HATCH
  5
109
100
AcDbEntity
  8
0
370
              -2
390
0
  6
Continuous
 62
               0
100
AcDbHatch
 10
0.0
 20
0.0
 30
0.0
210
0.0
220
0.0
230
1.0
  2
SOLID
 70
               1
 71
               1
 91
        1
 92
        1
 93
        1
 72
               2
 10
168.43873635482512
 20
-472.50456452630152
 40
1.9998779296875
 50
0.0
 51
360.0
 73
               0
 97
        1
330
108
 75
               0
 76
               1
 98
        1
 10
0.0
 20
0.0
  0
MTEXT
  5
10A
100
AcDbEntity
  8
0
390
0
 62
               0
100
AcDbMText
 10
137.06111916732456
 20
-296.31706620847433
 30
0.0
 40
24.432617187500004
 41
0.0
 71
               1
 72
               1
  1
400
  7
ＭＳ ゴシック
 11
0.0
 21
1.0
 31
0.0
 73
               1
 44
0.7828267384257843
  0
POINT
  5
10B
100
AcDbEntity
  8
Defpoints
370
               0
390
0
 62
               0
100
AcDbPoint
 10
269.98443035307309
 20
-472.50456452630129
 30
0.0
  0
POINT
  5
10C
100
AcDbEntity
  8
Defpoints
370
               0
390
0
 62
               0
100
AcDbPoint
 10
269.98443035307082
 20
-72.504564526295695
 30
0.0
  0
POINT
  5
10D
100
AcDbEntity
  8
Defpoints
370
               0
390
0
 62
               0
100
AcDbPoint
 10
168.43873635482404
 20
-72.504564526295979
 30
0.0
  0
ENDBLK
  5
10E
100
AcDbEntity
  8
notes
390
0
100
AcDbBlockEnd
  0
BLOCK
  5
10F
100
AcDbEntity
  8
notes
390
0
100
AcDbBlockBegin
  2
*D17
 70
               1
 10
0.0
 20
0.0
 30
0.0
  3
*D17
  1

  0
LINE
  5
110
100
AcDbEntity
  8
0
370
              -2
390
0
  6
Continuous
 62
               0
100
AcDbLine
 10
495.98443035303148
 20
77.495435473777576
 30
0.0
 11
471.47986582680903
 21
77.495435473777576
 31
0.0
  0
LINE
  5
111
100
AcDbEntity
  8
0
370
              -2
390
0
  6
Continuous
 62
               0
100
AcDbLine
 10
495.98443035303148
 20
-22.504564526222424
 30
0.0
 11
471.47986582680903
 21
-22.504564526222424
 31
0.0
  0
LINE
  5
112
100
AcDbEntity
  8
0
370
              -2
390
0
  6
Continuous
 62
               0
100
AcDbLine
 10
471.47986582680903
 20
77.495435473777576
 30
0.0
 11
471.47986582680903
 21
231.875
 31
0.0
  0
LINE
  5
113
100
AcDbEntity
  8
0
370
              -2
390
0
  6
Continuous
 62
               0
100
AcDbLine
 10
471.47986582680903
 20
77.495435473777576
 30
0.0
 11
471.47986582680903
 21
-22.504564526222424
 31
0.0
  0
CIRCLE
  5
114
102
{ACAD_REACTORS
330
115
102
}
100
AcDbEntity
  8
0
370
              -2
390
0
  6
Continuous
 62
               0
100
AcDbCircle
 10
471.47986582680903
 20
77.495435473777576
 30
0.0
 40
1.9998779296875
  0
HATCH
  5
115
100
AcDbEntity
  8
0
370
              -2
390
0
  6
Continuous
 62
               0
100
AcDbHatch
 10
0.0
 20
0.0
 30
0.0
210
0.0
220
0.0
230
1.0
  2
SOLID
 70
               1
 71
               1
 91
        1
 92
        1
 93
        1
 72
               2
 10
471.47986582680903
 20
77.495435473777576
 40
1.9998779296875
 50
0.0
 51
360.0
 73
               0
 97
        1
330
114
 75
               0
 76
               1
 98
        1
 10
0.0
 20
0.0
  0
CIRCLE
  5
116
102
{ACAD_REACTORS
330
117
102
}
100
AcDbEntity
  8
0
370
              -2
390
0
  6
Continuous
 62
               0
100
AcDbCircle
 10
471.47986582680903
 20
-22.504564526222424
 30
0.0
 40
1.9998779296875
  0
HATCH
  5
117
100
AcDbEntity
  8
0
370
              -2
390
0
  6
Continuous
 62
               0
100
AcDbHatch
 10
0.0
 20
0.0
 30
0.0
210
0.0
220
0.0
230
1.0
  2
SOLID
 70
               1
 71
               1
 91
        1
 92
        1
 93
        1
 72
               2
 10
471.47986582680903
 20
-22.504564526222424
 40
1.9998779296875
 50
0.0
 51
360.0
 73
               0
 97
        1
330
116
 75
               0
 76
               1
 98
        1
 10
0.0
 20
0.0
  0
MTEXT
  5
118
100
AcDbEntity
  8
0
390
0
 62
               0
100
AcDbMText
 10
437.6022486393091
 20
89.0
 30
0.0
 40
24.432617187500004
 41
0.0
 71
               1
 72
               1
  1
100(深さ)
  7
ＭＳ ゴシック
 11
0.0
 21
1.0
 31
0.0
 73
               1
 44
0.7828267384257843
  0
POINT
  5
119
100
AcDbEntity
  8
Defpoints
370
               0
390
0
 62
               0
100
AcDbPoint
 10
470.98443035303148
 20
-22.504564526222424
 30
0.0
  0
POINT
  5
11A
100
AcDbEntity
  8
Defpoints
370
               0
390
0
 62
               0
100
AcDbPoint
 10
470.98443035303148
 20
77.495435473777576
 30
0.0
  0
POINT
  5
11B
100
AcDbEntity
  8
Defpoints
370
               0
390
0
 62
               0
100
AcDbPoint
 10
471.47986582680903
 20
77.495435473777576
 30
0.0
  0
ENDBLK
  5
11C
100
AcDbEntity
  8
notes
390
0
100
AcDbBlockEnd
  0
BLOCK
  5
11D
100
AcDbEntity
  8
notes
390
0
100
AcDbBlockBegin
  2
*D18
 70
               1
 10
0.0
 20
0.0
 30
0.0
  3
*D18
  1

  0
LINE
  5
11E
100
AcDbEntity
  8
0
370
              -2
390
0
  6
Continuous
 62
               0
100
AcDbLine
 10
531.01245493280896
 20
-72.504564526222424
 30
0.0
 11
783.48443035307105
 21
-72.504564526222424
 31
0.0
  0
LINE
  5
11F
100
AcDbEntity
  8
0
370
              -2
390
0
  6
Continuous
 62
               0
100
AcDbLine
 10
654.9283811934763
 20
77.495435473777576
 30
0.0
 11
783.48443035307105
 21
77.495435473777576
 31
0.0
  0
LINE
  5
120
100
AcDbEntity
  8
0
370
              -2
390
0
  6
Continuous
 62
               0
100
AcDbLine
 10
783.48443035307105
 20
-72.504564526222424
 30
0.0
 11
783.48443035307105
 21
77.495435473777576
 31
0.0
  0
CIRCLE
  5
121
102
{ACAD_REACTORS
330
122
102
}
100
AcDbEntity
  8
0
370
              -2
390
0
  6
Continuous
 62
               0
100
AcDbCircle
 10
783.48443035307105
 20
-72.504564526222424
 30
0.0
 40
1.9998779296875
  0
HATCH
  5
122
100
AcDbEntity
  8
0
370
              -2
390
0
  6
Continuous
 62
               0
100
AcDbHatch
 10
0.0
 20
0.0
 30
0.0
210
0.0
220
0.0
230
1.0
  2
SOLID
 70
               1
 71
               1
 91
        1
 92
        1
 93
        1
 72
               2
 10
783.48443035307105
 20
-72.504564526222424
 40
1.9998779296875
 50
0.0
 51
360.0
 73
               0
 97
        1
330
121
 75
               0
 76
               1
 98
        1
 10
0.0
 20
0.0
  0
CIRCLE
  5
123
102
{ACAD_REACTORS
330
124
102
}
100
AcDbEntity
  8
0
370
              -2
390
0
  6
Continuous
 62
               0
100
AcDbCircle
 10
783.48443035307105
 20
77.495435473777576
 30
0.0
 40
1.9998779296875
  0
HATCH
  5
124
100
AcDbEntity
  8
0
370
              -2
390
0
  6
Continuous
 62
               0
100
AcDbHatch
 10
0.0
 20
0.0
 30
0.0
210
0.0
220
0.0
230
1.0
  2
SOLID
 70
               1
 71
               1
 91
        1
 92
        1
 93
        1
 72
               2
 10
783.48443035307105
 20
77.495435473777576
 40
1.9998779296875
 50
0.0
 51
360.0
 73
               0
 97
        1
330
123
 75
               0
 76
               1
 98
        1
 10
0.0
 20
0.0
  0
MTEXT
  5
125
100
AcDbEntity
  8
0
390
0
 62
               0
100
AcDbMText
 10
749.606813165571
 20
-21.317066208397961
 30
0.0
 40
24.432617187500004
 41
0.0
 71
               1
 72
               1
  1
150
  7
ＭＳ ゴシック
 11
0.0
 21
1.0
 31
0.0
 73
               1
 44
0.7828267384257843
  0
POINT
  5
126
100
AcDbEntity
  8
Defpoints
370
               0
390
0
 62
               0
100
AcDbPoint
 10
629.9283811934763
 20
77.495435473777576
 30
0.0
  0
POINT
  5
127
100
AcDbEntity
  8
Defpoints
370
               0
390
0
 62
               0
100
AcDbPoint
 10
506.01245493280896
 20
-72.504564526222424
 30
0.0
  0
POINT
  5
128
100
AcDbEntity
  8
Defpoints
370
               0
390
0
 62
               0
100
AcDbPoint
 10
783.48443035307105
 20
-72.504564526222424
 30
0.0
  0
ENDBLK
  5
129
100
AcDbEntity
  8
notes
390
0
100
AcDbBlockEnd
  0
ENDSEC
  0
SECTION
  2
ENTITIES
  0
MTEXT
  5
12A
100
AcDbEntity
  8
template
390
0
 62
               7
100
AcDbMText
 10
-967.99999999975921
 20
-1147.4176292337004
 30
0.0
 40
16.288411458333332
 41
0.0
 71
               1
 72
               1
  1
品名
  7
ＭＳ ゴシック
 73
               1
 44
0.7828267384257843
  0
MTEXT
  5
12B
100
AcDbEntity
  8
template
390
0
 62
               7
100
AcDbMText
 10
-967.99999999975921
 20
-1232.4176292337004
 30
0.0
 40
16.288411458333332
 41
0.0
 71
               1
 72
               1
  1
仕様
  7
ＭＳ ゴシック
 73
               1
 44
0.7828267384257843
  0
MTEXT
  5
12C
100
AcDbEntity
  8
template
390
0
 62
               7
100
AcDbMText
 10
-914.99999999975921
 20
-1176.0000901712006
 30
0.0
 40
24.432617187500004
 41
0.0
 71
               1
 72
               1
  1
手洗器 -ALAPE-
  7
ＭＳ ゴシック
 73
               1
 44
0.7828267384257843
  0
LINE
  5
12D
100
AcDbEntity
  8
template
370
               5
390
0
  6
Continuous
 62
               7
100
AcDbLine
 10
974.99999999975876
 20
-1224.0027073587005
 30
0.0
 11
-975.00000000024124
 21
-1224.0027073587005
 31
0.0
  0
LWPOLYLINE
  5
12E
100
AcDbEntity
  8
template
370
               5
390
0
  6
Continuous
 62
               7
100
AcDbPolyline
 90
        5
 70
             128
 10
975.00000000024124
 20
1405.9972926412995
 10
-974.99999999975921
 20
1405.9972926412995
 10
-974.99999999975921
 20
-1394.0027073587005
 10
975.00000000024124
 20
-1394.0027073587005
 10
975.00000000024124
 20
1405.9972926412995
  0
LINE
  5
12F
100
AcDbEntity
  8
template
370
               5
390
0
  6
Continuous
 62
               7
100
AcDbLine
 10
974.99999999975876
 20
-1139.0027073587005
 30
0.0
 11
-975.00000000024124
 21
-1139.0027073587005
 31
0.0
  0
LINE
  5
130
100
AcDbEntity
  8
template
370
               5
390
0
  6
Continuous
 62
               7
100
AcDbLine
 10
975.00000000024124
 20
-1309.0027073587005
 30
0.0
 11
222.00000000024124
 21
-1309.0027073587005
 31
0.0
  0
MTEXT
  5
131
100
AcDbEntity
  8
template
390
0
 62
               7
100
AcDbMText
 10
-974.99999999955594
 20
-1405.8565294155574
 30
0.0
 40
21.717881944444446
 41
0.0
 71
               1
 72
               1
  1
120501SH
  7
ＭＳ ゴシック
 73
               1
 44
0.7828267384257843
  0
MTEXT
  5
132
100
AcDbEntity
  8
template
390
0
 62
               7
100
AcDbMText
 10
251.87140625250089
 20
-1338.9131018320081
 30
0.0
 40
24.432617187500004
 41
0.0
 71
               1
 72
               1
  1
大洋金物株式会社 ティーフォルム事業部
  7
ＭＳ ゴシック
 73
               1
 44
0.7828267384257843
  0
INSERT
  5
133
100
AcDbEntity
  8
template
390
0
 62
               7
100
AcDbBlockReference
  2
グループ
 10
0.000000000022311
 20
-60.974157012730352
 30
86.23047980166983
 50
-135.0
210
0.0
220
0.8164965809277262
230
0.5773502691896258
  0
MTEXT
  5
134
100
AcDbEntity
  8
template
390
0
 62
               7
100
AcDbMText
 10
784.00000000049999
 20
-1261.0000901712006
 30
0.0
 40
24.432617187500004
 41
0.0
 71
               1
 72
               1
  1
1:10
  7
ＭＳ ゴシック
 73
               1
 44
0.7828267384257843
  0
MTEXT
  5
135
100
AcDbEntity
  8
template
390
0
 62
               7
100
AcDbMText
 10
731.00000000049999
 20
-1232.4176292337004
 30
0.0
 40
16.288411458333332
 41
0.0
 71
               1
 72
               1
  1
縮尺
  7
ＭＳ ゴシック
 73
               1
 44
0.7828267384257843
  0
LINE
  5
136
100
AcDbEntity
  8
template
370
               5
390
0
  6
Continuous
 62
               7
100
AcDbLine
 10
724.00000000049999
 20
-1309.0027073587005
 30
0.0
 11
724.00000000049999
 21
-1224.0027073587005
 31
0.0
  0
MTEXT
  5
137
100
AcDbEntity
  8
template
390
0
 62
               7
100
AcDbMText
 10
480.00000000049999
 20
-1232.4176292337004
 30
0.0
 40
16.288411458333332
 41
0.0
 71
               1
 72
               1
  1
容量
  7
ＭＳ ゴシック
 73
               1
 44
0.7828267384257843
  0
LINE
  5
138
100
AcDbEntity
  8
template
370
               5
390
0
  6
Continuous
 62
               7
100
AcDbLine
 10
473.00000000049999
 20
-1309.0027073587005
 30
0.0
 11
473.00000000049999
 21
-1224.0027073587005
 31
0.0
  0
MTEXT
  5
139
100
AcDbEntity
  8
template
390
0
 62
               7
100
AcDbMText
 10
229.00000000049999
 20
-1147.4176292337004
 30
0.0
 40
16.288411458333332
 41
0.0
 71
               1
 72
               1
  1
品番
  7
ＭＳ ゴシック
 73
               1
 44
0.7828267384257843
  0
MTEXT
  5
13A
100
AcDbEntity
  8
template
390
0
 62
               7
100
AcDbMText
 10
229.00000000049999
 20
-1232.4176292337004
 30
0.0
 40
16.288411458333332
 41
0.0
 71
               1
 72
               1
  1
重量
  7
ＭＳ ゴシック
 73
               1
 44
0.7828267384257843
  0
MTEXT
  5
13B
100
AcDbEntity
  8
template
390
0
 62
               7
100
AcDbMText
 10
282.00000000049999
 20
-1176.0000901712006
 30
0.0
 40
24.432617187500004
 41
0.0
 71
               1
 72
               1
  1
FAN70-0107
  7
ＭＳ ゴシック
 73
               1
 44
0.7828267384257843
  0
MTEXT
  5
13C
100
AcDbEntity
  8
template
390
0
 62
               7
100
AcDbMText
 10
282.00000000049999
 20
-1261.0000901712006
 30
0.0
 40
24.432617187500004
 41
0.0
 71
               1
 72
               1
  1
21kg
  7
ＭＳ ゴシック
 73
               1
 44
0.7828267384257843
  0
LINE
  5
13D
100
AcDbEntity
  8
template
370
               5
390
0
  6
Continuous
 62
               7
100
AcDbLine
 10
222.00000000049999
 20
-1394.0027073587005
 30
0.0
 11
222.00000000049999
 21
-1139.0027073587005
 31
0.0
  0
MTEXT
  5
13E
100
AcDbEntity
  8
template
390
0
 62
               7
100
AcDbMText
 10
-914.99999999975921
 20
-1261.0000901712006
 30
0.0
 40
24.432617187500004
 41
0.0
 71
               1
 72
               1
  1
フロアースタンド/オーバーフローなし/壁取付ボルト付属/\P鋼板ホーロー/ホワイト
  7
ＭＳ ゴシック
 73
               1
 44
1.1307497332816883
  0
MTEXT
  5
13F
100
AcDbEntity
  8
template
390
0
 62
               7
100
AcDbMText
 10
539.00000000049999
 20
-1261.0000901712006
 30
0.0
 40
24.432617187500004
 41
0.0
 71
               1
 72
               1
  1
3.8L
  7
ＭＳ ゴシック
 73
               1
 44
0.7828267384257843
  0
MTEXT
  5
140
100
AcDbEntity
  8
notes
390
0
 62
               7
100
AcDbMText
 10
-226.30526995403739
 20
133.20836723441775
 30
0.0
 40
24.432617187500004
 41
0.0
 71
               1
 72
               1
  1
壁取付ボルト穴(4ヶ所)
  7
ＭＳ ゴシック
 73
               1
 44
0.7828267384257843
  0
LINE
  5
141
100
AcDbEntity
  8
notes
370
               5
390
0
  6
Continuous
 62
               7
100
AcDbLine
 10
-386.58754506719106
 20
-127.50456452622223
 30
0.0
 11
-207.48754506719109
 21
98.699006592105889
 31
0.0
  0
DIMENSION
  5
142
100
AcDbEntity
  8
notes
370
               5
390
0
  6
Continuous
 62
               7
100
AcDbDimension
  2
*D3
 10
-581.51556964696863
 20
564.70111608271634
 30
0.0
 11
-444.01556964696863
 21
564.70111608271634
 31
0.0
 71
               5
 72
               1
 41
1.0
 42
0.0
  3
tfrom線あり
100
AcDbAlignedDimension
 13
-306.51556964696852
 23
738.78890094078611
 33
0.0
 14
-581.51556964696863
 24
740.70379147284348
 34
0.0
100
AcDbRotatedDimension
1001
ACAD
1000
DSTYLE
1002
{
1070
             271
1070
               4
1070
             279
1070
               2
1070
             340
1005
34
1070
             147
1040
2.5
1002
}
  0
DIMENSION
  5
143
100
AcDbEntity
  8
notes
370
               5
390
0
  6
Continuous
 62
               7
100
AcDbDimension
  2
*D4
 10
-371.01556964696852
 20
1129.7011160827165
 30
0.0
 11
-444.01556964696863
 21
1129.7011160827165
 31
0.0
 71
               5
 72
               1
 41
1.0
 42
0.0
  3
tfrom線あり
100
AcDbAlignedDimension
 13
-517.01556964696863
 23
1029.7011160827165
 33
0.0
 14
-371.01556964696852
 24
1029.7011160827165
 34
0.0
100
AcDbRotatedDimension
1001
ACAD
1000
DSTYLE
1002
{
1070
             271
1070
               4
1070
             279
1070
               2
1070
             340
1005
34
1070
             147
1040
2.5
1002
}
  0
DIMENSION
  5
144
100
AcDbEntity
  8
notes
370
               5
390
0
  6
Continuous
 62
               7
100
AcDbDimension
  2
*D5
 10
-606.51556964696863
 20
514.70111608271645
 30
0.0
 11
-444.01556964696863
 21
514.70111608271645
 31
0.0
 71
               5
 72
               1
 41
1.0
 42
0.0
  3
tfrom線あり
100
AcDbAlignedDimension
 13
-281.51556964696852
 23
814.70111608271645
 33
0.0
 14
-606.51556964696863
 24
814.70111608271645
 34
0.0
100
AcDbRotatedDimension
1001
ACAD
1000
DSTYLE
1002
{
1070
             271
1070
               4
1070
             279
1070
               2
1070
             340
1005
34
1070
             147
1040
2.5
1002
}
  0
DIMENSION
  5
145
100
AcDbEntity
  8
notes
370
               5
390
0
  6
Continuous
 62
               7
100
AcDbDimension
  2
*D6
 10
-181.51556964696854
 20
1029.7011160827165
 30
0.0
 11
-181.51556964696854
 21
847.20111608271645
 31
0.0
 71
               5
 72
               1
 41
1.0
 42
0.0
  3
tfrom線あり
100
AcDbAlignedDimension
 13
-419.01556964696852
 23
664.70111608271645
 33
0.0
 14
-369.01556964696852
 24
1029.7011160827165
 34
0.0
 50
90.0
100
AcDbRotatedDimension
1001
ACAD
1000
DSTYLE
1002
{
1070
             279
1070
               2
1070
             340
1005
34
1070
             147
1040
2.5
1002
}
  0
DIMENSION
  5
146
100
AcDbEntity
  8
notes
370
               5
390
0
  6
Continuous
 62
               7
100
AcDbDimension
  2
*D7
 10
-706.51556964696863
 20
1029.7011160827165
 30
0.0
 11
-706.51556964696863
 21
997.20111608271645
 31
0.0
 71
               5
 72
               1
 41
1.0
 42
0.0
  3
tfrom線あり
100
AcDbAlignedDimension
 13
-528.88183973774585
 23
964.70111608271645
 33
0.0
 14
-519.01556964696863
 24
1029.7011160827165
 34
0.0
 50
90.0
100
AcDbRotatedDimension
1001
ACAD
1000
DSTYLE
1002
{
1070
             279
1070
               2
1070
             340
1005
34
1070
             147
1040
2.5
1002
}
  0
DIMENSION
  5
147
100
AcDbEntity
  8
notes
370
               5
390
0
  6
Continuous
 62
               7
100
AcDbDimension
  2
*D8
 10
-706.51556964696852
 20
964.70111608271645
 30
0.0
 11
-706.51556964696852
 21
827.20111608271645
 31
0.0
 71
               5
 72
               1
 41
1.0
 42
0.0
  3
tfrom線あり
100
AcDbAlignedDimension
 13
-530.61811002541242
 23
689.70111608271645
 33
0.0
 14
-530.61811002541219
 24
964.70111608271645
 34
0.0
 50
90.0
100
AcDbRotatedDimension
1001
ACAD
1000
DSTYLE
1002
{
1070
             279
1070
               2
1070
             340
1005
34
1070
             147
1040
2.5
1002
}
  0
DIMENSION
  5
148
100
AcDbEntity
  8
notes
370
               5
390
0
  6
Continuous
 62
               7
100
AcDbDimension
  2
*D9
 10
-98.0
 20
77.495435473777576
 30
0.0
 11
-95.5
 21
-347.85826584856881
 31
0.0
 70
             128
 71
               5
 72
               1
 41
1.0
 42
0.0
  3
tfrom線あり
100
AcDbAlignedDimension
 13
-285.07161880648391
 23
-822.50456452622257
 33
0.0
 14
-285.12766796599954
 24
77.495435473777576
 34
0.0
 50
90.0
100
AcDbRotatedDimension
1001
ACAD
1000
DSTYLE
1002
{
1070
             271
1070
               2
1070
             279
1070
               2
1070
             340
1005
34
1070
             147
1040
2.5
1002
}
  0
DIMENSION
  5
149
100
AcDbEntity
  8
notes
370
               5
390
0
  6
Continuous
 62
               7
100
AcDbDimension
  2
*D10
 10
-706.39056964696863
 20
-127.50456452622223
 30
0.0
 11
-711.39056964696863
 21
-284.0
 31
0.0
 70
             128
 71
               5
 72
               1
 41
1.0
 42
0.0
  3
tfrom線あり
100
AcDbAlignedDimension
 13
-521.58754506719117
 23
-427.50456452622285
 33
0.0
 14
-521.58754506719117
 24
-127.50456452622223
 34
0.0
 50
90.0
100
AcDbRotatedDimension
1001
ACAD
1000
DSTYLE
1002
{
1070
             279
1070
               2
1070
             340
1005
34
1070
             147
1040
5.0
1002
}
  0
DIMENSION
  5
14A
100
AcDbEntity
  8
notes
370
               5
390
0
  6
Continuous
 62
               7
100
AcDbDimension
  2
*D11
 10
-706.36254506719115
 20
77.495435473777576
 30
0.0
 11
-706.36254506719115
 21
-25.00456452622231
 31
0.0
 71
               5
 72
               1
 41
1.0
 42
0.0
  3
tfrom線あり
100
AcDbAlignedDimension
 13
-521.58754506719117
 23
-127.50456452622223
 33
0.0
 14
-517.08754506719117
 24
77.495435473777576
 34
0.0
 50
90.0
100
AcDbRotatedDimension
1001
ACAD
1000
DSTYLE
1002
{
1070
             279
1070
               2
1070
             340
1005
34
1070
             147
1040
5.0
1002
}
  0
DIMENSION
  5
14B
100
AcDbEntity
  8
notes
370
               5
390
0
  6
Continuous
 62
               7
100
AcDbDimension
  2
*D12
 10
-208.0
 20
-272.50456452622188
 30
0.0
 11
-208.0
 21
-547.50456452622211
 31
0.0
 71
               5
 72
               1
 41
1.0
 42
0.0
  3
tfrom線あり
100
AcDbAlignedDimension
 13
-603.0708661419809
 23
-822.50456452622257
 33
0.0
 14
-460.0712560837319
 24
-272.50456452622188
 34
0.0
 50
90.0
100
AcDbRotatedDimension
1001
ACAD
1000
DSTYLE
1002
{
1070
             279
1070
               2
1070
             340
1005
34
1070
             147
1040
5.0
1002
}
  0
DIMENSION
  5
14C
100
AcDbEntity
  8
notes
370
               5
390
0
  6
Continuous
 62
               7
100
AcDbDimension
  2
*D13
 10
-501.58754506719106
 20
-572.50456452622279
 30
0.0
 11
-444.08754506719106
 21
-572.50456452622279
 31
0.0
 71
               5
 72
               1
 41
1.0
 42
0.0
  3
tfrom線あり
100
AcDbAlignedDimension
 13
-386.58754506719106
 23
-447.50456452622285
 33
0.0
 14
-501.58754506719106
 24
-447.50456452622285
 34
0.0
100
AcDbRotatedDimension
1001
ACAD
1000
DSTYLE
1002
{
1070
             279
1070
               2
1070
             340
1005
34
1070
             147
1040
5.0
1002
}
  0
DIMENSION
  5
14D
100
AcDbEntity
  8
notes
370
               5
390
0
  6
Continuous
 62
               7
100
AcDbDimension
  2
*D14
 10
-456.90413215910974
 20
-282.06057266948159
 30
0.0
 11
-271.48754506719115
 21
-188.66904293674162
 31
0.0
 70
               3
 71
               5
 72
               1
 41
1.0
 42
0.0
  3
tfrom線あり
100
AcDbDiametricDimension
 15
-431.23838000835417
 25
-262.94855638296229
 35
0.0
 40
124.36910866154197
1001
ACAD
1000
DSTYLE
1002
{
1070
             289
1070
               0
1070
             342
1005
47
1070
             340
1005
34
1070
              73
1070
               1
1070
              74
1070
               1
1070
              75
1070
               1
1070
              76
1070
               1
1070
               3
1000

1070
             174
1070
               0
1070
             147
1040
5.0
1002
}
  0
DIMENSION
  5
14E
100
AcDbEntity
  8
notes
370
               5
390
0
  6
Continuous
 62
               7
100
AcDbDimension
  2
*D15
 10
168.43873635482421
 20
-72.504564526295695
 30
0.0
 11
168.43873635482421
 21
2.4954354737409403
 31
0.0
 71
               5
 72
               1
 41
1.0
 42
0.0
  3
tfrom線あり
100
AcDbAlignedDimension
 13
312.04047951258656
 23
77.495435473777576
 33
0.0
 14
269.98443035307082
 24
-72.504564526295695
 34
0.0
 50
90.0
100
AcDbRotatedDimension
1001
ACAD
1000
DSTYLE
1002
{
1070
             271
1070
               2
1070
             279
1070
               2
1070
             340
1005
34
1070
             147
1040
2.5
1002
}
  0
DIMENSION
  5
14F
100
AcDbEntity
  8
notes
370
               5
390
0
  6
Continuous
 62
               7
100
AcDbDimension
  2
*D16
 10
168.43873635482404
 20
-72.504564526295979
 30
0.0
 11
168.43873635482458
 21
-272.50456452629879
 31
0.0
 71
               5
 72
               1
 41
1.0
 42
0.0
  3
tfrom線あり
100
AcDbAlignedDimension
 13
269.98443035307309
 23
-472.50456452630129
 33
0.0
 14
269.98443035307082
 24
-72.504564526295695
 34
0.0
 50
89.999999999999844
100
AcDbRotatedDimension
1001
ACAD
1000
DSTYLE
1002
{
1070
             271
1070
               2
1070
             279
1070
               2
1070
             340
1005
34
1070
             147
1040
2.5
1002
}
  0
DIMENSION
  5
150
100
AcDbEntity
  8
notes
370
               5
390
0
  6
Continuous
 62
               7
100
AcDbDimension
  2
*D17
 10
471.47986582680903
 20
77.495435473777576
 30
0.0
 11
476.47986582680903
 21
89.0
 31
0.0
 70
             128
 71
               5
 72
               1
 41
1.0
 42
0.0
  3
tfrom線あり
100
AcDbAlignedDimension
 13
470.98443035303148
 23
-22.504564526222424
 33
0.0
 14
470.98443035303148
 24
77.495435473777576
 34
0.0
 50
90.0
100
AcDbRotatedDimension
1001
ACAD
1000
DSTYLE
1002
{
1070
             279
1070
               2
1070
             340
1005
34
1070
               3
1000
<>(深さ)
1070
             174
1070
               0
1070
             147
1040
5.0
1002
}
  0
DIMENSION
  5
151
100
AcDbEntity
  8
notes
370
               5
390
0
  6
Continuous
 62
               7
100
AcDbDimension
  2
*D18
 10
783.48443035307105
 20
-72.504564526222424
 30
0.0
 11
783.48443035307105
 21
2.4954354737775759
 31
0.0
 71
               5
 72
               1
 41
1.0
 42
0.0
  3
tfrom線あり
100
AcDbAlignedDimension
 13
629.9283811934763
 23
77.495435473777576
 33
0.0
 14
506.01245493280896
 24
-72.504564526222424
 34
0.0
 50
90.0
100
AcDbRotatedDimension
1001
ACAD
1000
DSTYLE
1002
{
1070
             279
1070
               2
1070
             340
1005
34
1070
             147
1040
5.0
1002
}
  0
LINE
  5
152
100
AcDbEntity
  8
FAN70-0107
370
              15
390
0
  6
Continuous
 62
               7
100
AcDbLine
 10
308.54047951258656
 20
73.995435473777576
 30
0.0
 11
308.54047951258656
 21
27.495435473777576
 31
0.0
  0
LINE
  5
153
100
AcDbEntity
  8
FAN70-0107
370
              15
390
0
  6
Continuous
 62
               7
100
AcDbLine
 10
633.42838119355531
 20
27.495435473777576
 30
0.0
 11
633.42838119355531
 21
73.995435473777576
 31
0.0
  0
ARC
  5
154
100
AcDbEntity
  8
FAN70-0107
370
              15
390
0
  6
Continuous
 62
               7
100
AcDbCircle
 10
629.92838119355531
 20
73.995435473777576
 30
0.0
 40
3.5
100
AcDbArc
 50
0.0
 51
90.0
  0
ARC
  5
155
100
AcDbEntity
  8
FAN70-0107
370
              15
390
0
  6
Continuous
 62
               7
100
AcDbCircle
 10
312.04047951258656
 20
73.995435473777576
 30
0.0
 40
3.5
100
AcDbArc
 50
90.0
 51
180.0
  0
LINE
  5
156
100
AcDbEntity
  8
FAN70-0107
370
              15
390
0
  6
Continuous
 62
               7
100
AcDbLine
 10
633.48443035307093
 20
-819.00456452622257
 30
0.0
 11
633.48443035307093
 21
26.495435473777576
 31
0.0
  0
ARC
  5
157
100
AcDbEntity
  8
FAN70-0107
370
              15
390
0
  6
Continuous
 62
               7
100
AcDbCircle
 10
629.98443035307093
 20
-819.00456452622257
 30
0.0
 40
3.5
100
AcDbArc
 50
270.0
 51
0.0
  0
LINE
  5
158
100
AcDbEntity
  8
FAN70-0107
370
              15
390
0
  6
Continuous
 62
               7
100
AcDbLine
 10
269.9844303529834
 20
-105.50456452624562
 30
0.0
 11
268.43873635482419
 21
-105.50456452624562
 31
0.0
  0
LINE
  5
159
100
AcDbEntity
  8
FAN70-0107
370
              15
390
0
  6
Continuous
 62
               7
100
AcDbLine
 10
268.43873635482419
 20
-105.50456452624562
 30
0.0
 11
268.43873635482419
 21
-75.504564526245673
 31
0.0
  0
LINE
  5
15A
100
AcDbEntity
  8
FAN70-0107
370
              15
390
0
  6
Continuous
 62
               7
100
AcDbLine
 10
268.43873635482419
 20
-75.504564526245673
 30
0.0
 11
269.98443035307196
 21
-75.504564526245673
 31
0.0
  0
LINE
  5
15B
100
AcDbEntity
  8
FAN70-0107
370
              15
390
0
  6
Continuous
 62
               7
100
AcDbLine
 10
268.43873635482407
 20
-122.5045645262455
 30
0.0
 11
268.43873635482419
 21
-107.00456452624562
 31
0.0
  0
LINE
  5
15C
100
AcDbEntity
  8
FAN70-0107
370
              15
390
0
  6
Continuous
 62
               7
100
AcDbLine
 10
269.98443035298328
 20
-107.00456452624562
 30
0.0
 11
268.43873635482419
 21
-107.00456452624562
 31
0.0
  0
LINE
  5
15D
100
AcDbEntity
  8
FAN70-0107
370
              15
390
0
  6
Continuous
 62
               7
100
AcDbLine
 10
268.43873635482407
 20
-122.5045645262455
 30
0.0
 11
269.98443035307105
 21
-122.5045645262455
 31
0.0
  0
LINE
  5
15E
100
AcDbEntity
  8
FAN70-0107
370
              15
390
0
  6
Continuous
 62
               7
100
AcDbLine
 10
268.43873635482419
 20
-145.50456452624536
 30
0.0
 11
268.43873635482407
 21
-134.50456452624542
 31
0.0
  0
LINE
  5
15F
100
AcDbEntity
  8
FAN70-0107
370
              15
390
0
  6
Continuous
 62
               7
100
AcDbLine
 10
269.98443035307116
 20
-145.50456452624536
 30
0.0
 11
268.43873635482419
 21
-145.50456452624536
 31
0.0
  0
LINE
  5
160
100
AcDbEntity
  8
FAN70-0107
370
              15
390
0
  6
Continuous
 62
               7
100
AcDbLine
 10
268.43873635482407
 20
-134.50456452624542
 30
0.0
 11
269.98443035307105
 21
-134.50456452624542
 31
0.0
  0
LINE
  5
161
100
AcDbEntity
  8
FAN70-0107
370
              15
390
0
  6
Continuous
 62
               7
100
AcDbLine
 10
268.43873635482419
 20
-105.50456452624562
 30
0.0
 11
268.43873635482419
 21
-107.00456452624562
 31
0.0
  0
LINE
  5
162
100
AcDbEntity
  8
FAN70-0107
370
              15
390
0
  6
Continuous
 62
               7
100
AcDbLine
 10
268.43873635482407
 20
-134.50456452624542
 30
0.0
 11
268.43873635482407
 21
-122.5045645262455
 31
0.0
  0
LINE
  5
163
100
AcDbEntity
  8
FAN70-0107
370
              15
390
0
  6
Continuous
 62
               7
100
AcDbLine
 10
269.98443035298351
 20
-405.50456452624371
 30
0.0
 11
268.43873635483976
 21
-405.50456452624371
 31
0.0
  0
LINE
  5
164
100
AcDbEntity
  8
FAN70-0107
370
              15
390
0
  6
Continuous
 62
               7
100
AcDbLine
 10
268.43873635483976
 20
-405.50456452624371
 30
0.0
 11
268.43873635483976
 21
-375.50456452624331
 31
0.0
  0
LINE
  5
165
100
AcDbEntity
  8
FAN70-0107
370
              15
390
0
  6
Continuous
 62
               7
100
AcDbLine
 10
268.43873635483976
 20
-375.50456452624331
 30
0.0
 11
269.9844303529834
 21
-375.50456452624331
 31
0.0
  0
LINE
  5
166
100
AcDbEntity
  8
FAN70-0107
370
              15
390
0
  6
Continuous
 62
               7
100
AcDbLine
 10
268.43873635483976
 20
-445.50456452624377
 30
0.0
 11
268.43873635483976
 21
-434.50456452624377
 31
0.0
  0
LINE
  5
167
100
AcDbEntity
  8
FAN70-0107
370
              15
390
0
  6
Continuous
 62
               7
100
AcDbLine
 10
269.98443035307241
 20
-445.50456452624377
 30
0.0
 11
268.43873635483976
 21
-445.50456452624377
 31
0.0
  0
LINE
  5
168
100
AcDbEntity
  8
FAN70-0107
370
              15
390
0
  6
Continuous
 62
               7
100
AcDbLine
 10
268.43873635483976
 20
-434.50456452624377
 30
0.0
 11
269.9844303530723
 21
-434.50456452624377
 31
0.0
  0
LINE
  5
169
100
AcDbEntity
  8
FAN70-0107
370
              15
390
0
  6
Continuous
 62
               7
100
AcDbLine
 10
268.43873635483976
 20
-422.50456452624377
 30
0.0
 11
268.43873635483976
 21
-407.00456452624377
 31
0.0
  0
LINE
  5
16A
100
AcDbEntity
  8
FAN70-0107
370
              15
390
0
  6
Continuous
 62
               7
100
AcDbLine
 10
269.9844303529834
 20
-407.00456452624377
 30
0.0
 11
268.43873635483976
 21
-407.00456452624377
 31
0.0
  0
LINE
  5
16B
100
AcDbEntity
  8
FAN70-0107
370
              15
390
0
  6
Continuous
 62
               7
100
AcDbLine
 10
268.43873635483976
 20
-422.50456452624377
 30
0.0
 11
269.9844303530723
 21
-422.50456452624377
 31
0.0
  0
LINE
  5
16C
100
AcDbEntity
  8
FAN70-0107
370
              15
390
0
  6
Continuous
 62
               7
100
AcDbLine
 10
268.43873635483976
 20
-405.50456452624371
 30
0.0
 11
268.43873635483976
 21
-407.00456452624377
 31
0.0
  0
LINE
  5
16D
100
AcDbEntity
  8
FAN70-0107
370
              15
390
0
  6
Continuous
 62
               7
100
AcDbLine
 10
268.43873635483976
 20
-434.50456452624377
 30
0.0
 11
268.43873635483976
 21
-422.50456452624377
 31
0.0
  0
LINE
  5
16E
100
AcDbEntity
  8
FAN70-0107
370
              15
390
0
  6
Continuous
 62
               7
100
AcDbLine
 10
324.81586328066817
 20
-72.504564526295468
 30
0.0
 11
269.98443035307082
 21
-72.504564526295695
 31
0.0
  0
POLYLINE
  5
16F
100
AcDbEntity
  8
FAN70-0107
370
              15
390
0
  6
Continuous
 62
               7
100
AcDb2dPolyline
 66
               1
 10
0.0
 20
0.0
 30
0.0
 75
               5
  0
VERTEX
  5
170
100
AcDbEntity
  8
FAN70-0107
370
              15
390
0
  6
Continuous
 62
               7
100
AcDbVertex
100
AcDb2dVertex
 10
325.86710828342473
 20
-76.504564526299788
 30
0.0
  0
VERTEX
  5
171
100
AcDbEntity
  8
FAN70-0107
370
              15
390
0
  6
Continuous
 62
               7
100
AcDbVertex
100
AcDb2dVertex
 10
325.81366802246976
 20
-75.21805262191279
 30
0.0
  0
VERTEX
  5
172
100
AcDbEntity
  8
FAN70-0107
370
              15
390
0
  6
Continuous
 62
               7
100
AcDbVertex
100
AcDb2dVertex
 10
325.66070927947737
 20
-74.073510372286279
 30
0.0
  0
VERTEX
  5
173
100
AcDbEntity
  8
FAN70-0107
370
              15
390
0
  6
Continuous
 62
               7
100
AcDbVertex
100
AcDb2dVertex
 10
325.42324663881652
 20
-73.178343321865583
 30
0.0
  0
VERTEX
  5
174
100
AcDbEntity
  8
FAN70-0107
370
              15
390
0
  6
Continuous
 62
               7
100
AcDbVertex
100
AcDb2dVertex
 10
325.12313876308133
 20
-72.632563053238215
 30
0.0
  0
VERTEX
  5
175
100
AcDbEntity
  8
FAN70-0107
370
              15
390
0
  6
Continuous
 62
               7
100
AcDbVertex
100
AcDb2dVertex
 10
324.87817735661031
 20
-72.504564526295923
 30
0.0
  0
SEQEND
  5
176
100
AcDbEntity
  8
FAN70-0107
370
              15
390
0
  6
Continuous
 62
               7
  0
LINE
  5
177
100
AcDbEntity
  8
FAN70-0107
370
              15
390
0
  6
Continuous
 62
               7
100
AcDbLine
 10
269.98443035307082
 20
-72.504564526295695
 30
0.0
 11
269.98443035307196
 21
-76.504564526300015
 31
0.0
  0
LINE
  5
178
100
AcDbEntity
  8
FAN70-0107
370
              15
390
0
  6
Continuous
 62
               7
100
AcDbLine
 10
325.86710828342598
 20
-468.50456452630493
 30
0.0
 11
325.86710828342473
 21
-76.504564526299788
 31
0.0
  0
LINE
  5
179
100
AcDbEntity
  8
FAN70-0107
370
              15
390
0
  6
Continuous
 62
               7
100
AcDbLine
 10
269.98443035307196
 20
-76.504564526300015
 30
0.0
 11
269.98443035307196
 21
-468.50456452630516
 31
0.0
  0
LINE
  5
17A
100
AcDbEntity
  8
FAN70-0107
370
              15
390
0
  6
Continuous
 62
               7
100
AcDbLine
 10
324.81586328046933
 20
-472.50456452630084
 30
0.0
 11
269.98443035307321
 21
-472.50456452630107
 31
0.0
  0
LINE
  5
17B
100
AcDbEntity
  8
FAN70-0107
370
              15
390
0
  6
Continuous
 62
               7
100
AcDbLine
 10
269.98443035307196
 20
-468.50456452630516
 30
0.0
 11
269.98443035307321
 21
-472.50456452630107
 31
0.0
  0
POLYLINE
  5
17C
100
AcDbEntity
  8
FAN70-0107
370
              15
390
0
  6
Continuous
 62
               7
100
AcDb2dPolyline
 66
               1
 10
0.0
 20
0.0
 30
0.0
 75
               5
  0
VERTEX
  5
17D
100
AcDbEntity
  8
FAN70-0107
370
              15
390
0
  6
Continuous
 62
               7
100
AcDbVertex
100
AcDb2dVertex
 10
324.87817735661281
 20
-472.50456452630084
 30
0.0
  0
VERTEX
  5
17E
100
AcDbEntity
  8
FAN70-0107
370
              15
390
0
  6
Continuous
 62
               7
100
AcDbVertex
100
AcDb2dVertex
 10
325.21076002196128
 20
-472.2660098169427
 30
0.0
  0
VERTEX
  5
17F
100
AcDbEntity
  8
FAN70-0107
370
              15
390
0
  6
Continuous
 62
               7
100
AcDbVertex
100
AcDb2dVertex
 10
325.50824022830875
 20
-471.5745033161557
 30
0.0
  0
VERTEX
  5
180
100
AcDbEntity
  8
FAN70-0107
370
              15
390
0
  6
Continuous
 62
               7
100
AcDbVertex
100
AcDb2dVertex
 10
325.73011681661762
 20
-470.52184241395986
 30
0.0
  0
VERTEX
  5
181
100
AcDbEntity
  8
FAN70-0107
370
              15
390
0
  6
Continuous
 62
               7
100
AcDbVertex
100
AcDb2dVertex
 10
325.84916183429482
 20
-469.256758393555
 30
0.0
  0
VERTEX
  5
182
100
AcDbEntity
  8
FAN70-0107
370
              15
390
0
  6
Continuous
 62
               7
100
AcDbVertex
100
AcDb2dVertex
 10
325.86710828342598
 20
-468.50456452630493
 30
0.0
  0
SEQEND
  5
183
100
AcDbEntity
  8
FAN70-0107
370
              15
390
0
  6
Continuous
 62
               7
  0
LINE
  5
184
100
AcDbEntity
  8
FAN70-0107
370
              15
390
0
  6
Continuous
 62
               7
100
AcDbLine
 10
312.04047951258656
 20
77.495435473777576
 30
0.0
 11
629.9283811934763
 21
77.495435473777576
 31
0.0
  0
LINE
  5
185
100
AcDbEntity
  8
FAN70-0107
370
              15
390
0
  6
Continuous
 62
               7
100
AcDbLine
 10
308.48519958566089
 20
26.495435473777576
 30
0.0
 11
308.48519958566089
 21
-72.504564526222708
 31
0.0
  0
LINE
  5
186
100
AcDbEntity
  8
FAN70-0107
370
              15
390
0
  6
Continuous
 62
               7
100
AcDbLine
 10
308.48519958566089
 20
-472.50456452622308
 30
0.0
 11
308.48519958566089
 21
-819.00456452622257
 31
0.0
  0
LINE
  5
187
100
AcDbEntity
  8
FAN70-0107
370
              15
390
0
  6
Continuous
 62
               7
100
AcDbLine
 10
629.98443035307093
 20
-822.50456452622257
 30
0.0
 11
311.98518301757429
 21
-822.50456452622257
 31
0.0
  0
POLYLINE
  5
188
100
AcDbEntity
  8
FAN70-0107
370
              15
390
0
  6
Continuous
 62
               7
100
AcDb2dPolyline
 66
               1
 10
0.0
 20
0.0
 30
0.0
 75
               5
  0
VERTEX
  5
189
100
AcDbEntity
  8
FAN70-0107
370
              15
390
0
  6
Continuous
 62
               7
100
AcDbVertex
100
AcDb2dVertex
 10
311.98518301757429
 20
-822.50456452622257
 30
0.0
  0
VERTEX
  5
18A
100
AcDbEntity
  8
FAN70-0107
370
              15
390
0
  6
Continuous
 62
               7
100
AcDbVertex
100
AcDb2dVertex
 10
311.30237012279122
 20
-822.43731300763375
 30
0.0
  0
VERTEX
  5
18B
100
AcDbEntity
  8
FAN70-0107
370
              15
390
0
  6
Continuous
 62
               7
100
AcDbVertex
100
AcDb2dVertex
 10
310.64579734462882
 20
-822.23814289001211
 30
0.0
  0
VERTEX
  5
18C
100
AcDbEntity
  8
FAN70-0107
370
              15
390
0
  6
Continuous
 62
               7
100
AcDbVertex
100
AcDb2dVertex
 10
310.0406964067414
 20
-821.91470816928154
 30
0.0
  0
VERTEX
  5
18D
100
AcDbEntity
  8
FAN70-0107
370
              15
390
0
  6
Continuous
 62
               7
100
AcDbVertex
100
AcDb2dVertex
 10
309.51032099882775
 20
-821.47943826037545
 30
0.0
  0
VERTEX
  5
18E
100
AcDbEntity
  8
FAN70-0107
370
              15
390
0
  6
Continuous
 62
               7
100
AcDbVertex
100
AcDb2dVertex
 10
309.07505315037599
 20
-820.94906034179121
 30
0.0
  0
VERTEX
  5
18F
100
AcDbEntity
  8
FAN70-0107
370
              15
390
0
  6
Continuous
 62
               7
100
AcDbVertex
100
AcDb2dVertex
 10
308.75161996070096
 20
-820.3439565395006
 30
0.0
  0
VERTEX
  5
190
100
AcDbEntity
  8
FAN70-0107
370
              15
390
0
  6
Continuous
 62
               7
100
AcDbVertex
100
AcDb2dVertex
 10
308.55245078589849
 20
-819.68738065327898
 30
0.0
  0
VERTEX
  5
191
100
AcDbEntity
  8
FAN70-0107
370
              15
390
0
  6
Continuous
 62
               7
100
AcDbVertex
100
AcDb2dVertex
 10
308.48519958566089
 20
-819.00456452622257
 30
0.0
  0
SEQEND
  5
192
100
AcDbEntity
  8
FAN70-0107
370
              15
390
0
  6
Continuous
 62
               7
  0
LINE
  5
193
100
AcDbEntity
  8
FAN70-0107
370
              15
390
0
  6
Continuous
 62
               7
100
AcDbLine
 10
624.23443035307093
 20
-822.50456452622257
 30
0.0
 11
317.73515579857508
 21
-822.50456452622257
 31
0.0
  0
LINE
  5
194
100
AcDbEntity
  8
FAN70-0107
370
              15
390
0
  6
Continuous
 62
               7
100
AcDbLine
 10
317.73515579857508
 20
-822.50456452622257
 30
0.0
 11
311.98518301757429
 21
-822.50456452622257
 31
0.0
  0
CIRCLE
  5
195
100
AcDbEntity
  8
FAN70-0107
370
              15
390
0
  6
Continuous
 62
               7
100
AcDbCircle
 10
-444.01556964696852
 20
827.20111608271645
 30
0.0
 40
137.5
  0
CIRCLE
  5
196
100
AcDbEntity
  8
FAN70-0107
370
              15
390
0
  6
Continuous
 62
               7
100
AcDbCircle
 10
-444.01556964696852
 20
827.20111608271645
 30
0.0
 40
162.5
  0
LINE
  5
197
100
AcDbEntity
  8
FAN70-0107
370
              15
390
0
  6
Continuous
 62
               7
100
AcDbLine
 10
-371.01556964696852
 20
972.38117669711346
 30
0.0
 11
-371.01556964696852
 21
1029.7011160827165
 31
0.0
  0
LINE
  5
198
100
AcDbEntity
  8
FAN70-0107
370
              15
390
0
  6
Continuous
 62
               7
100
AcDbLine
 10
-517.01556964696863
 20
1029.7011160827165
 30
0.0
 11
-371.01556964696852
 21
1029.7011160827165
 31
0.0
  0
LINE
  5
199
100
AcDbEntity
  8
FAN70-0107
370
              15
390
0
  6
Continuous
 62
               7
100
AcDbLine
 10
-517.01556964696863
 20
972.38117669711346
 30
0.0
 11
-517.01556964696863
 21
1029.7011160827165
 31
0.0
  0
CIRCLE
  5
19A
100
AcDbEntity
  8
FAN70-0107
370
              15
390
0
  6
Continuous
 62
               7
100
AcDbCircle
 10
-444.01556964696852
 20
827.20111608271668
 30
0.0
 40
21.0
  0
CIRCLE
  5
19B
100
AcDbEntity
  8
FAN70-0107
370
              15
390
0
  6
Continuous
 62
               7
100
AcDbCircle
 10
-444.01556964696852
 20
827.20111608271668
 30
0.0
 40
30.0
  0
ARC
  5
19C
100
AcDbEntity
  8
FAN70-0107
370
              15
390
0
  6
STYLE_12
 62
               7
100
AcDbCircle
 10
477.33282575681574
 20
121.44784310604588
 30
0.0
 40
151.99999999999994
100
AcDbArc
 50
197.63299518656854
 51
251.27677901051422
  0
LINE
  5
19D
100
AcDbEntity
  8
FAN70-0107
370
              15
390
0
  6
STYLE_12
 62
               7
100
AcDbLine
 10
428.54130422181765
 20
-22.508356573925624
 30
0.0
 11
449.54047951258644
 21
-32.37951050965799
 31
0.0
  0
LINE
  5
19E
100
AcDbEntity
  8
FAN70-0107
370
              15
390
0
  6
STYLE_12
 62
               7
100
AcDbLine
 10
428.54130422181765
 20
-22.508356573925624
 30
0.0
 11
471.04047951258644
 21
-22.508356573925624
 31
0.0
  0
LINE
  5
19F
100
AcDbEntity
  8
FAN70-0107
370
              15
390
0
  6
STYLE_12
 62
               7
100
AcDbLine
 10
449.54047951258644
 20
-32.37951050965799
 30
0.0
 11
492.54047951258644
 21
-32.37951050965799
 31
0.0
  0
ARC
  5
1A0
100
AcDbEntity
  8
FAN70-0107
370
              15
390
0
  6
STYLE_12
 62
               7
100
AcDbCircle
 10
464.74813326835715
 20
121.44784310604588
 30
0.0
 40
152.00000000000006
100
AcDbArc
 50
288.72322098948581
 51
342.36700481343149
  0
LINE
  5
1A1
100
AcDbEntity
  8
FAN70-0107
370
              15
390
0
  6
STYLE_12
 62
               7
100
AcDbLine
 10
513.53965480335523
 20
-22.508356573925624
 30
0.0
 11
471.04047951258644
 21
-22.508356573925624
 31
0.0
  0
LINE
  5
1A2
100
AcDbEntity
  8
FAN70-0107
370
              15
390
0
  6
STYLE_12
 62
               7
100
AcDbLine
 10
492.54047951258644
 20
-32.37951050965799
 30
0.0
 11
513.53965480335523
 21
-22.508356573925624
 31
0.0
  0
ARC
  5
1A3
100
AcDbEntity
  8
FAN70-0107
370
              15
390
0
  6
STYLE_12
 62
               7
100
AcDbCircle
 10
612.46567257068011
 20
74.495435473777576
 30
0.0
 40
3.0
100
AcDbArc
 50
90.0
 51
162.36700481343254
  0
ARC
  5
1A4
100
AcDbEntity
  8
FAN70-0107
370
              15
390
0
  6
STYLE_12
 62
               7
100
AcDbCircle
 10
329.61528645449266
 20
74.495435473777576
 30
0.0
 40
3.0000000000002167
100
AcDbArc
 50
17.632995186567459
 51
90.0
  0
LINE
  5
1A5
100
AcDbEntity
  8
FAN70-0107
370
              15
390
0
  6
Continuous
 62
               7
100
AcDbLine
 10
-606.51556964696863
 20
73.995435473777576
 30
0.0
 11
-606.51556964696863
 21
-819.94893867476048
 31
0.0
  0
LINE
  5
1A6
100
AcDbEntity
  8
FAN70-0107
370
              15
390
0
  6
Continuous
 62
               7
100
AcDbLine
 10
-281.62766796599954
 20
27.495435473777576
 30
0.0
 11
-281.62766796599954
 21
73.995435473777576
 31
0.0
  0
ARC
  5
1A7
100
AcDbEntity
  8
FAN70-0107
370
              15
390
0
  6
Continuous
 62
               7
100
AcDbCircle
 10
-285.12766796599954
 20
73.995435473777576
 30
0.0
 40
3.5
100
AcDbArc
 50
0.0
 51
90.0
  0
ARC
  5
1A8
100
AcDbEntity
  8
FAN70-0107
370
              15
390
0
  6
Continuous
 62
               7
100
AcDbCircle
 10
-603.01556964696863
 20
73.995435473777576
 30
0.0
 40
3.5
100
AcDbArc
 50
90.0
 51
180.0
  0
LINE
  5
1A9
100
AcDbEntity
  8
FAN70-0107
370
              15
390
0
  6
Continuous
 62
               7
100
AcDbLine
 10
-281.57161880648391
 20
-819.00456452622257
 30
0.0
 11
-281.57161880648391
 21
26.495435473777576
 31
0.0
  0
ARC
  5
1AA
100
AcDbEntity
  8
FAN70-0107
370
              15
390
0
  6
Continuous
 62
               7
100
AcDbCircle
 10
-285.07161880648391
 20
-819.00456452622257
 30
0.0
 40
3.5
100
AcDbArc
 50
270.0
 51
0.0
  0
LINE
  5
1AB
100
AcDbEntity
  8
FAN70-0107
370
              15
390
0
  6
Continuous
 62
               7
100
AcDbLine
 10
-603.01556964696863
 20
77.495435473777576
 30
0.0
 11
-285.12766796607866
 21
77.495435473777576
 31
0.0
  0
LINE
  5
1AC
100
AcDbEntity
  8
FAN70-0107
370
              15
390
0
  6
Continuous
 62
               7
100
AcDbLine
 10
-285.07161880648391
 20
-822.50456452622257
 30
0.0
 11
-603.0708661419809
 21
-822.50456452622257
 31
0.0
  0
POLYLINE
  5
1AD
100
AcDbEntity
  8
FAN70-0107
370
              15
390
0
  6
Continuous
 62
               7
100
AcDb2dPolyline
 66
               1
 10
0.0
 20
0.0
 30
0.0
 75
               5
  0
VERTEX
  5
1AE
100
AcDbEntity
  8
FAN70-0107
370
              15
390
0
  6
Continuous
 62
               7
100
AcDbVertex
100
AcDb2dVertex
 10
-603.0708661419809
 20
-822.50456452622257
 30
0.0
  0
VERTEX
  5
1AF
100
AcDbEntity
  8
FAN70-0107
370
              15
390
0
  6
Continuous
 62
               7
100
AcDbVertex
100
AcDb2dVertex
 10
-603.75367903676386
 20
-822.43731300763375
 30
0.0
  0
VERTEX
  5
1B0
100
AcDbEntity
  8
FAN70-0107
370
              15
390
0
  6
Continuous
 62
               7
100
AcDbVertex
100
AcDb2dVertex
 10
-604.41025181492626
 20
-822.23814289001211
 30
0.0
  0
VERTEX
  5
1B1
100
AcDbEntity
  8
FAN70-0107
370
              15
390
0
  6
Continuous
 62
               7
100
AcDbVertex
100
AcDb2dVertex
 10
-605.01535275281378
 20
-821.91470816928154
 30
0.0
  0
VERTEX
  5
1B2
100
AcDbEntity
  8
FAN70-0107
370
              15
390
0
  6
Continuous
 62
               7
100
AcDbVertex
100
AcDb2dVertex
 10
-605.54572816072744
 20
-821.47943826037545
 30
0.0
  0
VERTEX
  5
1B3
100
AcDbEntity
  8
FAN70-0107
370
              15
390
0
  6
Continuous
 62
               7
100
AcDbVertex
100
AcDb2dVertex
 10
-605.98099600917897
 20
-820.94906034179121
 30
0.0
  0
VERTEX
  5
1B4
100
AcDbEntity
  8
FAN70-0107
370
              15
390
0
  6
Continuous
 62
               7
100
AcDbVertex
100
AcDb2dVertex
 10
-606.30442919885411
 20
-820.3439565395006
 30
0.0
  0
VERTEX
  5
1B5
100
AcDbEntity
  8
FAN70-0107
370
              15
390
0
  6
Continuous
 62
               7
100
AcDbVertex
100
AcDb2dVertex
 10
-606.5035983736567
 20
-819.68738065327898
 30
0.0
  0
VERTEX
  5
1B6
100
AcDbEntity
  8
FAN70-0107
370
              15
390
0
  6
Continuous
 62
               7
100
AcDbVertex
100
AcDb2dVertex
 10
-606.57084957389418
 20
-819.00456452622257
 30
0.0
  0
SEQEND
  5
1B7
100
AcDbEntity
  8
FAN70-0107
370
              15
390
0
  6
Continuous
 62
               7
  0
LINE
  5
1B8
100
AcDbEntity
  8
FAN70-0107
370
              15
390
0
  6
Continuous
 62
               7
100
AcDbLine
 10
-290.82161880648391
 20
-822.50456452622257
 30
0.0
 11
-597.32089336097999
 21
-822.50456452622257
 31
0.0
  0
LINE
  5
1B9
100
AcDbEntity
  8
FAN70-0107
370
              15
390
0
  6
Continuous
 62
               7
100
AcDbLine
 10
-597.32089336097999
 20
-822.50456452622257
 30
0.0
 11
-603.0708661419809
 21
-822.50456452622257
 31
0.0
  0
ARC
  5
1BA
100
AcDbEntity
  8
FAN70-0107
370
              15
390
0
  6
STYLE_12
 62
               7
100
AcDbCircle
 10
-437.72322340273922
 20
121.44784310604582
 30
0.0
 40
152.00000000000003
100
AcDbArc
 50
197.63299518656851
 51
251.27677901051422
  0
LINE
  5
1BB
100
AcDbEntity
  8
FAN70-0107
370
              15
390
0
  6
STYLE_12
 62
               7
100
AcDbLine
 10
-486.51474493773731
 20
-22.508356573925738
 30
0.0
 11
-465.51556964696852
 21
-32.379510509658047
 31
0.0
  0
LINE
  5
1BC
100
AcDbEntity
  8
FAN70-0107
370
              15
390
0
  6
STYLE_12
 62
               7
100
AcDbLine
 10
-486.51474493773731
 20
-22.508356573925738
 30
0.0
 11
-444.01556964696852
 21
-22.508356573925738
 31
0.0
  0
LINE
  5
1BD
100
AcDbEntity
  8
FAN70-0107
370
              15
390
0
  6
STYLE_12
 62
               7
100
AcDbLine
 10
-465.51556964696852
 20
-32.379510509658047
 30
0.0
 11
-422.51556964696852
 21
-32.379510509658047
 31
0.0
  0
ARC
  5
1BE
100
AcDbEntity
  8
FAN70-0107
370
              15
390
0
  6
STYLE_12
 62
               7
100
AcDbCircle
 10
-450.30791589119781
 20
121.44784310604582
 30
0.0
 40
152.00000000000009
100
AcDbArc
 50
288.72322098948581
 51
342.36700481343149
  0
LINE
  5
1BF
100
AcDbEntity
  8
FAN70-0107
370
              15
390
0
  6
STYLE_12
 62
               7
100
AcDbLine
 10
-401.51639435619973
 20
-22.508356573925738
 30
0.0
 11
-444.01556964696852
 21
-22.508356573925738
 31
0.0
  0
LINE
  5
1C0
100
AcDbEntity
  8
FAN70-0107
370
              15
390
0
  6
STYLE_12
 62
               7
100
AcDbLine
 10
-422.51556964696852
 20
-32.379510509658047
 30
0.0
 11
-401.51639435619973
 21
-22.508356573925738
 31
0.0
  0
ARC
  5
1C1
100
AcDbEntity
  8
FAN70-0107
370
              15
390
0
  6
STYLE_12
 62
               7
100
AcDbCircle
 10
-302.59037658887473
 20
74.495435473777576
 30
0.0
 40
3.0
100
AcDbArc
 50
90.0
 51
162.36700481343254
  0
ARC
  5
1C2
100
AcDbEntity
  8
FAN70-0107
370
              15
390
0
  6
STYLE_12
 62
               7
100
AcDbCircle
 10
-585.44076270506241
 20
74.495435473777576
 30
0.0
 40
3.0000000000002167
100
AcDbArc
 50
17.632995186567459
 51
90.0
  0
POLYLINE
  5
1C3
100
AcDbEntity
  8
FAN70-0107
370
              15
390
0
  6
STYLE_12
 62
               7
100
AcDb2dPolyline
 66
               1
 10
0.0
 20
0.0
 30
0.0
 70
               1
 75
               5
  0
VERTEX
  5
1C4
100
AcDbEntity
  8
FAN70-0107
370
              15
390
0
  6
STYLE_12
 62
               7
100
AcDbVertex
100
AcDb2dVertex
 10
-517.08754506719117
 20
-72.504564526222424
 30
0.0
  0
VERTEX
  5
1C5
100
AcDbEntity
  8
FAN70-0107
370
              15
390
0
  6
STYLE_12
 62
               7
100
AcDbVertex
100
AcDb2dVertex
 10
-371.08754506719106
 20
-72.504564526222424
 30
0.0
  0
VERTEX
  5
1C6
100
AcDbEntity
  8
FAN70-0107
370
              15
390
0
  6
STYLE_12
 62
               7
100
AcDbVertex
100
AcDb2dVertex
 10
-371.08754506719106
 20
-472.50456452622285
 30
0.0
  0
VERTEX
  5
1C7
100
AcDbEntity
  8
FAN70-0107
370
              15
390
0
  6
STYLE_12
 62
               7
100
AcDbVertex
100
AcDb2dVertex
 10
-517.08754506719117
 20
-472.50456452622285
 30
0.0
  0
SEQEND
  5
1C8
100
AcDbEntity
  8
FAN70-0107
370
              15
390
0
  6
STYLE_12
 62
               7
  0
CIRCLE
  5
1C9
100
AcDbEntity
  8
FAN70-0107
370
              15
390
0
  6
STYLE_12
 62
               7
100
AcDbCircle
 10
-501.58754506719106
 20
-127.50456452622223
 30
0.0
 40
10.0
  0
LINE
  5
1CA
100
AcDbEntity
  8
FAN70-0107
370
              15
390
0
  6
STYLE_12
 62
               7
100
AcDbLine
 10
-481.58754506719106
 20
-127.50456452622223
 30
0.0
 11
-521.58754506719117
 21
-127.50456452622223
 31
0.0
  0
LINE
  5
1CB
100
AcDbEntity
  8
FAN70-0107
370
              15
390
0
  6
STYLE_12
 62
               7
100
AcDbLine
 10
-501.58754506719106
 20
-107.50456452622237
 30
0.0
 11
-501.58754506719106
 21
-147.50456452622208
 31
0.0
  0
CIRCLE
  5
1CC
100
AcDbEntity
  8
FAN70-0107
370
              15
390
0
  6
STYLE_12
 62
               7
100
AcDbCircle
 10
-386.58754506719106
 20
-127.50456452622223
 30
0.0
 40
10.0
  0
LINE
  5
1CD
100
AcDbEntity
  8
FAN70-0107
370
              15
390
0
  6
STYLE_12
 62
               7
100
AcDbLine
 10
-366.58754506719106
 20
-127.50456452622223
 30
0.0
 11
-406.58754506719106
 21
-127.50456452622223
 31
0.0
  0
LINE
  5
1CE
100
AcDbEntity
  8
FAN70-0107
370
              15
390
0
  6
STYLE_12
 62
               7
100
AcDbLine
 10
-386.58754506719106
 20
-107.50456452622237
 30
0.0
 11
-386.58754506719106
 21
-147.50456452622208
 31
0.0
  0
CIRCLE
  5
1CF
100
AcDbEntity
  8
FAN70-0107
370
              15
390
0
  6
STYLE_12
 62
               7
100
AcDbCircle
 10
-501.58754506719106
 20
-427.50456452622285
 30
0.0
 40
10.0
  0
LINE
  5
1D0
100
AcDbEntity
  8
FAN70-0107
370
              15
390
0
  6
STYLE_12
 62
               7
100
AcDbLine
 10
-481.58754506719106
 20
-427.50456452622285
 30
0.0
 11
-521.58754506719117
 21
-427.50456452622285
 31
0.0
  0
LINE
  5
1D1
100
AcDbEntity
  8
FAN70-0107
370
              15
390
0
  6
STYLE_12
 62
               7
100
AcDbLine
 10
-501.58754506719106
 20
-407.50456452622285
 30
0.0
 11
-501.58754506719106
 21
-447.50456452622285
 31
0.0
  0
CIRCLE
  5
1D2
100
AcDbEntity
  8
FAN70-0107
370
              15
390
0
  6
STYLE_12
 62
               7
100
AcDbCircle
 10
-386.58754506719106
 20
-427.50456452622285
 30
0.0
 40
10.0
  0
LINE
  5
1D3
100
AcDbEntity
  8
FAN70-0107
370
              15
390
0
  6
STYLE_12
 62
               7
100
AcDbLine
 10
-366.58754506719106
 20
-427.50456452622285
 30
0.0
 11
-406.58754506719106
 21
-427.50456452622285
 31
0.0
  0
LINE
  5
1D4
100
AcDbEntity
  8
FAN70-0107
370
              15
390
0
  6
STYLE_12
 62
               7
100
AcDbLine
 10
-386.58754506719106
 20
-407.50456452622285
 30
0.0
 11
-386.58754506719106
 21
-447.50456452622285
 31
0.0
  0
CIRCLE
  5
1D5
100
AcDbEntity
  8
FAN70-0107
370
              15
390
0
  6
STYLE_12
 62
               7
100
AcDbCircle
 10
-444.0712560837319
 20
-272.50456452622188
 30
0.0
 40
16.0
  0
POLYLINE
  5
1D6
100
AcDbEntity
  8
FAN70-0107
370
              15
390
0
  6
STYLE_12
 62
               7
100
AcDb2dPolyline
 66
               1
 10
0.0
 20
0.0
 30
0.0
 70
               1
 75
               5
  0
VERTEX
  5
1D7
100
AcDbEntity
  8
FAN70-0107
370
              15
390
0
  6
STYLE_12
 62
               7
100
AcDbVertex
100
AcDb2dVertex
 10
436.01245493280896
 20
-28.504564526222424
 30
0.0
  0
VERTEX
  5
1D8
100
AcDbEntity
  8
FAN70-0107
370
              15
390
0
  6
STYLE_12
 62
               7
100
AcDbVertex
100
AcDb2dVertex
 10
506.01245493280896
 20
-28.504564526222424
 30
0.0
  0
VERTEX
  5
1D9
100
AcDbEntity
  8
FAN70-0107
370
              15
390
0
  6
STYLE_12
 62
               7
100
AcDbVertex
100
AcDb2dVertex
 10
506.01245493280896
 20
-72.504564526222424
 30
0.0
  0
VERTEX
  5
1DA
100
AcDbEntity
  8
FAN70-0107
370
              15
390
0
  6
STYLE_12
 62
               7
100
AcDbVertex
100
AcDb2dVertex
 10
436.01245493280896
 20
-72.504564526222424
 30
0.0
  0
SEQEND
  5
1DB
100
AcDbEntity
  8
FAN70-0107
370
              15
390
0
  6
STYLE_12
 62
               7
  0
POLYLINE
  5
1DC
100
AcDbEntity
  8
FAN70-0107
370
              15
390
0
  6
STYLE_12
 62
               7
100
AcDb2dPolyline
 66
               1
 10
0.0
 20
0.0
 30
0.0
 70
               1
 75
               5
  0
VERTEX
  5
1DD
100
AcDbEntity
  8
FAN70-0107
370
              15
390
0
  6
STYLE_12
 62
               7
100
AcDbVertex
100
AcDb2dVertex
 10
-479.08754506719106
 20
-28.504564526222424
 30
0.0
  0
VERTEX
  5
1DE
100
AcDbEntity
  8
FAN70-0107
370
              15
390
0
  6
STYLE_12
 62
               7
100
AcDbVertex
100
AcDb2dVertex
 10
-409.08754506719106
 20
-28.504564526222424
 30
0.0
  0
VERTEX
  5
1DF
100
AcDbEntity
  8
FAN70-0107
370
              15
390
0
  6
STYLE_12
 62
               7
100
AcDbVertex
100
AcDb2dVertex
 10
-409.08754506719106
 20
-75.504564526222424
 30
0.0
  0
VERTEX
  5
1E0
100
AcDbEntity
  8
FAN70-0107
370
              15
390
0
  6
STYLE_12
 62
               7
100
AcDbVertex
100
AcDb2dVertex
 10
-479.08754506719106
 20
-75.504564526222424
 30
0.0
  0
SEQEND
  5
1E1
100
AcDbEntity
  8
FAN70-0107
370
              15
390
0
  6
STYLE_12
 62
               7
  0
ENDSEC
  0
SECTION
  2
OBJECTS
  0
DICTIONARY
  5
19
100
AcDbDictionary
280
               0
281
               1
  3
ACAD_GROUP
350
1A
  3
ACAD_MLINESTYLE
350
1B
  3
ACAD_LAYOUT
350
1E
  3
ACAD_PLOTSETTINGS
350
22
  3
ACAD_PLOTSTYLENAME
350
1F
  0
DICTIONARY
  5
1A
102
{ACAD_REACTORS
330
19
102
}
100
AcDbDictionary
280
               0
281
               1
  0
DICTIONARY
  5
1B
102
{ACAD_REACTORS
330
19
102
}
100
AcDbDictionary
280
               0
281
               1
  3
Standard
350
1C
  0
MLINESTYLE
  5
1C
102
{ACAD_REACTORS
330
1B
102
}
100
AcDbMlineStyle
  2
Standard
 70
               0
  3

 62
               0
 51
90.0
 52
90.0
 71
               2
 49
0.5
 62
             256
  6
ByLayer
 49
-0.5
 62
             256
  6
ByLayer
  0
ACDBDICTIONARYWDFLT
  5
1F
102
{ACAD_REACTORS
330
19
102
}
100
AcDbDictionary
281
               1
  3
Normal
350
1D
100
AcDbDictionaryWithDefault
340
1D
  0
ACDBPLACEHOLDER
  5
1D
102
{ACAD_REACTORS
330
1F
102
}
  0
LAYOUT
  5
20
102
{ACAD_REACTORS
330
1E
102
}
100
AcDbPlotSettings
  1

  2

  4

  6

 40
0.0
 41
0.0
 42
0.0
 43
0.0
 44
0.0
 45
0.0
 46
0.0
 47
0.0
 48
0.0
 49
0.0
140
0.0
141
0.0
142
1.0
143
1.0
 70
            1024
 72
               0
 73
               0
 74
               0
  7

 75
               0
147
1.0
148
0.0
149
0.0
100
AcDbLayout
  1
Model
 70
               0
 71
               0
 10
0.0
 20
0.0
 11
0.0
 21
0.0
 12
0.0
 22
0.0
 32
0.0
 14
0.0
 24
0.0
 34
0.0
 15
0.0
 25
0.0
 35
0.0
146
0.0
 13
0.0
 23
0.0
 33
0.0
 16
0.0
 26
0.0
 36
0.0
 17
0.0
 27
0.0
 37
0.0
 76
               0
330
A
331
0
345
0
346
0
  0
LAYOUT
  5
21
102
{ACAD_REACTORS
330
1E
102
}
100
AcDbPlotSettings
  1

  2

  4

  6

 40
0.0
 41
0.0
 42
0.0
 43
0.0
 44
0.0
 45
0.0
 46
0.0
 47
0.0
 48
0.0
 49
0.0
140
0.0
141
0.0
142
1.0
143
1.0
 70
               0
 72
               0
 73
               0
 74
               0
  7

 75
               0
147
1.0
148
0.0
149
0.0
100
AcDbLayout
  1
Layout1
 70
               0
 71
               0
 10
0.0
 20
0.0
 11
0.0
 21
0.0
 12
0.0
 22
0.0
 32
0.0
 14
0.0
 24
0.0
 34
0.0
 15
0.0
 25
0.0
 35
0.0
146
0.0
 13
0.0
 23
0.0
 33
0.0
 16
0.0
 26
0.0
 36
0.0
 17
0.0
 27
0.0
 37
0.0
 76
               0
330
B
331
0
345
0
346
0
  0
DICTIONARY
  5
1E
102
{ACAD_REACTORS
330
19
102
}
100
AcDbDictionary
280
               0
281
               1
  3
Layout1
350
21
  3
Model
350
20
  0
DICTIONARY
  5
22
102
{ACAD_REACTORS
330
19
102
}
100
AcDbDictionary
280
               0
281
               1
  0
ENDSEC
  0
EOF
