  0
SECTION
  2
HEADER
  9
$ACADVER
  1
AC1015
  9
$ACADMAINTVER
 70
               6
  9
$DWGCODEPAGE
  3
ANSI_932
  9
$INSBASE
 10
0.0
 20
0.0
 30
0.0
  9
$EXTMIN
 10
-975.00000000024124
 20
-1431.5255224711129
 30
-14.428611111111111
  9
$EXTMAX
 10
975.00000000024124
 20
1405.9972926412995
 30
14.428611111111111
  9
$LIMMIN
 10
0.0
 20
0.0
  9
$LIMMAX
 10
0.0
 20
0.0
  9
$ORTHOMODE
 70
               0
  9
$REGENMODE
 70
               1
  9
$FILLMODE
 70
               1
  9
$QTEXTMODE
 70
               0
  9
$MIRRTEXT
 70
               1
  9
$LTSCALE
 40
50.799999999999997
  9
$ATTMODE
 70
               1
  9
$TEXTSIZE
 40
0.2
  9
$TRACEWID
 40
1.0
  9
$TEXTSTYLE
  7
Standard
  9
$CLAYER
  8
notes
  9
$CELTYPE
  6
Continuous
  9
$CECOLOR
 62
             256
  9
$CELTSCALE
 40
1.0
  9
$DISPSILH
 70
               0
  9
$DIMSCALE
 40
1.0
  9
$DIMASZ
 40
31.75
  9
$DIMEXO
 40
0.0
  9
$DIMDLI
 40
6.9999999999999396
  9
$DIMRND
 40
0.0
  9
$DIMDLE
 40
0.0
  9
$DIMEXE
 40
19.999999999996199
  9
$DIMTP
 40
0.0
  9
$DIMTM
 40
0.0
  9
$DIMTXT
 40
24.432617187500004
  9
$DIMCEN
 40
0.0
  9
$DIMTSZ
 40
0.0
  9
$DIMTOL
 70
               0
  9
$DIMLIM
 70
               0
  9
$DIMTIH
 70
               0
  9
$DIMTOH
 70
               0
  9
$DIMSE1
 70
               0
  9
$DIMSE2
 70
               0
  9
$DIMTAD
 70
               1
  9
$DIMZIN
 70
              11
  9
$DIMBLK
  1
VW_FILLEDARROW
  9
$DIMASO
 70
               1
  9
$DIMSHO
 70
               1
  9
$DIMPOST
  1
<>
  9
$DIMAPOST
  1
[]
  9
$DIMALT
 70
               0
  9
$DIMALTD
 70
               1
  9
$DIMALTF
 40
1.0
  9
$DIMLFAC
 40
1.0
  9
$DIMTOFL
 70
               0
  9
$DIMTVP
 40
0.0
  9
$DIMTIX
 70
               1
  9
$DIMSOXD
 70
               0
  9
$DIMSAH
 70
               0
  9
$DIMBLK1
  1

  9
$DIMBLK2
  1

  9
$DIMSTYLE
  2
JIS
  9
$DIMCLRD
 70
               0
  9
$DIMCLRE
 70
               0
  9
$DIMCLRT
 70
               0
  9
$DIMTFAC
 40
1.0
  9
$DIMGAP
 40
1.00000000000108
  9
$DIMJUST
 70
               0
  9
$DIMSD1
 70
               0
  9
$DIMSD2
 70
               0
  9
$DIMTOLJ
 70
               1
  9
$DIMTZIN
 70
              11
  9
$DIMALTZ
 70
              11
  9
$DIMALTTZ
 70
              11
  9
$DIMUPT
 70
               0
  9
$DIMDEC
 70
               1
  9
$DIMTDEC
 70
               1
  9
$DIMALTU
 70
               2
  9
$DIMALTTD
 70
               2
  9
$DIMTXSTY
  7
ＭＳ ゴシック
  9
$DIMAUNIT
 70
               0
  9
$DIMADEC
 70
               2
  9
$DIMALTRND
 40
0.0
  9
$DIMAZIN
 70
               0
  9
$DIMDSEP
 70
              46
  9
$DIMATFIT
 70
               0
  9
$DIMFRAC
 70
               2
  9
$DIMLDRBLK
  1

  9
$DIMLUNIT
 70
               2
  9
$DIMLWD
 70
              -2
  9
$DIMLWE
 70
              -2
  9
$DIMTMOVE
 70
               0
  9
$LUNITS
 70
               2
  9
$LUPREC
 70
               4
  9
$SKETCHINC
 40
0.1
  9
$FILLETRAD
 40
0.0
  9
$AUNITS
 70
               0
  9
$AUPREC
 70
               0
  9
$MENU
  1
acad
  9
$ELEVATION
 40
0.0
  9
$PELEVATION
 40
0.0
  9
$THICKNESS
 40
0.0
  9
$LIMCHECK
 70
               0
  9
$CHAMFERA
 40
0.0
  9
$CHAMFERB
 40
0.0
  9
$CHAMFERC
 40
0.0
  9
$CHAMFERD
 40
0.0
  9
$SKPOLY
 70
               0
  9
$TDCREATE
 40
2456049.461539352
  9
$TDUCREATE
 40
0.000000000
  9
$TDUPDATE
 40
2456049.461539352
  9
$TDUUPDATE
 40
0.000000000
  9
$TDINDWG
 40
0.0000000000
  9
$TDUSRTIMER
 40
0.0000000000
  9
$USRTIMER
 70
               1
  9
$ANGBASE
 50
0.0
  9
$ANGDIR
 70
               0
  9
$PDMODE
 70
               1
  9
$PDSIZE
 40
-2.0
  9
$PLINEWID
 40
0.0
  9
$SPLFRAME
 70
               0
  9
$SPLINETYPE
 70
               6
  9
$SPLINESEGS
 70
               8
  9
$HANDSEED
  5
163
  9
$SURFTAB1
 70
               6
  9
$SURFTAB2
 70
               6
  9
$SURFTYPE
 70
               6
  9
$SURFU
 70
               6
  9
$SURFV
 70
               6
  9
$UCSBASE
  2

  9
$UCSNAME
  2

  9
$UCSORG
 10
0.0
 20
0.0
 30
0.0
  9
$UCSXDIR
 10
1.0
 20
0.0
 30
0.0
  9
$UCSYDIR
 10
0.0
 20
1.0
 30
0.0
  9
$UCSORTHOREF
  2

  9
$UCSORTHOVIEW
 70
               0
  9
$UCSORGTOP
 10
0.0
 20
0.0
 30
0.0
  9
$UCSORGBOTTOM
 10
0.0
 20
0.0
 30
0.0
  9
$UCSORGLEFT
 10
0.0
 20
0.0
 30
0.0
  9
$UCSORGRIGHT
 10
0.0
 20
0.0
 30
0.0
  9
$UCSORGFRONT
 10
0.0
 20
0.0
 30
0.0
  9
$UCSORGBACK
 10
0.0
 20
0.0
 30
0.0
  9
$PUCSBASE
  2

  9
$PUCSNAME
  2

  9
$PUCSORG
 10
0.0
 20
0.0
 30
0.0
  9
$PUCSXDIR
 10
1.0
 20
0.0
 30
0.0
  9
$PUCSYDIR
 10
0.0
 20
1.0
 30
0.0
  9
$PUCSORTHOREF
  2

  9
$PUCSORTHOVIEW
 70
               0
  9
$PUCSORGTOP
 10
0.0
 20
0.0
 30
0.0
  9
$PUCSORGBOTTOM
 10
0.0
 20
0.0
 30
0.0
  9
$PUCSORGLEFT
 10
0.0
 20
0.0
 30
0.0
  9
$PUCSORGRIGHT
 10
0.0
 20
0.0
 30
0.0
  9
$PUCSORGFRONT
 10
0.0
 20
0.0
 30
0.0
  9
$PUCSORGBACK
 10
0.0
 20
0.0
 30
0.0
  9
$USERI1
 70
               0
  9
$USERI2
 70
               0
  9
$USERI3
 70
               0
  9
$USERI4
 70
               0
  9
$USERI5
 70
               0
  9
$USERR1
 40
0.0
  9
$USERR2
 40
0.0
  9
$USERR3
 40
0.0
  9
$USERR4
 40
0.0
  9
$USERR5
 40
0.0
  9
$WORLDVIEW
 70
               1
  9
$SHADEDGE
 70
               3
  9
$SHADEDIF
 70
              70
  9
$TILEMODE
 70
               1
  9
$MAXACTVP
 70
              64
  9
$PINSBASE
 10
0.0
 20
0.0
 30
0.0
  9
$PLIMCHECK
 70
               0
  9
$PEXTMIN
 10
1.0000000000000000E+20
 20
1.0000000000000000E+20
 30
1.0000000000000000E+20
  9
$PEXTMAX
 10
-1.0000000000000000E+20
 20
-1.0000000000000000E+20
 30
-1.0000000000000000E+20
  9
$PLIMMIN
 10
0.0
 20
0.0
  9
$PLIMMAX
 10
12.0
 20
9.0
  9
$UNITMODE
 70
               0
  9
$VISRETAIN
 70
               0
  9
$PLINEGEN
 70
               1
  9
$PSLTSCALE
 70
               0
  9
$TREEDEPTH
 70
            3020
  9
$CMLSTYLE
  2
Standard
  9
$CMLJUST
 70
               0
  9
$CMLSCALE
 40
1.0
  9
$PROXYGRAPHICS
 70
               0
  9
$MEASUREMENT
 70
               1
  9
$CELWEIGHT
370
               0
  9
$ENDCAPS
280
               0
  9
$JOINSTYLE
280
               0
  9
$LWDISPLAY
290
               1
  9
$INSUNITS
 70
               4
  9
$HYPERLINKBASE
  1

  9
$STYLESHEET
  1

  9
$XEDIT
290
               1
  9
$CEPSNTYPE
380
               0
  9
$PSTYLEMODE
290
               1
  9
$FINGERPRINTGUID
  2

  9
$VERSIONGUID
  2

  9
$EXTNAMES
290
               1
  9
$PSVPSCALE
 40
0.0
  0
ENDSEC
  0
SECTION
  2
CLASSES
  0
CLASS
  1
LWPOLYLINE
  2
AcDbPolyline
  3
AutoCAD 2000
 90
        0
280
               0
281
               1
  0
CLASS
  1
IMAGE
  2
AcDbRasterImage
  3
ISM
 90
      127
280
               0
281
               1
  0
CLASS
  1
OLE2FRAME
  2
AcDbOle2Frame
  3
AutoCAD 2000
 90
        0
280
               0
281
               1
  0
CLASS
  1
HATCH
  2
AcDbHatch
  3
AutoCAD 2000
 90
        0
280
               0
281
               1
  0
CLASS
  1
DICTIONARYVAR
  2
AcDbDictionaryVar
  3
AutoCAD 2000
 90
        0
280
               0
281
               0
  0
CLASS
  1
RASTERVARIABLES
  2
AcDbRasterVariables
  3
ISM
 90
        0
280
               0
281
               0
  0
CLASS
  1
IMAGEDEF
  2
AcDbRasterImageDef
  3
ISM
 90
        0
280
               0
281
               0
  0
CLASS
  1
IMAGEDEF_REACTOR
  2
AcDbRasterImageDefReactor
  3
ISM
 90
        1
280
               0
281
               0
  0
CLASS
  1
IDBUFFER
  2
AcDbIdBuffer
  3
AutoCAD 2000
 90
        0
280
               0
281
               0
  0
CLASS
  1
SPATIAL_FILTER
  2
AcDbSpatialFilter
  3
AutoCAD 2000
 90
        0
280
               0
281
               0
  0
CLASS
  1
XRECORD
  2
AcDbXrecord
  3
AutoCAD 2000
 90
        0
280
               0
281
               0
  0
CLASS
  1
SORTENTSTABLE
  2
AcDbSortentsTable
  3
AutoCAD 2000
 90
        0
280
               0
281
               0
  0
CLASS
  1
LAYER_INDEX
  2
AcDbLayerIndex
  3
AutoCAD 2000
 90
        0
280
               0
281
               0
  0
CLASS
  1
SPATIAL_INDEX
  2
AcDbSpatialIndex
  3
AutoCAD 2000
 90
        0
280
               0
281
               0
  0
CLASS
  1
OBJECT_PTR
  2
CAseDLPNTableRecord
  3
"ASE-LPNTableRecord"
 90
        1
280
               0
281
               0
  0
CLASS
  1
LAYOUT
  2
AcDbLayout
  3
AutoCAD 2000
 90
        0
280
               0
281
               0
  0
CLASS
  1
PLOTSETTINGS
  2
AcDbPlotSettings
  3
AutoCAD 2000
 90
        0
280
               0
281
               0
  0
CLASS
  1
ACDBDICTIONARYWDFLT
  2
AcDbDictionaryWithDefault
  3
AutoCAD 2000
 90
        0
280
               0
281
               0
  0
CLASS
  1
ACDBPLACEHOLDER
  2
AcDbPlaceHolder
  3
AutoCAD 2000
 90
        0
280
               0
281
               0
  0
ENDSEC
  0
SECTION
  2
TABLES
  0
TABLE
  2
VPORT
  5
7
100
AcDbSymbolTable
 70
               1
  0
VPORT
  5
15
100
AcDbSymbolTableRecord
100
AcDbViewportTableRecord
  2
*ACTIVE
 70
               0
 10
0.0
 20
0.0
 11
1.0
 21
1.0
 12
0.0
 22
-12.764114914906713
 13
0.0
 23
0.0
 14
1.0
 24
1.0
 15
0.0
 25
0.0
 16
0.0
 26
0.0
 36
1.0
 17
0.0
 27
0.0
 37
0.0
 40
2837.5228151124124
 41
0.688564
 42
50.0
 43
0.0
 44
0.0
 50
0.0
 51
0.0
 71
               0
 72
            2000
 73
               1
 74
               1
 75
               0
 76
               0
 77
               0
 78
               0
281
               0
 65
               0
110
0.0
120
0.0
130
0.0
111
1.0
121
0.0
131
0.0
112
0.0
122
1.0
132
0.0
345
0
346
0
 79
               0
146
0.0
  0
ENDTAB
  0
TABLE
  2
LTYPE
  5
4
100
AcDbSymbolTable
 70
              17
  0
LTYPE
  5
11
100
AcDbSymbolTableRecord
100
AcDbLinetypeTableRecord
  2
ByBlock
 70
              64
  3

 72
              65
 73
               0
 40
0.0
  0
LTYPE
  5
12
100
AcDbSymbolTableRecord
100
AcDbLinetypeTableRecord
  2
ByLayer
 70
              64
  3

 72
              65
 73
               0
 40
0.0
  0
LTYPE
  5
13
100
AcDbSymbolTableRecord
100
AcDbLinetypeTableRecord
  2
Continuous
 70
              64
  3
Solid line
 72
              65
 73
               0
 40
0.0
  0
LTYPE
  5
32
100
AcDbSymbolTableRecord
100
AcDbLinetypeTableRecord
  2
STYLE_01
 70
               0
  3

 72
              65
 73
               4
 40
0.7999999999999998
 49
0.4999999999999999
 74
               0
 49
-0.1
 74
               0
 49
0.1
 74
               0
 49
-0.1
 74
               0
  0
LTYPE
  5
33
100
AcDbSymbolTableRecord
100
AcDbLinetypeTableRecord
  2
STYLE_02
 70
               0
  3

 72
              65
 73
               2
 40
0.6944250000000001
 49
0.48607
 74
               0
 49
-0.2083550000000001
 74
               0
  0
LTYPE
  5
34
100
AcDbSymbolTableRecord
100
AcDbLinetypeTableRecord
  2
STYLE_03
 70
               0
  3

 72
              65
 73
               2
 40
1.25
 49
1.0416400000000001
 74
               0
 49
-0.2083599999999999
 74
               0
  0
LTYPE
  5
35
100
AcDbSymbolTableRecord
100
AcDbLinetypeTableRecord
  2
STYLE_04
 70
               0
  3

 72
              65
 73
               2
 40
1.5277099999999999
 49
1.3194249999999998
 74
               0
 49
-0.208285
 74
               0
  0
LTYPE
  5
36
100
AcDbSymbolTableRecord
100
AcDbLinetypeTableRecord
  2
STYLE_05
 70
               0
  3

 72
              65
 73
               2
 40
0.20828
 49
0.069425
 74
               0
 49
-0.138855
 74
               0
  0
LTYPE
  5
37
100
AcDbSymbolTableRecord
100
AcDbLinetypeTableRecord
  2
STYLE_06
 70
               0
  3

 72
              65
 73
               4
 40
1.0416400000000001
 49
0.625
 74
               0
 49
-0.20828
 74
               0
 49
0.06943
 74
               0
 49
-0.13893
 74
               0
  0
LTYPE
  5
38
100
AcDbSymbolTableRecord
100
AcDbLinetypeTableRecord
  2
STYLE_07
 70
               0
  3

 72
              65
 73
               6
 40
1.875
 49
0.625
 74
               0
 49
-0.20828
 74
               0
 49
0.6250000000000001
 74
               0
 49
-0.2083599999999999
 74
               0
 49
0.06943
 74
               0
 49
-0.1389299999999999
 74
               0
  0
LTYPE
  5
39
100
AcDbSymbolTableRecord
100
AcDbLinetypeTableRecord
  2
STYLE_08
 70
               0
  3

 72
              65
 73
               6
 40
1.25
 49
0.625
 74
               0
 49
-0.20828
 74
               0
 49
0.06943
 74
               0
 49
-0.13893
 74
               0
 49
0.0694299999999999
 74
               0
 49
-0.13893
 74
               0
  0
LTYPE
  5
3A
100
AcDbSymbolTableRecord
100
AcDbLinetypeTableRecord
  2
STYLE_09
 70
               0
  3

 72
              65
 73
               4
 40
5.0
 49
3.75
 74
               0
 49
-0.2777849999999998
 74
               0
 49
0.6944300000000003
 74
               0
 49
-0.2777849999999998
 74
               0
  0
LTYPE
  5
3B
100
AcDbSymbolTableRecord
100
AcDbLinetypeTableRecord
  2
STYLE_10
 70
               0
  3

 72
              65
 73
               6
 40
5.9375
 49
3.75
 74
               0
 49
-0.2777849999999998
 74
               0
 49
0.6944300000000003
 74
               0
 49
-0.2777849999999998
 74
               0
 49
0.625
 74
               0
 49
-0.3125
 74
               0
  0
LTYPE
  5
3C
100
AcDbSymbolTableRecord
100
AcDbLinetypeTableRecord
  2
STYLE_11
 70
               0
  3

 72
              65
 73
               2
 40
0.0694444881889764
 49
0.0347222440944882
 74
               0
 49
-0.0347222440944882
 74
               0
  0
LTYPE
  5
3D
100
AcDbSymbolTableRecord
100
AcDbLinetypeTableRecord
  2
STYLE_12
 70
               0
  3

 72
              65
 73
               2
 40
0.3937007874015748
 49
0.1968503937007874
 74
               0
 49
-0.1968503937007874
 74
               0
  0
LTYPE
  5
3E
100
AcDbSymbolTableRecord
100
AcDbLinetypeTableRecord
  2
STYLE_13
 70
               0
  3

 72
              65
 73
               2
 40
0.5905511811023622
 49
0.2952755905511811
 74
               0
 49
-0.2952755905511811
 74
               0
  0
LTYPE
  5
3F
100
AcDbSymbolTableRecord
100
AcDbLinetypeTableRecord
  2
STYLE_14
 70
               0
  3

 72
              65
 73
               2
 40
1.9685039370078738
 49
0.9842519685039369
 74
               0
 49
-0.9842519685039369
 74
               0
  0
ENDTAB
  0
TABLE
  2
LAYER
  5
2
100
AcDbSymbolTable
 70
               5
  0
LAYER
  5
14
100
AcDbSymbolTableRecord
100
AcDbLayerTableRecord
  2
0
 70
               0
 62
               7
  6
Continuous
290
               1
370
              -3
390
1D
  0
LAYER
  5
40
100
AcDbSymbolTableRecord
100
AcDbLayerTableRecord
  2
Defpoints
 70
               0
 62
               7
  6
Continuous
290
               0
370
              -3
390
1D
  0
LAYER
  5
41
100
AcDbSymbolTableRecord
100
AcDbLayerTableRecord
  2
template
 70
               0
 62
               7
  6
Continuous
290
               1
370
              -3
390
1D
  0
LAYER
  5
42
100
AcDbSymbolTableRecord
100
AcDbLayerTableRecord
  2
notes
 70
               0
 62
               7
  6
Continuous
290
               1
370
              -3
390
1D
  0
LAYER
  5
43
100
AcDbSymbolTableRecord
100
AcDbLayerTableRecord
  2
FAN70-0202
 70
               0
 62
               7
  6
Continuous
290
               1
370
              -3
390
1D
  0
ENDTAB
  0
TABLE
  2
STYLE
  5
3
100
AcDbSymbolTable
 70
               3
  0
STYLE
  5
17
100
AcDbSymbolTableRecord
100
AcDbTextStyleTableRecord
  2
Standard
 70
               0
 40
0.0
 41
1.0
 50
0.0
 71
               0
 42
0.0
  3
txt
  4
BIGFONT.SHX
  0
STYLE
  5
30
100
AcDbSymbolTableRecord
100
AcDbTextStyleTableRecord
  2
MS UI Gothic
 70
               0
 40
0.0
 41
1.0
 50
0.0
 71
               0
 42
0.0
  3

  4
MS UI Gothic
1001
ACAD
1000
MS UI Gothic
1071
        0
  0
STYLE
  5
31
100
AcDbSymbolTableRecord
100
AcDbTextStyleTableRecord
  2
ＭＳ ゴシック
 70
               0
 40
0.0
 41
1.0
 50
0.0
 71
               0
 42
0.0
  3

  4
ＭＳ ゴシック
1001
ACAD
1000
ＭＳ ゴシック
1071
        0
  0
ENDTAB
  0
TABLE
  2
VIEW
  5
5
100
AcDbSymbolTable
 70
               0
  0
ENDTAB
  0
TABLE
  2
UCS
  5
6
100
AcDbSymbolTable
 70
               0
  0
ENDTAB
  0
TABLE
  2
APPID
  5
8
100
AcDbSymbolTable
 70
               1
  0
APPID
  5
16
100
AcDbSymbolTableRecord
100
AcDbRegAppTableRecord
  2
ACAD
 70
               0
  0
ENDTAB
  0
TABLE
  2
DIMSTYLE
  5
9
100
AcDbSymbolTable
 70
               3
100
AcDbDimStyleTable
 71
               0
  0
DIMSTYLE
105
18
100
AcDbSymbolTableRecord
100
AcDbDimStyleTableRecord
  2
Standard
 70
               0
  3

  4

 40
1.0
 41
0.18
 42
0.0625
 43
0.38
 44
0.18
 45
0.0
 46
0.0
 47
0.0
 48
0.0
 71
               0
 72
               0
 73
               1
 74
               1
 75
               0
 76
               0
 77
               0
 78
               0
 79
               0
140
0.18
141
0.09
142
0.0
143
25.399999999999999
144
1.0
145
0.0
146
1.0
147
0.09
148
0.0
170
               0
171
               2
172
               0
173
               0
174
               0
175
               0
176
               0
177
               0
178
               0
179
               0
271
               4
272
               4
273
               2
274
               2
275
               0
276
               0
277
               2
278
              46
279
               0
280
               0
281
               0
282
               0
283
               1
284
               0
285
               0
286
               0
288
               0
289
               3
340
17
341
0
342
0
343
0
344
0
371
              -2
372
              -2
  0
DIMSTYLE
105
4C
100
AcDbSymbolTableRecord
100
AcDbDimStyleTableRecord
  2
tfrom線あり
 70
               0
  3
<>
  4
[]
 40
1.0
 41
3.999755859375
 42
24.999999999999996
 43
0.9999999999999999
 44
0.0
 45
0.0
 46
0.0
 47
0.0
 48
0.0
 71
               0
 72
               0
 73
               0
 74
               0
 75
               0
 76
               0
 77
               1
 78
              11
 79
               0
140
24.432617187500004
141
0.0
142
0.0
143
1.0
144
1.0
145
0.0
146
1.0
147
0.4999999999999999
148
0.0
170
               0
171
               1
172
               0
173
               0
174
               1
175
               0
176
               0
177
               0
178
               0
179
               2
271
               1
272
               1
273
               2
274
               2
275
               0
276
               2
277
               2
278
              46
279
               0
280
               0
281
               0
282
               0
283
               1
284
              11
285
              11
286
              11
288
               0
289
               0
340
31
341
44
342
44
343
0
344
0
371
              -2
372
              -2
  0
DIMSTYLE
105
51
100
AcDbSymbolTableRecord
100
AcDbDimStyleTableRecord
  2
JIS
 70
               0
  3
<>
  4
[]
 40
1.0
 41
31.75
 42
0.0
 43
6.9999999999999396
 44
19.999999999996199
 45
0.0
 46
0.0
 47
0.0
 48
0.0
 71
               0
 72
               0
 73
               0
 74
               0
 75
               0
 76
               0
 77
               1
 78
              11
 79
               0
140
24.432617187500004
141
0.0
142
0.0
143
1.0
144
1.0
145
0.0
146
1.0
147
1.00000000000108
148
0.0
170
               0
171
               1
172
               0
173
               0
174
               1
175
               0
176
               0
177
               0
178
               0
179
               2
271
               1
272
               1
273
               2
274
               2
275
               0
276
               2
277
               2
278
              46
279
               0
280
               0
281
               0
282
               0
283
               1
284
              11
285
              11
286
              11
288
               0
289
               0
340
31
341
4D
342
4D
343
0
344
0
371
              -2
372
              -2
  0
ENDTAB
  0
TABLE
  2
BLOCK_RECORD
  5
1
100
AcDbSymbolTable
 70
              15
  0
BLOCK_RECORD
  5
A
100
AcDbSymbolTableRecord
100
AcDbBlockTableRecord
  2
*MODEL_SPACE
340
20
  0
BLOCK_RECORD
  5
B
100
AcDbSymbolTableRecord
100
AcDbBlockTableRecord
  2
*PAPER_SPACE
340
21
  0
BLOCK_RECORD
  5
44
100
AcDbSymbolTableRecord
100
AcDbBlockTableRecord
  2
_DOT
340
0
  0
BLOCK_RECORD
  5
4D
100
AcDbSymbolTableRecord
100
AcDbBlockTableRecord
  2
VW_FILLEDARROW
340
0
  0
BLOCK_RECORD
  5
23
100
AcDbSymbolTableRecord
100
AcDbBlockTableRecord
  2
グループ
340
0
102
{BLKREFS
331
101
102
}
  0
BLOCK_RECORD
  5
24
100
AcDbSymbolTableRecord
100
AcDbBlockTableRecord
  2
*D3
340
0
  0
BLOCK_RECORD
  5
25
100
AcDbSymbolTableRecord
100
AcDbBlockTableRecord
  2
*D4
340
0
  0
BLOCK_RECORD
  5
26
100
AcDbSymbolTableRecord
100
AcDbBlockTableRecord
  2
*D5
340
0
  0
BLOCK_RECORD
  5
27
100
AcDbSymbolTableRecord
100
AcDbBlockTableRecord
  2
*D6
340
0
  0
BLOCK_RECORD
  5
28
100
AcDbSymbolTableRecord
100
AcDbBlockTableRecord
  2
*D7
340
0
  0
BLOCK_RECORD
  5
29
100
AcDbSymbolTableRecord
100
AcDbBlockTableRecord
  2
*D8
340
0
  0
BLOCK_RECORD
  5
2A
100
AcDbSymbolTableRecord
100
AcDbBlockTableRecord
  2
*D9
340
0
  0
BLOCK_RECORD
  5
2B
100
AcDbSymbolTableRecord
100
AcDbBlockTableRecord
  2
*D10
340
0
  0
BLOCK_RECORD
  5
2C
100
AcDbSymbolTableRecord
100
AcDbBlockTableRecord
  2
*D11
340
0
  0
BLOCK_RECORD
  5
2D
100
AcDbSymbolTableRecord
100
AcDbBlockTableRecord
  2
*D12
340
0
  0
BLOCK_RECORD
  5
2E
100
AcDbSymbolTableRecord
100
AcDbBlockTableRecord
  2
*D13
340
0
  0
BLOCK_RECORD
  5
2F
100
AcDbSymbolTableRecord
100
AcDbBlockTableRecord
  2
*D14
340
0
  0
ENDTAB
  0
ENDSEC
  0
SECTION
  2
BLOCKS
  0
BLOCK
  5
D
100
AcDbEntity
  8
0
390
0
100
AcDbBlockBegin
  2
*MODEL_SPACE
 70
               0
 10
0.0
 20
0.0
 30
0.0
  3
*MODEL_SPACE
  1

  0
ENDBLK
  5
E
100
AcDbEntity
  8
0
390
0
100
AcDbBlockEnd
  0
BLOCK
  5
F
100
AcDbEntity
 67
               1
  8
0
390
0
100
AcDbBlockBegin
  2
*PAPER_SPACE
 70
               0
 10
0.0
 20
0.0
 30
0.0
  3
*PAPER_SPACE
  1

  0
ENDBLK
  5
10
100
AcDbEntity
 67
               1
  8
0
390
0
100
AcDbBlockEnd
  0
BLOCK
  5
45
100
AcDbEntity
  8
0
390
0
100
AcDbBlockBegin
  2
_DOT
 70
               0
 10
0.0
 20
0.0
 30
0.0
  3
_DOT
  1

  0
POLYLINE
  5
46
100
AcDbEntity
  8
0
370
              -2
390
0
  6
ByBlock
 62
               0
100
AcDb2dPolyline
 66
               1
 10
0.0
 20
0.0
 30
0.0
 70
               1
 40
0.5
 41
0.5
  0
VERTEX
  5
47
100
AcDbEntity
  8
0
370
              -2
390
0
  6
ByBlock
 62
               0
100
AcDbVertex
100
AcDb2dVertex
 10
-0.25
 20
0.0
 30
0.0
 42
1.0
  0
VERTEX
  5
48
100
AcDbEntity
  8
0
370
              -2
390
0
  6
ByBlock
 62
               0
100
AcDbVertex
100
AcDb2dVertex
 10
0.25
 20
0.0
 30
0.0
 42
1.0
  0
SEQEND
  5
49
100
AcDbEntity
  8
0
390
0
  0
LINE
  5
4A
100
AcDbEntity
  8
0
370
              -2
390
0
  6
ByBlock
 62
               0
100
AcDbLine
 10
-0.5
 20
0.0
 30
0.0
 11
-1.0
 21
0.0
 31
0.0
  0
ENDBLK
  5
4B
100
AcDbEntity
  8
0
390
0
100
AcDbBlockEnd
  0
BLOCK
  5
4E
100
AcDbEntity
  8
0
370
              -2
390
0
  6
ByBlock
 62
               0
100
AcDbBlockBegin
  2
VW_FILLEDARROW
 70
               0
 10
0.0
 20
0.0
 30
0.0
  3
VW_FILLEDARROW
  1

  0
SOLID
  5
4F
100
AcDbEntity
  8
0
370
              -2
390
0
 62
               0
100
AcDbTrace
 10
0.0
 20
0.0
 30
0.0
 11
-0.9921874999999999
 21
-0.2658558393652545
 31
0.0
 12
-0.9921874999999999
 22
0.2658558393652548
 32
0.0
 13
-0.9921874999999999
 23
0.2658558393652548
 33
0.0
  0
ENDBLK
  5
50
100
AcDbEntity
  8
0
390
0
100
AcDbBlockEnd
  0
BLOCK
  5
52
100
AcDbEntity
  8
template
390
0
100
AcDbBlockBegin
  2
グループ
 70
               0
 10
0.0
 20
0.0
 30
0.0
  3
グループ
  1

  0
LWPOLYLINE
  5
53
100
AcDbEntity
  8
0
370
              15
390
0
  6
Continuous
 62
               7
100
AcDbPolyline
 90
        8
 70
             129
 10
887.42850780307481
 20
-1216.3529285708557
 10
887.42850780307481
 20
-1222.3503172644316
 10
877.92731088507162
 20
-1222.3503172644316
 10
877.92731088507162
 20
-1246.8012805279404
 10
869.57193362328871
 20
-1246.8012805279404
 10
869.57193362328871
 20
-1222.3503172644316
 10
860.23897667697929
 20
-1222.3503172644316
 10
860.23897667697929
 20
-1216.3529285708557
  0
LWPOLYLINE
  5
54
100
AcDbEntity
  8
0
370
              15
390
0
  6
Continuous
 62
               7
100
AcDbPolyline
 90
      101
 70
             128
 10
900.15679963363186
 20
-1217.0811770637922
 10
900.17214966241488
 20
-1217.0768163071077
 42
-0.0222221607816995
 10
900.46215423908791
 20
-1217.0081918418625
 10
900.47794800308111
 20
-1217.0051884187656
 42
-0.0146883565585591
 10
900.74065070830568
 20
-1216.9631852318162
 42
-0.012745884418423
 10
901.0052896754587
 20
-1216.9356482637436
 10
901.06774475377142
 20
-1216.9307548411555
 42
-0.0198099018567381
 10
901.45859386324764
 20
-1216.915669683759
 10
901.51040533269213
 20
-1216.915723459424
 42
-0.0147617382762202
 10
902.00502879366923
 20
-1216.9308434846689
 10
902.07772024853898
 20
-1216.9352160915564
 42
-0.016262454900472
 10
902.46787387800578
 20
-1216.9714489668288
 10
902.58940626927017
 20
-1216.9867355258259
 42
-0.0080020874660534
 10
902.73498530035658
 20
-1217.0074183730937
 10
902.77330477095256
 20
-1217.0134896509048
 42
-0.0053821929663838
 10
902.84178887626649
 20
-1217.0250971747264
 10
902.11538317706777
 20
-1219.2060256304403
 42
0.0108667757392159
 10
902.04806610693538
 20
-1219.19283851522
 10
902.01059808374748
 20
-1219.186340772626
 42
0.0170663203307658
 10
901.8673812968334
 20
-1219.1665111753343
 10
901.79950596414892
 20
-1219.1594640047467
 42
0.0220162375276673
 10
901.51912655629246
 20
-1219.1427816439766
 10
901.44127098924173
 20
-1219.1415822767101
 42
0.0282606915783955
 10
901.10563466566362
 20
-1219.155385553679
 10
901.06172139189118
 20
-1219.1596855436828
 42
0.0169677213690567
 10
900.8157968969324
 20
-1219.1922225932349
 42
0.0190576269868579
 10
900.57288893435214
 20
-1219.2423694653412
 10
900.56662974624157
 20
-1219.2439124394505
 42
0.0213685642842817
 10
900.31624526176108
 20
-1219.317112724556
 10
900.31075536684762
 20
-1219.3189757206142
 42
0.0237595297589723
 10
900.05726048194992
 20
-1219.4186602425093
 10
900.05215840791925
 20
-1219.4209520179879
 42
0.0261857468812466
 10
899.7999876316876
 20
-1219.5504883553633
 10
899.78956144260178
 20
-1219.556553829831
 42
0.0272553062023051
 10
899.5531316673638
 20
-1219.7119260357754
 10
899.5183686538553
 20
-1219.7375871838669
 42
0.0325996893177384
 10
899.3682133102028
 20
-1219.8643350568389
 10
899.34450388107382
 20
-1219.8871530853573
 42
0.0138050960641363
 10
899.25262072486953
 20
-1219.9806027469035
 42
0.0125280103807697
 10
899.16577819204315
 20
-1220.0787660734952
 10
899.14209774712765
 20
-1220.1069245716908
 42
0.0205218024738399
 10
899.01699767161153
 20
-1220.2687178859233
 10
898.99453133112684
 20
-1220.3003776157468
 42
0.0163110129581913
 10
898.83882095187528
 20
-1220.535708050817
 10
898.83609705582455
 20
-1220.5401318128022
 42
0.013189734190081
 10
898.68929653491568
 20
-1220.7932639051719
 10
898.68759643955218
 20
-1220.7963821443022
 42
0.0107895576063661
 10
898.54981973734107
 20
-1221.0625973539384
 10
898.5490868478164
 20
-1221.064091586584
 42
0.0091371507216178
 10
898.4206068991673
 20
-1221.3386167843428
 10
898.39086126775771
 20
-1221.4053232915026
 42
0.0135418326354806
 10
898.21914732868493
 20
-1221.8202610767737
 10
898.1855425202524
 20
-1221.9081272190508
 42
0.0092834542409608
 10
898.01431346033087
 20
-1222.3820257173579
 10
897.98869633261802
 20
-1222.4572667871373
 42
0.0054261043580865
 10
897.8810581843203
 20
-1222.7850307602162
 10
897.8635321981368
 20
-1222.8404189224655
 42
0.0008225090823089
 10
897.79486214631288
 20
-1223.0586876805955
 10
896.81017301437942
 20
-1226.0835789738521
 10
900.04279685445317
 20
-1226.0835789738521
 10
899.53860442459973
 20
-1227.9880572722045
 10
896.28254814261641
 20
-1227.9880572722045
 10
890.45339911026258
 20
-1246.8012803382094
 10
888.62830149995239
 20
-1246.8012803382094
 10
894.46297953545331
 20
-1227.9880572722045
 10
892.05786316641297
 20
-1227.9880572722045
 10
892.56205559626642
 20
-1226.0835789738521
 10
894.99060440721632
 20
-1226.0835789738521
 10
895.85075932540508
 20
-1223.4471659731532
 42
-0.0005863560644345
 10
895.88749400356903
 20
-1223.3303395529863
 10
895.96358183726886
 20
-1223.089347253476
 42
-0.0087522378925503
 10
896.16304998072599
 20
-1222.4940711663287
 10
896.25531425614076
 20
-1222.2339309978122
 42
-0.0077400953830024
 10
896.51324791527031
 20
-1221.5409263202682
 10
896.52901288684689
 20
-1221.5004954368881
 42
-0.0082369946330518
 10
896.77609735746114
 20
-1220.8964163706864
 42
-0.0085725238363833
 10
897.0433434534657
 20
-1220.300990331396
 10
897.14497305447048
 20
-1220.0845692294163
 42
-0.0168109410596449
 10
897.43191748320146
 20
-1219.52336170331
 10
897.55776087363847
 20
-1219.2963976703525
 42
-0.0007817726868855
 10
897.61204522371713
 20
-1219.1988534252814
 10
897.6121735297196
 20
-1219.1986237165715
 42
-0.0036626142161405
 10
897.6670613937556
 20
-1219.1020258365766
 42
-0.0080221150679748
 10
897.72418564916165
 20
-1219.0067466018249
 10
897.75488560052349
 20
-1218.9573556527016
 42
-0.020213932556849
 10
897.88254134033025
 20
-1218.7693740520201
 10
897.93660880551784
 20
-1218.6962951877792
 42
-0.0249323791798447
 10
898.1957715992371
 20
-1218.3802499456247
 10
898.219911413364
 20
-1218.3536356727122
 42
-0.0242132121539522
 10
898.55959215490293
 20
-1218.0137521865111
 10
898.60750372765665
 20
-1217.9702430503223
 42
-0.0251017527864033
 10
898.89148542829741
 20
-1217.7372503045576
 10
898.89293090510569
 20
-1217.7361810469827
 42
-0.0130868069042746
 10
899.19119155506849
 20
-1217.5274005784361
 10
899.19275337421197
 20
-1217.5263671381606
 42
-0.0290329526393379
 10
899.5038645156045
 20
-1217.3455416365318
 10
899.53371007759358
 20
-1217.3304392536907
 42
-0.0160250190046393
 10
899.79961449135521
 20
-1217.2064231434788
 42
-0.0267600374782351
 10
900.07489056882446
 20
-1217.1056748229303
 10
900.10162648834489
 20
-1217.0974822641047
 42
-0.0049981587670081
 10
900.15679963363186
 20
-1217.0811770637922
 42
-0.0049981587670081
  0
LWPOLYLINE
  5
55
100
AcDbEntity
  8
0
370
              15
390
0
  6
Continuous
 62
               7
100
AcDbPolyline
 90
      118
 70
             128
 10
919.97116719807877
 20
-1226.1575623016795
 10
921.84628912257813
 20
-1226.1575623016795
 10
921.00825021697824
 20
-1228.8391288280795
 42
-0.0010587229173933
 10
921.03970603261757
 20
-1228.8022242946452
 10
921.09790012318217
 20
-1228.7342420385485
 42
-0.0071874740417101
 10
921.2482753412711
 20
-1228.5636013465294
 10
921.38999811454244
 20
-1228.4073652052061
 42
-0.0148118053512363
 10
921.84012740725746
 20
-1227.939751359191
 10
921.92734974215796
 20
-1227.8543540383387
 42
-0.0086273358692412
 10
922.26289854316542
 20
-1227.5369784043232
 10
922.30673225939404
 20
-1227.4969287599877
 42
-0.0103138323107965
 10
922.56475596162488
 20
-1227.2707656226519
 10
922.61053036795181
 20
-1227.2322835753919
 42
-0.006020674856757
 10
922.78337843206418
 20
-1227.0904889246372
 10
922.78540956294
 20
-1227.088863219014
 42
-0.0067069027292838
 10
922.95770237761258
 20
-1226.9547125852109
 10
922.96025114353938
 20
-1226.9527824153349
 42
-0.0076184352042701
 10
923.13115640940987
 20
-1226.8274075400918
 42
-0.0089652861674684
 10
923.30611737214042
 20
-1226.7077742797621
 10
923.34246909229182
 20
-1226.6838630662749
 42
-0.0156916245935726
 10
923.5384285894495
 20
-1226.5636005798019
 42
-0.0023299011056857
 10
923.73869063342374
 20
-1226.4504226402642
 10
923.75407476580926
 20
-1226.4418226451965
 42
-0.0107669341488083
 10
923.98831159090867
 20
-1226.3174225118478
 10
924.01057639198541
 20
-1226.306205761897
 42
-0.0078058045893961
 10
924.29416650994597
 20
-1226.1688443062549
 10
924.30407359764729
 20
-1226.1642351783901
 42
-0.0181829330475808
 10
924.61438300225859
 20
-1226.0333714372962
 10
924.66843844483162
 20
-1226.0128563173503
 42
-0.020841153602761
 10
925.01752341227996
 20
-1225.8967658548577
 10
925.0318795124067
 20
-1225.8926474099044
 42
-0.0222799817134268
 10
925.36059930632462
 20
-1225.8140058437639
 10
925.36948826956313
 20
-1225.8122938331785
 42
-0.0215509523882558
 10
925.68595923784142
 20
-1225.7653781446447
 10
925.7284411988893
 20
-1225.760940617854
 42
-0.0182545924874938
 10
925.96254997819563
 20
-1225.7450967924628
 10
926.00195099453572
 20
-1225.7438722473839
 42
-0.0072962856538462
 10
926.15787387423256
 20
-1225.7413029188615
 10
926.18697354480116
 20
-1225.7412480834578
 42
-0.0059227516311094
 10
926.28472304394961
 20
-1225.742221795248
 10
926.31396526145329
 20
-1225.7428595618521
 42
-0.0011833111896518
 10
926.35321654515383
 20
-1225.7438085661615
 10
925.55782994954666
 20
-1228.2825425112605
 42
0.0143932051546657
 10
925.53142856719455
 20
-1228.2723435412145
 10
925.5241565947789
 20
-1228.2697723223578
 42
0.0234388603506931
 10
925.48232572884649
 20
-1228.2571530866426
 10
925.47364406593408
 20
-1228.2549721246376
 42
0.0199162742964455
 10
925.41335523185489
 20
-1228.2423553893025
 10
925.39254129404787
 20
-1228.238858189874
 42
0.0293643550675317
 10
925.28946643528877
 20
-1228.227708144221
 10
925.26478125456833
 20
-1228.2264965272022
 42
0.0214606686870507
 10
925.11164033861701
 20
-1228.2255579667849
 10
925.10226842779787
 20
-1228.2259028783292
 42
0.0167564054187902
 10
924.93074823669042
 20
-1228.2379799206972
 10
924.92228844393048
 20
-1228.2388612611244
 42
0.0137677553248583
 10
924.7349351306616
 20
-1228.2636105696683
 10
924.72758339115796
 20
-1228.2647884896357
 42
0.0118497261485365
 10
924.52708562705811
 20
-1228.3018058398245
 10
924.52093561980939
 20
-1228.303092702545
 42
0.0106421143890546
 10
924.31005473252515
 20
-1228.3519250781196
 10
924.30514592413533
 20
-1228.3531724208049
 42
0.009974637970502
 10
924.08668745497062
 20
-1228.4133469491203
 10
924.02513941480254
 20
-1228.4316288277503
 42
0.0191613675863501
 10
923.68915495228589
 20
-1228.5456062080377
 10
923.60109517953924
 20
-1228.5792931183623
 42
0.0205274080147372
 10
923.21578840764084
 20
-1228.7451215261879
 10
923.15813912565909
 20
-1228.77278949076
 42
0.0181256912193572
 10
922.89986218499178
 20
-1228.9084733097379
 10
922.84690680167512
 20
-1228.9387909229542
 42
0.0140709242412418
 10
922.7019518670495
 20
-1229.0272855963872
 10
922.67570299843169
 20
-1229.0443424151022
 42
0.0086667884394794
 10
922.58677683688848
 20
-1229.1043450829854
 42
0.003640819201488
 10
922.4993435988797
 20
-1229.16652594076
 10
922.46411672438649
 20
-1229.1919668866906
 42
0.0052260781278828
 10
922.30788802697657
 20
-1229.3072992733389
 10
922.29168117073584
 20
-1229.3195273839428
 42
0.0050024435898191
 10
922.10567782767134
 20
-1229.4628099522095
 10
922.09035967116176
 20
-1229.4748559746508
 42
0.0136138710277092
 10
921.87991840283541
 20
-1229.6498224795653
 10
921.84625052704291
 20
-1229.6794014522784
 42
0.0172815186915843
 10
921.58184698537571
 20
-1229.9283981249066
 10
921.57928463953783
 20
-1229.9309839420489
 42
0.0189403857993436
 10
921.32870284096157
 20
-1230.2037892068499
 10
921.29607134742253
 20
-1230.2421331383507
 42
0.0185044199506342
 10
921.10411490844263
 20
-1230.4853817194735
 42
0.0088565243900613
 10
920.92565480181463
 20
-1230.738898139623
 10
920.91647682216569
 20
-1230.7524395193834
 42
0.0157195347224029
 10
920.73325621583353
 20
-1231.0419617286959
 10
920.68717327389925
 20
-1231.1201139257225
 42
0.0095451879781822
 10
920.52208772376309
 20
-1231.4127085680766
 10
920.51093980483574
 20
-1231.4333792402042
 42
0.0100351706254988
 10
920.3788960556742
 20
-1231.6904348006992
 42
0.0086935915423289
 10
920.2565649038786
 20
-1231.9522679461074
 10
920.25324416246576
 20
-1231.9597102690755
 42
0.0072580174867597
 10
920.13289771052212
 20
-1232.2403022606554
 10
920.1296360772144
 20
-1232.2482222866765
 42
0.0060005122612748
 10
920.01043540887395
 20
-1232.5478319572755
 10
920.00722443053007
 20
-1232.5561934851862
 42
0.0049017786978771
 10
919.88832427166892
 20
-1232.875122465801
 10
919.88515846528219
 20
-1232.8838754030212
 42
0.0039415167601332
 10
919.76572218722583
 20
-1233.2224174654334
 10
919.76259108457339
 20
-1233.2315206663104
 42
0.0031035838762035
 10
919.64178629888238
 20
-1233.5899605280777
 10
919.63867625435
 20
-1233.5993811494586
 42
0.0025070747149636
 10
919.51577490303441
 20
-1233.9780283664029
 10
919.47848100660917
 20
-1234.0949200316556
 42
0.0029081910282878
 10
919.28646270880768
 20
-1234.7090836899165
 10
919.24565954028128
 20
-1234.8423069322232
 42
0.0009266453734886
 10
918.97724216595361
 20
-1235.7245313921896
 10
918.95635469327954
 20
-1235.793643271536
 42
-0.0005809993666069
 10
918.6790180127349
 20
-1236.7074513780217
 10
918.61273621446844
 20
-1236.9249363101596
 42
-0.0012018708170803
 10
918.46575190503268
 20
-1237.4030989747021
 10
918.41343205341047
 20
-1237.5718581157503
 42
-0.0002691059604588
 10
918.36986257229864
 20
-1237.7121257359097
 10
915.53690667400929
 20
-1246.8012803382094
 10
913.71891778203076
 20
-1246.8012803382094
 10
919.97116719807877
 20
-1226.1575623016795
  0
SPLINE
  5
56
100
AcDbEntity
  8
0
370
              15
390
0
  6
Continuous
 62
               7
100
AcDbSpline
210
0.0
220
0.0
230
1.0
 70
              13
 71
               2
 72
             782
 73
             779
 74
               0
 42
0.000001
 43
0.000001
 40
0.0
 40
0.0
 40
0.0
 40
1.0
 40
1.0
 40
2.0
 40
2.0
 40
3.0
 40
3.0
 40
4.0
 40
4.0
 40
5.0
 40
5.0
 40
6.0
 40
6.0
 40
7.0
 40
7.0
 40
8.0
 40
8.0
 40
9.0
 40
9.0
 40
10.0
 40
10.0
 40
11.0
 40
11.0
 40
12.0
 40
12.0
 40
13.0
 40
13.0
 40
14.0
 40
14.0
 40
15.0
 40
15.0
 40
16.0
 40
16.0
 40
17.0
 40
17.0
 40
18.0
 40
18.0
 40
19.0
 40
19.0
 40
20.0
 40
20.0
 40
21.0
 40
21.0
 40
22.0
 40
22.0
 40
23.0
 40
23.0
 40
24.0
 40
24.0
 40
25.0
 40
25.0
 40
26.0
 40
26.0
 40
27.0
 40
27.0
 40
28.0
 40
28.0
 40
29.0
 40
29.0
 40
30.0
 40
30.0
 40
31.0
 40
31.0
 40
32.0
 40
32.0
 40
33.0
 40
33.0
 40
34.0
 40
34.0
 40
35.0
 40
35.0
 40
36.0
 40
36.0
 40
37.0
 40
37.0
 40
38.0
 40
38.0
 40
39.0
 40
39.0
 40
40.0
 40
40.0
 40
41.0
 40
41.0
 40
42.0
 40
42.0
 40
43.0
 40
43.0
 40
44.0
 40
44.0
 40
45.0
 40
45.0
 40
46.0
 40
46.0
 40
47.0
 40
47.0
 40
48.0
 40
48.0
 40
49.0
 40
49.0
 40
50.0
 40
50.0
 40
51.0
 40
51.0
 40
52.0
 40
52.0
 40
53.0
 40
53.0
 40
54.0
 40
54.0
 40
55.0
 40
55.0
 40
56.0
 40
56.0
 40
57.0
 40
57.0
 40
58.0
 40
58.0
 40
59.0
 40
59.0
 40
60.0
 40
60.0
 40
61.0
 40
61.0
 40
62.0
 40
62.0
 40
63.0
 40
63.0
 40
64.0
 40
64.0
 40
65.0
 40
65.0
 40
66.0
 40
66.0
 40
67.0
 40
67.0
 40
68.0
 40
68.0
 40
69.0
 40
69.0
 40
70.0
 40
70.0
 40
71.0
 40
71.0
 40
72.0
 40
72.0
 40
73.0
 40
73.0
 40
74.0
 40
74.0
 40
75.0
 40
75.0
 40
76.0
 40
76.0
 40
77.0
 40
77.0
 40
78.0
 40
78.0
 40
79.0
 40
79.0
 40
80.0
 40
80.0
 40
81.0
 40
81.0
 40
82.0
 40
82.0
 40
83.0
 40
83.0
 40
84.0
 40
84.0
 40
85.0
 40
85.0
 40
86.0
 40
86.0
 40
87.0
 40
87.0
 40
88.0
 40
88.0
 40
89.0
 40
89.0
 40
90.0
 40
90.0
 40
91.0
 40
91.0
 40
92.0
 40
92.0
 40
93.0
 40
93.0
 40
94.0
 40
94.0
 40
95.0
 40
95.0
 40
96.0
 40
96.0
 40
97.0
 40
97.0
 40
98.0
 40
98.0
 40
99.0
 40
99.0
 40
100.0
 40
100.0
 40
101.0
 40
101.0
 40
102.0
 40
102.0
 40
103.0
 40
103.0
 40
104.0
 40
104.0
 40
105.0
 40
105.0
 40
106.0
 40
106.0
 40
107.0
 40
107.0
 40
108.0
 40
108.0
 40
109.0
 40
109.0
 40
110.0
 40
110.0
 40
111.0
 40
111.0
 40
112.0
 40
112.0
 40
113.0
 40
113.0
 40
114.0
 40
114.0
 40
115.0
 40
115.0
 40
116.0
 40
116.0
 40
117.0
 40
117.0
 40
118.0
 40
118.0
 40
119.0
 40
119.0
 40
120.0
 40
120.0
 40
121.0
 40
121.0
 40
122.0
 40
122.0
 40
123.0
 40
123.0
 40
124.0
 40
124.0
 40
125.0
 40
125.0
 40
126.0
 40
126.0
 40
127.0
 40
127.0
 40
128.0
 40
128.0
 40
129.0
 40
129.0
 40
130.0
 40
130.0
 40
131.0
 40
131.0
 40
132.0
 40
132.0
 40
133.0
 40
133.0
 40
134.0
 40
134.0
 40
135.0
 40
135.0
 40
136.0
 40
136.0
 40
137.0
 40
137.0
 40
138.0
 40
138.0
 40
139.0
 40
139.0
 40
140.0
 40
140.0
 40
141.0
 40
141.0
 40
142.0
 40
142.0
 40
143.0
 40
143.0
 40
144.0
 40
144.0
 40
145.0
 40
145.0
 40
146.0
 40
146.0
 40
147.0
 40
147.0
 40
148.0
 40
148.0
 40
149.0
 40
149.0
 40
150.0
 40
150.0
 40
151.0
 40
151.0
 40
152.0
 40
152.0
 40
153.0
 40
153.0
 40
154.0
 40
154.0
 40
155.0
 40
155.0
 40
156.0
 40
156.0
 40
157.0
 40
157.0
 40
158.0
 40
158.0
 40
159.0
 40
159.0
 40
160.0
 40
160.0
 40
161.0
 40
161.0
 40
162.0
 40
162.0
 40
163.0
 40
163.0
 40
164.0
 40
164.0
 40
165.0
 40
165.0
 40
166.0
 40
166.0
 40
167.0
 40
167.0
 40
168.0
 40
168.0
 40
169.0
 40
169.0
 40
170.0
 40
170.0
 40
171.0
 40
171.0
 40
172.0
 40
172.0
 40
173.0
 40
173.0
 40
174.0
 40
174.0
 40
175.0
 40
175.0
 40
176.0
 40
176.0
 40
177.0
 40
177.0
 40
178.0
 40
178.0
 40
179.0
 40
179.0
 40
180.0
 40
180.0
 40
181.0
 40
181.0
 40
182.0
 40
182.0
 40
183.0
 40
183.0
 40
184.0
 40
184.0
 40
185.0
 40
185.0
 40
186.0
 40
186.0
 40
187.0
 40
187.0
 40
188.0
 40
188.0
 40
189.0
 40
189.0
 40
190.0
 40
190.0
 40
191.0
 40
191.0
 40
192.0
 40
192.0
 40
193.0
 40
193.0
 40
194.0
 40
194.0
 40
195.0
 40
195.0
 40
196.0
 40
196.0
 40
197.0
 40
197.0
 40
198.0
 40
198.0
 40
199.0
 40
199.0
 40
200.0
 40
200.0
 40
201.0
 40
201.0
 40
202.0
 40
202.0
 40
203.0
 40
203.0
 40
204.0
 40
204.0
 40
205.0
 40
205.0
 40
206.0
 40
206.0
 40
207.0
 40
207.0
 40
208.0
 40
208.0
 40
209.0
 40
209.0
 40
210.0
 40
210.0
 40
211.0
 40
211.0
 40
212.0
 40
212.0
 40
213.0
 40
213.0
 40
214.0
 40
214.0
 40
215.0
 40
215.0
 40
216.0
 40
216.0
 40
217.0
 40
217.0
 40
218.0
 40
218.0
 40
219.0
 40
219.0
 40
220.0
 40
220.0
 40
221.0
 40
221.0
 40
222.0
 40
222.0
 40
223.0
 40
223.0
 40
224.0
 40
224.0
 40
225.0
 40
225.0
 40
226.0
 40
226.0
 40
227.0
 40
227.0
 40
228.0
 40
228.0
 40
229.0
 40
229.0
 40
230.0
 40
230.0
 40
231.0
 40
231.0
 40
232.0
 40
232.0
 40
233.0
 40
233.0
 40
234.0
 40
234.0
 40
235.0
 40
235.0
 40
236.0
 40
236.0
 40
237.0
 40
237.0
 40
238.0
 40
238.0
 40
239.0
 40
239.0
 40
240.0
 40
240.0
 40
241.0
 40
241.0
 40
242.0
 40
242.0
 40
243.0
 40
243.0
 40
244.0
 40
244.0
 40
245.0
 40
245.0
 40
246.0
 40
246.0
 40
247.0
 40
247.0
 40
248.0
 40
248.0
 40
249.0
 40
249.0
 40
250.0
 40
250.0
 40
251.0
 40
251.0
 40
252.0
 40
252.0
 40
253.0
 40
253.0
 40
254.0
 40
254.0
 40
255.0
 40
255.0
 40
256.0
 40
256.0
 40
257.0
 40
257.0
 40
258.0
 40
258.0
 40
259.0
 40
259.0
 40
260.0
 40
260.0
 40
261.0
 40
261.0
 40
262.0
 40
262.0
 40
263.0
 40
263.0
 40
264.0
 40
264.0
 40
265.0
 40
265.0
 40
266.0
 40
266.0
 40
267.0
 40
267.0
 40
268.0
 40
268.0
 40
269.0
 40
269.0
 40
270.0
 40
270.0
 40
271.0
 40
271.0
 40
272.0
 40
272.0
 40
273.0
 40
273.0
 40
274.0
 40
274.0
 40
275.0
 40
275.0
 40
276.0
 40
276.0
 40
277.0
 40
277.0
 40
278.0
 40
278.0
 40
279.0
 40
279.0
 40
280.0
 40
280.0
 40
281.0
 40
281.0
 40
282.0
 40
282.0
 40
283.0
 40
283.0
 40
284.0
 40
284.0
 40
285.0
 40
285.0
 40
286.0
 40
286.0
 40
287.0
 40
287.0
 40
288.0
 40
288.0
 40
289.0
 40
289.0
 40
290.0
 40
290.0
 40
291.0
 40
291.0
 40
292.0
 40
292.0
 40
293.0
 40
293.0
 40
294.0
 40
294.0
 40
295.0
 40
295.0
 40
296.0
 40
296.0
 40
297.0
 40
297.0
 40
298.0
 40
298.0
 40
299.0
 40
299.0
 40
300.0
 40
300.0
 40
301.0
 40
301.0
 40
302.0
 40
302.0
 40
303.0
 40
303.0
 40
304.0
 40
304.0
 40
305.0
 40
305.0
 40
306.0
 40
306.0
 40
307.0
 40
307.0
 40
308.0
 40
308.0
 40
309.0
 40
309.0
 40
310.0
 40
310.0
 40
311.0
 40
311.0
 40
312.0
 40
312.0
 40
313.0
 40
313.0
 40
314.0
 40
314.0
 40
315.0
 40
315.0
 40
316.0
 40
316.0
 40
317.0
 40
317.0
 40
318.0
 40
318.0
 40
319.0
 40
319.0
 40
320.0
 40
320.0
 40
321.0
 40
321.0
 40
322.0
 40
322.0
 40
323.0
 40
323.0
 40
324.0
 40
324.0
 40
325.0
 40
325.0
 40
326.0
 40
326.0
 40
327.0
 40
327.0
 40
328.0
 40
328.0
 40
329.0
 40
329.0
 40
330.0
 40
330.0
 40
331.0
 40
331.0
 40
332.0
 40
332.0
 40
333.0
 40
333.0
 40
334.0
 40
334.0
 40
335.0
 40
335.0
 40
336.0
 40
336.0
 40
337.0
 40
337.0
 40
338.0
 40
338.0
 40
339.0
 40
339.0
 40
340.0
 40
340.0
 40
341.0
 40
341.0
 40
342.0
 40
342.0
 40
343.0
 40
343.0
 40
344.0
 40
344.0
 40
345.0
 40
345.0
 40
346.0
 40
346.0
 40
347.0
 40
347.0
 40
348.0
 40
348.0
 40
349.0
 40
349.0
 40
350.0
 40
350.0
 40
351.0
 40
351.0
 40
352.0
 40
352.0
 40
353.0
 40
353.0
 40
354.0
 40
354.0
 40
355.0
 40
355.0
 40
356.0
 40
356.0
 40
357.0
 40
357.0
 40
358.0
 40
358.0
 40
359.0
 40
359.0
 40
360.0
 40
360.0
 40
361.0
 40
361.0
 40
362.0
 40
362.0
 40
363.0
 40
363.0
 40
364.0
 40
364.0
 40
365.0
 40
365.0
 40
366.0
 40
366.0
 40
367.0
 40
367.0
 40
368.0
 40
368.0
 40
369.0
 40
369.0
 40
370.0
 40
370.0
 40
371.0
 40
371.0
 40
372.0
 40
372.0
 40
373.0
 40
373.0
 40
374.0
 40
374.0
 40
375.0
 40
375.0
 40
376.0
 40
376.0
 40
377.0
 40
377.0
 40
378.0
 40
378.0
 40
379.0
 40
379.0
 40
380.0
 40
380.0
 40
381.0
 40
381.0
 40
382.0
 40
382.0
 40
383.0
 40
383.0
 40
384.0
 40
384.0
 40
385.0
 40
385.0
 40
386.0
 40
386.0
 40
387.0
 40
387.0
 40
388.0
 40
388.0
 40
389.0
 40
389.0
 40
389.0
 10
930.2998716488114
 20
-1226.1466359383171
 30
0.0
 41
1.0
 10
931.11829575753188
 20
-1226.1466359383171
 30
0.0
 41
1.0
 10
931.93671986625236
 20
-1226.1466359383171
 30
0.0
 41
1.0
 10
931.52296613073554
 20
-1227.4892622025668
 30
0.0
 41
1.0
 10
931.10921239521872
 20
-1228.8318884668165
 30
0.0
 41
1.0
 10
931.12755189038626
 20
-1228.8031876939058
 30
0.0
 41
0.9999957264340734
 10
931.14605888723565
 20
-1228.7745946437262
 30
0.0
 41
1.0
 10
931.1764882113639
 20
-1228.7275817653644
 30
0.0
 41
1.0
 10
931.20691753549204
 20
-1228.6805688870027
 30
0.0
 41
1.0
 10
931.28628318059941
 20
-1228.5579500800977
 30
0.0
 41
0.9995394069081455
 10
931.37294157215297
 20
-1228.4403720183536
 30
0.0
 41
1.0
 10
931.40869843441033
 20
-1228.3918571257634
 30
0.0
 41
1.0
 10
931.44445529666768
 20
-1228.3433422331732
 30
0.0
 41
1.0
 10
931.57818196448648
 20
-1228.1619019580453
 30
0.0
 41
0.99944606171432
 10
931.72368244577569
 20
-1227.9897595603943
 30
0.0
 41
1.0
 10
931.72807062675201
 20
-1227.9845678800102
 30
0.0
 41
1.0
 10
931.73245880772845
 20
-1227.9793761996259
 30
0.0
 41
1.0
 10
931.86918292706423
 20
-1227.817617162744
 30
0.0
 41
0.9994359394934378
 10
932.01645715741506
 20
-1227.66540096158
 30
0.0
 41
1.0
 10
932.01884051136813
 20
-1227.6629376312071
 30
0.0
 41
1.0
 10
932.02122386532108
 20
-1227.6604743008343
 30
0.0
 41
1.0
 10
932.16373138776567
 20
-1227.5131847604162
 30
0.0
 41
0.9995293688567968
 10
932.31500306874875
 20
-1227.374911548251
 30
0.0
 41
1.0
 10
932.33429682801125
 20
-1227.3572756626008
 30
0.0
 41
1.0
 10
932.35359058727374
 20
-1227.3396397769504
 30
0.0
 41
1.0
 10
932.46627474972956
 20
-1227.2366383360882
 30
0.0
 41
0.9997087614802934
 10
932.58379763868584
 20
-1227.1391940552892
 30
0.0
 41
1.0
 10
932.6029637118711
 20
-1227.123302476773
 30
0.0
 41
1.0
 10
932.62212978505647
 20
-1227.1074108982571
 30
0.0
 41
1.0
 10
932.70132052764779
 20
-1227.0417497744857
 30
0.0
 41
0.9999595338701152
 10
932.78167979849604
 20
-1226.9775240438362
 30
0.0
 41
1.0
 10
932.86203906935509
 20
-1226.9132983131783
 30
0.0
 41
0.9999749417502568
 10
932.94329960370374
 20
-1226.850216759228
 30
0.0
 41
1.0
 10
932.96428574985907
 20
-1226.8339254719317
 30
0.0
 41
1.0
 10
932.98527189601441
 20
-1226.8176341846356
 30
0.0
 41
1.0
 10
933.06983978131962
 20
-1226.751985174792
 30
0.0
 41
0.99997920371256
 10
933.15524738109707
 20
-1226.6874323931424
 30
0.0
 41
1.0
 10
933.17607220707259
 20
-1226.6716925708361
 30
0.0
 41
1.0
 10
933.19689703304812
 20
-1226.6559527485299
 30
0.0
 41
1.0
 10
933.2406549809275
 20
-1226.6228796114526
 30
0.0
 41
0.9999993373911212
 10
933.28433666700971
 20
-1226.5897058160747
 30
0.0
 41
1.0
 10
933.32801835315365
 20
-1226.5565320206501
 30
0.0
 41
0.9999160953814502
 10
933.37254476407406
 20
-1226.5245009554512
 30
0.0
 41
1.0
 10
933.40536665149284
 20
-1226.5008897998669
 30
0.0
 41
1.0
 10
933.4381885389115
 20
-1226.4772786442827
 30
0.0
 41
1.0
 10
933.54835872467049
 20
-1226.3980252679144
 30
0.0
 41
0.9980964527231465
 10
933.66744771817071
 20
-1226.3329377950588
 30
0.0
 41
1.0
 10
933.70448032510012
 20
-1226.3126978154651
 30
0.0
 41
1.0
 10
933.74151293202942
 20
-1226.2924578358711
 30
0.0
 41
1.0
 10
933.92083994530083
 20
-1226.1944475851708
 30
0.0
 41
0.9984572810572661
 10
934.10992851165884
 20
-1226.1169253238249
 30
0.0
 41
1.0
 10
934.11357478105629
 20
-1226.1154304314864
 30
0.0
 41
1.0
 10
934.11722105045362
 20
-1226.1139355391479
 30
0.0
 41
1.0
 10
934.29901707801901
 20
-1226.0394030624782
 30
0.0
 41
0.9987838528034041
 10
934.48726973657699
 20
-1225.9831374223127
 30
0.0
 41
1.0
 10
934.4915076857742
 20
-1225.9818707686229
 30
0.0
 41
1.0
 10
934.49574563497151
 20
-1225.9806041149332
 30
0.0
 41
1.0
 10
934.67552239513429
 20
-1225.9268717821474
 30
0.0
 41
0.9990652816207084
 10
934.85926832685209
 20
-1225.8888681026049
 30
0.0
 41
1.0
 10
934.86445672788409
 20
-1225.8877949994983
 30
0.0
 41
1.0
 10
934.86964512891609
 20
-1225.8867218963917
 30
0.0
 41
1.0
 10
935.04301425856852
 20
-1225.8508644230628
 30
0.0
 41
0.9992909934270214
 10
935.21859002502629
 20
-1225.8281539905963
 30
0.0
 41
1.0
 10
935.39416579148269
 20
-1225.80544355813
 30
0.0
 41
0.9994553539448484
 10
935.57085722457441
 20
-1225.7943642539237
 30
0.0
 41
1.0
 10
935.60629163237218
 20
-1225.7921423658759
 30
0.0
 41
1.0
 10
935.64172604016983
 20
-1225.789920477828
 30
0.0
 41
1.0
 10
935.80795180673908
 20
-1225.7794974154162
 30
0.0
 41
0.9990928098293203
 10
935.97446159864103
 20
-1225.7832570566507
 30
0.0
 41
1.0
 10
936.01302343391581
 20
-1225.7841277481839
 30
0.0
 41
1.0
 10
936.0515852691907
 20
-1225.7849984397169
 30
0.0
 41
1.0
 10
936.14097139054661
 20
-1225.7870166978855
 30
0.0
 41
0.9998382089206067
 10
936.23022707332996
 20
-1225.7922488244135
 30
0.0
 41
1.0
 10
936.23065697954962
 20
-1225.7922740253157
 30
0.0
 41
1.0
 10
936.23108688576929
 20
-1225.7922992262179
 30
0.0
 41
1.0
 10
936.31948275611592
 20
-1225.7974809509415
 30
0.0
 41
0.9997558016758036
 10
936.40756333331694
 20
-1225.806563466308
 30
0.0
 41
1.0
 10
936.40803947174777
 20
-1225.8066125637906
 30
0.0
 41
1.0
 10
936.40851561017871
 20
-1225.8066616612734
 30
0.0
 41
1.0
 10
936.49564391051888
 20
-1225.8156459816746
 30
0.0
 41
0.9996565144181399
 10
936.58218176385981
 20
-1225.8291832883633
 30
0.0
 41
1.0
 10
936.58264768923755
 20
-1225.8292561740946
 30
0.0
 41
1.0
 10
936.58311361461517
 20
-1225.829329059826
 30
0.0
 41
1.0
 10
936.66871961720187
 20
-1225.8427205950525
 30
0.0
 41
0.9995321806867614
 10
936.75334669752976
 20
-1225.8613210834817
 30
0.0
 41
1.0
 10
936.75373589210108
 20
-1225.8614066259474
 30
0.0
 41
1.0
 10
936.7541250866725
 20
-1225.8614921684132
 30
0.0
 41
1.0
 10
936.8379737778572
 20
-1225.8799215719109
 30
0.0
 41
0.9993819199219686
 10
936.92032031205395
 20
-1225.9041969551718
 30
0.0
 41
1.0
 10
936.92055874555172
 20
-1225.9042672442811
 30
0.0
 41
1.0
 10
936.92079717904949
 20
-1225.9043375333904
 30
0.0
 41
1.0
 10
937.00266684624955
 20
-1225.9284723384319
 30
0.0
 41
0.9992088568504717
 10
937.0823593652384
 20
-1225.9590375742268
 30
0.0
 41
1.0
 10
937.16204035611759
 20
-1225.98959717496
 30
0.0
 41
0.99902261017734
 10
937.23871102602459
 20
-1226.0270746065744
 30
0.0
 41
1.0
 10
937.31537016782192
 20
-1226.0645464031275
 30
0.0
 41
0.9988424273972379
 10
937.38807379503442
 20
-1226.1092111783805
 30
0.0
 41
1.0
 10
937.38834150341404
 20
-1226.109375642453
 30
0.0
 41
1.0
 10
937.38860921179366
 20
-1226.1095401065254
 30
0.0
 41
1.0
 10
937.46184825576506
 20
-1226.1545338099231
 30
0.0
 41
0.9986928844491475
 10
937.53011112247452
 20
-1226.2067695442024
 30
0.0
 41
1.0
 10
937.53069241469723
 20
-1226.2072143574303
 30
0.0
 41
1.0
 10
937.53127370691993
 20
-1226.2076591706582
 30
0.0
 41
1.0
 10
937.60069915807549
 20
-1226.2607845313937
 30
0.0
 41
0.9986007262277855
 10
937.66412532784125
 20
-1226.3209453010863
 30
0.0
 41
1.0
 10
937.6650197432989
 20
-1226.3217936689218
 30
0.0
 41
1.0
 10
937.66591415875644
 20
-1226.3226420367573
 30
0.0
 41
1.0
 10
937.73112915943716
 20
-1226.3844995421202
 30
0.0
 41
0.9985581491380154
 10
937.78933677113844
 20
-1226.4529920323916
 30
0.0
 41
1.0
 10
937.79859522473464
 20
-1226.4638863900939
 30
0.0
 41
1.0
 10
937.80785367833084
 20
-1226.4747807477961
 30
0.0
 41
1.0
 10
937.88457819722419
 20
-1226.5650619534715
 30
0.0
 41
0.997046023352123
 10
937.94657009838386
 20
-1226.6660290376533
 30
0.0
 41
1.0
 10
937.96103946346352
 20
-1226.6895954967349
 30
0.0
 41
1.0
 10
937.9755088285433
 20
-1226.7131619558163
 30
0.0
 41
1.0
 10
938.01524552855506
 20
-1226.7778816798475
 30
0.0
 41
0.9988468816637008
 10
938.0485918993063
 20
-1226.8461141322746
 30
0.0
 41
1.0
 10
938.05562792179842
 20
-1226.8605110534131
 30
0.0
 41
1.0
 10
938.06266394429053
 20
-1226.8749079745519
 30
0.0
 41
1.0
 10
938.08193827005812
 20
-1226.914346584703
 30
0.0
 41
0.9998431189996929
 10
938.09980359755286
 20
-1226.954443139143
 30
0.0
 41
1.0
 10
938.11766892504465
 20
-1226.9945396935764
 30
0.0
 41
0.9999989989787466
 10
938.1356476484367
 20
-1227.0345855310936
 30
0.0
 41
1.0
 10
938.14181996004754
 20
-1227.0483337479432
 30
0.0
 41
1.0
 10
938.14799227165838
 20
-1227.0620819647929
 30
0.0
 41
1.0
 10
938.17831561826972
 20
-1227.1296242360042
 30
0.0
 41
0.9998790356322815
 10
938.20652349840873
 20
-1227.1980769879438
 30
0.0
 41
1.0
 10
938.21335867969219
 20
-1227.2146640893693
 30
0.0
 41
1.0
 10
938.22019386097577
 20
-1227.2312511907949
 30
0.0
 41
1.0
 10
938.24375152335688
 20
-1227.2884191456824
 30
0.0
 41
0.9998227574561363
 10
938.26514027174505
 20
-1227.3464334539567
 30
0.0
 41
1.0
 10
938.28652902013391
 20
-1227.4044477622331
 30
0.0
 41
0.9996797971042006
 10
938.3049553050929
 20
-1227.4634698813504
 30
0.0
 41
1.0
 10
938.30885910781876
 20
-1227.4759743395202
 30
0.0
 41
1.0
 10
938.31276291054462
 20
-1227.4884787976903
 30
0.0
 41
1.0
 10
938.33899680095465
 20
-1227.572509833145
 30
0.0
 41
0.9979274938733954
 10
938.35422132443387
 20
-1227.6592141918059
 30
0.0
 41
1.0
 10
938.35644501169509
 20
-1227.671878192627
 30
0.0
 41
1.0
 10
938.35866869895619
 20
-1227.6845421934479
 30
0.0
 41
1.0
 10
938.36959863865457
 20
-1227.7467887007385
 30
0.0
 41
0.9994985982137968
 10
938.37656680383168
 20
-1227.8096022018813
 30
0.0
 41
1.0
 10
938.38353496900902
 20
-1227.8724157030285
 30
0.0
 41
0.9996372611202369
 10
938.38711083477688
 20
-1227.9355132817127
 30
0.0
 41
1.0
 10
938.38727941226603
 20
-1227.9384878987912
 30
0.0
 41
1.0
 10
938.38744798975506
 20
-1227.9414625158697
 30
0.0
 41
1.0
 10
938.39136101050144
 20
-1228.010509328722
 30
0.0
 41
0.9997730630735937
 10
938.39232932398966
 20
-1228.079660152762
 30
0.0
 41
1.0
 10
938.39238643040767
 20
-1228.0837383318978
 30
0.0
 41
1.0
 10
938.39244353682568
 20
-1228.0878165110337
 30
0.0
 41
1.0
 10
938.39352606314981
 20
-1228.165123693354
 30
0.0
 41
0.9998772614072649
 10
938.39218597641809
 20
-1228.2424268399207
 30
0.0
 41
1.0
 10
938.39209671321942
 20
-1228.2475760037532
 30
0.0
 41
1.0
 10
938.39200745002074
 20
-1228.2527251675858
 30
0.0
 41
1.0
 10
938.39048883689134
 20
-1228.3403266418245
 30
0.0
 41
0.9999415567324111
 10
938.38707652664527
 20
-1228.4278748035038
 30
0.0
 41
1.0
 10
938.3868352059701
 20
-1228.4340662632367
 30
0.0
 41
1.0
 10
938.38659388529493
 20
-1228.4402577229698
 30
0.0
 41
1.0
 10
938.38269893369818
 20
-1228.5401888041238
 30
0.0
 41
0.9999716810429822
 10
938.3773003505795
 20
-1228.6400499423542
 30
0.0
 41
1.0
 10
938.37408755179035
 20
-1228.699479192016
 30
0.0
 41
1.0
 10
938.37087475300132
 20
-1228.7589084416779
 30
0.0
 41
1.0
 10
938.36280084384953
 20
-1228.9082568429417
 30
0.0
 41
0.9999819129908852
 10
938.35293105223298
 20
-1229.0574973206553
 30
0.0
 41
1.0
 10
938.34306126061642
 20
-1229.2067377983667
 30
0.0
 41
1.0
 10
938.34062194005242
 20
-1229.243930844216
 30
0.0
 41
1.0
 10
938.36332017388634
 20
-1229.2051898468817
 30
0.0
 41
0.9999982128182882
 10
938.38616473262675
 20
-1229.166534952949
 30
0.0
 41
1.0
 10
938.41307429251765
 20
-1229.1210017388835
 30
0.0
 41
1.0
 10
938.43998385240866
 20
-1229.075468524818
 30
0.0
 41
1.0
 10
938.51664753093451
 20
-1228.9457472027482
 30
0.0
 41
0.9998609190057669
 10
938.59759484379435
 20
-1228.8186548208218
 30
0.0
 41
1.0
 10
938.6272431652751
 20
-1228.7721050878663
 30
0.0
 41
1.0
 10
938.65689148675574
 20
-1228.7255553549107
 30
0.0
 41
1.0
 10
938.7391637069951
 20
-1228.5963827849118
 30
0.0
 41
0.9999067609731702
 10
938.82493271646081
 20
-1228.4695050954683
 30
0.0
 41
1.0
 10
938.82733741966308
 20
-1228.4659478294116
 30
0.0
 41
1.0
 10
938.82974212286547
 20
-1228.4623905633546
 30
0.0
 41
1.0
 10
938.91070172592742
 20
-1228.3426274060234
 30
0.0
 41
0.9998784952150879
 10
938.99535533560629
 20
-1228.2254461893181
 30
0.0
 41
1.0
 10
939.08000894528755
 20
-1228.1082649726093
 30
0.0
 41
0.9998532968284445
 10
939.16862656611295
 20
-1227.9940520641355
 30
0.0
 41
1.0
 10
939.18858835510082
 20
-1227.9683247431194
 30
0.0
 41
1.0
 10
939.2085501440888
 20
-1227.9425974221035
 30
0.0
 41
1.0
 10
939.32703419384916
 20
-1227.7898918111325
 30
0.0
 41
0.999155197579523
 10
939.45765864347482
 20
-1227.6474322490467
 30
0.0
 41
1.0
 10
939.46116825945933
 20
-1227.6436046474173
 30
0.0
 41
1.0
 10
939.46467787544384
 20
-1227.6397770457877
 30
0.0
 41
1.0
 10
939.58828309310434
 20
-1227.5049726869574
 30
0.0
 41
0.9997418144181146
 10
939.71788523279895
 20
-1227.3759232763507
 30
0.0
 41
1.0
 10
939.84748737249879
 20
-1227.2468738657387
 30
0.0
 41
0.9989238204633122
 10
939.98848992074772
 20
-1227.1303889037017
 30
0.0
 41
1.0
 10
940.03373759889109
 20
-1227.0930089120898
 30
0.0
 41
1.0
 10
940.07898527703435
 20
-1227.0556289204781
 30
0.0
 41
1.0
 10
940.21922533425413
 20
-1226.9397738671887
 30
0.0
 41
0.9990825084096954
 10
940.36886526685498
 20
-1226.8363448693581
 30
0.0
 41
1.0
 10
940.37891063091308
 20
-1226.8294016562777
 30
0.0
 41
1.0
 10
940.38895599497118
 20
-1226.8224584431973
 30
0.0
 41
1.0
 10
940.51850519945867
 20
-1226.7329158715252
 30
0.0
 41
0.9998164899825629
 10
940.65138940283521
 20
-1226.6484016300087
 30
0.0
 41
1.0
 10
940.66323496336304
 20
-1226.6408678634818
 30
0.0
 41
1.0
 10
940.67508052389098
 20
-1226.633334096955
 30
0.0
 41
1.0
 10
940.78427360621254
 20
-1226.5638873884916
 30
0.0
 41
0.999747344913011
 10
940.89647756346096
 20
-1226.4994184306765
 30
0.0
 41
1.0
 10
941.00868152070711
 20
-1226.4349494728626
 30
0.0
 41
0.9999327861146664
 10
941.12235013146881
 20
-1226.3730994811822
 30
0.0
 41
1.0
 10
941.12290213403207
 20
-1226.3727991225016
 30
0.0
 41
1.0
 10
941.12345413659534
 20
-1226.3724987638211
 30
0.0
 41
1.0
 10
941.23822675248266
 20
-1226.3100480547803
 30
0.0
 41
0.9996956420483569
 10
941.35594007832333
 20
-1226.2533345878053
 30
0.0
 41
1.0
 10
941.38638048321593
 20
-1226.2386686110754
 30
0.0
 41
1.0
 10
941.41682088810853
 20
-1226.2240026343454
 30
0.0
 41
1.0
 10
941.51979799485116
 20
-1226.1743889759025
 30
0.0
 41
0.9998070570177153
 10
941.62464438379061
 20
-1226.1288583890023
 30
0.0
 41
1.0
 10
941.72949077272949
 20
-1226.0833278021018
 30
0.0
 41
0.9997827436147467
 10
941.83614370933697
 20
-1226.042206630791
 30
0.0
 41
1.0
 10
941.85536655897056
 20
-1226.0347950571577
 30
0.0
 41
1.0
 10
941.87458940860415
 20
-1226.0273834835245
 30
0.0
 41
1.0
 10
942.01968804447711
 20
-1225.9714391649477
 30
0.0
 41
0.9988031841976705
 10
942.16955840708192
 20
-1225.9299391007798
 30
0.0
 41
1.0
 10
942.1944756554459
 20
-1225.9230393549728
 30
0.0
 41
1.0
 10
942.21939290380988
 20
-1225.9161396091658
 30
0.0
 41
1.0
 10
942.38666292945641
 20
-1225.8698214667593
 30
0.0
 41
0.9984748040550282
 10
942.55801983810409
 20
-1225.8422272344947
 30
0.0
 41
1.0
 10
942.56275897435216
 20
-1225.8414640739813
 30
0.0
 41
1.0
 10
942.56749811060035
 20
-1225.840700913468
 30
0.0
 41
1.0
 10
942.72937674675245
 20
-1225.8146330022298
 30
0.0
 41
0.998443649547996
 10
942.89315149047786
 20
-1225.8067550484111
 30
0.0
 41
1.0
 10
942.91484869860903
 20
-1225.8057113612115
 30
0.0
 41
1.0
 10
942.93654590674021
 20
-1225.8046676740119
 30
0.0
 41
1.0
 10
943.05692623420236
 20
-1225.7988770945924
 30
0.0
 41
0.9987954789335165
 10
943.17729447911245
 20
-1225.8049136223347
 30
0.0
 41
1.0
 10
943.19725927160812
 20
-1225.8059148666734
 30
0.0
 41
1.0
 10
943.2172240641039
 20
-1225.806916111012
 30
0.0
 41
1.0
 10
943.29766272402344
 20
-1225.8109501500771
 30
0.0
 41
0.9997941595877283
 10
943.3778715021167
 20
-1225.818244215998
 30
0.0
 41
1.0
 10
943.45808028021486
 20
-1225.8255382819195
 30
0.0
 41
0.9998589466238473
 10
943.53799882707312
 20
-1225.8355221363699
 30
0.0
 41
1.0
 10
943.57040502887787
 20
-1225.8395704932886
 30
0.0
 41
1.0
 10
943.60281123068262
 20
-1225.8436188502076
 30
0.0
 41
1.0
 10
943.74754218115447
 20
-1225.8616994184963
 30
0.0
 41
0.999349506324958
 10
943.89059342492033
 20
-1225.8901651282379
 30
0.0
 41
1.0
 10
943.92352712207025
 20
-1225.8967185914523
 30
0.0
 41
1.0
 10
943.9564608192203
 20
-1225.9032720546668
 30
0.0
 41
1.0
 10
944.0657546424261
 20
-1225.9250203888021
 30
0.0
 41
0.9996788715560921
 10
944.17380621438474
 20
-1225.9522781881658
 30
0.0
 41
1.0
 10
944.17586921692441
 20
-1225.9527986147389
 30
0.0
 41
1.0
 10
944.17793221946408
 20
-1225.9533190413119
 30
0.0
 41
1.0
 10
944.28185778634167
 20
-1225.9795359875291
 30
0.0
 41
0.9995480654492596
 10
944.38402002157056
 20
-1226.0119509441533
 30
0.0
 41
1.0
 10
944.38570966369957
 20
-1226.0124870490672
 30
0.0
 41
1.0
 10
944.38739930582869
 20
-1226.0130231539811
 30
0.0
 41
1.0
 10
944.48618225680002
 20
-1226.0443659007776
 30
0.0
 41
0.9993867959456054
 10
944.58252941524256
 20
-1226.0825452700674
 30
0.0
 41
1.0
 10
944.58377236432784
 20
-1226.0830378119638
 30
0.0
 41
1.0
 10
944.58501531341312
 20
-1226.0835303538602
 30
0.0
 41
1.0
 10
944.67887657368453
 20
-1226.1207246393569
 30
0.0
 41
0.9992050256522026
 10
944.76947624871843
 20
-1226.1652785385959
 30
0.0
 41
1.0
 10
944.77021093143151
 20
-1226.165639831057
 30
0.0
 41
1.0
 10
944.77094561414458
 20
-1226.1660011235181
 30
0.0
 41
1.0
 10
944.86007592375267
 20
-1226.2098324378353
 30
0.0
 41
0.9990222350741848
 10
944.94498598514542
 20
-1226.2613657055331
 30
0.0
 41
1.0
 10
944.94516987042812
 20
-1226.2614773084379
 30
0.0
 41
1.0
 10
944.9453537557107
 20
-1226.2615889113426
 30
0.0
 41
1.0
 10
945.02989604653919
 20
-1226.3128989732315
 30
0.0
 41
0.9988642743805601
 10
945.10917058115808
 20
-1226.3720231607565
 30
0.0
 41
1.0
 10
945.18844511577629
 20
-1226.431147348281
 30
0.0
 41
0.998768123331051
 10
945.26146890005293
 20
-1226.4978380396822
 30
0.0
 41
1.0
 10
945.26179782801887
 20
-1226.4981384408966
 30
0.0
 41
1.0
 10
945.26212675598481
 20
-1226.4984388421108
 30
0.0
 41
1.0
 10
945.33580839619162
 20
-1226.5657303359392
 30
0.0
 41
0.9987496570898944
 10
945.40240220151907
 20
-1226.640043150026
 30
0.0
 41
1.0
 10
945.40317437127987
 20
-1226.6409048233843
 30
0.0
 41
1.0
 10
945.40394654104068
 20
-1226.6417664967425
 30
0.0
 41
1.0
 10
945.47208468588849
 20
-1226.7178026575446
 30
0.0
 41
0.9988147669826794
 10
945.53250694011422
 20
-1226.800103664388
 30
0.0
 41
1.0
 10
945.53362626619173
 20
-1226.8016282957401
 30
0.0
 41
1.0
 10
945.53474559226925
 20
-1226.8031529270925
 30
0.0
 41
1.0
 10
945.59740649864943
 20
-1226.8885031966397
 30
0.0
 41
0.9989452636216276
 10
945.65197341161092
 20
-1226.9792418857974
 30
0.0
 41
1.0
 10
945.6533221376967
 20
-1226.9814846668237
 30
0.0
 41
1.0
 10
945.65467086378237
 20
-1226.98372744785
 30
0.0
 41
1.0
 10
945.71193522891599
 20
-1227.0789516990621
 30
0.0
 41
0.9991046436071156
 10
945.76094444223736
 20
-1227.178676132087
 30
0.0
 41
1.0
 10
945.76240830382699
 20
-1227.1816548121587
 30
0.0
 41
1.0
 10
945.76387216541673
 20
-1227.1846334922307
 30
0.0
 41
1.0
 10
945.81580910191917
 20
-1227.2903152854033
 30
0.0
 41
0.9992763831101095
 10
945.85956223047401
 20
-1227.3996393473587
 30
0.0
 41
1.0
 10
945.86104150013705
 20
-1227.4033355348915
 30
0.0
 41
1.0
 10
945.86252076980008
 20
-1227.4070317224243
 30
0.0
 41
1.0
 10
945.90923243768168
 20
-1227.5237481594477
 30
0.0
 41
0.9994163472884043
 10
945.94786546887065
 20
-1227.6433817479087
 30
0.0
 41
1.0
 10
945.94910362111727
 20
-1227.6472158916913
 30
0.0
 41
1.0
 10
945.95034177336402
 20
-1227.6510500354736
 30
0.0
 41
1.0
 10
945.99022533438188
 20
-1227.7745560969536
 30
0.0
 41
0.9997268055890448
 10
946.02429339029436
 20
-1227.8997911289061
 30
0.0
 41
1.0
 10
946.02522357056364
 20
-1227.9032104950138
 30
0.0
 41
1.0
 10
946.02615375083292
 20
-1227.9066298611217
 30
0.0
 41
1.0
 10
946.05836144620548
 20
-1228.0250261608533
 30
0.0
 41
0.9996701319000653
 10
946.08444706297689
 20
-1228.1449201141204
 30
0.0
 41
1.0
 10
946.11053267974773
 20
-1228.2648140673857
 30
0.0
 41
0.9995785451109492
 10
946.12961625708726
 20
-1228.3860198284156
 30
0.0
 41
1.0
 10
946.13383603926081
 20
-1228.4128209831797
 30
0.0
 41
1.0
 10
946.13805582143425
 20
-1228.4396221379436
 30
0.0
 41
1.0
 10
946.16463079737321
 20
-1228.6084081116478
 30
0.0
 41
0.9979925101216117
 10
946.16965638329941
 20
-1228.7791994397401
 30
0.0
 41
1.0
 10
946.17048119572405
 20
-1228.8072301632228
 30
0.0
 41
1.0
 10
946.1713060081488
 20
-1228.8352608867053
 30
0.0
 41
1.0
 10
946.17468196922573
 20
-1228.9499907678348
 30
0.0
 41
0.9995314902263239
 10
946.17103177708725
 20
-1229.0647122515838
 30
0.0
 41
1.0
 10
946.16738158494866
 20
-1229.1794337353349
 30
0.0
 41
0.9996245486944262
 10
946.15745248981796
 20
-1229.2937830064589
 30
0.0
 41
1.0
 10
946.15728944182365
 20
-1229.2956607625945
 30
0.0
 41
1.0
 10
946.15712639382946
 20
-1229.2975385187301
 30
0.0
 41
1.0
 10
946.14687120270935
 20
-1229.4156433021308
 30
0.0
 41
0.9997286095001033
 10
946.13112587913724
 20
-1229.5331422110305
 30
0.0
 41
1.0
 10
946.13073238648758
 20
-1229.5360786357269
 30
0.0
 41
1.0
 10
946.13033889383803
 20
-1229.539015060423
 30
0.0
 41
1.0
 10
946.11380658496557
 20
-1229.6623868187235
 30
0.0
 41
0.9998265533968838
 10
946.09269112623156
 20
-1229.7850572935192
 30
0.0
 41
1.0
 10
946.0920145840953
 20
-1229.7889876720219
 30
0.0
 41
1.0
 10
946.09133804195892
 20
-1229.7929180505248
 30
0.0
 41
1.0
 10
946.06886949895068
 20
-1229.9234492823346
 30
0.0
 41
0.9999022530856415
 10
946.04276003434143
 20
-1230.0533012509695
 30
0.0
 41
1.0
 10
946.04178139317628
 20
-1230.0581683933556
 30
0.0
 41
1.0
 10
946.04080275201125
 20
-1230.0630355357414
 30
0.0
 41
1.0
 10
946.01273600507238
 20
-1230.202621789146
 30
0.0
 41
0.9999524761939345
 10
945.98195303623743
 20
-1230.341634282312
 30
0.0
 41
1.0
 10
945.98067692906113
 20
-1230.347397041618
 30
0.0
 41
1.0
 10
945.97940082188484
 20
-1230.353159800924
 30
0.0
 41
1.0
 10
945.94606563870298
 20
-1230.5036978126777
 30
0.0
 41
0.9999813588708286
 10
945.91089463790615
 20
-1230.6538175253372
 30
0.0
 41
1.0
 10
945.90934071244828
 20
-1230.6604501157653
 30
0.0
 41
1.0
 10
945.9077867869903
 20
-1230.6670827061937
 30
0.0
 41
1.0
 10
945.86950793528104
 20
-1230.830467599696
 30
0.0
 41
0.9999955237706465
 10
945.83025205729973
 20
-1230.9936205033057
 30
0.0
 41
1.0
 10
945.8179704216659
 20
-1231.0446646938262
 30
0.0
 41
1.0
 10
945.80568878603208
 20
-1231.095708884347
 30
0.0
 41
1.0
 10
945.74186963676425
 20
-1231.3609501690755
 30
0.0
 41
0.9999993604222683
 10
945.67745068959232
 20
-1231.6260464197765
 30
0.0
 41
1.0
 10
945.67273185405656
 20
-1231.6454653277706
 30
0.0
 41
1.0
 10
945.66801301852081
 20
-1231.6648842357645
 30
0.0
 41
1.0
 10
945.59415640026123
 20
-1231.9688183025198
 30
0.0
 41
0.9999659914727783
 10
945.51529680437375
 20
-1232.271492849088
 30
0.0
 41
1.0
 10
945.51034411544379
 20
-1232.2905019862678
 30
0.0
 41
1.0
 10
945.50539142651382
 20
-1232.3095111234475
 30
0.0
 41
1.0
 10
945.41662645276801
 20
-1232.6502039443687
 30
0.0
 41
0.9999441976026866
 10
945.32068341980312
 20
-1232.9889453696721
 30
0.0
 41
1.0
 10
945.3039829013785
 20
-1233.0479090821964
 30
0.0
 41
1.0
 10
945.28728238295389
 20
-1233.1068727947209
 30
0.0
 41
1.0
 10
945.15793831313886
 20
-1233.5635416450764
 30
0.0
 41
0.9999625120731456
 10
945.02070554581871
 20
-1234.0179021790616
 30
0.0
 41
1.0
 10
944.98491560273555
 20
-1234.1363982056891
 30
0.0
 41
1.0
 10
944.94912565965251
 20
-1234.2548942323165
 30
0.0
 41
1.0
 10
944.87460545560839
 20
-1234.5016213104295
 30
0.0
 41
0.9999793386305653
 10
944.79691943247133
 20
-1234.7473699496636
 30
0.0
 41
1.0
 10
944.71923340933381
 20
-1234.9931185888997
 30
0.0
 41
1.0
 10
944.708453850463
 20
-1235.0271364932744
 30
0.0
 41
1.0
 10
942.85808079719391
 20
-1240.914208415742
 30
0.0
 41
1.0
 10
941.00770774392481
 20
-1246.8012803382094
 30
0.0
 41
1.0
 10
940.04645105390125
 20
-1246.8012803382094
 30
0.0
 41
1.0
 10
939.08519436387769
 20
-1246.8012803382094
 30
0.0
 41
1.0
 10
940.70413914255607
 20
-1241.6532518364199
 30
0.0
 41
1.0
 10
942.32308392123446
 20
-1236.5052233346305
 30
0.0
 41
1.0
 10
942.36824974440947
 20
-1236.3611921123586
 30
0.0
 41
1.0
 10
942.41341556758437
 20
-1236.2171608900867
 30
0.0
 41
1.0
 10
942.5837199849484
 20
-1235.6740698609196
 30
0.0
 41
0.9999911657888065
 10
942.74945279662609
 20
-1235.1295663295646
 30
0.0
 41
1.0
 10
942.77914874012299
 20
-1235.0320023895256
 30
0.0
 41
1.0
 10
942.80884468362001
 20
-1234.9344384494864
 30
0.0
 41
1.0
 10
942.91518560830252
 20
-1234.5850627982131
 30
0.0
 41
0.999995242814808
 10
943.01936919763125
 20
-1234.2350377738512
 30
0.0
 41
1.0
 10
943.02442866796548
 20
-1234.2180394995701
 30
0.0
 41
1.0
 10
943.02948813829971
 20
-1234.2010412252889
 30
0.0
 41
1.0
 10
943.12355278696339
 20
-1233.8850127494779
 30
0.0
 41
0.9999931687549769
 10
943.21527862482992
 20
-1233.5682975362313
 30
0.0
 41
1.0
 10
943.22021388928147
 20
-1233.5512568269878
 30
0.0
 41
1.0
 10
943.22514915373301
 20
-1233.5342161177443
 30
0.0
 41
1.0
 10
943.30700446269941
 20
-1233.2515823229746
 30
0.0
 41
0.9999893840830233
 10
943.38625168916042
 20
-1232.9682061937142
 30
0.0
 41
1.0
 10
943.46549891562017
 20
-1232.6848300644574
 30
0.0
 41
0.9999833980069827
 10
943.54147515636214
 20
-1232.4005594814273
 30
0.0
 41
1.0
 10
943.55047909308416
 20
-1232.3668706029498
 30
0.0
 41
1.0
 10
943.55948302980619
 20
-1232.3331817244723
 30
0.0
 41
1.0
 10
943.62844757867026
 20
-1232.0751458921841
 30
0.0
 41
0.9999233658065484
 10
943.69100254989064
 20
-1231.8154817334612
 30
0.0
 41
1.0
 10
943.75355752111091
 20
-1231.5558175747387
 30
0.0
 41
1.0
 10
943.79304093996848
 20
-1231.3920109103126
 30
0.0
 41
1.0
 10
943.7980195439427
 20
-1231.3713559484549
 30
0.0
 41
1.0
 10
943.80299814791692
 20
-1231.3507009865973
 30
0.0
 41
1.0
 10
943.83252435882628
 20
-1231.2282042458855
 30
0.0
 41
0.9999868670859464
 10
943.86079344282223
 20
-1231.105411300241
 30
0.0
 41
1.0
 10
943.86469092998118
 20
-1231.0884817128185
 30
0.0
 41
1.0
 10
943.86858841714024
 20
-1231.071552125396
 30
0.0
 41
1.0
 10
943.88906252682091
 20
-1230.9826183545847
 30
0.0
 41
0.9999778173344749
 10
943.90835012493392
 20
-1230.8934197373651
 30
0.0
 41
1.0
 10
943.92763772305011
 20
-1230.8042211201321
 30
0.0
 41
0.9999602692855482
 10
943.9453320816823
 20
-1230.7146928316974
 30
0.0
 41
1.0
 10
943.94853591375886
 20
-1230.6984823768171
 30
0.0
 41
1.0
 10
943.95173974583543
 20
-1230.6822719219369
 30
0.0
 41
1.0
 10
943.97584176862119
 20
-1230.5603227237409
 30
0.0
 41
0.999561798532042
 10
943.99268511584023
 20
-1230.4371609760328
 30
0.0
 41
1.0
 10
943.99514960574641
 20
-1230.4191401586672
 30
0.0
 41
1.0
 10
943.99761409565258
 20
-1230.4011193413016
 30
0.0
 41
1.0
 10
944.01789735670081
 20
-1230.252804291601
 30
0.0
 41
0.9991121410639698
 10
944.0256227102891
 20
-1230.1033081927944
 30
0.0
 41
1.0
 10
944.02654150031367
 20
-1230.0855283562169
 30
0.0
 41
1.0
 10
944.02746029033835
 20
-1230.0677485196393
 30
0.0
 41
1.0
 10
944.03334806387761
 20
-1229.9538120939858
 30
0.0
 41
0.998979249490451
 10
944.02892897176002
 20
-1229.8398092580901
 30
0.0
 41
1.0
 10
944.02828099989142
 20
-1229.8230930121626
 30
0.0
 41
1.0
 10
944.02763302802271
 20
-1229.8063767662354
 30
0.0
 41
1.0
 10
944.02450987964266
 20
-1229.7258064221942
 30
0.0
 41
0.9997820295394175
 10
944.01802588226701
 20
-1229.6454367004476
 30
0.0
 41
1.0
 10
944.01154188489136
 20
-1229.5650669787035
 30
0.0
 41
0.9998335105972458
 10
944.00212968937967
 20
-1229.4849873622536
 30
0.0
 41
1.0
 10
944.00053476470339
 20
-1229.4714176317707
 30
0.0
 41
1.0
 10
943.99893984002699
 20
-1229.4578479012876
 30
0.0
 41
1.0
 10
943.98633779516274
 20
-1229.3506288238711
 30
0.0
 41
0.9996876457879116
 10
943.96839388236424
 20
-1229.2441733961552
 30
0.0
 41
1.0
 10
943.96616221921852
 20
-1229.230933660911
 30
0.0
 41
1.0
 10
943.9639305560728
 20
-1229.2176939256665
 30
0.0
 41
1.0
 10
943.95013473465235
 20
-1229.1358477817107
 30
0.0
 41
0.9995547496493835
 10
943.93148141276004
 20
-1229.0549702845221
 30
0.0
 41
1.0
 10
943.93110745588888
 20
-1229.0533488738174
 30
0.0
 41
1.0
 10
943.93073349901772
 20
-1229.0517274631125
 30
0.0
 41
1.0
 10
943.91282809086749
 20
-1228.974092787332
 30
0.0
 41
0.9994899427175875
 10
943.89000318218802
 20
-1228.8977595044967
 30
0.0
 41
1.0
 10
943.8895446554468
 20
-1228.8962260547064
 30
0.0
 41
1.0
 10
943.88908612870557
 20
-1228.8946926049161
 30
0.0
 41
1.0
 10
943.86717827350788
 20
-1228.8214262216593
 30
0.0
 41
0.9993784877589865
 10
943.84016263840203
 20
-1228.7498855165031
 30
0.0
 41
1.0
 10
943.83963094742512
 20
-1228.7484775337825
 30
0.0
 41
1.0
 10
943.83909925644821
 20
-1228.7470695510619
 30
0.0
 41
1.0
 10
943.81314700329528
 20
-1228.6783448113435
 30
0.0
 41
0.9992430832254525
 10
943.78193046813612
 20
-1228.6118456592758
 30
0.0
 41
1.0
 10
943.7813483520797
 20
-1228.610605604159
 30
0.0
 41
1.0
 10
943.7807662360234
 20
-1228.609365549042
 30
0.0
 41
1.0
 10
943.75071393297696
 20
-1228.545346507208
 30
0.0
 41
0.9990789632799456
 10
943.71528330620015
 20
-1228.4841398954579
 30
0.0
 41
1.0
 10
943.71468760001846
 20
-1228.4831108095993
 30
0.0
 41
1.0
 10
943.71409189383678
 20
-1228.4820817237407
 30
0.0
 41
1.0
 10
943.67985267942322
 20
-1228.4229332837076
 30
0.0
 41
0.9988874801119809
 10
943.64019340339132
 20
-1228.3672735712903
 30
0.0
 41
1.0
 10
943.6396378773278
 20
-1228.3664939196165
 30
0.0
 41
1.0
 10
943.63908235126428
 20
-1228.3657142679428
 30
0.0
 41
1.0
 10
943.60053412735931
 20
-1228.3116138588725
 30
0.0
 41
0.9986762060693618
 10
943.55663165608314
 20
-1228.2617601444335
 30
0.0
 41
1.0
 10
943.55618769575085
 20
-1228.2612560026168
 30
0.0
 41
1.0
 10
943.55574373541856
 20
-1228.2607518608002
 30
0.0
 41
1.0
 10
943.51272918480686
 20
-1228.2119064299941
 30
0.0
 41
0.9984621642487764
 10
943.46457162802915
 20
-1228.1681231295231
 30
0.0
 41
1.0
 10
943.46432499351249
 20
-1228.1678988973595
 30
0.0
 41
1.0
 10
943.46407835899572
 20
-1228.1676746651958
 30
0.0
 41
1.0
 10
943.41641407125064
 20
-1228.1243398290515
 30
0.0
 41
0.998272469385194
 10
943.3639954394099
 20
-1228.0868954785342
 30
0.0
 41
1.0
 10
943.31157680756883
 20
-1228.0494511280167
 30
0.0
 41
0.9981399180159019
 10
943.25499074417507
 20
-1228.0186646085731
 30
0.0
 41
1.0
 10
943.25494508209658
 20
-1228.0186397654161
 30
0.0
 41
1.0
 10
943.25489942001821
 20
-1228.0186149222588
 30
0.0
 41
1.0
 10
943.19822203246792
 20
-1227.9877787165012
 30
0.0
 41
0.9980927086838088
 10
943.13817668140166
 20
-1227.9641619076485
 30
0.0
 41
1.0
 10
943.13773651168992
 20
-1227.9639887817734
 30
0.0
 41
1.0
 10
943.13729634197819
 20
-1227.9638156558985
 30
0.0
 41
1.0
 10
943.07637065148856
 20
-1227.9398525952961
 30
0.0
 41
0.9981411356560721
 10
943.01298213008874
 20
-1227.9234799537905
 30
0.0
 41
1.0
 10
943.01210001338745
 20
-1227.923252111585
 30
0.0
 41
1.0
 10
943.01121789668616
 20
-1227.9230242693795
 30
0.0
 41
1.0
 10
942.94606514188308
 20
-1227.9061959434628
 30
0.0
 41
0.9983031812934011
 10
942.87939771288768
 20
-1227.8970565822867
 30
0.0
 41
1.0
 10
942.87052668748606
 20
-1227.8958404636155
 30
0.0
 41
1.0
 10
942.86165566208433
 20
-1227.8946243449445
 30
0.0
 41
1.0
 10
942.80730601957862
 20
-1227.8871736149533
 30
0.0
 41
0.9983887708263893
 10
942.75246217028428
 20
-1227.8859289413199
 30
0.0
 41
1.0
 10
942.74439876507051
 20
-1227.885745943445
 30
0.0
 41
1.0
 10
942.73633535985675
 20
-1227.8855629455702
 30
0.0
 41
1.0
 10
942.69761832099505
 20
-1227.8846842676865
 30
0.0
 41
0.9998869563080561
 10
942.65889236778878
 20
-1227.8849701370461
 30
0.0
 41
1.0
 10
942.62016641454193
 20
-1227.8852560064061
 30
0.0
 41
0.999997232014718
 10
942.58144223528654
 20
-1227.8857241059359
 30
0.0
 41
1.0
 10
942.562089218751
 20
-1227.8859580460248
 30
0.0
 41
1.0
 10
942.54273620221534
 20
-1227.8861919861138
 30
0.0
 41
1.0
 10
942.4653059898435
 20
-1227.8871279658215
 30
0.0
 41
0.9997304945087412
 10
942.38800268360478
 20
-1227.8916570596075
 30
0.0
 41
1.0
 10
942.3789530419017
 20
-1227.8921872655974
 30
0.0
 41
1.0
 10
942.3699034001985
 20
-1227.8927174715873
 30
0.0
 41
1.0
 10
942.27450081055122
 20
-1227.8983069773533
 30
0.0
 41
0.9997888306414926
 10
942.17940847470788
 20
-1227.9078119418427
 30
0.0
 41
1.0
 10
942.17068741313608
 20
-1227.9086836564748
 30
0.0
 41
1.0
 10
942.16196635156427
 20
-1227.9095553711068
 30
0.0
 41
1.0
 10
942.04943189257563
 20
-1227.92080376486
 30
0.0
 41
0.9984170238190684
 10
941.93887274522376
 20
-1227.9446198467958
 30
0.0
 41
1.0
 10
941.90249161423753
 20
-1227.9524568826018
 30
0.0
 41
1.0
 10
941.8661104832513
 20
-1227.9602939184081
 30
0.0
 41
1.0
 10
941.75091941482992
 20
-1227.9851077849178
 30
0.0
 41
0.9976592854198627
 10
941.64019124842559
 20
-1228.0254064620649
 30
0.0
 41
1.0
 10
941.52946308202183
 20
-1228.0657051392116
 30
0.0
 41
0.9993255074351956
 10
941.42199128323239
 20
-1228.1140220377033
 30
0.0
 41
1.0
 10
941.4173661043078
 20
-1228.1161014139036
 30
0.0
 41
1.0
 10
941.41274092538322
 20
-1228.1181807901039
 30
0.0
 41
1.0
 10
941.2960187687454
 20
-1228.170656440996
 30
0.0
 41
0.9976475078275314
 10
941.1875714244344
 20
-1228.2386044306545
 30
0.0
 41
1.0
 10
941.16922903030127
 20
-1228.2500969094681
 30
0.0
 41
1.0
 10
941.15088663616814
 20
-1228.2615893882814
 30
0.0
 41
1.0
 10
941.06668444461548
 20
-1228.3143465090502
 30
0.0
 41
0.9995131336406915
 10
940.98593672965615
 20
-1228.3722527210048
 30
0.0
 41
1.0
 10
940.9051890146992
 20
-1228.4301589329575
 30
0.0
 41
0.9995810107606254
 10
940.82792736697081
 20
-1228.4926406154232
 30
0.0
 41
1.0
 10
940.82495733576025
 20
-1228.495042486888
 30
0.0
 41
1.0
 10
940.82198730454979
 20
-1228.4974443583528
 30
0.0
 41
1.0
 10
940.73878559440129
 20
-1228.5647297837477
 30
0.0
 41
0.9996617837954557
 10
940.65919490726583
 20
-1228.6362502393076
 30
0.0
 41
1.0
 10
940.64706415638761
 20
-1228.6471509722994
 30
0.0
 41
1.0
 10
940.63493340550951
 20
-1228.6580517052912
 30
0.0
 41
1.0
 10
940.56665787811403
 20
-1228.7194043207626
 30
0.0
 41
0.9997267750053495
 10
940.5013243698304
 20
-1228.7838808572878
 30
0.0
 41
1.0
 10
940.43599086154632
 20
-1228.8483573938133
 30
0.0
 41
0.9999667288965898
 10
940.37171791839887
 20
-1228.9138912007086
 30
0.0
 41
1.0
 10
940.30289047062433
 20
-1228.9840688594663
 30
0.0
 41
1.0
 10
940.2340630228498
 20
-1229.0542465182239
 30
0.0
 41
1.0
 10
940.03213518415316
 20
-1229.2601356426346
 30
0.0
 41
0.9988205335175298
 10
939.85112956717455
 20
-1229.484639874694
 30
0.0
 41
1.0
 10
939.82048960226939
 20
-1229.5226431251247
 30
0.0
 41
1.0
 10
939.78984963736411
 20
-1229.5606463755553
 30
0.0
 41
1.0
 10
939.54756409057563
 20
-1229.8611571084753
 30
0.0
 41
0.9997077826755412
 10
939.32008613947335
 20
-1230.1730269026873
 30
0.0
 41
1.0
 10
939.31836272434111
 20
-1230.1753896860691
 30
0.0
 41
1.0
 10
939.31663930920899
 20
-1230.1777524694512
 30
0.0
 41
1.0
 10
939.08571452784213
 20
-1230.4943478304276
 30
0.0
 41
0.9989147567078871
 10
938.88525102495782
 20
-1230.8310572916139
 30
0.0
 41
1.0
 10
938.86050987965291
 20
-1230.8726138721631
 30
0.0
 41
1.0
 10
938.83576873434799
 20
-1230.9141704527121
 30
0.0
 41
1.0
 10
938.68055743570892
 20
-1231.1748718371678
 30
0.0
 41
0.9997476598182256
 10
938.53721244819849
 20
-1231.4422815857515
 30
0.0
 41
1.0
 10
938.39386746068885
 20
-1231.7096913343339
 30
0.0
 41
0.9996258967109089
 10
938.26535920875699
 20
-1231.9845392709583
 30
0.0
 41
1.0
 10
938.25215929930482
 20
-1232.0127706710591
 30
0.0
 41
1.0
 10
938.23895938985265
 20
-1232.0410020711602
 30
0.0
 41
1.0
 10
938.0987506688557
 20
-1232.3408744691073
 30
0.0
 41
0.9998735413945613
 10
937.96814932213738
 20
-1232.6450540685705
 30
0.0
 41
1.0
 10
937.96470649407502
 20
-1232.6530726540395
 30
0.0
 41
1.0
 10
937.96126366601266
 20
-1232.6610912395086
 30
0.0
 41
1.0
 10
937.83754797541371
 20
-1232.9492336680457
 30
0.0
 41
0.9999377418859705
 10
937.72029317324234
 20
-1233.2400651357129
 30
0.0
 41
1.0
 10
937.60303837106903
 20
-1233.5308966033845
 30
0.0
 41
0.9999508299504318
 10
937.49157442769467
 20
-1233.8239962801979
 30
0.0
 41
1.0
 10
937.4884936590297
 20
-1233.8320973061682
 30
0.0
 41
1.0
 10
937.48541289036484
 20
-1233.8401983321382
 30
0.0
 41
1.0
 10
937.36778740966349
 20
-1234.1495000608843
 30
0.0
 41
0.9999609228430137
 10
937.2556488067894
 20
-1234.4608330769004
 30
0.0
 41
1.0
 10
937.25269279643931
 20
-1234.469039917311
 30
0.0
 41
1.0
 10
937.24973678608922
 20
-1234.4772467577218
 30
0.0
 41
1.0
 10
937.13168616251278
 20
-1234.8049934545652
 30
0.0
 41
0.9999674607402643
 10
937.01893863644489
 20
-1235.1346020745598
 30
0.0
 41
1.0
 10
936.96754024588654
 20
-1235.2848612702396
 30
0.0
 41
1.0
 10
936.91614185532808
 20
-1235.4351204659197
 30
0.0
 41
1.0
 10
936.80013124856748
 20
-1235.7742684484306
 30
0.0
 41
0.9999287532309058
 10
936.69224984459424
 20
-1236.1160891874138
 30
0.0
 41
1.0
 10
936.64577258844906
 20
-1236.2633517318041
 30
0.0
 41
1.0
 10
936.59929533230388
 20
-1236.4106142761943
 30
0.0
 41
1.0
 10
936.58436844061339
 20
-1236.4579099264215
 30
0.0
 41
0.9999998224311644
 10
936.56949793189301
 20
-1236.5052233346305
 30
0.0
 41
1.0
 10
934.94884179509756
 20
-1241.6532518364199
 30
0.0
 41
1.0
 10
933.32818565830212
 20
-1246.8012803382094
 30
0.0
 41
1.0
 10
932.42287721441119
 20
-1246.8012803382094
 30
0.0
 41
1.0
 10
931.51756877052026
 20
-1246.8012803382094
 30
0.0
 41
1.0
 10
933.3696531819063
 20
-1240.914208415742
 30
0.0
 41
1.0
 10
935.22173759329235
 20
-1235.0271364932744
 30
0.0
 41
1.0
 10
935.23185935159518
 20
-1234.9950932798247
 30
0.0
 41
1.0
 10
935.30446702044492
 20
-1234.7647937379988
 30
0.0
 41
1.0
 10
935.37707468929295
 20
-1234.5344941961785
 30
0.0
 41
0.9999825681974379
 10
935.4469577284973
 20
-1234.3033533011369
 30
0.0
 41
1.0
 10
935.49524879066189
 20
-1234.1436287176284
 30
0.0
 41
1.0
 10
935.54353985282648
 20
-1233.9839041341202
 30
0.0
 41
1.0
 10
935.64069220614306
 20
-1233.6625689123462
 30
0.0
 41
0.9999672528960304
 10
935.73263101176701
 20
-1233.3397033667579
 30
0.0
 41
1.0
 10
935.73541989544401
 20
-1233.3299095213424
 30
0.0
 41
1.0
 10
935.73820877912112
 20
-1233.3201156759269
 30
0.0
 41
1.0
 10
935.82456981740154
 20
-1233.0168378211324
 30
0.0
 41
0.999989974914989
 10
935.90821142692505
 20
-1232.7127987327194
 30
0.0
 41
1.0
 10
935.9183173459445
 20
-1232.6760634950338
 30
0.0
 41
1.0
 10
935.92842326496395
 20
-1232.6393282573481
 30
0.0
 41
1.0
 10
935.99185303646232
 20
-1232.4087596442578
 30
0.0
 41
0.999921420049988
 10
936.04948246483741
 20
-1232.1766733020577
 30
0.0
 41
1.0
 10
936.06224831702059
 20
-1232.1252624166509
 30
0.0
 41
1.0
 10
936.07501416920377
 20
-1232.0738515312441
 30
0.0
 41
1.0
 10
936.10711189321955
 20
-1231.9445869598298
 30
0.0
 41
0.9999828681664491
 10
936.1376941452105
 20
-1231.8149554853808
 30
0.0
 41
1.0
 10
936.16827639720543
 20
-1231.6853240109149
 30
0.0
 41
0.9999389844480446
 10
936.1959873859945
 20
-1231.5550485550161
 30
0.0
 41
1.0
 10
936.20312512971509
 20
-1231.5214924511772
 30
0.0
 41
1.0
 10
936.21026287343557
 20
-1231.4879363473383
 30
0.0
 41
1.0
 10
936.25224934966502
 20
-1231.2905486837644
 30
0.0
 41
0.9998933699441946
 10
936.28845361406707
 20
-1231.0920190760069
 30
0.0
 41
1.0
 10
936.28982643928362
 20
-1231.0844910553092
 30
0.0
 41
1.0
 10
936.29119926450016
 20
-1231.0769630346117
 30
0.0
 41
1.0
 10
936.33014917933474
 20
-1230.8633773854619
 30
0.0
 41
0.9996850305194082
 10
936.35833285559386
 20
-1230.6481063800231
 30
0.0
 41
1.0
 10
936.36032788896318
 20
-1230.6328680259016
 30
0.0
 41
1.0
 10
936.3623229223324
 20
-1230.6176296717802
 30
0.0
 41
1.0
 10
936.38973078479125
 20
-1230.4082844446266
 30
0.0
 41
0.9994697936706801
 10
936.40345534401115
 20
-1230.1975992492939
 30
0.0
 41
1.0
 10
936.40393241326069
 20
-1230.1902757770845
 30
0.0
 41
1.0
 10
936.40440948251035
 20
-1230.182952304875
 30
0.0
 41
1.0
 10
936.41717990323059
 20
-1229.9869140539663
 30
0.0
 41
0.9991804893137266
 10
936.41405158695795
 20
-1229.7904852039899
 30
0.0
 41
1.0
 10
936.41396770813583
 20
-1229.7852184025769
 30
0.0
 41
1.0
 10
936.4138838293137
 20
-1229.7799516011639
 30
0.0
 41
1.0
 10
936.4109232706852
 20
-1229.5940563540173
 30
0.0
 41
0.9988448329321569
 10
936.39013172506134
 20
-1229.4093037641831
 30
0.0
 41
1.0
 10
936.38853765135809
 20
-1229.3951389084107
 30
0.0
 41
1.0
 10
936.38694357765496
 20
-1229.3809740526383
 30
0.0
 41
1.0
 10
936.3693401794377
 20
-1229.2245511743497
 30
0.0
 41
0.9985503209457927
 10
936.33502390713807
 20
-1229.0709269902604
 30
0.0
 41
1.0
 10
936.32743791506687
 20
-1229.0369666628603
 30
0.0
 41
1.0
 10
936.31985192299567
 20
-1229.00300633546
 30
0.0
 41
1.0
 10
936.3007076348382
 20
-1228.9173028061698
 30
0.0
 41
0.9991036781369911
 10
936.27438277318731
 20
-1228.8335257188462
 30
0.0
 41
1.0
 10
936.27040054773101
 20
-1228.8208525563346
 30
0.0
 41
1.0
 10
936.26641832227472
 20
-1228.8081793938229
 30
0.0
 41
1.0
 10
936.24805791153676
 20
-1228.7497486315231
 30
0.0
 41
0.9998874504367894
 10
936.22795270385768
 20
-1228.6918950292979
 30
0.0
 41
1.0
 10
936.20784749617928
 20
-1228.6340414270749
 30
0.0
 41
0.9994041637543616
 10
936.18379888324489
 20
-1228.5777127231845
 30
0.0
 41
1.0
 10
936.17960209902117
 20
-1228.5678826587034
 30
0.0
 41
1.0
 10
936.17540531479756
 20
-1228.5580525942223
 30
0.0
 41
1.0
 10
936.14752648380204
 20
-1228.492752428253
 30
0.0
 41
0.9991846840702219
 10
936.11447012710937
 20
-1228.4299143969736
 30
0.0
 41
1.0
 10
936.11333352071449
 20
-1228.4277537805192
 30
0.0
 41
1.0
 10
936.11219691431961
 20
-1228.4255931640648
 30
0.0
 41
1.0
 10
936.08141377041591
 20
-1228.3670763656926
 30
0.0
 41
0.9989253167922785
 10
936.04534434636128
 20
-1228.311661437303
 30
0.0
 41
1.0
 10
936.04429022168665
 20
-1228.31004194254
 30
0.0
 41
1.0
 10
936.04323609701191
 20
-1228.308422447777
 30
0.0
 41
1.0
 10
936.00927492230596
 20
-1228.2562465089122
 30
0.0
 41
0.9986467172836747
 10
935.97007776966893
 20
-1228.2078804752832
 30
0.0
 41
1.0
 10
935.96920364096877
 20
-1228.2068018730056
 30
0.0
 41
1.0
 10
935.9683295122685
 20
-1228.205723270728
 30
0.0
 41
1.0
 10
935.93088061703202
 20
-1228.1595144416544
 30
0.0
 41
0.9984001104268911
 10
935.88845388651441
 20
-1228.117829334285
 30
0.0
 41
1.0
 10
935.88786674840526
 20
-1228.117252459404
 30
0.0
 41
1.0
 10
935.8872796102961
 20
-1228.1166755845229
 30
0.0
 41
1.0
 10
935.84602715599704
 20
-1228.0761442269161
 30
0.0
 41
0.9982442159082547
 10
935.80027105466161
 20
-1228.0407756656559
 30
0.0
 41
1.0
 10
935.80005625919966
 20
-1228.0406096330125
 30
0.0
 41
1.0
 10
935.79984146373772
 20
-1228.0404436003691
 30
0.0
 41
1.0
 10
935.75451495332584
 20
-1228.0054071043958
 30
0.0
 41
0.9982450060837239
 10
935.70536397425417
 20
-1227.9759753213621
 30
0.0
 41
1.0
 10
935.65621299518284
 20
-1227.9465435383288
 30
0.0
 41
0.9983922639635469
 10
935.60404668901776
 20
-1227.9228639036746
 30
0.0
 41
1.0
 10
935.60381981169326
 20
-1227.922760918193
 30
0.0
 41
1.0
 10
935.60359293436863
 20
-1227.9226579327117
 30
0.0
 41
1.0
 10
935.55097287355488
 20
-1227.8987723270948
 30
0.0
 41
0.9986517147150245
 10
935.49615990068673
 20
-1227.880471207973
 30
0.0
 41
1.0
 10
935.49548197925901
 20
-1227.8802448615415
 30
0.0
 41
1.0
 10
935.49480405783129
 20
-1227.8800185151101
 30
0.0
 41
1.0
 10
935.43863524210758
 20
-1227.8612647031255
 30
0.0
 41
0.998943559895603
 10
935.38098185495653
 20
-1227.8477470008911
 30
0.0
 41
1.0
 10
935.37990173537469
 20
-1227.847493750638
 30
0.0
 41
1.0
 10
935.37882161579284
 20
-1227.8472405003849
 30
0.0
 41
1.0
 10
935.31900798947811
 20
-1227.8332162976444
 30
0.0
 41
0.9992249241240321
 10
935.258276480581
 20
-1227.8239409549292
 30
0.0
 41
1.0
 10
935.25686279228978
 20
-1227.8237250465213
 30
0.0
 41
1.0
 10
935.25544910399856
 20
-1227.8235091381134
 30
0.0
 41
1.0
 10
935.19189021851844
 20
-1227.8138019785824
 30
0.0
 41
0.999439659783415
 10
935.12782428198057
 20
-1227.8083690562369
 30
0.0
 41
1.0
 10
935.10868361450355
 20
-1227.8067458885184
 30
0.0
 41
1.0
 10
935.08954294702653
 20
-1227.8051227207998
 30
0.0
 41
1.0
 10
934.98719567553246
 20
-1227.7964434630164
 30
0.0
 41
0.9987693403120659
 10
934.88449205194377
 20
-1227.7979465264693
 30
0.0
 41
1.0
 10
934.8742377177166
 20
-1227.7980965982435
 30
0.0
 41
1.0
 10
934.86398338348931
 20
-1227.7982466700178
 30
0.0
 41
1.0
 10
934.75442761731233
 20
-1227.7998500143051
 30
0.0
 41
0.9989753644965619
 10
934.64546561729719
 20
-1227.8113530212304
 30
0.0
 41
1.0
 10
934.53650361727966
 20
-1227.8228560281557
 30
0.0
 41
0.9983190067305585
 10
934.42960480631348
 20
-1227.8468910199426
 30
0.0
 41
1.0
 10
934.42070385470788
 20
-1227.8488922985052
 30
0.0
 41
1.0
 10
934.41180290310228
 20
-1227.8508935770676
 30
0.0
 41
1.0
 10
934.28710218892491
 20
-1227.8789311259795
 30
0.0
 41
0.9985539388303356
 10
934.16613243524898
 20
-1227.9201948020243
 30
0.0
 41
1.0
 10
934.16378700428709
 20
-1227.9209948458406
 30
0.0
 41
1.0
 10
934.16144157332519
 20
-1227.9217948896571
 30
0.0
 41
1.0
 10
934.03578095772764
 20
-1227.964658653334
 30
0.0
 41
0.9988468746493737
 10
933.91481061542822
 20
-1228.0193767383957
 30
0.0
 41
1.0
 10
933.91162779343858
 20
-1228.0208164129563
 30
0.0
 41
1.0
 10
933.90844497144894
 20
-1228.0222560875166
 30
0.0
 41
1.0
 10
933.78110898517116
 20
-1228.0798535216989
 30
0.0
 41
0.9991322885918755
 10
933.6590084011151
 20
-1228.1478488538805
 30
0.0
 41
1.0
 10
933.64140639006996
 20
-1228.1576510558709
 30
0.0
 41
1.0
 10
933.62380437902482
 20
-1228.1674532578613
 30
0.0
 41
1.0
 10
933.52162769796848
 20
-1228.2243533736414
 30
0.0
 41
0.9993860037849144
 10
933.423686693896
 20
-1228.2882693892295
 30
0.0
 41
1.0
 10
933.41806838104389
 20
-1228.2919358839245
 30
0.0
 41
1.0
 10
933.41245006819179
 20
-1228.2956023786192
 30
0.0
 41
1.0
 10
933.32574568982295
 20
-1228.3521854048179
 30
0.0
 41
0.9998821494953712
 10
933.24081931400985
 20
-1228.4114036348947
 30
0.0
 41
1.0
 10
933.1558929381963
 20
-1228.4706218649721
 30
0.0
 41
0.999797648274466
 10
933.0734173077916
 20
-1228.5332082730147
 30
0.0
 41
1.0
 10
933.05878104298768
 20
-1228.5443149627938
 30
0.0
 41
1.0
 10
933.04414477818364
 20
-1228.5554216525729
 30
0.0
 41
1.0
 10
932.93239661817188
 20
-1228.640221440173
 30
0.0
 41
0.9998091630801193
 10
932.8240463401462
 20
-1228.7293217908725
 30
0.0
 41
1.0
 10
932.81104058766709
 20
-1228.74001689132
 30
0.0
 41
1.0
 10
932.79803483518788
 20
-1228.7507119917677
 30
0.0
 41
1.0
 10
932.66367305220717
 20
-1228.8612025433602
 30
0.0
 41
0.9995035112317519
 10
932.53653717444479
 20
-1228.9799363603736
 30
0.0
 41
1.0
 10
932.52688986405622
 20
-1228.9889461065327
 30
0.0
 41
1.0
 10
932.51724255366764
 20
-1228.9979558526918
 30
0.0
 41
1.0
 10
932.39381949090341
 20
-1229.1132222244469
 30
0.0
 41
0.9994630424299383
 10
932.2782110851183
 20
-1229.236324967683
 30
0.0
 41
1.0
 10
932.2745282463477
 20
-1229.2402465471951
 30
0.0
 41
1.0
 10
932.27084540757721
 20
-1229.2441681267071
 30
0.0
 41
1.0
 10
932.16260267933535
 20
-1229.3594277109169
 30
0.0
 41
0.9995160693749906
 10
932.06173664980236
 20
-1229.4811951287907
 30
0.0
 41
1.0
 10
932.05980292972163
 20
-1229.4835295529988
 30
0.0
 41
1.0
 10
932.05786920964101
 20
-1229.4858639772069
 30
0.0
 41
1.0
 10
931.96087062027095
 20
-1229.6029625466626
 30
0.0
 41
0.9996561470514485
 10
931.87014440160453
 20
-1229.7249853091125
 30
0.0
 41
1.0
 10
931.86398673570602
 20
-1229.73326709815
 30
0.0
 41
1.0
 10
931.85782906980762
 20
-1229.7415488871877
 30
0.0
 41
1.0
 10
931.77941818294016
 20
-1229.8470080715597
 30
0.0
 41
0.999834905517308
 10
931.70489090100648
 20
-1229.955246655225
 30
0.0
 41
1.0
 10
931.63036361907461
 20
-1230.0634852388882
 30
0.0
 41
0.9999728109568985
 10
931.557440723166
 20
-1230.1728111644409
 30
0.0
 41
1.0
 10
931.55612550775334
 20
-1230.1747829339447
 30
0.0
 41
1.0
 10
931.55481029234068
 20
-1230.1767547034488
 30
0.0
 41
1.0
 10
931.47925696561504
 20
-1230.2900241679972
 30
0.0
 41
0.9999972147395209
 10
931.40423915525105
 20
-1230.4036490108174
 30
0.0
 41
1.0
 10
931.39926761261972
 20
-1230.4111790993034
 30
0.0
 41
1.0
 10
931.39429606998829
 20
-1230.4187091877893
 30
0.0
 41
1.0
 10
931.30933517437063
 20
-1230.5473942075682
 30
0.0
 41
0.9999371979002987
 10
931.22727982496849
 20
-1230.6779511213419
 30
0.0
 41
1.0
 10
931.22377094060482
 20
-1230.6835340494099
 30
0.0
 41
1.0
 10
931.22026205624115
 20
-1230.6891169774781
 30
0.0
 41
1.0
 10
931.13118893810997
 20
-1230.8308397473907
 30
0.0
 41
0.9998272025609503
 10
931.04744554722799
 20
-1230.9757756241333
 30
0.0
 41
1.0
 10
931.03223037520524
 20
-1231.0021087385878
 30
0.0
 41
1.0
 10
931.0170152031825
 20
-1231.0284418530423
 30
0.0
 41
1.0
 10
930.90284146825036
 20
-1231.2260439587019
 30
0.0
 41
0.9995217214838522
 10
930.80110177869312
 20
-1231.4303262865676
 30
0.0
 41
1.0
 10
930.79345821606171
 20
-1231.445673736263
 30
0.0
 41
1.0
 10
930.78581465343041
 20
-1231.4610211859585
 30
0.0
 41
1.0
 10
930.69890936084039
 20
-1231.6355176440409
 30
0.0
 41
0.9998269762607858
 10
930.61855489456491
 20
-1231.8131259307711
 30
0.0
 41
1.0
 10
930.53820042829182
 20
-1231.9907342174965
 30
0.0
 41
0.9998944747389191
 10
930.46303963372645
 20
-1232.1706019431278
 30
0.0
 41
1.0
 10
930.45808596413781
 20
-1232.1824565980394
 30
0.0
 41
1.0
 10
930.45313229454905
 20
-1232.1943112529509
 30
0.0
 41
1.0
 10
930.37248523399444
 20
-1232.3873081929733
 30
0.0
 41
0.9999506734411816
 10
930.29568770508899
 20
-1232.5818689978341
 30
0.0
 41
1.0
 10
930.28108773981694
 20
-1232.6188569196433
 30
0.0
 41
1.0
 10
930.26648777454477
 20
-1232.6558448414523
 30
0.0
 41
1.0
 10
930.21889017618196
 20
-1232.7764298026991
 30
0.0
 41
0.9999912393919627
 10
930.17230373216296
 20
-1232.897409005386
 30
0.0
 41
1.0
 10
930.12571728813759
 20
-1233.0183882080896
 30
0.0
 41
0.9999927113937789
 10
930.08005599374121
 20
-1233.1397196155972
 30
0.0
 41
1.0
 10
930.06608756234596
 20
-1233.1768365975895
 30
0.0
 41
1.0
 10
930.05211913095081
 20
-1233.2139535795816
 30
0.0
 41
1.0
 10
929.97852097376335
 20
-1233.4095189510754
 30
0.0
 41
0.9999487550948564
 10
929.9088973487942
 20
-1233.6065343162504
 30
0.0
 41
1.0
 10
929.88530373885351
 20
-1233.6732976265544
 30
0.0
 41
1.0
 10
929.8617101289127
 20
-1233.7400609368581
 30
0.0
 41
1.0
 10
929.76702449454706
 20
-1234.0079947716681
 30
0.0
 41
0.9999808436945024
 10
929.67566290590366
 20
-1234.2770802029388
 30
0.0
 41
1.0
 10
929.58430131726698
 20
-1234.5461656341895
 30
0.0
 41
0.9999873932894653
 10
929.49564660855367
 20
-1234.8161549891881
 30
0.0
 41
1.0
 10
929.47555425167957
 20
-1234.8773443219552
 30
0.0
 41
1.0
 10
929.45546189480547
 20
-1234.9385336547225
 30
0.0
 41
1.0
 10
929.32662247234543
 20
-1235.3309016752514
 30
0.0
 41
0.9999794883031526
 10
929.20281968738254
 20
-1235.7248878815453
 30
0.0
 41
1.0
 10
929.19166742797643
 20
-1235.7603784916823
 30
0.0
 41
1.0
 10
929.18051516857031
 20
-1235.7958691018196
 30
0.0
 41
1.0
 10
929.0379570046473
 20
-1236.2495418539875
 30
0.0
 41
0.9999982761805824
 10
928.89708456460289
 20
-1236.7037408762028
 30
0.0
 41
1.0
 10
927.30894423203029
 20
-1241.7525106072062
 30
0.0
 41
1.0
 10
925.72080389945768
 20
-1246.8012803382094
 30
0.0
 41
1.0
 10
924.77205328798129
 20
-1246.8012803382094
 30
0.0
 41
1.0
 10
923.82330267650491
 20
-1246.8012803382094
 30
0.0
 41
1.0
 10
927.06158716265816
 20
-1236.4739581382632
 30
0.0
 41
1.0
 10
930.2998716488114
 20
-1226.1466359383171
 30
0.0
 41
1.0
  0
LWPOLYLINE
  5
57
100
AcDbEntity
  8
0
370
              15
390
0
  6
Continuous
 62
               7
100
AcDbPolyline
 90
      232
 70
             128
 10
904.59632587498436
 20
-1227.2309787698323
 42
0.0004370800692276
 10
904.54344870091234
 20
-1227.2996454090883
 10
904.50416446978488
 20
-1227.3507525219852
 42
0.0030481992177856
 10
904.37382575265633
 20
-1227.5224742143419
 10
904.33531408091528
 20
-1227.5738609981174
 42
0.0042058245762697
 10
904.13132903025075
 20
-1227.850866743184
 10
904.07892390774475
 20
-1227.923299589972
 42
0.0120948898744214
 10
903.78287999098177
 20
-1228.3540491945232
 10
903.68668749185679
 20
-1228.5015299297527
 42
0.0141601263950059
 10
903.3830434449394
 20
-1228.9971992664812
 10
903.34350617750783
 20
-1229.0660432339228
 42
0.0071131081302686
 10
903.13823385427497
 20
-1229.4355460327511
 42
0.0068458790999109
 10
902.94335432744117
 20
-1229.8106375962086
 10
902.93654246497408
 20
-1229.8241993099509
 42
0.0064120880291788
 10
902.73840021492765
 20
-1230.2316237848743
 10
902.73086552941277
 20
-1230.2476356415909
 42
0.0058857236446621
 10
902.52811013754763
 20
-1230.6920117526111
 10
902.51993521124712
 20
-1230.7105019062599
 42
0.0053189741898597
 10
902.31123089857454
 20
-1231.1964653801899
 10
902.30248309289823
 20
-1231.2174472583738
 42
0.0047503650418755
 10
902.08650936674383
 20
-1231.7496466915929
 10
902.07724111839946
 20
-1231.7731230676914
 42
0.0042071762170598
 10
901.85269373466474
 20
-1232.3562166617796
 10
901.8429443323231
 20
-1232.3821828366308
 42
0.003668008648581
 10
901.60848968901053
 20
-1233.0208182211638
 10
901.59828190916323
 20
-1233.0492667555068
 42
0.0032573142627743
 10
901.35264962319081
 20
-1233.7481194152765
 10
901.28399910234373
 20
-1233.9475824993481
 42
0.0026133366650678
 10
900.93555390359779
 20
-1234.9774457829849
 10
900.87229711609416
 20
-1235.1676766183868
 42
0.0020592950741687
 10
900.65843404713007
 20
-1235.819780270991
 10
900.65538225597152
 20
-1235.8292167593868
 42
0.0025609928534415
 10
900.45356175448114
 20
-1236.4643619817666
 10
900.45097038735105
 20
-1236.4726643227179
 42
0.0031362356243394
 10
900.26147960167748
 20
-1237.0934271788867
 10
900.2593485587455
 20
-1237.1005684851132
 42
0.0037229918027681
 10
900.08254817182365
 20
-1237.7095537870719
 10
900.08086958261583
 20
-1237.7155006772514
 42
0.0043077623709361
 10
899.91712878055216
 20
-1238.3153194090155
 42
0.00476541618242
 10
899.76430005803172
 20
-1238.9180054979361
 10
899.72983544919714
 20
-1239.0595672750674
 42
0.0112969368444164
 10
899.53397109105254
 20
-1239.951259435697
 10
899.50596470195694
 20
-1240.0940874817895
 42
0.0130056762570143
 10
899.30512745831027
 20
-1241.2810285534345
 10
899.28458770816405
 20
-1241.4251066669049
 42
0.0138721532143729
 10
899.18088470362522
 20
-1242.3319361527372
 10
899.16158921571764
 20
-1242.5554338746597
 42
0.0071254697009177
 10
899.12824256979479
 20
-1243.0186208835094
 10
899.12328159563037
 20
-1243.104624878089
 42
0.002888179919796
 10
899.10814330234166
 20
-1243.3963665879123
 42
0.006029729713647
 10
899.0982111025661
 20
-1243.6883155240259
 10
899.09714882089895
 20
-1243.7367078959639
 42
0.022952316416052
 10
899.10487984868473
 20
-1244.0594627422438
 10
899.10910562220545
 20
-1244.1198662762638
 42
0.0123673300678824
 10
899.12818426872343
 20
-1244.3209870014348
 42
0.0128577674470041
 10
899.15737965912945
 20
-1244.5208848513601
 10
899.16450553251673
 20
-1244.5622136659586
 42
0.0285717853763926
 10
899.22899953421245
 20
-1244.8403298172716
 10
899.24266805787943
 20
-1244.8869845867507
 42
0.0316283099160819
 10
899.35847863779316
 20
-1245.2059990885748
 10
899.36152732954872
 20
-1245.2129854609002
 42
0.0338984824242199
 10
899.5109590405159
 20
-1245.5005514250895
 10
899.51326776988515
 20
-1245.5043424543644
 42
0.0350228718357854
 10
899.69562806055933
 20
-1245.7613944390423
 10
899.69651331233479
 20
-1245.7624735168069
 42
0.0347476747526784
 10
899.91093799957446
 20
-1245.9896585640263
 42
0.0331337701912395
 10
900.15418132532068
 20
-1246.1857872261037
 10
900.15528142383698
 20
-1246.1865599292764
 42
0.0305233319080806
 10
900.42382611940991
 20
-1246.3516880993673
 10
900.42705616391152
 20
-1246.3534121112302
 42
0.0273744481153546
 10
900.71960987548573
 20
-1246.4895502551208
 10
900.72471441062328
 20
-1246.4915938395905
 42
0.0240964406196051
 10
901.04019148626878
 20
-1246.6005775658716
 10
901.04677481547901
 20
-1246.6025023055467
 42
0.0209636179813999
 10
901.38417496813145
 20
-1246.6859704534788
 10
901.39180742858036
 20
-1246.6875223664804
 42
0.0181388704693556
 10
901.75012982057763
 20
-1246.7469384596941
 10
901.75841066895691
 20
-1246.7480046435114
 42
0.0156086547586063
 10
902.13659803314567
 20
-1246.7847408300881
 10
902.17979328547915
 20
-1246.7875793325675
 42
0.0137148329026519
 10
902.50746643077161
 20
-1246.8000995878183
 10
902.55340262071343
 20
-1246.8005940209334
 42
0.0051057823887182
 10
902.78954820728984
 20
-1246.8007242753429
 42
0.0052256693311778
 10
903.02564549107444
 20
-1246.7959754508784
 10
903.09587227481791
 20
-1246.7938284848644
 42
0.0161507179048053
 10
903.47160935291924
 20
-1246.7701781145379
 10
903.49162231329228
 20
-1246.7682679192503
 42
0.0101216737832918
 10
903.90564953478349
 20
-1246.7202749888847
 10
903.9397028242098
 20
-1246.7156272920752
 42
0.02452917764009
 10
904.41649247976329
 20
-1246.6265522139981
 10
904.5013157952842
 20
-1246.6063562936531
 42
0.014350921256042
 10
904.85794689922443
 20
-1246.5105516598742
 42
0.0156557857041937
 10
905.20816296395094
 20
-1246.3935404440556
 10
905.21566417844633
 20
-1246.3907702823012
 42
0.0170137333631318
 10
905.57226017412859
 20
-1246.2451126674298
 10
905.57936409653519
 20
-1246.2419248318665
 42
0.0183105364409703
 10
905.93871376470281
 20
-1246.0645897900415
 10
905.94566052934022
 20
-1246.0608393551702
 42
0.0194899958150216
 10
906.3041412703252
 20
-1245.8488603732787
 10
906.31115514966098
 20
-1245.8443350309844
 42
0.0204869852948318
 10
906.6651694517526
 20
-1245.5948150159004
 10
906.67243506034197
 20
-1245.5892349505502
 42
0.0212516938555472
 10
907.01842499145005
 20
-1245.2993309536555
 10
907.06494168552445
 20
-1245.2568636435628
 42
0.0215248918253822
 10
907.32496785441322
 20
-1244.9980993645672
 10
907.36999758880347
 20
-1244.9492552432068
 42
0.0114578554965525
 10
907.52478974247117
 20
-1244.7734323097593
 10
907.535984278456
 20
-1244.7601135462162
 42
0.0061531305127851
 10
907.66245892445227
 20
-1244.6058240129082
 42
0.0006325587128308
 10
907.78683740872282
 20
-1244.4498206370829
 10
907.80987754365549
 20
-1244.420847116573
 42
0.0041897761550579
 10
907.97833294763518
 20
-1244.2053277405021
 10
908.0367950675203
 20
-1244.1292263935261
 42
0.0092993880035252
 10
908.31340699474038
 20
-1243.7549476296474
 10
908.39580148794471
 20
-1243.6390106260712
 42
0.0159321727086383
 10
908.74240797058542
 20
-1243.1168364053174
 10
908.78676410597086
 20
-1243.0451568410733
 42
0.008554731701916
 10
909.02127587130019
 20
-1242.6512818918427
 42
0.0084601156888049
 10
909.24225204874278
 20
-1242.2496550428095
 10
909.25036752257256
 20
-1242.2342953605375
 42
0.0081429654285291
 10
909.47361679301139
 20
-1241.7945738479941
 10
909.48247695719408
 20
-1241.7763950059775
 42
0.0076574581327662
 10
909.70888446776621
 20
-1241.2932121307124
 10
909.71836410848448
 20
-1241.2721476524212
 42
0.007068272420114
 10
909.94880901629483
 20
-1240.7401103476316
 10
909.95879930027297
 20
-1240.7161211586285
 42
0.0064559514449081
 10
910.19413250845719
 20
-1240.129808892103
 10
910.20454186661971
 20
-1240.1028739666672
 42
0.0058311413907803
 10
910.44558860338452
 20
-1239.4568418722781
 10
910.45634368077003
 20
-1239.4269575311232
 42
0.005231242581976
 10
910.7039249588089
 20
-1238.7157551172941
 10
910.71496879519066
 20
-1238.6829284052187
 42
0.0046680544798298
 10
910.96989722292972
 20
-1237.9011020894493
 10
911.01188937297275
 20
-1237.7681188521588
 42
0.0041666856445473
 10
911.21517538536364
 20
-1237.1051500771664
 10
911.25283782602196
 20
-1236.9785689695314
 42
0.0015170975156497
 10
911.37402440444055
 20
-1236.566700618019
 42
-0.000488799311504
 10
911.49436417753145
 20
-1236.1545822060873
 10
911.5708414350587
 20
-1235.8936248200359
 42
0.0002583378928656
 10
911.84405600512389
 20
-1234.9595681168532
 10
911.92582885467448
 20
-1234.6794688573596
 42
0.0006636169670584
 10
912.11969661471085
 20
-1234.0121159336868
 10
912.12479326907169
 20
-1233.994484350759
 42
0.0010589131323852
 10
912.30624196997451
 20
-1233.3617530077579
 10
912.31122404046948
 20
-1233.3442401006866
 42
0.0015655524464142
 10
912.47949424763783
 20
-1232.7456234215369
 10
912.48432444806076
 20
-1232.7282312625725
 42
0.0021640440480332
 10
912.63861442003883
 20
-1232.1632042445831
 10
912.64324863947638
 20
-1232.1459395145607
 42
0.0028763871849927
 10
912.78276435752173
 20
-1231.6139715637421
 10
912.78715022169513
 20
-1231.5968475855634
 42
0.0037310511949527
 10
912.91110691352583
 20
-1231.0973999915636
 10
912.91518213381789
 20
-1231.0804397203053
 42
0.0047652197769745
 10
913.02280603432325
 20
-1230.6129619520132
 10
913.02649663364707
 20
-1230.5962023968611
 42
0.0060276699298396
 10
913.11702673280035
 20
-1230.160126601719
 10
913.12024542309064
 20
-1230.1436253874037
 42
0.0075824337760917
 10
913.19293473250502
 20
-1229.7383582229836
 10
913.19558010988635
 20
-1229.7222032755265
 42
0.0095130624611989
 10
913.24969534551644
 20
-1229.3471139224612
 10
913.2566815693998
 20
-1229.2911803643381
 42
0.0121054653234605
 10
913.28327289997685
 20
-1229.0262845358709
 10
913.28413938973756
 20
-1229.0148810929263
 42
0.0069050827382901
 10
913.29922820777415
 20
-1228.7719398660975
 10
913.30036350744285
 20
-1228.7484136090482
 42
0.0169063976709614
 10
913.30319078642299
 20
-1228.552220881752
 10
913.30202013489168
 20
-1228.4918851204
 42
0.005200773291908
 10
913.29976668629865
 20
-1228.4162917302508
 42
0.0054038123303146
 10
913.27980317445883
 20
-1228.2962734342352
 10
913.27471731858941
 20
-1228.2676149476597
 42
0.0112050460464683
 10
913.2393329565316
 20
-1228.0912885093237
 10
913.22150799449025
 20
-1228.0117469225997
 42
0.0240764468003265
 10
913.13061062834436
 20
-1227.6815098871
 10
913.11205186553047
 20
-1227.6248897221044
 42
0.0256812331832596
 10
912.96868894534111
 20
-1227.2531655158475
 10
912.96327951951935
 20
-1227.241034180857
 42
0.0268360501217546
 10
912.79385227866987
 20
-1226.9100410468368
 10
912.78831587103514
 20
-1226.9005213765249
 42
0.0274670231729867
 10
912.59611489462145
 20
-1226.6082340016073
 10
912.59073359465879
 20
-1226.600954854066
 42
0.0275035967101781
 10
912.37916071509699
 20
-1226.3454389637618
 10
912.37409121412986
 20
-1226.3399598761307
 42
0.026955767352824
 10
912.14668767069088
 20
-1226.119317590169
 10
912.14194461290776
 20
-1226.1151876357078
 42
0.025912480220986
 10
911.9023897814775
 20
-1225.9274971085561
 10
911.89785893629471
 20
-1225.924311606225
 42
0.024516215300111
 10
911.64994258320087
 20
-1225.7675785971151
 10
911.64541603687576
 20
-1225.7650183999137
 42
0.0229282588836655
 10
911.39299648004931
 20
-1225.6371502074153
 10
911.38821598621382
 20
-1225.634997907654
 42
0.0212984135691486
 10
911.13517803375078
 20
-1225.533798990411
 10
911.12987374878026
 20
-1225.5319354276508
 42
0.0197555462339953
 10
910.88009541105828
 20
-1225.4551200096862
 42
0.0183511896787098
 10
910.62516668559317
 20
-1225.3975371027204
 10
910.53880148887231
 20
-1225.3813343123359
 42
0.033805787715043
 10
910.25329413961174
 20
-1225.3475259071956
 10
910.16228873457555
 20
-1225.3429462519343
 42
0.0091990524488423
 10
910.0564416259358
 20
-1225.339570396012
 42
0.002833398077469
 10
909.95052770995062
 20
-1225.3387422884953
 10
909.9496122568936
 20
-1225.3387403186712
 42
-0.0023619827811885
 10
909.84186624179119
 20
-1225.3379994775928
 10
909.80546107161183
 20
-1225.3375771711299
 42
0.0008824598482467
 10
909.62490508175188
 20
-1225.3358013928914
 10
909.58104364935593
 20
-1225.335447431366
 42
0.003813266576811
 10
909.31276075349149
 20
-1225.3353284952991
 10
909.29622709868363
 20
-1225.3354472614428
 42
0.0060665569335568
 10
908.9949466070974
 20
-1225.3412675608636
 10
908.98069627506698
 20
-1225.3417158688312
 42
0.0080356953336903
 10
908.65123755872389
 20
-1225.3573835908983
 10
908.6391675436405
 20
-1225.3581521738386
 42
0.0098996399105952
 10
908.28640445898736
 20
-1225.3876374030369
 10
908.27635874961493
 20
-1225.3886776992349
 42
0.0117740981366489
 10
907.90520189126732
 20
-1225.4359699467645
 10
907.89697919478363
 20
-1225.4372150633355
 42
0.0137435215133741
 10
907.51239037529626
 20
-1225.5063120368975
 10
907.50573333617524
 20
-1225.5076979331307
 42
0.0158359869384655
 10
907.11273624237344
 20
-1225.6025900216114
 10
907.10732305550562
 20
-1225.604079962482
 42
0.0180554124025025
 10
906.71100801089415
 20
-1225.7287179787202
 10
906.70645122280973
 20
-1225.730334014987
 42
0.0203657431282945
 10
906.3119737049991
 20
-1225.8885943565026
 10
906.30783016599105
 20
-1225.8904559779448
 42
0.022681968465513
 10
905.92039410978794
 20
-1226.0860985566153
 10
905.91619431876927
 20
-1226.0884641485354
 42
0.0248634984606092
 10
905.5410123775888
 20
-1226.3250907944823
 10
905.49281744880352
 20
-1226.358947836309
 42
0.0267044190885524
 10
905.21852475188757
 20
-1226.5743882121765
 42
0.0139303002197481
 10
904.9623575859506
 20
-1226.8116270530868
 10
904.95750420022785
 20
-1226.8163797159486
 42
0.0283460963442526
 10
904.71343160599974
 20
-1227.0841103763948
 10
904.6737631008441
 20
-1227.1329119538668
 42
0.0070695364826236
 10
904.59632587498436
 20
-1227.2309787698323
 42
0.0070695364826236
  0
LWPOLYLINE
  5
58
100
AcDbEntity
  8
0
370
              15
390
0
  6
Continuous
 62
               7
100
AcDbPolyline
 90
      226
 70
             128
 10
901.06750543773796
 20
-1242.9525675760162
 42
-0.0026277636669932
 10
901.0674275539377
 20
-1242.8857956503634
 10
901.06764491216995
 20
-1242.83264043283
 42
-0.0088680296729785
 10
901.07142152846291
 20
-1242.6596246504294
 10
901.0737678875754
 20
-1242.6003446249733
 42
-0.0077381705621128
 10
901.08981399833806
 20
-1242.3090841291817
 10
901.09068190951155
 20
-1242.29679589549
 42
-0.0068872530529698
 10
901.11731398925883
 20
-1241.9815741434297
 10
901.11851821344578
 20
-1241.9693331644025
 42
-0.006213002149076
 10
901.15611193027325
 20
-1241.6304634731673
 10
901.15761583380879
 20
-1241.6182896012474
 42
-0.0056726929668458
 10
901.20653769331193
 20
-1241.2560943791284
 10
901.20831113895554
 20
-1241.2440005788885
 42
-0.00523418844892
 10
901.26892172521889
 20
-1240.8588073233504
 10
901.27093971399211
 20
-1240.8468023933783
 42
-0.0049768450167545
 10
901.34367839541767
 20
-1240.4389578259497
 10
901.36792741014017
 20
-1240.3104098429399
 42
-0.0089029805622428
 10
901.50500826193581
 20
-1239.648634395513
 10
901.53775363725345
 20
-1239.5036029649939
 42
-0.0080318257097363
 10
901.76730225159542
 20
-1238.5578933331353
 10
901.77928717804241
 20
-1238.51176269795
 42
-0.0074265721318506
 10
902.06329871689172
 20
-1237.481698119572
 10
902.0831782600128
 20
-1237.4135640589675
 42
-0.0069711922700762
 10
902.4104828385158
 20
-1236.3472963186523
 10
902.47043478562148
 20
-1236.1612749602809
 42
-0.005207042289481
 10
902.69986001088057
 20
-1235.4740028832503
 10
902.71714120306729
 20
-1235.4239756025911
 42
-0.0009167004448696
 10
902.92023309034221
 20
-1234.8395197544792
 42
-0.0025162726943242
 10
903.12733072060996
 20
-1234.2564784903022
 10
903.16455533241049
 20
-1234.1533289444103
 42
-0.0028212681457853
 10
903.41273125137332
 20
-1233.4775983122399
 10
903.4225620141209
 20
-1233.4512908675715
 42
-0.0031964916821024
 10
903.65885427178625
 20
-1232.8310861054363
 10
903.66848872578635
 20
-1232.8062761152903
 42
-0.0036281836451908
 10
903.89359468688644
 20
-1232.2388354343998
 10
903.90303309704564
 20
-1232.2155380028928
 42
-0.0041269166833236
 10
904.11765079370309
 20
-1231.6980971069188
 10
904.15028375012298
 20
-1231.6212186605596
 42
-0.004747221305617
 10
904.30732855567749
 20
-1231.2607971926743
 10
904.31422263687273
 20
-1231.2453765953715
 42
-0.0025651659999156
 10
904.46258067073586
 20
-1230.9180485395939
 42
-0.0057144634993311
 10
904.61633036451349
 20
-1230.5932388662186
 10
904.64436106991172
 20
-1230.5357304838305
 42
-0.0065388068371217
 10
904.82782809764831
 20
-1230.1714979871722
 10
904.83628655341806
 20
-1230.1552384078193
 42
-0.0074510843025085
 10
905.01246879930466
 20
-1229.8285501266801
 10
905.02064846983217
 20
-1229.8139093494176
 42
-0.0084648979862224
 10
905.19028232293567
 20
-1229.52200033845
 10
905.19813844943042
 20
-1229.508993346788
 42
-0.0095638542802481
 10
905.36197389701795
 20
-1229.2491044748206
 10
905.36944884068498
 20
-1229.2377351133723
 42
-0.0107191626807893
 10
905.52825042107725
 20
-1229.0071238788209
 10
905.53526715480803
 20
-1228.9973877864568
 42
-0.0118458573902972
 10
905.68981525332083
 20
-1228.7933155911458
 42
-0.0129184518193892
 10
905.85426787692222
 20
-1228.5971550749757
 10
905.88441264929065
 20
-1228.5630289960702
 42
-0.0217742579628446
 10
906.0610249716209
 20
-1228.3798222258256
 10
906.0717705160788
 20
-1228.3696053926251
 42
-0.009726656865022
 10
906.23782813493699
 20
-1228.2177578181854
 42
-0.0187720905721835
 10
906.41217571082791
 20
-1228.0756889647953
 10
906.44288170149798
 20
-1228.052529882402
 42
-0.017942820752072
 10
906.67530242149678
 20
-1227.8899777052884
 10
906.67895474841396
 20
-1227.8876137703999
 42
-0.0170047877699502
 10
906.91471838594293
 20
-1227.7461532562493
 10
906.91850137469214
 20
-1227.7440549512114
 42
-0.0160190788367999
 10
907.15540992232479
 20
-1227.6224036492249
 42
-0.0151102861496382
 10
907.39944170477122
 20
-1227.5157208731703
 10
907.45182820698324
 20
-1227.4946807402755
 42
-0.0271945441887192
 10
907.81049076604165
 20
-1227.3728159295695
 10
907.87955556653117
 20
-1227.3534663883029
 42
-0.0237596594021696
 10
908.29535241355211
 20
-1227.2580156763215
 10
908.3634152672812
 20
-1227.2457609881951
 42
-0.0213715440554931
 10
908.64929019872784
 20
-1227.206813956685
 10
908.70943736494155
 20
-1227.2012242419844
 42
-0.0101465655815673
 10
908.87692989693994
 20
-1227.1890806987199
 10
908.88627028313556
 20
-1227.1885937837228
 42
-0.0100375910879571
 10
909.03542438370073
 20
-1227.1838179657975
 10
909.04568365338343
 20
-1227.1836955267831
 42
-0.0103625633381495
 10
909.17439164803602
 20
-1227.1848269603097
 10
909.19665729930307
 20
-1227.1854843187746
 42
-0.0115689250226162
 10
909.2807080368309
 20
-1227.1899138250196
 42
-0.0072438037423069
 10
909.36454631627078
 20
-1227.197503024769
 10
909.38134682574287
 20
-1227.1992695674933
 42
-0.0217917313141374
 10
909.49791658905622
 20
-1227.2166894602144
 10
909.56351667962576
 20
-1227.2294360686294
 42
-0.0332943556749393
 10
909.76790884465152
 20
-1227.2834763599358
 10
909.79808141320154
 20
-1227.2936444370541
 42
-0.0184824084792859
 10
909.93658646966696
 20
-1227.3460954524407
 42
-0.0198002050689504
 10
910.07066081016615
 20
-1227.4089795126401
 10
910.07254744754323
 20
-1227.4099572995201
 42
-0.021224234297542
 10
910.20468638994396
 20
-1227.4857200383124
 10
910.20650168548866
 20
-1227.4868658405217
 42
-0.0226090605797561
 10
910.33500558671062
 20
-1227.5763454840865
 10
910.33685002844777
 20
-1227.5777577370736
 42
-0.0238457052251276
 10
910.4600321097397
 20
-1227.6817536329349
 10
910.46198483829983
 20
-1227.6835685107021
 42
-0.0248160564153208
 10
910.57818634560078
 20
-1227.8028431119112
 10
910.58028997900249
 20
-1227.8052284456153
 42
-0.025410959145732
 10
910.687895196868
 20
-1227.9405168315789
 10
910.69014321878251
 20
-1227.9436583799802
 42
-0.0255528488285767
 10
910.78758989757978
 20
-1228.0956854342146
 10
910.78992099749576
 20
-1228.0997670458219
 42
-0.0252146793219262
 10
910.87570202350503
 20
-1228.2692692918195
 10
910.87800426266244
 20
-1228.2744513737318
 42
-0.0244265635947783
 10
910.95065895642415
 20
-1228.4621979457788
 10
910.95990535789213
 20
-1228.4900633641155
 42
-0.0231319612907658
 10
911.00582813688436
 20
-1228.6533644109179
 42
-0.0112130424362394
 10
911.0404641594231
 20
-1228.8195680111087
 10
911.04166668453513
 20
-1228.826064597994
 42
-0.0210527881238472
 10
911.06735315990591
 20
-1229.0071202434337
 10
911.07086375472784
 20
-1229.0425257919824
 42
-0.0190029892415591
 10
911.08630522827241
 20
-1229.2960616382559
 10
911.08711520471638
 20
-1229.3315372526235
 42
-0.0137974553663375
 10
911.08556635188086
 20
-1229.6565686593563
 10
911.08472089692543
 20
-1229.6826874039441
 42
-0.008133663421549
 10
911.06986156170274
 20
-1229.9880348715492
 42
-0.0073526923578256
 10
911.0455530283283
 20
-1230.2927831158322
 10
911.04429160454538
 20
-1230.3061197905004
 42
-0.0066886138693987
 10
911.00855601850071
 20
-1230.6367058339833
 10
911.00689892902903
 20
-1230.6503274529891
 42
-0.0061359187357236
 10
910.95904832697749
 20
-1231.0070914330938
 10
910.95701082590529
 20
-1231.0209862359184
 42
-0.005669861006493
 10
910.89636049513956
 20
-1231.4042648047489
 10
910.89395506181518
 20
-1231.4184239239871
 42
-0.0052721077275799
 10
910.81982286101697
 20
-1231.8285512636576
 10
910.81705971217389
 20
-1231.842967899051
 42
-0.004928927217808
 10
910.72876559407757
 20
-1232.2802764101559
 10
910.72565309939125
 20
-1232.2949452629891
 42
-0.0047415956711322
 10
910.62241510785884
 20
-1232.7597420203999
 10
910.5876468974991
 20
-1232.909549115783
 42
-0.0084404470905147
 10
910.39763045392817
 20
-1233.6697731403108
 10
910.39150376594159
 20
-1233.6926372644675
 42
-0.0039635940259901
 10
910.17005008165791
 20
-1234.4936261287137
 10
910.15667328647805
 20
-1234.5405577453066
 42
-0.0072475040835901
 10
909.88922639861289
 20
-1235.4297774617039
 10
909.81901407178736
 20
-1235.6515178116699
 42
-0.0051345458828735
 10
909.5322546997287
 20
-1236.5258429994801
 10
909.51072843295651
 20
-1236.5892692666241
 42
-0.0019150016601091
 10
909.2551950260945
 20
-1237.3328183868362
 10
909.24872742170169
 20
-1237.3514058517474
 42
-0.0021524362752881
 10
909.00024937063449
 20
-1238.0557316734657
 10
908.99103894992834
 20
-1238.0814852517942
 42
-0.0024331286821811
 10
908.75478369090206
 20
-1238.7320845598852
 10
908.74573573834994
 20
-1238.7566278662439
 42
-0.0027449721789461
 10
908.52112116751607
 20
-1239.3557577451641
 10
908.51223116012352
 20
-1239.3790803350171
 42
-0.0031083229768579
 10
908.29868867351388
 20
-1239.929004372596
 10
908.28995254183178
 20
-1239.9510940884702
 42
-0.0035311343281225
 10
908.08691135624656
 20
-1240.4540772141838
 10
908.0783260171072
 20
-1240.474919937674
 42
-0.0040245640950584
 10
907.88521421330449
 20
-1240.9332292602867
 10
907.87677809969807
 20
-1240.9528086283665
 42
-0.0046015135849637
 10
907.69302180653767
 20
-1241.3687136580008
 10
907.68473562871282
 20
-1241.3870107974456
 42
-0.0052768638267093
 10
907.50975810975376
 20
-1241.7627836817232
 10
907.50162589912509
 20
-1241.7797770202701
 42
-0.0060672675637398
 10
907.33484628636086
 20
-1242.1176926433807
 10
907.32687680587571
 20
-1242.1333579023851
 42
-0.0069904648871554
 10
907.16770841187781
 20
-1242.4356937090415
 10
907.1599170122696
 20
-1242.450004258264
 42
-0.0080637022769557
 10
907.00776515192115
 20
-1242.7190395614221
 10
907.0001761192915
 20
-1242.73196742702
 42
-0.0093006455668498
 10
906.85443544275847
 20
-1242.9699818255258
 10
906.84708477601623
 20
-1242.9814997946969
 42
-0.0107060778057048
 10
906.70713623257632
 20
-1243.1907701120781
 10
906.70007446430202
 20
-1243.2008556546364
 42
-0.0122723111415725
 10
906.56528074609855
 20
-1243.3836489841328
 10
906.56495452254717
 20
-1243.3840693719389
 42
-0.0141836319636814
 10
906.42137291957044
 20
-1243.558639129772
 10
906.41442516391976
 20
-1243.5666141300353
 42
-0.0175957477205235
 10
906.2745189958838
 20
-1243.7162350184417
 42
-0.0080466359680294
 10
906.12705523085572
 20
-1243.8585575465909
 10
906.08102068633616
 20
-1243.9015779846841
 42
-0.0269600260393891
 10
905.82774044035114
 20
-1244.1139012431947
 10
905.76117330405827
 20
-1244.1638526578156
 42
-0.0178362839754717
 10
905.52122881440027
 20
-1244.3308705840695
 10
905.51398384340496
 20
-1244.3355390962711
 42
-0.0174650732653263
 10
905.27764764595861
 20
-1244.4764000612336
 42
-0.0169240130163718
 10
905.03218140009528
 20
-1244.6006923210136
 10
904.98619524454307
 20
-1244.6220542765782
 42
-0.03188830368418
 10
904.63584438892519
 20
-1244.7583925860877
 10
904.56747885375785
 20
-1244.7800932065638
 42
-0.0284435909903825
 10
904.19142872746727
 20
-1244.8763106420383
 10
904.15627056696667
 20
-1244.8832042378672
 42
-0.0243909341014154
 10
903.84282710604975
 20
-1244.928925268897
 10
903.7925463792825
 20
-1244.9337708157984
 42
-0.0196639292932089
 10
903.57695080175142
 20
-1244.9460191013122
 10
903.52512673058811
 20
-1244.946922362049
 42
-0.0100501510681563
 10
903.41270344892371
 20
-1244.9466219636959
 10
903.38104358754549
 20
-1244.9459008918097
 42
-0.001975203110124
 10
903.33195125089821
 20
-1244.944588731601
 10
903.32919094767999
 20
-1244.9445040397748
 42
0.0065378751992327
 10
903.28561437292137
 20
-1244.9437371485596
 42
-0.0167974694649004
 10
903.24208354998848
 20
-1244.9420772500334
 10
903.23800421072747
 20
-1244.9417842391385
 42
-0.0081283276293067
 10
903.18644441298432
 20
-1244.9372372455002
 10
903.1747048391104
 20
-1244.9360093279224
 42
-0.0126703440194109
 10
903.09998654332344
 20
-1244.9262745368519
 10
903.07719867564015
 20
-1244.9227162809357
 42
-0.0117852088426261
 10
902.95765968980265
 20
-1244.9011532857776
 10
902.90227923804468
 20
-1244.889809745544
 42
-0.0251774592292896
 10
902.67543519903802
 20
-1244.8313117361115
 10
902.63071600918363
 20
-1244.817344916775
 42
-0.014652519988295
 10
902.44432302164728
 20
-1244.7530783895777
 42
-0.0166929435854322
 10
902.26234536552101
 20
-1244.6772712565232
 10
902.25768873424749
 20
-1244.675146355909
 42
-0.0191684358435872
 10
902.07250510299821
 20
-1244.5819102721189
 10
902.06917251724133
 20
-1244.5800690245655
 42
-0.0221181781818507
 10
901.8858622133389
 20
-1244.4679355261947
 10
901.88351240933059
 20
-1244.4663512282038
 42
-0.0254984685387022
 10
901.70722225894519
 20
-1244.333940078234
 10
901.6847401112434
 20
-1244.3151877692981
 42
-0.0292492648804158
 10
901.55997117240031
 20
-1244.1980949696549
 42
-0.0159048957495093
 10
901.44613117495066
 20
-1244.0700749780565
 10
901.44481238437095
 20
-1244.0684933650359
 42
-0.0343813379560055
 10
901.34217512274449
 20
-1243.926622039266
 10
901.31068359138362
 20
-1243.8761186471718
 42
-0.0369117275701106
 10
901.22479108948664
 20
-1243.7126414062238
 42
-0.01917513799074
 10
901.15759770392992
 20
-1243.540236800219
 10
901.15583438017006
 20
-1243.535143455543
 42
-0.0378178042240464
 10
901.10603966138581
 20
-1243.3462026794612
 10
901.10004436565578
 20
-1243.3136420612661
 42
-0.0184846046481889
 10
901.07932716636117
 20
-1243.1718892407198
 42
-0.0179866351324483
 10
901.06899416128738
 20
-1243.0289984276376
 10
901.06893771884165
 20
-1243.0274407410261
 42
-0.0085497186124223
 10
901.06750543773796
 20
-1242.9525675760162
 42
-0.0085497186124223
  0
ENDBLK
  5
59
100
AcDbEntity
  8
template
390
0
100
AcDbBlockEnd
  0
BLOCK
  5
5A
100
AcDbEntity
  8
notes
390
0
100
AcDbBlockBegin
  2
*D3
 70
               1
 10
0.0
 20
0.0
 30
0.0
  3
*D3
  1

  0
LINE
  5
5B
100
AcDbEntity
  8
0
370
              -2
390
0
  6
Continuous
 62
               0
100
AcDbLine
 10
526.48754506719092
 20
-553.06215529293627
 30
0.0
 11
778.98754506719115
 21
-553.06215529293627
 31
0.0
  0
LINE
  5
5C
100
AcDbEntity
  8
0
370
              -2
390
0
  6
Continuous
 62
               0
100
AcDbLine
 10
648.98754506719138
 20
-403.06215529293621
 30
0.0
 11
778.98754506719115
 21
-403.06215529293621
 31
0.0
  0
LINE
  5
5D
100
AcDbEntity
  8
0
370
              -2
390
0
  6
Continuous
 62
               0
100
AcDbLine
 10
778.98754506719115
 20
-553.06215529293627
 30
0.0
 11
778.98754506719115
 21
-403.06215529293621
 31
0.0
  0
CIRCLE
  5
5E
102
{ACAD_REACTORS
330
5F
102
}
100
AcDbEntity
  8
0
370
              -2
390
0
  6
Continuous
 62
               0
100
AcDbCircle
 10
778.98754506719115
 20
-553.06215529293627
 30
0.0
 40
1.9998779296875
  0
HATCH
  5
5F
100
AcDbEntity
  8
0
370
              -2
390
0
  6
Continuous
 62
               0
100
AcDbHatch
 10
0.0
 20
0.0
 30
0.0
210
0.0
220
0.0
230
1.0
  2
SOLID
 70
               1
 71
               1
 91
        1
 92
        1
 93
        1
 72
               2
 10
778.98754506719115
 20
-553.06215529293627
 40
1.9998779296875
 50
0.0
 51
360.0
 73
               0
 97
        1
330
5E
 75
               0
 76
               1
 98
        1
 10
0.0
 20
0.0
  0
CIRCLE
  5
60
102
{ACAD_REACTORS
330
61
102
}
100
AcDbEntity
  8
0
370
              -2
390
0
  6
Continuous
 62
               0
100
AcDbCircle
 10
778.98754506719115
 20
-403.06215529293621
 30
0.0
 40
1.9998779296875
  0
HATCH
  5
61
100
AcDbEntity
  8
0
370
              -2
390
0
  6
Continuous
 62
               0
100
AcDbHatch
 10
0.0
 20
0.0
 30
0.0
210
0.0
220
0.0
230
1.0
  2
SOLID
 70
               1
 71
               1
 91
        1
 92
        1
 93
        1
 72
               2
 10
778.98754506719115
 20
-403.06215529293621
 40
1.9998779296875
 50
0.0
 51
360.0
 73
               0
 97
        1
330
60
 75
               0
 76
               1
 98
        1
 10
0.0
 20
0.0
  0
MTEXT
  5
62
100
AcDbEntity
  8
0
390
0
 62
               0
100
AcDbMText
 10
745.10992787969121
 20
-501.87465697511175
 30
0.0
 40
24.432617187500004
 41
0.0
 71
               1
 72
               1
  1
150
  7
ＭＳ ゴシック
 11
0.0
 21
1.0
 31
0.0
 73
               1
 44
0.7828267384257843
  0
POINT
  5
63
100
AcDbEntity
  8
Defpoints
370
               0
390
0
 62
               0
100
AcDbPoint
 10
623.98754506719138
 20
-403.06215529293621
 30
0.0
  0
POINT
  5
64
100
AcDbEntity
  8
Defpoints
370
               0
390
0
 62
               0
100
AcDbPoint
 10
501.48754506719104
 20
-553.06215529293627
 30
0.0
  0
POINT
  5
65
100
AcDbEntity
  8
Defpoints
370
               0
390
0
 62
               0
100
AcDbPoint
 10
778.98754506719115
 20
-553.06215529293627
 30
0.0
  0
ENDBLK
  5
66
100
AcDbEntity
  8
notes
390
0
100
AcDbBlockEnd
  0
BLOCK
  5
67
100
AcDbEntity
  8
notes
390
0
100
AcDbBlockBegin
  2
*D4
 70
               1
 10
0.0
 20
0.0
 30
0.0
  3
*D4
  1

  0
LINE
  5
68
100
AcDbEntity
  8
0
370
              -2
390
0
  6
Continuous
 62
               0
100
AcDbLine
 10
-464.11245493280899
 20
-578.06215529293627
 30
0.0
 11
-464.11245493280899
 21
-660.05836324523295
 31
0.0
  0
LINE
  5
69
100
AcDbEntity
  8
0
370
              -2
390
0
  6
Continuous
 62
               0
100
AcDbLine
 10
-394.11245493280899
 20
-578.06215529293627
 30
0.0
 11
-394.11245493280899
 21
-660.05836324523295
 31
0.0
  0
LINE
  5
6A
100
AcDbEntity
  8
0
370
              -2
390
0
  6
Continuous
 62
               0
100
AcDbLine
 10
-464.11245493280899
 20
-660.05836324523295
 30
0.0
 11
-394.11245493280899
 21
-660.05836324523295
 31
0.0
  0
CIRCLE
  5
6B
102
{ACAD_REACTORS
330
6C
102
}
100
AcDbEntity
  8
0
370
              -2
390
0
  6
Continuous
 62
               0
100
AcDbCircle
 10
-464.11245493280899
 20
-660.05836324523295
 30
0.0
 40
1.9998779296875
  0
HATCH
  5
6C
100
AcDbEntity
  8
0
370
              -2
390
0
  6
Continuous
 62
               0
100
AcDbHatch
 10
0.0
 20
0.0
 30
0.0
210
0.0
220
0.0
230
1.0
  2
SOLID
 70
               1
 71
               1
 91
        1
 92
        1
 93
        1
 72
               2
 10
-464.11245493280899
 20
-660.05836324523295
 40
1.9998779296875
 50
0.0
 51
360.0
 73
               0
 97
        1
330
6B
 75
               0
 76
               1
 98
        1
 10
0.0
 20
0.0
  0
CIRCLE
  5
6D
102
{ACAD_REACTORS
330
6E
102
}
100
AcDbEntity
  8
0
370
              -2
390
0
  6
Continuous
 62
               0
100
AcDbCircle
 10
-394.11245493280899
 20
-660.05836324523295
 30
0.0
 40
1.9998779296875
  0
HATCH
  5
6E
100
AcDbEntity
  8
0
370
              -2
390
0
  6
Continuous
 62
               0
100
AcDbHatch
 10
0.0
 20
0.0
 30
0.0
210
0.0
220
0.0
230
1.0
  2
SOLID
 70
               1
 71
               1
 91
        1
 92
        1
 93
        1
 72
               2
 10
-394.11245493280899
 20
-660.05836324523295
 40
1.9998779296875
 50
0.0
 51
360.0
 73
               0
 97
        1
330
6D
 75
               0
 76
               1
 98
        1
 10
0.0
 20
0.0
  0
MTEXT
  5
6F
100
AcDbEntity
  8
0
390
0
 62
               0
100
AcDbMText
 10
-444.98745493280899
 20
-626.1807460577329
 30
0.0
 40
24.432617187500004
 41
0.0
 71
               1
 72
               1
  1
70
  7
ＭＳ ゴシック
 73
               1
 44
0.7828267384257843
  0
POINT
  5
70
100
AcDbEntity
  8
Defpoints
370
               0
390
0
 62
               0
100
AcDbPoint
 10
-394.11245493280899
 20
-553.06215529293627
 30
0.0
  0
POINT
  5
71
100
AcDbEntity
  8
Defpoints
370
               0
390
0
 62
               0
100
AcDbPoint
 10
-464.11245493280899
 20
-553.06215529293627
 30
0.0
  0
POINT
  5
72
100
AcDbEntity
  8
Defpoints
370
               0
390
0
 62
               0
100
AcDbPoint
 10
-464.11245493280899
 20
-660.05836324523295
 30
0.0
  0
ENDBLK
  5
73
100
AcDbEntity
  8
notes
390
0
100
AcDbBlockEnd
  0
BLOCK
  5
74
100
AcDbEntity
  8
notes
390
0
100
AcDbBlockBegin
  2
*D5
 70
               1
 10
0.0
 20
0.0
 30
0.0
  3
*D5
  1

  0
LINE
  5
75
100
AcDbEntity
  8
0
370
              -2
390
0
  6
Continuous
 62
               0
100
AcDbLine
 10
-614.11245493280876
 20
-428.05836324523182
 30
0.0
 11
-691.60184366595104
 21
-428.05836324523182
 31
0.0
  0
LINE
  5
76
100
AcDbEntity
  8
0
370
              -2
390
0
  6
Continuous
 62
               0
100
AcDbLine
 10
-614.11245493280876
 20
-538.05836324523273
 30
0.0
 11
-691.60184366595104
 21
-538.05836324523273
 31
0.0
  0
LINE
  5
77
100
AcDbEntity
  8
0
370
              -2
390
0
  6
Continuous
 62
               0
100
AcDbLine
 10
-691.60184366595104
 20
-428.05836324523182
 30
0.0
 11
-691.60184366595104
 21
-538.05836324523273
 31
0.0
  0
CIRCLE
  5
78
102
{ACAD_REACTORS
330
79
102
}
100
AcDbEntity
  8
0
370
              -2
390
0
  6
Continuous
 62
               0
100
AcDbCircle
 10
-691.60184366595104
 20
-428.05836324523182
 30
0.0
 40
1.9998779296875
  0
HATCH
  5
79
100
AcDbEntity
  8
0
370
              -2
390
0
  6
Continuous
 62
               0
100
AcDbHatch
 10
0.0
 20
0.0
 30
0.0
210
0.0
220
0.0
230
1.0
  2
SOLID
 70
               1
 71
               1
 91
        1
 92
        1
 93
        1
 72
               2
 10
-691.60184366595104
 20
-428.05836324523182
 40
1.9998779296875
 50
0.0
 51
360.0
 73
               0
 97
        1
330
78
 75
               0
 76
               1
 98
        1
 10
0.0
 20
0.0
  0
CIRCLE
  5
7A
102
{ACAD_REACTORS
330
7B
102
}
100
AcDbEntity
  8
0
370
              -2
390
0
  6
Continuous
 62
               0
100
AcDbCircle
 10
-691.60184366595104
 20
-538.05836324523273
 30
0.0
 40
1.9998779296875
  0
HATCH
  5
7B
100
AcDbEntity
  8
0
370
              -2
390
0
  6
Continuous
 62
               0
100
AcDbHatch
 10
0.0
 20
0.0
 30
0.0
210
0.0
220
0.0
230
1.0
  2
SOLID
 70
               1
 71
               1
 91
        1
 92
        1
 93
        1
 72
               2
 10
-691.60184366595104
 20
-538.05836324523273
 40
1.9998779296875
 50
0.0
 51
360.0
 73
               0
 97
        1
330
7A
 75
               0
 76
               1
 98
        1
 10
0.0
 20
0.0
  0
MTEXT
  5
7C
100
AcDbEntity
  8
0
390
0
 62
               0
100
AcDbMText
 10
-725.4794608534512
 20
-506.87086492740775
 30
0.0
 40
24.432617187500004
 41
0.0
 71
               1
 72
               1
  1
110
  7
ＭＳ ゴシック
 11
0.0
 21
1.0
 31
0.0
 73
               1
 44
0.7828267384257843
  0
POINT
  5
7D
100
AcDbEntity
  8
Defpoints
370
               0
390
0
 62
               0
100
AcDbPoint
 10
-589.11245493280876
 20
-538.05836324523273
 30
0.0
  0
POINT
  5
7E
100
AcDbEntity
  8
Defpoints
370
               0
390
0
 62
               0
100
AcDbPoint
 10
-589.11245493280876
 20
-428.05836324523182
 30
0.0
  0
POINT
  5
7F
100
AcDbEntity
  8
Defpoints
370
               0
390
0
 62
               0
100
AcDbPoint
 10
-691.60184366595104
 20
-428.05836324523182
 30
0.0
  0
ENDBLK
  5
80
100
AcDbEntity
  8
notes
390
0
100
AcDbBlockEnd
  0
BLOCK
  5
81
100
AcDbEntity
  8
notes
390
0
100
AcDbBlockBegin
  2
*D6
 70
               1
 10
0.0
 20
0.0
 30
0.0
  3
*D6
  1

  0
LINE
  5
82
100
AcDbEntity
  8
0
370
              -2
390
0
  6
Continuous
 62
               0
100
AcDbLine
 10
-569.11245493280876
 20
-383.05836324523182
 30
0.0
 11
-569.11245493280876
 21
-303.05836324523182
 31
0.0
  0
LINE
  5
83
100
AcDbEntity
  8
0
370
              -2
390
0
  6
Continuous
 62
               0
100
AcDbLine
 10
-289.11245493280899
 20
-383.05836324523182
 30
0.0
 11
-289.11245493280899
 21
-303.05836324523182
 31
0.0
  0
LINE
  5
84
100
AcDbEntity
  8
0
370
              -2
390
0
  6
Continuous
 62
               0
100
AcDbLine
 10
-569.11245493280876
 20
-303.05836324523182
 30
0.0
 11
-289.11245493280899
 21
-303.05836324523182
 31
0.0
  0
CIRCLE
  5
85
102
{ACAD_REACTORS
330
86
102
}
100
AcDbEntity
  8
0
370
              -2
390
0
  6
Continuous
 62
               0
100
AcDbCircle
 10
-569.11245493280876
 20
-303.05836324523182
 30
0.0
 40
1.9998779296875
  0
HATCH
  5
86
100
AcDbEntity
  8
0
370
              -2
390
0
  6
Continuous
 62
               0
100
AcDbHatch
 10
0.0
 20
0.0
 30
0.0
210
0.0
220
0.0
230
1.0
  2
SOLID
 70
               1
 71
               1
 91
        1
 92
        1
 93
        1
 72
               2
 10
-569.11245493280876
 20
-303.05836324523182
 40
1.9998779296875
 50
0.0
 51
360.0
 73
               0
 97
        1
330
85
 75
               0
 76
               1
 98
        1
 10
0.0
 20
0.0
  0
CIRCLE
  5
87
102
{ACAD_REACTORS
330
88
102
}
100
AcDbEntity
  8
0
370
              -2
390
0
  6
Continuous
 62
               0
100
AcDbCircle
 10
-289.11245493280899
 20
-303.05836324523182
 30
0.0
 40
1.9998779296875
  0
HATCH
  5
88
100
AcDbEntity
  8
0
370
              -2
390
0
  6
Continuous
 62
               0
100
AcDbHatch
 10
0.0
 20
0.0
 30
0.0
210
0.0
220
0.0
230
1.0
  2
SOLID
 70
               1
 71
               1
 91
        1
 92
        1
 93
        1
 72
               2
 10
-289.11245493280899
 20
-303.05836324523182
 40
1.9998779296875
 50
0.0
 51
360.0
 73
               0
 97
        1
330
87
 75
               0
 76
               1
 98
        1
 10
0.0
 20
0.0
  0
MTEXT
  5
89
100
AcDbEntity
  8
0
390
0
 62
               0
100
AcDbMText
 10
-452.92495661498447
 20
-269.18074605773182
 30
0.0
 40
24.432617187500004
 41
0.0
 71
               1
 72
               1
  1
280
  7
ＭＳ ゴシック
 73
               1
 44
0.7828267384257843
  0
POINT
  5
8A
100
AcDbEntity
  8
Defpoints
370
               0
390
0
 62
               0
100
AcDbPoint
 10
-289.11245493280899
 20
-408.05836324523182
 30
0.0
  0
POINT
  5
8B
100
AcDbEntity
  8
Defpoints
370
               0
390
0
 62
               0
100
AcDbPoint
 10
-569.11245493280876
 20
-408.05836324523182
 30
0.0
  0
POINT
  5
8C
100
AcDbEntity
  8
Defpoints
370
               0
390
0
 62
               0
100
AcDbPoint
 10
-569.11245493280876
 20
-303.05836324523182
 30
0.0
  0
ENDBLK
  5
8D
100
AcDbEntity
  8
notes
390
0
100
AcDbBlockEnd
  0
BLOCK
  5
8E
100
AcDbEntity
  8
notes
390
0
100
AcDbBlockBegin
  2
*D7
 70
               1
 10
0.0
 20
0.0
 30
0.0
  3
*D7
  1

  0
LINE
  5
8F
100
AcDbEntity
  8
0
370
              -2
390
0
  6
Continuous
 62
               0
100
AcDbLine
 10
-247.15681157984039
 20
-403.05836324523182
 30
0.0
 11
-166.60184366595126
 21
-403.05836324523182
 31
0.0
  0
LINE
  5
90
100
AcDbEntity
  8
0
370
              -2
390
0
  6
Continuous
 62
               0
100
AcDbLine
 10
-247.15681157984039
 20
-563.05836324523307
 30
0.0
 11
-166.60184366595126
 21
-563.05836324523307
 31
0.0
  0
LINE
  5
91
100
AcDbEntity
  8
0
370
              -2
390
0
  6
Continuous
 62
               0
100
AcDbLine
 10
-166.60184366595126
 20
-403.05836324523182
 30
0.0
 11
-166.60184366595126
 21
-563.05836324523307
 31
0.0
  0
CIRCLE
  5
92
102
{ACAD_REACTORS
330
93
102
}
100
AcDbEntity
  8
0
370
              -2
390
0
  6
Continuous
 62
               0
100
AcDbCircle
 10
-166.60184366595126
 20
-403.05836324523182
 30
0.0
 40
1.9998779296875
  0
HATCH
  5
93
100
AcDbEntity
  8
0
370
              -2
390
0
  6
Continuous
 62
               0
100
AcDbHatch
 10
0.0
 20
0.0
 30
0.0
210
0.0
220
0.0
230
1.0
  2
SOLID
 70
               1
 71
               1
 91
        1
 92
        1
 93
        1
 72
               2
 10
-166.60184366595126
 20
-403.05836324523182
 40
1.9998779296875
 50
0.0
 51
360.0
 73
               0
 97
        1
330
92
 75
               0
 76
               1
 98
        1
 10
0.0
 20
0.0
  0
CIRCLE
  5
94
102
{ACAD_REACTORS
330
95
102
}
100
AcDbEntity
  8
0
370
              -2
390
0
  6
Continuous
 62
               0
100
AcDbCircle
 10
-166.60184366595126
 20
-563.05836324523307
 30
0.0
 40
1.9998779296875
  0
HATCH
  5
95
100
AcDbEntity
  8
0
370
              -2
390
0
  6
Continuous
 62
               0
100
AcDbHatch
 10
0.0
 20
0.0
 30
0.0
210
0.0
220
0.0
230
1.0
  2
SOLID
 70
               1
 71
               1
 91
        1
 92
        1
 93
        1
 72
               2
 10
-166.60184366595126
 20
-563.05836324523307
 40
1.9998779296875
 50
0.0
 51
360.0
 73
               0
 97
        1
330
94
 75
               0
 76
               1
 98
        1
 10
0.0
 20
0.0
  0
MTEXT
  5
96
100
AcDbEntity
  8
0
390
0
 62
               0
100
AcDbMText
 10
-200.47946085345126
 20
-506.87086492740798
 30
0.0
 40
24.432617187500004
 41
0.0
 71
               1
 72
               1
  1
160
  7
ＭＳ ゴシック
 11
0.0
 21
1.0
 31
0.0
 73
               1
 44
0.7828267384257843
  0
POINT
  5
97
100
AcDbEntity
  8
Defpoints
370
               0
390
0
 62
               0
100
AcDbPoint
 10
-272.15681157984039
 20
-563.05836324523307
 30
0.0
  0
POINT
  5
98
100
AcDbEntity
  8
Defpoints
370
               0
390
0
 62
               0
100
AcDbPoint
 10
-272.15681157984039
 20
-403.05836324523182
 30
0.0
  0
POINT
  5
99
100
AcDbEntity
  8
Defpoints
370
               0
390
0
 62
               0
100
AcDbPoint
 10
-166.60184366595126
 20
-403.05836324523182
 30
0.0
  0
ENDBLK
  5
9A
100
AcDbEntity
  8
notes
390
0
100
AcDbBlockEnd
  0
BLOCK
  5
9B
100
AcDbEntity
  8
notes
390
0
100
AcDbBlockBegin
  2
*D8
 70
               1
 10
0.0
 20
0.0
 30
0.0
  3
*D8
  1

  0
LINE
  5
9C
100
AcDbEntity
  8
0
370
              -2
390
0
  6
Continuous
 62
               0
100
AcDbLine
 10
-266.60184366595126
 20
837.48041625696374
 30
0.0
 11
-266.60184366595126
 21
915.48041625696362
 31
0.0
  0
LINE
  5
9D
100
AcDbEntity
  8
0
370
              -2
390
0
  6
Continuous
 62
               0
100
AcDbLine
 10
-591.60184366595104
 20
837.48041625696374
 30
0.0
 11
-591.60184366595104
 21
915.48041625696362
 31
0.0
  0
LINE
  5
9E
100
AcDbEntity
  8
0
370
              -2
390
0
  6
Continuous
 62
               0
100
AcDbLine
 10
-266.60184366595126
 20
915.48041625696362
 30
0.0
 11
-591.60184366595104
 21
915.48041625696362
 31
0.0
  0
CIRCLE
  5
9F
102
{ACAD_REACTORS
330
A0
102
}
100
AcDbEntity
  8
0
370
              -2
390
0
  6
Continuous
 62
               0
100
AcDbCircle
 10
-266.60184366595126
 20
915.48041625696362
 30
0.0
 40
1.9998779296875
  0
HATCH
  5
A0
100
AcDbEntity
  8
0
370
              -2
390
0
  6
Continuous
 62
               0
100
AcDbHatch
 10
0.0
 20
0.0
 30
0.0
210
0.0
220
0.0
230
1.0
  2
SOLID
 70
               1
 71
               1
 91
        1
 92
        1
 93
        1
 72
               2
 10
-266.60184366595126
 20
915.48041625696362
 40
1.9998779296875
 50
0.0
 51
360.0
 73
               0
 97
        1
330
9F
 75
               0
 76
               1
 98
        1
 10
0.0
 20
0.0
  0
CIRCLE
  5
A1
102
{ACAD_REACTORS
330
A2
102
}
100
AcDbEntity
  8
0
370
              -2
390
0
  6
Continuous
 62
               0
100
AcDbCircle
 10
-591.60184366595104
 20
915.48041625696362
 30
0.0
 40
1.9998779296875
  0
HATCH
  5
A2
100
AcDbEntity
  8
0
370
              -2
390
0
  6
Continuous
 62
               0
100
AcDbHatch
 10
0.0
 20
0.0
 30
0.0
210
0.0
220
0.0
230
1.0
  2
SOLID
 70
               1
 71
               1
 91
        1
 92
        1
 93
        1
 72
               2
 10
-591.60184366595104
 20
915.48041625696362
 40
1.9998779296875
 50
0.0
 51
360.0
 73
               0
 97
        1
330
A1
 75
               0
 76
               1
 98
        1
 10
0.0
 20
0.0
  0
MTEXT
  5
A3
100
AcDbEntity
  8
0
390
0
 62
               0
100
AcDbMText
 10
-452.91434534812674
 20
949.35803344446356
 30
0.0
 40
24.432617187500004
 41
0.0
 71
               1
 72
               1
  1
325
  7
ＭＳ ゴシック
 73
               1
 44
0.7828267384257843
  0
POINT
  5
A4
100
AcDbEntity
  8
Defpoints
370
               0
390
0
 62
               0
100
AcDbPoint
 10
-591.60184366595104
 20
812.48041625696374
 30
0.0
  0
POINT
  5
A5
100
AcDbEntity
  8
Defpoints
370
               0
390
0
 62
               0
100
AcDbPoint
 10
-266.60184366595126
 20
812.48041625696374
 30
0.0
  0
POINT
  5
A6
100
AcDbEntity
  8
Defpoints
370
               0
390
0
 62
               0
100
AcDbPoint
 10
-266.60184366595126
 20
915.48041625696362
 30
0.0
  0
ENDBLK
  5
A7
100
AcDbEntity
  8
notes
390
0
100
AcDbBlockEnd
  0
BLOCK
  5
A8
100
AcDbEntity
  8
notes
390
0
100
AcDbBlockBegin
  2
*D9
 70
               1
 10
0.0
 20
0.0
 30
0.0
  3
*D9
  1

  0
LINE
  5
A9
100
AcDbEntity
  8
0
370
              -2
390
0
  6
Continuous
 62
               0
100
AcDbLine
 10
-566.60184366595104
 20
465.0801097013977
 30
0.0
 11
-566.60184366595104
 21
390.0801097013977
 31
0.0
  0
LINE
  5
AA
100
AcDbEntity
  8
0
370
              -2
390
0
  6
Continuous
 62
               0
100
AcDbLine
 10
-291.60184366595121
 20
465.0801097013977
 30
0.0
 11
-291.60184366595121
 21
390.0801097013977
 31
0.0
  0
LINE
  5
AB
100
AcDbEntity
  8
0
370
              -2
390
0
  6
Continuous
 62
               0
100
AcDbLine
 10
-566.60184366595104
 20
390.0801097013977
 30
0.0
 11
-291.60184366595121
 21
390.0801097013977
 31
0.0
  0
CIRCLE
  5
AC
102
{ACAD_REACTORS
330
AD
102
}
100
AcDbEntity
  8
0
370
              -2
390
0
  6
Continuous
 62
               0
100
AcDbCircle
 10
-566.60184366595104
 20
390.0801097013977
 30
0.0
 40
1.9998779296875
  0
HATCH
  5
AD
100
AcDbEntity
  8
0
370
              -2
390
0
  6
Continuous
 62
               0
100
AcDbHatch
 10
0.0
 20
0.0
 30
0.0
210
0.0
220
0.0
230
1.0
  2
SOLID
 70
               1
 71
               1
 91
        1
 92
        1
 93
        1
 72
               2
 10
-566.60184366595104
 20
390.0801097013977
 40
1.9998779296875
 50
0.0
 51
360.0
 73
               0
 97
        1
330
AC
 75
               0
 76
               1
 98
        1
 10
0.0
 20
0.0
  0
CIRCLE
  5
AE
102
{ACAD_REACTORS
330
AF
102
}
100
AcDbEntity
  8
0
370
              -2
390
0
  6
Continuous
 62
               0
100
AcDbCircle
 10
-291.60184366595121
 20
390.0801097013977
 30
0.0
 40
1.9998779296875
  0
HATCH
  5
AF
100
AcDbEntity
  8
0
370
              -2
390
0
  6
Continuous
 62
               0
100
AcDbHatch
 10
0.0
 20
0.0
 30
0.0
210
0.0
220
0.0
230
1.0
  2
SOLID
 70
               1
 71
               1
 91
        1
 92
        1
 93
        1
 72
               2
 10
-291.60184366595121
 20
390.0801097013977
 40
1.9998779296875
 50
0.0
 51
360.0
 73
               0
 97
        1
330
AE
 75
               0
 76
               1
 98
        1
 10
0.0
 20
0.0
  0
MTEXT
  5
B0
100
AcDbEntity
  8
0
390
0
 62
               0
100
AcDbMText
 10
-452.91434534812669
 20
423.95772688889775
 30
0.0
 40
24.432617187500004
 41
0.0
 71
               1
 72
               1
  1
275
  7
ＭＳ ゴシック
 73
               1
 44
0.7828267384257843
  0
POINT
  5
B1
100
AcDbEntity
  8
Defpoints
370
               0
390
0
 62
               0
100
AcDbPoint
 10
-291.60184366595121
 20
490.0801097013977
 30
0.0
  0
POINT
  5
B2
100
AcDbEntity
  8
Defpoints
370
               0
390
0
 62
               0
100
AcDbPoint
 10
-566.60184366595104
 20
490.0801097013977
 30
0.0
  0
POINT
  5
B3
100
AcDbEntity
  8
Defpoints
370
               0
390
0
 62
               0
100
AcDbPoint
 10
-566.60184366595104
 20
390.0801097013977
 30
0.0
  0
ENDBLK
  5
B4
100
AcDbEntity
  8
notes
390
0
100
AcDbBlockEnd
  0
BLOCK
  5
B5
100
AcDbEntity
  8
notes
390
0
100
AcDbBlockBegin
  2
*D10
 70
               1
 10
0.0
 20
0.0
 30
0.0
  3
*D10
  1

  0
LINE
  5
B6
100
AcDbEntity
  8
0
370
              -2
390
0
  6
Continuous
 62
               0
100
AcDbLine
 10
491.48754506719047
 20
-503.06215529293559
 30
0.0
 11
468.48749979450906
 21
-503.06215529293559
 31
0.0
  0
LINE
  5
B7
100
AcDbEntity
  8
0
370
              -2
390
0
  6
Continuous
 62
               0
100
AcDbLine
 10
491.48754506719104
 20
-403.06215529293559
 30
0.0
 11
468.48749979450906
 21
-403.06215529293559
 31
0.0
  0
LINE
  5
B8
100
AcDbEntity
  8
0
370
              -2
390
0
  6
Continuous
 62
               0
100
AcDbLine
 10
468.48749979450906
 20
-403.06215529293559
 30
0.0
 11
468.48749979450906
 21
-241.25341317580927
 31
0.0
  0
LINE
  5
B9
100
AcDbEntity
  8
0
370
              -2
390
0
  6
Continuous
 62
               0
100
AcDbLine
 10
468.48749979450906
 20
-503.06215529293559
 30
0.0
 11
468.48749979450906
 21
-403.06215529293559
 31
0.0
  0
CIRCLE
  5
BA
102
{ACAD_REACTORS
330
BB
102
}
100
AcDbEntity
  8
0
370
              -2
390
0
  6
Continuous
 62
               0
100
AcDbCircle
 10
468.48749979450906
 20
-503.06215529293559
 30
0.0
 40
1.9998779296875
  0
HATCH
  5
BB
100
AcDbEntity
  8
0
370
              -2
390
0
  6
Continuous
 62
               0
100
AcDbHatch
 10
0.0
 20
0.0
 30
0.0
210
0.0
220
0.0
230
1.0
  2
SOLID
 70
               1
 71
               1
 91
        1
 92
        1
 93
        1
 72
               2
 10
468.48749979450906
 20
-503.06215529293559
 40
1.9998779296875
 50
0.0
 51
360.0
 73
               0
 97
        1
330
BA
 75
               0
 76
               1
 98
        1
 10
0.0
 20
0.0
  0
CIRCLE
  5
BC
102
{ACAD_REACTORS
330
BD
102
}
100
AcDbEntity
  8
0
370
              -2
390
0
  6
Continuous
 62
               0
100
AcDbCircle
 10
468.48749979450906
 20
-403.06215529293559
 30
0.0
 40
1.9998779296875
  0
HATCH
  5
BD
100
AcDbEntity
  8
0
370
              -2
390
0
  6
Continuous
 62
               0
100
AcDbHatch
 10
0.0
 20
0.0
 30
0.0
210
0.0
220
0.0
230
1.0
  2
SOLID
 70
               1
 71
               1
 91
        1
 92
        1
 93
        1
 72
               2
 10
468.48749979450906
 20
-403.06215529293559
 40
1.9998779296875
 50
0.0
 51
360.0
 73
               0
 97
        1
330
BC
 75
               0
 76
               1
 98
        1
 10
0.0
 20
0.0
  0
MTEXT
  5
BE
100
AcDbEntity
  8
0
390
0
 62
               0
100
AcDbMText
 10
434.60988260700907
 20
-384.12841317580927
 30
0.0
 40
24.432617187500004
 41
0.0
 71
               1
 72
               1
  1
100(深さ)
  7
ＭＳ ゴシック
 11
0.0
 21
1.0
 31
0.0
 73
               1
 44
0.7828267384257843
  0
POINT
  5
BF
100
AcDbEntity
  8
Defpoints
370
               0
390
0
 62
               0
100
AcDbPoint
 10
466.48754506719104
 20
-403.06215529293559
 30
0.0
  0
POINT
  5
C0
100
AcDbEntity
  8
Defpoints
370
               0
390
0
 62
               0
100
AcDbPoint
 10
466.48754506719047
 20
-503.06215529293559
 30
0.0
  0
POINT
  5
C1
100
AcDbEntity
  8
Defpoints
370
               0
390
0
 62
               0
100
AcDbPoint
 10
468.48749979450906
 20
-503.06215529293559
 30
0.0
  0
ENDBLK
  5
C2
100
AcDbEntity
  8
notes
390
0
100
AcDbBlockEnd
  0
BLOCK
  5
C3
100
AcDbEntity
  8
notes
390
0
100
AcDbBlockBegin
  2
*D11
 70
               1
 10
0.0
 20
0.0
 30
0.0
  3
*D11
  1

  0
LINE
  5
C4
100
AcDbEntity
  8
0
370
              -2
390
0
  6
Continuous
 62
               0
100
AcDbLine
 10
466.48754506719104
 20
-588.05836324523307
 30
0.0
 11
466.48754506719104
 21
-663.05836324523307
 31
0.0
  0
LINE
  5
C5
100
AcDbEntity
  8
0
370
              -2
390
0
  6
Continuous
 62
               0
100
AcDbLine
 10
303.98754506719098
 20
-583.05836324523295
 30
0.0
 11
303.98754506719098
 21
-663.05836324523307
 31
0.0
  0
LINE
  5
C6
100
AcDbEntity
  8
0
370
              -2
390
0
  6
Continuous
 62
               0
100
AcDbLine
 10
466.48754506719104
 20
-663.05836324523307
 30
0.0
 11
303.98754506719098
 21
-663.05836324523307
 31
0.0
  0
CIRCLE
  5
C7
102
{ACAD_REACTORS
330
C8
102
}
100
AcDbEntity
  8
0
370
              -2
390
0
  6
Continuous
 62
               0
100
AcDbCircle
 10
466.48754506719104
 20
-663.05836324523307
 30
0.0
 40
1.9998779296875
  0
HATCH
  5
C8
100
AcDbEntity
  8
0
370
              -2
390
0
  6
Continuous
 62
               0
100
AcDbHatch
 10
0.0
 20
0.0
 30
0.0
210
0.0
220
0.0
230
1.0
  2
SOLID
 70
               1
 71
               1
 91
        1
 92
        1
 93
        1
 72
               2
 10
466.48754506719104
 20
-663.05836324523307
 40
1.9998779296875
 50
0.0
 51
360.0
 73
               0
 97
        1
330
C7
 75
               0
 76
               1
 98
        1
 10
0.0
 20
0.0
  0
CIRCLE
  5
C9
102
{ACAD_REACTORS
330
CA
102
}
100
AcDbEntity
  8
0
370
              -2
390
0
  6
Continuous
 62
               0
100
AcDbCircle
 10
303.98754506719098
 20
-663.05836324523307
 30
0.0
 40
1.9998779296875
  0
HATCH
  5
CA
100
AcDbEntity
  8
0
370
              -2
390
0
  6
Continuous
 62
               0
100
AcDbHatch
 10
0.0
 20
0.0
 30
0.0
210
0.0
220
0.0
230
1.0
  2
SOLID
 70
               1
 71
               1
 91
        1
 92
        1
 93
        1
 72
               2
 10
303.98754506719098
 20
-663.05836324523307
 40
1.9998779296875
 50
0.0
 51
360.0
 73
               0
 97
        1
330
C9
 75
               0
 76
               1
 98
        1
 10
0.0
 20
0.0
  0
MTEXT
  5
CB
100
AcDbEntity
  8
0
390
0
 62
               0
100
AcDbMText
 10
345.55004506719098
 20
-629.18074605773302
 30
0.0
 40
24.432617187500004
 41
0.0
 71
               1
 72
               1
  1
162.5
  7
ＭＳ ゴシック
 73
               1
 44
0.7828267384257843
  0
POINT
  5
CC
100
AcDbEntity
  8
Defpoints
370
               0
390
0
 62
               0
100
AcDbPoint
 10
303.98754506719098
 20
-558.05836324523295
 30
0.0
  0
POINT
  5
CD
100
AcDbEntity
  8
Defpoints
370
               0
390
0
 62
               0
100
AcDbPoint
 10
466.48754506719104
 20
-563.05836324523307
 30
0.0
  0
POINT
  5
CE
100
AcDbEntity
  8
Defpoints
370
               0
390
0
 62
               0
100
AcDbPoint
 10
466.48754506719104
 20
-663.05836324523307
 30
0.0
  0
ENDBLK
  5
CF
100
AcDbEntity
  8
notes
390
0
100
AcDbBlockEnd
  0
BLOCK
  5
D0
100
AcDbEntity
  8
notes
390
0
100
AcDbBlockBegin
  2
*D12
 70
               1
 10
0.0
 20
0.0
 30
0.0
  3
*D12
  1

  0
LINE
  5
D1
100
AcDbEntity
  8
0
370
              -2
390
0
  6
Continuous
 62
               0
100
AcDbLine
 10
-246.60184366595126
 20
815.08010970139685
 30
0.0
 11
-166.51245493280896
 21
815.08010970139685
 31
0.0
  0
LINE
  5
D2
100
AcDbEntity
  8
0
370
              -2
390
0
  6
Continuous
 62
               0
100
AcDbLine
 10
-246.60184366595121
 20
490.0801097013977
 30
0.0
 11
-166.51245493280896
 21
490.0801097013977
 31
0.0
  0
LINE
  5
D3
100
AcDbEntity
  8
0
370
              -2
390
0
  6
Continuous
 62
               0
100
AcDbLine
 10
-166.51245493280896
 20
815.08010970139685
 30
0.0
 11
-166.51245493280896
 21
490.0801097013977
 31
0.0
  0
CIRCLE
  5
D4
102
{ACAD_REACTORS
330
D5
102
}
100
AcDbEntity
  8
0
370
              -2
390
0
  6
Continuous
 62
               0
100
AcDbCircle
 10
-166.51245493280896
 20
815.08010970139685
 30
0.0
 40
1.9998779296875
  0
HATCH
  5
D5
100
AcDbEntity
  8
0
370
              -2
390
0
  6
Continuous
 62
               0
100
AcDbHatch
 10
0.0
 20
0.0
 30
0.0
210
0.0
220
0.0
230
1.0
  2
SOLID
 70
               1
 71
               1
 91
        1
 92
        1
 93
        1
 72
               2
 10
-166.51245493280896
 20
815.08010970139685
 40
1.9998779296875
 50
0.0
 51
360.0
 73
               0
 97
        1
330
D4
 75
               0
 76
               1
 98
        1
 10
0.0
 20
0.0
  0
CIRCLE
  5
D6
102
{ACAD_REACTORS
330
D7
102
}
100
AcDbEntity
  8
0
370
              -2
390
0
  6
Continuous
 62
               0
100
AcDbCircle
 10
-166.51245493280896
 20
490.0801097013977
 30
0.0
 40
1.9998779296875
  0
HATCH
  5
D7
100
AcDbEntity
  8
0
370
              -2
390
0
  6
Continuous
 62
               0
100
AcDbHatch
 10
0.0
 20
0.0
 30
0.0
210
0.0
220
0.0
230
1.0
  2
SOLID
 70
               1
 71
               1
 91
        1
 92
        1
 93
        1
 72
               2
 10
-166.51245493280896
 20
490.0801097013977
 40
1.9998779296875
 50
0.0
 51
360.0
 73
               0
 97
        1
330
D6
 75
               0
 76
               1
 98
        1
 10
0.0
 20
0.0
  0
MTEXT
  5
D8
100
AcDbEntity
  8
0
390
0
 62
               0
100
AcDbMText
 10
-200.39007212030896
 20
628.76760801922171
 30
0.0
 40
24.432617187500004
 41
0.0
 71
               1
 72
               1
  1
325
  7
ＭＳ ゴシック
 11
0.0
 21
1.0
 31
0.0
 73
               1
 44
0.7828267384257843
  0
POINT
  5
D9
100
AcDbEntity
  8
Defpoints
370
               0
390
0
 62
               0
100
AcDbPoint
 10
-271.60184366595121
 20
490.0801097013977
 30
0.0
  0
POINT
  5
DA
100
AcDbEntity
  8
Defpoints
370
               0
390
0
 62
               0
100
AcDbPoint
 10
-271.60184366595126
 20
815.08010970139685
 30
0.0
  0
POINT
  5
DB
100
AcDbEntity
  8
Defpoints
370
               0
390
0
 62
               0
100
AcDbPoint
 10
-166.51245493280896
 20
815.08010970139685
 30
0.0
  0
ENDBLK
  5
DC
100
AcDbEntity
  8
notes
390
0
100
AcDbBlockEnd
  0
BLOCK
  5
DD
100
AcDbEntity
  8
notes
390
0
100
AcDbBlockBegin
  2
*D13
 70
               1
 10
0.0
 20
0.0
 30
0.0
  3
*D13
  1

  0
LINE
  5
DE
100
AcDbEntity
  8
0
370
              -2
390
0
  6
Continuous
 62
               0
100
AcDbLine
 10
-616.60184366595104
 20
790.08010970139685
 30
0.0
 11
-691.60184366595104
 21
790.08010970139685
 31
0.0
  0
LINE
  5
DF
100
AcDbEntity
  8
0
370
              -2
390
0
  6
Continuous
 62
               0
100
AcDbLine
 10
-616.60184366595104
 20
515.0801097013973
 30
0.0
 11
-691.60184366595104
 21
515.0801097013973
 31
0.0
  0
LINE
  5
E0
100
AcDbEntity
  8
0
370
              -2
390
0
  6
Continuous
 62
               0
100
AcDbLine
 10
-691.60184366595104
 20
790.08010970139685
 30
0.0
 11
-691.60184366595104
 21
515.0801097013973
 31
0.0
  0
CIRCLE
  5
E1
102
{ACAD_REACTORS
330
E2
102
}
100
AcDbEntity
  8
0
370
              -2
390
0
  6
Continuous
 62
               0
100
AcDbCircle
 10
-691.60184366595104
 20
790.08010970139685
 30
0.0
 40
1.9998779296875
  0
HATCH
  5
E2
100
AcDbEntity
  8
0
370
              -2
390
0
  6
Continuous
 62
               0
100
AcDbHatch
 10
0.0
 20
0.0
 30
0.0
210
0.0
220
0.0
230
1.0
  2
SOLID
 70
               1
 71
               1
 91
        1
 92
        1
 93
        1
 72
               2
 10
-691.60184366595104
 20
790.08010970139685
 40
1.9998779296875
 50
0.0
 51
360.0
 73
               0
 97
        1
330
E1
 75
               0
 76
               1
 98
        1
 10
0.0
 20
0.0
  0
CIRCLE
  5
E3
102
{ACAD_REACTORS
330
E4
102
}
100
AcDbEntity
  8
0
370
              -2
390
0
  6
Continuous
 62
               0
100
AcDbCircle
 10
-691.60184366595104
 20
515.0801097013973
 30
0.0
 40
1.9998779296875
  0
HATCH
  5
E4
100
AcDbEntity
  8
0
370
              -2
390
0
  6
Continuous
 62
               0
100
AcDbHatch
 10
0.0
 20
0.0
 30
0.0
210
0.0
220
0.0
230
1.0
  2
SOLID
 70
               1
 71
               1
 91
        1
 92
        1
 93
        1
 72
               2
 10
-691.60184366595104
 20
515.0801097013973
 40
1.9998779296875
 50
0.0
 51
360.0
 73
               0
 97
        1
330
E3
 75
               0
 76
               1
 98
        1
 10
0.0
 20
0.0
  0
MTEXT
  5
E5
100
AcDbEntity
  8
0
390
0
 62
               0
100
AcDbMText
 10
-725.4794608534512
 20
628.7676080192216
 30
0.0
 40
24.432617187500004
 41
0.0
 71
               1
 72
               1
  1
275
  7
ＭＳ ゴシック
 11
0.0
 21
1.0
 31
0.0
 73
               1
 44
0.7828267384257843
  0
POINT
  5
E6
100
AcDbEntity
  8
Defpoints
370
               0
390
0
 62
               0
100
AcDbPoint
 10
-591.60184366595104
 20
515.0801097013973
 30
0.0
  0
POINT
  5
E7
100
AcDbEntity
  8
Defpoints
370
               0
390
0
 62
               0
100
AcDbPoint
 10
-591.60184366595104
 20
790.08010970139685
 30
0.0
  0
POINT
  5
E8
100
AcDbEntity
  8
Defpoints
370
               0
390
0
 62
               0
100
AcDbPoint
 10
-691.60184366595104
 20
790.08010970139685
 30
0.0
  0
ENDBLK
  5
E9
100
AcDbEntity
  8
notes
390
0
100
AcDbBlockEnd
  0
BLOCK
  5
EA
100
AcDbEntity
  8
notes
390
0
100
AcDbBlockBegin
  2
*D14
 70
               1
 10
0.0
 20
0.0
 30
0.0
  3
*D14
  1

  0
LINE
  5
EB
100
AcDbEntity
  8
0
370
              -2
390
0
  6
Continuous
 62
               0
100
AcDbLine
 10
-614.11245493280876
 20
-428.05836324523182
 30
0.0
 11
-691.47684366595104
 21
-428.05836324523182
 31
0.0
  0
LINE
  5
EC
100
AcDbEntity
  8
0
370
              -2
390
0
  6
Continuous
 62
               0
100
AcDbLine
 10
-611.60184366595104
 20
-403.05836324523182
 30
0.0
 11
-691.47684366595104
 21
-403.05836324523182
 31
0.0
  0
LINE
  5
ED
100
AcDbEntity
  8
0
370
              -2
390
0
  6
Continuous
 62
               0
100
AcDbLine
 10
-691.47684366595104
 20
-403.05836324523182
 30
0.0
 11
-691.47684366595104
 21
-360.25
 31
0.0
  0
LINE
  5
EE
100
AcDbEntity
  8
0
370
              -2
390
0
  6
Continuous
 62
               0
100
AcDbLine
 10
-691.47684366595104
 20
-428.05836324523182
 30
0.0
 11
-691.47684366595104
 21
-403.05836324523182
 31
0.0
  0
CIRCLE
  5
EF
102
{ACAD_REACTORS
330
F0
102
}
100
AcDbEntity
  8
0
370
              -2
390
0
  6
Continuous
 62
               0
100
AcDbCircle
 10
-691.47684366595104
 20
-428.05836324523182
 30
0.0
 40
1.9998779296875
  0
HATCH
  5
F0
100
AcDbEntity
  8
0
370
              -2
390
0
  6
Continuous
 62
               0
100
AcDbHatch
 10
0.0
 20
0.0
 30
0.0
210
0.0
220
0.0
230
1.0
  2
SOLID
 70
               1
 71
               1
 91
        1
 92
        1
 93
        1
 72
               2
 10
-691.47684366595104
 20
-428.05836324523182
 40
1.9998779296875
 50
0.0
 51
360.0
 73
               0
 97
        1
330
EF
 75
               0
 76
               1
 98
        1
 10
0.0
 20
0.0
  0
CIRCLE
  5
F1
102
{ACAD_REACTORS
330
F2
102
}
100
AcDbEntity
  8
0
370
              -2
390
0
  6
Continuous
 62
               0
100
AcDbCircle
 10
-691.47684366595104
 20
-403.05836324523182
 30
0.0
 40
1.9998779296875
  0
HATCH
  5
F2
100
AcDbEntity
  8
0
370
              -2
390
0
  6
Continuous
 62
               0
100
AcDbHatch
 10
0.0
 20
0.0
 30
0.0
210
0.0
220
0.0
230
1.0
  2
SOLID
 70
               1
 71
               1
 91
        1
 92
        1
 93
        1
 72
               2
 10
-691.47684366595104
 20
-403.05836324523182
 40
1.9998779296875
 50
0.0
 51
360.0
 73
               0
 97
        1
330
F1
 75
               0
 76
               1
 98
        1
 10
0.0
 20
0.0
  0
MTEXT
  5
F3
100
AcDbEntity
  8
0
390
0
 62
               0
100
AcDbMText
 10
-725.3544608534512
 20
-392.0
 30
0.0
 40
24.432617187500004
 41
0.0
 71
               1
 72
               1
  1
25
  7
ＭＳ ゴシック
 11
0.0
 21
1.0
 31
0.0
 73
               1
 44
0.7828267384257843
  0
POINT
  5
F4
100
AcDbEntity
  8
Defpoints
370
               0
390
0
 62
               0
100
AcDbPoint
 10
-586.60184366595104
 20
-403.05836324523182
 30
0.0
  0
POINT
  5
F5
100
AcDbEntity
  8
Defpoints
370
               0
390
0
 62
               0
100
AcDbPoint
 10
-589.11245493280876
 20
-428.05836324523182
 30
0.0
  0
POINT
  5
F6
100
AcDbEntity
  8
Defpoints
370
               0
390
0
 62
               0
100
AcDbPoint
 10
-691.47684366595104
 20
-428.05836324523182
 30
0.0
  0
ENDBLK
  5
F7
100
AcDbEntity
  8
notes
390
0
100
AcDbBlockEnd
  0
ENDSEC
  0
SECTION
  2
ENTITIES
  0
MTEXT
  5
F8
100
AcDbEntity
  8
template
390
0
 62
               7
100
AcDbMText
 10
-967.99999999975921
 20
-1147.4176292337004
 30
0.0
 40
16.288411458333332
 41
0.0
 71
               1
 72
               1
  1
品名
  7
ＭＳ ゴシック
 73
               1
 44
0.7828267384257843
  0
MTEXT
  5
F9
100
AcDbEntity
  8
template
390
0
 62
               7
100
AcDbMText
 10
-967.99999999975921
 20
-1232.4176292337004
 30
0.0
 40
16.288411458333332
 41
0.0
 71
               1
 72
               1
  1
仕様
  7
ＭＳ ゴシック
 73
               1
 44
0.7828267384257843
  0
MTEXT
  5
FA
100
AcDbEntity
  8
template
390
0
 62
               7
100
AcDbMText
 10
-914.99999999975921
 20
-1176.0000901712006
 30
0.0
 40
24.432617187500004
 41
0.0
 71
               1
 72
               1
  1
手洗器 -ALAPE-
  7
ＭＳ ゴシック
 73
               1
 44
0.7828267384257843
  0
LINE
  5
FB
100
AcDbEntity
  8
template
370
               5
390
0
  6
Continuous
 62
               7
100
AcDbLine
 10
974.99999999975876
 20
-1224.0027073587005
 30
0.0
 11
-975.00000000024124
 21
-1224.0027073587005
 31
0.0
  0
LWPOLYLINE
  5
FC
100
AcDbEntity
  8
template
370
               5
390
0
  6
Continuous
 62
               7
100
AcDbPolyline
 90
        5
 70
             128
 10
975.00000000024124
 20
1405.9972926412995
 10
-974.99999999975921
 20
1405.9972926412995
 10
-974.99999999975921
 20
-1394.0027073587005
 10
975.00000000024124
 20
-1394.0027073587005
 10
975.00000000024124
 20
1405.9972926412995
  0
LINE
  5
FD
100
AcDbEntity
  8
template
370
               5
390
0
  6
Continuous
 62
               7
100
AcDbLine
 10
974.99999999975876
 20
-1139.0027073587005
 30
0.0
 11
-975.00000000024124
 21
-1139.0027073587005
 31
0.0
  0
LINE
  5
FE
100
AcDbEntity
  8
template
370
               5
390
0
  6
Continuous
 62
               7
100
AcDbLine
 10
975.00000000024124
 20
-1309.0027073587005
 30
0.0
 11
222.00000000024124
 21
-1309.0027073587005
 31
0.0
  0
MTEXT
  5
FF
100
AcDbEntity
  8
template
390
0
 62
               7
100
AcDbMText
 10
-974.99999999955594
 20
-1405.8565294155574
 30
0.0
 40
21.717881944444446
 41
0.0
 71
               1
 72
               1
  1
120501SH
  7
ＭＳ ゴシック
 73
               1
 44
0.7828267384257843
  0
MTEXT
  5
100
100
AcDbEntity
  8
template
390
0
 62
               7
100
AcDbMText
 10
251.87140625250089
 20
-1338.9131018320081
 30
0.0
 40
24.432617187500004
 41
0.0
 71
               1
 72
               1
  1
大洋金物株式会社 ティーフォルム事業部
  7
ＭＳ ゴシック
 73
               1
 44
0.7828267384257843
  0
INSERT
  5
101
100
AcDbEntity
  8
template
390
0
 62
               7
100
AcDbBlockReference
  2
グループ
 10
-0.0000000000000568
 20
-118.13679245283022
 30
0.0
  0
MTEXT
  5
102
100
AcDbEntity
  8
template
390
0
 62
               7
100
AcDbMText
 10
784.00000000049999
 20
-1261.0000901712006
 30
0.0
 40
24.432617187500004
 41
0.0
 71
               1
 72
               1
  1
1:10
  7
ＭＳ ゴシック
 73
               1
 44
0.7828267384257843
  0
MTEXT
  5
103
100
AcDbEntity
  8
template
390
0
 62
               7
100
AcDbMText
 10
731.00000000049999
 20
-1232.4176292337004
 30
0.0
 40
16.288411458333332
 41
0.0
 71
               1
 72
               1
  1
縮尺
  7
ＭＳ ゴシック
 73
               1
 44
0.7828267384257843
  0
LINE
  5
104
100
AcDbEntity
  8
template
370
               5
390
0
  6
Continuous
 62
               7
100
AcDbLine
 10
724.00000000049999
 20
-1309.0027073587005
 30
0.0
 11
724.00000000049999
 21
-1224.0027073587005
 31
0.0
  0
MTEXT
  5
105
100
AcDbEntity
  8
template
390
0
 62
               7
100
AcDbMText
 10
480.00000000049999
 20
-1232.4176292337004
 30
0.0
 40
16.288411458333332
 41
0.0
 71
               1
 72
               1
  1
容量
  7
ＭＳ ゴシック
 73
               1
 44
0.7828267384257843
  0
LINE
  5
106
100
AcDbEntity
  8
template
370
               5
390
0
  6
Continuous
 62
               7
100
AcDbLine
 10
473.00000000049999
 20
-1309.0027073587005
 30
0.0
 11
473.00000000049999
 21
-1224.0027073587005
 31
0.0
  0
MTEXT
  5
107
100
AcDbEntity
  8
template
390
0
 62
               7
100
AcDbMText
 10
229.00000000049999
 20
-1147.4176292337004
 30
0.0
 40
16.288411458333332
 41
0.0
 71
               1
 72
               1
  1
品番
  7
ＭＳ ゴシック
 73
               1
 44
0.7828267384257843
  0
MTEXT
  5
108
100
AcDbEntity
  8
template
390
0
 62
               7
100
AcDbMText
 10
229.00000000049999
 20
-1232.4176292337004
 30
0.0
 40
16.288411458333332
 41
0.0
 71
               1
 72
               1
  1
重量
  7
ＭＳ ゴシック
 73
               1
 44
0.7828267384257843
  0
MTEXT
  5
109
100
AcDbEntity
  8
template
390
0
 62
               7
100
AcDbMText
 10
282.00000000049999
 20
-1175.6809365253671
 30
0.0
 40
21.717881944444446
 41
0.0
 71
               1
 72
               1
  1
FAN70-0202
  7
ＭＳ ゴシック
 73
               1
 44
0.7828267384257843
  0
MTEXT
  5
10A
100
AcDbEntity
  8
template
390
0
 62
               7
100
AcDbMText
 10
282.00000000049999
 20
-1261.0000901712006
 30
0.0
 40
24.432617187500004
 41
0.0
 71
               1
 72
               1
  1
4.5kg
  7
ＭＳ ゴシック
 73
               1
 44
0.7828267384257843
  0
LINE
  5
10B
100
AcDbEntity
  8
template
370
               5
390
0
  6
Continuous
 62
               7
100
AcDbLine
 10
222.00000000049999
 20
-1394.0027073587005
 30
0.0
 11
222.00000000049999
 21
-1139.0027073587005
 31
0.0
  0
MTEXT
  5
10C
100
AcDbEntity
  8
template
390
0
 62
               7
100
AcDbMText
 10
530.00000000049999
 20
-1261.0000901712006
 30
0.0
 40
24.432617187500004
 41
0.0
 71
               1
 72
               1
  1
3.8L
  7
ＭＳ ゴシック
 73
               1
 44
0.7828267384257843
  0
MTEXT
  5
10D
100
AcDbEntity
  8
notes
390
0
 62
               7
100
AcDbMText
 10
-228.26773199113137
 20
-318.70630345063688
 30
0.0
 40
24.253472222222221
 41
0.0
 71
               1
 72
               1
  1
壁取付ボルト穴(4ヶ所)
  7
MS UI Gothic
 73
               1
 44
0.8762322015334064
  0
LINE
  5
10E
100
AcDbEntity
  8
notes
370
               5
390
0
  6
Continuous
 62
               7
100
AcDbLine
 10
-289.11245493280899
 20
-428.05836324523182
 30
0.0
 11
-209.33940078036528
 21
-348.2853090927884
 31
0.0
  0
DIMENSION
  5
10F
100
AcDbEntity
  8
notes
370
               5
390
0
  6
Continuous
 62
               7
100
AcDbDimension
  2
*D3
 10
778.98754506719115
 20
-553.06215529293627
 30
0.0
 11
778.98754506719115
 21
-478.06215529293621
 31
0.0
 71
               5
 72
               1
 41
1.0
 42
0.0
  3
tfrom線あり
100
AcDbAlignedDimension
 13
623.98754506719138
 23
-403.06215529293621
 33
0.0
 14
501.48754506719104
 24
-553.06215529293627
 34
0.0
 50
90.0
100
AcDbRotatedDimension
1001
ACAD
1000
DSTYLE
1002
{
1070
             279
1070
               2
1070
             340
1005
31
1070
             147
1040
5.0
1002
}
  0
DIMENSION
  5
110
100
AcDbEntity
  8
notes
370
               5
390
0
  6
Continuous
 62
               7
100
AcDbDimension
  2
*D4
 10
-464.11245493280899
 20
-660.05836324523295
 30
0.0
 11
-429.11245493280899
 21
-660.05836324523295
 31
0.0
 71
               5
 72
               1
 41
1.0
 42
0.0
  3
tfrom線あり
100
AcDbAlignedDimension
 13
-394.11245493280899
 23
-553.06215529293627
 33
0.0
 14
-464.11245493280899
 24
-553.06215529293627
 34
0.0
100
AcDbRotatedDimension
1001
ACAD
1000
DSTYLE
1002
{
1070
             279
1070
               2
1070
             340
1005
31
1070
             147
1040
5.0
1002
}
  0
DIMENSION
  5
111
100
AcDbEntity
  8
notes
370
               5
390
0
  6
Continuous
 62
               7
100
AcDbDimension
  2
*D5
 10
-691.60184366595104
 20
-428.05836324523182
 30
0.0
 11
-691.60184366595104
 21
-483.05836324523221
 31
0.0
 71
               5
 72
               1
 41
1.0
 42
0.0
  3
tfrom線あり
100
AcDbAlignedDimension
 13
-589.11245493280876
 23
-538.05836324523273
 33
0.0
 14
-589.11245493280876
 24
-428.05836324523182
 34
0.0
 50
90.0
100
AcDbRotatedDimension
1001
ACAD
1000
DSTYLE
1002
{
1070
             279
1070
               2
1070
             340
1005
31
1070
             147
1040
5.0
1002
}
  0
DIMENSION
  5
112
100
AcDbEntity
  8
notes
370
               5
390
0
  6
Continuous
 62
               7
100
AcDbDimension
  2
*D6
 10
-569.11245493280876
 20
-303.05836324523182
 30
0.0
 11
-429.11245493280893
 21
-303.05836324523182
 31
0.0
 71
               5
 72
               1
 41
1.0
 42
0.0
  3
tfrom線あり
100
AcDbAlignedDimension
 13
-289.11245493280899
 23
-408.05836324523182
 33
0.0
 14
-569.11245493280876
 24
-408.05836324523182
 34
0.0
100
AcDbRotatedDimension
1001
ACAD
1000
DSTYLE
1002
{
1070
             279
1070
               2
1070
             340
1005
31
1070
             147
1040
5.0
1002
}
  0
DIMENSION
  5
113
100
AcDbEntity
  8
notes
370
               5
390
0
  6
Continuous
 62
               7
100
AcDbDimension
  2
*D7
 10
-166.60184366595126
 20
-403.05836324523182
 30
0.0
 11
-166.60184366595126
 21
-483.05836324523244
 31
0.0
 71
               5
 72
               1
 41
1.0
 42
0.0
  3
tfrom線あり
100
AcDbAlignedDimension
 13
-272.15681157984039
 23
-563.05836324523307
 33
0.0
 14
-272.15681157984039
 24
-403.05836324523182
 34
0.0
 50
90.0
100
AcDbRotatedDimension
1001
ACAD
1000
DSTYLE
1002
{
1070
             271
1070
               4
1070
             279
1070
               2
1070
             340
1005
31
1070
             147
1040
5.0
1002
}
  0
DIMENSION
  5
114
100
AcDbEntity
  8
notes
370
               5
390
0
  6
Continuous
 62
               7
100
AcDbDimension
  2
*D8
 10
-266.60184366595126
 20
915.48041625696362
 30
0.0
 11
-429.10184366595121
 21
915.48041625696362
 31
0.0
 71
               5
 72
               1
 41
1.0
 42
0.0
  3
tfrom線あり
100
AcDbAlignedDimension
 13
-591.60184366595104
 23
812.48041625696374
 33
0.0
 14
-266.60184366595126
 24
812.48041625696374
 34
0.0
100
AcDbRotatedDimension
1001
ACAD
1000
DSTYLE
1002
{
1070
             271
1070
               4
1070
             279
1070
               2
1070
             340
1005
31
1070
             147
1040
5.0
1002
}
  0
DIMENSION
  5
115
100
AcDbEntity
  8
notes
370
               5
390
0
  6
Continuous
 62
               7
100
AcDbDimension
  2
*D9
 10
-566.60184366595104
 20
390.0801097013977
 30
0.0
 11
-429.10184366595115
 21
390.0801097013977
 31
0.0
 71
               5
 72
               1
 41
1.0
 42
0.0
  3
tfrom線あり
100
AcDbAlignedDimension
 13
-291.60184366595121
 23
490.0801097013977
 33
0.0
 14
-566.60184366595104
 24
490.0801097013977
 34
0.0
100
AcDbRotatedDimension
1001
ACAD
1000
DSTYLE
1002
{
1070
             279
1070
               2
1070
             340
1005
31
1070
             147
1040
5.0
1002
}
  0
DIMENSION
  5
116
100
AcDbEntity
  8
notes
370
               5
390
0
  6
Continuous
 62
               7
100
AcDbDimension
  2
*D10
 10
468.48749979450906
 20
-503.06215529293559
 30
0.0
 11
473.48749979450906
 21
-384.12841317580927
 31
0.0
 70
             128
 71
               5
 72
               1
 41
1.0
 42
0.0
  3
tfrom線あり
100
AcDbAlignedDimension
 13
466.48754506719104
 23
-403.06215529293559
 33
0.0
 14
466.48754506719047
 24
-503.06215529293559
 34
0.0
 50
90.0
100
AcDbRotatedDimension
1001
ACAD
1000
DSTYLE
1002
{
1070
             279
1070
               2
1070
             340
1005
31
1070
               3
1000
<>(深さ)
1070
             174
1070
               0
1070
             147
1040
5.0
1002
}
  0
DIMENSION
  5
117
100
AcDbEntity
  8
notes
370
               5
390
0
  6
Continuous
 62
               7
100
AcDbDimension
  2
*D11
 10
466.48754506719104
 20
-663.05836324523307
 30
0.0
 11
385.23754506719098
 21
-663.05836324523307
 31
0.0
 71
               5
 72
               1
 41
1.0
 42
0.0
  3
tfrom線あり
100
AcDbAlignedDimension
 13
303.98754506719098
 23
-558.05836324523295
 33
0.0
 14
466.48754506719104
 24
-563.05836324523307
 34
0.0
100
AcDbRotatedDimension
1001
ACAD
1000
DSTYLE
1002
{
1070
             279
1070
               2
1070
             340
1005
31
1070
             147
1040
5.0
1002
}
  0
DIMENSION
  5
118
100
AcDbEntity
  8
notes
370
               5
390
0
  6
Continuous
 62
               7
100
AcDbDimension
  2
*D12
 10
-166.51245493280896
 20
815.08010970139685
 30
0.0
 11
-166.51245493280896
 21
652.58010970139719
 31
0.0
 71
               5
 72
               1
 41
1.0
 42
0.0
  3
tfrom線あり
100
AcDbAlignedDimension
 13
-271.60184366595121
 23
490.0801097013977
 33
0.0
 14
-271.60184366595126
 24
815.08010970139685
 34
0.0
 50
90.0
100
AcDbRotatedDimension
1001
ACAD
1000
DSTYLE
1002
{
1070
             279
1070
               2
1070
             340
1005
31
1070
             147
1040
5.0
1002
}
  0
DIMENSION
  5
119
100
AcDbEntity
  8
notes
370
               5
390
0
  6
Continuous
 62
               7
100
AcDbDimension
  2
*D13
 10
-691.60184366595104
 20
790.08010970139685
 30
0.0
 11
-691.60184366595104
 21
652.58010970139708
 31
0.0
 71
               5
 72
               1
 41
1.0
 42
0.0
  3
tfrom線あり
100
AcDbAlignedDimension
 13
-591.60184366595104
 23
515.0801097013973
 33
0.0
 14
-591.60184366595104
 24
790.08010970139685
 34
0.0
 50
90.0
100
AcDbRotatedDimension
1001
ACAD
1000
DSTYLE
1002
{
1070
             279
1070
               2
1070
             340
1005
31
1070
             147
1040
5.0
1002
}
  0
MTEXT
  5
11A
100
AcDbEntity
  8
notes
390
0
 62
               7
100
AcDbMText
 10
-914.99999999975921
 20
-1261.0000901712003
 30
0.0
 40
24.432617187500004
 41
0.0
 71
               1
 72
               1
  1
壁掛け/オーバーフローなし/壁取付ボルト付属/\P鋼板ホーロー/ホワイト
  7
ＭＳ ゴシック
 73
               1
 44
1.1307497332816883
  0
DIMENSION
  5
11B
100
AcDbEntity
  8
notes
370
               5
390
0
  6
Continuous
 62
               7
100
AcDbDimension
  2
*D14
 10
-691.47684366595104
 20
-428.05836324523182
 30
0.0
 11
-696.47684366595104
 21
-392.0
 31
0.0
 70
             128
 71
               5
 72
               1
 41
1.0
 42
0.0
  3
tfrom線あり
100
AcDbAlignedDimension
 13
-586.60184366595104
 23
-403.05836324523182
 33
0.0
 14
-589.11245493280876
 24
-428.05836324523182
 34
0.0
 50
90.0
100
AcDbRotatedDimension
1001
ACAD
1000
DSTYLE
1002
{
1070
             279
1070
               2
1070
             340
1005
31
1070
             174
1070
               0
1070
             147
1040
5.0
1002
}
  0
LINE
  5
11C
100
AcDbEntity
  8
notes
370
               5
390
0
  6
STYLE_12
 62
               7
100
AcDbLine
 10
431.48754506719104
 20
-520.0
 30
0.0
 11
501.48754506719098
 21
-520.0
 31
0.0
  0
LINE
  5
11D
100
AcDbEntity
  8
notes
370
               5
390
0
  6
STYLE_12
 62
               7
100
AcDbLine
 10
-464.11245493280887
 20
-520.0
 30
0.0
 11
-394.11245493280893
 21
-520.0
 31
0.0
  0
LINE
  5
11E
100
AcDbEntity
  8
FAN70-0202
370
              15
390
0
  6
Continuous
 62
               7
100
AcDbLine
 10
-586.60184366595104
 20
-403.05836324523182
 30
0.0
 11
-271.60184366595126
 21
-403.05836324523182
 31
0.0
  0
ARC
  5
11F
100
AcDbEntity
  8
FAN70-0202
370
              15
390
0
  6
Continuous
 62
               7
100
AcDbCircle
 10
-586.60184366595104
 20
-558.05836324523295
 30
0.0
 40
5.0
100
AcDbArc
 50
180.0
 51
270.0
  0
LINE
  5
120
100
AcDbEntity
  8
FAN70-0202
370
              15
390
0
  6
Continuous
 62
               7
100
AcDbLine
 10
-271.60184366595126
 20
-563.05836324523307
 30
0.0
 11
-586.60184366595104
 21
-563.05836324523307
 31
0.0
  0
LINE
  5
121
100
AcDbEntity
  8
FAN70-0202
370
              15
390
0
  6
Continuous
 62
               7
100
AcDbLine
 10
-591.60184366595104
 20
-558.05836324523295
 30
0.0
 11
-591.60184366595104
 21
-408.05836324523193
 31
0.0
  0
LINE
  5
122
100
AcDbEntity
  8
FAN70-0202
370
              15
390
0
  6
Continuous
 62
               7
100
AcDbLine
 10
-266.60184366595126
 20
-408.05836324523193
 30
0.0
 11
-266.60184366595126
 21
-558.05836324523295
 31
0.0
  0
ARC
  5
123
100
AcDbEntity
  8
FAN70-0202
370
              15
390
0
  6
Continuous
 62
               7
100
AcDbCircle
 10
-271.60184366595126
 20
-558.05836324523295
 30
0.0
 40
5.0000000000000568
100
AcDbArc
 50
270.00000000000074
 51
0.0
  0
ARC
  5
124
100
AcDbEntity
  8
FAN70-0202
370
              15
390
0
  6
Continuous
 62
               7
100
AcDbCircle
 10
-586.60184366595104
 20
-408.05836324523193
 30
0.0
 40
5.0000000000001137
100
AcDbArc
 50
90.0
 51
180.0
  0
ARC
  5
125
100
AcDbEntity
  8
FAN70-0202
370
              15
390
0
  6
Continuous
 62
               7
100
AcDbCircle
 10
-271.60184366595126
 20
-408.05836324523193
 30
0.0
 40
5.0000000000001137
100
AcDbArc
 50
0.0
 51
90.0
  0
CIRCLE
  5
126
100
AcDbEntity
  8
FAN70-0202
370
              15
390
0
  6
Continuous
 62
               7
100
AcDbCircle
 10
-429.10184366595121
 20
652.58010970139685
 30
0.0
 40
137.5
  0
ARC
  5
127
100
AcDbEntity
  8
FAN70-0202
370
              15
390
0
  6
Continuous
 62
               7
100
AcDbCircle
 10
-586.60184366595104
 20
810.08010970139685
 30
0.0
 40
5.0
100
AcDbArc
 50
90.0
 51
180.0
  0
ARC
  5
128
100
AcDbEntity
  8
FAN70-0202
370
              15
390
0
  6
Continuous
 62
               7
100
AcDbCircle
 10
-271.60184366595126
 20
810.08010970139685
 30
0.0
 40
5.0
100
AcDbArc
 50
0.0
 51
90.0
  0
LINE
  5
129
100
AcDbEntity
  8
FAN70-0202
370
              15
390
0
  6
Continuous
 62
               7
100
AcDbLine
 10
-586.60184366595104
 20
815.08010970139685
 30
0.0
 11
-271.60184366595126
 21
815.08010970139685
 31
0.0
  0
LINE
  5
12A
100
AcDbEntity
  8
FAN70-0202
370
              15
390
0
  6
Continuous
 62
               7
100
AcDbLine
 10
-266.60184366595126
 20
810.08010970139685
 30
0.0
 11
-266.60184366595126
 21
495.0801097013977
 31
0.0
  0
LINE
  5
12B
100
AcDbEntity
  8
FAN70-0202
370
              15
390
0
  6
Continuous
 62
               7
100
AcDbLine
 10
-591.60184366595104
 20
495.0801097013977
 30
0.0
 11
-591.60184366595104
 21
810.08010970139685
 31
0.0
  0
LINE
  5
12C
100
AcDbEntity
  8
FAN70-0202
370
              15
390
0
  6
Continuous
 62
               7
100
AcDbLine
 10
-271.60184366595126
 20
490.0801097013977
 30
0.0
 11
-586.60184366595104
 21
490.0801097013977
 31
0.0
  0
ARC
  5
12D
100
AcDbEntity
  8
FAN70-0202
370
              15
390
0
  6
Continuous
 62
               7
100
AcDbCircle
 10
-586.60184366595104
 20
495.0801097013977
 30
0.0
 40
5.0
100
AcDbArc
 50
180.0
 51
270.0
  0
ARC
  5
12E
100
AcDbEntity
  8
FAN70-0202
370
              15
390
0
  6
Continuous
 62
               7
100
AcDbCircle
 10
-271.60184366595126
 20
495.0801097013977
 30
0.0
 40
5.0
100
AcDbArc
 50
270.00000000000074
 51
0.0
  0
CIRCLE
  5
12F
100
AcDbEntity
  8
FAN70-0202
370
              15
390
0
  6
Continuous
 62
               7
100
AcDbCircle
 10
-429.10184366595121
 20
652.58010970139719
 30
0.0
 40
33.532354024854442
  0
CIRCLE
  5
130
100
AcDbEntity
  8
FAN70-0202
370
              15
390
0
  6
Continuous
 62
               7
100
AcDbCircle
 10
-429.10184366595121
 20
652.58010970139719
 30
0.0
 40
23.999999999999943
  0
ARC
  5
131
100
AcDbEntity
  8
FAN70-0202
370
              15
390
0
  6
Continuous
 62
               7
100
AcDbCircle
 10
308.98754506719098
 20
-408.05836324523193
 30
0.0
 40
5.0000000000001137
100
AcDbArc
 50
90.0
 51
180.0
  0
LINE
  5
132
100
AcDbEntity
  8
FAN70-0202
370
              15
390
0
  6
Continuous
 62
               7
100
AcDbLine
 10
303.98754506719098
 20
-558.05836324523295
 30
0.0
 11
303.98754506719098
 21
-408.05836324523193
 31
0.0
  0
ARC
  5
133
100
AcDbEntity
  8
FAN70-0202
370
              15
390
0
  6
Continuous
 62
               7
100
AcDbCircle
 10
308.98754506719098
 20
-558.05836324523295
 30
0.0
 40
5.0
100
AcDbArc
 50
180.0
 51
270.00000000000131
  0
LINE
  5
134
100
AcDbEntity
  8
FAN70-0202
370
              15
390
0
  6
Continuous
 62
               7
100
AcDbLine
 10
308.98754506719098
 20
-403.05836324523182
 30
0.0
 11
623.98754506719138
 21
-403.05836324523182
 31
0.0
  0
LINE
  5
135
100
AcDbEntity
  8
FAN70-0202
370
              15
390
0
  6
Continuous
 62
               7
100
AcDbLine
 10
623.98754506719138
 20
-563.05836324523307
 30
0.0
 11
308.98754506719098
 21
-563.05836324523307
 31
0.0
  0
ARC
  5
136
100
AcDbEntity
  8
FAN70-0202
370
              15
390
0
  6
Continuous
 62
               7
100
AcDbCircle
 10
623.98754506719138
 20
-558.05836324523295
 30
0.0
 40
5.0000000000000568
100
AcDbArc
 50
270.0
 51
0.0
  0
ARC
  5
137
100
AcDbEntity
  8
FAN70-0202
370
              15
390
0
  6
Continuous
 62
               7
100
AcDbCircle
 10
623.98754506719138
 20
-408.05836324523193
 30
0.0
 40
5.0000000000002274
100
AcDbArc
 50
0.0
 51
90.0
  0
LINE
  5
138
100
AcDbEntity
  8
FAN70-0202
370
              15
390
0
  6
Continuous
 62
               7
100
AcDbLine
 10
628.98754506719138
 20
-408.05836324523193
 30
0.0
 11
628.98754506719138
 21
-558.05836324523295
 31
0.0
  0
ARC
  5
139
100
AcDbEntity
  8
FAN70-0202
370
              15
390
0
  6
STYLE_12
 62
               7
100
AcDbCircle
 10
-422.80949742172191
 20
-359.10595561296373
 30
0.0
 40
151.99999999999989
100
AcDbArc
 50
197.63299518656845
 51
251.27677901051422
  0
LINE
  5
13A
100
AcDbEntity
  8
FAN70-0202
370
              15
390
0
  6
STYLE_12
 62
               7
100
AcDbLine
 10
-471.60101895672011
 20
-503.06215529293553
 30
0.0
 11
-450.60184366595121
 21
-512.93330922866789
 31
0.0
  0
LINE
  5
13B
100
AcDbEntity
  8
FAN70-0202
370
              15
390
0
  6
STYLE_12
 62
               7
100
AcDbLine
 10
-471.60101895672011
 20
-503.06215529293553
 30
0.0
 11
-429.10184366595121
 21
-503.06215529293553
 31
0.0
  0
LINE
  5
13C
100
AcDbEntity
  8
FAN70-0202
370
              15
390
0
  6
STYLE_12
 62
               7
100
AcDbLine
 10
-450.60184366595121
 20
-512.93330922866789
 30
0.0
 11
-407.60184366595121
 21
-512.93330922866789
 31
0.0
  0
ARC
  5
13D
100
AcDbEntity
  8
FAN70-0202
370
              15
390
0
  6
STYLE_12
 62
               7
100
AcDbCircle
 10
-435.3941899101805
 20
-359.10595561296373
 30
0.0
 40
152.00000000000034
100
AcDbArc
 50
288.72322098948581
 51
342.36700481343161
  0
LINE
  5
13E
100
AcDbEntity
  8
FAN70-0202
370
              15
390
0
  6
STYLE_12
 62
               7
100
AcDbLine
 10
-386.6026683751823
 20
-503.06215529293553
 30
0.0
 11
-429.10184366595121
 21
-503.06215529293553
 31
0.0
  0
LINE
  5
13F
100
AcDbEntity
  8
FAN70-0202
370
              15
390
0
  6
STYLE_12
 62
               7
100
AcDbLine
 10
-407.60184366595121
 20
-512.93330922866789
 30
0.0
 11
-386.6026683751823
 21
-503.06215529293553
 31
0.0
  0
ARC
  5
140
100
AcDbEntity
  8
FAN70-0202
370
              15
390
0
  6
STYLE_12
 62
               7
100
AcDbCircle
 10
-287.67665060785754
 20
-406.05836324523182
 30
0.0
 40
3.0
100
AcDbArc
 50
90.0
 51
162.36700481343124
  0
ARC
  5
141
100
AcDbEntity
  8
FAN70-0202
370
              15
390
0
  6
STYLE_12
 62
               7
100
AcDbCircle
 10
-570.52703672404482
 20
-406.05836324523182
 30
0.0
 40
3.0
100
AcDbArc
 50
17.632995186568778
 51
90.0
  0
ARC
  5
142
100
AcDbEntity
  8
FAN70-0202
370
              15
390
0
  6
STYLE_12
 62
               7
100
AcDbCircle
 10
472.77989131141976
 20
-359.10595561296373
 30
0.0
 40
152.00000000000003
100
AcDbArc
 50
197.63299518656842
 51
251.27677901051422
  0
LINE
  5
143
100
AcDbEntity
  8
FAN70-0202
370
              15
390
0
  6
STYLE_12
 62
               7
100
AcDbLine
 10
423.98836977642151
 20
-503.06215529293553
 30
0.0
 11
444.98754506719041
 21
-512.93330922866789
 31
0.0
  0
LINE
  5
144
100
AcDbEntity
  8
FAN70-0202
370
              15
390
0
  6
STYLE_12
 62
               7
100
AcDbLine
 10
423.98836977642151
 20
-503.06215529293553
 30
0.0
 11
466.48754506719047
 21
-503.06215529293553
 31
0.0
  0
LINE
  5
145
100
AcDbEntity
  8
FAN70-0202
370
              15
390
0
  6
STYLE_12
 62
               7
100
AcDbLine
 10
444.98754506719041
 20
-512.93330922866789
 30
0.0
 11
487.98754506719047
 21
-512.93330922866789
 31
0.0
  0
ARC
  5
146
100
AcDbEntity
  8
FAN70-0202
370
              15
390
0
  6
STYLE_12
 62
               7
100
AcDbCircle
 10
460.19519882296117
 20
-359.10595561296373
 30
0.0
 40
152.00000000000034
100
AcDbArc
 50
288.72322098948581
 51
342.36700481343161
  0
LINE
  5
147
100
AcDbEntity
  8
FAN70-0202
370
              15
390
0
  6
STYLE_12
 62
               7
100
AcDbLine
 10
508.98672035795937
 20
-503.06215529293553
 30
0.0
 11
466.48754506719047
 21
-503.06215529293553
 31
0.0
  0
LINE
  5
148
100
AcDbEntity
  8
FAN70-0202
370
              15
390
0
  6
STYLE_12
 62
               7
100
AcDbLine
 10
487.98754506719047
 20
-512.93330922866789
 30
0.0
 11
508.98672035795937
 21
-503.06215529293553
 31
0.0
  0
ARC
  5
149
100
AcDbEntity
  8
FAN70-0202
370
              15
390
0
  6
STYLE_12
 62
               7
100
AcDbCircle
 10
607.91273812528425
 20
-406.05836324523182
 30
0.0
 40
3.0
100
AcDbArc
 50
90.0
 51
162.36700481343124
  0
ARC
  5
14A
100
AcDbEntity
  8
FAN70-0202
370
              15
390
0
  6
STYLE_12
 62
               7
100
AcDbCircle
 10
325.06235200909674
 20
-406.05836324523182
 30
0.0
 40
3.0
100
AcDbArc
 50
17.632995186568778
 51
90.0
  0
POLYLINE
  5
14B
100
AcDbEntity
  8
FAN70-0202
370
               5
390
0
  6
STYLE_12
 62
               7
100
AcDb2dPolyline
 66
               1
 10
0.0
 20
0.0
 30
0.0
 70
               1
 75
               5
  0
VERTEX
  5
14C
100
AcDbEntity
  8
FAN70-0202
370
               5
390
0
  6
STYLE_12
 62
               7
100
AcDbVertex
100
AcDb2dVertex
 10
431.48754506719104
 20
-509.06215529293559
 30
0.0
  0
VERTEX
  5
14D
100
AcDbEntity
  8
FAN70-0202
370
               5
390
0
  6
STYLE_12
 62
               7
100
AcDbVertex
100
AcDb2dVertex
 10
501.48754506719098
 20
-509.06215529293559
 30
0.0
  0
VERTEX
  5
14E
100
AcDbEntity
  8
FAN70-0202
370
               5
390
0
  6
STYLE_12
 62
               7
100
AcDbVertex
100
AcDb2dVertex
 10
501.48754506719098
 20
-553.06215529293627
 30
0.0
  0
VERTEX
  5
14F
100
AcDbEntity
  8
FAN70-0202
370
               5
390
0
  6
STYLE_12
 62
               7
100
AcDbVertex
100
AcDb2dVertex
 10
431.48754506719104
 20
-553.06215529293627
 30
0.0
  0
SEQEND
  5
150
100
AcDbEntity
  8
FAN70-0202
370
               5
390
0
  6
STYLE_12
 62
               7
  0
POLYLINE
  5
151
100
AcDbEntity
  8
FAN70-0202
370
               5
390
0
  6
STYLE_12
 62
               7
100
AcDb2dPolyline
 66
               1
 10
0.0
 20
0.0
 30
0.0
 70
               1
 75
               5
  0
VERTEX
  5
152
100
AcDbEntity
  8
FAN70-0202
370
               5
390
0
  6
STYLE_12
 62
               7
100
AcDbVertex
100
AcDb2dVertex
 10
-464.11245493280899
 20
-509.06215529293559
 30
0.0
  0
VERTEX
  5
153
100
AcDbEntity
  8
FAN70-0202
370
               5
390
0
  6
STYLE_12
 62
               7
100
AcDbVertex
100
AcDb2dVertex
 10
-394.11245493280899
 20
-509.06215529293559
 30
0.0
  0
VERTEX
  5
154
100
AcDbEntity
  8
FAN70-0202
370
               5
390
0
  6
STYLE_12
 62
               7
100
AcDbVertex
100
AcDb2dVertex
 10
-394.11245493280899
 20
-553.06215529293627
 30
0.0
  0
VERTEX
  5
155
100
AcDbEntity
  8
FAN70-0202
370
               5
390
0
  6
STYLE_12
 62
               7
100
AcDbVertex
100
AcDb2dVertex
 10
-464.11245493280899
 20
-553.06215529293627
 30
0.0
  0
SEQEND
  5
156
100
AcDbEntity
  8
FAN70-0202
370
               5
390
0
  6
STYLE_12
 62
               7
  0
LINE
  5
157
100
AcDbEntity
  8
FAN70-0202
370
               5
390
0
  6
STYLE_12
 62
               7
100
AcDbLine
 10
-309.11245493280899
 20
-428.05836324523182
 30
0.0
 11
-269.11245493280899
 21
-428.05836324523182
 31
0.0
  0
LINE
  5
158
100
AcDbEntity
  8
FAN70-0202
370
               5
390
0
  6
STYLE_12
 62
               7
100
AcDbLine
 10
-289.11245493280899
 20
-448.05836324523182
 30
0.0
 11
-289.11245493280899
 21
-408.05836324523182
 31
0.0
  0
CIRCLE
  5
159
100
AcDbEntity
  8
FAN70-0202
370
               5
390
0
  6
STYLE_12
 62
               7
100
AcDbCircle
 10
-289.11245493280899
 20
-428.05836324523182
 30
0.0
 40
10.0
  0
LINE
  5
15A
100
AcDbEntity
  8
FAN70-0202
370
               5
390
0
  6
STYLE_12
 62
               7
100
AcDbLine
 10
-309.11245493280899
 20
-538.05836324523273
 30
0.0
 11
-269.11245493280899
 21
-538.05836324523273
 31
0.0
  0
LINE
  5
15B
100
AcDbEntity
  8
FAN70-0202
370
               5
390
0
  6
STYLE_12
 62
               7
100
AcDbLine
 10
-289.11245493280899
 20
-558.05836324523295
 30
0.0
 11
-289.11245493280899
 21
-518.05836324523239
 31
0.0
  0
CIRCLE
  5
15C
100
AcDbEntity
  8
FAN70-0202
370
               5
390
0
  6
STYLE_12
 62
               7
100
AcDbCircle
 10
-289.11245493280899
 20
-538.05836324523273
 30
0.0
 40
10.0
  0
LINE
  5
15D
100
AcDbEntity
  8
FAN70-0202
370
               5
390
0
  6
STYLE_12
 62
               7
100
AcDbLine
 10
-589.11245493280876
 20
-428.05836324523182
 30
0.0
 11
-549.11245493280876
 21
-428.05836324523182
 31
0.0
  0
LINE
  5
15E
100
AcDbEntity
  8
FAN70-0202
370
               5
390
0
  6
STYLE_12
 62
               7
100
AcDbLine
 10
-569.11245493280876
 20
-448.05836324523182
 30
0.0
 11
-569.11245493280876
 21
-408.05836324523182
 31
0.0
  0
CIRCLE
  5
15F
100
AcDbEntity
  8
FAN70-0202
370
               5
390
0
  6
STYLE_12
 62
               7
100
AcDbCircle
 10
-569.11245493280876
 20
-428.05836324523182
 30
0.0
 40
10.0
  0
LINE
  5
160
100
AcDbEntity
  8
FAN70-0202
370
               5
390
0
  6
STYLE_12
 62
               7
100
AcDbLine
 10
-589.11245493280876
 20
-538.05836324523273
 30
0.0
 11
-549.11245493280876
 21
-538.05836324523273
 31
0.0
  0
LINE
  5
161
100
AcDbEntity
  8
FAN70-0202
370
               5
390
0
  6
STYLE_12
 62
               7
100
AcDbLine
 10
-569.11245493280876
 20
-558.05836324523295
 30
0.0
 11
-569.11245493280876
 21
-518.05836324523239
 31
0.0
  0
CIRCLE
  5
162
100
AcDbEntity
  8
FAN70-0202
370
               5
390
0
  6
STYLE_12
 62
               7
100
AcDbCircle
 10
-569.11245493280876
 20
-538.05836324523273
 30
0.0
 40
10.0
  0
ENDSEC
  0
SECTION
  2
OBJECTS
  0
DICTIONARY
  5
19
100
AcDbDictionary
280
               0
281
               1
  3
ACAD_GROUP
350
1A
  3
ACAD_MLINESTYLE
350
1B
  3
ACAD_LAYOUT
350
1E
  3
ACAD_PLOTSETTINGS
350
22
  3
ACAD_PLOTSTYLENAME
350
1F
  0
DICTIONARY
  5
1A
102
{ACAD_REACTORS
330
19
102
}
100
AcDbDictionary
280
               0
281
               1
  0
DICTIONARY
  5
1B
102
{ACAD_REACTORS
330
19
102
}
100
AcDbDictionary
280
               0
281
               1
  3
Standard
350
1C
  0
MLINESTYLE
  5
1C
102
{ACAD_REACTORS
330
1B
102
}
100
AcDbMlineStyle
  2
Standard
 70
               0
  3

 62
               0
 51
90.0
 52
90.0
 71
               2
 49
0.5
 62
             256
  6
ByLayer
 49
-0.5
 62
             256
  6
ByLayer
  0
ACDBDICTIONARYWDFLT
  5
1F
102
{ACAD_REACTORS
330
19
102
}
100
AcDbDictionary
281
               1
  3
Normal
350
1D
100
AcDbDictionaryWithDefault
340
1D
  0
ACDBPLACEHOLDER
  5
1D
102
{ACAD_REACTORS
330
1F
102
}
  0
LAYOUT
  5
20
102
{ACAD_REACTORS
330
1E
102
}
100
AcDbPlotSettings
  1

  2

  4

  6

 40
0.0
 41
0.0
 42
0.0
 43
0.0
 44
0.0
 45
0.0
 46
0.0
 47
0.0
 48
0.0
 49
0.0
140
0.0
141
0.0
142
1.0
143
1.0
 70
            1024
 72
               0
 73
               0
 74
               0
  7

 75
               0
147
1.0
148
0.0
149
0.0
100
AcDbLayout
  1
Model
 70
               0
 71
               0
 10
0.0
 20
0.0
 11
0.0
 21
0.0
 12
0.0
 22
0.0
 32
0.0
 14
0.0
 24
0.0
 34
0.0
 15
0.0
 25
0.0
 35
0.0
146
0.0
 13
0.0
 23
0.0
 33
0.0
 16
0.0
 26
0.0
 36
0.0
 17
0.0
 27
0.0
 37
0.0
 76
               0
330
A
331
0
345
0
346
0
  0
LAYOUT
  5
21
102
{ACAD_REACTORS
330
1E
102
}
100
AcDbPlotSettings
  1

  2

  4

  6

 40
0.0
 41
0.0
 42
0.0
 43
0.0
 44
0.0
 45
0.0
 46
0.0
 47
0.0
 48
0.0
 49
0.0
140
0.0
141
0.0
142
1.0
143
1.0
 70
               0
 72
               0
 73
               0
 74
               0
  7

 75
               0
147
1.0
148
0.0
149
0.0
100
AcDbLayout
  1
Layout1
 70
               0
 71
               0
 10
0.0
 20
0.0
 11
0.0
 21
0.0
 12
0.0
 22
0.0
 32
0.0
 14
0.0
 24
0.0
 34
0.0
 15
0.0
 25
0.0
 35
0.0
146
0.0
 13
0.0
 23
0.0
 33
0.0
 16
0.0
 26
0.0
 36
0.0
 17
0.0
 27
0.0
 37
0.0
 76
               0
330
B
331
0
345
0
346
0
  0
DICTIONARY
  5
1E
102
{ACAD_REACTORS
330
19
102
}
100
AcDbDictionary
280
               0
281
               1
  3
Layout1
350
21
  3
Model
350
20
  0
DICTIONARY
  5
22
102
{ACAD_REACTORS
330
19
102
}
100
AcDbDictionary
280
               0
281
               1
  0
ENDSEC
  0
EOF
