  0
SECTION
  2
HEADER
  9
$ACADVER
  1
AC1015
  9
$ACADMAINTVER
 70
               6
  9
$DWGCODEPAGE
  3
ANSI_932
  9
$INSBASE
 10
0.0
 20
0.0
 30
0.0
  9
$EXTMIN
 10
-975.00000000024124
 20
-1431.5255224711129
 30
-14.428611111111111
  9
$EXTMAX
 10
975.00000000024124
 20
1405.9972926412995
 30
14.428611111111111
  9
$LIMMIN
 10
0.0
 20
0.0
  9
$LIMMAX
 10
0.0
 20
0.0
  9
$ORTHOMODE
 70
               0
  9
$REGENMODE
 70
               1
  9
$FILLMODE
 70
               1
  9
$QTEXTMODE
 70
               0
  9
$MIRRTEXT
 70
               1
  9
$LTSCALE
 40
50.799999999999997
  9
$ATTMODE
 70
               1
  9
$TEXTSIZE
 40
0.2
  9
$TRACEWID
 40
1.0
  9
$TEXTSTYLE
  7
Standard
  9
$CLAYER
  8
template
  9
$CELTYPE
  6
Continuous
  9
$CECOLOR
 62
             256
  9
$CELTSCALE
 40
1.0
  9
$DISPSILH
 70
               0
  9
$DIMSCALE
 40
1.0
  9
$DIMASZ
 40
9.9993896484374982
  9
$DIMEXO
 40
24.999999999999996
  9
$DIMDLI
 40
0.9999999999999999
  9
$DIMRND
 40
0.0
  9
$DIMDLE
 40
0.0
  9
$DIMEXE
 40
0.0
  9
$DIMTP
 40
0.0
  9
$DIMTM
 40
0.0
  9
$DIMTXT
 40
24.432617187500004
  9
$DIMCEN
 40
0.0
  9
$DIMTSZ
 40
0.0
  9
$DIMTOL
 70
               0
  9
$DIMLIM
 70
               0
  9
$DIMTIH
 70
               0
  9
$DIMTOH
 70
               0
  9
$DIMSE1
 70
               0
  9
$DIMSE2
 70
               0
  9
$DIMTAD
 70
               1
  9
$DIMZIN
 70
              11
  9
$DIMBLK
  1
_DOT
  9
$DIMASO
 70
               1
  9
$DIMSHO
 70
               1
  9
$DIMPOST
  1
<>
  9
$DIMAPOST
  1
[]
  9
$DIMALT
 70
               0
  9
$DIMALTD
 70
               1
  9
$DIMALTF
 40
1.0
  9
$DIMLFAC
 40
1.0
  9
$DIMTOFL
 70
               0
  9
$DIMTVP
 40
0.0
  9
$DIMTIX
 70
               1
  9
$DIMSOXD
 70
               0
  9
$DIMSAH
 70
               0
  9
$DIMBLK1
  1

  9
$DIMBLK2
  1

  9
$DIMSTYLE
  2
tfrom線あり
  9
$DIMCLRD
 70
               0
  9
$DIMCLRE
 70
               0
  9
$DIMCLRT
 70
               0
  9
$DIMTFAC
 40
1.0
  9
$DIMGAP
 40
0.4999999999999999
  9
$DIMJUST
 70
               0
  9
$DIMSD1
 70
               0
  9
$DIMSD2
 70
               0
  9
$DIMTOLJ
 70
               1
  9
$DIMTZIN
 70
              11
  9
$DIMALTZ
 70
              11
  9
$DIMALTTZ
 70
              11
  9
$DIMUPT
 70
               0
  9
$DIMDEC
 70
               1
  9
$DIMTDEC
 70
               1
  9
$DIMALTU
 70
               2
  9
$DIMALTTD
 70
               2
  9
$DIMTXSTY
  7
ＭＳ ゴシック
  9
$DIMAUNIT
 70
               0
  9
$DIMADEC
 70
               2
  9
$DIMALTRND
 40
0.0
  9
$DIMAZIN
 70
               0
  9
$DIMDSEP
 70
              46
  9
$DIMATFIT
 70
               0
  9
$DIMFRAC
 70
               2
  9
$DIMLDRBLK
  1

  9
$DIMLUNIT
 70
               2
  9
$DIMLWD
 70
              -2
  9
$DIMLWE
 70
              -2
  9
$DIMTMOVE
 70
               0
  9
$LUNITS
 70
               2
  9
$LUPREC
 70
               4
  9
$SKETCHINC
 40
0.1
  9
$FILLETRAD
 40
0.0
  9
$AUNITS
 70
               0
  9
$AUPREC
 70
               0
  9
$MENU
  1
acad
  9
$ELEVATION
 40
0.0
  9
$PELEVATION
 40
0.0
  9
$THICKNESS
 40
0.0
  9
$LIMCHECK
 70
               0
  9
$CHAMFERA
 40
0.0
  9
$CHAMFERB
 40
0.0
  9
$CHAMFERC
 40
0.0
  9
$CHAMFERD
 40
0.0
  9
$SKPOLY
 70
               0
  9
$TDCREATE
 40
2456049.473587963
  9
$TDUCREATE
 40
0.000000000
  9
$TDUPDATE
 40
2456049.473587963
  9
$TDUUPDATE
 40
0.000000000
  9
$TDINDWG
 40
0.0000000000
  9
$TDUSRTIMER
 40
0.0000000000
  9
$USRTIMER
 70
               1
  9
$ANGBASE
 50
0.0
  9
$ANGDIR
 70
               0
  9
$PDMODE
 70
               1
  9
$PDSIZE
 40
-2.0
  9
$PLINEWID
 40
0.0
  9
$SPLFRAME
 70
               0
  9
$SPLINETYPE
 70
               6
  9
$SPLINESEGS
 70
               8
  9
$HANDSEED
  5
209
  9
$SURFTAB1
 70
               6
  9
$SURFTAB2
 70
               6
  9
$SURFTYPE
 70
               6
  9
$SURFU
 70
               6
  9
$SURFV
 70
               6
  9
$UCSBASE
  2

  9
$UCSNAME
  2

  9
$UCSORG
 10
0.0
 20
0.0
 30
0.0
  9
$UCSXDIR
 10
1.0
 20
0.0
 30
0.0
  9
$UCSYDIR
 10
0.0
 20
1.0
 30
0.0
  9
$UCSORTHOREF
  2

  9
$UCSORTHOVIEW
 70
               0
  9
$UCSORGTOP
 10
0.0
 20
0.0
 30
0.0
  9
$UCSORGBOTTOM
 10
0.0
 20
0.0
 30
0.0
  9
$UCSORGLEFT
 10
0.0
 20
0.0
 30
0.0
  9
$UCSORGRIGHT
 10
0.0
 20
0.0
 30
0.0
  9
$UCSORGFRONT
 10
0.0
 20
0.0
 30
0.0
  9
$UCSORGBACK
 10
0.0
 20
0.0
 30
0.0
  9
$PUCSBASE
  2

  9
$PUCSNAME
  2

  9
$PUCSORG
 10
0.0
 20
0.0
 30
0.0
  9
$PUCSXDIR
 10
1.0
 20
0.0
 30
0.0
  9
$PUCSYDIR
 10
0.0
 20
1.0
 30
0.0
  9
$PUCSORTHOREF
  2

  9
$PUCSORTHOVIEW
 70
               0
  9
$PUCSORGTOP
 10
0.0
 20
0.0
 30
0.0
  9
$PUCSORGBOTTOM
 10
0.0
 20
0.0
 30
0.0
  9
$PUCSORGLEFT
 10
0.0
 20
0.0
 30
0.0
  9
$PUCSORGRIGHT
 10
0.0
 20
0.0
 30
0.0
  9
$PUCSORGFRONT
 10
0.0
 20
0.0
 30
0.0
  9
$PUCSORGBACK
 10
0.0
 20
0.0
 30
0.0
  9
$USERI1
 70
               0
  9
$USERI2
 70
               0
  9
$USERI3
 70
               0
  9
$USERI4
 70
               0
  9
$USERI5
 70
               0
  9
$USERR1
 40
0.0
  9
$USERR2
 40
0.0
  9
$USERR3
 40
0.0
  9
$USERR4
 40
0.0
  9
$USERR5
 40
0.0
  9
$WORLDVIEW
 70
               1
  9
$SHADEDGE
 70
               3
  9
$SHADEDIF
 70
              70
  9
$TILEMODE
 70
               1
  9
$MAXACTVP
 70
              64
  9
$PINSBASE
 10
0.0
 20
0.0
 30
0.0
  9
$PLIMCHECK
 70
               0
  9
$PEXTMIN
 10
1.0000000000000000E+20
 20
1.0000000000000000E+20
 30
1.0000000000000000E+20
  9
$PEXTMAX
 10
-1.0000000000000000E+20
 20
-1.0000000000000000E+20
 30
-1.0000000000000000E+20
  9
$PLIMMIN
 10
0.0
 20
0.0
  9
$PLIMMAX
 10
12.0
 20
9.0
  9
$UNITMODE
 70
               0
  9
$VISRETAIN
 70
               0
  9
$PLINEGEN
 70
               1
  9
$PSLTSCALE
 70
               0
  9
$TREEDEPTH
 70
            3020
  9
$CMLSTYLE
  2
Standard
  9
$CMLJUST
 70
               0
  9
$CMLSCALE
 40
1.0
  9
$PROXYGRAPHICS
 70
               0
  9
$MEASUREMENT
 70
               1
  9
$CELWEIGHT
370
               0
  9
$ENDCAPS
280
               0
  9
$JOINSTYLE
280
               0
  9
$LWDISPLAY
290
               1
  9
$INSUNITS
 70
               4
  9
$HYPERLINKBASE
  1

  9
$STYLESHEET
  1

  9
$XEDIT
290
               1
  9
$CEPSNTYPE
380
               0
  9
$PSTYLEMODE
290
               1
  9
$FINGERPRINTGUID
  2

  9
$VERSIONGUID
  2

  9
$EXTNAMES
290
               1
  9
$PSVPSCALE
 40
0.0
  0
ENDSEC
  0
SECTION
  2
CLASSES
  0
CLASS
  1
LWPOLYLINE
  2
AcDbPolyline
  3
AutoCAD 2000
 90
        0
280
               0
281
               1
  0
CLASS
  1
IMAGE
  2
AcDbRasterImage
  3
ISM
 90
      127
280
               0
281
               1
  0
CLASS
  1
OLE2FRAME
  2
AcDbOle2Frame
  3
AutoCAD 2000
 90
        0
280
               0
281
               1
  0
CLASS
  1
HATCH
  2
AcDbHatch
  3
AutoCAD 2000
 90
        0
280
               0
281
               1
  0
CLASS
  1
DICTIONARYVAR
  2
AcDbDictionaryVar
  3
AutoCAD 2000
 90
        0
280
               0
281
               0
  0
CLASS
  1
RASTERVARIABLES
  2
AcDbRasterVariables
  3
ISM
 90
        0
280
               0
281
               0
  0
CLASS
  1
IMAGEDEF
  2
AcDbRasterImageDef
  3
ISM
 90
        0
280
               0
281
               0
  0
CLASS
  1
IMAGEDEF_REACTOR
  2
AcDbRasterImageDefReactor
  3
ISM
 90
        1
280
               0
281
               0
  0
CLASS
  1
IDBUFFER
  2
AcDbIdBuffer
  3
AutoCAD 2000
 90
        0
280
               0
281
               0
  0
CLASS
  1
SPATIAL_FILTER
  2
AcDbSpatialFilter
  3
AutoCAD 2000
 90
        0
280
               0
281
               0
  0
CLASS
  1
XRECORD
  2
AcDbXrecord
  3
AutoCAD 2000
 90
        0
280
               0
281
               0
  0
CLASS
  1
SORTENTSTABLE
  2
AcDbSortentsTable
  3
AutoCAD 2000
 90
        0
280
               0
281
               0
  0
CLASS
  1
LAYER_INDEX
  2
AcDbLayerIndex
  3
AutoCAD 2000
 90
        0
280
               0
281
               0
  0
CLASS
  1
SPATIAL_INDEX
  2
AcDbSpatialIndex
  3
AutoCAD 2000
 90
        0
280
               0
281
               0
  0
CLASS
  1
OBJECT_PTR
  2
CAseDLPNTableRecord
  3
"ASE-LPNTableRecord"
 90
        1
280
               0
281
               0
  0
CLASS
  1
LAYOUT
  2
AcDbLayout
  3
AutoCAD 2000
 90
        0
280
               0
281
               0
  0
CLASS
  1
PLOTSETTINGS
  2
AcDbPlotSettings
  3
AutoCAD 2000
 90
        0
280
               0
281
               0
  0
CLASS
  1
ACDBDICTIONARYWDFLT
  2
AcDbDictionaryWithDefault
  3
AutoCAD 2000
 90
        0
280
               0
281
               0
  0
CLASS
  1
ACDBPLACEHOLDER
  2
AcDbPlaceHolder
  3
AutoCAD 2000
 90
        0
280
               0
281
               0
  0
ENDSEC
  0
SECTION
  2
TABLES
  0
TABLE
  2
VPORT
  5
7
100
AcDbSymbolTable
 70
               1
  0
VPORT
  5
15
100
AcDbSymbolTableRecord
100
AcDbViewportTableRecord
  2
*ACTIVE
 70
               0
 10
0.0
 20
0.0
 11
1.0
 21
1.0
 12
0.0
 22
-12.764114914906713
 13
0.0
 23
0.0
 14
1.0
 24
1.0
 15
0.0
 25
0.0
 16
0.0
 26
0.0
 36
1.0
 17
0.0
 27
0.0
 37
0.0
 40
2837.5228151124124
 41
0.688564
 42
50.0
 43
0.0
 44
0.0
 50
0.0
 51
0.0
 71
               0
 72
            2000
 73
               1
 74
               1
 75
               0
 76
               0
 77
               0
 78
               0
281
               0
 65
               0
110
0.0
120
0.0
130
0.0
111
1.0
121
0.0
131
0.0
112
0.0
122
1.0
132
0.0
345
0
346
0
 79
               0
146
0.0
  0
ENDTAB
  0
TABLE
  2
LTYPE
  5
4
100
AcDbSymbolTable
 70
              17
  0
LTYPE
  5
11
100
AcDbSymbolTableRecord
100
AcDbLinetypeTableRecord
  2
ByBlock
 70
              64
  3

 72
              65
 73
               0
 40
0.0
  0
LTYPE
  5
12
100
AcDbSymbolTableRecord
100
AcDbLinetypeTableRecord
  2
ByLayer
 70
              64
  3

 72
              65
 73
               0
 40
0.0
  0
LTYPE
  5
13
100
AcDbSymbolTableRecord
100
AcDbLinetypeTableRecord
  2
Continuous
 70
              64
  3
Solid line
 72
              65
 73
               0
 40
0.0
  0
LTYPE
  5
3C
100
AcDbSymbolTableRecord
100
AcDbLinetypeTableRecord
  2
STYLE_01
 70
               0
  3

 72
              65
 73
               4
 40
0.3999999999999999
 49
0.25
 74
               0
 49
-0.05
 74
               0
 49
0.05
 74
               0
 49
-0.05
 74
               0
  0
LTYPE
  5
3D
100
AcDbSymbolTableRecord
100
AcDbLinetypeTableRecord
  2
STYLE_02
 70
               0
  3

 72
              65
 73
               2
 40
0.6944250000000001
 49
0.48607
 74
               0
 49
-0.2083550000000001
 74
               0
  0
LTYPE
  5
3E
100
AcDbSymbolTableRecord
100
AcDbLinetypeTableRecord
  2
STYLE_03
 70
               0
  3

 72
              65
 73
               2
 40
1.25
 49
1.0416400000000001
 74
               0
 49
-0.2083599999999999
 74
               0
  0
LTYPE
  5
3F
100
AcDbSymbolTableRecord
100
AcDbLinetypeTableRecord
  2
STYLE_04
 70
               0
  3

 72
              65
 73
               2
 40
1.5277099999999999
 49
1.3194249999999998
 74
               0
 49
-0.208285
 74
               0
  0
LTYPE
  5
40
100
AcDbSymbolTableRecord
100
AcDbLinetypeTableRecord
  2
STYLE_05
 70
               0
  3

 72
              65
 73
               2
 40
0.20828
 49
0.069425
 74
               0
 49
-0.138855
 74
               0
  0
LTYPE
  5
41
100
AcDbSymbolTableRecord
100
AcDbLinetypeTableRecord
  2
STYLE_06
 70
               0
  3

 72
              65
 73
               4
 40
1.0416400000000001
 49
0.625
 74
               0
 49
-0.20828
 74
               0
 49
0.06943
 74
               0
 49
-0.13893
 74
               0
  0
LTYPE
  5
42
100
AcDbSymbolTableRecord
100
AcDbLinetypeTableRecord
  2
STYLE_07
 70
               0
  3

 72
              65
 73
               6
 40
1.875
 49
0.625
 74
               0
 49
-0.20828
 74
               0
 49
0.6250000000000001
 74
               0
 49
-0.2083599999999999
 74
               0
 49
0.06943
 74
               0
 49
-0.1389299999999999
 74
               0
  0
LTYPE
  5
43
100
AcDbSymbolTableRecord
100
AcDbLinetypeTableRecord
  2
STYLE_08
 70
               0
  3

 72
              65
 73
               6
 40
1.25
 49
0.625
 74
               0
 49
-0.20828
 74
               0
 49
0.06943
 74
               0
 49
-0.13893
 74
               0
 49
0.0694299999999999
 74
               0
 49
-0.13893
 74
               0
  0
LTYPE
  5
44
100
AcDbSymbolTableRecord
100
AcDbLinetypeTableRecord
  2
STYLE_09
 70
               0
  3

 72
              65
 73
               4
 40
5.0
 49
3.75
 74
               0
 49
-0.2777849999999998
 74
               0
 49
0.6944300000000003
 74
               0
 49
-0.2777849999999998
 74
               0
  0
LTYPE
  5
45
100
AcDbSymbolTableRecord
100
AcDbLinetypeTableRecord
  2
STYLE_10
 70
               0
  3

 72
              65
 73
               6
 40
5.9375
 49
3.75
 74
               0
 49
-0.2777849999999998
 74
               0
 49
0.6944300000000003
 74
               0
 49
-0.2777849999999998
 74
               0
 49
0.625
 74
               0
 49
-0.3125
 74
               0
  0
LTYPE
  5
46
100
AcDbSymbolTableRecord
100
AcDbLinetypeTableRecord
  2
STYLE_11
 70
               0
  3

 72
              65
 73
               2
 40
0.0694444881889764
 49
0.0347222440944882
 74
               0
 49
-0.0347222440944882
 74
               0
  0
LTYPE
  5
47
100
AcDbSymbolTableRecord
100
AcDbLinetypeTableRecord
  2
STYLE_12
 70
               0
  3

 72
              65
 73
               2
 40
0.3937007874015748
 49
0.1968503937007874
 74
               0
 49
-0.1968503937007874
 74
               0
  0
LTYPE
  5
48
100
AcDbSymbolTableRecord
100
AcDbLinetypeTableRecord
  2
STYLE_13
 70
               0
  3

 72
              65
 73
               2
 40
0.5905511811023622
 49
0.2952755905511811
 74
               0
 49
-0.2952755905511811
 74
               0
  0
LTYPE
  5
49
100
AcDbSymbolTableRecord
100
AcDbLinetypeTableRecord
  2
STYLE_14
 70
               0
  3

 72
              65
 73
               2
 40
1.9685039370078738
 49
0.9842519685039369
 74
               0
 49
-0.9842519685039369
 74
               0
  0
ENDTAB
  0
TABLE
  2
LAYER
  5
2
100
AcDbSymbolTable
 70
               5
  0
LAYER
  5
14
100
AcDbSymbolTableRecord
100
AcDbLayerTableRecord
  2
0
 70
               0
 62
               7
  6
Continuous
290
               1
370
              -3
390
1D
  0
LAYER
  5
4A
100
AcDbSymbolTableRecord
100
AcDbLayerTableRecord
  2
Defpoints
 70
               0
 62
               7
  6
Continuous
290
               0
370
              -3
390
1D
  0
LAYER
  5
4B
100
AcDbSymbolTableRecord
100
AcDbLayerTableRecord
  2
template
 70
               0
 62
               7
  6
Continuous
290
               1
370
              -3
390
1D
  0
LAYER
  5
4C
100
AcDbSymbolTableRecord
100
AcDbLayerTableRecord
  2
notes
 70
               0
 62
               7
  6
Continuous
290
               1
370
              -3
390
1D
  0
LAYER
  5
4D
100
AcDbSymbolTableRecord
100
AcDbLayerTableRecord
  2
FAN70-0204
 70
               0
 62
               7
  6
Continuous
290
               1
370
              -3
390
1D
  0
ENDTAB
  0
TABLE
  2
STYLE
  5
3
100
AcDbSymbolTable
 70
               2
  0
STYLE
  5
17
100
AcDbSymbolTableRecord
100
AcDbTextStyleTableRecord
  2
Standard
 70
               0
 40
0.0
 41
1.0
 50
0.0
 71
               0
 42
0.0
  3
txt
  4
BIGFONT.SHX
  0
STYLE
  5
3B
100
AcDbSymbolTableRecord
100
AcDbTextStyleTableRecord
  2
ＭＳ ゴシック
 70
               0
 40
0.0
 41
1.0
 50
0.0
 71
               0
 42
0.0
  3

  4
ＭＳ ゴシック
1001
ACAD
1000
ＭＳ ゴシック
1071
        0
  0
ENDTAB
  0
TABLE
  2
VIEW
  5
5
100
AcDbSymbolTable
 70
               0
  0
ENDTAB
  0
TABLE
  2
UCS
  5
6
100
AcDbSymbolTable
 70
               0
  0
ENDTAB
  0
TABLE
  2
APPID
  5
8
100
AcDbSymbolTable
 70
               1
  0
APPID
  5
16
100
AcDbSymbolTableRecord
100
AcDbRegAppTableRecord
  2
ACAD
 70
               0
  0
ENDTAB
  0
TABLE
  2
DIMSTYLE
  5
9
100
AcDbSymbolTable
 70
               2
100
AcDbDimStyleTable
 71
               0
  0
DIMSTYLE
105
18
100
AcDbSymbolTableRecord
100
AcDbDimStyleTableRecord
  2
Standard
 70
               0
  3

  4

 40
1.0
 41
0.18
 42
0.0625
 43
0.38
 44
0.18
 45
0.0
 46
0.0
 47
0.0
 48
0.0
 71
               0
 72
               0
 73
               1
 74
               1
 75
               0
 76
               0
 77
               0
 78
               0
 79
               0
140
0.18
141
0.09
142
0.0
143
25.399999999999999
144
1.0
145
0.0
146
1.0
147
0.09
148
0.0
170
               0
171
               2
172
               0
173
               0
174
               0
175
               0
176
               0
177
               0
178
               0
179
               0
271
               4
272
               4
273
               2
274
               2
275
               0
276
               0
277
               2
278
              46
279
               0
280
               0
281
               0
282
               0
283
               1
284
               0
285
               0
286
               0
288
               0
289
               3
340
17
341
0
342
0
343
0
344
0
371
              -2
372
              -2
  0
DIMSTYLE
105
56
100
AcDbSymbolTableRecord
100
AcDbDimStyleTableRecord
  2
tfrom線あり
 70
               0
  3
<>
  4
[]
 40
1.0
 41
9.9993896484374982
 42
24.999999999999996
 43
0.9999999999999999
 44
0.0
 45
0.0
 46
0.0
 47
0.0
 48
0.0
 71
               0
 72
               0
 73
               0
 74
               0
 75
               0
 76
               0
 77
               1
 78
              11
 79
               0
140
24.432617187500004
141
0.0
142
0.0
143
1.0
144
1.0
145
0.0
146
1.0
147
0.4999999999999999
148
0.0
170
               0
171
               1
172
               0
173
               0
174
               1
175
               0
176
               0
177
               0
178
               0
179
               2
271
               1
272
               1
273
               2
274
               2
275
               0
276
               2
277
               2
278
              46
279
               0
280
               0
281
               0
282
               0
283
               1
284
              11
285
              11
286
              11
288
               0
289
               0
340
3B
341
4E
342
4E
343
0
344
0
371
              -2
372
              -2
  0
ENDTAB
  0
TABLE
  2
BLOCK_RECORD
  5
1
100
AcDbSymbolTable
 70
              25
  0
BLOCK_RECORD
  5
A
100
AcDbSymbolTableRecord
100
AcDbBlockTableRecord
  2
*MODEL_SPACE
340
20
  0
BLOCK_RECORD
  5
B
100
AcDbSymbolTableRecord
100
AcDbBlockTableRecord
  2
*PAPER_SPACE
340
21
  0
BLOCK_RECORD
  5
4E
100
AcDbSymbolTableRecord
100
AcDbBlockTableRecord
  2
_DOT
340
0
  0
BLOCK_RECORD
  5
23
100
AcDbSymbolTableRecord
100
AcDbBlockTableRecord
  2
グループ
340
0
102
{BLKREFS
331
192
102
}
  0
BLOCK_RECORD
  5
24
100
AcDbSymbolTableRecord
100
AcDbBlockTableRecord
  2
*D2
340
0
  0
BLOCK_RECORD
  5
25
100
AcDbSymbolTableRecord
100
AcDbBlockTableRecord
  2
*D3
340
0
  0
BLOCK_RECORD
  5
26
100
AcDbSymbolTableRecord
100
AcDbBlockTableRecord
  2
*D4
340
0
  0
BLOCK_RECORD
  5
27
100
AcDbSymbolTableRecord
100
AcDbBlockTableRecord
  2
*D5
340
0
  0
BLOCK_RECORD
  5
28
100
AcDbSymbolTableRecord
100
AcDbBlockTableRecord
  2
*D6
340
0
  0
BLOCK_RECORD
  5
29
100
AcDbSymbolTableRecord
100
AcDbBlockTableRecord
  2
*D7
340
0
  0
BLOCK_RECORD
  5
2A
100
AcDbSymbolTableRecord
100
AcDbBlockTableRecord
  2
*D8
340
0
  0
BLOCK_RECORD
  5
2B
100
AcDbSymbolTableRecord
100
AcDbBlockTableRecord
  2
*D9
340
0
  0
BLOCK_RECORD
  5
2C
100
AcDbSymbolTableRecord
100
AcDbBlockTableRecord
  2
*D10
340
0
  0
BLOCK_RECORD
  5
2D
100
AcDbSymbolTableRecord
100
AcDbBlockTableRecord
  2
*D11
340
0
  0
BLOCK_RECORD
  5
2E
100
AcDbSymbolTableRecord
100
AcDbBlockTableRecord
  2
*D12
340
0
  0
BLOCK_RECORD
  5
2F
100
AcDbSymbolTableRecord
100
AcDbBlockTableRecord
  2
*D13
340
0
  0
BLOCK_RECORD
  5
30
100
AcDbSymbolTableRecord
100
AcDbBlockTableRecord
  2
*D14
340
0
  0
BLOCK_RECORD
  5
31
100
AcDbSymbolTableRecord
100
AcDbBlockTableRecord
  2
*D15
340
0
  0
BLOCK_RECORD
  5
32
100
AcDbSymbolTableRecord
100
AcDbBlockTableRecord
  2
*D16
340
0
  0
BLOCK_RECORD
  5
33
100
AcDbSymbolTableRecord
100
AcDbBlockTableRecord
  2
*D17
340
0
  0
BLOCK_RECORD
  5
34
100
AcDbSymbolTableRecord
100
AcDbBlockTableRecord
  2
*D18
340
0
  0
BLOCK_RECORD
  5
35
100
AcDbSymbolTableRecord
100
AcDbBlockTableRecord
  2
*D19
340
0
  0
BLOCK_RECORD
  5
36
100
AcDbSymbolTableRecord
100
AcDbBlockTableRecord
  2
*D20
340
0
  0
BLOCK_RECORD
  5
37
100
AcDbSymbolTableRecord
100
AcDbBlockTableRecord
  2
*D21
340
0
  0
BLOCK_RECORD
  5
38
100
AcDbSymbolTableRecord
100
AcDbBlockTableRecord
  2
*D22
340
0
  0
BLOCK_RECORD
  5
39
100
AcDbSymbolTableRecord
100
AcDbBlockTableRecord
  2
*D23
340
0
  0
BLOCK_RECORD
  5
3A
100
AcDbSymbolTableRecord
100
AcDbBlockTableRecord
  2
*D24
340
0
  0
ENDTAB
  0
ENDSEC
  0
SECTION
  2
BLOCKS
  0
BLOCK
  5
D
100
AcDbEntity
  8
0
390
0
100
AcDbBlockBegin
  2
*MODEL_SPACE
 70
               0
 10
0.0
 20
0.0
 30
0.0
  3
*MODEL_SPACE
  1

  0
ENDBLK
  5
E
100
AcDbEntity
  8
0
390
0
100
AcDbBlockEnd
  0
BLOCK
  5
F
100
AcDbEntity
 67
               1
  8
0
390
0
100
AcDbBlockBegin
  2
*PAPER_SPACE
 70
               0
 10
0.0
 20
0.0
 30
0.0
  3
*PAPER_SPACE
  1

  0
ENDBLK
  5
10
100
AcDbEntity
 67
               1
  8
0
390
0
100
AcDbBlockEnd
  0
BLOCK
  5
4F
100
AcDbEntity
  8
0
390
0
100
AcDbBlockBegin
  2
_DOT
 70
               0
 10
0.0
 20
0.0
 30
0.0
  3
_DOT
  1

  0
POLYLINE
  5
50
100
AcDbEntity
  8
0
370
              -2
390
0
  6
ByBlock
 62
               0
100
AcDb2dPolyline
 66
               1
 10
0.0
 20
0.0
 30
0.0
 70
               1
 40
0.5
 41
0.5
  0
VERTEX
  5
51
100
AcDbEntity
  8
0
370
              -2
390
0
  6
ByBlock
 62
               0
100
AcDbVertex
100
AcDb2dVertex
 10
-0.25
 20
0.0
 30
0.0
 42
1.0
  0
VERTEX
  5
52
100
AcDbEntity
  8
0
370
              -2
390
0
  6
ByBlock
 62
               0
100
AcDbVertex
100
AcDb2dVertex
 10
0.25
 20
0.0
 30
0.0
 42
1.0
  0
SEQEND
  5
53
100
AcDbEntity
  8
0
390
0
  0
LINE
  5
54
100
AcDbEntity
  8
0
370
              -2
390
0
  6
ByBlock
 62
               0
100
AcDbLine
 10
-0.5
 20
0.0
 30
0.0
 11
-1.0
 21
0.0
 31
0.0
  0
ENDBLK
  5
55
100
AcDbEntity
  8
0
390
0
100
AcDbBlockEnd
  0
BLOCK
  5
57
100
AcDbEntity
  8
template
390
0
100
AcDbBlockBegin
  2
グループ
 70
               0
 10
0.0
 20
0.0
 30
0.0
  3
グループ
  1

  0
LWPOLYLINE
  5
58
100
AcDbEntity
  8
0
370
              15
390
0
  6
Continuous
 62
               7
100
AcDbPolyline
 90
        8
 70
             129
 10
774.92850780307481
 20
-1216.3529285708557
 10
774.92850780307481
 20
-1222.3503172644316
 10
765.42731088507151
 20
-1222.3503172644316
 10
765.42731088507151
 20
-1246.8012805279404
 10
757.07193362328871
 20
-1246.8012805279404
 10
757.07193362328871
 20
-1222.3503172644316
 10
747.73897667697929
 20
-1222.3503172644316
 10
747.73897667697929
 20
-1216.3529285708557
  0
LWPOLYLINE
  5
59
100
AcDbEntity
  8
0
370
              15
390
0
  6
Continuous
 62
               7
100
AcDbPolyline
 90
      101
 70
             128
 10
787.65679963363175
 20
-1217.0811770637922
 10
787.67214966241897
 20
-1217.0768163071066
 42
-0.0222221607813951
 10
787.96215423908779
 20
-1217.0081918418625
 10
787.97794800308134
 20
-1217.0051884187656
 42
-0.0146883565587104
 10
788.24065070830557
 20
-1216.9631852318162
 42
-0.0127458844184829
 10
788.50528967545586
 20
-1216.9356482637438
 10
788.56774475377142
 20
-1216.9307548411555
 42
-0.0198099018567764
 10
788.95859386324696
 20
-1216.915669683759
 10
789.01040533269202
 20
-1216.915723459424
 42
-0.0147617382763957
 10
789.50502879366479
 20
-1216.9308434846687
 10
789.57772024853932
 20
-1216.9352160915564
 42
-0.0162624549004301
 10
789.96787387800578
 20
-1216.9714489668288
 10
790.08940626927404
 20
-1216.9867355258266
 42
-0.0080020874664098
 10
790.23498530035658
 20
-1217.0074183730937
 10
790.27330477094972
 20
-1217.0134896509044
 42
-0.0053821929664611
 10
790.34178887626638
 20
-1217.0250971747264
 10
789.61538317706777
 20
-1219.2060256304403
 42
0.0108667757411528
 10
789.54806610693424
 20
-1219.19283851522
 10
789.51059808374748
 20
-1219.186340772626
 42
0.0170663203308501
 10
789.3673812968317
 20
-1219.1665111753341
 10
789.29950596414892
 20
-1219.1594640047467
 42
0.0220162375271598
 10
789.01912655629701
 20
-1219.1427816439766
 10
788.94127098924241
 20
-1219.1415822767101
 42
0.0282606915782794
 10
788.60563466566362
 20
-1219.155385553679
 10
788.561721391888
 20
-1219.1596855436831
 42
0.016967721369017
 10
788.3157968969324
 20
-1219.1922225932349
 42
0.0190576269869436
 10
788.07288893435316
 20
-1219.242369465341
 10
788.06662974624146
 20
-1219.2439124394505
 42
0.0213685642843221
 10
787.81624526176415
 20
-1219.317112724555
 10
787.8107553668475
 20
-1219.3189757206142
 42
0.0237595297586541
 10
787.55726048195163
 20
-1219.4186602425084
 10
787.55215840791914
 20
-1219.4209520179879
 42
0.0261857468812541
 10
787.29998763168749
 20
-1219.5504883553633
 10
787.28956144260269
 20
-1219.5565538298306
 42
0.0272553062020705
 10
787.05313166736369
 20
-1219.7119260357754
 10
787.01836865385508
 20
-1219.7375871838667
 42
0.0325996893172228
 10
786.86821331020269
 20
-1219.8643350568389
 10
786.84450388107405
 20
-1219.8871530853571
 42
0.0138050960646725
 10
786.75262072486953
 20
-1219.9806027469035
 42
0.0125280103801462
 10
786.66577819203974
 20
-1220.0787660734991
 10
786.64209774712765
 20
-1220.1069245716908
 42
0.0205218024733102
 10
786.51699767161131
 20
-1220.2687178859235
 10
786.49453133112684
 20
-1220.3003776157468
 42
0.0163110129583306
 10
786.33882095187721
 20
-1220.535708050814
 10
786.33609705582455
 20
-1220.5401318128022
 42
0.0131897341902337
 10
786.18929653491648
 20
-1220.7932639051705
 10
786.18759643955218
 20
-1220.7963821443022
 42
0.0107895576060984
 10
786.04981973734311
 20
-1221.0625973539341
 10
786.0490868478164
 20
-1221.064091586584
 42
0.009137150721595
 10
785.92060689916855
 20
-1221.3386167843398
 10
785.8908612677576
 20
-1221.4053232915026
 42
0.0135418326352714
 10
785.71914732868413
 20
-1221.820261076776
 10
785.68554252025001
 20
-1221.908127219057
 42
0.009283454241369
 10
785.51431346033087
 20
-1222.3820257173579
 10
785.48869633261393
 20
-1222.4572667871491
 42
0.005426104358506
 10
785.38105818432018
 20
-1222.7850307602162
 10
785.36353219811633
 20
-1222.8404189225298
 42
0.0008225090813978
 10
785.29486214631277
 20
-1223.0586876805955
 10
784.3101730143793
 20
-1226.0835789738521
 10
787.54279685445317
 20
-1226.0835789738521
 10
787.03860442459973
 20
-1227.9880572722045
 10
783.78254814261641
 20
-1227.9880572722045
 10
777.95339911026258
 20
-1246.8012803382094
 10
776.12830149995227
 20
-1246.8012803382094
 10
781.9629795354532
 20
-1227.9880572722045
 10
779.55786316641286
 20
-1227.9880572722045
 10
780.0620555962663
 20
-1226.0835789738521
 10
782.49060440721632
 20
-1226.0835789738521
 10
783.35075932540497
 20
-1223.4471659731532
 42
-0.0005863560659611
 10
783.38749400358563
 20
-1223.3303395529344
 10
783.46358183726886
 20
-1223.089347253476
 42
-0.0087522378928215
 10
783.6630499807261
 20
-1222.4940711663285
 10
783.7553142561394
 20
-1222.2339309978158
 42
-0.0077400953829953
 10
784.01324791527031
 20
-1221.5409263202682
 10
784.0290128868487
 20
-1221.5004954368835
 42
-0.0082369946330257
 10
784.27609735746114
 20
-1220.8964163706864
 42
-0.0085725238365428
 10
784.54334345345978
 20
-1220.3009903314085
 10
784.64497305447446
 20
-1220.0845692294081
 42
-0.0168109410594193
 10
784.93191748320146
 20
-1219.52336170331
 10
785.05776087368713
 20
-1219.2963976702642
 42
-0.0007817726851459
 10
785.11204522371713
 20
-1219.1988534252814
 10
785.11217352972949
 20
-1219.1986237165538
 42
-0.003662614215862
 10
785.1670613937556
 20
-1219.1020258365766
 42
-0.0080221150659953
 10
785.22418564916177
 20
-1219.0067466018245
 10
785.25488560052349
 20
-1218.9573556527016
 42
-0.0202139325560348
 10
785.38254134033343
 20
-1218.7693740520156
 10
785.43660880551784
 20
-1218.6962951877792
 42
-0.0249323791798171
 10
785.69577159923665
 20
-1218.3802499456251
 10
785.719911413364
 20
-1218.3536356727122
 42
-0.0242132121534524
 10
786.05959215490668
 20
-1218.0137521865076
 10
786.10750372765574
 20
-1217.970243050323
 42
-0.0251017527859978
 10
786.3914854282973
 20
-1217.7372503045576
 10
786.3929309051141
 20
-1217.7361810469763
 42
-0.0130868069037483
 10
786.69119155506837
 20
-1217.5274005784361
 10
786.69275337421061
 20
-1217.5263671381613
 42
-0.0290329526390902
 10
787.00386451560439
 20
-1217.3455416365318
 10
787.03371007759279
 20
-1217.3304392536911
 42
-0.0160250190046939
 10
787.29961449135521
 20
-1217.2064231434788
 42
-0.026760037478038
 10
787.57489056882218
 20
-1217.1056748229307
 10
787.60162648834478
 20
-1217.0974822641047
 42
-0.0049981587669942
 10
787.65679963363175
 20
-1217.0811770637922
 42
-0.0049981587669942
  0
LWPOLYLINE
  5
5A
100
AcDbEntity
  8
0
370
              15
390
0
  6
Continuous
 62
               7
100
AcDbPolyline
 90
      118
 70
             128
 10
807.47116719807866
 20
-1226.1575623016795
 10
809.34628912257813
 20
-1226.1575623016795
 10
808.50825021697824
 20
-1228.8391288280795
 42
-0.0010587229231609
 10
808.53970603257778
 20
-1228.8022242946918
 10
808.59790012318217
 20
-1228.7342420385485
 42
-0.0071874740406586
 10
808.74827534127496
 20
-1228.5636013465253
 10
808.88999811454244
 20
-1228.4073652052061
 42
-0.0148118053511491
 10
809.3401274072537
 20
-1227.9397513591944
 10
809.42734974216012
 20
-1227.8543540383366
 42
-0.0086273358691575
 10
809.76289854316542
 20
-1227.5369784043232
 10
809.80673225939279
 20
-1227.4969287599888
 42
-0.0103138323109513
 10
810.06475596162477
 20
-1227.2707656226519
 10
810.11053036794613
 20
-1227.2322835753964
 42
-0.0060206748565542
 10
810.28337843206407
 20
-1227.0904889246372
 10
810.28540956294864
 20
-1227.088863219007
 42
-0.0067069027287002
 10
810.45770237761258
 20
-1226.9547125852109
 10
810.46025114353677
 20
-1226.952782415337
 42
-0.0076184352046855
 10
810.63115640940987
 20
-1226.8274075400918
 42
-0.008965286167048
 10
810.80611737215315
 20
-1226.7077742797537
 10
810.84246909228921
 20
-1226.6838630662764
 42
-0.0156916245934172
 10
811.0384285894495
 20
-1226.5636005798019
 42
-0.0023299011060967
 10
811.23869063341874
 20
-1226.4504226402669
 10
811.25407476580915
 20
-1226.4418226451965
 42
-0.0107669341482712
 10
811.48831159091242
 20
-1226.317422511846
 10
811.5105763919853
 20
-1226.306205761897
 42
-0.0078058045893498
 10
811.79416650994028
 20
-1226.1688443062574
 10
811.80407359764718
 20
-1226.1642351783901
 42
-0.0181829330468514
 10
812.11438300226268
 20
-1226.0333714372944
 10
812.16843844483037
 20
-1226.0128563173507
 42
-0.0208411536028621
 10
812.51752341227984
 20
-1225.8967658548577
 10
812.53187951240886
 20
-1225.8926474099037
 42
-0.0222799817132043
 10
812.8605993063245
 20
-1225.8140058437639
 10
812.86948826956677
 20
-1225.8122938331778
 42
-0.0215509523880171
 10
813.18595923784142
 20
-1225.7653781446447
 10
813.22844119889305
 20
-1225.7609406178535
 42
-0.0182545924870991
 10
813.46254997819551
 20
-1225.7450967924628
 10
813.50195099453595
 20
-1225.7438722473839
 42
-0.0072962856538557
 10
813.65787387423256
 20
-1225.7413029188615
 10
813.68697354480196
 20
-1225.7412480834578
 42
-0.0059227516310543
 10
813.7847230439495
 20
-1225.742221795248
 10
813.81396526145306
 20
-1225.7428595618521
 42
-0.0011833111896635
 10
813.85321654515383
 20
-1225.7438085661615
 10
813.05782994954666
 20
-1228.2825425112605
 42
0.0143932051522218
 10
813.03142856719683
 20
-1228.2723435412154
 10
813.02415659477879
 20
-1228.2697723223578
 42
0.0234388603507723
 10
812.98232572884558
 20
-1228.2571530866423
 10
812.97364406593397
 20
-1228.2549721246376
 42
0.0199162742997781
 10
812.9133552318508
 20
-1228.242355389302
 10
812.89254129404776
 20
-1228.238858189874
 42
0.0293643550674051
 10
812.78946643528889
 20
-1228.227708144221
 10
812.76478125456833
 20
-1228.2264965272022
 42
0.0214606686871741
 10
812.61164033861394
 20
-1228.2255579667849
 10
812.60226842779787
 20
-1228.2259028783292
 42
0.0167564054192611
 10
812.4307482366861
 20
-1228.2379799206976
 10
812.42228844393048
 20
-1228.2388612611244
 42
0.013767755324414
 10
812.23493513066887
 20
-1228.2636105696672
 10
812.22758339115785
 20
-1228.2647884896357
 42
0.0118497261483976
 10
812.02708562705448
 20
-1228.3018058398252
 10
812.02093561980928
 20
-1228.303092702545
 42
0.0106421143889861
 10
811.81005473252094
 20
-1228.3519250781205
 10
811.80514592413522
 20
-1228.3531724208049
 42
0.0099746379705911
 10
811.58668745496982
 20
-1228.4133469491205
 10
811.52513941480242
 20
-1228.4316288277503
 42
0.0191613675860186
 10
811.18915495229021
 20
-1228.5456062080361
 10
811.10109517954334
 20
-1228.5792931183607
 42
0.0205274080143908
 10
810.71578840764073
 20
-1228.7451215261879
 10
810.65813912565613
 20
-1228.7727894907616
 42
0.0181256912198176
 10
810.39986218499178
 20
-1228.9084733097379
 10
810.3469068016758
 20
-1228.938790922954
 42
0.0140709242419164
 10
810.2019518670495
 20
-1229.0272855963872
 10
810.17570299842998
 20
-1229.0443424151033
 42
0.0086667884406326
 10
810.08677683688848
 20
-1229.1043450829854
 42
0.0036408192022789
 10
809.99934359885538
 20
-1229.1665259407775
 10
809.96411672438649
 20
-1229.1919668866906
 42
0.0052260781281949
 10
809.80788802699192
 20
-1229.3072992733273
 10
809.79168117073573
 20
-1229.3195273839428
 42
0.0050024435889452
 10
809.60567782768499
 20
-1229.4628099521988
 10
809.59035967116176
 20
-1229.4748559746508
 42
0.0136138710273399
 10
809.37991840283973
 20
-1229.6498224795614
 10
809.34625052704291
 20
-1229.6794014522784
 42
0.0172815186909532
 10
809.08184698538264
 20
-1229.9283981248996
 10
809.07928463953772
 20
-1229.9309839420489
 42
0.0189403857989921
 10
808.82870284095759
 20
-1230.2037892068545
 10
808.79607134742491
 20
-1230.2421331383478
 42
0.0185044199503886
 10
808.60411490844263
 20
-1230.4853817194735
 42
0.0088565243899108
 10
808.42565480181531
 20
-1230.7388981396218
 10
808.41647682216569
 20
-1230.7524395193834
 42
0.0157195347229606
 10
808.23325621582796
 20
-1231.0419617287052
 10
808.18717327389493
 20
-1231.1201139257298
 42
0.0095451879789625
 10
808.02208772376309
 20
-1231.4127085680766
 10
808.01093980483313
 20
-1231.4333792402092
 42
0.0100351706259851
 10
807.8788960556742
 20
-1231.6904348006992
 42
0.0086935915430458
 10
807.75656490387701
 20
-1231.9522679461109
 10
807.75324416246565
 20
-1231.9597102690755
 42
0.007258017486513
 10
807.63289771052109
 20
-1232.2403022606577
 10
807.6296360772144
 20
-1232.2482222866765
 42
0.0060005122616819
 10
807.51043540886644
 20
-1232.5478319572951
 10
807.50722443053007
 20
-1232.5561934851862
 42
0.0049017786975854
 10
807.38832427167154
 20
-1232.8751224657938
 10
807.38515846528219
 20
-1232.8838754030212
 42
0.0039415167600487
 10
807.26572218722833
 20
-1233.2224174654261
 10
807.26259108457339
 20
-1233.2315206663104
 42
0.0031035838760828
 10
807.14178629888465
 20
-1233.5899605280706
 10
807.13867625434989
 20
-1233.5993811494586
 42
0.0025070747155005
 10
807.01577490302861
 20
-1233.9780283664211
 10
806.97848100660917
 20
-1234.0949200316556
 42
0.0029081910282473
 10
806.78646270880461
 20
-1234.7090836899265
 10
806.74565954028128
 20
-1234.8423069322232
 42
0.0009266453735485
 10
806.4772421659377
 20
-1235.7245313922424
 10
806.45635469334525
 20
-1235.7936432713186
 42
-0.0005809993666308
 10
806.17901801273479
 20
-1236.7074513780217
 10
806.11273621446185
 20
-1236.9249363101815
 42
-0.0012018708165319
 10
805.96575190503268
 20
-1237.4030989747021
 10
805.91343205347243
 20
-1237.5718581155502
 42
-0.0002691059614128
 10
805.86986257229853
 20
-1237.7121257359097
 10
803.03690667400929
 20
-1246.8012803382094
 10
801.21891778203076
 20
-1246.8012803382094
 10
807.47116719807866
 20
-1226.1575623016795
  0
SPLINE
  5
5B
100
AcDbEntity
  8
0
370
              15
390
0
  6
Continuous
 62
               7
100
AcDbSpline
210
0.0
220
0.0
230
1.0
 70
              13
 71
               2
 72
             782
 73
             779
 74
               0
 42
0.000001
 43
0.000001
 40
0.0
 40
0.0
 40
0.0
 40
1.0
 40
1.0
 40
2.0
 40
2.0
 40
3.0
 40
3.0
 40
4.0
 40
4.0
 40
5.0
 40
5.0
 40
6.0
 40
6.0
 40
7.0
 40
7.0
 40
8.0
 40
8.0
 40
9.0
 40
9.0
 40
10.0
 40
10.0
 40
11.0
 40
11.0
 40
12.0
 40
12.0
 40
13.0
 40
13.0
 40
14.0
 40
14.0
 40
15.0
 40
15.0
 40
16.0
 40
16.0
 40
17.0
 40
17.0
 40
18.0
 40
18.0
 40
19.0
 40
19.0
 40
20.0
 40
20.0
 40
21.0
 40
21.0
 40
22.0
 40
22.0
 40
23.0
 40
23.0
 40
24.0
 40
24.0
 40
25.0
 40
25.0
 40
26.0
 40
26.0
 40
27.0
 40
27.0
 40
28.0
 40
28.0
 40
29.0
 40
29.0
 40
30.0
 40
30.0
 40
31.0
 40
31.0
 40
32.0
 40
32.0
 40
33.0
 40
33.0
 40
34.0
 40
34.0
 40
35.0
 40
35.0
 40
36.0
 40
36.0
 40
37.0
 40
37.0
 40
38.0
 40
38.0
 40
39.0
 40
39.0
 40
40.0
 40
40.0
 40
41.0
 40
41.0
 40
42.0
 40
42.0
 40
43.0
 40
43.0
 40
44.0
 40
44.0
 40
45.0
 40
45.0
 40
46.0
 40
46.0
 40
47.0
 40
47.0
 40
48.0
 40
48.0
 40
49.0
 40
49.0
 40
50.0
 40
50.0
 40
51.0
 40
51.0
 40
52.0
 40
52.0
 40
53.0
 40
53.0
 40
54.0
 40
54.0
 40
55.0
 40
55.0
 40
56.0
 40
56.0
 40
57.0
 40
57.0
 40
58.0
 40
58.0
 40
59.0
 40
59.0
 40
60.0
 40
60.0
 40
61.0
 40
61.0
 40
62.0
 40
62.0
 40
63.0
 40
63.0
 40
64.0
 40
64.0
 40
65.0
 40
65.0
 40
66.0
 40
66.0
 40
67.0
 40
67.0
 40
68.0
 40
68.0
 40
69.0
 40
69.0
 40
70.0
 40
70.0
 40
71.0
 40
71.0
 40
72.0
 40
72.0
 40
73.0
 40
73.0
 40
74.0
 40
74.0
 40
75.0
 40
75.0
 40
76.0
 40
76.0
 40
77.0
 40
77.0
 40
78.0
 40
78.0
 40
79.0
 40
79.0
 40
80.0
 40
80.0
 40
81.0
 40
81.0
 40
82.0
 40
82.0
 40
83.0
 40
83.0
 40
84.0
 40
84.0
 40
85.0
 40
85.0
 40
86.0
 40
86.0
 40
87.0
 40
87.0
 40
88.0
 40
88.0
 40
89.0
 40
89.0
 40
90.0
 40
90.0
 40
91.0
 40
91.0
 40
92.0
 40
92.0
 40
93.0
 40
93.0
 40
94.0
 40
94.0
 40
95.0
 40
95.0
 40
96.0
 40
96.0
 40
97.0
 40
97.0
 40
98.0
 40
98.0
 40
99.0
 40
99.0
 40
100.0
 40
100.0
 40
101.0
 40
101.0
 40
102.0
 40
102.0
 40
103.0
 40
103.0
 40
104.0
 40
104.0
 40
105.0
 40
105.0
 40
106.0
 40
106.0
 40
107.0
 40
107.0
 40
108.0
 40
108.0
 40
109.0
 40
109.0
 40
110.0
 40
110.0
 40
111.0
 40
111.0
 40
112.0
 40
112.0
 40
113.0
 40
113.0
 40
114.0
 40
114.0
 40
115.0
 40
115.0
 40
116.0
 40
116.0
 40
117.0
 40
117.0
 40
118.0
 40
118.0
 40
119.0
 40
119.0
 40
120.0
 40
120.0
 40
121.0
 40
121.0
 40
122.0
 40
122.0
 40
123.0
 40
123.0
 40
124.0
 40
124.0
 40
125.0
 40
125.0
 40
126.0
 40
126.0
 40
127.0
 40
127.0
 40
128.0
 40
128.0
 40
129.0
 40
129.0
 40
130.0
 40
130.0
 40
131.0
 40
131.0
 40
132.0
 40
132.0
 40
133.0
 40
133.0
 40
134.0
 40
134.0
 40
135.0
 40
135.0
 40
136.0
 40
136.0
 40
137.0
 40
137.0
 40
138.0
 40
138.0
 40
139.0
 40
139.0
 40
140.0
 40
140.0
 40
141.0
 40
141.0
 40
142.0
 40
142.0
 40
143.0
 40
143.0
 40
144.0
 40
144.0
 40
145.0
 40
145.0
 40
146.0
 40
146.0
 40
147.0
 40
147.0
 40
148.0
 40
148.0
 40
149.0
 40
149.0
 40
150.0
 40
150.0
 40
151.0
 40
151.0
 40
152.0
 40
152.0
 40
153.0
 40
153.0
 40
154.0
 40
154.0
 40
155.0
 40
155.0
 40
156.0
 40
156.0
 40
157.0
 40
157.0
 40
158.0
 40
158.0
 40
159.0
 40
159.0
 40
160.0
 40
160.0
 40
161.0
 40
161.0
 40
162.0
 40
162.0
 40
163.0
 40
163.0
 40
164.0
 40
164.0
 40
165.0
 40
165.0
 40
166.0
 40
166.0
 40
167.0
 40
167.0
 40
168.0
 40
168.0
 40
169.0
 40
169.0
 40
170.0
 40
170.0
 40
171.0
 40
171.0
 40
172.0
 40
172.0
 40
173.0
 40
173.0
 40
174.0
 40
174.0
 40
175.0
 40
175.0
 40
176.0
 40
176.0
 40
177.0
 40
177.0
 40
178.0
 40
178.0
 40
179.0
 40
179.0
 40
180.0
 40
180.0
 40
181.0
 40
181.0
 40
182.0
 40
182.0
 40
183.0
 40
183.0
 40
184.0
 40
184.0
 40
185.0
 40
185.0
 40
186.0
 40
186.0
 40
187.0
 40
187.0
 40
188.0
 40
188.0
 40
189.0
 40
189.0
 40
190.0
 40
190.0
 40
191.0
 40
191.0
 40
192.0
 40
192.0
 40
193.0
 40
193.0
 40
194.0
 40
194.0
 40
195.0
 40
195.0
 40
196.0
 40
196.0
 40
197.0
 40
197.0
 40
198.0
 40
198.0
 40
199.0
 40
199.0
 40
200.0
 40
200.0
 40
201.0
 40
201.0
 40
202.0
 40
202.0
 40
203.0
 40
203.0
 40
204.0
 40
204.0
 40
205.0
 40
205.0
 40
206.0
 40
206.0
 40
207.0
 40
207.0
 40
208.0
 40
208.0
 40
209.0
 40
209.0
 40
210.0
 40
210.0
 40
211.0
 40
211.0
 40
212.0
 40
212.0
 40
213.0
 40
213.0
 40
214.0
 40
214.0
 40
215.0
 40
215.0
 40
216.0
 40
216.0
 40
217.0
 40
217.0
 40
218.0
 40
218.0
 40
219.0
 40
219.0
 40
220.0
 40
220.0
 40
221.0
 40
221.0
 40
222.0
 40
222.0
 40
223.0
 40
223.0
 40
224.0
 40
224.0
 40
225.0
 40
225.0
 40
226.0
 40
226.0
 40
227.0
 40
227.0
 40
228.0
 40
228.0
 40
229.0
 40
229.0
 40
230.0
 40
230.0
 40
231.0
 40
231.0
 40
232.0
 40
232.0
 40
233.0
 40
233.0
 40
234.0
 40
234.0
 40
235.0
 40
235.0
 40
236.0
 40
236.0
 40
237.0
 40
237.0
 40
238.0
 40
238.0
 40
239.0
 40
239.0
 40
240.0
 40
240.0
 40
241.0
 40
241.0
 40
242.0
 40
242.0
 40
243.0
 40
243.0
 40
244.0
 40
244.0
 40
245.0
 40
245.0
 40
246.0
 40
246.0
 40
247.0
 40
247.0
 40
248.0
 40
248.0
 40
249.0
 40
249.0
 40
250.0
 40
250.0
 40
251.0
 40
251.0
 40
252.0
 40
252.0
 40
253.0
 40
253.0
 40
254.0
 40
254.0
 40
255.0
 40
255.0
 40
256.0
 40
256.0
 40
257.0
 40
257.0
 40
258.0
 40
258.0
 40
259.0
 40
259.0
 40
260.0
 40
260.0
 40
261.0
 40
261.0
 40
262.0
 40
262.0
 40
263.0
 40
263.0
 40
264.0
 40
264.0
 40
265.0
 40
265.0
 40
266.0
 40
266.0
 40
267.0
 40
267.0
 40
268.0
 40
268.0
 40
269.0
 40
269.0
 40
270.0
 40
270.0
 40
271.0
 40
271.0
 40
272.0
 40
272.0
 40
273.0
 40
273.0
 40
274.0
 40
274.0
 40
275.0
 40
275.0
 40
276.0
 40
276.0
 40
277.0
 40
277.0
 40
278.0
 40
278.0
 40
279.0
 40
279.0
 40
280.0
 40
280.0
 40
281.0
 40
281.0
 40
282.0
 40
282.0
 40
283.0
 40
283.0
 40
284.0
 40
284.0
 40
285.0
 40
285.0
 40
286.0
 40
286.0
 40
287.0
 40
287.0
 40
288.0
 40
288.0
 40
289.0
 40
289.0
 40
290.0
 40
290.0
 40
291.0
 40
291.0
 40
292.0
 40
292.0
 40
293.0
 40
293.0
 40
294.0
 40
294.0
 40
295.0
 40
295.0
 40
296.0
 40
296.0
 40
297.0
 40
297.0
 40
298.0
 40
298.0
 40
299.0
 40
299.0
 40
300.0
 40
300.0
 40
301.0
 40
301.0
 40
302.0
 40
302.0
 40
303.0
 40
303.0
 40
304.0
 40
304.0
 40
305.0
 40
305.0
 40
306.0
 40
306.0
 40
307.0
 40
307.0
 40
308.0
 40
308.0
 40
309.0
 40
309.0
 40
310.0
 40
310.0
 40
311.0
 40
311.0
 40
312.0
 40
312.0
 40
313.0
 40
313.0
 40
314.0
 40
314.0
 40
315.0
 40
315.0
 40
316.0
 40
316.0
 40
317.0
 40
317.0
 40
318.0
 40
318.0
 40
319.0
 40
319.0
 40
320.0
 40
320.0
 40
321.0
 40
321.0
 40
322.0
 40
322.0
 40
323.0
 40
323.0
 40
324.0
 40
324.0
 40
325.0
 40
325.0
 40
326.0
 40
326.0
 40
327.0
 40
327.0
 40
328.0
 40
328.0
 40
329.0
 40
329.0
 40
330.0
 40
330.0
 40
331.0
 40
331.0
 40
332.0
 40
332.0
 40
333.0
 40
333.0
 40
334.0
 40
334.0
 40
335.0
 40
335.0
 40
336.0
 40
336.0
 40
337.0
 40
337.0
 40
338.0
 40
338.0
 40
339.0
 40
339.0
 40
340.0
 40
340.0
 40
341.0
 40
341.0
 40
342.0
 40
342.0
 40
343.0
 40
343.0
 40
344.0
 40
344.0
 40
345.0
 40
345.0
 40
346.0
 40
346.0
 40
347.0
 40
347.0
 40
348.0
 40
348.0
 40
349.0
 40
349.0
 40
350.0
 40
350.0
 40
351.0
 40
351.0
 40
352.0
 40
352.0
 40
353.0
 40
353.0
 40
354.0
 40
354.0
 40
355.0
 40
355.0
 40
356.0
 40
356.0
 40
357.0
 40
357.0
 40
358.0
 40
358.0
 40
359.0
 40
359.0
 40
360.0
 40
360.0
 40
361.0
 40
361.0
 40
362.0
 40
362.0
 40
363.0
 40
363.0
 40
364.0
 40
364.0
 40
365.0
 40
365.0
 40
366.0
 40
366.0
 40
367.0
 40
367.0
 40
368.0
 40
368.0
 40
369.0
 40
369.0
 40
370.0
 40
370.0
 40
371.0
 40
371.0
 40
372.0
 40
372.0
 40
373.0
 40
373.0
 40
374.0
 40
374.0
 40
375.0
 40
375.0
 40
376.0
 40
376.0
 40
377.0
 40
377.0
 40
378.0
 40
378.0
 40
379.0
 40
379.0
 40
380.0
 40
380.0
 40
381.0
 40
381.0
 40
382.0
 40
382.0
 40
383.0
 40
383.0
 40
384.0
 40
384.0
 40
385.0
 40
385.0
 40
386.0
 40
386.0
 40
387.0
 40
387.0
 40
388.0
 40
388.0
 40
389.0
 40
389.0
 40
389.0
 10
817.79987164881129
 20
-1226.1466359383171
 30
0.0
 41
1.0
 10
818.61829575753177
 20
-1226.1466359383171
 30
0.0
 41
1.0
 10
819.43671986625225
 20
-1226.1466359383171
 30
0.0
 41
1.0
 10
819.02296613073554
 20
-1227.4892622025668
 30
0.0
 41
1.0
 10
818.60921239521872
 20
-1228.8318884668165
 30
0.0
 41
1.0
 10
818.62755189040399
 20
-1228.803187693878
 30
0.0
 41
0.9999957264441858
 10
818.64605888723543
 20
-1228.7745946437262
 30
0.0
 41
1.0
 10
818.67648821136368
 20
-1228.7275817653644
 30
0.0
 41
1.0
 10
818.70691753549204
 20
-1228.6805688870027
 30
0.0
 41
1.0
 10
818.78628318059953
 20
-1228.5579500800975
 30
0.0
 41
0.9995394069081524
 10
818.8729415721532
 20
-1228.4403720183532
 30
0.0
 41
1.0
 10
818.90869843441283
 20
-1228.39185712576
 30
0.0
 41
1.0
 10
818.94445529667234
 20
-1228.3433422331668
 30
0.0
 41
1.0
 10
819.07818196448818
 20
-1228.1619019580432
 30
0.0
 41
0.9994460617143388
 10
819.22368244577569
 20
-1227.9897595603943
 30
0.0
 41
1.0
 10
819.22807062675111
 20
-1227.9845678800114
 30
0.0
 41
1.0
 10
819.2324588077264
 20
-1227.9793761996284
 30
0.0
 41
1.0
 10
819.36918292706491
 20
-1227.8176171627433
 30
0.0
 41
0.9994359394934456
 10
819.51645715741506
 20
-1227.66540096158
 30
0.0
 41
1.0
 10
819.51884051137108
 20
-1227.6629376312039
 30
0.0
 41
1.0
 10
819.52122386532722
 20
-1227.6604743008279
 30
0.0
 41
1.0
 10
819.66373138776783
 20
-1227.5131847604141
 30
0.0
 41
0.999529368856793
 10
819.81500306874864
 20
-1227.374911548251
 30
0.0
 41
1.0
 10
819.83429682801273
 20
-1227.357275662599
 30
0.0
 41
1.0
 10
819.85359058727681
 20
-1227.3396397769473
 30
0.0
 41
1.0
 10
819.96627474973252
 20
-1227.2366383360857
 30
0.0
 41
0.9997087614804382
 10
820.08379763868584
 20
-1227.1391940552892
 30
0.0
 41
1.0
 10
820.10296371186087
 20
-1227.1233024767816
 30
0.0
 41
1.0
 10
820.12212978503578
 20
-1227.1074108982741
 30
0.0
 41
1.0
 10
820.2013205276437
 20
-1227.0417497744888
 30
0.0
 41
0.9999595338699335
 10
820.28167979849604
 20
-1226.9775240438362
 30
0.0
 41
1.0
 10
820.36203906936339
 20
-1226.9132983131717
 30
0.0
 41
0.9999749417512411
 10
820.44329960371317
 20
-1226.8502167592205
 30
0.0
 41
1.0
 10
820.46428574986919
 20
-1226.833925471924
 30
0.0
 41
1.0
 10
820.48527189602521
 20
-1226.8176341846274
 30
0.0
 41
1.0
 10
820.56983978132916
 20
-1226.7519851747847
 30
0.0
 41
0.9999792037117125
 10
820.65524738109707
 20
-1226.6874323931424
 30
0.0
 41
1.0
 10
820.67607220701052
 20
-1226.6716925708831
 30
0.0
 41
1.0
 10
820.69689703292408
 20
-1226.6559527486238
 30
0.0
 41
1.0
 10
820.74065498088851
 20
-1226.6228796114819
 30
0.0
 41
0.9999993374025558
 10
820.78433666700971
 20
-1226.5897058160747
 30
0.0
 41
1.0
 10
820.82801835315104
 20
-1226.556532020652
 30
0.0
 41
0.9999160953814124
 10
820.87254476406508
 20
-1226.5245009554581
 30
0.0
 41
1.0
 10
820.90536665148829
 20
-1226.5008897998705
 30
0.0
 41
1.0
 10
820.9381885389115
 20
-1226.4772786442827
 30
0.0
 41
1.0
 10
821.04835872466901
 20
-1226.3980252679153
 30
0.0
 41
0.9980964527231274
 10
821.16744771816855
 20
-1226.3329377950599
 30
0.0
 41
1.0
 10
821.20448032509626
 20
-1226.3126978154669
 30
0.0
 41
1.0
 10
821.24151293202408
 20
-1226.2924578358741
 30
0.0
 41
1.0
 10
821.42083994529844
 20
-1226.1944475851719
 30
0.0
 41
0.9984572810572249
 10
821.60992851165884
 20
-1226.1169253238249
 30
0.0
 41
1.0
 10
821.61357478105288
 20
-1226.1154304314878
 30
0.0
 41
1.0
 10
821.61722105044691
 20
-1226.1139355391506
 30
0.0
 41
1.0
 10
821.79901707801594
 20
-1226.0394030624791
 30
0.0
 41
0.9987838528033574
 10
821.98726973657699
 20
-1225.9831374223127
 30
0.0
 41
1.0
 10
821.9915076857759
 20
-1225.9818707686225
 30
0.0
 41
1.0
 10
821.99574563497481
 20
-1225.9806041149322
 30
0.0
 41
1.0
 10
822.17552239513645
 20
-1225.9268717821469
 30
0.0
 41
0.9990652816206936
 10
822.35926832685209
 20
-1225.8888681026049
 30
0.0
 41
1.0
 10
822.36445672788295
 20
-1225.8877949994985
 30
0.0
 41
1.0
 10
822.36964512891393
 20
-1225.8867218963921
 30
0.0
 41
1.0
 10
822.54301425856761
 20
-1225.8508644230628
 30
0.0
 41
0.9992909934270552
 10
822.71859002502629
 20
-1225.8281539905963
 30
0.0
 41
1.0
 10
822.89416579148372
 20
-1225.8054435581298
 30
0.0
 41
0.999455353944847
 10
823.07085722457657
 20
-1225.7943642539235
 30
0.0
 41
1.0
 10
823.10629163237445
 20
-1225.7921423658756
 30
0.0
 41
1.0
 10
823.14172604017222
 20
-1225.7899204778278
 30
0.0
 41
1.0
 10
823.30795180674011
 20
-1225.7794974154162
 30
0.0
 41
0.9990928098293401
 10
823.47446159864103
 20
-1225.7832570566507
 30
0.0
 41
1.0
 10
823.5130234339116
 20
-1225.7841277481837
 30
0.0
 41
1.0
 10
823.55158526918217
 20
-1225.7849984397167
 30
0.0
 41
1.0
 10
823.64097139054229
 20
-1225.7870166978853
 30
0.0
 41
0.999838208920506
 10
823.73022707332984
 20
-1225.7922488244135
 30
0.0
 41
1.0
 10
823.73065697954928
 20
-1225.7922740253157
 30
0.0
 41
1.0
 10
823.73108688576872
 20
-1225.7922992262179
 30
0.0
 41
1.0
 10
823.81948275611558
 20
-1225.7974809509415
 30
0.0
 41
0.9997558016758897
 10
823.90756333331683
 20
-1225.806563466308
 30
0.0
 41
1.0
 10
823.90803947174709
 20
-1225.8066125637906
 30
0.0
 41
1.0
 10
823.90851561017735
 20
-1225.8066616612732
 30
0.0
 41
1.0
 10
823.9956439105182
 20
-1225.8156459816744
 30
0.0
 41
0.9996565144181612
 10
824.08218176385981
 20
-1225.8291832883633
 30
0.0
 41
1.0
 10
824.082647689238
 20
-1225.8292561740948
 30
0.0
 41
1.0
 10
824.08311361461608
 20
-1225.8293290598263
 30
0.0
 41
1.0
 10
824.16871961720256
 20
-1225.8427205950527
 30
0.0
 41
0.9995321806867507
 10
824.25334669752976
 20
-1225.8613210834817
 30
0.0
 41
1.0
 10
824.25373589209971
 20
-1225.861406625947
 30
0.0
 41
1.0
 10
824.25412508666966
 20
-1225.8614921684125
 30
0.0
 41
1.0
 10
824.3379737778564
 20
-1225.8799215719105
 30
0.0
 41
0.9993819199219424
 10
824.42032031205395
 20
-1225.9041969551718
 30
0.0
 41
1.0
 10
824.42055874555297
 20
-1225.9042672442815
 30
0.0
 41
1.0
 10
824.42079717905199
 20
-1225.9043375333911
 30
0.0
 41
1.0
 10
824.50266684625058
 20
-1225.9284723384324
 30
0.0
 41
0.9992088568504911
 10
824.5823593652384
 20
-1225.9590375742268
 30
0.0
 41
1.0
 10
824.66204035611736
 20
-1225.98959717496
 30
0.0
 41
0.9990226101773551
 10
824.73871102602459
 20
-1226.0270746065744
 30
0.0
 41
1.0
 10
824.81537016782181
 20
-1226.0645464031272
 30
0.0
 41
0.9988424273972386
 10
824.88807379503373
 20
-1226.1092111783801
 30
0.0
 41
1.0
 10
824.8883415034137
 20
-1226.1093756424527
 30
0.0
 41
1.0
 10
824.88860921179366
 20
-1226.1095401065254
 30
0.0
 41
1.0
 10
824.96184825576461
 20
-1226.1545338099227
 30
0.0
 41
0.9986928844490342
 10
825.03011112247418
 20
-1226.2067695442024
 30
0.0
 41
1.0
 10
825.030692414697
 20
-1226.2072143574303
 30
0.0
 41
1.0
 10
825.03127370691982
 20
-1226.2076591706582
 30
0.0
 41
1.0
 10
825.1006991580756
 20
-1226.2607845313939
 30
0.0
 41
0.9986007262277556
 10
825.16412532784136
 20
-1226.3209453010868
 30
0.0
 41
1.0
 10
825.1650197432989
 20
-1226.3217936689221
 30
0.0
 41
1.0
 10
825.16591415875632
 20
-1226.3226420367573
 30
0.0
 41
1.0
 10
825.23112915943784
 20
-1226.3844995421214
 30
0.0
 41
0.9985581491381109
 10
825.28933677113912
 20
-1226.4529920323926
 30
0.0
 41
1.0
 10
825.29859522473498
 20
-1226.4638863900943
 30
0.0
 41
1.0
 10
825.30785367833073
 20
-1226.4747807477961
 30
0.0
 41
1.0
 10
825.38457819722396
 20
-1226.5650619534708
 30
0.0
 41
0.9970460233519866
 10
825.44657009838352
 20
-1226.6660290376528
 30
0.0
 41
1.0
 10
825.46103946346307
 20
-1226.689595496734
 30
0.0
 41
1.0
 10
825.47550882854273
 20
-1226.7131619558154
 30
0.0
 41
1.0
 10
825.51524552855528
 20
-1226.777881679848
 30
0.0
 41
0.9988468816637089
 10
825.5485918993063
 20
-1226.8461141322746
 30
0.0
 41
1.0
 10
825.55562792179796
 20
-1226.8605110534122
 30
0.0
 41
1.0
 10
825.56266394428962
 20
-1226.8749079745501
 30
0.0
 41
1.0
 10
825.58193827005778
 20
-1226.9143465847021
 30
0.0
 41
0.9998431189999379
 10
825.59980359755286
 20
-1226.954443139143
 30
0.0
 41
1.0
 10
825.6176689250367
 20
-1226.9945396935591
 30
0.0
 41
0.9999989989918378
 10
825.63564764848059
 20
-1227.0345855311916
 30
0.0
 41
1.0
 10
825.64181996006937
 20
-1227.0483337479923
 30
0.0
 41
1.0
 10
825.64799227165827
 20
-1227.0620819647929
 30
0.0
 41
1.0
 10
825.67831561826745
 20
-1227.1296242359988
 30
0.0
 41
0.9998790356321409
 10
825.70652349840691
 20
-1227.1980769879397
 30
0.0
 41
1.0
 10
825.71335867969049
 20
-1227.2146640893652
 30
0.0
 41
1.0
 10
825.72019386097406
 20
-1227.2312511907908
 30
0.0
 41
1.0
 10
825.74375152335608
 20
-1227.2884191456803
 30
0.0
 41
0.9998227574560961
 10
825.76514027174494
 20
-1227.3464334539567
 30
0.0
 41
1.0
 10
825.7865290201338
 20
-1227.4044477622331
 30
0.0
 41
0.9996797971042193
 10
825.80495530509279
 20
-1227.4634698813504
 30
0.0
 41
1.0
 10
825.80885910781865
 20
-1227.4759743395202
 30
0.0
 41
1.0
 10
825.81276291054451
 20
-1227.4884787976903
 30
0.0
 41
1.0
 10
825.83899680095499
 20
-1227.5725098331473
 30
0.0
 41
0.9979274938734338
 10
825.85422132443432
 20
-1227.6592141918086
 30
0.0
 41
1.0
 10
825.85644501169554
 20
-1227.6718781926297
 30
0.0
 41
1.0
 10
825.85866869895676
 20
-1227.6845421934506
 30
0.0
 41
1.0
 10
825.86959863865479
 20
-1227.7467887007399
 30
0.0
 41
0.9994985982137639
 10
825.87656680383157
 20
-1227.8096022018813
 30
0.0
 41
1.0
 10
825.88353496900868
 20
-1227.8724157030249
 30
0.0
 41
0.9996372611202004
 10
825.88711083477631
 20
-1227.9355132817054
 30
0.0
 41
1.0
 10
825.88727941226557
 20
-1227.9384878987876
 30
0.0
 41
1.0
 10
825.88744798975495
 20
-1227.9414625158697
 30
0.0
 41
1.0
 10
825.89136101050133
 20
-1228.0105093287159
 30
0.0
 41
0.999773063073568
 10
825.89232932398943
 20
-1228.0796601527547
 30
0.0
 41
1.0
 10
825.89238643040744
 20
-1228.0837383318942
 30
0.0
 41
1.0
 10
825.89244353682557
 20
-1228.0878165110337
 30
0.0
 41
1.0
 10
825.89352606314969
 20
-1228.1651236933576
 30
0.0
 41
0.999877261406932
 10
825.89218597641809
 20
-1228.2424268399207
 30
0.0
 41
1.0
 10
825.89209671321942
 20
-1228.2475760037532
 30
0.0
 41
1.0
 10
825.89200745002063
 20
-1228.2527251675858
 30
0.0
 41
1.0
 10
825.890488836891
 20
-1228.3403266418334
 30
0.0
 41
0.9999415567325589
 10
825.88707652664482
 20
-1228.427874803511
 30
0.0
 41
1.0
 10
825.88683520596987
 20
-1228.4340662632403
 30
0.0
 41
1.0
 10
825.88659388529481
 20
-1228.4402577229698
 30
0.0
 41
1.0
 10
825.88269893369795
 20
-1228.5401888041238
 30
0.0
 41
0.9999716810423802
 10
825.87730035058019
 20
-1228.6400499423396
 30
0.0
 41
1.0
 10
825.87408755179081
 20
-1228.6994791920088
 30
0.0
 41
1.0
 10
825.87087475300132
 20
-1228.7589084416779
 30
0.0
 41
1.0
 10
825.86280084384907
 20
-1228.9082568429517
 30
0.0
 41
0.9999819129909527
 10
825.85293105223286
 20
-1229.0574973206553
 30
0.0
 41
1.0
 10
825.84306126061631
 20
-1229.2067377983667
 30
0.0
 41
1.0
 10
825.84062194005242
 20
-1229.243930844216
 30
0.0
 41
1.0
 10
825.86332017385655
 20
-1229.2051898469319
 30
0.0
 41
0.9999982128188483
 10
825.88616473262016
 20
-1229.1665349529599
 30
0.0
 41
1.0
 10
825.91307429251435
 20
-1229.1210017388889
 30
0.0
 41
1.0
 10
825.93998385240855
 20
-1229.075468524818
 30
0.0
 41
1.0
 10
826.01664753093598
 20
-1228.9457472027459
 30
0.0
 41
0.9998609190056733
 10
826.09759484380049
 20
-1228.8186548208121
 30
0.0
 41
1.0
 10
826.12724316528181
 20
-1228.7721050878556
 30
0.0
 41
1.0
 10
826.15689148676313
 20
-1228.7255553548991
 30
0.0
 41
1.0
 10
826.2391637070009
 20
-1228.5963827849032
 30
0.0
 41
0.9999067609733601
 10
826.32493271646081
 20
-1228.4695050954683
 30
0.0
 41
1.0
 10
826.32733741966092
 20
-1228.4659478294147
 30
0.0
 41
1.0
 10
826.32974212286103
 20
-1228.4623905633609
 30
0.0
 41
1.0
 10
826.41070172592151
 20
-1228.3426274060314
 30
0.0
 41
0.9998784952149623
 10
826.49535533560618
 20
-1228.2254461893181
 30
0.0
 41
1.0
 10
826.58000894528982
 20
-1228.1082649726065
 30
0.0
 41
0.9998532968282031
 10
826.66862656611454
 20
-1227.9940520641335
 30
0.0
 41
1.0
 10
826.68858835510218
 20
-1227.9683247431176
 30
0.0
 41
1.0
 10
826.70855014408994
 20
-1227.9425974221019
 30
0.0
 41
1.0
 10
826.82703419384984
 20
-1227.7898918111316
 30
0.0
 41
0.9991551975795143
 10
826.95765864347482
 20
-1227.6474322490467
 30
0.0
 41
1.0
 10
826.96116825945614
 20
-1227.6436046474207
 30
0.0
 41
1.0
 10
826.96467787543736
 20
-1227.6397770457947
 30
0.0
 41
1.0
 10
827.08828309310104
 20
-1227.5049726869606
 30
0.0
 41
0.9997418144181774
 10
827.21788523279884
 20
-1227.3759232763507
 30
0.0
 41
1.0
 10
827.34748737250084
 20
-1227.2468738657371
 30
0.0
 41
0.9989238204633469
 10
827.48848992075318
 20
-1227.1303889036972
 30
0.0
 41
1.0
 10
827.53373759889143
 20
-1227.0930089120895
 30
0.0
 41
1.0
 10
827.57898527702969
 20
-1227.0556289204819
 30
0.0
 41
1.0
 10
827.71922533425095
 20
-1226.939773867191
 30
0.0
 41
0.9990825084096201
 10
827.86886526685498
 20
-1226.8363448693581
 30
0.0
 41
1.0
 10
827.87891063091456
 20
-1226.8294016562768
 30
0.0
 41
1.0
 10
827.88895599497414
 20
-1226.8224584431953
 30
0.0
 41
1.0
 10
828.01850519946026
 20
-1226.732915871524
 30
0.0
 41
0.9998164899825424
 10
828.15138940283521
 20
-1226.6484016300087
 30
0.0
 41
1.0
 10
828.16323496335883
 20
-1226.6408678634846
 30
0.0
 41
1.0
 10
828.17508052388246
 20
-1226.6333340969604
 30
0.0
 41
1.0
 10
828.28427360621038
 20
-1226.563887388493
 30
0.0
 41
0.999747344913113
 10
828.39647756346085
 20
-1226.4994184306765
 30
0.0
 41
1.0
 10
828.50868152071143
 20
-1226.4349494728601
 30
0.0
 41
0.9999327861142809
 10
828.62235013147756
 20
-1226.3730994811774
 30
0.0
 41
1.0
 10
828.62290213403639
 20
-1226.3727991224991
 30
0.0
 41
1.0
 10
828.62345413659523
 20
-1226.3724987638211
 30
0.0
 41
1.0
 10
828.73822675247766
 20
-1226.3100480547826
 30
0.0
 41
0.9996956420483999
 10
828.85594007831367
 20
-1226.2533345878098
 30
0.0
 41
1.0
 10
828.88638048321172
 20
-1226.2386686110772
 30
0.0
 41
1.0
 10
828.91682088810978
 20
-1226.2240026343447
 30
0.0
 41
1.0
 10
829.01979799485161
 20
-1226.1743889759023
 30
0.0
 41
0.9998070570176435
 10
829.1246443837905
 20
-1226.1288583890023
 30
0.0
 41
1.0
 10
829.22949077272744
 20
-1226.0833278021028
 30
0.0
 41
0.9997827436147773
 10
829.33614370933515
 20
-1226.0422066307917
 30
0.0
 41
1.0
 10
829.35536655896965
 20
-1226.0347950571581
 30
0.0
 41
1.0
 10
829.37458940860415
 20
-1226.0273834835245
 30
0.0
 41
1.0
 10
829.51968804447756
 20
-1225.9714391649477
 30
0.0
 41
0.9988031841976512
 10
829.66955840708181
 20
-1225.9299391007801
 30
0.0
 41
1.0
 10
829.6944756554451
 20
-1225.9230393549733
 30
0.0
 41
1.0
 10
829.71939290380828
 20
-1225.9161396091663
 30
0.0
 41
1.0
 10
829.8866629294555
 20
-1225.8698214667595
 30
0.0
 41
0.998474804055008
 10
830.05801983810409
 20
-1225.8422272344947
 30
0.0
 41
1.0
 10
830.06275897435319
 20
-1225.8414640739811
 30
0.0
 41
1.0
 10
830.06749811060229
 20
-1225.8407009134678
 30
0.0
 41
1.0
 10
830.22937674675313
 20
-1225.8146330022298
 30
0.0
 41
0.9984436495479949
 10
830.39315149047775
 20
-1225.8067550484111
 30
0.0
 41
1.0
 10
830.41484869860858
 20
-1225.8057113612115
 30
0.0
 41
1.0
 10
830.43654590673941
 20
-1225.8046676740119
 30
0.0
 41
1.0
 10
830.55692623420202
 20
-1225.7988770945924
 30
0.0
 41
0.9987954789335194
 10
830.67729447911233
 20
-1225.8049136223347
 30
0.0
 41
1.0
 10
830.69725927160835
 20
-1225.8059148666734
 30
0.0
 41
1.0
 10
830.71722406410424
 20
-1225.806916111012
 30
0.0
 41
1.0
 10
830.79766272402367
 20
-1225.8109501500771
 30
0.0
 41
0.999794159587784
 10
830.87787150211659
 20
-1225.818244215998
 30
0.0
 41
1.0
 10
830.9580802802127
 20
-1225.8255382819193
 30
0.0
 41
0.9998589466238947
 10
831.03799882706915
 20
-1225.8355221363695
 30
0.0
 41
1.0
 10
831.07040502887583
 20
-1225.8395704932886
 30
0.0
 41
1.0
 10
831.10281123068251
 20
-1225.8436188502076
 30
0.0
 41
1.0
 10
831.2475421811547
 20
-1225.8616994184963
 30
0.0
 41
0.9993495063248932
 10
831.39059342492101
 20
-1225.8901651282381
 30
0.0
 41
1.0
 10
831.42352712207196
 20
-1225.8967185914526
 30
0.0
 41
1.0
 10
831.45646081922291
 20
-1225.9032720546672
 30
0.0
 41
1.0
 10
831.56575464242837
 20
-1225.9250203888027
 30
0.0
 41
0.999678871556105
 10
831.67380621438463
 20
-1225.9522781881658
 30
0.0
 41
1.0
 10
831.67586921692396
 20
-1225.9527986147389
 30
0.0
 41
1.0
 10
831.67793221946329
 20
-1225.9533190413119
 30
0.0
 41
1.0
 10
831.7818577863419
 20
-1225.9795359875291
 30
0.0
 41
0.9995480654491783
 10
831.88402002157045
 20
-1226.0119509441533
 30
0.0
 41
1.0
 10
831.8857096637006
 20
-1226.0124870490677
 30
0.0
 41
1.0
 10
831.88739930583074
 20
-1226.013023153982
 30
0.0
 41
1.0
 10
831.9861822568015
 20
-1226.0443659007783
 30
0.0
 41
0.9993867959456062
 10
832.08252941524245
 20
-1226.0825452700674
 30
0.0
 41
1.0
 10
832.08377236432761
 20
-1226.0830378119638
 30
0.0
 41
1.0
 10
832.08501531341278
 20
-1226.0835303538602
 30
0.0
 41
1.0
 10
832.17887657368544
 20
-1226.1207246393574
 30
0.0
 41
0.9992050256522146
 10
832.26947624871832
 20
-1226.1652785385959
 30
0.0
 41
1.0
 10
832.27021093143071
 20
-1226.1656398310568
 30
0.0
 41
1.0
 10
832.27094561414322
 20
-1226.1660011235176
 30
0.0
 41
1.0
 10
832.36007592375097
 20
-1226.2098324378342
 30
0.0
 41
0.999022235074123
 10
832.44498598514542
 20
-1226.2613657055331
 30
0.0
 41
1.0
 10
832.44516987042834
 20
-1226.2614773084379
 30
0.0
 41
1.0
 10
832.44535375571115
 20
-1226.2615889113429
 30
0.0
 41
1.0
 10
832.52989604653874
 20
-1226.3128989732311
 30
0.0
 41
0.9988642743804904
 10
832.60917058115797
 20
-1226.3720231607565
 30
0.0
 41
1.0
 10
832.68844511577697
 20
-1226.4311473482819
 30
0.0
 41
0.9987681233311264
 10
832.76146890005339
 20
-1226.4978380396826
 30
0.0
 41
1.0
 10
832.7617978280191
 20
-1226.4981384408966
 30
0.0
 41
1.0
 10
832.76212675598481
 20
-1226.4984388421108
 30
0.0
 41
1.0
 10
832.83580839619265
 20
-1226.5657303359403
 30
0.0
 41
0.9987496570899126
 10
832.90240220152032
 20
-1226.6400431500274
 30
0.0
 41
1.0
 10
832.90317437128044
 20
-1226.640904823385
 30
0.0
 41
1.0
 10
832.90394654104057
 20
-1226.6417664967425
 30
0.0
 41
1.0
 10
832.9720846858894
 20
-1226.7178026575459
 30
0.0
 41
0.9988147669826452
 10
833.03250694011467
 20
-1226.8001036643889
 30
0.0
 41
1.0
 10
833.03362626619196
 20
-1226.8016282957406
 30
0.0
 41
1.0
 10
833.03474559226913
 20
-1226.8031529270925
 30
0.0
 41
1.0
 10
833.09740649864932
 20
-1226.8885031966397
 30
0.0
 41
0.998945263621626
 10
833.15197341161081
 20
-1226.9792418857974
 30
0.0
 41
1.0
 10
833.15332213769648
 20
-1226.9814846668237
 30
0.0
 41
1.0
 10
833.15467086378226
 20
-1226.98372744785
 30
0.0
 41
1.0
 10
833.21193522891417
 20
-1227.0789516990587
 30
0.0
 41
0.9991046436070323
 10
833.26094444223611
 20
-1227.1786761320848
 30
0.0
 41
1.0
 10
833.26240830382631
 20
-1227.1816548121578
 30
0.0
 41
1.0
 10
833.26387216541661
 20
-1227.1846334922307
 30
0.0
 41
1.0
 10
833.31580910191792
 20
-1227.2903152854005
 30
0.0
 41
0.999276383110157
 10
833.35956223047287
 20
-1227.3996393473558
 30
0.0
 41
1.0
 10
833.36104150013648
 20
-1227.4033355348902
 30
0.0
 41
1.0
 10
833.36252076980008
 20
-1227.4070317224243
 30
0.0
 41
1.0
 10
833.40923243768214
 20
-1227.5237481594488
 30
0.0
 41
0.999416347288376
 10
833.44786546887156
 20
-1227.6433817479115
 30
0.0
 41
1.0
 10
833.44910362111852
 20
-1227.6472158916949
 30
0.0
 41
1.0
 10
833.45034177336549
 20
-1227.6510500354782
 30
0.0
 41
1.0
 10
833.49022533438313
 20
-1227.7745560969583
 30
0.0
 41
0.9997268055891323
 10
833.52429339029436
 20
-1227.8997911289061
 30
0.0
 41
1.0
 10
833.52522357056432
 20
-1227.9032104950161
 30
0.0
 41
1.0
 10
833.52615375083417
 20
-1227.9066298611262
 30
0.0
 41
1.0
 10
833.55836144620616
 20
-1228.0250261608555
 30
0.0
 41
0.9996701319000646
 10
833.58444706297678
 20
-1228.1449201141204
 30
0.0
 41
1.0
 10
833.61053267974705
 20
-1228.2648140673825
 30
0.0
 41
0.9995785451109107
 10
833.62961625708738
 20
-1228.3860198284174
 30
0.0
 41
1.0
 10
833.63383603926093
 20
-1228.4128209831815
 30
0.0
 41
1.0
 10
833.63805582143448
 20
-1228.4396221379454
 30
0.0
 41
1.0
 10
833.66463079737321
 20
-1228.6084081116487
 30
0.0
 41
0.9979925101216014
 10
833.66965638329941
 20
-1228.7791994397401
 30
0.0
 41
1.0
 10
833.67048119572405
 20
-1228.8072301632228
 30
0.0
 41
1.0
 10
833.6713060081488
 20
-1228.8352608867053
 30
0.0
 41
1.0
 10
833.67468196922573
 20
-1228.9499907678348
 30
0.0
 41
0.9995314902263198
 10
833.67103177708725
 20
-1229.0647122515838
 30
0.0
 41
1.0
 10
833.66738158494877
 20
-1229.1794337353351
 30
0.0
 41
0.9996245486944233
 10
833.6574524898183
 20
-1229.2937830064552
 30
0.0
 41
1.0
 10
833.65728944182388
 20
-1229.2956607625927
 30
0.0
 41
1.0
 10
833.65712639382946
 20
-1229.2975385187301
 30
0.0
 41
1.0
 10
833.64687120271037
 20
-1229.4156433021228
 30
0.0
 41
0.9997286095000865
 10
833.63112587913929
 20
-1229.5331422110141
 30
0.0
 41
1.0
 10
833.6307323864886
 20
-1229.5360786357187
 30
0.0
 41
1.0
 10
833.63033889383792
 20
-1229.539015060423
 30
0.0
 41
1.0
 10
833.61380658496523
 20
-1229.6623868187246
 30
0.0
 41
0.9998265533969016
 10
833.59269112623303
 20
-1229.7850572935101
 30
0.0
 41
1.0
 10
833.59201458409598
 20
-1229.7889876720174
 30
0.0
 41
1.0
 10
833.59133804195881
 20
-1229.7929180505248
 30
0.0
 41
1.0
 10
833.56886949895147
 20
-1229.9234492823307
 30
0.0
 41
0.9999022530850666
 10
833.54276003434143
 20
-1230.0533012509695
 30
0.0
 41
1.0
 10
833.54178139317628
 20
-1230.0581683933556
 30
0.0
 41
1.0
 10
833.54080275201125
 20
-1230.0630355357414
 30
0.0
 41
1.0
 10
833.51273600506897
 20
-1230.2026217891616
 30
0.0
 41
0.9999524761931405
 10
833.48195303623538
 20
-1230.3416342823211
 30
0.0
 41
1.0
 10
833.48067692906011
 20
-1230.3473970416226
 30
0.0
 41
1.0
 10
833.47940082188484
 20
-1230.353159800924
 30
0.0
 41
1.0
 10
833.44606563870229
 20
-1230.5036978126805
 30
0.0
 41
0.9999813588720909
 10
833.41089463790479
 20
-1230.6538175253427
 30
0.0
 41
1.0
 10
833.4093407124476
 20
-1230.6604501157681
 30
0.0
 41
1.0
 10
833.4077867869903
 20
-1230.6670827061937
 30
0.0
 41
1.0
 10
833.36950793527785
 20
-1230.8304675997092
 30
0.0
 41
0.9999955237655215
 10
833.33025205729291
 20
-1230.9936205033339
 30
0.0
 41
1.0
 10
833.31797042166249
 20
-1231.0446646938403
 30
0.0
 41
1.0
 10
833.30568878603208
 20
-1231.095708884347
 30
0.0
 41
1.0
 10
833.24186963678517
 20
-1231.3609501689898
 30
0.0
 41
0.9999993604821147
 10
833.17745068961358
 20
-1231.6260464196891
 30
0.0
 41
1.0
 10
833.17273185406725
 20
-1231.6454653277269
 30
0.0
 41
1.0
 10
833.16801301852081
 20
-1231.6648842357645
 30
0.0
 41
1.0
 10
833.0941564002585
 20
-1231.9688183025303
 30
0.0
 41
0.9999659914719624
 10
833.01529680437181
 20
-1232.271492849095
 30
0.0
 41
1.0
 10
833.01034411544288
 20
-1232.2905019862712
 30
0.0
 41
1.0
 10
833.00539142651382
 20
-1232.3095111234475
 30
0.0
 41
1.0
 10
832.91662645276801
 20
-1232.6502039443685
 30
0.0
 41
0.9999441976028165
 10
832.82068341980619
 20
-1232.9889453696612
 30
0.0
 41
1.0
 10
832.8039829013801
 20
-1233.0479090821909
 30
0.0
 41
1.0
 10
832.78728238295389
 20
-1233.1068727947209
 30
0.0
 41
1.0
 10
832.6579383131409
 20
-1233.56354164507
 30
0.0
 41
0.9999625120733429
 10
832.52070554581928
 20
-1234.0179021790598
 30
0.0
 41
1.0
 10
832.48491560273351
 20
-1234.1363982056964
 30
0.0
 41
1.0
 10
832.44912565964762
 20
-1234.2548942323328
 30
0.0
 41
1.0
 10
832.37460545561089
 20
-1234.5016213104209
 30
0.0
 41
0.9999793386303189
 10
832.29691943247121
 20
-1234.7473699496636
 30
0.0
 41
1.0
 10
832.2192334093337
 20
-1234.9931185888997
 30
0.0
 41
1.0
 10
832.208453850463
 20
-1235.0271364932744
 30
0.0
 41
1.0
 10
830.35808079719391
 20
-1240.914208415742
 30
0.0
 41
1.0
 10
828.5077077439247
 20
-1246.8012803382094
 30
0.0
 41
1.0
 10
827.54645105390114
 20
-1246.8012803382094
 30
0.0
 41
1.0
 10
826.58519436387758
 20
-1246.8012803382094
 30
0.0
 41
1.0
 10
828.20413914255596
 20
-1241.6532518364199
 30
0.0
 41
1.0
 10
829.82308392123446
 20
-1236.5052233346305
 30
0.0
 41
1.0
 10
829.86824974440674
 20
-1236.3611921123668
 30
0.0
 41
1.0
 10
829.91341556757914
 20
-1236.2171608901031
 30
0.0
 41
1.0
 10
830.08371998494863
 20
-1235.6740698609187
 30
0.0
 41
0.9999911657916333
 10
830.24945279662597
 20
-1235.1295663295646
 30
0.0
 41
1.0
 10
830.27914874012549
 20
-1235.0320023895174
 30
0.0
 41
1.0
 10
830.3088446836249
 20
-1234.93443844947
 30
0.0
 41
1.0
 10
830.41518560830002
 20
-1234.5850627982218
 30
0.0
 41
0.9999952428192602
 10
830.51936919763125
 20
-1234.2350377738512
 30
0.0
 41
1.0
 10
830.52442866796514
 20
-1234.2180394995712
 30
0.0
 41
1.0
 10
830.52948813829914
 20
-1234.201041225291
 30
0.0
 41
1.0
 10
830.62355278695509
 20
-1233.8850127495052
 30
0.0
 41
0.9999931687522367
 10
830.71527862482981
 20
-1233.5682975362313
 30
0.0
 41
1.0
 10
830.72021388929295
 20
-1233.5512568269478
 30
0.0
 41
1.0
 10
830.72514915375609
 20
-1233.5342161176643
 30
0.0
 41
1.0
 10
830.80700446271067
 20
-1233.2515823229353
 30
0.0
 41
0.9999893840804546
 10
830.8862516891603
 20
-1232.9682061937142
 30
0.0
 41
1.0
 10
830.96549891561926
 20
-1232.6848300644601
 30
0.0
 41
0.9999833980074249
 10
831.04147515635577
 20
-1232.400559481451
 30
0.0
 41
1.0
 10
831.05047909308098
 20
-1232.3668706029616
 30
0.0
 41
1.0
 10
831.05948302980619
 20
-1232.3331817244723
 30
0.0
 41
1.0
 10
831.12844757867026
 20
-1232.0751458921841
 30
0.0
 41
0.9999233658065715
 10
831.19100254989064
 20
-1231.8154817334612
 30
0.0
 41
1.0
 10
831.25355752111091
 20
-1231.5558175747387
 30
0.0
 41
1.0
 10
831.29304093996848
 20
-1231.3920109103126
 30
0.0
 41
1.0
 10
831.2980195439477
 20
-1231.371355948434
 30
0.0
 41
1.0
 10
831.30299814792693
 20
-1231.3507009865555
 30
0.0
 41
1.0
 10
831.33252435883105
 20
-1231.2282042458655
 30
0.0
 41
0.9999868670866751
 10
831.36079344282223
 20
-1231.105411300241
 30
0.0
 41
1.0
 10
831.36469092998027
 20
-1231.0884817128226
 30
0.0
 41
1.0
 10
831.36858841713831
 20
-1231.0715521254042
 30
0.0
 41
1.0
 10
831.38906252681988
 20
-1230.982618354589
 30
0.0
 41
0.999977817334924
 10
831.4083501249338
 20
-1230.8934197373651
 30
0.0
 41
1.0
 10
831.42763772304829
 20
-1230.8042211201396
 30
0.0
 41
0.9999602692864855
 10
831.44533208167923
 20
-1230.7146928317129
 30
0.0
 41
1.0
 10
831.44853591375727
 20
-1230.6984823768248
 30
0.0
 41
1.0
 10
831.45173974583531
 20
-1230.6822719219369
 30
0.0
 41
1.0
 10
831.47584176862108
 20
-1230.5603227237414
 30
0.0
 41
0.9995617985320575
 10
831.49268511583932
 20
-1230.4371609760383
 30
0.0
 41
1.0
 10
831.49514960574584
 20
-1230.41914015867
 30
0.0
 41
1.0
 10
831.49761409565247
 20
-1230.4011193413016
 30
0.0
 41
1.0
 10
831.5178973567007
 20
-1230.2528042916024
 30
0.0
 41
0.9991121410639337
 10
831.5256227102891
 20
-1230.1033081927944
 30
0.0
 41
1.0
 10
831.52654150031367
 20
-1230.0855283562187
 30
0.0
 41
1.0
 10
831.52746029033824
 20
-1230.0677485196429
 30
0.0
 41
1.0
 10
831.53334806387738
 20
-1229.953812093989
 30
0.0
 41
0.9989792494905601
 10
831.52892897176002
 20
-1229.8398092580901
 30
0.0
 41
1.0
 10
831.52828099989142
 20
-1229.8230930121626
 30
0.0
 41
1.0
 10
831.52763302802271
 20
-1229.8063767662354
 30
0.0
 41
1.0
 10
831.52450987964266
 20
-1229.7258064221942
 30
0.0
 41
0.9997820295394523
 10
831.51802588226701
 20
-1229.6454367004476
 30
0.0
 41
1.0
 10
831.51154188489159
 20
-1229.5650669787067
 30
0.0
 41
0.9998335105972818
 10
831.50212968937956
 20
-1229.4849873622536
 30
0.0
 41
1.0
 10
831.50053476470316
 20
-1229.4714176317707
 30
0.0
 41
1.0
 10
831.49893984002688
 20
-1229.4578479012876
 30
0.0
 41
1.0
 10
831.48633779516217
 20
-1229.3506288238673
 30
0.0
 41
0.9996876457878638
 10
831.46839388236356
 20
-1229.2441733961516
 30
0.0
 41
1.0
 10
831.46616221921818
 20
-1229.2309336609096
 30
0.0
 41
1.0
 10
831.4639305560728
 20
-1229.2176939256674
 30
0.0
 41
1.0
 10
831.45013473465178
 20
-1229.1358477817091
 30
0.0
 41
0.9995547496494129
 10
831.43148141275992
 20
-1229.0549702845221
 30
0.0
 41
1.0
 10
831.43110745588888
 20
-1229.0533488738179
 30
0.0
 41
1.0
 10
831.43073349901783
 20
-1229.0517274631134
 30
0.0
 41
1.0
 10
831.41282809086772
 20
-1228.9740927873322
 30
0.0
 41
0.9994899427174713
 10
831.39000318218791
 20
-1228.8977595044967
 30
0.0
 41
1.0
 10
831.38954465544703
 20
-1228.8962260547078
 30
0.0
 41
1.0
 10
831.38908612870625
 20
-1228.8946926049189
 30
0.0
 41
1.0
 10
831.36717827350901
 20
-1228.8214262216638
 30
0.0
 41
0.9993784877591382
 10
831.34016263840203
 20
-1228.7498855165031
 30
0.0
 41
1.0
 10
831.33963094742546
 20
-1228.7484775337834
 30
0.0
 41
1.0
 10
831.33909925644889
 20
-1228.7470695510638
 30
0.0
 41
1.0
 10
831.31314700329551
 20
-1228.6783448113445
 30
0.0
 41
0.9992430832255022
 10
831.28193046813612
 20
-1228.6118456592758
 30
0.0
 41
1.0
 10
831.28134835207948
 20
-1228.6106056041581
 30
0.0
 41
1.0
 10
831.28076623602271
 20
-1228.6093655490406
 30
0.0
 41
1.0
 10
831.25071393297719
 20
-1228.5453465072085
 30
0.0
 41
0.9990789632799049
 10
831.21528330620004
 20
-1228.4841398954579
 30
0.0
 41
1.0
 10
831.2146876000179
 20
-1228.4831108095987
 30
0.0
 41
1.0
 10
831.21409189383587
 20
-1228.4820817237392
 30
0.0
 41
1.0
 10
831.17985267942254
 20
-1228.4229332837069
 30
0.0
 41
0.9988874801120969
 10
831.14019340339132
 20
-1228.3672735712903
 30
0.0
 41
1.0
 10
831.13963787732723
 20
-1228.3664939196158
 30
0.0
 41
1.0
 10
831.13908235126303
 20
-1228.3657142679413
 30
0.0
 41
1.0
 10
831.10053412735977
 20
-1228.3116138588734
 30
0.0
 41
0.9986762060693952
 10
831.05663165608303
 20
-1228.2617601444335
 30
0.0
 41
1.0
 10
831.05618769575085
 20
-1228.2612560026168
 30
0.0
 41
1.0
 10
831.05574373541879
 20
-1228.2607518608004
 30
0.0
 41
1.0
 10
831.01272918480652
 20
-1228.2119064299939
 30
0.0
 41
0.9984621642487335
 10
830.96457162802903
 20
-1228.1681231295231
 30
0.0
 41
1.0
 10
830.96432499351261
 20
-1228.1678988973597
 30
0.0
 41
1.0
 10
830.96407835899618
 20
-1228.1676746651963
 30
0.0
 41
1.0
 10
830.91641407125155
 20
-1228.1243398290521
 30
0.0
 41
0.9982724693851977
 10
830.86399543940979
 20
-1228.0868954785342
 30
0.0
 41
1.0
 10
830.8115768075686
 20
-1228.0494511280167
 30
0.0
 41
0.9981399180158268
 10
830.75499074417428
 20
-1228.0186646085729
 30
0.0
 41
1.0
 10
830.75494508209613
 20
-1228.0186397654159
 30
0.0
 41
1.0
 10
830.75489942001809
 20
-1228.0186149222588
 30
0.0
 41
1.0
 10
830.6982220324669
 20
-1227.9877787165005
 30
0.0
 41
0.9980927086836093
 10
830.6381766814003
 20
-1227.9641619076481
 30
0.0
 41
1.0
 10
830.63773651168913
 20
-1227.9639887817734
 30
0.0
 41
1.0
 10
830.63729634197807
 20
-1227.9638156558985
 30
0.0
 41
1.0
 10
830.57637065148879
 20
-1227.9398525952961
 30
0.0
 41
0.9981411356561686
 10
830.5129821300892
 20
-1227.9234799537905
 30
0.0
 41
1.0
 10
830.51210001338768
 20
-1227.923252111585
 30
0.0
 41
1.0
 10
830.51121789668605
 20
-1227.9230242693795
 30
0.0
 41
1.0
 10
830.44606514188399
 20
-1227.906195943463
 30
0.0
 41
0.9983031812935521
 10
830.37939771288904
 20
-1227.8970565822867
 30
0.0
 41
1.0
 10
830.37052668748493
 20
-1227.8958404636155
 30
0.0
 41
1.0
 10
830.36165566208069
 20
-1227.8946243449441
 30
0.0
 41
1.0
 10
830.30730601957691
 20
-1227.8871736149531
 30
0.0
 41
0.9983887708262622
 10
830.25246217028428
 20
-1227.8859289413199
 30
0.0
 41
1.0
 10
830.24439876506347
 20
-1227.8857459434448
 30
0.0
 41
1.0
 10
830.23633535984266
 20
-1227.88556294557
 30
0.0
 41
1.0
 10
830.19761832098811
 20
-1227.8846842676865
 30
0.0
 41
0.9998869563080732
 10
830.15889236778878
 20
-1227.8849701370461
 30
0.0
 41
1.0
 10
830.12016641458251
 20
-1227.8852560064058
 30
0.0
 41
0.9999972320182097
 10
830.0814422353684
 20
-1227.885724105935
 30
0.0
 41
1.0
 10
830.06208921879193
 20
-1227.8859580460244
 30
0.0
 41
1.0
 10
830.04273620221534
 20
-1227.8861919861138
 30
0.0
 41
1.0
 10
829.96530598984486
 20
-1227.8871279658215
 30
0.0
 41
0.9997304945086453
 10
829.88800268360751
 20
-1227.8916570596075
 30
0.0
 41
1.0
 10
829.87895304190306
 20
-1227.8921872655974
 30
0.0
 41
1.0
 10
829.8699034001985
 20
-1227.8927174715873
 30
0.0
 41
1.0
 10
829.77450081054883
 20
-1227.8983069773535
 30
0.0
 41
0.999788830641505
 10
829.67940847470254
 20
-1227.9078119418432
 30
0.0
 41
1.0
 10
829.67068741313346
 20
-1227.908683656475
 30
0.0
 41
1.0
 10
829.66196635156427
 20
-1227.9095553711068
 30
0.0
 41
1.0
 10
829.5494318925746
 20
-1227.92080376486
 30
0.0
 41
0.9984170238190353
 10
829.43887274522172
 20
-1227.9446198467963
 30
0.0
 41
1.0
 10
829.40249161423674
 20
-1227.9524568826023
 30
0.0
 41
1.0
 10
829.36611048325176
 20
-1227.9602939184081
 30
0.0
 41
1.0
 10
829.25091941483038
 20
-1227.9851077849175
 30
0.0
 41
0.9976592854198595
 10
829.14019124842548
 20
-1228.0254064620649
 30
0.0
 41
1.0
 10
829.0294630820207
 20
-1228.0657051392118
 30
0.0
 41
0.999325507435163
 10
828.92199128323148
 20
-1228.1140220377038
 30
0.0
 41
1.0
 10
828.91736610430735
 20
-1228.1161014139038
 30
0.0
 41
1.0
 10
828.9127409253831
 20
-1228.1181807901039
 30
0.0
 41
1.0
 10
828.79601876874619
 20
-1228.1706564409956
 30
0.0
 41
0.9976475078275121
 10
828.6875714244361
 20
-1228.2386044306536
 30
0.0
 41
1.0
 10
828.66922903030081
 20
-1228.2500969094685
 30
0.0
 41
1.0
 10
828.65088663616541
 20
-1228.2615893882833
 30
0.0
 41
1.0
 10
828.56668444461411
 20
-1228.3143465090511
 30
0.0
 41
0.9995131336407166
 10
828.48593672965615
 20
-1228.3722527210048
 30
0.0
 41
1.0
 10
828.40518901470057
 20
-1228.4301589329566
 30
0.0
 41
0.9995810107606897
 10
828.32792736697479
 20
-1228.4926406154198
 30
0.0
 41
1.0
 10
828.32495733576229
 20
-1228.4950424868862
 30
0.0
 41
1.0
 10
828.32198730454979
 20
-1228.4974443583528
 30
0.0
 41
1.0
 10
828.23878559440175
 20
-1228.5647297837472
 30
0.0
 41
0.9996617837954834
 10
828.1591949072689
 20
-1228.6362502393049
 30
0.0
 41
1.0
 10
828.14706415639171
 20
-1228.6471509722958
 30
0.0
 41
1.0
 10
828.1349334055144
 20
-1228.6580517052867
 30
0.0
 41
1.0
 10
828.06665787811517
 20
-1228.7194043207614
 30
0.0
 41
0.9997267750053437
 10
828.0013243698304
 20
-1228.7838808572878
 30
0.0
 41
1.0
 10
827.93599086154586
 20
-1228.8483573938138
 30
0.0
 41
0.9999667288964013
 10
827.87171791839774
 20
-1228.9138912007097
 30
0.0
 41
1.0
 10
827.80289047062377
 20
-1228.9840688594668
 30
0.0
 41
1.0
 10
827.7340630228498
 20
-1229.0542465182239
 30
0.0
 41
1.0
 10
827.53213518415362
 20
-1229.2601356426339
 30
0.0
 41
0.9988205335175031
 10
827.35112956717467
 20
-1229.484639874694
 30
0.0
 41
1.0
 10
827.32048960226939
 20
-1229.5226431251247
 30
0.0
 41
1.0
 10
827.28984963736411
 20
-1229.5606463755553
 30
0.0
 41
1.0
 10
827.0475640905745
 20
-1229.8611571084766
 30
0.0
 41
0.9997077826755604
 10
826.82008613946891
 20
-1230.1730269026934
 30
0.0
 41
1.0
 10
826.81836272433895
 20
-1230.1753896860723
 30
0.0
 41
1.0
 10
826.81663930920899
 20
-1230.1777524694512
 30
0.0
 41
1.0
 10
826.58571452784247
 20
-1230.4943478304272
 30
0.0
 41
0.9989147567078721
 10
826.38525102495953
 20
-1230.8310572916112
 30
0.0
 41
1.0
 10
826.3605098796528
 20
-1230.8726138721631
 30
0.0
 41
1.0
 10
826.33576873434606
 20
-1230.9141704527153
 30
0.0
 41
1.0
 10
826.18055743570926
 20
-1231.1748718371673
 30
0.0
 41
0.9997476598181313
 10
826.03721244819849
 20
-1231.4422815857515
 30
0.0
 41
1.0
 10
825.89386746068817
 20
-1231.7096913343353
 30
0.0
 41
0.9996258967110565
 10
825.76535920875585
 20
-1231.9845392709608
 30
0.0
 41
1.0
 10
825.75215929930823
 20
-1232.0127706710523
 30
0.0
 41
1.0
 10
825.7389593898605
 20
-1232.0410020711436
 30
0.0
 41
1.0
 10
825.59875066886104
 20
-1232.340874469096
 30
0.0
 41
0.9998735413943534
 10
825.46814932213738
 20
-1232.6450540685705
 30
0.0
 41
1.0
 10
825.46470649407752
 20
-1232.6530726540338
 30
0.0
 41
1.0
 10
825.46126366601754
 20
-1232.6610912394972
 30
0.0
 41
1.0
 10
825.33754797541974
 20
-1232.9492336680314
 30
0.0
 41
0.9999377418861686
 10
825.22029317324223
 20
-1233.2400651357129
 30
0.0
 41
1.0
 10
825.10303837106892
 20
-1233.5308966033845
 30
0.0
 41
0.9999508299500961
 10
824.99157442769456
 20
-1233.8239962801979
 30
0.0
 41
1.0
 10
824.9884936590297
 20
-1233.8320973061682
 30
0.0
 41
1.0
 10
824.98541289036484
 20
-1233.8401983321382
 30
0.0
 41
1.0
 10
824.86778740966054
 20
-1234.1495000608923
 30
0.0
 41
0.9999609228431013
 10
824.75564880678417
 20
-1234.4608330769149
 30
0.0
 41
1.0
 10
824.75269279643669
 20
-1234.4690399173182
 30
0.0
 41
1.0
 10
824.74973678608922
 20
-1234.4772467577218
 30
0.0
 41
1.0
 10
824.63168616251585
 20
-1234.8049934545566
 30
0.0
 41
0.9999674607402581
 10
824.51893863644636
 20
-1235.1346020745552
 30
0.0
 41
1.0
 10
824.46754024588517
 20
-1235.2848612702433
 30
0.0
 41
1.0
 10
824.4161418553241
 20
-1235.4351204659313
 30
0.0
 41
1.0
 10
824.30013124856396
 20
-1235.7742684484408
 30
0.0
 41
0.9999287532310028
 10
824.19224984459424
 20
-1236.1160891874138
 30
0.0
 41
1.0
 10
824.14577258842075
 20
-1236.2633517318936
 30
0.0
 41
1.0
 10
824.09929533224727
 20
-1236.4106142763735
 30
0.0
 41
1.0
 10
824.08436844058497
 20
-1236.4579099265111
 30
0.0
 41
0.9999998224945362
 10
824.06949793189301
 20
-1236.5052233346305
 30
0.0
 41
1.0
 10
822.44884179509756
 20
-1241.6532518364199
 30
0.0
 41
1.0
 10
820.82818565830212
 20
-1246.8012803382094
 30
0.0
 41
1.0
 10
819.92287721441119
 20
-1246.8012803382094
 30
0.0
 41
1.0
 10
819.01756877052026
 20
-1246.8012803382094
 30
0.0
 41
1.0
 10
820.8696531819063
 20
-1240.914208415742
 30
0.0
 41
1.0
 10
822.72173759329235
 20
-1235.0271364932744
 30
0.0
 41
1.0
 10
822.73185935159506
 20
-1234.9950932798247
 30
0.0
 41
1.0
 10
822.8044670204448
 20
-1234.7647937379988
 30
0.0
 41
1.0
 10
822.87707468928988
 20
-1234.5344941961876
 30
0.0
 41
0.9999825681977675
 10
822.94695772850287
 20
-1234.3033533011187
 30
0.0
 41
1.0
 10
822.99524879066598
 20
-1234.1436287176148
 30
0.0
 41
1.0
 10
823.0435398528291
 20
-1233.9839041341111
 30
0.0
 41
1.0
 10
823.14069220614442
 20
-1233.6625689123412
 30
0.0
 41
0.9999672528958096
 10
823.2326310117669
 20
-1233.3397033667579
 30
0.0
 41
1.0
 10
823.23541989543162
 20
-1233.3299095213856
 30
0.0
 41
1.0
 10
823.23820877909634
 20
-1233.3201156760133
 30
0.0
 41
1.0
 10
823.32456981738596
 20
-1233.016837821187
 30
0.0
 41
0.999989974918257
 10
823.40821142692494
 20
-1232.7127987327194
 30
0.0
 41
1.0
 10
823.41831734594189
 20
-1232.6760634950433
 30
0.0
 41
1.0
 10
823.42842326495872
 20
-1232.6393282573672
 30
0.0
 41
1.0
 10
823.4918530364572
 20
-1232.4087596442757
 30
0.0
 41
0.9999214200504958
 10
823.54948246483741
 20
-1232.1766733020577
 30
0.0
 41
1.0
 10
823.56224831702139
 20
-1232.1252624166477
 30
0.0
 41
1.0
 10
823.57501416920536
 20
-1232.0738515312378
 30
0.0
 41
1.0
 10
823.60711189321569
 20
-1231.9445869598455
 30
0.0
 41
0.9999828681677254
 10
823.6376941452105
 20
-1231.8149554853808
 30
0.0
 41
1.0
 10
823.66827639720543
 20
-1231.6853240109149
 30
0.0
 41
0.9999389844480278
 10
823.69598738599234
 20
-1231.5550485550261
 30
0.0
 41
1.0
 10
823.70312512971395
 20
-1231.5214924511822
 30
0.0
 41
1.0
 10
823.71026287343557
 20
-1231.4879363473383
 30
0.0
 41
1.0
 10
823.75224934966479
 20
-1231.2905486837653
 30
0.0
 41
0.999893369944094
 10
823.78845361406809
 20
-1231.0920190760014
 30
0.0
 41
1.0
 10
823.78982643928407
 20
-1231.0844910553064
 30
0.0
 41
1.0
 10
823.79119926450016
 20
-1231.0769630346117
 30
0.0
 41
1.0
 10
823.83014917933588
 20
-1230.8633773854563
 30
0.0
 41
0.999685030519302
 10
823.85833285559488
 20
-1230.6481063800159
 30
0.0
 41
1.0
 10
823.86032788896364
 20
-1230.632868025898
 30
0.0
 41
1.0
 10
823.8623229223324
 20
-1230.6176296717802
 30
0.0
 41
1.0
 10
823.88973078479148
 20
-1230.408284444625
 30
0.0
 41
0.9994697936706884
 10
823.90345534401104
 20
-1230.1975992492939
 30
0.0
 41
1.0
 10
823.90393241326069
 20
-1230.1902757770845
 30
0.0
 41
1.0
 10
823.90440948251023
 20
-1230.182952304875
 30
0.0
 41
1.0
 10
823.91717990323048
 20
-1229.9869140539665
 30
0.0
 41
0.9991804893137174
 10
823.91405158695784
 20
-1229.7904852039899
 30
0.0
 41
1.0
 10
823.91396770813571
 20
-1229.7852184025796
 30
0.0
 41
1.0
 10
823.9138838293137
 20
-1229.7799516011692
 30
0.0
 41
1.0
 10
823.91092327068509
 20
-1229.59405635402
 30
0.0
 41
0.9988448329322254
 10
823.89013172506134
 20
-1229.4093037641831
 30
0.0
 41
1.0
 10
823.88853765135832
 20
-1229.395138908412
 30
0.0
 41
1.0
 10
823.8869435776553
 20
-1229.380974052641
 30
0.0
 41
1.0
 10
823.86934017943759
 20
-1229.2245511743499
 30
0.0
 41
0.9985503209458649
 10
823.83502390713807
 20
-1229.0709269902604
 30
0.0
 41
1.0
 10
823.82743791506687
 20
-1229.0369666628603
 30
0.0
 41
1.0
 10
823.81985192299555
 20
-1229.00300633546
 30
0.0
 41
1.0
 10
823.8007076348382
 20
-1228.91730280617
 30
0.0
 41
0.999103678137003
 10
823.7743827731872
 20
-1228.8335257188462
 30
0.0
 41
1.0
 10
823.77040054773124
 20
-1228.8208525563355
 30
0.0
 41
1.0
 10
823.76641832227517
 20
-1228.8081793938247
 30
0.0
 41
1.0
 10
823.74805791153699
 20
-1228.749748631524
 30
0.0
 41
0.9998874504368174
 10
823.72795270385768
 20
-1228.6918950292979
 30
0.0
 41
1.0
 10
823.7078474961794
 20
-1228.6340414270755
 30
0.0
 41
0.9994041637544789
 10
823.68379888324557
 20
-1228.5777127231863
 30
0.0
 41
1.0
 10
823.67960209902105
 20
-1228.5678826587032
 30
0.0
 41
1.0
 10
823.67540531479654
 20
-1228.5580525942198
 30
0.0
 41
1.0
 10
823.6475264838017
 20
-1228.4927524282521
 30
0.0
 41
0.9991846840701253
 10
823.61447012710926
 20
-1228.4299143969736
 30
0.0
 41
1.0
 10
823.61333352071438
 20
-1228.427753780519
 30
0.0
 41
1.0
 10
823.61219691431938
 20
-1228.4255931640644
 30
0.0
 41
1.0
 10
823.58141377041602
 20
-1228.3670763656933
 30
0.0
 41
0.9989253167924259
 10
823.54534434636116
 20
-1228.311661437303
 30
0.0
 41
1.0
 10
823.54429022168688
 20
-1228.3100419425405
 30
0.0
 41
1.0
 10
823.54323609701248
 20
-1228.308422447778
 30
0.0
 41
1.0
 10
823.50927492230653
 20
-1228.2562465089134
 30
0.0
 41
0.9986467172838169
 10
823.47007776966893
 20
-1228.2078804752832
 30
0.0
 41
1.0
 10
823.46920364096809
 20
-1228.2068018730047
 30
0.0
 41
1.0
 10
823.46832951226725
 20
-1228.2057232707264
 30
0.0
 41
1.0
 10
823.43088061703122
 20
-1228.1595144416538
 30
0.0
 41
0.9984001104268823
 10
823.3884538865143
 20
-1228.117829334285
 30
0.0
 41
1.0
 10
823.38786674840503
 20
-1228.117252459404
 30
0.0
 41
1.0
 10
823.38727961029588
 20
-1228.1166755845229
 30
0.0
 41
1.0
 10
823.34602715599783
 20
-1228.0761442269168
 30
0.0
 41
0.9982442159082497
 10
823.30027105466161
 20
-1228.0407756656559
 30
0.0
 41
1.0
 10
823.30005625920012
 20
-1228.040609633013
 30
0.0
 41
1.0
 10
823.29984146373863
 20
-1228.0404436003698
 30
0.0
 41
1.0
 10
823.25451495332618
 20
-1228.005407104396
 30
0.0
 41
0.9982450060837661
 10
823.20536397425417
 20
-1227.9759753213621
 30
0.0
 41
1.0
 10
823.15621299518284
 20
-1227.9465435383288
 30
0.0
 41
0.9983922639635553
 10
823.10404668901731
 20
-1227.9228639036744
 30
0.0
 41
1.0
 10
823.10381981169303
 20
-1227.922760918193
 30
0.0
 41
1.0
 10
823.10359293436863
 20
-1227.9226579327117
 30
0.0
 41
1.0
 10
823.05097287355534
 20
-1227.898772327095
 30
0.0
 41
0.9986517147150001
 10
822.99615990068787
 20
-1227.8804712079734
 30
0.0
 41
1.0
 10
822.99548197925958
 20
-1227.8802448615418
 30
0.0
 41
1.0
 10
822.99480405783129
 20
-1227.8800185151101
 30
0.0
 41
1.0
 10
822.93863524210735
 20
-1227.8612647031255
 30
0.0
 41
0.998943559895633
 10
822.88098185495551
 20
-1227.8477470008909
 30
0.0
 41
1.0
 10
822.87990173537412
 20
-1227.847493750638
 30
0.0
 41
1.0
 10
822.87882161579273
 20
-1227.8472405003849
 30
0.0
 41
1.0
 10
822.81900798947743
 20
-1227.8332162976442
 30
0.0
 41
0.9992249241240507
 10
822.75827648057998
 20
-1227.823940954929
 30
0.0
 41
1.0
 10
822.75686279228921
 20
-1227.8237250465213
 30
0.0
 41
1.0
 10
822.75544910399856
 20
-1227.8235091381134
 30
0.0
 41
1.0
 10
822.69189021851901
 20
-1227.8138019785827
 30
0.0
 41
0.9994396597833685
 10
822.62782428198238
 20
-1227.8083690562371
 30
0.0
 41
1.0
 10
822.60868361450446
 20
-1227.8067458885184
 30
0.0
 41
1.0
 10
822.58954294702653
 20
-1227.8051227207998
 30
0.0
 41
1.0
 10
822.48719567553417
 20
-1227.7964434630167
 30
0.0
 41
0.9987693403121534
 10
822.3844920519474
 20
-1227.7979465264691
 30
0.0
 41
1.0
 10
822.37423771771785
 20
-1227.7980965982433
 30
0.0
 41
1.0
 10
822.36398338348829
 20
-1227.7982466700178
 30
0.0
 41
1.0
 10
822.25442761731153
 20
-1227.7998500143051
 30
0.0
 41
0.9989753644965765
 10
822.14546561729708
 20
-1227.8113530212304
 30
0.0
 41
1.0
 10
822.03650361728046
 20
-1227.8228560281555
 30
0.0
 41
0.998319006730601
 10
821.92960480631541
 20
-1227.8468910199422
 30
0.0
 41
1.0
 10
821.92070385470879
 20
-1227.8488922985048
 30
0.0
 41
1.0
 10
821.91180290310217
 20
-1227.8508935770676
 30
0.0
 41
1.0
 10
821.78710218892331
 20
-1227.8789311259798
 30
0.0
 41
0.998553938830259
 10
821.66613243524534
 20
-1227.9201948020257
 30
0.0
 41
1.0
 10
821.66378700428527
 20
-1227.9209948458415
 30
0.0
 41
1.0
 10
821.66144157332519
 20
-1227.9217948896571
 30
0.0
 41
1.0
 10
821.53578095772525
 20
-1227.9646586533347
 30
0.0
 41
0.9988468746493157
 10
821.41481061542368
 20
-1228.019376738398
 30
0.0
 41
1.0
 10
821.41162779343631
 20
-1228.0208164129572
 30
0.0
 41
1.0
 10
821.40844497144894
 20
-1228.0222560875166
 30
0.0
 41
1.0
 10
821.28110898517161
 20
-1228.0798535216986
 30
0.0
 41
0.9991322885919264
 10
821.15900840111351
 20
-1228.1478488538812
 30
0.0
 41
1.0
 10
821.14140639006962
 20
-1228.1576510558712
 30
0.0
 41
1.0
 10
821.12380437902573
 20
-1228.1674532578609
 30
0.0
 41
1.0
 10
821.02162769796917
 20
-1228.2243533736412
 30
0.0
 41
0.9993860037849316
 10
820.923686693896
 20
-1228.2882693892295
 30
0.0
 41
1.0
 10
820.9180683810464
 20
-1228.2919358839226
 30
0.0
 41
1.0
 10
820.91245006819668
 20
-1228.295602378616
 30
0.0
 41
1.0
 10
820.82574568982523
 20
-1228.3521854048163
 30
0.0
 41
0.9998821494953891
 10
820.74081931400974
 20
-1228.4114036348947
 30
0.0
 41
1.0
 10
820.65589293819789
 20
-1228.4706218649708
 30
0.0
 41
0.9997976482744111
 10
820.57341730779774
 20
-1228.5332082730101
 30
0.0
 41
1.0
 10
820.55878104299063
 20
-1228.5443149627915
 30
0.0
 41
1.0
 10
820.54414477818352
 20
-1228.5554216525729
 30
0.0
 41
1.0
 10
820.43239661816949
 20
-1228.6402214401746
 30
0.0
 41
0.9998091630799486
 10
820.32404634014176
 20
-1228.7293217908762
 30
0.0
 41
1.0
 10
820.31104058766482
 20
-1228.7400168913218
 30
0.0
 41
1.0
 10
820.29803483518776
 20
-1228.7507119917677
 30
0.0
 41
1.0
 10
820.16367305220251
 20
-1228.8612025433638
 30
0.0
 41
0.999503511231741
 10
820.03653717443797
 20
-1228.97993636038
 30
0.0
 41
1.0
 10
820.02688986405155
 20
-1228.988946106537
 30
0.0
 41
1.0
 10
820.01724255366526
 20
-1228.9979558526941
 30
0.0
 41
1.0
 10
819.89381949090136
 20
-1229.1132222244487
 30
0.0
 41
0.999463042429923
 10
819.7782110851183
 20
-1229.236324967683
 30
0.0
 41
1.0
 10
819.77452824634793
 20
-1229.2402465471948
 30
0.0
 41
1.0
 10
819.77084540757755
 20
-1229.2441681267067
 30
0.0
 41
1.0
 10
819.66260267933478
 20
-1229.3594277109175
 30
0.0
 41
0.9995160693750048
 10
819.56173664980236
 20
-1229.4811951287907
 30
0.0
 41
1.0
 10
819.5598029297264
 20
-1229.4835295529929
 30
0.0
 41
1.0
 10
819.55786920965045
 20
-1229.4858639771953
 30
0.0
 41
1.0
 10
819.4608706202747
 20
-1229.6029625466583
 30
0.0
 41
0.9996561470515346
 10
819.37014440160453
 20
-1229.7249853091125
 30
0.0
 41
1.0
 10
819.36398673569875
 20
-1229.73326709816
 30
0.0
 41
1.0
 10
819.35782906979296
 20
-1229.7415488872075
 30
0.0
 41
1.0
 10
819.27941818293289
 20
-1229.8470080715692
 30
0.0
 41
0.9998349055173348
 10
819.20489090100637
 20
-1229.955246655225
 30
0.0
 41
1.0
 10
819.13036361906859
 20
-1230.0634852388969
 30
0.0
 41
0.9999728109566576
 10
819.05744072316145
 20
-1230.1728111644477
 30
0.0
 41
1.0
 10
819.05612550775095
 20
-1230.1747829339483
 30
0.0
 41
1.0
 10
819.05481029234056
 20
-1230.1767547034488
 30
0.0
 41
1.0
 10
818.97925696560537
 20
-1230.2900241680118
 30
0.0
 41
0.9999972147364089
 10
818.90423915520853
 20
-1230.4036490108815
 30
0.0
 41
1.0
 10
818.89926761259835
 20
-1230.4111790993354
 30
0.0
 41
1.0
 10
818.89429606998817
 20
-1230.4187091877893
 30
0.0
 41
1.0
 10
818.80933517437143
 20
-1230.5473942075669
 30
0.0
 41
0.9999371979003795
 10
818.72727982497042
 20
-1230.677951121339
 30
0.0
 41
1.0
 10
818.72377094060585
 20
-1230.6835340494085
 30
0.0
 41
1.0
 10
818.72026205624115
 20
-1230.6891169774781
 30
0.0
 41
1.0
 10
818.63118893811236
 20
-1230.830839747387
 30
0.0
 41
0.9998272025609911
 10
818.54744554722708
 20
-1230.9757756241347
 30
0.0
 41
1.0
 10
818.53223037520479
 20
-1231.0021087385885
 30
0.0
 41
1.0
 10
818.51701520318238
 20
-1231.0284418530423
 30
0.0
 41
1.0
 10
818.40284146825093
 20
-1231.2260439587005
 30
0.0
 41
0.9995217214838552
 10
818.30110177869437
 20
-1231.4303262865649
 30
0.0
 41
1.0
 10
818.29345821606171
 20
-1231.445673736263
 30
0.0
 41
1.0
 10
818.28581465342893
 20
-1231.4610211859613
 30
0.0
 41
1.0
 10
818.19890936083959
 20
-1231.6355176440422
 30
0.0
 41
0.9998269762607375
 10
818.1185548945648
 20
-1231.8131259307711
 30
0.0
 41
1.0
 10
818.03820042829113
 20
-1231.9907342174977
 30
0.0
 41
0.9998944747386495
 10
817.96303963372804
 20
-1232.170601943124
 30
0.0
 41
1.0
 10
817.9580859641344
 20
-1232.1824565980471
 30
0.0
 41
1.0
 10
817.95313229454086
 20
-1232.1943112529702
 30
0.0
 41
1.0
 10
817.87248523399046
 20
-1232.387308192983
 30
0.0
 41
0.9999506734412155
 10
817.79568770508899
 20
-1232.5818689978341
 30
0.0
 41
1.0
 10
817.78108773981705
 20
-1232.6188569196427
 30
0.0
 41
1.0
 10
817.76648777454511
 20
-1232.6558448414512
 30
0.0
 41
1.0
 10
817.71889017618196
 20
-1232.7764298026991
 30
0.0
 41
0.9999912393936301
 10
817.67230373216285
 20
-1232.897409005386
 30
0.0
 41
1.0
 10
817.62571728813941
 20
-1233.0183882080846
 30
0.0
 41
0.9999927113928236
 10
817.58005599373485
 20
-1233.1397196156138
 30
0.0
 41
1.0
 10
817.56608756234277
 20
-1233.1768365975977
 30
0.0
 41
1.0
 10
817.55211913095081
 20
-1233.2139535795816
 30
0.0
 41
1.0
 10
817.47852097376335
 20
-1233.4095189510754
 30
0.0
 41
0.9999487550951886
 10
817.40889734879067
 20
-1233.6065343162604
 30
0.0
 41
1.0
 10
817.38530373885169
 20
-1233.6732976265594
 30
0.0
 41
1.0
 10
817.3617101289127
 20
-1233.7400609368581
 30
0.0
 41
1.0
 10
817.26702449454683
 20
-1234.007994771669
 30
0.0
 41
0.999980843693402
 10
817.17566290590366
 20
-1234.2770802029388
 30
0.0
 41
1.0
 10
817.08430131726459
 20
-1234.5461656341968
 30
0.0
 41
0.9999873932898964
 10
816.99564660854821
 20
-1234.8161549892045
 30
0.0
 41
1.0
 10
816.97555425167684
 20
-1234.8773443219634
 30
0.0
 41
1.0
 10
816.95546189480547
 20
-1234.9385336547225
 30
0.0
 41
1.0
 10
816.82662247234725
 20
-1235.3309016752455
 30
0.0
 41
0.9999794883029431
 10
816.70281968738641
 20
-1235.7248878815324
 30
0.0
 41
1.0
 10
816.69166742795346
 20
-1235.7603784917551
 30
0.0
 41
1.0
 10
816.68051516852051
 20
-1235.7958691019778
 30
0.0
 41
1.0
 10
816.53795700462479
 20
-1236.2495418540589
 30
0.0
 41
0.9999982761774664
 10
816.39708456460289
 20
-1236.7037408762028
 30
0.0
 41
1.0
 10
814.80894423203029
 20
-1241.7525106072062
 30
0.0
 41
1.0
 10
813.22080389945768
 20
-1246.8012803382094
 30
0.0
 41
1.0
 10
812.27205328798129
 20
-1246.8012803382094
 30
0.0
 41
1.0
 10
811.32330267650491
 20
-1246.8012803382094
 30
0.0
 41
1.0
 10
814.56158716265804
 20
-1236.4739581382632
 30
0.0
 41
1.0
 10
817.79987164881129
 20
-1226.1466359383171
 30
0.0
 41
1.0
  0
LWPOLYLINE
  5
5C
100
AcDbEntity
  8
0
370
              15
390
0
  6
Continuous
 62
               7
100
AcDbPolyline
 90
      232
 70
             128
 10
792.09632587498425
 20
-1227.2309787698323
 42
0.000437080068672
 10
792.0434487010283
 20
-1227.2996454089375
 10
792.00416446978477
 20
-1227.3507525219852
 42
0.0030481992184025
 10
791.87382575263314
 20
-1227.5224742143726
 10
791.83531408091517
 20
-1227.5738609981174
 42
0.0042058245760684
 10
791.63132903023813
 20
-1227.8508667432011
 10
791.57892390774464
 20
-1227.923299589972
 42
0.0120948898744145
 10
791.28287999098416
 20
-1228.3540491945196
 10
791.18668749186418
 20
-1228.5015299297413
 42
0.0141601263944036
 10
790.88304344493929
 20
-1228.9971992664812
 10
790.84350617750397
 20
-1229.0660432339293
 42
0.0071131081303115
 10
790.63823385427486
 20
-1229.4355460327511
 42
0.0068458791000639
 10
790.44335432743731
 20
-1229.8106375962163
 10
790.43654246497408
 20
-1229.8241993099509
 42
0.0064120880291031
 10
790.23840021492879
 20
-1230.2316237848718
 10
790.23086552941277
 20
-1230.2476356415909
 42
0.005885723644879
 10
790.02811013754081
 20
-1230.6920117526265
 10
790.01993521124712
 20
-1230.7105019062599
 42
0.0053189741897931
 10
789.81123089857942
 20
-1231.1964653801781
 10
789.80248309289823
 20
-1231.2174472583738
 42
0.004750365041728
 10
789.58650936674962
 20
-1231.7496466915779
 10
789.57724111839934
 20
-1231.7731230676914
 42
0.0042071762170169
 10
789.35269373466667
 20
-1232.3562166617742
 10
789.34294433232299
 20
-1232.3821828366308
 42
0.0036680086484864
 10
789.10848968901337
 20
-1233.0208182211554
 10
789.09828190916312
 20
-1233.0492667555068
 42
0.0032573142628808
 10
788.85264962319491
 20
-1233.7481194152647
 10
788.78399910235214
 20
-1233.9475824993235
 42
0.0026133366648952
 10
788.43555390359779
 20
-1234.9774457829849
 10
788.37229711609439
 20
-1235.1676766183859
 42
0.0020592950739565
 10
788.15843404712996
 20
-1235.819780270991
 10
788.15538225597788
 20
-1235.8292167593668
 42
0.0025609928534415
 10
787.95356175448103
 20
-1236.4643619817666
 10
787.95097038735412
 20
-1236.4726643227079
 42
0.0031362356243305
 10
787.76147960167737
 20
-1237.0934271788867
 10
787.75934855874993
 20
-1237.1005684850977
 42
0.0037229918027942
 10
787.58254817182365
 20
-1237.7095537870719
 10
787.58086958261856
 20
-1237.7155006772414
 42
0.0043077623707895
 10
787.41712878055216
 20
-1238.3153194090155
 42
0.0047654161823937
 10
787.26430005803388
 20
-1238.918005497927
 10
787.22983544919703
 20
-1239.0595672750674
 42
0.0112969368444108
 10
787.0339710910539
 20
-1239.9512594356897
 10
787.00596470195683
 20
-1240.0940874817895
 42
0.0130056762570143
 10
786.80512745831015
 20
-1241.2810285534345
 10
786.78458770816223
 20
-1241.4251066669176
 42
0.0138721532145682
 10
786.68088470362522
 20
-1242.3319361527372
 10
786.66158921571719
 20
-1242.5554338746633
 42
0.0071254697008213
 10
786.62824256979479
 20
-1243.0186208835094
 10
786.6232815956314
 20
-1243.1046248780708
 42
0.0028881799205408
 10
786.60814330234166
 20
-1243.3963665879123
 42
0.0060297297136435
 10
786.5982111025661
 20
-1243.6883155240259
 10
786.59714882089895
 20
-1243.7367078959603
 42
0.0229523164156367
 10
786.60487984868473
 20
-1244.0594627422438
 10
786.60910562220511
 20
-1244.1198662762602
 42
0.012367330066585
 10
786.62818426872343
 20
-1244.3209870014348
 42
0.012857767446801
 10
786.65737965913013
 20
-1244.5208848513637
 10
786.66450553251673
 20
-1244.5622136659586
 42
0.0285717853763804
 10
786.72899953421245
 20
-1244.8403298172716
 10
786.74266805787909
 20
-1244.8869845867493
 42
0.0316283099165083
 10
786.85847863779304
 20
-1245.2059990885748
 10
786.86152732954906
 20
-1245.2129854609013
 42
0.0338984824236821
 10
787.01095904051579
 20
-1245.5005514250895
 10
787.01326776988503
 20
-1245.5043424543642
 42
0.035022871835043
 10
787.19562806055922
 20
-1245.7613944390423
 10
787.19651331233501
 20
-1245.7624735168072
 42
0.0347476747533647
 10
787.41093799957434
 20
-1245.9896585640263
 42
0.0331337701907995
 10
787.65418132532
 20
-1246.1857872261035
 10
787.65528142383687
 20
-1246.1865599292764
 42
0.0305233319080726
 10
787.92382611940968
 20
-1246.3516880993673
 10
787.9270561639114
 20
-1246.3534121112302
 42
0.0273744481155018
 10
788.21960987548619
 20
-1246.489550255121
 10
788.22471441062328
 20
-1246.4915938395905
 42
0.0240964406194732
 10
788.54019148626719
 20
-1246.6005775658712
 10
788.54677481547901
 20
-1246.6025023055467
 42
0.0209636179814752
 10
788.88417496813338
 20
-1246.6859704534793
 10
788.89180742858025
 20
-1246.6875223664804
 42
0.0181388704693088
 10
789.25012982058001
 20
-1246.7469384596945
 10
789.25841066895691
 20
-1246.7480046435114
 42
0.0156086547584195
 10
789.63659803314169
 20
-1246.7847408300879
 10
789.67979328547415
 20
-1246.787579332567
 42
0.0137148329026326
 10
790.00746643077161
 20
-1246.8000995878183
 10
790.05340262071047
 20
-1246.8005940209334
 42
0.0051057823885904
 10
790.28954820728984
 20
-1246.8007242753429
 42
0.005225669330891
 10
790.52564549106967
 20
-1246.7959754508786
 10
790.59587227481791
 20
-1246.7938284848644
 42
0.0161507179049696
 10
790.97160935292106
 20
-1246.7701781145377
 10
790.99162231329228
 20
-1246.7682679192503
 42
0.0101216737831718
 10
791.40564953477849
 20
-1246.7202749888854
 10
791.43970282420969
 20
-1246.7156272920752
 42
0.0245291776399241
 10
791.91649247976068
 20
-1246.6265522139988
 10
792.00131579528761
 20
-1246.6063562936524
 42
0.0143509212560938
 10
792.35794689922443
 20
-1246.5105516598742
 42
0.0156557857042966
 10
792.70816296395344
 20
-1246.3935404440547
 10
792.71566417844633
 20
-1246.3907702823012
 42
0.0170137333631154
 10
793.07226017413075
 20
-1246.2451126674289
 10
793.07936409653519
 20
-1246.2419248318665
 42
0.0183105364405521
 10
793.43871376469656
 20
-1246.0645897900449
 10
793.44566052934022
 20
-1246.0608393551702
 42
0.0194899958150238
 10
793.80414127032407
 20
-1245.8488603732794
 10
793.81115514966086
 20
-1245.8443350309844
 42
0.0204869852948348
 10
794.16516945175465
 20
-1245.5948150158988
 10
794.17243506034185
 20
-1245.5892349505502
 42
0.0212516938557143
 10
794.51842499145368
 20
-1245.2993309536521
 10
794.56494168552467
 20
-1245.2568636435626
 42
0.0215248918249947
 10
794.82496785441322
 20
-1244.9980993645672
 10
794.86999758880222
 20
-1244.9492552432084
 42
0.0114578554962938
 10
795.02478974247106
 20
-1244.7734323097593
 10
795.03598427844429
 20
-1244.7601135462298
 42
0.0061531305124817
 10
795.16245892445215
 20
-1244.6058240129082
 42
0.0006325587117557
 10
795.2868374085233
 20
-1244.4498206373337
 10
795.30987754365538
 20
-1244.420847116573
 42
0.0041897761556144
 10
795.47833294763791
 20
-1244.2053277404987
 10
795.5367950675203
 20
-1244.1292263935261
 42
0.0092993880040992
 10
795.81340699475197
 20
-1243.7549476296308
 10
795.89580148794403
 20
-1243.6390106260719
 42
0.0159321727087386
 10
796.2424079705853
 20
-1243.1168364053174
 10
796.28676410596836
 20
-1243.0451568410772
 42
0.0085547317021464
 10
796.52127587130008
 20
-1242.6512818918427
 42
0.0084601156889558
 10
796.7422520487446
 20
-1242.2496550428064
 10
796.75036752257256
 20
-1242.2342953605375
 42
0.0081429654284617
 10
796.9736167930065
 20
-1241.7945738480041
 10
796.98247695719408
 20
-1241.7763950059775
 42
0.0076574581329366
 10
797.20888446776644
 20
-1241.2932121307119
 10
797.21836410848448
 20
-1241.2721476524212
 42
0.0070682724201494
 10
797.44880901629597
 20
-1240.7401103476288
 10
797.45879930027297
 20
-1240.7161211586285
 42
0.0064559514447286
 10
797.69413250845264
 20
-1240.1298088921144
 10
797.70454186661959
 20
-1240.1028739666672
 42
0.0058311413907934
 10
797.94558860338043
 20
-1239.456841872289
 10
797.95634368076992
 20
-1239.4269575311232
 42
0.005231242581777
 10
798.20392495880856
 20
-1238.715755117295
 10
798.21496879519054
 20
-1238.6829284052187
 42
0.0046680544798239
 10
798.46989722292676
 20
-1237.9011020894584
 10
798.51188937296877
 20
-1237.7681188521715
 42
0.0041666856446706
 10
798.71517538536364
 20
-1237.1051500771664
 10
798.75283782602139
 20
-1236.9785689695332
 42
0.0015170975155582
 10
798.87402440444043
 20
-1236.566700618019
 42
-0.0004887993114614
 10
798.99436417753134
 20
-1236.1545822060873
 10
799.07084143505858
 20
-1235.8936248200359
 42
0.0002583378928388
 10
799.34405600514333
 20
-1234.9595681167868
 10
799.42582885469278
 20
-1234.6794688572968
 42
0.0006636169672361
 10
799.61969661471085
 20
-1234.0121159336868
 10
799.62479326906225
 20
-1233.9944843507915
 42
0.0010589131321165
 10
799.80624196997451
 20
-1233.3617530077579
 10
799.81122404044731
 20
-1233.3442401007649
 42
0.0015655524460552
 10
799.97949424763783
 20
-1232.7456234215369
 10
799.98432444804507
 20
-1232.7282312626289
 42
0.0021640440478376
 10
800.13861442003872
 20
-1232.1632042445831
 10
800.14324863946774
 20
-1232.1459395145926
 42
0.0028763871849035
 10
800.28276435752173
 20
-1231.6139715637421
 10
800.28715022168353
 20
-1231.5968475856089
 42
0.0037310511945696
 10
800.41110691352583
 20
-1231.0973999915636
 10
800.41518213381596
 20
-1231.0804397203135
 42
0.0047652197772017
 10
800.52280603432325
 20
-1230.6129619520132
 10
800.52649663364718
 20
-1230.5962023968605
 42
0.0060276699302575
 10
800.61702673280024
 20
-1230.160126601719
 10
800.62024542309086
 20
-1230.1436253874019
 42
0.0075824337762738
 10
800.69293473250491
 20
-1229.7383582229836
 10
800.69558010988692
 20
-1229.7222032755228
 42
0.0095130624608909
 10
800.74969534551633
 20
-1229.3471139224612
 10
800.75668156939957
 20
-1229.2911803643399
 42
0.012105465322536
 10
800.78327289997685
 20
-1229.0262845358709
 10
800.78413938973677
 20
-1229.0148810929372
 42
0.0069050827386158
 10
800.79922820777415
 20
-1228.7719398660975
 10
800.80036350744285
 20
-1228.7484136090482
 42
0.0169063976709737
 10
800.80319078642287
 20
-1228.552220881752
 10
800.80202013489179
 20
-1228.4918851204072
 42
0.0052007732893607
 10
800.79976668629865
 20
-1228.4162917302508
 42
0.0054038123303467
 10
800.7798031744569
 20
-1228.2962734342243
 10
800.77471731858941
 20
-1228.2676149476597
 42
0.0112050460456084
 10
800.7393329565316
 20
-1228.0912885093244
 10
800.72150799449014
 20
-1228.0117469225997
 42
0.0240764468009505
 10
800.63061062834413
 20
-1227.6815098870991
 10
800.6120518655307
 20
-1227.6248897221053
 42
0.0256812331835538
 10
800.468688945341
 20
-1227.2531655158475
 10
800.46327951951912
 20
-1227.2410341808566
 42
0.0268360501221215
 10
800.29385227866976
 20
-1226.9100410468368
 10
800.28831587103537
 20
-1226.9005213765256
 42
0.0274670231731248
 10
800.09611489462145
 20
-1226.6082340016073
 10
800.09073359465799
 20
-1226.6009548540649
 42
0.0275035967106792
 10
799.87916071509699
 20
-1226.3454389637618
 10
799.87409121413123
 20
-1226.3399598761323
 42
0.0269557673522599
 10
799.64668767069088
 20
-1226.119317590169
 10
799.64194461290856
 20
-1226.1151876357085
 42
0.0259124802209871
 10
799.4023897814775
 20
-1225.9274971085561
 10
799.3978589362946
 20
-1225.924311606225
 42
0.0245162153001674
 10
799.14994258320075
 20
-1225.7675785971151
 10
799.14541603687849
 20
-1225.7650183999153
 42
0.0229282588830732
 10
798.89299648004919
 20
-1225.6371502074153
 10
798.88821598621155
 20
-1225.6349979076529
 42
0.0212984135693555
 10
798.63517803375066
 20
-1225.533798990411
 10
798.62987374878128
 20
-1225.531935427651
 42
0.0197555462338676
 10
798.38009541105816
 20
-1225.4551200096862
 42
0.0183511896787249
 10
798.12516668559306
 20
-1225.3975371027204
 10
798.0388014888714
 20
-1225.3813343123356
 42
0.0338057877149333
 10
797.75329413961174
 20
-1225.3475259071956
 10
797.66228873455736
 20
-1225.3429462519334
 42
0.0091990524504699
 10
797.5564416259358
 20
-1225.339570396012
 42
0.0028333980775596
 10
797.45052770994835
 20
-1225.3387422884953
 10
797.44961225689349
 20
-1225.3387403186712
 42
-0.0023619827799869
 10
797.34186624176129
 20
-1225.3379994775926
 10
797.30546107161172
 20
-1225.3375771711299
 42
0.0008824598484119
 10
797.12490508179201
 20
-1225.3358013928919
 10
797.08104364935593
 20
-1225.335447431366
 42
0.0038132665772459
 10
796.81276075348353
 20
-1225.3353284952993
 10
796.79622709868363
 20
-1225.3354472614428
 42
0.0060665569338302
 10
796.4949466070824
 20
-1225.341267560864
 10
796.48069627506698
 20
-1225.3417158688312
 42
0.0080356953336592
 10
796.15123755872366
 20
-1225.3573835908983
 10
796.1391675436405
 20
-1225.3581521738386
 42
0.0098996399107838
 10
795.78640445898884
 20
-1225.3876374030369
 10
795.77635874961493
 20
-1225.3886776992349
 42
0.0117740981366808
 10
795.40520189126755
 20
-1225.4359699467645
 10
795.39697919478363
 20
-1225.4372150633355
 42
0.0137435215133858
 10
795.01239037529626
 20
-1225.5063120368975
 10
795.00573333617513
 20
-1225.5076979331307
 42
0.0158359869383554
 10
794.61273624237765
 20
-1225.6025900216102
 10
794.6073230555055
 20
-1225.604079962482
 42
0.0180554124023851
 10
794.21100801089619
 20
-1225.7287179787195
 10
794.20645122280973
 20
-1225.730334014987
 42
0.0203657431284365
 10
793.81197370499433
 20
-1225.8885943565047
 10
793.80783016599105
 20
-1225.8904559779448
 42
0.0226819684655207
 10
793.4203941097901
 20
-1226.0860985566142
 10
793.41619431876927
 20
-1226.0884641485354
 42
0.0248634984608121
 10
793.04101237758459
 20
-1226.3250907944853
 10
792.99281744880489
 20
-1226.3589478363081
 42
0.0267044190884904
 10
792.71852475188757
 20
-1226.5743882121765
 42
0.0139303002199051
 10
792.46235758594571
 20
-1226.8116270530916
 10
792.45750420022785
 20
-1226.8163797159486
 42
0.0283460963441647
 10
792.21343160600088
 20
-1227.0841103763935
 10
792.1737631008441
 20
-1227.1329119538668
 42
0.0070695364826314
 10
792.09632587498425
 20
-1227.2309787698323
 42
0.0070695364826314
  0
LWPOLYLINE
  5
5D
100
AcDbEntity
  8
0
370
              15
390
0
  6
Continuous
 62
               7
100
AcDbPolyline
 90
      226
 70
             128
 10
788.56750543773785
 20
-1242.9525675760162
 42
-0.0026277636629027
 10
788.5674275539377
 20
-1242.8857956503052
 10
788.56764491216984
 20
-1242.83264043283
 42
-0.0088680296729824
 10
788.57142152846279
 20
-1242.6596246504294
 10
788.57376788757529
 20
-1242.6003446249733
 42
-0.0077381705614293
 10
788.58981399833851
 20
-1242.3090841291744
 10
788.59068190951155
 20
-1242.29679589549
 42
-0.0068872530535522
 10
788.61731398925997
 20
-1241.9815741434188
 10
788.61851821344578
 20
-1241.9693331644025
 42
-0.0062130021484058
 10
788.65611193027314
 20
-1241.6304634731673
 10
788.65761583380868
 20
-1241.6182896012474
 42
-0.0056726929671907
 10
788.70653769330966
 20
-1241.256094379143
 10
788.70831113895542
 20
-1241.2440005788885
 42
-0.0052341884490022
 10
788.76892172521787
 20
-1240.8588073233559
 10
788.77093971399199
 20
-1240.8468023933783
 42
-0.0049768450169204
 10
788.84367839541733
 20
-1240.4389578259515
 10
788.86792741014017
 20
-1240.3104098429399
 42
-0.0089029805625812
 10
789.0050082619365
 20
-1239.6486343955103
 10
789.03775363725345
 20
-1239.5036029649939
 42
-0.0080318257101632
 10
789.26730225159383
 20
-1238.5578933331417
 10
789.27928717804241
 20
-1238.51176269795
 42
-0.0074265721317403
 10
789.56329871689411
 20
-1237.4816981195638
 10
789.58317826001098
 20
-1237.4135640589739
 42
-0.0069711922702325
 10
789.91048283851569
 20
-1236.3472963186523
 10
789.97043478561989
 20
-1236.1612749602857
 42
-0.0052070422896343
 10
790.19986001088046
 20
-1235.4740028832503
 10
790.21714120304864
 20
-1235.4239756026448
 42
-0.0009167004448772
 10
790.42023309034221
 20
-1234.8395197544792
 42
-0.0025162726944565
 10
790.62733072061121
 20
-1234.2564784902984
 10
790.66455533241037
 20
-1234.1533289444103
 42
-0.0028212681456328
 10
790.91273125137332
 20
-1233.4775983122399
 10
790.92256201412192
 20
-1233.4512908675688
 42
-0.0031964916820134
 10
791.15885427178625
 20
-1232.8310861054363
 10
791.1684887257835
 20
-1232.8062761152976
 42
-0.003628183645141
 10
791.39359468688644
 20
-1232.2388354343998
 10
791.40303309704268
 20
-1232.2155380029001
 42
-0.0041269166835658
 10
791.61765079370309
 20
-1231.6980971069188
 10
791.65028375012423
 20
-1231.6212186605569
 42
-0.00474722130556
 10
791.80732855567749
 20
-1231.2607971926743
 10
791.81422263688921
 20
-1231.2453765953346
 42
-0.0025651659995044
 10
791.96258067073586
 20
-1230.9180485395939
 42
-0.0057144634992085
 10
792.11633036450928
 20
-1230.593238866227
 10
792.14436106990695
 20
-1230.5357304838401
 42
-0.0065388068374168
 10
792.32782809764819
 20
-1230.1714979871722
 10
792.33628655342443
 20
-1230.155238407807
 42
-0.0074510843022142
 10
792.51246879930454
 20
-1229.8285501266801
 10
792.52064846983319
 20
-1229.8139093494153
 42
-0.0084648979862724
 10
792.69028232293567
 20
-1229.52200033845
 10
792.69813844942269
 20
-1229.5089933468009
 42
-0.0095638542811604
 10
792.86197389701795
 20
-1229.2491044748206
 10
792.86944884069533
 20
-1229.2377351133566
 42
-0.010719162680275
 10
793.02825042107725
 20
-1229.0071238788209
 10
793.03526715480257
 20
-1228.9973877864643
 42
-0.0118458573906501
 10
793.18981525332083
 20
-1228.7933155911458
 42
-0.0129184518185228
 10
793.35426787693177
 20
-1228.5971550749648
 10
793.38441264928622
 20
-1228.563028996075
 42
-0.0217742579632316
 10
793.56102497162078
 20
-1228.3798222258256
 10
793.57177051607755
 20
-1228.369605392626
 42
-0.00972665686481
 10
793.73782813493699
 20
-1228.2177578181854
 42
-0.01877209057252
 10
793.91217571082575
 20
-1228.0756889647969
 10
793.94288170150014
 20
-1228.0525298824004
 42
-0.017942820751842
 10
794.17530242149678
 20
-1227.8899777052884
 10
794.17895474841339
 20
-1227.8876137704001
 42
-0.0170047877698938
 10
794.41471838594293
 20
-1227.7461532562493
 10
794.41850137468964
 20
-1227.7440549512128
 42
-0.0160190788367309
 10
794.65540992232479
 20
-1227.6224036492249
 42
-0.0151102861498193
 10
794.89944170476963
 20
-1227.5157208731709
 10
794.95182820698324
 20
-1227.4946807402755
 42
-0.0271945441887468
 10
795.31049076604347
 20
-1227.372815929569
 10
795.37955556652798
 20
-1227.3534663883036
 42
-0.0237596594021213
 10
795.79535241355211
 20
-1227.2580156763215
 10
795.86341526727733
 20
-1227.2457609881956
 42
-0.0213715440554287
 10
796.14929019872784
 20
-1227.206813956685
 10
796.20943736494394
 20
-1227.2012242419844
 42
-0.0101465655820982
 10
796.37692989693994
 20
-1227.1890806987199
 10
796.38627028314011
 20
-1227.1885937837226
 42
-0.0100375910877096
 10
796.53542438370073
 20
-1227.1838179657975
 10
796.54568365337468
 20
-1227.1836955267831
 42
-0.0103625633385052
 10
796.67439164803591
 20
-1227.1848269603097
 10
796.69665729930693
 20
-1227.1854843187748
 42
-0.0115689250227297
 10
796.78070803683079
 20
-1227.1899138250196
 42
-0.0072438037431165
 10
796.86454631626361
 20
-1227.1975030247684
 10
796.88134682574275
 20
-1227.1992695674933
 42
-0.0217917313140404
 10
796.99791658905724
 20
-1227.2166894602146
 10
797.06351667962565
 20
-1227.2294360686294
 42
-0.0332943556754246
 10
797.2679088446514
 20
-1227.2834763599358
 10
797.29808141320291
 20
-1227.2936444370546
 42
-0.0184824084784532
 10
797.43658646966696
 20
-1227.3460954524407
 42
-0.019800205069301
 10
797.57066081016626
 20
-1227.4089795126401
 10
797.57254744754323
 20
-1227.4099572995201
 42
-0.0212242342977653
 10
797.70468638994407
 20
-1227.4857200383126
 10
797.70650168548855
 20
-1227.4868658405217
 42
-0.0226090605804877
 10
797.83500558671051
 20
-1227.5763454840862
 10
797.83685002844777
 20
-1227.5777577370736
 42
-0.0238457052240648
 10
797.96003210974061
 20
-1227.6817536329359
 10
797.96198483829971
 20
-1227.6835685107021
 42
-0.02481605641542
 10
798.07818634560044
 20
-1227.802843111911
 10
798.08028997900237
 20
-1227.8052284456153
 42
-0.0254109591454831
 10
798.18789519686902
 20
-1227.9405168315805
 10
798.1901432187824
 20
-1227.9436583799802
 42
-0.0255528488285639
 10
798.28758989757955
 20
-1228.0956854342141
 10
798.28992099749576
 20
-1228.0997670458219
 42
-0.0252146793216746
 10
798.37570202350548
 20
-1228.2692692918204
 10
798.37800426266244
 20
-1228.2744513737318
 42
-0.0244265635950443
 10
798.45065895642392
 20
-1228.4621979457784
 10
798.45990535789156
 20
-1228.4900633641137
 42
-0.0231319612912907
 10
798.50582813688436
 20
-1228.6533644109179
 42
-0.0112130424362803
 10
798.54046415942264
 20
-1228.819568011106
 10
798.54166668453513
 20
-1228.826064597994
 42
-0.0210527881241655
 10
798.56735315990591
 20
-1229.0071202434356
 10
798.57086375472772
 20
-1229.0425257919824
 42
-0.0190029892425255
 10
798.58630522827229
 20
-1229.2960616382541
 10
798.58711520471638
 20
-1229.3315372526235
 42
-0.0137974553656505
 10
798.58556635188063
 20
-1229.6565686593635
 10
798.58472089692532
 20
-1229.6826874039477
 42
-0.0081336634216455
 10
798.56986156170274
 20
-1229.9880348715492
 42
-0.007352692357584
 10
798.54555302832807
 20
-1230.2927831158356
 10
798.54429160454538
 20
-1230.3061197905004
 42
-0.0066886138698013
 10
798.50855601849833
 20
-1230.6367058340015
 10
798.50689892902892
 20
-1230.6503274529891
 42
-0.0061359187358944
 10
798.45904832697784
 20
-1231.0070914330902
 10
798.45701082590517
 20
-1231.0209862359184
 42
-0.0056698610059447
 10
798.39636049513672
 20
-1231.404264804765
 10
798.39395506181518
 20
-1231.4184239239871
 42
-0.0052721077272021
 10
798.31982286101277
 20
-1231.8285512636794
 10
798.31705971217377
 20
-1231.842967899051
 42
-0.0049289272178023
 10
798.22876559407439
 20
-1232.2802764101702
 10
798.22565309939114
 20
-1232.2949452629891
 42
-0.0047415956711688
 10
798.1224151078593
 20
-1232.7597420203979
 10
798.0876468974991
 20
-1232.909549115783
 42
-0.0084404470902261
 10
797.89763045392601
 20
-1233.6697731403187
 10
797.89150376594159
 20
-1233.6926372644675
 42
-0.0039635940259113
 10
797.67005008165847
 20
-1234.4936261287119
 10
797.65667328647805
 20
-1234.5405577453066
 42
-0.0072475040835863
 10
797.3892263986146
 20
-1235.4297774616984
 10
797.31901407178827
 20
-1235.6515178116672
 42
-0.0051345458828681
 10
797.0322546997287
 20
-1236.5258429994801
 10
797.01072843295424
 20
-1236.5892692666305
 42
-0.0019150016601562
 10
796.7551950260945
 20
-1237.3328183868362
 10
796.74872742169919
 20
-1237.3514058517546
 42
-0.0021524362752397
 10
796.50024937063449
 20
-1238.0557316734657
 10
796.49103894995369
 20
-1238.0814852517235
 42
-0.0024331286820157
 10
796.25478369090206
 20
-1238.7320845598852
 10
796.24573573834925
 20
-1238.7566278662457
 42
-0.0027449721789461
 10
796.02112116751607
 20
-1239.3557577451641
 10
796.01223116012159
 20
-1239.3790803350221
 42
-0.0031083229767597
 10
795.79868867351388
 20
-1239.929004372596
 10
795.78995254183792
 20
-1239.9510940884547
 42
-0.003531134328209
 10
795.58691135624645
 20
-1240.4540772141838
 10
795.57832601709822
 20
-1240.4749199376956
 42
-0.0040245640950515
 10
795.38521421330438
 20
-1240.9332292602867
 10
795.37677809970387
 20
-1240.9528086283528
 42
-0.0046015135850799
 10
795.19302180653756
 20
-1241.3687136580008
 10
795.18473562871168
 20
-1241.3870107974478
 42
-0.0052768638267961
 10
795.00975810975365
 20
-1241.7627836817232
 10
795.00162589912657
 20
-1241.7797770202667
 42
-0.0060672675643918
 10
794.83484628636074
 20
-1242.1176926433807
 10
794.82687680587537
 20
-1242.1333579023856
 42
-0.0069904648871425
 10
794.66770841187781
 20
-1242.4356937090415
 10
794.65991701226949
 20
-1242.4500042582645
 42
-0.0080637022766019
 10
794.50776515192115
 20
-1242.7190395614221
 10
794.5001761192857
 20
-1242.73196742703
 42
-0.0093006455661737
 10
794.35443544275836
 20
-1242.9699818255258
 10
794.34708477602112
 20
-1242.9814997946889
 42
-0.0107060778062203
 10
794.2071362325762
 20
-1243.1907701120781
 10
794.20007446429747
 20
-1243.2008556546427
 42
-0.0122723111413049
 10
794.06528074609855
 20
-1243.3836489841328
 10
794.06495452254705
 20
-1243.3840693719392
 42
-0.0141836319637607
 10
793.92137291957033
 20
-1243.558639129772
 10
793.9144251639209
 20
-1243.5666141300339
 42
-0.017595747721141
 10
793.77451899588368
 20
-1243.7162350184417
 42
-0.0080466359676197
 10
793.62705523085549
 20
-1243.8585575465911
 10
793.58102068633605
 20
-1243.9015779846841
 42
-0.0269600260389867
 10
793.3277404403525
 20
-1244.1139012431938
 10
793.26117330405566
 20
-1244.1638526578174
 42
-0.0178362839753568
 10
793.02122881440027
 20
-1244.3308705840695
 10
793.01398384340246
 20
-1244.3355390962727
 42
-0.0174650732653836
 10
792.7776476459585
 20
-1244.4764000612336
 42
-0.0169240130164982
 10
792.53218140010051
 20
-1244.6006923210111
 10
792.48619524454307
 20
-1244.6220542765782
 42
-0.0318883036843644
 10
792.13584438892428
 20
-1244.7583925860879
 10
792.06747885375728
 20
-1244.7800932065641
 42
-0.0284435909902527
 10
791.69142872746727
 20
-1244.8763106420383
 10
791.65627056696985
 20
-1244.8832042378665
 42
-0.0243909341017548
 10
791.34282710604975
 20
-1244.928925268897
 10
791.29254637927647
 20
-1244.9337708157989
 42
-0.0196639292929421
 10
791.07695080175131
 20
-1244.9460191013122
 10
791.02512673058709
 20
-1244.946922362049
 42
-0.0100501510681528
 10
790.91270344892359
 20
-1244.9466219636959
 10
790.8810435875755
 20
-1244.9459008918104
 42
-0.00197520311135
 10
790.83195125089821
 20
-1244.944588731601
 10
790.82919094767499
 20
-1244.9445040397748
 42
0.006537875201722
 10
790.78561437292137
 20
-1244.9437371485596
 42
-0.0167974694675468
 10
790.7420835499903
 20
-1244.9420772500334
 10
790.73800421072747
 20
-1244.9417842391385
 42
-0.0081283276286961
 10
790.68644441299352
 20
-1244.9372372455014
 10
790.67470483911029
 20
-1244.9360093279224
 42
-0.0126703440179499
 10
790.59998654332071
 20
-1244.9262745368517
 10
790.57719867564015
 20
-1244.9227162809357
 42
-0.011785208842533
 10
790.45765968980345
 20
-1244.9011532857778
 10
790.40227923804468
 20
-1244.889809745544
 42
-0.025177459229152
 10
790.17543519903779
 20
-1244.8313117361115
 10
790.13071600918431
 20
-1244.8173449167755
 42
-0.0146525199879447
 10
789.94432302164728
 20
-1244.7530783895777
 42
-0.0166929435851788
 10
789.76234536552045
 20
-1244.677271256523
 10
789.75768873424749
 20
-1244.675146355909
 42
-0.0191684358438442
 10
789.57250510299923
 20
-1244.5819102721196
 10
789.56917251724121
 20
-1244.5800690245655
 42
-0.0221181781818212
 10
789.38586221333878
 20
-1244.4679355261947
 10
789.38351240933059
 20
-1244.4663512282038
 42
-0.0254984685381532
 10
789.20722225894417
 20
-1244.3339400782331
 10
789.18474011124363
 20
-1244.3151877692981
 42
-0.0292492648809928
 10
789.05997117240031
 20
-1244.1980949696549
 42
-0.0159048957497879
 10
788.94613117495101
 20
-1244.0700749780569
 10
788.94481238437083
 20
-1244.0684933650359
 42
-0.0343813379553262
 10
788.84217512274404
 20
-1243.9266220392653
 10
788.81068359138374
 20
-1243.8761186471722
 42
-0.0369117275700322
 10
788.72479108948653
 20
-1243.7126414062238
 42
-0.0191751379909759
 10
788.65759770393004
 20
-1243.5402368002194
 10
788.65583438017006
 20
-1243.535143455543
 42
-0.0378178042225821
 10
788.60603966138547
 20
-1243.3462026794602
 10
788.60004436565578
 20
-1243.3136420612661
 42
-0.0184846046481152
 10
788.57932716636105
 20
-1243.1718892407198
 42
-0.017986635131631
 10
788.56899416128749
 20
-1243.0289984276394
 10
788.56893771884165
 20
-1243.0274407410261
 42
-0.0085497186109237
 10
788.56750543773785
 20
-1242.9525675760162
 42
-0.0085497186109237
  0
ENDBLK
  5
5E
100
AcDbEntity
  8
template
390
0
100
AcDbBlockEnd
  0
BLOCK
  5
5F
100
AcDbEntity
  8
template
390
0
100
AcDbBlockBegin
  2
*D2
 70
               1
 10
0.0
 20
0.0
 30
0.0
  3
*D2
  1

  0
LINE
  5
60
100
AcDbEntity
  8
0
370
              -2
390
0
  6
Continuous
 62
               0
100
AcDbLine
 10
-683.42034579639972
 20
-454.1330928420856
 30
0.0
 11
-765.79534579639972
 21
-454.1330928420856
 31
0.0
  0
LINE
  5
61
100
AcDbEntity
  8
0
370
              -2
390
0
  6
Continuous
 62
               0
100
AcDbLine
 10
-668.42034579639972
 20
-479.1330928420856
 30
0.0
 11
-765.79534579639972
 21
-479.1330928420856
 31
0.0
  0
LINE
  5
62
100
AcDbEntity
  8
0
370
              -2
390
0
  6
Continuous
 62
               0
100
AcDbLine
 10
-765.79534579639972
 20
-454.1330928420856
 30
0.0
 11
-765.79534579639972
 21
-413.25
 31
0.0
  0
LINE
  5
63
100
AcDbEntity
  8
0
370
              -2
390
0
  6
Continuous
 62
               0
100
AcDbLine
 10
-765.79534579639972
 20
-454.1330928420856
 30
0.0
 11
-765.79534579639972
 21
-479.1330928420856
 31
0.0
  0
CIRCLE
  5
64
102
{ACAD_REACTORS
330
65
102
}
100
AcDbEntity
  8
0
370
              -2
390
0
  6
Continuous
 62
               0
100
AcDbCircle
 10
-765.79534579639972
 20
-454.1330928420856
 30
0.0
 40
4.99969482421875
  0
HATCH
  5
65
100
AcDbEntity
  8
0
370
              -2
390
0
  6
Continuous
 62
               0
100
AcDbHatch
 10
0.0
 20
0.0
 30
0.0
210
0.0
220
0.0
230
1.0
  2
SOLID
 70
               1
 71
               1
 91
        1
 92
        1
 93
        1
 72
               2
 10
-765.79534579639972
 20
-454.1330928420856
 40
4.99969482421875
 50
0.0
 51
360.0
 73
               0
 97
        1
330
64
 75
               0
 76
               1
 98
        1
 10
0.0
 20
0.0
  0
CIRCLE
  5
66
102
{ACAD_REACTORS
330
67
102
}
100
AcDbEntity
  8
0
370
              -2
390
0
  6
Continuous
 62
               0
100
AcDbCircle
 10
-765.79534579639972
 20
-479.1330928420856
 30
0.0
 40
4.99969482421875
  0
HATCH
  5
67
100
AcDbEntity
  8
0
370
              -2
390
0
  6
Continuous
 62
               0
100
AcDbHatch
 10
0.0
 20
0.0
 30
0.0
210
0.0
220
0.0
230
1.0
  2
SOLID
 70
               1
 71
               1
 91
        1
 92
        1
 93
        1
 72
               2
 10
-765.79534579639972
 20
-479.1330928420856
 40
4.99969482421875
 50
0.0
 51
360.0
 73
               0
 97
        1
330
66
 75
               0
 76
               1
 98
        1
 10
0.0
 20
0.0
  0
MTEXT
  5
68
100
AcDbEntity
  8
0
390
0
 62
               0
100
AcDbMText
 10
-799.67296298389977
 20
-445.0
 30
0.0
 40
24.432617187500004
 41
0.0
 71
               1
 72
               1
  1
25
  7
ＭＳ ゴシック
 11
0.0
 21
1.0
 31
0.0
 73
               1
 44
0.7828267384257843
  0
POINT
  5
69
100
AcDbEntity
  8
Defpoints
370
               0
390
0
 62
               0
100
AcDbPoint
 10
-643.42034579639972
 20
-479.1330928420856
 30
0.0
  0
POINT
  5
6A
100
AcDbEntity
  8
Defpoints
370
               0
390
0
 62
               0
100
AcDbPoint
 10
-658.42034579639972
 20
-454.1330928420856
 30
0.0
  0
POINT
  5
6B
100
AcDbEntity
  8
Defpoints
370
               0
390
0
 62
               0
100
AcDbPoint
 10
-765.79534579639972
 20
-454.1330928420856
 30
0.0
  0
ENDBLK
  5
6C
100
AcDbEntity
  8
template
390
0
100
AcDbBlockEnd
  0
BLOCK
  5
6D
100
AcDbEntity
  8
notes
390
0
100
AcDbBlockBegin
  2
*D3
 70
               1
 10
0.0
 20
0.0
 30
0.0
  3
*D3
  1

  0
LINE
  5
6E
100
AcDbEntity
  8
0
370
              -2
390
0
  6
Continuous
 62
               0
100
AcDbLine
 10
-63.420345796399999
 20
789.00538010454375
 30
0.0
 11
-63.420345796400028
 21
914.00538010454397
 31
0.0
  0
LINE
  5
6F
100
AcDbEntity
  8
0
370
              -2
390
0
  6
Continuous
 62
               0
100
AcDbLine
 10
-663.42034579639972
 20
789.00538010454375
 30
0.0
 11
-663.42034579639972
 21
914.00538010454397
 31
0.0
  0
LINE
  5
70
100
AcDbEntity
  8
0
370
              -2
390
0
  6
Continuous
 62
               0
100
AcDbLine
 10
-63.420345796400028
 20
914.00538010454397
 30
0.0
 11
-663.42034579639972
 21
914.00538010454397
 31
0.0
  0
CIRCLE
  5
71
102
{ACAD_REACTORS
330
72
102
}
100
AcDbEntity
  8
0
370
              -2
390
0
  6
Continuous
 62
               0
100
AcDbCircle
 10
-63.420345796400028
 20
914.00538010454397
 30
0.0
 40
4.99969482421875
  0
HATCH
  5
72
100
AcDbEntity
  8
0
370
              -2
390
0
  6
Continuous
 62
               0
100
AcDbHatch
 10
0.0
 20
0.0
 30
0.0
210
0.0
220
0.0
230
1.0
  2
SOLID
 70
               1
 71
               1
 91
        1
 92
        1
 93
        1
 72
               2
 10
-63.420345796400028
 20
914.00538010454397
 40
4.99969482421875
 50
0.0
 51
360.0
 73
               0
 97
        1
330
71
 75
               0
 76
               1
 98
        1
 10
0.0
 20
0.0
  0
CIRCLE
  5
73
102
{ACAD_REACTORS
330
74
102
}
100
AcDbEntity
  8
0
370
              -2
390
0
  6
Continuous
 62
               0
100
AcDbCircle
 10
-663.42034579639972
 20
914.00538010454397
 30
0.0
 40
4.99969482421875
  0
HATCH
  5
74
100
AcDbEntity
  8
0
370
              -2
390
0
  6
Continuous
 62
               0
100
AcDbHatch
 10
0.0
 20
0.0
 30
0.0
210
0.0
220
0.0
230
1.0
  2
SOLID
 70
               1
 71
               1
 91
        1
 92
        1
 93
        1
 72
               2
 10
-663.42034579639972
 20
914.00538010454397
 40
4.99969482421875
 50
0.0
 51
360.0
 73
               0
 97
        1
330
73
 75
               0
 76
               1
 98
        1
 10
0.0
 20
0.0
  0
MTEXT
  5
75
100
AcDbEntity
  8
0
390
0
 62
               0
100
AcDbMText
 10
-391.94876963785839
 20
947.88299729204391
 30
0.0
 40
24.432617187500004
 41
0.0
 71
               1
 72
               1
  1
600
  7
ＭＳ ゴシック
 73
               1
 44
0.7828267384257843
  0
POINT
  5
76
100
AcDbEntity
  8
Defpoints
370
               0
390
0
 62
               0
100
AcDbPoint
 10
-663.42034579639972
 20
764.00538010454375
 30
0.0
  0
POINT
  5
77
100
AcDbEntity
  8
Defpoints
370
               0
390
0
 62
               0
100
AcDbPoint
 10
-63.420345796399999
 20
764.00538010454375
 30
0.0
  0
POINT
  5
78
100
AcDbEntity
  8
Defpoints
370
               0
390
0
 62
               0
100
AcDbPoint
 10
-63.420345796400028
 20
914.00538010454397
 30
0.0
  0
ENDBLK
  5
79
100
AcDbEntity
  8
notes
390
0
100
AcDbBlockEnd
  0
BLOCK
  5
7A
100
AcDbEntity
  8
notes
390
0
100
AcDbBlockBegin
  2
*D4
 70
               1
 10
0.0
 20
0.0
 30
0.0
  3
*D4
  1

  0
LINE
  5
7B
100
AcDbEntity
  8
0
370
              -2
390
0
  6
Continuous
 62
               0
100
AcDbLine
 10
-338.4281482434003
 20
789.00538010454375
 30
0.0
 11
-338.4281482434003
 21
864.00538010454375
 31
0.0
  0
LINE
  5
7C
100
AcDbEntity
  8
0
370
              -2
390
0
  6
Continuous
 62
               0
100
AcDbLine
 10
-63.428148243400329
 20
779.40568666011063
 30
0.0
 11
-63.428148243400329
 21
864.00538010454375
 31
0.0
  0
LINE
  5
7D
100
AcDbEntity
  8
0
370
              -2
390
0
  6
Continuous
 62
               0
100
AcDbLine
 10
-338.4281482434003
 20
864.00538010454375
 30
0.0
 11
-63.428148243400329
 21
864.00538010454375
 31
0.0
  0
CIRCLE
  5
7E
102
{ACAD_REACTORS
330
7F
102
}
100
AcDbEntity
  8
0
370
              -2
390
0
  6
Continuous
 62
               0
100
AcDbCircle
 10
-338.4281482434003
 20
864.00538010454375
 30
0.0
 40
4.99969482421875
  0
HATCH
  5
7F
100
AcDbEntity
  8
0
370
              -2
390
0
  6
Continuous
 62
               0
100
AcDbHatch
 10
0.0
 20
0.0
 30
0.0
210
0.0
220
0.0
230
1.0
  2
SOLID
 70
               1
 71
               1
 91
        1
 92
        1
 93
        1
 72
               2
 10
-338.4281482434003
 20
864.00538010454375
 40
4.99969482421875
 50
0.0
 51
360.0
 73
               0
 97
        1
330
7E
 75
               0
 76
               1
 98
        1
 10
0.0
 20
0.0
  0
CIRCLE
  5
80
102
{ACAD_REACTORS
330
81
102
}
100
AcDbEntity
  8
0
370
              -2
390
0
  6
Continuous
 62
               0
100
AcDbCircle
 10
-63.428148243400329
 20
864.00538010454375
 30
0.0
 40
4.99969482421875
  0
HATCH
  5
81
100
AcDbEntity
  8
0
370
              -2
390
0
  6
Continuous
 62
               0
100
AcDbHatch
 10
0.0
 20
0.0
 30
0.0
210
0.0
220
0.0
230
1.0
  2
SOLID
 70
               1
 71
               1
 91
        1
 92
        1
 93
        1
 72
               2
 10
-63.428148243400329
 20
864.00538010454375
 40
4.99969482421875
 50
0.0
 51
360.0
 73
               0
 97
        1
330
80
 75
               0
 76
               1
 98
        1
 10
0.0
 20
0.0
  0
MTEXT
  5
82
100
AcDbEntity
  8
0
390
0
 62
               0
100
AcDbMText
 10
-224.74064992557587
 20
897.88299729204391
 30
0.0
 40
24.432617187500004
 41
0.0
 71
               1
 72
               1
  1
275
  7
ＭＳ ゴシック
 73
               1
 44
0.7828267384257843
  0
POINT
  5
83
100
AcDbEntity
  8
Defpoints
370
               0
390
0
 62
               0
100
AcDbPoint
 10
-63.428148243400329
 20
754.40568666011063
 30
0.0
  0
POINT
  5
84
100
AcDbEntity
  8
Defpoints
370
               0
390
0
 62
               0
100
AcDbPoint
 10
-338.4281482434003
 20
764.00538010454375
 30
0.0
  0
POINT
  5
85
100
AcDbEntity
  8
Defpoints
370
               0
390
0
 62
               0
100
AcDbPoint
 10
-338.4281482434003
 20
864.00538010454375
 30
0.0
  0
ENDBLK
  5
86
100
AcDbEntity
  8
notes
390
0
100
AcDbBlockEnd
  0
BLOCK
  5
87
100
AcDbEntity
  8
notes
390
0
100
AcDbBlockBegin
  2
*D5
 70
               1
 10
0.0
 20
0.0
 30
0.0
  3
*D5
  1

  0
LINE
  5
88
100
AcDbEntity
  8
0
370
              -2
390
0
  6
Continuous
 62
               0
100
AcDbLine
 10
-663.42034579639949
 20
419.0053801045446
 30
0.0
 11
-663.42034579639949
 21
339.0053801045446
 31
0.0
  0
LINE
  5
89
100
AcDbEntity
  8
0
370
              -2
390
0
  6
Continuous
 62
               0
100
AcDbLine
 10
-613.42034579639972
 20
414.00538010454471
 30
0.0
 11
-613.42034579639972
 21
339.0053801045446
 31
0.0
  0
LINE
  5
8A
100
AcDbEntity
  8
0
370
              -2
390
0
  6
Continuous
 62
               0
100
AcDbLine
 10
-663.42034579639949
 20
339.0053801045446
 30
0.0
 11
-613.42034579639972
 21
339.0053801045446
 31
0.0
  0
CIRCLE
  5
8B
102
{ACAD_REACTORS
330
8C
102
}
100
AcDbEntity
  8
0
370
              -2
390
0
  6
Continuous
 62
               0
100
AcDbCircle
 10
-663.42034579639949
 20
339.0053801045446
 30
0.0
 40
4.99969482421875
  0
HATCH
  5
8C
100
AcDbEntity
  8
0
370
              -2
390
0
  6
Continuous
 62
               0
100
AcDbHatch
 10
0.0
 20
0.0
 30
0.0
210
0.0
220
0.0
230
1.0
  2
SOLID
 70
               1
 71
               1
 91
        1
 92
        1
 93
        1
 72
               2
 10
-663.42034579639949
 20
339.0053801045446
 40
4.99969482421875
 50
0.0
 51
360.0
 73
               0
 97
        1
330
8B
 75
               0
 76
               1
 98
        1
 10
0.0
 20
0.0
  0
CIRCLE
  5
8D
102
{ACAD_REACTORS
330
8E
102
}
100
AcDbEntity
  8
0
370
              -2
390
0
  6
Continuous
 62
               0
100
AcDbCircle
 10
-613.42034579639972
 20
339.0053801045446
 30
0.0
 40
4.99969482421875
  0
HATCH
  5
8E
100
AcDbEntity
  8
0
370
              -2
390
0
  6
Continuous
 62
               0
100
AcDbHatch
 10
0.0
 20
0.0
 30
0.0
210
0.0
220
0.0
230
1.0
  2
SOLID
 70
               1
 71
               1
 91
        1
 92
        1
 93
        1
 72
               2
 10
-613.42034579639972
 20
339.0053801045446
 40
4.99969482421875
 50
0.0
 51
360.0
 73
               0
 97
        1
330
8D
 75
               0
 76
               1
 98
        1
 10
0.0
 20
0.0
  0
MTEXT
  5
8F
100
AcDbEntity
  8
0
390
0
 62
               0
100
AcDbMText
 10
-654.2953457963996
 20
372.88299729204459
 30
0.0
 40
24.432617187500004
 41
0.0
 71
               1
 72
               1
  1
50
  7
ＭＳ ゴシック
 73
               1
 44
0.7828267384257843
  0
POINT
  5
90
100
AcDbEntity
  8
Defpoints
370
               0
390
0
 62
               0
100
AcDbPoint
 10
-613.42034579639972
 20
439.00538010454471
 30
0.0
  0
POINT
  5
91
100
AcDbEntity
  8
Defpoints
370
               0
390
0
 62
               0
100
AcDbPoint
 10
-663.42034579639949
 20
444.0053801045446
 30
0.0
  0
POINT
  5
92
100
AcDbEntity
  8
Defpoints
370
               0
390
0
 62
               0
100
AcDbPoint
 10
-663.42034579639949
 20
339.0053801045446
 30
0.0
  0
ENDBLK
  5
93
100
AcDbEntity
  8
notes
390
0
100
AcDbBlockEnd
  0
BLOCK
  5
94
100
AcDbEntity
  8
notes
390
0
100
AcDbBlockBegin
  2
*D6
 70
               1
 10
0.0
 20
0.0
 30
0.0
  3
*D6
  1

  0
LINE
  5
95
100
AcDbEntity
  8
0
370
              -2
390
0
  6
Continuous
 62
               0
100
AcDbLine
 10
-613.42034579639972
 20
414.00538010454471
 30
0.0
 11
-613.42034579639972
 21
339.00538010454471
 31
0.0
  0
LINE
  5
96
100
AcDbEntity
  8
0
370
              -2
390
0
  6
Continuous
 62
               0
100
AcDbLine
 10
-338.4203457964004
 20
414.00538010454471
 30
0.0
 11
-338.4203457964004
 21
339.00538010454471
 31
0.0
  0
LINE
  5
97
100
AcDbEntity
  8
0
370
              -2
390
0
  6
Continuous
 62
               0
100
AcDbLine
 10
-613.42034579639972
 20
339.00538010454471
 30
0.0
 11
-338.4203457964004
 21
339.00538010454471
 31
0.0
  0
CIRCLE
  5
98
102
{ACAD_REACTORS
330
99
102
}
100
AcDbEntity
  8
0
370
              -2
390
0
  6
Continuous
 62
               0
100
AcDbCircle
 10
-613.42034579639972
 20
339.00538010454471
 30
0.0
 40
4.99969482421875
  0
HATCH
  5
99
100
AcDbEntity
  8
0
370
              -2
390
0
  6
Continuous
 62
               0
100
AcDbHatch
 10
0.0
 20
0.0
 30
0.0
210
0.0
220
0.0
230
1.0
  2
SOLID
 70
               1
 71
               1
 91
        1
 92
        1
 93
        1
 72
               2
 10
-613.42034579639972
 20
339.00538010454471
 40
4.99969482421875
 50
0.0
 51
360.0
 73
               0
 97
        1
330
98
 75
               0
 76
               1
 98
        1
 10
0.0
 20
0.0
  0
CIRCLE
  5
9A
102
{ACAD_REACTORS
330
9B
102
}
100
AcDbEntity
  8
0
370
              -2
390
0
  6
Continuous
 62
               0
100
AcDbCircle
 10
-338.4203457964004
 20
339.00538010454471
 30
0.0
 40
4.99969482421875
  0
HATCH
  5
9B
100
AcDbEntity
  8
0
370
              -2
390
0
  6
Continuous
 62
               0
100
AcDbHatch
 10
0.0
 20
0.0
 30
0.0
210
0.0
220
0.0
230
1.0
  2
SOLID
 70
               1
 71
               1
 91
        1
 92
        1
 93
        1
 72
               2
 10
-338.4203457964004
 20
339.00538010454471
 40
4.99969482421875
 50
0.0
 51
360.0
 73
               0
 97
        1
330
9A
 75
               0
 76
               1
 98
        1
 10
0.0
 20
0.0
  0
MTEXT
  5
9C
100
AcDbEntity
  8
0
390
0
 62
               0
100
AcDbMText
 10
-499.73284747857554
 20
372.88299729204471
 30
0.0
 40
24.432617187500004
 41
0.0
 71
               1
 72
               1
  1
275
  7
ＭＳ ゴシック
 73
               1
 44
0.7828267384257843
  0
POINT
  5
9D
100
AcDbEntity
  8
Defpoints
370
               0
390
0
 62
               0
100
AcDbPoint
 10
-338.4203457964004
 20
439.00538010454471
 30
0.0
  0
POINT
  5
9E
100
AcDbEntity
  8
Defpoints
370
               0
390
0
 62
               0
100
AcDbPoint
 10
-613.42034579639972
 20
439.00538010454471
 30
0.0
  0
POINT
  5
9F
100
AcDbEntity
  8
Defpoints
370
               0
390
0
 62
               0
100
AcDbPoint
 10
-613.42034579639972
 20
339.00538010454471
 30
0.0
  0
ENDBLK
  5
A0
100
AcDbEntity
  8
notes
390
0
100
AcDbBlockEnd
  0
BLOCK
  5
A1
100
AcDbEntity
  8
notes
390
0
100
AcDbBlockBegin
  2
*D7
 70
               1
 10
0.0
 20
0.0
 30
0.0
  3
*D7
  1

  0
LINE
  5
A2
100
AcDbEntity
  8
0
370
              -2
390
0
  6
Continuous
 62
               0
100
AcDbLine
 10
-338.4203457964004
 20
414.00538010454471
 30
0.0
 11
-338.4203457964004
 21
339.00538010454471
 31
0.0
  0
LINE
  5
A3
100
AcDbEntity
  8
0
370
              -2
390
0
  6
Continuous
 62
               0
100
AcDbLine
 10
-63.420345796399999
 20
419.0053801045446
 30
0.0
 11
-63.420345796399999
 21
339.00538010454471
 31
0.0
  0
LINE
  5
A4
100
AcDbEntity
  8
0
370
              -2
390
0
  6
Continuous
 62
               0
100
AcDbLine
 10
-338.4203457964004
 20
339.00538010454471
 30
0.0
 11
-63.420345796399999
 21
339.00538010454471
 31
0.0
  0
CIRCLE
  5
A5
102
{ACAD_REACTORS
330
A6
102
}
100
AcDbEntity
  8
0
370
              -2
390
0
  6
Continuous
 62
               0
100
AcDbCircle
 10
-338.4203457964004
 20
339.00538010454471
 30
0.0
 40
4.99969482421875
  0
HATCH
  5
A6
100
AcDbEntity
  8
0
370
              -2
390
0
  6
Continuous
 62
               0
100
AcDbHatch
 10
0.0
 20
0.0
 30
0.0
210
0.0
220
0.0
230
1.0
  2
SOLID
 70
               1
 71
               1
 91
        1
 92
        1
 93
        1
 72
               2
 10
-338.4203457964004
 20
339.00538010454471
 40
4.99969482421875
 50
0.0
 51
360.0
 73
               0
 97
        1
330
A5
 75
               0
 76
               1
 98
        1
 10
0.0
 20
0.0
  0
CIRCLE
  5
A7
102
{ACAD_REACTORS
330
A8
102
}
100
AcDbEntity
  8
0
370
              -2
390
0
  6
Continuous
 62
               0
100
AcDbCircle
 10
-63.420345796399999
 20
339.00538010454471
 30
0.0
 40
4.99969482421875
  0
HATCH
  5
A8
100
AcDbEntity
  8
0
370
              -2
390
0
  6
Continuous
 62
               0
100
AcDbHatch
 10
0.0
 20
0.0
 30
0.0
210
0.0
220
0.0
230
1.0
  2
SOLID
 70
               1
 71
               1
 91
        1
 92
        1
 93
        1
 72
               2
 10
-63.420345796399999
 20
339.00538010454471
 40
4.99969482421875
 50
0.0
 51
360.0
 73
               0
 97
        1
330
A7
 75
               0
 76
               1
 98
        1
 10
0.0
 20
0.0
  0
MTEXT
  5
A9
100
AcDbEntity
  8
0
390
0
 62
               0
100
AcDbMText
 10
-224.73284747857574
 20
372.88299729204471
 30
0.0
 40
24.432617187500004
 41
0.0
 71
               1
 72
               1
  1
275
  7
ＭＳ ゴシック
 73
               1
 44
0.7828267384257843
  0
POINT
  5
AA
100
AcDbEntity
  8
Defpoints
370
               0
390
0
 62
               0
100
AcDbPoint
 10
-63.420345796399999
 20
444.0053801045446
 30
0.0
  0
POINT
  5
AB
100
AcDbEntity
  8
Defpoints
370
               0
390
0
 62
               0
100
AcDbPoint
 10
-338.4203457964004
 20
439.00538010454471
 30
0.0
  0
POINT
  5
AC
100
AcDbEntity
  8
Defpoints
370
               0
390
0
 62
               0
100
AcDbPoint
 10
-338.4203457964004
 20
339.00538010454471
 30
0.0
  0
ENDBLK
  5
AD
100
AcDbEntity
  8
notes
390
0
100
AcDbBlockEnd
  0
BLOCK
  5
AE
100
AcDbEntity
  8
notes
390
0
100
AcDbBlockBegin
  2
*D8
 70
               1
 10
0.0
 20
0.0
 30
0.0
  3
*D8
  1

  0
LINE
  5
AF
100
AcDbEntity
  8
0
370
              -2
390
0
  6
Continuous
 62
               0
100
AcDbLine
 10
557.87824595767643
 20
-554.13688488978937
 30
0.0
 11
536.16904293674111
 21
-554.13688488978937
 31
0.0
  0
LINE
  5
B0
100
AcDbEntity
  8
0
370
              -2
390
0
  6
Continuous
 62
               0
100
AcDbLine
 10
557.87824595767734
 20
-454.13688488978937
 30
0.0
 11
536.16904293674111
 21
-454.13688488978937
 31
0.0
  0
LINE
  5
B1
100
AcDbEntity
  8
0
370
              -2
390
0
  6
Continuous
 62
               0
100
AcDbLine
 10
536.16904293674111
 20
-454.13688488978937
 30
0.0
 11
536.16904293674111
 21
-303.7193133398884
 31
0.0
  0
LINE
  5
B2
100
AcDbEntity
  8
0
370
              -2
390
0
  6
Continuous
 62
               0
100
AcDbLine
 10
536.16904293674111
 20
-554.13688488978937
 30
0.0
 11
536.16904293674111
 21
-454.13688488978937
 31
0.0
  0
CIRCLE
  5
B3
102
{ACAD_REACTORS
330
B4
102
}
100
AcDbEntity
  8
0
370
              -2
390
0
  6
Continuous
 62
               0
100
AcDbCircle
 10
536.16904293674111
 20
-554.13688488978937
 30
0.0
 40
4.99969482421875
  0
HATCH
  5
B4
100
AcDbEntity
  8
0
370
              -2
390
0
  6
Continuous
 62
               0
100
AcDbHatch
 10
0.0
 20
0.0
 30
0.0
210
0.0
220
0.0
230
1.0
  2
SOLID
 70
               1
 71
               1
 91
        1
 92
        1
 93
        1
 72
               2
 10
536.16904293674111
 20
-554.13688488978937
 40
4.99969482421875
 50
0.0
 51
360.0
 73
               0
 97
        1
330
B3
 75
               0
 76
               1
 98
        1
 10
0.0
 20
0.0
  0
CIRCLE
  5
B5
102
{ACAD_REACTORS
330
B6
102
}
100
AcDbEntity
  8
0
370
              -2
390
0
  6
Continuous
 62
               0
100
AcDbCircle
 10
536.16904293674111
 20
-454.13688488978937
 30
0.0
 40
4.99969482421875
  0
HATCH
  5
B6
100
AcDbEntity
  8
0
370
              -2
390
0
  6
Continuous
 62
               0
100
AcDbHatch
 10
0.0
 20
0.0
 30
0.0
210
0.0
220
0.0
230
1.0
  2
SOLID
 70
               1
 71
               1
 91
        1
 92
        1
 93
        1
 72
               2
 10
536.16904293674111
 20
-454.13688488978937
 40
4.99969482421875
 50
0.0
 51
360.0
 73
               0
 97
        1
330
B5
 75
               0
 76
               1
 98
        1
 10
0.0
 20
0.0
  0
MTEXT
  5
B7
100
AcDbEntity
  8
0
390
0
 62
               0
100
AcDbMText
 10
502.29142574924106
 20
-446.5943133398884
 30
0.0
 40
24.432617187500004
 41
0.0
 71
               1
 72
               1
  1
100(深さ)
  7
ＭＳ ゴシック
 11
0.0
 21
1.0
 31
0.0
 73
               1
 44
0.7828267384257843
  0
POINT
  5
B8
100
AcDbEntity
  8
Defpoints
370
               0
390
0
 62
               0
100
AcDbPoint
 10
532.87824595767734
 20
-454.13688488978937
 30
0.0
  0
POINT
  5
B9
100
AcDbEntity
  8
Defpoints
370
               0
390
0
 62
               0
100
AcDbPoint
 10
532.87824595767643
 20
-554.13688488978937
 30
0.0
  0
POINT
  5
BA
100
AcDbEntity
  8
Defpoints
370
               0
390
0
 62
               0
100
AcDbPoint
 10
536.16904293674111
 20
-554.13688488978937
 30
0.0
  0
ENDBLK
  5
BB
100
AcDbEntity
  8
notes
390
0
100
AcDbBlockEnd
  0
BLOCK
  5
BC
100
AcDbEntity
  8
notes
390
0
100
AcDbBlockBegin
  2
*D9
 70
               1
 10
0.0
 20
0.0
 30
0.0
  3
*D9
  1

  0
LINE
  5
BD
100
AcDbEntity
  8
0
370
              -2
390
0
  6
Continuous
 62
               0
100
AcDbLine
 10
-623.42034579639972
 20
-434.1330928420856
 30
0.0
 11
-623.42034579639972
 21
-304.1330928420856
 31
0.0
  0
LINE
  5
BE
100
AcDbEntity
  8
0
370
              -2
390
0
  6
Continuous
 62
               0
100
AcDbLine
 10
-103.42034579639969
 20
-434.1330928420856
 30
0.0
 11
-103.42034579639969
 21
-304.1330928420856
 31
0.0
  0
LINE
  5
BF
100
AcDbEntity
  8
0
370
              -2
390
0
  6
Continuous
 62
               0
100
AcDbLine
 10
-623.42034579639972
 20
-304.1330928420856
 30
0.0
 11
-103.42034579639969
 21
-304.1330928420856
 31
0.0
  0
CIRCLE
  5
C0
102
{ACAD_REACTORS
330
C1
102
}
100
AcDbEntity
  8
0
370
              -2
390
0
  6
Continuous
 62
               0
100
AcDbCircle
 10
-623.42034579639972
 20
-304.1330928420856
 30
0.0
 40
4.99969482421875
  0
HATCH
  5
C1
100
AcDbEntity
  8
0
370
              -2
390
0
  6
Continuous
 62
               0
100
AcDbHatch
 10
0.0
 20
0.0
 30
0.0
210
0.0
220
0.0
230
1.0
  2
SOLID
 70
               1
 71
               1
 91
        1
 92
        1
 93
        1
 72
               2
 10
-623.42034579639972
 20
-304.1330928420856
 40
4.99969482421875
 50
0.0
 51
360.0
 73
               0
 97
        1
330
C0
 75
               0
 76
               1
 98
        1
 10
0.0
 20
0.0
  0
CIRCLE
  5
C2
102
{ACAD_REACTORS
330
C3
102
}
100
AcDbEntity
  8
0
370
              -2
390
0
  6
Continuous
 62
               0
100
AcDbCircle
 10
-103.42034579639969
 20
-304.1330928420856
 30
0.0
 40
4.99969482421875
  0
HATCH
  5
C3
100
AcDbEntity
  8
0
370
              -2
390
0
  6
Continuous
 62
               0
100
AcDbHatch
 10
0.0
 20
0.0
 30
0.0
210
0.0
220
0.0
230
1.0
  2
SOLID
 70
               1
 71
               1
 91
        1
 92
        1
 93
        1
 72
               2
 10
-103.42034579639969
 20
-304.1330928420856
 40
4.99969482421875
 50
0.0
 51
360.0
 73
               0
 97
        1
330
C2
 75
               0
 76
               1
 98
        1
 10
0.0
 20
0.0
  0
MTEXT
  5
C4
100
AcDbEntity
  8
0
390
0
 62
               0
100
AcDbMText
 10
-387.2328474785752
 20
-270.25547565458561
 30
0.0
 40
24.432617187500004
 41
0.0
 71
               1
 72
               1
  1
520
  7
ＭＳ ゴシック
 73
               1
 44
0.7828267384257843
  0
POINT
  5
C5
100
AcDbEntity
  8
Defpoints
370
               0
390
0
 62
               0
100
AcDbPoint
 10
-103.42034579639969
 20
-459.1330928420856
 30
0.0
  0
POINT
  5
C6
100
AcDbEntity
  8
Defpoints
370
               0
390
0
 62
               0
100
AcDbPoint
 10
-623.42034579639972
 20
-459.1330928420856
 30
0.0
  0
POINT
  5
C7
100
AcDbEntity
  8
Defpoints
370
               0
390
0
 62
               0
100
AcDbPoint
 10
-623.42034579639972
 20
-304.1330928420856
 30
0.0
  0
ENDBLK
  5
C8
100
AcDbEntity
  8
notes
390
0
100
AcDbBlockEnd
  0
BLOCK
  5
C9
100
AcDbEntity
  8
notes
390
0
100
AcDbBlockBegin
  2
*D10
 70
               1
 10
0.0
 20
0.0
 30
0.0
  3
*D10
  1

  0
LINE
  5
CA
100
AcDbEntity
  8
0
370
              -2
390
0
  6
Continuous
 62
               0
100
AcDbLine
 10
-503.42034579639972
 20
-489.1330928420856
 30
0.0
 11
-503.42034579639972
 21
-354.1330928420856
 31
0.0
  0
LINE
  5
CB
100
AcDbEntity
  8
0
370
              -2
390
0
  6
Continuous
 62
               0
100
AcDbLine
 10
-223.42034579640043
 20
-489.1330928420856
 30
0.0
 11
-223.42034579640043
 21
-354.1330928420856
 31
0.0
  0
LINE
  5
CC
100
AcDbEntity
  8
0
370
              -2
390
0
  6
Continuous
 62
               0
100
AcDbLine
 10
-503.42034579639972
 20
-354.1330928420856
 30
0.0
 11
-223.42034579640043
 21
-354.1330928420856
 31
0.0
  0
CIRCLE
  5
CD
102
{ACAD_REACTORS
330
CE
102
}
100
AcDbEntity
  8
0
370
              -2
390
0
  6
Continuous
 62
               0
100
AcDbCircle
 10
-503.42034579639972
 20
-354.1330928420856
 30
0.0
 40
4.99969482421875
  0
HATCH
  5
CE
100
AcDbEntity
  8
0
370
              -2
390
0
  6
Continuous
 62
               0
100
AcDbHatch
 10
0.0
 20
0.0
 30
0.0
210
0.0
220
0.0
230
1.0
  2
SOLID
 70
               1
 71
               1
 91
        1
 92
        1
 93
        1
 72
               2
 10
-503.42034579639972
 20
-354.1330928420856
 40
4.99969482421875
 50
0.0
 51
360.0
 73
               0
 97
        1
330
CD
 75
               0
 76
               1
 98
        1
 10
0.0
 20
0.0
  0
CIRCLE
  5
CF
102
{ACAD_REACTORS
330
D0
102
}
100
AcDbEntity
  8
0
370
              -2
390
0
  6
Continuous
 62
               0
100
AcDbCircle
 10
-223.42034579640043
 20
-354.1330928420856
 30
0.0
 40
4.99969482421875
  0
HATCH
  5
D0
100
AcDbEntity
  8
0
370
              -2
390
0
  6
Continuous
 62
               0
100
AcDbHatch
 10
0.0
 20
0.0
 30
0.0
210
0.0
220
0.0
230
1.0
  2
SOLID
 70
               1
 71
               1
 91
        1
 92
        1
 93
        1
 72
               2
 10
-223.42034579640043
 20
-354.1330928420856
 40
4.99969482421875
 50
0.0
 51
360.0
 73
               0
 97
        1
330
CF
 75
               0
 76
               1
 98
        1
 10
0.0
 20
0.0
  0
MTEXT
  5
D1
100
AcDbEntity
  8
0
390
0
 62
               0
100
AcDbMText
 10
-387.23284747857554
 20
-320.25547565458561
 30
0.0
 40
24.432617187500004
 41
0.0
 71
               1
 72
               1
  1
280
  7
ＭＳ ゴシック
 73
               1
 44
0.7828267384257843
  0
POINT
  5
D2
100
AcDbEntity
  8
Defpoints
370
               0
390
0
 62
               0
100
AcDbPoint
 10
-223.42034579640043
 20
-514.1330928420856
 30
0.0
  0
POINT
  5
D3
100
AcDbEntity
  8
Defpoints
370
               0
390
0
 62
               0
100
AcDbPoint
 10
-503.42034579639972
 20
-514.1330928420856
 30
0.0
  0
POINT
  5
D4
100
AcDbEntity
  8
Defpoints
370
               0
390
0
 62
               0
100
AcDbPoint
 10
-503.42034579639972
 20
-354.1330928420856
 30
0.0
  0
ENDBLK
  5
D5
100
AcDbEntity
  8
notes
390
0
100
AcDbBlockEnd
  0
BLOCK
  5
D6
100
AcDbEntity
  8
notes
390
0
100
AcDbBlockBegin
  2
*D11
 70
               1
 10
0.0
 20
0.0
 30
0.0
  3
*D11
  1

  0
LINE
  5
D7
100
AcDbEntity
  8
0
370
              -2
390
0
  6
Continuous
 62
               0
100
AcDbLine
 10
-38.420345796399999
 20
764.00538010454375
 30
0.0
 11
86.579654203600001
 21
764.00538010454375
 31
0.0
  0
LINE
  5
D8
100
AcDbEntity
  8
0
370
              -2
390
0
  6
Continuous
 62
               0
100
AcDbLine
 10
-38.420345796399999
 20
439.00538010454471
 30
0.0
 11
86.579654203600001
 21
439.00538010454471
 31
0.0
  0
LINE
  5
D9
100
AcDbEntity
  8
0
370
              -2
390
0
  6
Continuous
 62
               0
100
AcDbLine
 10
86.579654203600001
 20
764.00538010454375
 30
0.0
 11
86.579654203600001
 21
439.00538010454471
 31
0.0
  0
CIRCLE
  5
DA
102
{ACAD_REACTORS
330
DB
102
}
100
AcDbEntity
  8
0
370
              -2
390
0
  6
Continuous
 62
               0
100
AcDbCircle
 10
86.579654203600001
 20
764.00538010454375
 30
0.0
 40
4.99969482421875
  0
HATCH
  5
DB
100
AcDbEntity
  8
0
370
              -2
390
0
  6
Continuous
 62
               0
100
AcDbHatch
 10
0.0
 20
0.0
 30
0.0
210
0.0
220
0.0
230
1.0
  2
SOLID
 70
               1
 71
               1
 91
        1
 92
        1
 93
        1
 72
               2
 10
86.579654203600001
 20
764.00538010454375
 40
4.99969482421875
 50
0.0
 51
360.0
 73
               0
 97
        1
330
DA
 75
               0
 76
               1
 98
        1
 10
0.0
 20
0.0
  0
CIRCLE
  5
DC
102
{ACAD_REACTORS
330
DD
102
}
100
AcDbEntity
  8
0
370
              -2
390
0
  6
Continuous
 62
               0
100
AcDbCircle
 10
86.579654203600001
 20
439.00538010454471
 30
0.0
 40
4.99969482421875
  0
HATCH
  5
DD
100
AcDbEntity
  8
0
370
              -2
390
0
  6
Continuous
 62
               0
100
AcDbHatch
 10
0.0
 20
0.0
 30
0.0
210
0.0
220
0.0
230
1.0
  2
SOLID
 70
               1
 71
               1
 91
        1
 92
        1
 93
        1
 72
               2
 10
86.579654203600001
 20
439.00538010454471
 40
4.99969482421875
 50
0.0
 51
360.0
 73
               0
 97
        1
330
DC
 75
               0
 76
               1
 98
        1
 10
0.0
 20
0.0
  0
MTEXT
  5
DE
100
AcDbEntity
  8
0
390
0
 62
               0
100
AcDbMText
 10
52.702037016099986
 20
577.37691255131358
 30
0.0
 40
24.432617187500004
 41
0.0
 71
               1
 72
               1
  1
325
  7
ＭＳ ゴシック
 11
0.0
 21
1.0
 31
0.0
 73
               1
 44
0.7828267384257843
  0
POINT
  5
DF
100
AcDbEntity
  8
Defpoints
370
               0
390
0
 62
               0
100
AcDbPoint
 10
-63.420345796399999
 20
439.00538010454471
 30
0.0
  0
POINT
  5
E0
100
AcDbEntity
  8
Defpoints
370
               0
390
0
 62
               0
100
AcDbPoint
 10
-63.420345796399999
 20
764.00538010454375
 30
0.0
  0
POINT
  5
E1
100
AcDbEntity
  8
Defpoints
370
               0
390
0
 62
               0
100
AcDbPoint
 10
86.579654203600001
 20
764.00538010454375
 30
0.0
  0
ENDBLK
  5
E2
100
AcDbEntity
  8
notes
390
0
100
AcDbBlockEnd
  0
BLOCK
  5
E3
100
AcDbEntity
  8
notes
390
0
100
AcDbBlockBegin
  2
*D12
 70
               1
 10
0.0
 20
0.0
 30
0.0
  3
*D12
  1

  0
LINE
  5
E4
100
AcDbEntity
  8
0
370
              -2
390
0
  6
Continuous
 62
               0
100
AcDbLine
 10
-295.22814824340037
 20
721.19938133814389
 30
0.0
 11
36.704654203599631
 21
721.19938133814389
 31
0.0
  0
LINE
  5
E5
100
AcDbEntity
  8
0
370
              -2
390
0
  6
Continuous
 62
               0
100
AcDbLine
 10
-43.420345796400113
 20
764.19938133814389
 30
0.0
 11
36.704654203599631
 21
764.19938133814389
 31
0.0
  0
LINE
  5
E6
100
AcDbEntity
  8
0
370
              -2
390
0
  6
Continuous
 62
               0
100
AcDbLine
 10
36.704654203599631
 20
764.19938133814389
 30
0.0
 11
36.704654203599631
 21
806.29638195494385
 31
0.0
  0
LINE
  5
E7
100
AcDbEntity
  8
0
370
              -2
390
0
  6
Continuous
 62
               0
100
AcDbLine
 10
36.704654203599631
 20
721.19938133814389
 30
0.0
 11
36.704654203599631
 21
764.19938133814389
 31
0.0
  0
CIRCLE
  5
E8
102
{ACAD_REACTORS
330
E9
102
}
100
AcDbEntity
  8
0
370
              -2
390
0
  6
Continuous
 62
               0
100
AcDbCircle
 10
36.704654203599631
 20
721.19938133814389
 30
0.0
 40
4.99969482421875
  0
HATCH
  5
E9
100
AcDbEntity
  8
0
370
              -2
390
0
  6
Continuous
 62
               0
100
AcDbHatch
 10
0.0
 20
0.0
 30
0.0
210
0.0
220
0.0
230
1.0
  2
SOLID
 70
               1
 71
               1
 91
        1
 92
        1
 93
        1
 72
               2
 10
36.704654203599631
 20
721.19938133814389
 40
4.99969482421875
 50
0.0
 51
360.0
 73
               0
 97
        1
330
E8
 75
               0
 76
               1
 98
        1
 10
0.0
 20
0.0
  0
CIRCLE
  5
EA
102
{ACAD_REACTORS
330
EB
102
}
100
AcDbEntity
  8
0
370
              -2
390
0
  6
Continuous
 62
               0
100
AcDbCircle
 10
36.704654203599631
 20
764.19938133814389
 30
0.0
 40
4.99969482421875
  0
HATCH
  5
EB
100
AcDbEntity
  8
0
370
              -2
390
0
  6
Continuous
 62
               0
100
AcDbHatch
 10
0.0
 20
0.0
 30
0.0
210
0.0
220
0.0
230
1.0
  2
SOLID
 70
               1
 71
               1
 91
        1
 92
        1
 93
        1
 72
               2
 10
36.704654203599631
 20
764.19938133814389
 40
4.99969482421875
 50
0.0
 51
360.0
 73
               0
 97
        1
330
EA
 75
               0
 76
               1
 98
        1
 10
0.0
 20
0.0
  0
MTEXT
  5
EC
100
AcDbEntity
  8
0
390
0
 62
               0
100
AcDbMText
 10
2.8270370160996237
 20
774.54638195494385
 30
0.0
 40
24.432617187500004
 41
0.0
 71
               1
 72
               1
  1
43
  7
ＭＳ ゴシック
 11
0.0
 21
1.0
 31
0.0
 73
               1
 44
0.7828267384257843
  0
POINT
  5
ED
100
AcDbEntity
  8
Defpoints
370
               0
390
0
 62
               0
100
AcDbPoint
 10
-68.420345796400113
 20
764.19938133814389
 30
0.0
  0
POINT
  5
EE
100
AcDbEntity
  8
Defpoints
370
               0
390
0
 62
               0
100
AcDbPoint
 10
-320.22814824340037
 20
721.19938133814389
 30
0.0
  0
POINT
  5
EF
100
AcDbEntity
  8
Defpoints
370
               0
390
0
 62
               0
100
AcDbPoint
 10
36.704654203599631
 20
721.19938133814389
 30
0.0
  0
ENDBLK
  5
F0
100
AcDbEntity
  8
notes
390
0
100
AcDbBlockEnd
  0
BLOCK
  5
F1
100
AcDbEntity
  8
notes
390
0
100
AcDbBlockBegin
  2
*D13
 70
               1
 10
0.0
 20
0.0
 30
0.0
  3
*D13
  1

  0
LINE
  5
F2
100
AcDbEntity
  8
0
370
              -2
390
0
  6
Continuous
 62
               0
100
AcDbLine
 10
-43.420345796400056
 20
-454.13309284208549
 30
0.0
 11
86.57965420359983
 21
-454.13309284208549
 31
0.0
  0
LINE
  5
F3
100
AcDbEntity
  8
0
370
              -2
390
0
  6
Continuous
 62
               0
100
AcDbLine
 10
-43.420345796400056
 20
-614.13309284208663
 30
0.0
 11
86.57965420359983
 21
-614.13309284208663
 31
0.0
  0
LINE
  5
F4
100
AcDbEntity
  8
0
370
              -2
390
0
  6
Continuous
 62
               0
100
AcDbLine
 10
86.57965420359983
 20
-454.13309284208549
 30
0.0
 11
86.57965420359983
 21
-614.13309284208663
 31
0.0
  0
CIRCLE
  5
F5
102
{ACAD_REACTORS
330
F6
102
}
100
AcDbEntity
  8
0
370
              -2
390
0
  6
Continuous
 62
               0
100
AcDbCircle
 10
86.57965420359983
 20
-454.13309284208549
 30
0.0
 40
4.99969482421875
  0
HATCH
  5
F6
100
AcDbEntity
  8
0
370
              -2
390
0
  6
Continuous
 62
               0
100
AcDbHatch
 10
0.0
 20
0.0
 30
0.0
210
0.0
220
0.0
230
1.0
  2
SOLID
 70
               1
 71
               1
 91
        1
 92
        1
 93
        1
 72
               2
 10
86.57965420359983
 20
-454.13309284208549
 40
4.99969482421875
 50
0.0
 51
360.0
 73
               0
 97
        1
330
F5
 75
               0
 76
               1
 98
        1
 10
0.0
 20
0.0
  0
CIRCLE
  5
F7
102
{ACAD_REACTORS
330
F8
102
}
100
AcDbEntity
  8
0
370
              -2
390
0
  6
Continuous
 62
               0
100
AcDbCircle
 10
86.57965420359983
 20
-614.13309284208663
 30
0.0
 40
4.99969482421875
  0
HATCH
  5
F8
100
AcDbEntity
  8
0
370
              -2
390
0
  6
Continuous
 62
               0
100
AcDbHatch
 10
0.0
 20
0.0
 30
0.0
210
0.0
220
0.0
230
1.0
  2
SOLID
 70
               1
 71
               1
 91
        1
 92
        1
 93
        1
 72
               2
 10
86.57965420359983
 20
-614.13309284208663
 40
4.99969482421875
 50
0.0
 51
360.0
 73
               0
 97
        1
330
F7
 75
               0
 76
               1
 98
        1
 10
0.0
 20
0.0
  0
MTEXT
  5
F9
100
AcDbEntity
  8
0
390
0
 62
               0
100
AcDbMText
 10
52.702037016099816
 20
-557.94559452426165
 30
0.0
 40
24.432617187500004
 41
0.0
 71
               1
 72
               1
  1
160
  7
ＭＳ ゴシック
 11
0.0
 21
1.0
 31
0.0
 73
               1
 44
0.7828267384257843
  0
POINT
  5
FA
100
AcDbEntity
  8
Defpoints
370
               0
390
0
 62
               0
100
AcDbPoint
 10
-68.420345796400056
 20
-614.13309284208663
 30
0.0
  0
POINT
  5
FB
100
AcDbEntity
  8
Defpoints
370
               0
390
0
 62
               0
100
AcDbPoint
 10
-68.420345796400056
 20
-454.13309284208549
 30
0.0
  0
POINT
  5
FC
100
AcDbEntity
  8
Defpoints
370
               0
390
0
 62
               0
100
AcDbPoint
 10
86.57965420359983
 20
-454.13309284208549
 30
0.0
  0
ENDBLK
  5
FD
100
AcDbEntity
  8
notes
390
0
100
AcDbBlockEnd
  0
BLOCK
  5
FE
100
AcDbEntity
  8
notes
390
0
100
AcDbBlockBegin
  2
*D14
 70
               1
 10
0.0
 20
0.0
 30
0.0
  3
*D14
  1

  0
LINE
  5
FF
100
AcDbEntity
  8
0
370
              -2
390
0
  6
Continuous
 62
               0
100
AcDbLine
 10
-178.42034579640043
 20
-534.13309284208572
 30
0.0
 11
36.579654203599517
 21
-534.13309284208572
 31
0.0
  0
LINE
  5
100
100
AcDbEntity
  8
0
370
              -2
390
0
  6
Continuous
 62
               0
100
AcDbLine
 10
-43.420345796400056
 20
-454.13309284208549
 30
0.0
 11
36.579654203599517
 21
-454.13309284208549
 31
0.0
  0
LINE
  5
101
100
AcDbEntity
  8
0
370
              -2
390
0
  6
Continuous
 62
               0
100
AcDbLine
 10
36.579654203599517
 20
-534.13309284208572
 30
0.0
 11
36.579654203599517
 21
-454.13309284208549
 31
0.0
  0
CIRCLE
  5
102
102
{ACAD_REACTORS
330
103
102
}
100
AcDbEntity
  8
0
370
              -2
390
0
  6
Continuous
 62
               0
100
AcDbCircle
 10
36.579654203599517
 20
-534.13309284208572
 30
0.0
 40
4.99969482421875
  0
HATCH
  5
103
100
AcDbEntity
  8
0
370
              -2
390
0
  6
Continuous
 62
               0
100
AcDbHatch
 10
0.0
 20
0.0
 30
0.0
210
0.0
220
0.0
230
1.0
  2
SOLID
 70
               1
 71
               1
 91
        1
 92
        1
 93
        1
 72
               2
 10
36.579654203599517
 20
-534.13309284208572
 40
4.99969482421875
 50
0.0
 51
360.0
 73
               0
 97
        1
330
102
 75
               0
 76
               1
 98
        1
 10
0.0
 20
0.0
  0
CIRCLE
  5
104
102
{ACAD_REACTORS
330
105
102
}
100
AcDbEntity
  8
0
370
              -2
390
0
  6
Continuous
 62
               0
100
AcDbCircle
 10
36.579654203599517
 20
-454.13309284208549
 30
0.0
 40
4.99969482421875
  0
HATCH
  5
105
100
AcDbEntity
  8
0
370
              -2
390
0
  6
Continuous
 62
               0
100
AcDbHatch
 10
0.0
 20
0.0
 30
0.0
210
0.0
220
0.0
230
1.0
  2
SOLID
 70
               1
 71
               1
 91
        1
 92
        1
 93
        1
 72
               2
 10
36.579654203599517
 20
-454.13309284208549
 40
4.99969482421875
 50
0.0
 51
360.0
 73
               0
 97
        1
330
104
 75
               0
 76
               1
 98
        1
 10
0.0
 20
0.0
  0
MTEXT
  5
106
100
AcDbEntity
  8
0
390
0
 62
               0
100
AcDbMText
 10
2.70203701609951
 20
-510.0080928420856
 30
0.0
 40
24.432617187500004
 41
0.0
 71
               1
 72
               1
  1
80
  7
ＭＳ ゴシック
 11
0.0
 21
1.0
 31
0.0
 73
               1
 44
0.7828267384257843
  0
POINT
  5
107
100
AcDbEntity
  8
Defpoints
370
               0
390
0
 62
               0
100
AcDbPoint
 10
-68.420345796400056
 20
-454.13309284208549
 30
0.0
  0
POINT
  5
108
100
AcDbEntity
  8
Defpoints
370
               0
390
0
 62
               0
100
AcDbPoint
 10
-203.42034579640043
 20
-534.13309284208572
 30
0.0
  0
POINT
  5
109
100
AcDbEntity
  8
Defpoints
370
               0
390
0
 62
               0
100
AcDbPoint
 10
36.579654203599517
 20
-534.13309284208572
 30
0.0
  0
ENDBLK
  5
10A
100
AcDbEntity
  8
notes
390
0
100
AcDbBlockEnd
  0
BLOCK
  5
10B
100
AcDbEntity
  8
notes
390
0
100
AcDbBlockBegin
  2
*D15
 70
               1
 10
0.0
 20
0.0
 30
0.0
  3
*D15
  1

  0
LINE
  5
10C
100
AcDbEntity
  8
0
370
              -2
390
0
  6
Continuous
 62
               0
100
AcDbLine
 10
-688.42034579639949
 20
739.00538010454375
 30
0.0
 11
-763.4203457963996
 21
739.00538010454375
 31
0.0
  0
LINE
  5
10D
100
AcDbEntity
  8
0
370
              -2
390
0
  6
Continuous
 62
               0
100
AcDbLine
 10
-688.42034579639949
 20
464.00538010454437
 30
0.0
 11
-763.4203457963996
 21
464.00538010454437
 31
0.0
  0
LINE
  5
10E
100
AcDbEntity
  8
0
370
              -2
390
0
  6
Continuous
 62
               0
100
AcDbLine
 10
-763.4203457963996
 20
739.00538010454375
 30
0.0
 11
-763.4203457963996
 21
464.00538010454437
 31
0.0
  0
CIRCLE
  5
10F
102
{ACAD_REACTORS
330
110
102
}
100
AcDbEntity
  8
0
370
              -2
390
0
  6
Continuous
 62
               0
100
AcDbCircle
 10
-763.4203457963996
 20
739.00538010454375
 30
0.0
 40
4.99969482421875
  0
HATCH
  5
110
100
AcDbEntity
  8
0
370
              -2
390
0
  6
Continuous
 62
               0
100
AcDbHatch
 10
0.0
 20
0.0
 30
0.0
210
0.0
220
0.0
230
1.0
  2
SOLID
 70
               1
 71
               1
 91
        1
 92
        1
 93
        1
 72
               2
 10
-763.4203457963996
 20
739.00538010454375
 40
4.99969482421875
 50
0.0
 51
360.0
 73
               0
 97
        1
330
10F
 75
               0
 76
               1
 98
        1
 10
0.0
 20
0.0
  0
CIRCLE
  5
111
102
{ACAD_REACTORS
330
112
102
}
100
AcDbEntity
  8
0
370
              -2
390
0
  6
Continuous
 62
               0
100
AcDbCircle
 10
-763.4203457963996
 20
464.00538010454437
 30
0.0
 40
4.99969482421875
  0
HATCH
  5
112
100
AcDbEntity
  8
0
370
              -2
390
0
  6
Continuous
 62
               0
100
AcDbHatch
 10
0.0
 20
0.0
 30
0.0
210
0.0
220
0.0
230
1.0
  2
SOLID
 70
               1
 71
               1
 91
        1
 92
        1
 93
        1
 72
               2
 10
-763.4203457963996
 20
464.00538010454437
 40
4.99969482421875
 50
0.0
 51
360.0
 73
               0
 97
        1
330
111
 75
               0
 76
               1
 98
        1
 10
0.0
 20
0.0
  0
MTEXT
  5
113
100
AcDbEntity
  8
0
390
0
 62
               0
100
AcDbMText
 10
-797.29796298389965
 20
577.69287842236872
 30
0.0
 40
24.432617187500004
 41
0.0
 71
               1
 72
               1
  1
275
  7
ＭＳ ゴシック
 11
0.0
 21
1.0
 31
0.0
 73
               1
 44
0.7828267384257843
  0
POINT
  5
114
100
AcDbEntity
  8
Defpoints
370
               0
390
0
 62
               0
100
AcDbPoint
 10
-663.42034579639949
 20
464.00538010454437
 30
0.0
  0
POINT
  5
115
100
AcDbEntity
  8
Defpoints
370
               0
390
0
 62
               0
100
AcDbPoint
 10
-663.42034579639949
 20
739.00538010454375
 30
0.0
  0
POINT
  5
116
100
AcDbEntity
  8
Defpoints
370
               0
390
0
 62
               0
100
AcDbPoint
 10
-763.4203457963996
 20
739.00538010454375
 30
0.0
  0
ENDBLK
  5
117
100
AcDbEntity
  8
notes
390
0
100
AcDbBlockEnd
  0
BLOCK
  5
118
100
AcDbEntity
  8
notes
390
0
100
AcDbBlockBegin
  2
*D16
 70
               1
 10
0.0
 20
0.0
 30
0.0
  3
*D16
  1

  0
LINE
  5
119
100
AcDbEntity
  8
0
370
              -2
390
0
  6
Continuous
 62
               0
100
AcDbLine
 10
-688.42034579639949
 20
739.00538010454375
 30
0.0
 11
-763.4203457963996
 21
739.00538010454375
 31
0.0
  0
LINE
  5
11A
100
AcDbEntity
  8
0
370
              -2
390
0
  6
Continuous
 62
               0
100
AcDbLine
 10
-683.42034579639972
 20
764.00538010454375
 30
0.0
 11
-763.4203457963996
 21
764.00538010454375
 31
0.0
  0
LINE
  5
11B
100
AcDbEntity
  8
0
370
              -2
390
0
  6
Continuous
 62
               0
100
AcDbLine
 10
-763.4203457963996
 20
739.00538010454375
 30
0.0
 11
-763.4203457963996
 21
764.00538010454375
 31
0.0
  0
CIRCLE
  5
11C
102
{ACAD_REACTORS
330
11D
102
}
100
AcDbEntity
  8
0
370
              -2
390
0
  6
Continuous
 62
               0
100
AcDbCircle
 10
-763.4203457963996
 20
739.00538010454375
 30
0.0
 40
4.99969482421875
  0
HATCH
  5
11D
100
AcDbEntity
  8
0
370
              -2
390
0
  6
Continuous
 62
               0
100
AcDbHatch
 10
0.0
 20
0.0
 30
0.0
210
0.0
220
0.0
230
1.0
  2
SOLID
 70
               1
 71
               1
 91
        1
 92
        1
 93
        1
 72
               2
 10
-763.4203457963996
 20
739.00538010454375
 40
4.99969482421875
 50
0.0
 51
360.0
 73
               0
 97
        1
330
11C
 75
               0
 76
               1
 98
        1
 10
0.0
 20
0.0
  0
CIRCLE
  5
11E
102
{ACAD_REACTORS
330
11F
102
}
100
AcDbEntity
  8
0
370
              -2
390
0
  6
Continuous
 62
               0
100
AcDbCircle
 10
-763.4203457963996
 20
764.00538010454375
 30
0.0
 40
4.99969482421875
  0
HATCH
  5
11F
100
AcDbEntity
  8
0
370
              -2
390
0
  6
Continuous
 62
               0
100
AcDbHatch
 10
0.0
 20
0.0
 30
0.0
210
0.0
220
0.0
230
1.0
  2
SOLID
 70
               1
 71
               1
 91
        1
 92
        1
 93
        1
 72
               2
 10
-763.4203457963996
 20
764.00538010454375
 40
4.99969482421875
 50
0.0
 51
360.0
 73
               0
 97
        1
330
11E
 75
               0
 76
               1
 98
        1
 10
0.0
 20
0.0
  0
MTEXT
  5
120
100
AcDbEntity
  8
0
390
0
 62
               0
100
AcDbMText
 10
-797.29796298389965
 20
735.63038010454375
 30
0.0
 40
24.432617187500004
 41
0.0
 71
               1
 72
               1
  1
25
  7
ＭＳ ゴシック
 11
0.0
 21
1.0
 31
0.0
 73
               1
 44
0.7828267384257843
  0
POINT
  5
121
100
AcDbEntity
  8
Defpoints
370
               0
390
0
 62
               0
100
AcDbPoint
 10
-658.42034579639972
 20
764.00538010454375
 30
0.0
  0
POINT
  5
122
100
AcDbEntity
  8
Defpoints
370
               0
390
0
 62
               0
100
AcDbPoint
 10
-663.42034579639949
 20
739.00538010454375
 30
0.0
  0
POINT
  5
123
100
AcDbEntity
  8
Defpoints
370
               0
390
0
 62
               0
100
AcDbPoint
 10
-763.4203457963996
 20
739.00538010454375
 30
0.0
  0
ENDBLK
  5
124
100
AcDbEntity
  8
notes
390
0
100
AcDbBlockEnd
  0
BLOCK
  5
125
100
AcDbEntity
  8
notes
390
0
100
AcDbBlockBegin
  2
*D17
 70
               1
 10
0.0
 20
0.0
 30
0.0
  3
*D17
  1

  0
LINE
  5
126
100
AcDbEntity
  8
0
370
              -2
390
0
  6
Continuous
 62
               0
100
AcDbLine
 10
-688.42034579639949
 20
464.00538010454437
 30
0.0
 11
-763.4203457963996
 21
464.00538010454437
 31
0.0
  0
LINE
  5
127
100
AcDbEntity
  8
0
370
              -2
390
0
  6
Continuous
 62
               0
100
AcDbLine
 10
-683.42034579639949
 20
439.00538010454471
 30
0.0
 11
-763.4203457963996
 21
439.00538010454471
 31
0.0
  0
LINE
  5
128
100
AcDbEntity
  8
0
370
              -2
390
0
  6
Continuous
 62
               0
100
AcDbLine
 10
-763.4203457963996
 20
464.00538010454437
 30
0.0
 11
-763.4203457963996
 21
439.00538010454471
 31
0.0
  0
CIRCLE
  5
129
102
{ACAD_REACTORS
330
12A
102
}
100
AcDbEntity
  8
0
370
              -2
390
0
  6
Continuous
 62
               0
100
AcDbCircle
 10
-763.4203457963996
 20
464.00538010454437
 30
0.0
 40
4.99969482421875
  0
HATCH
  5
12A
100
AcDbEntity
  8
0
370
              -2
390
0
  6
Continuous
 62
               0
100
AcDbHatch
 10
0.0
 20
0.0
 30
0.0
210
0.0
220
0.0
230
1.0
  2
SOLID
 70
               1
 71
               1
 91
        1
 92
        1
 93
        1
 72
               2
 10
-763.4203457963996
 20
464.00538010454437
 40
4.99969482421875
 50
0.0
 51
360.0
 73
               0
 97
        1
330
129
 75
               0
 76
               1
 98
        1
 10
0.0
 20
0.0
  0
CIRCLE
  5
12B
102
{ACAD_REACTORS
330
12C
102
}
100
AcDbEntity
  8
0
370
              -2
390
0
  6
Continuous
 62
               0
100
AcDbCircle
 10
-763.4203457963996
 20
439.00538010454471
 30
0.0
 40
4.99969482421875
  0
HATCH
  5
12C
100
AcDbEntity
  8
0
370
              -2
390
0
  6
Continuous
 62
               0
100
AcDbHatch
 10
0.0
 20
0.0
 30
0.0
210
0.0
220
0.0
230
1.0
  2
SOLID
 70
               1
 71
               1
 91
        1
 92
        1
 93
        1
 72
               2
 10
-763.4203457963996
 20
439.00538010454471
 40
4.99969482421875
 50
0.0
 51
360.0
 73
               0
 97
        1
330
12B
 75
               0
 76
               1
 98
        1
 10
0.0
 20
0.0
  0
MTEXT
  5
12D
100
AcDbEntity
  8
0
390
0
 62
               0
100
AcDbMText
 10
-797.29796298389965
 20
435.6303801045446
 30
0.0
 40
24.432617187500004
 41
0.0
 71
               1
 72
               1
  1
25
  7
ＭＳ ゴシック
 11
0.0
 21
1.0
 31
0.0
 73
               1
 44
0.7828267384257843
  0
POINT
  5
12E
100
AcDbEntity
  8
Defpoints
370
               0
390
0
 62
               0
100
AcDbPoint
 10
-658.42034579639949
 20
439.00538010454471
 30
0.0
  0
POINT
  5
12F
100
AcDbEntity
  8
Defpoints
370
               0
390
0
 62
               0
100
AcDbPoint
 10
-663.42034579639949
 20
464.00538010454437
 30
0.0
  0
POINT
  5
130
100
AcDbEntity
  8
Defpoints
370
               0
390
0
 62
               0
100
AcDbPoint
 10
-763.4203457963996
 20
464.00538010454437
 30
0.0
  0
ENDBLK
  5
131
100
AcDbEntity
  8
notes
390
0
100
AcDbBlockEnd
  0
BLOCK
  5
132
100
AcDbEntity
  8
notes
390
0
100
AcDbBlockBegin
  2
*D18
 70
               1
 10
0.0
 20
0.0
 30
0.0
  3
*D18
  1

  0
LINE
  5
133
100
AcDbEntity
  8
0
370
              -2
390
0
  6
Continuous
 62
               0
100
AcDbLine
 10
-668.42034579639972
 20
-479.1330928420856
 30
0.0
 11
-765.92034579639972
 21
-479.1330928420856
 31
0.0
  0
LINE
  5
134
100
AcDbEntity
  8
0
370
              -2
390
0
  6
Continuous
 62
               0
100
AcDbLine
 10
-668.42034579639972
 20
-589.1330928420864
 30
0.0
 11
-765.92034579639972
 21
-589.1330928420864
 31
0.0
  0
LINE
  5
135
100
AcDbEntity
  8
0
370
              -2
390
0
  6
Continuous
 62
               0
100
AcDbLine
 10
-765.92034579639972
 20
-479.1330928420856
 30
0.0
 11
-765.92034579639972
 21
-589.1330928420864
 31
0.0
  0
CIRCLE
  5
136
102
{ACAD_REACTORS
330
137
102
}
100
AcDbEntity
  8
0
370
              -2
390
0
  6
Continuous
 62
               0
100
AcDbCircle
 10
-765.92034579639972
 20
-479.1330928420856
 30
0.0
 40
4.99969482421875
  0
HATCH
  5
137
100
AcDbEntity
  8
0
370
              -2
390
0
  6
Continuous
 62
               0
100
AcDbHatch
 10
0.0
 20
0.0
 30
0.0
210
0.0
220
0.0
230
1.0
  2
SOLID
 70
               1
 71
               1
 91
        1
 92
        1
 93
        1
 72
               2
 10
-765.92034579639972
 20
-479.1330928420856
 40
4.99969482421875
 50
0.0
 51
360.0
 73
               0
 97
        1
330
136
 75
               0
 76
               1
 98
        1
 10
0.0
 20
0.0
  0
CIRCLE
  5
138
102
{ACAD_REACTORS
330
139
102
}
100
AcDbEntity
  8
0
370
              -2
390
0
  6
Continuous
 62
               0
100
AcDbCircle
 10
-765.92034579639972
 20
-589.1330928420864
 30
0.0
 40
4.99969482421875
  0
HATCH
  5
139
100
AcDbEntity
  8
0
370
              -2
390
0
  6
Continuous
 62
               0
100
AcDbHatch
 10
0.0
 20
0.0
 30
0.0
210
0.0
220
0.0
230
1.0
  2
SOLID
 70
               1
 71
               1
 91
        1
 92
        1
 93
        1
 72
               2
 10
-765.92034579639972
 20
-589.1330928420864
 40
4.99969482421875
 50
0.0
 51
360.0
 73
               0
 97
        1
330
138
 75
               0
 76
               1
 98
        1
 10
0.0
 20
0.0
  0
MTEXT
  5
13A
100
AcDbEntity
  8
0
390
0
 62
               0
100
AcDbMText
 10
-799.79796298389977
 20
-557.94559452426154
 30
0.0
 40
24.432617187500004
 41
0.0
 71
               1
 72
               1
  1
110
  7
ＭＳ ゴシック
 11
0.0
 21
1.0
 31
0.0
 73
               1
 44
0.7828267384257843
  0
POINT
  5
13B
100
AcDbEntity
  8
Defpoints
370
               0
390
0
 62
               0
100
AcDbPoint
 10
-643.42034579639972
 20
-589.1330928420864
 30
0.0
  0
POINT
  5
13C
100
AcDbEntity
  8
Defpoints
370
               0
390
0
 62
               0
100
AcDbPoint
 10
-643.42034579639972
 20
-479.1330928420856
 30
0.0
  0
POINT
  5
13D
100
AcDbEntity
  8
Defpoints
370
               0
390
0
 62
               0
100
AcDbPoint
 10
-765.92034579639972
 20
-479.1330928420856
 30
0.0
  0
ENDBLK
  5
13E
100
AcDbEntity
  8
notes
390
0
100
AcDbBlockEnd
  0
BLOCK
  5
13F
100
AcDbEntity
  8
notes
390
0
100
AcDbBlockBegin
  2
*D19
 70
               1
 10
0.0
 20
0.0
 30
0.0
  3
*D19
  1

  0
LINE
  5
140
100
AcDbEntity
  8
0
370
              -2
390
0
  6
Continuous
 62
               0
100
AcDbLine
 10
532.87824595767734
 20
-639.13309284208663
 30
0.0
 11
532.87824595767734
 21
-714.13309284208663
 31
0.0
  0
LINE
  5
141
100
AcDbEntity
  8
0
370
              -2
390
0
  6
Continuous
 62
               0
100
AcDbLine
 10
370.37824595767734
 20
-634.13309284208663
 30
0.0
 11
370.37824595767734
 21
-714.13309284208663
 31
0.0
  0
LINE
  5
142
100
AcDbEntity
  8
0
370
              -2
390
0
  6
Continuous
 62
               0
100
AcDbLine
 10
532.87824595767734
 20
-714.13309284208663
 30
0.0
 11
370.37824595767734
 21
-714.13309284208663
 31
0.0
  0
CIRCLE
  5
143
102
{ACAD_REACTORS
330
144
102
}
100
AcDbEntity
  8
0
370
              -2
390
0
  6
Continuous
 62
               0
100
AcDbCircle
 10
532.87824595767734
 20
-714.13309284208663
 30
0.0
 40
4.99969482421875
  0
HATCH
  5
144
100
AcDbEntity
  8
0
370
              -2
390
0
  6
Continuous
 62
               0
100
AcDbHatch
 10
0.0
 20
0.0
 30
0.0
210
0.0
220
0.0
230
1.0
  2
SOLID
 70
               1
 71
               1
 91
        1
 92
        1
 93
        1
 72
               2
 10
532.87824595767734
 20
-714.13309284208663
 40
4.99969482421875
 50
0.0
 51
360.0
 73
               0
 97
        1
330
143
 75
               0
 76
               1
 98
        1
 10
0.0
 20
0.0
  0
CIRCLE
  5
145
102
{ACAD_REACTORS
330
146
102
}
100
AcDbEntity
  8
0
370
              -2
390
0
  6
Continuous
 62
               0
100
AcDbCircle
 10
370.37824595767734
 20
-714.13309284208663
 30
0.0
 40
4.99969482421875
  0
HATCH
  5
146
100
AcDbEntity
  8
0
370
              -2
390
0
  6
Continuous
 62
               0
100
AcDbHatch
 10
0.0
 20
0.0
 30
0.0
210
0.0
220
0.0
230
1.0
  2
SOLID
 70
               1
 71
               1
 91
        1
 92
        1
 93
        1
 72
               2
 10
370.37824595767734
 20
-714.13309284208663
 40
4.99969482421875
 50
0.0
 51
360.0
 73
               0
 97
        1
330
145
 75
               0
 76
               1
 98
        1
 10
0.0
 20
0.0
  0
MTEXT
  5
147
100
AcDbEntity
  8
0
390
0
 62
               0
100
AcDbMText
 10
411.94074595767734
 20
-680.25547565458669
 30
0.0
 40
24.432617187500004
 41
0.0
 71
               1
 72
               1
  1
162.5
  7
ＭＳ ゴシック
 73
               1
 44
0.7828267384257843
  0
POINT
  5
148
100
AcDbEntity
  8
Defpoints
370
               0
390
0
 62
               0
100
AcDbPoint
 10
370.37824595767734
 20
-609.13309284208663
 30
0.0
  0
POINT
  5
149
100
AcDbEntity
  8
Defpoints
370
               0
390
0
 62
               0
100
AcDbPoint
 10
532.87824595767734
 20
-614.13309284208663
 30
0.0
  0
POINT
  5
14A
100
AcDbEntity
  8
Defpoints
370
               0
390
0
 62
               0
100
AcDbPoint
 10
532.87824595767734
 20
-714.13309284208663
 30
0.0
  0
ENDBLK
  5
14B
100
AcDbEntity
  8
notes
390
0
100
AcDbBlockEnd
  0
BLOCK
  5
14C
100
AcDbEntity
  8
notes
390
0
100
AcDbBlockBegin
  2
*D20
 70
               1
 10
0.0
 20
0.0
 30
0.0
  3
*D20
  1

  0
LINE
  5
14D
100
AcDbEntity
  8
0
370
              -2
390
0
  6
Continuous
 62
               0
100
AcDbLine
 10
-663.42034579639972
 20
-634.13309284208663
 30
0.0
 11
-663.42034579639972
 21
-764.13309284208663
 31
0.0
  0
LINE
  5
14E
100
AcDbEntity
  8
0
370
              -2
390
0
  6
Continuous
 62
               0
100
AcDbLine
 10
-475.92034579639972
 20
-589.00803882552168
 30
0.0
 11
-475.92034579639972
 21
-764.13309284208663
 31
0.0
  0
LINE
  5
14F
100
AcDbEntity
  8
0
370
              -2
390
0
  6
Continuous
 62
               0
100
AcDbLine
 10
-663.42034579639972
 20
-764.13309284208663
 30
0.0
 11
-475.92034579639972
 21
-764.13309284208663
 31
0.0
  0
CIRCLE
  5
150
102
{ACAD_REACTORS
330
151
102
}
100
AcDbEntity
  8
0
370
              -2
390
0
  6
Continuous
 62
               0
100
AcDbCircle
 10
-663.42034579639972
 20
-764.13309284208663
 30
0.0
 40
4.99969482421875
  0
HATCH
  5
151
100
AcDbEntity
  8
0
370
              -2
390
0
  6
Continuous
 62
               0
100
AcDbHatch
 10
0.0
 20
0.0
 30
0.0
210
0.0
220
0.0
230
1.0
  2
SOLID
 70
               1
 71
               1
 91
        1
 92
        1
 93
        1
 72
               2
 10
-663.42034579639972
 20
-764.13309284208663
 40
4.99969482421875
 50
0.0
 51
360.0
 73
               0
 97
        1
330
150
 75
               0
 76
               1
 98
        1
 10
0.0
 20
0.0
  0
CIRCLE
  5
152
102
{ACAD_REACTORS
330
153
102
}
100
AcDbEntity
  8
0
370
              -2
390
0
  6
Continuous
 62
               0
100
AcDbCircle
 10
-475.92034579639972
 20
-764.13309284208663
 30
0.0
 40
4.99969482421875
  0
HATCH
  5
153
100
AcDbEntity
  8
0
370
              -2
390
0
  6
Continuous
 62
               0
100
AcDbHatch
 10
0.0
 20
0.0
 30
0.0
210
0.0
220
0.0
230
1.0
  2
SOLID
 70
               1
 71
               1
 91
        1
 92
        1
 93
        1
 72
               2
 10
-475.92034579639972
 20
-764.13309284208663
 40
4.99969482421875
 50
0.0
 51
360.0
 73
               0
 97
        1
330
152
 75
               0
 76
               1
 98
        1
 10
0.0
 20
0.0
  0
MTEXT
  5
154
100
AcDbEntity
  8
0
390
0
 62
               0
100
AcDbMText
 10
-609.35784579639972
 20
-730.25547565458669
 30
0.0
 40
24.432617187500004
 41
0.0
 71
               1
 72
               1
  1
187.5
  7
ＭＳ ゴシック
 73
               1
 44
0.7828267384257843
  0
POINT
  5
155
100
AcDbEntity
  8
Defpoints
370
               0
390
0
 62
               0
100
AcDbPoint
 10
-475.92034579639972
 20
-564.00803882552168
 30
0.0
  0
POINT
  5
156
100
AcDbEntity
  8
Defpoints
370
               0
390
0
 62
               0
100
AcDbPoint
 10
-663.42034579639972
 20
-609.13309284208663
 30
0.0
  0
POINT
  5
157
100
AcDbEntity
  8
Defpoints
370
               0
390
0
 62
               0
100
AcDbPoint
 10
-663.42034579639972
 20
-764.13309284208663
 30
0.0
  0
ENDBLK
  5
158
100
AcDbEntity
  8
notes
390
0
100
AcDbBlockEnd
  0
BLOCK
  5
159
100
AcDbEntity
  8
notes
390
0
100
AcDbBlockBegin
  2
*D21
 70
               1
 10
0.0
 20
0.0
 30
0.0
  3
*D21
  1

  0
LINE
  5
15A
100
AcDbEntity
  8
0
370
              -2
390
0
  6
Continuous
 62
               0
100
AcDbLine
 10
-510.93095706325755
 20
-629.13309284208663
 30
0.0
 11
-510.93095706325755
 21
-711.13309284208663
 31
0.0
  0
LINE
  5
15B
100
AcDbEntity
  8
0
370
              -2
390
0
  6
Continuous
 62
               0
100
AcDbLine
 10
-440.93095706325755
 20
-629.13309284208663
 30
0.0
 11
-440.93095706325755
 21
-711.13309284208663
 31
0.0
  0
LINE
  5
15C
100
AcDbEntity
  8
0
370
              -2
390
0
  6
Continuous
 62
               0
100
AcDbLine
 10
-510.93095706325755
 20
-711.13309284208663
 30
0.0
 11
-440.93095706325755
 21
-711.13309284208663
 31
0.0
  0
CIRCLE
  5
15D
102
{ACAD_REACTORS
330
15E
102
}
100
AcDbEntity
  8
0
370
              -2
390
0
  6
Continuous
 62
               0
100
AcDbCircle
 10
-510.93095706325755
 20
-711.13309284208663
 30
0.0
 40
4.99969482421875
  0
HATCH
  5
15E
100
AcDbEntity
  8
0
370
              -2
390
0
  6
Continuous
 62
               0
100
AcDbHatch
 10
0.0
 20
0.0
 30
0.0
210
0.0
220
0.0
230
1.0
  2
SOLID
 70
               1
 71
               1
 91
        1
 92
        1
 93
        1
 72
               2
 10
-510.93095706325755
 20
-711.13309284208663
 40
4.99969482421875
 50
0.0
 51
360.0
 73
               0
 97
        1
330
15D
 75
               0
 76
               1
 98
        1
 10
0.0
 20
0.0
  0
CIRCLE
  5
15F
102
{ACAD_REACTORS
330
160
102
}
100
AcDbEntity
  8
0
370
              -2
390
0
  6
Continuous
 62
               0
100
AcDbCircle
 10
-440.93095706325755
 20
-711.13309284208663
 30
0.0
 40
4.99969482421875
  0
HATCH
  5
160
100
AcDbEntity
  8
0
370
              -2
390
0
  6
Continuous
 62
               0
100
AcDbHatch
 10
0.0
 20
0.0
 30
0.0
210
0.0
220
0.0
230
1.0
  2
SOLID
 70
               1
 71
               1
 91
        1
 92
        1
 93
        1
 72
               2
 10
-440.93095706325755
 20
-711.13309284208663
 40
4.99969482421875
 50
0.0
 51
360.0
 73
               0
 97
        1
330
15F
 75
               0
 76
               1
 98
        1
 10
0.0
 20
0.0
  0
MTEXT
  5
161
100
AcDbEntity
  8
0
390
0
 62
               0
100
AcDbMText
 10
-491.80595706325755
 20
-677.25547565458646
 30
0.0
 40
24.432617187500004
 41
0.0
 71
               1
 72
               1
  1
70
  7
ＭＳ ゴシック
 73
               1
 44
0.7828267384257843
  0
POINT
  5
162
100
AcDbEntity
  8
Defpoints
370
               0
390
0
 62
               0
100
AcDbPoint
 10
-440.93095706325755
 20
-604.13309284208663
 30
0.0
  0
POINT
  5
163
100
AcDbEntity
  8
Defpoints
370
               0
390
0
 62
               0
100
AcDbPoint
 10
-510.93095706325755
 20
-604.13309284208663
 30
0.0
  0
POINT
  5
164
100
AcDbEntity
  8
Defpoints
370
               0
390
0
 62
               0
100
AcDbPoint
 10
-510.93095706325755
 20
-711.13309284208663
 30
0.0
  0
ENDBLK
  5
165
100
AcDbEntity
  8
notes
390
0
100
AcDbBlockEnd
  0
BLOCK
  5
166
100
AcDbEntity
  8
notes
390
0
100
AcDbBlockBegin
  2
*D22
 70
               1
 10
0.0
 20
0.0
 30
0.0
  3
*D22
  1

  0
LINE
  5
167
100
AcDbEntity
  8
0
370
              -2
390
0
  6
Continuous
 62
               0
100
AcDbLine
 10
592.86904293674115
 20
-604.13309284208663
 30
0.0
 11
845.37824595767756
 21
-604.13309284208663
 31
0.0
  0
LINE
  5
168
100
AcDbEntity
  8
0
370
              -2
390
0
  6
Continuous
 62
               0
100
AcDbLine
 10
715.37824595767893
 20
-454.13309284208668
 30
0.0
 11
845.37824595767756
 21
-454.13309284208668
 31
0.0
  0
LINE
  5
169
100
AcDbEntity
  8
0
370
              -2
390
0
  6
Continuous
 62
               0
100
AcDbLine
 10
845.37824595767756
 20
-604.13309284208663
 30
0.0
 11
845.37824595767756
 21
-454.13309284208668
 31
0.0
  0
CIRCLE
  5
16A
102
{ACAD_REACTORS
330
16B
102
}
100
AcDbEntity
  8
0
370
              -2
390
0
  6
Continuous
 62
               0
100
AcDbCircle
 10
845.37824595767756
 20
-604.13309284208663
 30
0.0
 40
4.99969482421875
  0
HATCH
  5
16B
100
AcDbEntity
  8
0
370
              -2
390
0
  6
Continuous
 62
               0
100
AcDbHatch
 10
0.0
 20
0.0
 30
0.0
210
0.0
220
0.0
230
1.0
  2
SOLID
 70
               1
 71
               1
 91
        1
 92
        1
 93
        1
 72
               2
 10
845.37824595767756
 20
-604.13309284208663
 40
4.99969482421875
 50
0.0
 51
360.0
 73
               0
 97
        1
330
16A
 75
               0
 76
               1
 98
        1
 10
0.0
 20
0.0
  0
CIRCLE
  5
16C
102
{ACAD_REACTORS
330
16D
102
}
100
AcDbEntity
  8
0
370
              -2
390
0
  6
Continuous
 62
               0
100
AcDbCircle
 10
845.37824595767756
 20
-454.13309284208668
 30
0.0
 40
4.99969482421875
  0
HATCH
  5
16D
100
AcDbEntity
  8
0
370
              -2
390
0
  6
Continuous
 62
               0
100
AcDbHatch
 10
0.0
 20
0.0
 30
0.0
210
0.0
220
0.0
230
1.0
  2
SOLID
 70
               1
 71
               1
 91
        1
 92
        1
 93
        1
 72
               2
 10
845.37824595767756
 20
-454.13309284208668
 40
4.99969482421875
 50
0.0
 51
360.0
 73
               0
 97
        1
330
16C
 75
               0
 76
               1
 98
        1
 10
0.0
 20
0.0
  0
MTEXT
  5
16E
100
AcDbEntity
  8
0
390
0
 62
               0
100
AcDbMText
 10
811.50062877017751
 20
-542.12326167897049
 30
0.0
 40
24.432617187500004
 41
0.0
 71
               1
 72
               1
  1
150
  7
ＭＳ ゴシック
 11
0.0
 21
1.0
 31
0.0
 73
               1
 44
0.7828267384257843
  0
POINT
  5
16F
100
AcDbEntity
  8
Defpoints
370
               0
390
0
 62
               0
100
AcDbPoint
 10
690.37824595767893
 20
-454.13309284208668
 30
0.0
  0
POINT
  5
170
100
AcDbEntity
  8
Defpoints
370
               0
390
0
 62
               0
100
AcDbPoint
 10
567.86904293674115
 20
-604.13309284208663
 30
0.0
  0
POINT
  5
171
100
AcDbEntity
  8
Defpoints
370
               0
390
0
 62
               0
100
AcDbPoint
 10
845.37824595767756
 20
-604.13309284208663
 30
0.0
  0
ENDBLK
  5
172
100
AcDbEntity
  8
notes
390
0
100
AcDbBlockEnd
  0
BLOCK
  5
173
100
AcDbEntity
  8
notes
390
0
100
AcDbBlockBegin
  2
*D23
 70
               1
 10
0.0
 20
0.0
 30
0.0
  3
*D23
  1

  0
LINE
  5
174
100
AcDbEntity
  8
0
370
              -2
390
0
  6
Continuous
 62
               0
100
AcDbLine
 10
-459.51887007163668
 20
582.63764059897494
 30
0.0
 11
-430.54021571235251
 21
549.30151214027865
 31
0.0
  0
LINE
  5
175
100
AcDbEntity
  8
0
370
              -2
390
0
  6
Continuous
 62
               0
100
AcDbLine
 10
-321.7843716809839
 20
702.36841338974546
 30
0.0
 11
-292.80571732169949
 21
669.03228493104871
 31
0.0
  0
LINE
  5
176
100
AcDbEntity
  8
0
370
              -2
390
0
  6
Continuous
 62
               0
100
AcDbLine
 10
-430.54021571235251
 20
549.30151214027865
 30
0.0
 11
-292.80571732169949
 21
669.03228493104871
 31
0.0
  0
CIRCLE
  5
177
102
{ACAD_REACTORS
330
178
102
}
100
AcDbEntity
  8
0
370
              -2
390
0
  6
Continuous
 62
               0
100
AcDbCircle
 10
-430.54021571235251
 20
549.30151214027865
 30
0.0
 40
4.99969482421875
  0
HATCH
  5
178
100
AcDbEntity
  8
0
370
              -2
390
0
  6
Continuous
 62
               0
100
AcDbHatch
 10
0.0
 20
0.0
 30
0.0
210
0.0
220
0.0
230
1.0
  2
SOLID
 70
               1
 71
               1
 91
        1
 92
        1
 93
        1
 72
               2
 10
-430.54021571235251
 20
549.30151214027865
 40
4.99969482421875
 50
0.0
 51
360.0
 73
               0
 97
        1
330
177
 75
               0
 76
               1
 98
        1
 10
0.0
 20
0.0
  0
CIRCLE
  5
179
102
{ACAD_REACTORS
330
17A
102
}
100
AcDbEntity
  8
0
370
              -2
390
0
  6
Continuous
 62
               0
100
AcDbCircle
 10
-292.80571732169949
 20
669.03228493104871
 30
0.0
 40
4.99969482421875
  0
HATCH
  5
17A
100
AcDbEntity
  8
0
370
              -2
390
0
  6
Continuous
 62
               0
100
AcDbHatch
 10
0.0
 20
0.0
 30
0.0
210
0.0
220
0.0
230
1.0
  2
SOLID
 70
               1
 71
               1
 91
        1
 92
        1
 93
        1
 72
               2
 10
-292.80571732169949
 20
669.03228493104871
 40
4.99969482421875
 50
0.0
 51
360.0
 73
               0
 97
        1
330
179
 75
               0
 76
               1
 98
        1
 10
0.0
 20
0.0
  0
MTEXT
  5
17B
100
AcDbEntity
  8
0
390
0
 62
               0
100
AcDbMText
 10
-413.85121961866071
 20
608.69731806912773
 30
0.0
 40
24.432617187500004
 41
0.0
 71
               1
 72
               1
  1
182.5
  7
ＭＳ ゴシック
 11
0.7547095802227584
 21
0.656059028990523
 31
0.0
 73
               1
 44
0.7828267384257843
  0
POINT
  5
17C
100
AcDbEntity
  8
Defpoints
370
               0
390
0
 62
               0
100
AcDbPoint
 10
-338.18584740574704
 20
721.23615289531449
 30
0.0
  0
POINT
  5
17D
100
AcDbEntity
  8
Defpoints
370
               0
390
0
 62
               0
100
AcDbPoint
 10
-475.92034579639972
 20
601.50538010454397
 30
0.0
  0
POINT
  5
17E
100
AcDbEntity
  8
Defpoints
370
               0
390
0
 62
               0
100
AcDbPoint
 10
-430.54021571235251
 20
549.30151214027865
 30
0.0
  0
ENDBLK
  5
17F
100
AcDbEntity
  8
notes
390
0
100
AcDbBlockEnd
  0
BLOCK
  5
180
100
AcDbEntity
  8
notes
390
0
100
AcDbBlockBegin
  2
*D24
 70
               1
 10
0.0
 20
0.0
 30
0.0
  3
*D24
  1

  0
LINE
  5
181
100
AcDbEntity
  8
0
370
              -2
390
0
  6
Continuous
 62
               0
100
AcDbLine
 10
-323.82342140817684
 20
710.40568666010995
 30
0.0
 11
-223.3309570632583
 21
635.10505861002366
 31
0.0
  0
CIRCLE
  5
182
102
{ACAD_REACTORS
330
183
102
}
100
AcDbEntity
  8
0
370
              -2
390
0
  6
Continuous
 62
               0
100
AcDbCircle
 10
-323.82342140817684
 20
710.40568666010995
 30
0.0
 40
4.99969482421875
  0
HATCH
  5
183
100
AcDbEntity
  8
0
370
              -2
390
0
  6
Continuous
 62
               0
100
AcDbHatch
 10
0.0
 20
0.0
 30
0.0
210
0.0
220
0.0
230
1.0
  2
SOLID
 70
               1
 71
               1
 91
        1
 92
        1
 93
        1
 72
               2
 10
-323.82342140817684
 20
710.40568666010995
 40
4.99969482421875
 50
0.0
 51
360.0
 73
               0
 97
        1
330
182
 75
               0
 76
               1
 98
        1
 10
0.0
 20
0.0
  0
LINE
  5
184
100
AcDbEntity
  8
0
370
              -2
390
0
  6
Continuous
 62
               0
100
AcDbLine
 10
-223.3309570632583
 20
635.10505861002366
 30
0.0
 11
-99.830957063258296
 21
635.10505861002366
 31
0.0
  0
MTEXT
  5
185
100
AcDbEntity
  8
0
390
0
 62
               0
100
AcDbMText
 10
-163.3309570632583
 20
668.9826757975236
 30
0.0
 40
24.432617187500004
 41
0.0
 71
               1
 72
               1
  1
φ36
  7
ＭＳ ゴシック
 73
               1
 44
0.7828267384257843
  0
POINT
  5
186
100
AcDbEntity
  8
Defpoints
370
               0
390
0
 62
               0
100
AcDbPoint
 10
-352.6328750786239
 20
731.99307601617784
 30
0.0
  0
POINT
  5
187
100
AcDbEntity
  8
Defpoints
370
               0
390
0
 62
               0
100
AcDbPoint
 10
-323.82342140817684
 20
710.40568666010995
 30
0.0
  0
ENDBLK
  5
188
100
AcDbEntity
  8
notes
390
0
100
AcDbBlockEnd
  0
ENDSEC
  0
SECTION
  2
ENTITIES
  0
MTEXT
  5
189
100
AcDbEntity
  8
template
390
0
 62
               7
100
AcDbMText
 10
-967.99999999975921
 20
-1147.4176292337004
 30
0.0
 40
16.288411458333332
 41
0.0
 71
               1
 72
               1
  1
品名
  7
ＭＳ ゴシック
 73
               1
 44
0.7828267384257843
  0
MTEXT
  5
18A
100
AcDbEntity
  8
template
390
0
 62
               7
100
AcDbMText
 10
-967.99999999975921
 20
-1232.4176292337004
 30
0.0
 40
16.288411458333332
 41
0.0
 71
               1
 72
               1
  1
仕様
  7
ＭＳ ゴシック
 73
               1
 44
0.7828267384257843
  0
MTEXT
  5
18B
100
AcDbEntity
  8
template
390
0
 62
               7
100
AcDbMText
 10
-914.99999999975921
 20
-1176.0000901712006
 30
0.0
 40
24.432617187500004
 41
0.0
 71
               1
 72
               1
  1
手洗器 -ALAPE-
  7
ＭＳ ゴシック
 73
               1
 44
0.7828267384257843
  0
LINE
  5
18C
100
AcDbEntity
  8
template
370
               5
390
0
  6
Continuous
 62
               7
100
AcDbLine
 10
974.99999999975876
 20
-1224.0027073587005
 30
0.0
 11
-975.00000000024124
 21
-1224.0027073587005
 31
0.0
  0
LWPOLYLINE
  5
18D
100
AcDbEntity
  8
template
370
               5
390
0
  6
Continuous
 62
               7
100
AcDbPolyline
 90
        5
 70
             128
 10
975.00000000024124
 20
1405.9972926412995
 10
-974.99999999975921
 20
1405.9972926412995
 10
-974.99999999975921
 20
-1394.0027073587005
 10
975.00000000024124
 20
-1394.0027073587005
 10
975.00000000024124
 20
1405.9972926412995
  0
LINE
  5
18E
100
AcDbEntity
  8
template
370
               5
390
0
  6
Continuous
 62
               7
100
AcDbLine
 10
974.99999999975876
 20
-1139.0027073587005
 30
0.0
 11
-975.00000000024124
 21
-1139.0027073587005
 31
0.0
  0
LINE
  5
18F
100
AcDbEntity
  8
template
370
               5
390
0
  6
Continuous
 62
               7
100
AcDbLine
 10
975.00000000024124
 20
-1309.0027073587005
 30
0.0
 11
222.00000000024124
 21
-1309.0027073587005
 31
0.0
  0
MTEXT
  5
190
100
AcDbEntity
  8
template
390
0
 62
               7
100
AcDbMText
 10
-974.99999999955594
 20
-1405.8565294155574
 30
0.0
 40
21.717881944444446
 41
0.0
 71
               1
 72
               1
  1
120501SH
  7
ＭＳ ゴシック
 73
               1
 44
0.7828267384257843
  0
MTEXT
  5
191
100
AcDbEntity
  8
template
390
0
 62
               7
100
AcDbMText
 10
251.87140625250089
 20
-1338.9131018320081
 30
0.0
 40
24.432617187500004
 41
0.0
 71
               1
 72
               1
  1
大洋金物株式会社 ティーフォルム事業部
  7
ＭＳ ゴシック
 73
               1
 44
0.7828267384257843
  0
INSERT
  5
192
100
AcDbEntity
  8
template
390
0
 62
               7
100
AcDbBlockReference
  2
グループ
 10
112.50000000000003
 20
-118.13679245283021
 30
0.0
  0
MTEXT
  5
193
100
AcDbEntity
  8
template
390
0
 62
               7
100
AcDbMText
 10
784.00000000049999
 20
-1261.0000901712006
 30
0.0
 40
24.432617187500004
 41
0.0
 71
               1
 72
               1
  1
1:10
  7
ＭＳ ゴシック
 73
               1
 44
0.7828267384257843
  0
MTEXT
  5
194
100
AcDbEntity
  8
template
390
0
 62
               7
100
AcDbMText
 10
731.00000000049999
 20
-1232.4176292337004
 30
0.0
 40
16.288411458333332
 41
0.0
 71
               1
 72
               1
  1
縮尺
  7
ＭＳ ゴシック
 73
               1
 44
0.7828267384257843
  0
LINE
  5
195
100
AcDbEntity
  8
template
370
               5
390
0
  6
Continuous
 62
               7
100
AcDbLine
 10
724.00000000049999
 20
-1309.0027073587005
 30
0.0
 11
724.00000000049999
 21
-1224.0027073587005
 31
0.0
  0
MTEXT
  5
196
100
AcDbEntity
  8
template
390
0
 62
               7
100
AcDbMText
 10
480.00000000049999
 20
-1232.4176292337004
 30
0.0
 40
16.288411458333332
 41
0.0
 71
               1
 72
               1
  1
容量
  7
ＭＳ ゴシック
 73
               1
 44
0.7828267384257843
  0
LINE
  5
197
100
AcDbEntity
  8
template
370
               5
390
0
  6
Continuous
 62
               7
100
AcDbLine
 10
473.00000000049999
 20
-1309.0027073587005
 30
0.0
 11
473.00000000049999
 21
-1224.0027073587005
 31
0.0
  0
MTEXT
  5
198
100
AcDbEntity
  8
template
390
0
 62
               7
100
AcDbMText
 10
229.00000000049999
 20
-1147.4176292337004
 30
0.0
 40
16.288411458333332
 41
0.0
 71
               1
 72
               1
  1
品番
  7
ＭＳ ゴシック
 73
               1
 44
0.7828267384257843
  0
MTEXT
  5
199
100
AcDbEntity
  8
template
390
0
 62
               7
100
AcDbMText
 10
229.00000000049999
 20
-1232.4176292337004
 30
0.0
 40
16.288411458333332
 41
0.0
 71
               1
 72
               1
  1
重量
  7
ＭＳ ゴシック
 73
               1
 44
0.7828267384257843
  0
MTEXT
  5
19A
100
AcDbEntity
  8
template
390
0
 62
               7
100
AcDbMText
 10
282.00000000049999
 20
-1176.0000901712006
 30
0.0
 40
24.432617187500004
 41
0.0
 71
               1
 72
               1
  1
FAN70-0204
  7
ＭＳ ゴシック
 73
               1
 44
0.7828267384257843
  0
MTEXT
  5
19B
100
AcDbEntity
  8
template
390
0
 62
               7
100
AcDbMText
 10
282.00000000049999
 20
-1261.0000901712006
 30
0.0
 40
24.432617187500004
 41
0.0
 71
               1
 72
               1
  1
9.5kg
  7
ＭＳ ゴシック
 73
               1
 44
0.7828267384257843
  0
LINE
  5
19C
100
AcDbEntity
  8
template
370
               5
390
0
  6
Continuous
 62
               7
100
AcDbLine
 10
222.00000000049999
 20
-1394.0027073587005
 30
0.0
 11
222.00000000049999
 21
-1139.0027073587005
 31
0.0
  0
MTEXT
  5
19D
100
AcDbEntity
  8
template
390
0
 62
               7
100
AcDbMText
 10
-914.99999999975921
 20
-1261.0000901712003
 30
0.0
 40
24.432617187500004
 41
0.0
 71
               1
 72
               1
  1
壁掛け/オーバーフローなし/壁取付ボルト付属/\P鋼板ホーロー/ホワイト
  7
ＭＳ ゴシック
 73
               1
 44
1.1307497332816883
  0
MTEXT
  5
19E
100
AcDbEntity
  8
template
390
0
 62
               7
100
AcDbMText
 10
545.00000000049999
 20
-1261.0000901712006
 30
0.0
 40
24.432617187500004
 41
0.0
 71
               1
 72
               1
  1
3.8L
  7
ＭＳ ゴシック
 73
               1
 44
0.7828267384257843
  0
LINE
  5
19F
100
AcDbEntity
  8
template
370
               5
390
0
  6
STYLE_12
 62
               7
100
AcDbLine
 10
497.86904293674115
 20
-571.0
 30
0.0
 11
567.86904293674115
 21
-571.0
 31
0.0
  0
LINE
  5
1A0
100
AcDbEntity
  8
template
370
               5
390
0
  6
STYLE_12
 62
               7
100
AcDbLine
 10
-510.13095706325885
 20
-573.0
 30
0.0
 11
-440.13095706325885
 21
-573.0
 31
0.0
  0
DIMENSION
  5
1A1
100
AcDbEntity
  8
template
370
               5
390
0
  6
Continuous
 62
               7
100
AcDbDimension
  2
*D2
 10
-765.79534579639972
 20
-454.1330928420856
 30
0.0
 11
-770.79534579639972
 21
-445.0
 31
0.0
 70
             128
 71
               5
 72
               1
 41
1.0
 42
0.0
  3
tfrom線あり
100
AcDbAlignedDimension
 13
-643.42034579639972
 23
-479.1330928420856
 33
0.0
 14
-658.42034579639972
 24
-454.1330928420856
 34
0.0
 50
90.0
100
AcDbRotatedDimension
1001
ACAD
1000
DSTYLE
1002
{
1070
             279
1070
               2
1070
             340
1005
3B
1070
             174
1070
               0
1070
             147
1040
5.0
1002
}
  0
DIMENSION
  5
1A2
100
AcDbEntity
  8
notes
370
               5
390
0
  6
Continuous
 62
               7
100
AcDbDimension
  2
*D3
 10
-63.420345796400028
 20
914.00538010454397
 30
0.0
 11
-368.13626795568291
 21
919.00538010454397
 31
0.0
 70
             128
 71
               5
 72
               1
 41
1.0
 42
0.0
  3
tfrom線あり
100
AcDbAlignedDimension
 13
-663.42034579639972
 23
764.00538010454375
 33
0.0
 14
-63.420345796399999
 24
764.00538010454375
 34
0.0
100
AcDbRotatedDimension
1001
ACAD
1000
DSTYLE
1002
{
1070
             271
1070
               4
1070
             279
1070
               2
1070
             340
1005
3B
1070
             147
1040
5.0
1002
}
  0
DIMENSION
  5
1A3
100
AcDbEntity
  8
notes
370
               5
390
0
  6
Continuous
 62
               7
100
AcDbDimension
  2
*D4
 10
-338.4281482434003
 20
864.00538010454375
 30
0.0
 11
-200.92814824340033
 21
864.00538010454375
 31
0.0
 71
               5
 72
               1
 41
1.0
 42
0.0
  3
tfrom線あり
100
AcDbAlignedDimension
 13
-63.428148243400329
 23
754.40568666011063
 33
0.0
 14
-338.4281482434003
 24
764.00538010454375
 34
0.0
100
AcDbRotatedDimension
1001
ACAD
1000
DSTYLE
1002
{
1070
             279
1070
               2
1070
             340
1005
3B
1070
             147
1040
5.0
1002
}
  0
DIMENSION
  5
1A4
100
AcDbEntity
  8
notes
370
               5
390
0
  6
Continuous
 62
               7
100
AcDbDimension
  2
*D5
 10
-663.42034579639949
 20
339.0053801045446
 30
0.0
 11
-638.4203457963996
 21
339.0053801045446
 31
0.0
 71
               5
 72
               1
 41
1.0
 42
0.0
  3
tfrom線あり
100
AcDbAlignedDimension
 13
-613.42034579639972
 23
439.00538010454471
 33
0.0
 14
-663.42034579639949
 24
444.0053801045446
 34
0.0
100
AcDbRotatedDimension
1001
ACAD
1000
DSTYLE
1002
{
1070
             279
1070
               2
1070
             340
1005
3B
1070
             147
1040
5.0
1002
}
  0
DIMENSION
  5
1A5
100
AcDbEntity
  8
notes
370
               5
390
0
  6
Continuous
 62
               7
100
AcDbDimension
  2
*D6
 10
-613.42034579639972
 20
339.00538010454471
 30
0.0
 11
-475.92034579640006
 21
339.00538010454471
 31
0.0
 71
               5
 72
               1
 41
1.0
 42
0.0
  3
tfrom線あり
100
AcDbAlignedDimension
 13
-338.4203457964004
 23
439.00538010454471
 33
0.0
 14
-613.42034579639972
 24
439.00538010454471
 34
0.0
100
AcDbRotatedDimension
1001
ACAD
1000
DSTYLE
1002
{
1070
             279
1070
               2
1070
             340
1005
3B
1070
             147
1040
5.0
1002
}
  0
DIMENSION
  5
1A6
100
AcDbEntity
  8
notes
370
               5
390
0
  6
Continuous
 62
               7
100
AcDbDimension
  2
*D7
 10
-338.4203457964004
 20
339.00538010454471
 30
0.0
 11
-200.9203457964002
 21
339.00538010454471
 31
0.0
 71
               5
 72
               1
 41
1.0
 42
0.0
  3
tfrom線あり
100
AcDbAlignedDimension
 13
-63.420345796399999
 23
444.0053801045446
 33
0.0
 14
-338.4203457964004
 24
439.00538010454471
 34
0.0
100
AcDbRotatedDimension
1001
ACAD
1000
DSTYLE
1002
{
1070
             279
1070
               2
1070
             340
1005
3B
1070
             147
1040
5.0
1002
}
  0
MTEXT
  5
1A7
100
AcDbEntity
  8
notes
390
0
 62
               7
100
AcDbMText
 10
-61.618267521765233
 20
-359.77643602969414
 30
0.0
 40
24.432617187500004
 41
0.0
 71
               1
 72
               1
  1
壁取付ボルト穴(6ヶ所)
  7
ＭＳ ゴシック
 73
               1
 44
0.7828267384257843
  0
LINE
  5
1A8
100
AcDbEntity
  8
notes
370
               5
390
0
  6
Continuous
 62
               7
100
AcDbLine
 10
-105.92034579640006
 20
-479.1330928420856
 30
0.0
 11
-48.83095706325787
 21
-393.59431333988795
 31
0.0
  0
DIMENSION
  5
1A9
100
AcDbEntity
  8
notes
370
               5
390
0
  6
Continuous
 62
               7
100
AcDbDimension
  2
*D8
 10
536.16904293674111
 20
-554.13688488978937
 30
0.0
 11
541.16904293674111
 21
-446.5943133398884
 31
0.0
 70
             128
 71
               5
 72
               1
 41
1.0
 42
0.0
  3
tfrom線あり
100
AcDbAlignedDimension
 13
532.87824595767734
 23
-454.13688488978937
 33
0.0
 14
532.87824595767643
 24
-554.13688488978937
 34
0.0
 50
90.0
100
AcDbRotatedDimension
1001
ACAD
1000
DSTYLE
1002
{
1070
             279
1070
               2
1070
             340
1005
3B
1070
               3
1000
<>(深さ)
1070
             174
1070
               0
1070
             147
1040
5.0
1002
}
  0
DIMENSION
  5
1AA
100
AcDbEntity
  8
notes
370
               5
390
0
  6
Continuous
 62
               7
100
AcDbDimension
  2
*D9
 10
-623.42034579639972
 20
-304.1330928420856
 30
0.0
 11
-363.42034579639972
 21
-304.1330928420856
 31
0.0
 71
               5
 72
               1
 41
1.0
 42
0.0
  3
tfrom線あり
100
AcDbAlignedDimension
 13
-103.42034579639969
 23
-459.1330928420856
 33
0.0
 14
-623.42034579639972
 24
-459.1330928420856
 34
0.0
100
AcDbRotatedDimension
1001
ACAD
1000
DSTYLE
1002
{
1070
             279
1070
               2
1070
             340
1005
3B
1070
             147
1040
5.0
1002
}
  0
DIMENSION
  5
1AB
100
AcDbEntity
  8
notes
370
               5
390
0
  6
Continuous
 62
               7
100
AcDbDimension
  2
*D10
 10
-503.42034579639972
 20
-354.1330928420856
 30
0.0
 11
-363.42034579640006
 21
-354.1330928420856
 31
0.0
 71
               5
 72
               1
 41
1.0
 42
0.0
  3
tfrom線あり
100
AcDbAlignedDimension
 13
-223.42034579640043
 23
-514.1330928420856
 33
0.0
 14
-503.42034579639972
 24
-514.1330928420856
 34
0.0
100
AcDbRotatedDimension
1001
ACAD
1000
DSTYLE
1002
{
1070
             279
1070
               2
1070
             340
1005
3B
1070
             147
1040
5.0
1002
}
  0
DIMENSION
  5
1AC
100
AcDbEntity
  8
notes
370
               5
390
0
  6
Continuous
 62
               7
100
AcDbDimension
  2
*D11
 10
86.579654203600001
 20
764.00538010454375
 30
0.0
 11
91.579654203600001
 21
601.18941423348906
 31
0.0
 70
             128
 71
               5
 72
               1
 41
1.0
 42
0.0
  3
tfrom線あり
100
AcDbAlignedDimension
 13
-63.420345796399999
 23
439.00538010454471
 33
0.0
 14
-63.420345796399999
 24
764.00538010454375
 34
0.0
 50
90.0
100
AcDbRotatedDimension
1001
ACAD
1000
DSTYLE
1002
{
1070
             271
1070
               4
1070
             279
1070
               2
1070
             340
1005
3B
1070
             147
1040
5.0
1002
}
  0
DIMENSION
  5
1AD
100
AcDbEntity
  8
notes
370
               5
390
0
  6
Continuous
 62
               7
100
AcDbDimension
  2
*D12
 10
36.704654203599631
 20
721.19938133814389
 30
0.0
 11
41.704654203599631
 21
774.54638195494385
 31
0.0
 70
             128
 71
               5
 72
               1
 41
1.0
 42
0.0
  3
tfrom線あり
100
AcDbAlignedDimension
 13
-68.420345796400113
 23
764.19938133814389
 33
0.0
 14
-320.22814824340037
 24
721.19938133814389
 34
0.0
 50
90.0
100
AcDbRotatedDimension
1001
ACAD
1000
DSTYLE
1002
{
1070
             279
1070
               2
1070
             340
1005
3B
1070
             174
1070
               0
1070
             147
1040
5.0
1002
}
  0
DIMENSION
  5
1AE
100
AcDbEntity
  8
notes
370
               5
390
0
  6
Continuous
 62
               7
100
AcDbDimension
  2
*D13
 10
86.57965420359983
 20
-454.13309284208549
 30
0.0
 11
91.57965420359983
 21
-534.13309284208617
 31
0.0
 70
             128
 71
               5
 72
               1
 41
1.0
 42
0.0
  3
tfrom線あり
100
AcDbAlignedDimension
 13
-68.420345796400056
 23
-614.13309284208663
 33
0.0
 14
-68.420345796400056
 24
-454.13309284208549
 34
0.0
 50
90.0
100
AcDbRotatedDimension
1001
ACAD
1000
DSTYLE
1002
{
1070
             271
1070
               4
1070
             279
1070
               2
1070
             340
1005
3B
1070
             147
1040
5.0
1002
}
  0
DIMENSION
  5
1AF
100
AcDbEntity
  8
notes
370
               5
390
0
  6
Continuous
 62
               7
100
AcDbDimension
  2
*D14
 10
36.579654203599517
 20
-534.13309284208572
 30
0.0
 11
36.579654203599517
 21
-494.1330928420856
 31
0.0
 71
               5
 72
               1
 41
1.0
 42
0.0
  3
tfrom線あり
100
AcDbAlignedDimension
 13
-68.420345796400056
 23
-454.13309284208549
 33
0.0
 14
-203.42034579640043
 24
-534.13309284208572
 34
0.0
 50
90.0
100
AcDbRotatedDimension
1001
ACAD
1000
DSTYLE
1002
{
1070
             279
1070
               2
1070
             340
1005
3B
1070
             147
1040
5.0
1002
}
  0
DIMENSION
  5
1B0
100
AcDbEntity
  8
notes
370
               5
390
0
  6
Continuous
 62
               7
100
AcDbDimension
  2
*D15
 10
-763.4203457963996
 20
739.00538010454375
 30
0.0
 11
-763.4203457963996
 21
601.5053801045442
 31
0.0
 71
               5
 72
               1
 41
1.0
 42
0.0
  3
tfrom線あり
100
AcDbAlignedDimension
 13
-663.42034579639949
 23
464.00538010454437
 33
0.0
 14
-663.42034579639949
 24
739.00538010454375
 34
0.0
 50
90.0
100
AcDbRotatedDimension
1001
ACAD
1000
DSTYLE
1002
{
1070
             279
1070
               2
1070
             340
1005
3B
1070
             147
1040
5.0
1002
}
  0
DIMENSION
  5
1B1
100
AcDbEntity
  8
notes
370
               5
390
0
  6
Continuous
 62
               7
100
AcDbDimension
  2
*D16
 10
-763.4203457963996
 20
739.00538010454375
 30
0.0
 11
-763.4203457963996
 21
751.50538010454375
 31
0.0
 71
               5
 72
               1
 41
1.0
 42
0.0
  3
tfrom線あり
100
AcDbAlignedDimension
 13
-658.42034579639972
 23
764.00538010454375
 33
0.0
 14
-663.42034579639949
 24
739.00538010454375
 34
0.0
 50
90.0
100
AcDbRotatedDimension
1001
ACAD
1000
DSTYLE
1002
{
1070
             279
1070
               2
1070
             340
1005
3B
1070
             147
1040
5.0
1002
}
  0
DIMENSION
  5
1B2
100
AcDbEntity
  8
notes
370
               5
390
0
  6
Continuous
 62
               7
100
AcDbDimension
  2
*D17
 10
-763.4203457963996
 20
464.00538010454437
 30
0.0
 11
-763.4203457963996
 21
451.5053801045446
 31
0.0
 71
               5
 72
               1
 41
1.0
 42
0.0
  3
tfrom線あり
100
AcDbAlignedDimension
 13
-658.42034579639949
 23
439.00538010454471
 33
0.0
 14
-663.42034579639949
 24
464.00538010454437
 34
0.0
 50
90.0
100
AcDbRotatedDimension
1001
ACAD
1000
DSTYLE
1002
{
1070
             279
1070
               2
1070
             340
1005
3B
1070
             147
1040
5.0
1002
}
  0
DIMENSION
  5
1B3
100
AcDbEntity
  8
notes
370
               5
390
0
  6
Continuous
 62
               7
100
AcDbDimension
  2
*D18
 10
-765.92034579639972
 20
-479.1330928420856
 30
0.0
 11
-765.92034579639972
 21
-534.13309284208594
 31
0.0
 71
               5
 72
               1
 41
1.0
 42
0.0
  3
tfrom線あり
100
AcDbAlignedDimension
 13
-643.42034579639972
 23
-589.1330928420864
 33
0.0
 14
-643.42034579639972
 24
-479.1330928420856
 34
0.0
 50
90.0
100
AcDbRotatedDimension
1001
ACAD
1000
DSTYLE
1002
{
1070
             279
1070
               2
1070
             340
1005
3B
1070
             147
1040
5.0
1002
}
  0
DIMENSION
  5
1B4
100
AcDbEntity
  8
notes
370
               5
390
0
  6
Continuous
 62
               7
100
AcDbDimension
  2
*D19
 10
532.87824595767734
 20
-714.13309284208663
 30
0.0
 11
451.62824595767734
 21
-714.13309284208663
 31
0.0
 71
               5
 72
               1
 41
1.0
 42
0.0
  3
tfrom線あり
100
AcDbAlignedDimension
 13
370.37824595767734
 23
-609.13309284208663
 33
0.0
 14
532.87824595767734
 24
-614.13309284208663
 34
0.0
100
AcDbRotatedDimension
1001
ACAD
1000
DSTYLE
1002
{
1070
             279
1070
               2
1070
             340
1005
3B
1070
             147
1040
5.0
1002
}
  0
DIMENSION
  5
1B5
100
AcDbEntity
  8
notes
370
               5
390
0
  6
Continuous
 62
               7
100
AcDbDimension
  2
*D20
 10
-663.42034579639972
 20
-764.13309284208663
 30
0.0
 11
-569.67034579639972
 21
-759.13309284208663
 31
0.0
 70
             128
 71
               5
 72
               1
 41
1.0
 42
0.0
  3
tfrom線あり
100
AcDbAlignedDimension
 13
-475.92034579639972
 23
-564.00803882552168
 33
0.0
 14
-663.42034579639972
 24
-609.13309284208663
 34
0.0
100
AcDbRotatedDimension
1001
ACAD
1000
DSTYLE
1002
{
1070
             279
1070
               2
1070
             340
1005
3B
1070
             147
1040
5.0
1002
}
  0
DIMENSION
  5
1B6
100
AcDbEntity
  8
notes
370
               5
390
0
  6
Continuous
 62
               7
100
AcDbDimension
  2
*D21
 10
-510.93095706325755
 20
-711.13309284208663
 30
0.0
 11
-475.93095706325755
 21
-711.13309284208663
 31
0.0
 71
               5
 72
               1
 41
1.0
 42
0.0
  3
tfrom線あり
100
AcDbAlignedDimension
 13
-440.93095706325755
 23
-604.13309284208663
 33
0.0
 14
-510.93095706325755
 24
-604.13309284208663
 34
0.0
100
AcDbRotatedDimension
1001
ACAD
1000
DSTYLE
1002
{
1070
             279
1070
               2
1070
             340
1005
3B
1070
             147
1040
5.0
1002
}
  0
DIMENSION
  5
1B7
100
AcDbEntity
  8
notes
370
               5
390
0
  6
Continuous
 62
               7
100
AcDbDimension
  2
*D22
 10
845.37824595767756
 20
-604.13309284208663
 30
0.0
 11
850.37824595767756
 21
-518.31075999679501
 31
0.0
 70
             128
 71
               5
 72
               1
 41
1.0
 42
0.0
  3
tfrom線あり
100
AcDbAlignedDimension
 13
690.37824595767893
 23
-454.13309284208668
 33
0.0
 14
567.86904293674115
 24
-604.13309284208663
 34
0.0
 50
90.0
100
AcDbRotatedDimension
1001
ACAD
1000
DSTYLE
1002
{
1070
             279
1070
               2
1070
             340
1005
3B
1070
             147
1040
5.0
1002
}
  0
DIMENSION
  5
1B8
100
AcDbEntity
  8
notes
370
               5
390
0
  6
Continuous
 62
               7
100
AcDbDimension
  2
*D23
 10
-430.54021571235251
 20
549.30151214027865
 30
0.0
 11
-361.672966517026
 21
609.16689853566368
 31
0.0
 70
               1
 71
               5
 72
               1
 41
1.0
 42
0.0
  3
tfrom線あり
100
AcDbAlignedDimension
 13
-338.18584740574704
 23
721.23615289531449
 33
0.0
 14
-475.92034579639972
 24
601.50538010454397
 34
0.0
 50
41.000000000001201
1001
ACAD
1000
DSTYLE
1002
{
1070
             279
1070
               2
1070
             340
1005
3B
1070
             147
1040
5.0
1002
}
  0
DIMENSION
  5
1B9
100
AcDbEntity
  8
notes
370
               5
390
0
  6
Continuous
 62
               7
100
AcDbDimension
  2
*D24
 10
-352.6328750786239
 20
731.99307601617784
 30
0.0
 11
-163.33095706325841
 21
635.10505861002343
 31
0.0
 70
               3
 71
               5
 72
               1
 41
1.0
 42
0.0
  3
tfrom線あり
100
AcDbDiametricDimension
 15
-323.82342140817684
 25
710.40568666010995
 35
0.0
 40
125.57436034020712
1001
ACAD
1000
DSTYLE
1002
{
1070
             289
1070
               0
1070
             342
1005
4E
1070
             340
1005
3B
1070
              75
1070
               1
1070
              76
1070
               1
1070
               3
1000

1070
             174
1070
               0
1070
             147
1040
5.0
1002
}
  0
ARC
  5
1BA
100
AcDbEntity
  8
FAN70-0204
370
              15
390
0
  6
Continuous
 62
               7
100
AcDbCircle
 10
-68.420345796400113
 20
759.00538010454375
 30
0.0
 40
5.0000000000001137
100
AcDbArc
 50
0.0
 51
90.0
  0
LINE
  5
1BB
100
AcDbEntity
  8
FAN70-0204
370
              15
390
0
  6
Continuous
 62
               7
100
AcDbLine
 10
-658.42034579639972
 20
764.00538010454375
 30
0.0
 11
-68.420345796400113
 21
764.00538010454375
 31
0.0
  0
ARC
  5
1BC
100
AcDbEntity
  8
FAN70-0204
370
              15
390
0
  6
Continuous
 62
               7
100
AcDbCircle
 10
-658.42034579639972
 20
759.00538010454375
 30
0.0
 40
5.0
100
AcDbArc
 50
90.0
 51
180.0
  0
LINE
  5
1BD
100
AcDbEntity
  8
FAN70-0204
370
              15
390
0
  6
Continuous
 62
               7
100
AcDbLine
 10
-663.42034579639949
 20
444.0053801045446
 30
0.0
 11
-663.42034579639972
 21
759.00538010454375
 31
0.0
  0
LINE
  5
1BE
100
AcDbEntity
  8
FAN70-0204
370
              15
390
0
  6
Continuous
 62
               7
100
AcDbLine
 10
-63.420345796399999
 20
759.00538010454375
 30
0.0
 11
-63.420345796399999
 21
444.0053801045446
 31
0.0
  0
CIRCLE
  5
1BF
100
AcDbEntity
  8
FAN70-0204
370
              15
390
0
  6
Continuous
 62
               7
100
AcDbCircle
 10
-475.92034579639972
 20
601.50538010454397
 30
0.0
 40
137.49999999999932
  0
ARC
  5
1C0
100
AcDbEntity
  8
FAN70-0204
370
              15
390
0
  6
Continuous
 62
               7
100
AcDbCircle
 10
-658.42034579639949
 20
444.0053801045446
 30
0.0
 40
5.0
100
AcDbArc
 50
180.00000000000131
 51
270.0
  0
ARC
  5
1C1
100
AcDbEntity
  8
FAN70-0204
370
              15
390
0
  6
Continuous
 62
               7
100
AcDbCircle
 10
-68.420345796399999
 20
444.0053801045446
 30
0.0
 40
4.9999999999998863
100
AcDbArc
 50
270.00000000000131
 51
0.0
  0
LINE
  5
1C2
100
AcDbEntity
  8
FAN70-0204
370
              15
390
0
  6
Continuous
 62
               7
100
AcDbLine
 10
-68.420345796399999
 20
439.00538010454471
 30
0.0
 11
-658.42034579639949
 21
439.00538010454471
 31
0.0
  0
CIRCLE
  5
1C3
100
AcDbEntity
  8
FAN70-0204
370
              15
390
0
  6
Continuous
 62
               7
100
AcDbCircle
 10
-475.92034579639972
 20
601.5053801045442
 30
0.0
 40
34.748994922088059
  0
CIRCLE
  5
1C4
100
AcDbEntity
  8
FAN70-0204
370
              15
390
0
  6
Continuous
 62
               7
100
AcDbCircle
 10
-475.92034579639972
 20
601.50538010454443
 30
0.0
 40
24.0
  0
LINE
  5
1C5
100
AcDbEntity
  8
FAN70-0204
370
              15
390
0
  6
Continuous
 62
               7
100
AcDbLine
 10
370.37824595767813
 20
-609.13309284208663
 30
0.0
 11
370.37824595767813
 21
-459.13309284208549
 31
0.0
  0
ARC
  5
1C6
100
AcDbEntity
  8
FAN70-0204
370
              15
390
0
  6
STYLE_12
 62
               7
100
AcDbCircle
 10
-469.62799955217042
 20
-410.1806852098174
 30
0.0
 40
152.00000000000014
100
AcDbArc
 50
197.63299518656845
 51
251.27677901051422
  0
LINE
  5
1C7
100
AcDbEntity
  8
FAN70-0204
370
              15
390
0
  6
STYLE_12
 62
               7
100
AcDbLine
 10
-518.41952108716873
 20
-554.13688488978937
 30
0.0
 11
-497.42034579639972
 21
-564.00803882552168
 31
0.0
  0
LINE
  5
1C8
100
AcDbEntity
  8
FAN70-0204
370
              15
390
0
  6
STYLE_12
 62
               7
100
AcDbLine
 10
-518.41952108716873
 20
-554.13688488978937
 30
0.0
 11
-475.92034579639972
 21
-554.13688488978937
 31
0.0
  0
LINE
  5
1C9
100
AcDbEntity
  8
FAN70-0204
370
              15
390
0
  6
STYLE_12
 62
               7
100
AcDbLine
 10
-497.42034579639972
 20
-564.00803882552168
 30
0.0
 11
-454.42034579639972
 21
-564.00803882552168
 31
0.0
  0
ARC
  5
1CA
100
AcDbEntity
  8
FAN70-0204
370
              15
390
0
  6
STYLE_12
 62
               7
100
AcDbCircle
 10
-482.21269204062901
 20
-410.1806852098174
 30
0.0
 40
152.00000000000037
100
AcDbArc
 50
288.7232209894857
 51
342.36700481343149
  0
LINE
  5
1CB
100
AcDbEntity
  8
FAN70-0204
370
              15
390
0
  6
STYLE_12
 62
               7
100
AcDbLine
 10
-433.42117050563104
 20
-554.13688488978937
 30
0.0
 11
-475.92034579639972
 21
-554.13688488978937
 31
0.0
  0
LINE
  5
1CC
100
AcDbEntity
  8
FAN70-0204
370
              15
390
0
  6
STYLE_12
 62
               7
100
AcDbLine
 10
-454.42034579639972
 20
-564.00803882552168
 30
0.0
 11
-433.42117050563104
 21
-554.13688488978937
 31
0.0
  0
ARC
  5
1CD
100
AcDbEntity
  8
FAN70-0204
370
              15
390
0
  6
STYLE_12
 62
               7
100
AcDbCircle
 10
-334.49515273830684
 20
-457.1330928420856
 30
0.0
 40
3.0
100
AcDbArc
 50
90.0
 51
162.36700481342993
  0
ARC
  5
1CE
100
AcDbEntity
  8
FAN70-0204
370
              15
390
0
  6
STYLE_12
 62
               7
100
AcDbCircle
 10
-617.34553885449327
 20
-457.1330928420856
 30
0.0
 40
2.9999999999997833
100
AcDbArc
 50
17.632995186570088
 51
90.0
  0
LINE
  5
1CF
100
AcDbEntity
  8
FAN70-0204
370
              15
390
0
  6
Continuous
 62
               7
100
AcDbLine
 10
-658.42034579639972
 20
764.00538010454375
 30
0.0
 11
-68.420345796399999
 21
764.00538010454375
 31
0.0
  0
CIRCLE
  5
1D0
100
AcDbEntity
  8
FAN70-0204
370
              15
390
0
  6
Continuous
 62
               7
100
AcDbCircle
 10
-338.22814824340037
 20
721.19938133814389
 30
0.0
 40
18.0
  0
ARC
  5
1D1
100
AcDbEntity
  8
FAN70-0204
370
              15
390
0
  6
Continuous
 62
               7
100
AcDbCircle
 10
-658.42034579639972
 20
-609.13309284208663
 30
0.0
 40
5.0
100
AcDbArc
 50
180.0
 51
270.0
  0
ARC
  5
1D2
100
AcDbEntity
  8
FAN70-0204
370
              15
390
0
  6
Continuous
 62
               7
100
AcDbCircle
 10
-658.42034579639972
 20
-459.13309284208549
 30
0.0
 40
5.0
100
AcDbArc
 50
90.0
 51
180.0
  0
LINE
  5
1D3
100
AcDbEntity
  8
FAN70-0204
370
              15
390
0
  6
Continuous
 62
               7
100
AcDbLine
 10
-663.42034579639972
 20
-609.13309284208663
 30
0.0
 11
-663.42034579639972
 21
-459.13309284208549
 31
0.0
  0
LINE
  5
1D4
100
AcDbEntity
  8
FAN70-0204
370
              15
390
0
  6
Continuous
 62
               7
100
AcDbLine
 10
-658.42034579639972
 20
-454.1330928420856
 30
0.0
 11
-68.420345796400056
 21
-454.1330928420856
 31
0.0
  0
LINE
  5
1D5
100
AcDbEntity
  8
FAN70-0204
370
              15
390
0
  6
Continuous
 62
               7
100
AcDbLine
 10
-68.420345796400056
 20
-614.13309284208663
 30
0.0
 11
-658.42034579639972
 21
-614.13309284208663
 31
0.0
  0
ARC
  5
1D6
100
AcDbEntity
  8
FAN70-0204
370
              15
390
0
  6
Continuous
 62
               7
100
AcDbCircle
 10
-68.420345796400056
 20
-459.13309284208549
 30
0.0
 40
5.0
100
AcDbArc
 50
0.0
 51
90.0
  0
ARC
  5
1D7
100
AcDbEntity
  8
FAN70-0204
370
              15
390
0
  6
Continuous
 62
               7
100
AcDbCircle
 10
-68.420345796400056
 20
-609.13309284208663
 30
0.0
 40
5.0000000000000568
100
AcDbArc
 50
270.0
 51
0.0
  0
LINE
  5
1D8
100
AcDbEntity
  8
FAN70-0204
370
              15
390
0
  6
Continuous
 62
               7
100
AcDbLine
 10
-63.420345796400056
 20
-459.13309284208549
 30
0.0
 11
-63.420345796400056
 21
-609.13309284208663
 31
0.0
  0
LINE
  5
1D9
100
AcDbEntity
  8
FAN70-0204
370
              15
390
0
  6
Continuous
 62
               7
100
AcDbLine
 10
690.37824595767893
 20
-614.13309284208663
 30
0.0
 11
375.37824595767734
 21
-614.13309284208663
 31
0.0
  0
ARC
  5
1DA
100
AcDbEntity
  8
FAN70-0204
370
              15
390
0
  6
Continuous
 62
               7
100
AcDbCircle
 10
375.37824595767734
 20
-609.13309284208663
 30
0.0
 40
5.0
100
AcDbArc
 50
180.0
 51
270.00000000001046
  0
ARC
  5
1DB
100
AcDbEntity
  8
FAN70-0204
370
              15
390
0
  6
Continuous
 62
               7
100
AcDbCircle
 10
375.37824595767734
 20
-459.13309284208549
 30
0.0
 40
4.9999999999998863
100
AcDbArc
 50
90.0
 51
180.0
  0
LINE
  5
1DC
100
AcDbEntity
  8
FAN70-0204
370
              15
390
0
  6
Continuous
 62
               7
100
AcDbLine
 10
370.37824595767825
 20
-609.13309284208663
 30
0.0
 11
370.37824595767825
 21
-459.13309284208549
 31
0.0
  0
LINE
  5
1DD
100
AcDbEntity
  8
FAN70-0204
370
              15
390
0
  6
Continuous
 62
               7
100
AcDbLine
 10
375.37824595767734
 20
-454.1330928420856
 30
0.0
 11
690.37824595767893
 21
-454.1330928420856
 31
0.0
  0
ARC
  5
1DE
100
AcDbEntity
  8
FAN70-0204
370
              15
390
0
  6
Continuous
 62
               7
100
AcDbCircle
 10
690.37824595767893
 20
-459.13309284208549
 30
0.0
 40
5.0
100
AcDbArc
 50
0.0
 51
90.0
  0
ARC
  5
1DF
100
AcDbEntity
  8
FAN70-0204
370
              15
390
0
  6
Continuous
 62
               7
100
AcDbCircle
 10
690.37824595767893
 20
-609.13309284208663
 30
0.0
 40
5.0000000000000568
100
AcDbArc
 50
270.0
 51
0.0
  0
LINE
  5
1E0
100
AcDbEntity
  8
FAN70-0204
370
              15
390
0
  6
Continuous
 62
               7
100
AcDbLine
 10
695.37824595767893
 20
-459.13309284208549
 30
0.0
 11
695.37824595767893
 21
-609.13309284208663
 31
0.0
  0
LINE
  5
1E1
100
AcDbEntity
  8
FAN70-0204
370
              15
390
0
  6
STYLE_12
 62
               7
100
AcDbLine
 10
-464.86429663688409
 20
-454.1330928420856
 30
0.0
 11
-250.8642966368848
 21
-454.1330928420856
 31
0.0
  0
ARC
  5
1E2
100
AcDbEntity
  8
FAN70-0204
370
              15
390
0
  6
STYLE_12
 62
               7
100
AcDbCircle
 10
539.17059220190595
 20
-410.1806852098174
 30
0.0
 40
152.00000000000034
100
AcDbArc
 50
197.63299518656842
 51
251.2767790105141
  0
LINE
  5
1E3
100
AcDbEntity
  8
FAN70-0204
370
              15
390
0
  6
STYLE_12
 62
               7
100
AcDbLine
 10
490.37907066690741
 20
-554.13688488978937
 30
0.0
 11
511.37824595767643
 21
-564.00803882552168
 31
0.0
  0
LINE
  5
1E4
100
AcDbEntity
  8
FAN70-0204
370
              15
390
0
  6
STYLE_12
 62
               7
100
AcDbLine
 10
490.37907066690741
 20
-554.13688488978937
 30
0.0
 11
532.87824595767643
 21
-554.13688488978937
 31
0.0
  0
LINE
  5
1E5
100
AcDbEntity
  8
FAN70-0204
370
              15
390
0
  6
STYLE_12
 62
               7
100
AcDbLine
 10
511.37824595767643
 20
-564.00803882552168
 30
0.0
 11
554.37824595767643
 21
-564.00803882552168
 31
0.0
  0
ARC
  5
1E6
100
AcDbEntity
  8
FAN70-0204
370
              15
390
0
  6
STYLE_12
 62
               7
100
AcDbCircle
 10
526.58589971344782
 20
-410.1806852098174
 30
0.0
 40
152.00000000000028
100
AcDbArc
 50
288.72322098948558
 51
342.36700481343155
  0
LINE
  5
1E7
100
AcDbEntity
  8
FAN70-0204
370
              15
390
0
  6
STYLE_12
 62
               7
100
AcDbLine
 10
575.37742124844544
 20
-554.13688488978937
 30
0.0
 11
532.87824595767643
 21
-554.13688488978937
 31
0.0
  0
LINE
  5
1E8
100
AcDbEntity
  8
FAN70-0204
370
              15
390
0
  6
STYLE_12
 62
               7
100
AcDbLine
 10
554.37824595767643
 20
-564.00803882552168
 30
0.0
 11
575.37742124844544
 21
-554.13688488978937
 31
0.0
  0
ARC
  5
1E9
100
AcDbEntity
  8
FAN70-0204
370
              15
390
0
  6
STYLE_12
 62
               7
100
AcDbCircle
 10
674.30343901577112
 20
-457.1330928420856
 30
0.0
 40
3.0
100
AcDbArc
 50
90.0
 51
162.36700481343254
  0
ARC
  5
1EA
100
AcDbEntity
  8
FAN70-0204
370
              15
390
0
  6
STYLE_12
 62
               7
100
AcDbCircle
 10
391.45305289958333
 20
-457.1330928420856
 30
0.0
 40
2.9999999999993499
100
AcDbArc
 50
17.632995186572725
 51
90.0
  0
POLYLINE
  5
1EB
100
AcDbEntity
  8
FAN70-0204
370
              15
390
0
  6
STYLE_12
 62
               7
100
AcDb2dPolyline
 66
               1
 10
0.0
 20
0.0
 30
0.0
 70
               1
 75
               5
  0
VERTEX
  5
1EC
100
AcDbEntity
  8
FAN70-0204
370
              15
390
0
  6
STYLE_12
 62
               7
100
AcDbVertex
100
AcDb2dVertex
 10
497.86904293674115
 20
-560.13309284208606
 30
0.0
  0
VERTEX
  5
1ED
100
AcDbEntity
  8
FAN70-0204
370
              15
390
0
  6
STYLE_12
 62
               7
100
AcDbVertex
100
AcDb2dVertex
 10
567.86904293674115
 20
-560.13309284208606
 30
0.0
  0
VERTEX
  5
1EE
100
AcDbEntity
  8
FAN70-0204
370
              15
390
0
  6
STYLE_12
 62
               7
100
AcDbVertex
100
AcDb2dVertex
 10
567.86904293674115
 20
-604.13309284208663
 30
0.0
  0
VERTEX
  5
1EF
100
AcDbEntity
  8
FAN70-0204
370
              15
390
0
  6
STYLE_12
 62
               7
100
AcDbVertex
100
AcDb2dVertex
 10
497.86904293674115
 20
-604.13309284208663
 30
0.0
  0
SEQEND
  5
1F0
100
AcDbEntity
  8
FAN70-0204
370
              15
390
0
  6
STYLE_12
 62
               7
  0
CIRCLE
  5
1F1
100
AcDbEntity
  8
FAN70-0204
370
              15
390
0
  6
STYLE_12
 62
               7
100
AcDbCircle
 10
-103.42034579640006
 20
-479.1330928420856
 30
0.0
 40
10.0
  0
LINE
  5
1F2
100
AcDbEntity
  8
FAN70-0204
370
              15
390
0
  6
STYLE_12
 62
               7
100
AcDbLine
 10
-123.42034579640006
 20
-479.1330928420856
 30
0.0
 11
-83.420345796400056
 21
-479.1330928420856
 31
0.0
  0
LINE
  5
1F3
100
AcDbEntity
  8
FAN70-0204
370
              15
390
0
  6
STYLE_12
 62
               7
100
AcDbLine
 10
-103.42034579640006
 20
-499.1330928420856
 30
0.0
 11
-103.42034579640006
 21
-459.1330928420856
 31
0.0
  0
CIRCLE
  5
1F4
100
AcDbEntity
  8
FAN70-0204
370
              15
390
0
  6
STYLE_12
 62
               7
100
AcDbCircle
 10
-103.42034579640006
 20
-589.1330928420864
 30
0.0
 40
10.0
  0
LINE
  5
1F5
100
AcDbEntity
  8
FAN70-0204
370
              15
390
0
  6
STYLE_12
 62
               7
100
AcDbLine
 10
-123.42034579640006
 20
-589.1330928420864
 30
0.0
 11
-83.420345796400056
 21
-589.1330928420864
 31
0.0
  0
LINE
  5
1F6
100
AcDbEntity
  8
FAN70-0204
370
              15
390
0
  6
STYLE_12
 62
               7
100
AcDbLine
 10
-103.42034579640006
 20
-609.13309284208674
 30
0.0
 11
-103.42034579640006
 21
-569.13309284208617
 31
0.0
  0
CIRCLE
  5
1F7
100
AcDbEntity
  8
FAN70-0204
370
              15
390
0
  6
STYLE_12
 62
               7
100
AcDbCircle
 10
-623.42034579639972
 20
-479.1330928420856
 30
0.0
 40
10.0
  0
LINE
  5
1F8
100
AcDbEntity
  8
FAN70-0204
370
              15
390
0
  6
STYLE_12
 62
               7
100
AcDbLine
 10
-643.42034579639972
 20
-479.1330928420856
 30
0.0
 11
-603.42034579639972
 21
-479.1330928420856
 31
0.0
  0
LINE
  5
1F9
100
AcDbEntity
  8
FAN70-0204
370
              15
390
0
  6
STYLE_12
 62
               7
100
AcDbLine
 10
-623.42034579639972
 20
-499.1330928420856
 30
0.0
 11
-623.42034579639972
 21
-459.1330928420856
 31
0.0
  0
CIRCLE
  5
1FA
100
AcDbEntity
  8
FAN70-0204
370
              15
390
0
  6
STYLE_12
 62
               7
100
AcDbCircle
 10
-623.42034579639972
 20
-589.1330928420864
 30
0.0
 40
10.0
  0
LINE
  5
1FB
100
AcDbEntity
  8
FAN70-0204
370
              15
390
0
  6
STYLE_12
 62
               7
100
AcDbLine
 10
-643.42034579639972
 20
-589.1330928420864
 30
0.0
 11
-603.42034579639972
 21
-589.1330928420864
 31
0.0
  0
LINE
  5
1FC
100
AcDbEntity
  8
FAN70-0204
370
              15
390
0
  6
STYLE_12
 62
               7
100
AcDbLine
 10
-623.42034579639972
 20
-609.13309284208674
 30
0.0
 11
-623.42034579639972
 21
-569.13309284208617
 31
0.0
  0
CIRCLE
  5
1FD
100
AcDbEntity
  8
FAN70-0204
370
              15
390
0
  6
STYLE_12
 62
               7
100
AcDbCircle
 10
-503.42034579639972
 20
-534.13309284208572
 30
0.0
 40
10.0
  0
LINE
  5
1FE
100
AcDbEntity
  8
FAN70-0204
370
              15
390
0
  6
STYLE_12
 62
               7
100
AcDbLine
 10
-523.42034579639972
 20
-534.13309284208572
 30
0.0
 11
-483.42034579639972
 21
-534.13309284208572
 31
0.0
  0
LINE
  5
1FF
100
AcDbEntity
  8
FAN70-0204
370
              15
390
0
  6
STYLE_12
 62
               7
100
AcDbLine
 10
-503.42034579639972
 20
-554.13309284208594
 30
0.0
 11
-503.42034579639972
 21
-514.1330928420856
 31
0.0
  0
CIRCLE
  5
200
100
AcDbEntity
  8
FAN70-0204
370
              15
390
0
  6
STYLE_12
 62
               7
100
AcDbCircle
 10
-223.42034579640043
 20
-534.13309284208572
 30
0.0
 40
10.0
  0
LINE
  5
201
100
AcDbEntity
  8
FAN70-0204
370
              15
390
0
  6
STYLE_12
 62
               7
100
AcDbLine
 10
-243.42034579640043
 20
-534.13309284208572
 30
0.0
 11
-203.42034579640043
 21
-534.13309284208572
 31
0.0
  0
LINE
  5
202
100
AcDbEntity
  8
FAN70-0204
370
              15
390
0
  6
STYLE_12
 62
               7
100
AcDbLine
 10
-223.42034579640043
 20
-554.13309284208594
 30
0.0
 11
-223.42034579640043
 21
-514.1330928420856
 31
0.0
  0
POLYLINE
  5
203
100
AcDbEntity
  8
FAN70-0204
370
              15
390
0
  6
STYLE_12
 62
               7
100
AcDb2dPolyline
 66
               1
 10
0.0
 20
0.0
 30
0.0
 70
               1
 75
               5
  0
VERTEX
  5
204
100
AcDbEntity
  8
FAN70-0204
370
              15
390
0
  6
STYLE_12
 62
               7
100
AcDbVertex
100
AcDb2dVertex
 10
-510.93095706325755
 20
-560.13309284208606
 30
0.0
  0
VERTEX
  5
205
100
AcDbEntity
  8
FAN70-0204
370
              15
390
0
  6
STYLE_12
 62
               7
100
AcDbVertex
100
AcDb2dVertex
 10
-440.93095706325755
 20
-560.13309284208606
 30
0.0
  0
VERTEX
  5
206
100
AcDbEntity
  8
FAN70-0204
370
              15
390
0
  6
STYLE_12
 62
               7
100
AcDbVertex
100
AcDb2dVertex
 10
-440.93095706325755
 20
-604.13309284208663
 30
0.0
  0
VERTEX
  5
207
100
AcDbEntity
  8
FAN70-0204
370
              15
390
0
  6
STYLE_12
 62
               7
100
AcDbVertex
100
AcDb2dVertex
 10
-510.93095706325755
 20
-604.13309284208663
 30
0.0
  0
SEQEND
  5
208
100
AcDbEntity
  8
FAN70-0204
370
              15
390
0
  6
STYLE_12
 62
               7
  0
ENDSEC
  0
SECTION
  2
OBJECTS
  0
DICTIONARY
  5
19
100
AcDbDictionary
280
               0
281
               1
  3
ACAD_GROUP
350
1A
  3
ACAD_MLINESTYLE
350
1B
  3
ACAD_LAYOUT
350
1E
  3
ACAD_PLOTSETTINGS
350
22
  3
ACAD_PLOTSTYLENAME
350
1F
  0
DICTIONARY
  5
1A
102
{ACAD_REACTORS
330
19
102
}
100
AcDbDictionary
280
               0
281
               1
  0
DICTIONARY
  5
1B
102
{ACAD_REACTORS
330
19
102
}
100
AcDbDictionary
280
               0
281
               1
  3
Standard
350
1C
  0
MLINESTYLE
  5
1C
102
{ACAD_REACTORS
330
1B
102
}
100
AcDbMlineStyle
  2
Standard
 70
               0
  3

 62
               0
 51
90.0
 52
90.0
 71
               2
 49
0.5
 62
             256
  6
ByLayer
 49
-0.5
 62
             256
  6
ByLayer
  0
ACDBDICTIONARYWDFLT
  5
1F
102
{ACAD_REACTORS
330
19
102
}
100
AcDbDictionary
281
               1
  3
Normal
350
1D
100
AcDbDictionaryWithDefault
340
1D
  0
ACDBPLACEHOLDER
  5
1D
102
{ACAD_REACTORS
330
1F
102
}
  0
LAYOUT
  5
20
102
{ACAD_REACTORS
330
1E
102
}
100
AcDbPlotSettings
  1

  2

  4

  6

 40
0.0
 41
0.0
 42
0.0
 43
0.0
 44
0.0
 45
0.0
 46
0.0
 47
0.0
 48
0.0
 49
0.0
140
0.0
141
0.0
142
1.0
143
1.0
 70
            1024
 72
               0
 73
               0
 74
               0
  7

 75
               0
147
1.0
148
0.0
149
0.0
100
AcDbLayout
  1
Model
 70
               0
 71
               0
 10
0.0
 20
0.0
 11
0.0
 21
0.0
 12
0.0
 22
0.0
 32
0.0
 14
0.0
 24
0.0
 34
0.0
 15
0.0
 25
0.0
 35
0.0
146
0.0
 13
0.0
 23
0.0
 33
0.0
 16
0.0
 26
0.0
 36
0.0
 17
0.0
 27
0.0
 37
0.0
 76
               0
330
A
331
0
345
0
346
0
  0
LAYOUT
  5
21
102
{ACAD_REACTORS
330
1E
102
}
100
AcDbPlotSettings
  1

  2

  4

  6

 40
0.0
 41
0.0
 42
0.0
 43
0.0
 44
0.0
 45
0.0
 46
0.0
 47
0.0
 48
0.0
 49
0.0
140
0.0
141
0.0
142
1.0
143
1.0
 70
               0
 72
               0
 73
               0
 74
               0
  7

 75
               0
147
1.0
148
0.0
149
0.0
100
AcDbLayout
  1
Layout1
 70
               0
 71
               0
 10
0.0
 20
0.0
 11
0.0
 21
0.0
 12
0.0
 22
0.0
 32
0.0
 14
0.0
 24
0.0
 34
0.0
 15
0.0
 25
0.0
 35
0.0
146
0.0
 13
0.0
 23
0.0
 33
0.0
 16
0.0
 26
0.0
 36
0.0
 17
0.0
 27
0.0
 37
0.0
 76
               0
330
B
331
0
345
0
346
0
  0
DICTIONARY
  5
1E
102
{ACAD_REACTORS
330
19
102
}
100
AcDbDictionary
280
               0
281
               1
  3
Layout1
350
21
  3
Model
350
20
  0
DICTIONARY
  5
22
102
{ACAD_REACTORS
330
19
102
}
100
AcDbDictionary
280
               0
281
               1
  0
ENDSEC
  0
EOF
