  0
SECTION
  2
HEADER
  9
$ACADVER
  1
AC1015
  9
$ACADMAINTVER
 70
               6
  9
$DWGCODEPAGE
  3
ANSI_932
  9
$INSBASE
 10
0.0
 20
0.0
 30
0.0
  9
$EXTMIN
 10
-975.00000000024124
 20
-1431.5255224711129
 30
0.0
  9
$EXTMAX
 10
975.00000000024124
 20
1405.9972926412995
 30
0.0
  9
$LIMMIN
 10
0.0
 20
0.0
  9
$LIMMAX
 10
0.0
 20
0.0
  9
$ORTHOMODE
 70
               0
  9
$REGENMODE
 70
               1
  9
$FILLMODE
 70
               1
  9
$QTEXTMODE
 70
               0
  9
$MIRRTEXT
 70
               1
  9
$LTSCALE
 40
50.799999999999997
  9
$ATTMODE
 70
               1
  9
$TEXTSIZE
 40
0.2
  9
$TRACEWID
 40
1.0
  9
$TEXTSTYLE
  7
Standard
  9
$CLAYER
  8
template
  9
$CELTYPE
  6
Continuous
  9
$CECOLOR
 62
             256
  9
$CELTSCALE
 40
1.0
  9
$DISPSILH
 70
               0
  9
$DIMSCALE
 40
1.0
  9
$DIMASZ
 40
9.9993896484374982
  9
$DIMEXO
 40
24.999999999999996
  9
$DIMDLI
 40
0.9999999999999999
  9
$DIMRND
 40
0.0
  9
$DIMDLE
 40
0.0
  9
$DIMEXE
 40
0.0
  9
$DIMTP
 40
0.0
  9
$DIMTM
 40
0.0
  9
$DIMTXT
 40
24.432617187500004
  9
$DIMCEN
 40
0.0
  9
$DIMTSZ
 40
0.0
  9
$DIMTOL
 70
               0
  9
$DIMLIM
 70
               0
  9
$DIMTIH
 70
               0
  9
$DIMTOH
 70
               0
  9
$DIMSE1
 70
               0
  9
$DIMSE2
 70
               0
  9
$DIMTAD
 70
               1
  9
$DIMZIN
 70
              11
  9
$DIMBLK
  1
_DOT
  9
$DIMASO
 70
               1
  9
$DIMSHO
 70
               1
  9
$DIMPOST
  1
<>
  9
$DIMAPOST
  1
[]
  9
$DIMALT
 70
               0
  9
$DIMALTD
 70
               1
  9
$DIMALTF
 40
1.0
  9
$DIMLFAC
 40
1.0
  9
$DIMTOFL
 70
               0
  9
$DIMTVP
 40
0.0
  9
$DIMTIX
 70
               1
  9
$DIMSOXD
 70
               0
  9
$DIMSAH
 70
               0
  9
$DIMBLK1
  1

  9
$DIMBLK2
  1

  9
$DIMSTYLE
  2
tfrom線あり
  9
$DIMCLRD
 70
               0
  9
$DIMCLRE
 70
               0
  9
$DIMCLRT
 70
               0
  9
$DIMTFAC
 40
1.0
  9
$DIMGAP
 40
0.4999999999999999
  9
$DIMJUST
 70
               0
  9
$DIMSD1
 70
               0
  9
$DIMSD2
 70
               0
  9
$DIMTOLJ
 70
               1
  9
$DIMTZIN
 70
              11
  9
$DIMALTZ
 70
              11
  9
$DIMALTTZ
 70
              11
  9
$DIMUPT
 70
               0
  9
$DIMDEC
 70
               1
  9
$DIMTDEC
 70
               1
  9
$DIMALTU
 70
               2
  9
$DIMALTTD
 70
               2
  9
$DIMTXSTY
  7
ＭＳ ゴシック
  9
$DIMAUNIT
 70
               0
  9
$DIMADEC
 70
               2
  9
$DIMALTRND
 40
0.0
  9
$DIMAZIN
 70
               0
  9
$DIMDSEP
 70
              46
  9
$DIMATFIT
 70
               0
  9
$DIMFRAC
 70
               2
  9
$DIMLDRBLK
  1

  9
$DIMLUNIT
 70
               2
  9
$DIMLWD
 70
              -2
  9
$DIMLWE
 70
              -2
  9
$DIMTMOVE
 70
               0
  9
$LUNITS
 70
               2
  9
$LUPREC
 70
               4
  9
$SKETCHINC
 40
0.1
  9
$FILLETRAD
 40
0.0
  9
$AUNITS
 70
               0
  9
$AUPREC
 70
               0
  9
$MENU
  1
acad
  9
$ELEVATION
 40
0.0
  9
$PELEVATION
 40
0.0
  9
$THICKNESS
 40
0.0
  9
$LIMCHECK
 70
               0
  9
$CHAMFERA
 40
0.0
  9
$CHAMFERB
 40
0.0
  9
$CHAMFERC
 40
0.0
  9
$CHAMFERD
 40
0.0
  9
$SKPOLY
 70
               0
  9
$TDCREATE
 40
2456050.477442130
  9
$TDUCREATE
 40
0.000000000
  9
$TDUPDATE
 40
2456050.477442130
  9
$TDUUPDATE
 40
0.000000000
  9
$TDINDWG
 40
0.0000000000
  9
$TDUSRTIMER
 40
0.0000000000
  9
$USRTIMER
 70
               1
  9
$ANGBASE
 50
0.0
  9
$ANGDIR
 70
               0
  9
$PDMODE
 70
               1
  9
$PDSIZE
 40
-2.0
  9
$PLINEWID
 40
0.0
  9
$SPLFRAME
 70
               0
  9
$SPLINETYPE
 70
               6
  9
$SPLINESEGS
 70
               8
  9
$HANDSEED
  5
1F9
  9
$SURFTAB1
 70
               6
  9
$SURFTAB2
 70
               6
  9
$SURFTYPE
 70
               6
  9
$SURFU
 70
               6
  9
$SURFV
 70
               6
  9
$UCSBASE
  2

  9
$UCSNAME
  2

  9
$UCSORG
 10
0.0
 20
0.0
 30
0.0
  9
$UCSXDIR
 10
1.0
 20
0.0
 30
0.0
  9
$UCSYDIR
 10
0.0
 20
1.0
 30
0.0
  9
$UCSORTHOREF
  2

  9
$UCSORTHOVIEW
 70
               0
  9
$UCSORGTOP
 10
0.0
 20
0.0
 30
0.0
  9
$UCSORGBOTTOM
 10
0.0
 20
0.0
 30
0.0
  9
$UCSORGLEFT
 10
0.0
 20
0.0
 30
0.0
  9
$UCSORGRIGHT
 10
0.0
 20
0.0
 30
0.0
  9
$UCSORGFRONT
 10
0.0
 20
0.0
 30
0.0
  9
$UCSORGBACK
 10
0.0
 20
0.0
 30
0.0
  9
$PUCSBASE
  2

  9
$PUCSNAME
  2

  9
$PUCSORG
 10
0.0
 20
0.0
 30
0.0
  9
$PUCSXDIR
 10
1.0
 20
0.0
 30
0.0
  9
$PUCSYDIR
 10
0.0
 20
1.0
 30
0.0
  9
$PUCSORTHOREF
  2

  9
$PUCSORTHOVIEW
 70
               0
  9
$PUCSORGTOP
 10
0.0
 20
0.0
 30
0.0
  9
$PUCSORGBOTTOM
 10
0.0
 20
0.0
 30
0.0
  9
$PUCSORGLEFT
 10
0.0
 20
0.0
 30
0.0
  9
$PUCSORGRIGHT
 10
0.0
 20
0.0
 30
0.0
  9
$PUCSORGFRONT
 10
0.0
 20
0.0
 30
0.0
  9
$PUCSORGBACK
 10
0.0
 20
0.0
 30
0.0
  9
$USERI1
 70
               0
  9
$USERI2
 70
               0
  9
$USERI3
 70
               0
  9
$USERI4
 70
               0
  9
$USERI5
 70
               0
  9
$USERR1
 40
0.0
  9
$USERR2
 40
0.0
  9
$USERR3
 40
0.0
  9
$USERR4
 40
0.0
  9
$USERR5
 40
0.0
  9
$WORLDVIEW
 70
               1
  9
$SHADEDGE
 70
               3
  9
$SHADEDIF
 70
              70
  9
$TILEMODE
 70
               1
  9
$MAXACTVP
 70
              64
  9
$PINSBASE
 10
0.0
 20
0.0
 30
0.0
  9
$PLIMCHECK
 70
               0
  9
$PEXTMIN
 10
1.0000000000000000E+20
 20
1.0000000000000000E+20
 30
1.0000000000000000E+20
  9
$PEXTMAX
 10
-1.0000000000000000E+20
 20
-1.0000000000000000E+20
 30
-1.0000000000000000E+20
  9
$PLIMMIN
 10
0.0
 20
0.0
  9
$PLIMMAX
 10
12.0
 20
9.0
  9
$UNITMODE
 70
               0
  9
$VISRETAIN
 70
               0
  9
$PLINEGEN
 70
               1
  9
$PSLTSCALE
 70
               0
  9
$TREEDEPTH
 70
            3020
  9
$CMLSTYLE
  2
Standard
  9
$CMLJUST
 70
               0
  9
$CMLSCALE
 40
1.0
  9
$PROXYGRAPHICS
 70
               0
  9
$MEASUREMENT
 70
               1
  9
$CELWEIGHT
370
               0
  9
$ENDCAPS
280
               0
  9
$JOINSTYLE
280
               0
  9
$LWDISPLAY
290
               1
  9
$INSUNITS
 70
               4
  9
$HYPERLINKBASE
  1

  9
$STYLESHEET
  1

  9
$XEDIT
290
               1
  9
$CEPSNTYPE
380
               0
  9
$PSTYLEMODE
290
               1
  9
$FINGERPRINTGUID
  2

  9
$VERSIONGUID
  2

  9
$EXTNAMES
290
               1
  9
$PSVPSCALE
 40
0.0
  0
ENDSEC
  0
SECTION
  2
CLASSES
  0
CLASS
  1
LWPOLYLINE
  2
AcDbPolyline
  3
AutoCAD 2000
 90
        0
280
               0
281
               1
  0
CLASS
  1
IMAGE
  2
AcDbRasterImage
  3
ISM
 90
      127
280
               0
281
               1
  0
CLASS
  1
OLE2FRAME
  2
AcDbOle2Frame
  3
AutoCAD 2000
 90
        0
280
               0
281
               1
  0
CLASS
  1
HATCH
  2
AcDbHatch
  3
AutoCAD 2000
 90
        0
280
               0
281
               1
  0
CLASS
  1
DICTIONARYVAR
  2
AcDbDictionaryVar
  3
AutoCAD 2000
 90
        0
280
               0
281
               0
  0
CLASS
  1
RASTERVARIABLES
  2
AcDbRasterVariables
  3
ISM
 90
        0
280
               0
281
               0
  0
CLASS
  1
IMAGEDEF
  2
AcDbRasterImageDef
  3
ISM
 90
        0
280
               0
281
               0
  0
CLASS
  1
IMAGEDEF_REACTOR
  2
AcDbRasterImageDefReactor
  3
ISM
 90
        1
280
               0
281
               0
  0
CLASS
  1
IDBUFFER
  2
AcDbIdBuffer
  3
AutoCAD 2000
 90
        0
280
               0
281
               0
  0
CLASS
  1
SPATIAL_FILTER
  2
AcDbSpatialFilter
  3
AutoCAD 2000
 90
        0
280
               0
281
               0
  0
CLASS
  1
XRECORD
  2
AcDbXrecord
  3
AutoCAD 2000
 90
        0
280
               0
281
               0
  0
CLASS
  1
SORTENTSTABLE
  2
AcDbSortentsTable
  3
AutoCAD 2000
 90
        0
280
               0
281
               0
  0
CLASS
  1
LAYER_INDEX
  2
AcDbLayerIndex
  3
AutoCAD 2000
 90
        0
280
               0
281
               0
  0
CLASS
  1
SPATIAL_INDEX
  2
AcDbSpatialIndex
  3
AutoCAD 2000
 90
        0
280
               0
281
               0
  0
CLASS
  1
OBJECT_PTR
  2
CAseDLPNTableRecord
  3
"ASE-LPNTableRecord"
 90
        1
280
               0
281
               0
  0
CLASS
  1
LAYOUT
  2
AcDbLayout
  3
AutoCAD 2000
 90
        0
280
               0
281
               0
  0
CLASS
  1
PLOTSETTINGS
  2
AcDbPlotSettings
  3
AutoCAD 2000
 90
        0
280
               0
281
               0
  0
CLASS
  1
ACDBDICTIONARYWDFLT
  2
AcDbDictionaryWithDefault
  3
AutoCAD 2000
 90
        0
280
               0
281
               0
  0
CLASS
  1
ACDBPLACEHOLDER
  2
AcDbPlaceHolder
  3
AutoCAD 2000
 90
        0
280
               0
281
               0
  0
ENDSEC
  0
SECTION
  2
TABLES
  0
TABLE
  2
VPORT
  5
7
100
AcDbSymbolTable
 70
               1
  0
VPORT
  5
15
100
AcDbSymbolTableRecord
100
AcDbViewportTableRecord
  2
*ACTIVE
 70
               0
 10
0.0
 20
0.0
 11
1.0
 21
1.0
 12
0.0
 22
-12.764114914906713
 13
0.0
 23
0.0
 14
1.0
 24
1.0
 15
0.0
 25
0.0
 16
0.0
 26
0.0
 36
1.0
 17
0.0
 27
0.0
 37
0.0
 40
2837.5228151124124
 41
0.688564
 42
50.0
 43
0.0
 44
0.0
 50
0.0
 51
0.0
 71
               0
 72
            2000
 73
               1
 74
               1
 75
               0
 76
               0
 77
               0
 78
               0
281
               0
 65
               0
110
0.0
120
0.0
130
0.0
111
1.0
121
0.0
131
0.0
112
0.0
122
1.0
132
0.0
345
0
346
0
 79
               0
146
0.0
  0
ENDTAB
  0
TABLE
  2
LTYPE
  5
4
100
AcDbSymbolTable
 70
              17
  0
LTYPE
  5
11
100
AcDbSymbolTableRecord
100
AcDbLinetypeTableRecord
  2
ByBlock
 70
              64
  3

 72
              65
 73
               0
 40
0.0
  0
LTYPE
  5
12
100
AcDbSymbolTableRecord
100
AcDbLinetypeTableRecord
  2
ByLayer
 70
              64
  3

 72
              65
 73
               0
 40
0.0
  0
LTYPE
  5
13
100
AcDbSymbolTableRecord
100
AcDbLinetypeTableRecord
  2
Continuous
 70
              64
  3
Solid line
 72
              65
 73
               0
 40
0.0
  0
LTYPE
  5
3C
100
AcDbSymbolTableRecord
100
AcDbLinetypeTableRecord
  2
STYLE_01
 70
               0
  3

 72
              65
 73
               4
 40
0.3999999999999999
 49
0.25
 74
               0
 49
-0.05
 74
               0
 49
0.05
 74
               0
 49
-0.05
 74
               0
  0
LTYPE
  5
3D
100
AcDbSymbolTableRecord
100
AcDbLinetypeTableRecord
  2
STYLE_02
 70
               0
  3

 72
              65
 73
               2
 40
0.6944250000000001
 49
0.48607
 74
               0
 49
-0.2083550000000001
 74
               0
  0
LTYPE
  5
3E
100
AcDbSymbolTableRecord
100
AcDbLinetypeTableRecord
  2
STYLE_03
 70
               0
  3

 72
              65
 73
               2
 40
1.25
 49
1.0416400000000001
 74
               0
 49
-0.2083599999999999
 74
               0
  0
LTYPE
  5
3F
100
AcDbSymbolTableRecord
100
AcDbLinetypeTableRecord
  2
STYLE_04
 70
               0
  3

 72
              65
 73
               2
 40
1.5277099999999999
 49
1.3194249999999998
 74
               0
 49
-0.208285
 74
               0
  0
LTYPE
  5
40
100
AcDbSymbolTableRecord
100
AcDbLinetypeTableRecord
  2
STYLE_05
 70
               0
  3

 72
              65
 73
               2
 40
0.20828
 49
0.069425
 74
               0
 49
-0.138855
 74
               0
  0
LTYPE
  5
41
100
AcDbSymbolTableRecord
100
AcDbLinetypeTableRecord
  2
STYLE_06
 70
               0
  3

 72
              65
 73
               4
 40
1.0416400000000001
 49
0.625
 74
               0
 49
-0.20828
 74
               0
 49
0.06943
 74
               0
 49
-0.13893
 74
               0
  0
LTYPE
  5
42
100
AcDbSymbolTableRecord
100
AcDbLinetypeTableRecord
  2
STYLE_07
 70
               0
  3

 72
              65
 73
               6
 40
1.875
 49
0.625
 74
               0
 49
-0.20828
 74
               0
 49
0.6250000000000001
 74
               0
 49
-0.2083599999999999
 74
               0
 49
0.06943
 74
               0
 49
-0.1389299999999999
 74
               0
  0
LTYPE
  5
43
100
AcDbSymbolTableRecord
100
AcDbLinetypeTableRecord
  2
STYLE_08
 70
               0
  3

 72
              65
 73
               6
 40
1.25
 49
0.625
 74
               0
 49
-0.20828
 74
               0
 49
0.06943
 74
               0
 49
-0.13893
 74
               0
 49
0.0694299999999999
 74
               0
 49
-0.13893
 74
               0
  0
LTYPE
  5
44
100
AcDbSymbolTableRecord
100
AcDbLinetypeTableRecord
  2
STYLE_09
 70
               0
  3

 72
              65
 73
               4
 40
5.0
 49
3.75
 74
               0
 49
-0.2777849999999998
 74
               0
 49
0.6944300000000003
 74
               0
 49
-0.2777849999999998
 74
               0
  0
LTYPE
  5
45
100
AcDbSymbolTableRecord
100
AcDbLinetypeTableRecord
  2
STYLE_10
 70
               0
  3

 72
              65
 73
               6
 40
5.9375
 49
3.75
 74
               0
 49
-0.2777849999999998
 74
               0
 49
0.6944300000000003
 74
               0
 49
-0.2777849999999998
 74
               0
 49
0.625
 74
               0
 49
-0.3125
 74
               0
  0
LTYPE
  5
46
100
AcDbSymbolTableRecord
100
AcDbLinetypeTableRecord
  2
STYLE_11
 70
               0
  3

 72
              65
 73
               2
 40
0.0694444881889764
 49
0.0347222440944882
 74
               0
 49
-0.0347222440944882
 74
               0
  0
LTYPE
  5
47
100
AcDbSymbolTableRecord
100
AcDbLinetypeTableRecord
  2
STYLE_12
 70
               0
  3

 72
              65
 73
               2
 40
0.3937007874015748
 49
0.1968503937007874
 74
               0
 49
-0.1968503937007874
 74
               0
  0
LTYPE
  5
48
100
AcDbSymbolTableRecord
100
AcDbLinetypeTableRecord
  2
STYLE_13
 70
               0
  3

 72
              65
 73
               2
 40
0.5905511811023622
 49
0.2952755905511811
 74
               0
 49
-0.2952755905511811
 74
               0
  0
LTYPE
  5
49
100
AcDbSymbolTableRecord
100
AcDbLinetypeTableRecord
  2
STYLE_14
 70
               0
  3

 72
              65
 73
               2
 40
1.9685039370078738
 49
0.9842519685039369
 74
               0
 49
-0.9842519685039369
 74
               0
  0
ENDTAB
  0
TABLE
  2
LAYER
  5
2
100
AcDbSymbolTable
 70
               5
  0
LAYER
  5
14
100
AcDbSymbolTableRecord
100
AcDbLayerTableRecord
  2
0
 70
               0
 62
               7
  6
Continuous
290
               1
370
              -3
390
1D
  0
LAYER
  5
4A
100
AcDbSymbolTableRecord
100
AcDbLayerTableRecord
  2
Defpoints
 70
               0
 62
               7
  6
Continuous
290
               0
370
              -3
390
1D
  0
LAYER
  5
4B
100
AcDbSymbolTableRecord
100
AcDbLayerTableRecord
  2
template
 70
               0
 62
               7
  6
Continuous
290
               1
370
              -3
390
1D
  0
LAYER
  5
4C
100
AcDbSymbolTableRecord
100
AcDbLayerTableRecord
  2
notes
 70
               0
 62
               7
  6
Continuous
290
               1
370
              -3
390
1D
  0
LAYER
  5
4D
100
AcDbSymbolTableRecord
100
AcDbLayerTableRecord
  2
FAN70-0207
 70
               0
 62
               7
  6
Continuous
290
               1
370
              -3
390
1D
  0
ENDTAB
  0
TABLE
  2
STYLE
  5
3
100
AcDbSymbolTable
 70
               3
  0
STYLE
  5
17
100
AcDbSymbolTableRecord
100
AcDbTextStyleTableRecord
  2
Standard
 70
               0
 40
0.0
 41
1.0
 50
0.0
 71
               0
 42
0.0
  3
txt
  4
BIGFONT.SHX
  0
STYLE
  5
3A
100
AcDbSymbolTableRecord
100
AcDbTextStyleTableRecord
  2
MS UI Gothic
 70
               0
 40
0.0
 41
1.0
 50
0.0
 71
               0
 42
0.0
  3

  4
MS UI Gothic
1001
ACAD
1000
MS UI Gothic
1071
        0
  0
STYLE
  5
3B
100
AcDbSymbolTableRecord
100
AcDbTextStyleTableRecord
  2
ＭＳ ゴシック
 70
               0
 40
0.0
 41
1.0
 50
0.0
 71
               0
 42
0.0
  3

  4
ＭＳ ゴシック
1001
ACAD
1000
ＭＳ ゴシック
1071
        0
  0
ENDTAB
  0
TABLE
  2
VIEW
  5
5
100
AcDbSymbolTable
 70
               0
  0
ENDTAB
  0
TABLE
  2
UCS
  5
6
100
AcDbSymbolTable
 70
               0
  0
ENDTAB
  0
TABLE
  2
APPID
  5
8
100
AcDbSymbolTable
 70
               1
  0
APPID
  5
16
100
AcDbSymbolTableRecord
100
AcDbRegAppTableRecord
  2
ACAD
 70
               0
  0
ENDTAB
  0
TABLE
  2
DIMSTYLE
  5
9
100
AcDbSymbolTable
 70
               2
100
AcDbDimStyleTable
 71
               0
  0
DIMSTYLE
105
18
100
AcDbSymbolTableRecord
100
AcDbDimStyleTableRecord
  2
Standard
 70
               0
  3

  4

 40
1.0
 41
0.18
 42
0.0625
 43
0.38
 44
0.18
 45
0.0
 46
0.0
 47
0.0
 48
0.0
 71
               0
 72
               0
 73
               1
 74
               1
 75
               0
 76
               0
 77
               0
 78
               0
 79
               0
140
0.18
141
0.09
142
0.0
143
25.399999999999999
144
1.0
145
0.0
146
1.0
147
0.09
148
0.0
170
               0
171
               2
172
               0
173
               0
174
               0
175
               0
176
               0
177
               0
178
               0
179
               0
271
               4
272
               4
273
               2
274
               2
275
               0
276
               0
277
               2
278
              46
279
               0
280
               0
281
               0
282
               0
283
               1
284
               0
285
               0
286
               0
288
               0
289
               3
340
17
341
0
342
0
343
0
344
0
371
              -2
372
              -2
  0
DIMSTYLE
105
56
100
AcDbSymbolTableRecord
100
AcDbDimStyleTableRecord
  2
tfrom線あり
 70
               0
  3
<>
  4
[]
 40
1.0
 41
9.9993896484374982
 42
24.999999999999996
 43
0.9999999999999999
 44
0.0
 45
0.0
 46
0.0
 47
0.0
 48
0.0
 71
               0
 72
               0
 73
               0
 74
               0
 75
               0
 76
               0
 77
               1
 78
              11
 79
               0
140
24.432617187500004
141
0.0
142
0.0
143
1.0
144
1.0
145
0.0
146
1.0
147
0.4999999999999999
148
0.0
170
               0
171
               1
172
               0
173
               0
174
               1
175
               0
176
               0
177
               0
178
               0
179
               2
271
               1
272
               1
273
               2
274
               2
275
               0
276
               2
277
               2
278
              46
279
               0
280
               0
281
               0
282
               0
283
               1
284
              11
285
              11
286
              11
288
               0
289
               0
340
3B
341
4E
342
4E
343
0
344
0
371
              -2
372
              -2
  0
ENDTAB
  0
TABLE
  2
BLOCK_RECORD
  5
1
100
AcDbSymbolTable
 70
              24
  0
BLOCK_RECORD
  5
A
100
AcDbSymbolTableRecord
100
AcDbBlockTableRecord
  2
*MODEL_SPACE
340
20
  0
BLOCK_RECORD
  5
B
100
AcDbSymbolTableRecord
100
AcDbBlockTableRecord
  2
*PAPER_SPACE
340
21
  0
BLOCK_RECORD
  5
4E
100
AcDbSymbolTableRecord
100
AcDbBlockTableRecord
  2
_DOT
340
0
  0
BLOCK_RECORD
  5
23
100
AcDbSymbolTableRecord
100
AcDbBlockTableRecord
  2
グループ
340
0
102
{BLKREFS
331
184
102
}
  0
BLOCK_RECORD
  5
24
100
AcDbSymbolTableRecord
100
AcDbBlockTableRecord
  2
*D2
340
0
  0
BLOCK_RECORD
  5
25
100
AcDbSymbolTableRecord
100
AcDbBlockTableRecord
  2
*D3
340
0
  0
BLOCK_RECORD
  5
26
100
AcDbSymbolTableRecord
100
AcDbBlockTableRecord
  2
*D4
340
0
  0
BLOCK_RECORD
  5
27
100
AcDbSymbolTableRecord
100
AcDbBlockTableRecord
  2
*D5
340
0
  0
BLOCK_RECORD
  5
28
100
AcDbSymbolTableRecord
100
AcDbBlockTableRecord
  2
*D6
340
0
  0
BLOCK_RECORD
  5
29
100
AcDbSymbolTableRecord
100
AcDbBlockTableRecord
  2
*D7
340
0
  0
BLOCK_RECORD
  5
2A
100
AcDbSymbolTableRecord
100
AcDbBlockTableRecord
  2
*D8
340
0
  0
BLOCK_RECORD
  5
2B
100
AcDbSymbolTableRecord
100
AcDbBlockTableRecord
  2
*D9
340
0
  0
BLOCK_RECORD
  5
2C
100
AcDbSymbolTableRecord
100
AcDbBlockTableRecord
  2
*D10
340
0
  0
BLOCK_RECORD
  5
2D
100
AcDbSymbolTableRecord
100
AcDbBlockTableRecord
  2
*D11
340
0
  0
BLOCK_RECORD
  5
2E
100
AcDbSymbolTableRecord
100
AcDbBlockTableRecord
  2
*D12
340
0
  0
BLOCK_RECORD
  5
2F
100
AcDbSymbolTableRecord
100
AcDbBlockTableRecord
  2
*D13
340
0
  0
BLOCK_RECORD
  5
30
100
AcDbSymbolTableRecord
100
AcDbBlockTableRecord
  2
*D14
340
0
  0
BLOCK_RECORD
  5
31
100
AcDbSymbolTableRecord
100
AcDbBlockTableRecord
  2
*D15
340
0
  0
BLOCK_RECORD
  5
32
100
AcDbSymbolTableRecord
100
AcDbBlockTableRecord
  2
*D16
340
0
  0
BLOCK_RECORD
  5
33
100
AcDbSymbolTableRecord
100
AcDbBlockTableRecord
  2
*D17
340
0
  0
BLOCK_RECORD
  5
34
100
AcDbSymbolTableRecord
100
AcDbBlockTableRecord
  2
*D18
340
0
  0
BLOCK_RECORD
  5
35
100
AcDbSymbolTableRecord
100
AcDbBlockTableRecord
  2
*D19
340
0
  0
BLOCK_RECORD
  5
36
100
AcDbSymbolTableRecord
100
AcDbBlockTableRecord
  2
*D20
340
0
  0
BLOCK_RECORD
  5
37
100
AcDbSymbolTableRecord
100
AcDbBlockTableRecord
  2
*D21
340
0
  0
BLOCK_RECORD
  5
38
100
AcDbSymbolTableRecord
100
AcDbBlockTableRecord
  2
*D22
340
0
  0
BLOCK_RECORD
  5
39
100
AcDbSymbolTableRecord
100
AcDbBlockTableRecord
  2
*D23
340
0
  0
ENDTAB
  0
ENDSEC
  0
SECTION
  2
BLOCKS
  0
BLOCK
  5
D
100
AcDbEntity
  8
0
390
0
100
AcDbBlockBegin
  2
*MODEL_SPACE
 70
               0
 10
0.0
 20
0.0
 30
0.0
  3
*MODEL_SPACE
  1

  0
ENDBLK
  5
E
100
AcDbEntity
  8
0
390
0
100
AcDbBlockEnd
  0
BLOCK
  5
F
100
AcDbEntity
 67
               1
  8
0
390
0
100
AcDbBlockBegin
  2
*PAPER_SPACE
 70
               0
 10
0.0
 20
0.0
 30
0.0
  3
*PAPER_SPACE
  1

  0
ENDBLK
  5
10
100
AcDbEntity
 67
               1
  8
0
390
0
100
AcDbBlockEnd
  0
BLOCK
  5
4F
100
AcDbEntity
  8
0
390
0
100
AcDbBlockBegin
  2
_DOT
 70
               0
 10
0.0
 20
0.0
 30
0.0
  3
_DOT
  1

  0
POLYLINE
  5
50
100
AcDbEntity
  8
0
370
              -2
390
0
  6
ByBlock
 62
               0
100
AcDb2dPolyline
 66
               1
 10
0.0
 20
0.0
 30
0.0
 70
               1
 40
0.5
 41
0.5
  0
VERTEX
  5
51
100
AcDbEntity
  8
0
370
              -2
390
0
  6
ByBlock
 62
               0
100
AcDbVertex
100
AcDb2dVertex
 10
-0.25
 20
0.0
 30
0.0
 42
1.0
  0
VERTEX
  5
52
100
AcDbEntity
  8
0
370
              -2
390
0
  6
ByBlock
 62
               0
100
AcDbVertex
100
AcDb2dVertex
 10
0.25
 20
0.0
 30
0.0
 42
1.0
  0
SEQEND
  5
53
100
AcDbEntity
  8
0
390
0
  0
LINE
  5
54
100
AcDbEntity
  8
0
370
              -2
390
0
  6
ByBlock
 62
               0
100
AcDbLine
 10
-0.5
 20
0.0
 30
0.0
 11
-1.0
 21
0.0
 31
0.0
  0
ENDBLK
  5
55
100
AcDbEntity
  8
0
390
0
100
AcDbBlockEnd
  0
BLOCK
  5
57
100
AcDbEntity
  8
template
390
0
100
AcDbBlockBegin
  2
グループ
 70
               0
 10
0.0
 20
0.0
 30
0.0
  3
グループ
  1

  0
LWPOLYLINE
  5
58
100
AcDbEntity
  8
0
370
              15
390
0
  6
Continuous
 62
               7
100
AcDbPolyline
 90
        8
 70
             129
 10
999.92850780307481
 20
-1216.3529285708557
 10
999.92850780307481
 20
-1222.3503172644316
 10
990.42731088507151
 20
-1222.3503172644316
 10
990.42731088507151
 20
-1246.8012805279404
 10
982.07193362328871
 20
-1246.8012805279404
 10
982.07193362328871
 20
-1222.3503172644316
 10
972.73897667697929
 20
-1222.3503172644316
 10
972.73897667697929
 20
-1216.3529285708557
  0
LWPOLYLINE
  5
59
100
AcDbEntity
  8
0
370
              15
390
0
  6
Continuous
 62
               7
100
AcDbPolyline
 90
      101
 70
             128
 10
1012.6567996336317
 20
-1217.0811770637922
 10
1012.6721496624195
 20
-1217.0768163071064
 42
-0.0222221607812114
 10
1012.9621542390878
 20
-1217.0081918418625
 10
1012.9779480030811
 20
-1217.0051884187656
 42
-0.0146883565586334
 10
1013.2406507083056
 20
-1216.9631852318162
 42
-0.0127458844185674
 10
1013.5052896754599
 20
-1216.9356482637436
 10
1013.5677447537714
 20
-1216.9307548411555
 42
-0.0198099018569192
 10
1013.958593863244
 20
-1216.915669683759
 10
1014.010405332692
 20
-1216.915723459424
 42
-0.0147617382761633
 10
1014.5050287936698
 20
-1216.9308434846689
 10
1014.5777202485389
 20
-1216.9352160915564
 42
-0.0162624549004771
 10
1014.9678738780058
 20
-1216.9714489668288
 10
1015.0894062692661
 20
-1216.9867355258255
 42
-0.0080020874663682
 10
1015.2349853003566
 20
-1217.0074183730937
 10
1015.2733047709477
 20
-1217.0134896509041
 42
-0.0053821929673057
 10
1015.3417888762664
 20
-1217.0250971747264
 10
1014.6153831770678
 20
-1219.2060256304403
 42
0.0108667757394248
 10
1014.5480661069319
 20
-1219.1928385152194
 10
1014.5105980837475
 20
-1219.186340772626
 42
0.0170663203308126
 10
1014.3673812968349
 20
-1219.1665111753346
 10
1014.2995059641489
 20
-1219.1594640047467
 42
0.0220162375275767
 10
1014.0191265562931
 20
-1219.1427816439766
 10
1013.9412709892413
 20
-1219.1415822767101
 42
0.028260691578461
 10
1013.6056346656636
 20
-1219.155385553679
 10
1013.5617213918941
 20
-1219.1596855436824
 42
0.0169677213684339
 10
1013.3157968969324
 20
-1219.1922225932349
 42
0.0190576269867555
 10
1013.0728889343527
 20
-1219.242369465341
 10
1013.0666297462415
 20
-1219.2439124394505
 42
0.0213685642842505
 10
1012.8162452617631
 20
-1219.3171127245553
 10
1012.8107553668475
 20
-1219.3189757206142
 42
0.0237595297591556
 10
1012.5572604819488
 20
-1219.4186602425098
 10
1012.5521584079191
 20
-1219.4209520179879
 42
0.0261857468811233
 10
1012.2999876316909
 20
-1219.5504883553615
 10
1012.2895614426031
 20
-1219.5565538298304
 42
0.0272553062021147
 10
1012.0531316673637
 20
-1219.7119260357754
 10
1012.0183686538519
 20
-1219.7375871838692
 42
0.0325996893175682
 10
1011.8682133102027
 20
-1219.8643350568389
 10
1011.8445038810833
 20
-1219.887153085348
 42
0.0138050960629778
 10
1011.7526207248695
 20
-1219.9806027469035
 42
0.0125280103804799
 10
1011.6657781920389
 20
-1220.0787660735
 10
1011.6420977471277
 20
-1220.1069245716908
 42
0.0205218024733505
 10
1011.5169976716121
 20
-1220.2687178859223
 10
1011.4945313311268
 20
-1220.3003776157468
 42
0.0163110129582501
 10
1011.3388209518779
 20
-1220.5357080508129
 10
1011.3360970558246
 20
-1220.5401318128022
 42
0.0131897341905474
 10
1011.189296534915
 20
-1220.7932639051733
 10
1011.1875964395522
 20
-1220.7963821443022
 42
0.0107895576061062
 10
1011.049819737343
 20
-1221.0625973539345
 10
1011.0490868478164
 20
-1221.064091586584
 42
0.0091371507213215
 10
1010.9206068991707
 20
-1221.338616784335
 10
1010.8908612677576
 20
-1221.4053232915026
 42
0.0135418326350196
 10
1010.7191473286861
 20
-1221.820261076771
 10
1010.6855425202489
 20
-1221.9081272190599
 42
0.0092834542414131
 10
1010.5143134603309
 20
-1222.3820257173579
 10
1010.4886963326078
 20
-1222.4572667871673
 42
0.0054261043582553
 10
1010.3810581843202
 20
-1222.7850307602162
 10
1010.3635321981355
 20
-1222.8404189224689
 42
0.0008225090812543
 10
1010.2948621463128
 20
-1223.0586876805955
 10
1009.3101730143793
 20
-1226.0835789738521
 10
1012.5427968544532
 20
-1226.0835789738521
 10
1012.0386044245997
 20
-1227.9880572722045
 10
1008.7825481426164
 20
-1227.9880572722045
 10
1002.9533991102626
 20
-1246.8012803382094
 10
1001.1283014999523
 20
-1246.8012803382094
 10
1006.9629795354532
 20
-1227.9880572722045
 10
1004.5578631664129
 20
-1227.9880572722045
 10
1005.0620555962663
 20
-1226.0835789738521
 10
1007.4906044072163
 20
-1226.0835789738521
 10
1008.350759325405
 20
-1223.4471659731532
 42
-0.0005863560661623
 10
1008.3874940035457
 20
-1223.3303395530609
 10
1008.4635818372689
 20
-1223.089347253476
 42
-0.0087522378929096
 10
1008.6630499807252
 20
-1222.4940711663312
 10
1008.755314256142
 20
-1222.2339309978086
 42
-0.0077400953828644
 10
1009.0132479152703
 20
-1221.5409263202682
 10
1009.0290128868487
 20
-1221.5004954368835
 42
-0.008236994633024
 10
1009.2760973574611
 20
-1220.8964163706864
 42
-0.0085725238362481
 10
1009.5433434534671
 20
-1220.3009903313928
 10
1009.6449730544747
 20
-1220.0845692294076
 42
-0.0168109410595681
 10
1009.9319174832015
 20
-1219.52336170331
 10
1010.0577608735928
 20
-1219.2963976704343
 42
-0.0007817726862642
 10
1010.1120452237171
 20
-1219.1988534252814
 10
1010.1121735297247
 20
-1219.1986237165625
 42
-0.0036626142163906
 10
1010.1670613937556
 20
-1219.1020258365766
 42
-0.0080221150677447
 10
1010.2241856491619
 20
-1219.0067466018245
 10
1010.2548856005235
 20
-1218.9573556527016
 42
-0.0202139325586617
 10
1010.3825413403273
 20
-1218.7693740520242
 10
1010.4366088055178
 20
-1218.6962951877792
 42
-0.0249323791798397
 10
1010.6957715992373
 20
-1218.3802499456244
 10
1010.719911413364
 20
-1218.3536356727122
 42
-0.0242132121540415
 10
1011.0595921549035
 20
-1218.0137521865106
 10
1011.1075037276559
 20
-1217.970243050323
 42
-0.0251017527861996
 10
1011.3914854282973
 20
-1217.7372503045576
 10
1011.3929309051093
 20
-1217.7361810469799
 42
-0.0130868069040783
 10
1011.6911915550684
 20
-1217.5274005784361
 10
1011.6927533742091
 20
-1217.5263671381624
 42
-0.029032952639343
 10
1012.0038645156044
 20
-1217.3455416365318
 10
1012.0337100775877
 20
-1217.3304392536936
 42
-0.0160250190047589
 10
1012.2996144913552
 20
-1217.2064231434788
 42
-0.02676003747835
 10
1012.5748905688229
 20
-1217.1056748229307
 10
1012.6016264883448
 20
-1217.0974822641047
 42
-0.0049981587670081
 10
1012.6567996336317
 20
-1217.0811770637922
 42
-0.0049981587670081
  0
LWPOLYLINE
  5
5A
100
AcDbEntity
  8
0
370
              15
390
0
  6
Continuous
 62
               7
100
AcDbPolyline
 90
      118
 70
             128
 10
1032.4711671980785
 20
-1226.1575623016795
 10
1034.3462891225781
 20
-1226.1575623016795
 10
1033.5082502169782
 20
-1228.8391288280795
 42
-0.0010587229276963
 10
1033.5397060325358
 20
-1228.8022242947411
 10
1033.5979001231822
 20
-1228.7342420385485
 42
-0.007187474040955
 10
1033.7482753412773
 20
-1228.5636013465225
 10
1033.8899981145423
 20
-1228.4073652052061
 42
-0.0148118053512372
 10
1034.3401274072519
 20
-1227.9397513591964
 10
1034.4273497421589
 20
-1227.8543540383378
 42
-0.0086273358690369
 10
1034.7628985431652
 20
-1227.5369784043232
 10
1034.8067322593959
 20
-1227.4969287599858
 42
-0.0103138323109944
 10
1035.0647559616245
 20
-1227.2707656226519
 10
1035.1105303679672
 20
-1227.2322835753785
 42
-0.006020674855481
 10
1035.283378432064
 20
-1227.0904889246372
 10
1035.2854095629446
 20
-1227.0888632190101
 42
-0.0067069027290085
 10
1035.4577023776123
 20
-1226.9547125852109
 10
1035.4602511435371
 20
-1226.9527824153365
 42
-0.0076184352041326
 10
1035.6311564094099
 20
-1226.8274075400918
 42
-0.0089652861666183
 10
1035.8061173721551
 20
-1226.7077742797524
 10
1035.842469092288
 20
-1226.6838630662774
 42
-0.0156916245935734
 10
1036.0384285894493
 20
-1226.5636005798019
 42
-0.0023299011062099
 10
1036.2386906334243
 20
-1226.4504226402639
 10
1036.254074765809
 20
-1226.4418226451965
 42
-0.0107669341489914
 10
1036.4883115909042
 20
-1226.3174225118501
 10
1036.5105763919853
 20
-1226.306205761897
 42
-0.007805804589236
 10
1036.7941665099456
 20
-1226.1688443062549
 10
1036.8040735976472
 20
-1226.1642351783901
 42
-0.0181829330471823
 10
1037.1143830022615
 20
-1226.0333714372948
 10
1037.1684384448295
 20
-1226.012856317351
 42
-0.0208411536029374
 10
1037.5175234122798
 20
-1225.8967658548577
 10
1037.5318795124065
 20
-1225.8926474099044
 42
-0.0222799817135573
 10
1037.8605993063245
 20
-1225.8140058437639
 10
1037.86948826956
 20
-1225.8122938331792
 42
-0.0215509523885439
 10
1038.1859592378414
 20
-1225.7653781446447
 10
1038.2284411988894
 20
-1225.760940617854
 42
-0.0182545924875493
 10
1038.4625499781955
 20
-1225.7450967924628
 10
1038.5019509945416
 20
-1225.7438722473837
 42
-0.0072962856534505
 10
1038.6578738742323
 20
-1225.7413029188615
 10
1038.6869735448083
 20
-1225.7412480834578
 42
-0.0059227516307169
 10
1038.7847230439493
 20
-1225.742221795248
 10
1038.8139652614386
 20
-1225.7428595618519
 42
-0.0011833111911002
 10
1038.8532165451538
 20
-1225.7438085661615
 10
1038.0578299495467
 20
-1228.2825425112605
 42
0.0143932051557918
 10
1038.0314285671939
 20
-1228.2723435412145
 10
1038.0241565947786
 20
-1228.2697723223578
 42
0.0234388603519217
 10
1037.9823257288435
 20
-1228.2571530866419
 10
1037.973644065934
 20
-1228.2549721246376
 42
0.0199162742980371
 10
1037.9133552318572
 20
-1228.2423553893032
 10
1037.8925412940475
 20
-1228.238858189874
 42
0.0293643550668054
 10
1037.78946643529
 20
-1228.227708144221
 10
1037.7647812545683
 20
-1228.2264965272022
 42
0.0214606686870983
 10
1037.6116403386154
 20
-1228.2255579667849
 10
1037.6022684277978
 20
-1228.2259028783292
 42
0.0167564054190763
 10
1037.4307482366885
 20
-1228.2379799206974
 10
1037.4222884439305
 20
-1228.2388612611244
 42
0.0137677553249365
 10
1037.2349351306632
 20
-1228.2636105696681
 10
1037.2275833911579
 20
-1228.2647884896357
 42
0.01184972614855
 10
1037.0270856270561
 20
-1228.301805839825
 10
1037.0209356198093
 20
-1228.303092702545
 42
0.010642114389249
 10
1036.8100547325205
 20
-1228.3519250781208
 10
1036.8051459241351
 20
-1228.3531724208049
 42
0.0099746379704491
 10
1036.5866874549736
 20
-1228.4133469491194
 10
1036.5251394148024
 20
-1228.4316288277503
 42
0.0191613675859841
 10
1036.1891549522868
 20
-1228.5456062080373
 10
1036.1010951795413
 20
-1228.5792931183614
 42
0.0205274080145784
 10
1035.7157884076407
 20
-1228.7451215261879
 10
1035.6581391256586
 20
-1228.7727894907603
 42
0.0181256912193975
 10
1035.3998621849919
 20
-1228.9084733097379
 10
1035.3469068016771
 20
-1228.9387909229533
 42
0.0140709242414091
 10
1035.2019518670495
 20
-1229.0272855963872
 10
1035.175702998431
 20
-1229.0443424151026
 42
0.0086667884407175
 10
1035.0867768368885
 20
-1229.1043450829854
 42
0.0036408192028488
 10
1034.9993435988486
 20
-1229.1665259407825
 10
1034.9641167243863
 20
-1229.1919668866906
 42
0.00522607812807
 10
1034.8078880269882
 20
-1229.3072992733303
 10
1034.7916811707357
 20
-1229.3195273839428
 42
0.0050024435889507
 10
1034.6056778276909
 20
-1229.4628099521942
 10
1034.5903596711619
 20
-1229.4748559746508
 42
0.0136138710276383
 10
1034.3799184028339
 20
-1229.6498224795662
 10
1034.3462505270427
 20
-1229.6794014522784
 42
0.0172815186915152
 10
1034.0818469853766
 20
-1229.9283981249055
 10
1034.0792846395377
 20
-1229.9309839420489
 42
0.0189403857993788
 10
1033.8287028409545
 20
-1230.2037892068581
 10
1033.7960713474201
 20
-1230.2421331383532
 42
0.0185044199506503
 10
1033.6041149084426
 20
-1230.4853817194735
 42
0.0088565243902164
 10
1033.4256548018138
 20
-1230.7388981396241
 10
1033.4164768221658
 20
-1230.7524395193834
 42
0.0157195347236225
 10
1033.2332562158299
 20
-1231.0419617287025
 10
1033.1871732739016
 20
-1231.1201139257187
 42
0.0095451879783444
 10
1033.022087723763
 20
-1231.4127085680766
 10
1033.0109398048348
 20
-1231.4333792402058
 42
0.0100351706251287
 10
1032.878896055674
 20
-1231.6904348006992
 42
0.0086935915423496
 10
1032.7565649038802
 20
-1231.9522679461036
 10
1032.7532441624655
 20
-1231.9597102690755
 42
0.0072580174870083
 10
1032.632897710519
 20
-1232.2403022606627
 10
1032.6296360772144
 20
-1232.2482222866765
 42
0.006000512261601
 10
1032.5104354088742
 20
-1232.5478319572755
 10
1032.5072244305302
 20
-1232.5561934851862
 42
0.0049017786980795
 10
1032.3883242716745
 20
-1232.8751224657856
 10
1032.3851584652821
 20
-1232.8838754030212
 42
0.003941516760061
 10
1032.2657221872225
 20
-1233.2224174654423
 10
1032.2625910845732
 20
-1233.2315206663104
 42
0.0031035838762684
 10
1032.1417862988847
 20
-1233.5899605280704
 10
1032.1386762543498
 20
-1233.5993811494586
 42
0.0025070747148529
 10
1032.0157749030502
 20
-1233.9780283663529
 10
1031.9784810066089
 20
-1234.0949200316556
 42
0.0029081910284167
 10
1031.7864627087947
 20
-1234.7090836899592
 10
1031.7456595402814
 20
-1234.8423069322232
 42
0.0009266453732939
 10
1031.4772421659716
 20
-1235.7245313921294
 10
1031.4563546933191
 20
-1235.7936432714041
 42
-0.0005809993666427
 10
1031.1790180127346
 20
-1236.7074513780217
 10
1031.1127362144694
 20
-1236.924936310156
 42
-0.001201870817063
 10
1030.9657519050324
 20
-1237.4030989747021
 10
1030.9134320533078
 20
-1237.5718581160804
 42
-0.0002691059611808
 10
1030.8698625722984
 20
-1237.7121257359097
 10
1028.0369066740093
 20
-1246.8012803382094
 10
1026.2189177820308
 20
-1246.8012803382094
 10
1032.4711671980785
 20
-1226.1575623016795
  0
SPLINE
  5
5B
100
AcDbEntity
  8
0
370
              15
390
0
  6
Continuous
 62
               7
100
AcDbSpline
210
0.0
220
0.0
230
1.0
 70
              13
 71
               2
 72
             782
 73
             779
 74
               0
 42
0.000001
 43
0.000001
 40
0.0
 40
0.0
 40
0.0
 40
1.0
 40
1.0
 40
2.0
 40
2.0
 40
3.0
 40
3.0
 40
4.0
 40
4.0
 40
5.0
 40
5.0
 40
6.0
 40
6.0
 40
7.0
 40
7.0
 40
8.0
 40
8.0
 40
9.0
 40
9.0
 40
10.0
 40
10.0
 40
11.0
 40
11.0
 40
12.0
 40
12.0
 40
13.0
 40
13.0
 40
14.0
 40
14.0
 40
15.0
 40
15.0
 40
16.0
 40
16.0
 40
17.0
 40
17.0
 40
18.0
 40
18.0
 40
19.0
 40
19.0
 40
20.0
 40
20.0
 40
21.0
 40
21.0
 40
22.0
 40
22.0
 40
23.0
 40
23.0
 40
24.0
 40
24.0
 40
25.0
 40
25.0
 40
26.0
 40
26.0
 40
27.0
 40
27.0
 40
28.0
 40
28.0
 40
29.0
 40
29.0
 40
30.0
 40
30.0
 40
31.0
 40
31.0
 40
32.0
 40
32.0
 40
33.0
 40
33.0
 40
34.0
 40
34.0
 40
35.0
 40
35.0
 40
36.0
 40
36.0
 40
37.0
 40
37.0
 40
38.0
 40
38.0
 40
39.0
 40
39.0
 40
40.0
 40
40.0
 40
41.0
 40
41.0
 40
42.0
 40
42.0
 40
43.0
 40
43.0
 40
44.0
 40
44.0
 40
45.0
 40
45.0
 40
46.0
 40
46.0
 40
47.0
 40
47.0
 40
48.0
 40
48.0
 40
49.0
 40
49.0
 40
50.0
 40
50.0
 40
51.0
 40
51.0
 40
52.0
 40
52.0
 40
53.0
 40
53.0
 40
54.0
 40
54.0
 40
55.0
 40
55.0
 40
56.0
 40
56.0
 40
57.0
 40
57.0
 40
58.0
 40
58.0
 40
59.0
 40
59.0
 40
60.0
 40
60.0
 40
61.0
 40
61.0
 40
62.0
 40
62.0
 40
63.0
 40
63.0
 40
64.0
 40
64.0
 40
65.0
 40
65.0
 40
66.0
 40
66.0
 40
67.0
 40
67.0
 40
68.0
 40
68.0
 40
69.0
 40
69.0
 40
70.0
 40
70.0
 40
71.0
 40
71.0
 40
72.0
 40
72.0
 40
73.0
 40
73.0
 40
74.0
 40
74.0
 40
75.0
 40
75.0
 40
76.0
 40
76.0
 40
77.0
 40
77.0
 40
78.0
 40
78.0
 40
79.0
 40
79.0
 40
80.0
 40
80.0
 40
81.0
 40
81.0
 40
82.0
 40
82.0
 40
83.0
 40
83.0
 40
84.0
 40
84.0
 40
85.0
 40
85.0
 40
86.0
 40
86.0
 40
87.0
 40
87.0
 40
88.0
 40
88.0
 40
89.0
 40
89.0
 40
90.0
 40
90.0
 40
91.0
 40
91.0
 40
92.0
 40
92.0
 40
93.0
 40
93.0
 40
94.0
 40
94.0
 40
95.0
 40
95.0
 40
96.0
 40
96.0
 40
97.0
 40
97.0
 40
98.0
 40
98.0
 40
99.0
 40
99.0
 40
100.0
 40
100.0
 40
101.0
 40
101.0
 40
102.0
 40
102.0
 40
103.0
 40
103.0
 40
104.0
 40
104.0
 40
105.0
 40
105.0
 40
106.0
 40
106.0
 40
107.0
 40
107.0
 40
108.0
 40
108.0
 40
109.0
 40
109.0
 40
110.0
 40
110.0
 40
111.0
 40
111.0
 40
112.0
 40
112.0
 40
113.0
 40
113.0
 40
114.0
 40
114.0
 40
115.0
 40
115.0
 40
116.0
 40
116.0
 40
117.0
 40
117.0
 40
118.0
 40
118.0
 40
119.0
 40
119.0
 40
120.0
 40
120.0
 40
121.0
 40
121.0
 40
122.0
 40
122.0
 40
123.0
 40
123.0
 40
124.0
 40
124.0
 40
125.0
 40
125.0
 40
126.0
 40
126.0
 40
127.0
 40
127.0
 40
128.0
 40
128.0
 40
129.0
 40
129.0
 40
130.0
 40
130.0
 40
131.0
 40
131.0
 40
132.0
 40
132.0
 40
133.0
 40
133.0
 40
134.0
 40
134.0
 40
135.0
 40
135.0
 40
136.0
 40
136.0
 40
137.0
 40
137.0
 40
138.0
 40
138.0
 40
139.0
 40
139.0
 40
140.0
 40
140.0
 40
141.0
 40
141.0
 40
142.0
 40
142.0
 40
143.0
 40
143.0
 40
144.0
 40
144.0
 40
145.0
 40
145.0
 40
146.0
 40
146.0
 40
147.0
 40
147.0
 40
148.0
 40
148.0
 40
149.0
 40
149.0
 40
150.0
 40
150.0
 40
151.0
 40
151.0
 40
152.0
 40
152.0
 40
153.0
 40
153.0
 40
154.0
 40
154.0
 40
155.0
 40
155.0
 40
156.0
 40
156.0
 40
157.0
 40
157.0
 40
158.0
 40
158.0
 40
159.0
 40
159.0
 40
160.0
 40
160.0
 40
161.0
 40
161.0
 40
162.0
 40
162.0
 40
163.0
 40
163.0
 40
164.0
 40
164.0
 40
165.0
 40
165.0
 40
166.0
 40
166.0
 40
167.0
 40
167.0
 40
168.0
 40
168.0
 40
169.0
 40
169.0
 40
170.0
 40
170.0
 40
171.0
 40
171.0
 40
172.0
 40
172.0
 40
173.0
 40
173.0
 40
174.0
 40
174.0
 40
175.0
 40
175.0
 40
176.0
 40
176.0
 40
177.0
 40
177.0
 40
178.0
 40
178.0
 40
179.0
 40
179.0
 40
180.0
 40
180.0
 40
181.0
 40
181.0
 40
182.0
 40
182.0
 40
183.0
 40
183.0
 40
184.0
 40
184.0
 40
185.0
 40
185.0
 40
186.0
 40
186.0
 40
187.0
 40
187.0
 40
188.0
 40
188.0
 40
189.0
 40
189.0
 40
190.0
 40
190.0
 40
191.0
 40
191.0
 40
192.0
 40
192.0
 40
193.0
 40
193.0
 40
194.0
 40
194.0
 40
195.0
 40
195.0
 40
196.0
 40
196.0
 40
197.0
 40
197.0
 40
198.0
 40
198.0
 40
199.0
 40
199.0
 40
200.0
 40
200.0
 40
201.0
 40
201.0
 40
202.0
 40
202.0
 40
203.0
 40
203.0
 40
204.0
 40
204.0
 40
205.0
 40
205.0
 40
206.0
 40
206.0
 40
207.0
 40
207.0
 40
208.0
 40
208.0
 40
209.0
 40
209.0
 40
210.0
 40
210.0
 40
211.0
 40
211.0
 40
212.0
 40
212.0
 40
213.0
 40
213.0
 40
214.0
 40
214.0
 40
215.0
 40
215.0
 40
216.0
 40
216.0
 40
217.0
 40
217.0
 40
218.0
 40
218.0
 40
219.0
 40
219.0
 40
220.0
 40
220.0
 40
221.0
 40
221.0
 40
222.0
 40
222.0
 40
223.0
 40
223.0
 40
224.0
 40
224.0
 40
225.0
 40
225.0
 40
226.0
 40
226.0
 40
227.0
 40
227.0
 40
228.0
 40
228.0
 40
229.0
 40
229.0
 40
230.0
 40
230.0
 40
231.0
 40
231.0
 40
232.0
 40
232.0
 40
233.0
 40
233.0
 40
234.0
 40
234.0
 40
235.0
 40
235.0
 40
236.0
 40
236.0
 40
237.0
 40
237.0
 40
238.0
 40
238.0
 40
239.0
 40
239.0
 40
240.0
 40
240.0
 40
241.0
 40
241.0
 40
242.0
 40
242.0
 40
243.0
 40
243.0
 40
244.0
 40
244.0
 40
245.0
 40
245.0
 40
246.0
 40
246.0
 40
247.0
 40
247.0
 40
248.0
 40
248.0
 40
249.0
 40
249.0
 40
250.0
 40
250.0
 40
251.0
 40
251.0
 40
252.0
 40
252.0
 40
253.0
 40
253.0
 40
254.0
 40
254.0
 40
255.0
 40
255.0
 40
256.0
 40
256.0
 40
257.0
 40
257.0
 40
258.0
 40
258.0
 40
259.0
 40
259.0
 40
260.0
 40
260.0
 40
261.0
 40
261.0
 40
262.0
 40
262.0
 40
263.0
 40
263.0
 40
264.0
 40
264.0
 40
265.0
 40
265.0
 40
266.0
 40
266.0
 40
267.0
 40
267.0
 40
268.0
 40
268.0
 40
269.0
 40
269.0
 40
270.0
 40
270.0
 40
271.0
 40
271.0
 40
272.0
 40
272.0
 40
273.0
 40
273.0
 40
274.0
 40
274.0
 40
275.0
 40
275.0
 40
276.0
 40
276.0
 40
277.0
 40
277.0
 40
278.0
 40
278.0
 40
279.0
 40
279.0
 40
280.0
 40
280.0
 40
281.0
 40
281.0
 40
282.0
 40
282.0
 40
283.0
 40
283.0
 40
284.0
 40
284.0
 40
285.0
 40
285.0
 40
286.0
 40
286.0
 40
287.0
 40
287.0
 40
288.0
 40
288.0
 40
289.0
 40
289.0
 40
290.0
 40
290.0
 40
291.0
 40
291.0
 40
292.0
 40
292.0
 40
293.0
 40
293.0
 40
294.0
 40
294.0
 40
295.0
 40
295.0
 40
296.0
 40
296.0
 40
297.0
 40
297.0
 40
298.0
 40
298.0
 40
299.0
 40
299.0
 40
300.0
 40
300.0
 40
301.0
 40
301.0
 40
302.0
 40
302.0
 40
303.0
 40
303.0
 40
304.0
 40
304.0
 40
305.0
 40
305.0
 40
306.0
 40
306.0
 40
307.0
 40
307.0
 40
308.0
 40
308.0
 40
309.0
 40
309.0
 40
310.0
 40
310.0
 40
311.0
 40
311.0
 40
312.0
 40
312.0
 40
313.0
 40
313.0
 40
314.0
 40
314.0
 40
315.0
 40
315.0
 40
316.0
 40
316.0
 40
317.0
 40
317.0
 40
318.0
 40
318.0
 40
319.0
 40
319.0
 40
320.0
 40
320.0
 40
321.0
 40
321.0
 40
322.0
 40
322.0
 40
323.0
 40
323.0
 40
324.0
 40
324.0
 40
325.0
 40
325.0
 40
326.0
 40
326.0
 40
327.0
 40
327.0
 40
328.0
 40
328.0
 40
329.0
 40
329.0
 40
330.0
 40
330.0
 40
331.0
 40
331.0
 40
332.0
 40
332.0
 40
333.0
 40
333.0
 40
334.0
 40
334.0
 40
335.0
 40
335.0
 40
336.0
 40
336.0
 40
337.0
 40
337.0
 40
338.0
 40
338.0
 40
339.0
 40
339.0
 40
340.0
 40
340.0
 40
341.0
 40
341.0
 40
342.0
 40
342.0
 40
343.0
 40
343.0
 40
344.0
 40
344.0
 40
345.0
 40
345.0
 40
346.0
 40
346.0
 40
347.0
 40
347.0
 40
348.0
 40
348.0
 40
349.0
 40
349.0
 40
350.0
 40
350.0
 40
351.0
 40
351.0
 40
352.0
 40
352.0
 40
353.0
 40
353.0
 40
354.0
 40
354.0
 40
355.0
 40
355.0
 40
356.0
 40
356.0
 40
357.0
 40
357.0
 40
358.0
 40
358.0
 40
359.0
 40
359.0
 40
360.0
 40
360.0
 40
361.0
 40
361.0
 40
362.0
 40
362.0
 40
363.0
 40
363.0
 40
364.0
 40
364.0
 40
365.0
 40
365.0
 40
366.0
 40
366.0
 40
367.0
 40
367.0
 40
368.0
 40
368.0
 40
369.0
 40
369.0
 40
370.0
 40
370.0
 40
371.0
 40
371.0
 40
372.0
 40
372.0
 40
373.0
 40
373.0
 40
374.0
 40
374.0
 40
375.0
 40
375.0
 40
376.0
 40
376.0
 40
377.0
 40
377.0
 40
378.0
 40
378.0
 40
379.0
 40
379.0
 40
380.0
 40
380.0
 40
381.0
 40
381.0
 40
382.0
 40
382.0
 40
383.0
 40
383.0
 40
384.0
 40
384.0
 40
385.0
 40
385.0
 40
386.0
 40
386.0
 40
387.0
 40
387.0
 40
388.0
 40
388.0
 40
389.0
 40
389.0
 40
389.0
 10
1042.7998716488112
 20
-1226.1466359383171
 30
0.0
 41
1.0
 10
1043.6182957575315
 20
-1226.1466359383171
 30
0.0
 41
1.0
 10
1044.4367198662521
 20
-1226.1466359383171
 30
0.0
 41
1.0
 10
1044.0229661307353
 20
-1227.4892622025668
 30
0.0
 41
1.0
 10
1043.6092123952187
 20
-1228.8318884668165
 30
0.0
 41
1.0
 10
1043.6275518903735
 20
-1228.8031876939253
 30
0.0
 41
0.9999957264381527
 10
1043.6460588871919
 20
-1228.7745946437938
 30
0.0
 41
1.0
 10
1043.6764882113418
 20
-1228.7275817653981
 30
0.0
 41
1.0
 10
1043.7069175354918
 20
-1228.6805688870027
 30
0.0
 41
1.0
 10
1043.7862831805951
 20
-1228.5579500801034
 30
0.0
 41
0.9995394069081176
 10
1043.8729415721446
 20
-1228.4403720183652
 30
0.0
 41
1.0
 10
1043.9086984344071
 20
-1228.391857125768
 30
0.0
 41
1.0
 10
1043.9444552966695
 20
-1228.3433422331707
 30
0.0
 41
1.0
 10
1044.0781819644876
 20
-1228.1619019580442
 30
0.0
 41
0.9994460617143324
 10
1044.2236824457757
 20
-1227.9897595603943
 30
0.0
 41
1.0
 10
1044.2280706267497
 20
-1227.9845678800127
 30
0.0
 41
1.0
 10
1044.232458807724
 20
-1227.9793761996311
 30
0.0
 41
1.0
 10
1044.3691829270629
 20
-1227.8176171627456
 30
0.0
 41
0.9994359394934183
 10
1044.5164571574151
 20
-1227.66540096158
 30
0.0
 41
1.0
 10
1044.5188405113681
 20
-1227.6629376312071
 30
0.0
 41
1.0
 10
1044.5212238653212
 20
-1227.6604743008343
 30
0.0
 41
1.0
 10
1044.6637313877654
 20
-1227.5131847604159
 30
0.0
 41
0.9995293688567859
 10
1044.8150030687484
 20
-1227.374911548251
 30
0.0
 41
1.0
 10
1044.8342968280115
 20
-1227.3572756626002
 30
0.0
 41
1.0
 10
1044.8535905872745
 20
-1227.3396397769493
 30
0.0
 41
1.0
 10
1044.9662747497312
 20
-1227.2366383360866
 30
0.0
 41
0.9997087614803661
 10
1045.0837976386856
 20
-1227.1391940552892
 30
0.0
 41
1.0
 10
1045.1029637118745
 20
-1227.1233024767703
 30
0.0
 41
1.0
 10
1045.1221297850634
 20
-1227.1074108982511
 30
0.0
 41
1.0
 10
1045.2013205276546
 20
-1227.0417497744802
 30
0.0
 41
0.9999595338696764
 10
1045.281679798496
 20
-1226.9775240438362
 30
0.0
 41
1.0
 10
1045.3620390693472
 20
-1226.9132983131844
 30
0.0
 41
0.9999749417507066
 10
1045.443299603688
 20
-1226.8502167592399
 30
0.0
 41
1.0
 10
1045.4642857498707
 20
-1226.8339254719226
 30
0.0
 41
1.0
 10
1045.4852718960533
 20
-1226.8176341846054
 30
0.0
 41
1.0
 10
1045.5698397813394
 20
-1226.751985174777
 30
0.0
 41
0.9999792037117017
 10
1045.6552473810971
 20
-1226.6874323931424
 30
0.0
 41
1.0
 10
1045.6760722070092
 20
-1226.6716925708843
 30
0.0
 41
1.0
 10
1045.6968970329212
 20
-1226.6559527486261
 30
0.0
 41
1.0
 10
1045.7406549808641
 20
-1226.6228796115006
 30
0.0
 41
0.9999993374090908
 10
1045.7843366670097
 20
-1226.5897058160747
 30
0.0
 41
1.0
 10
1045.8280183531563
 20
-1226.5565320206483
 30
0.0
 41
0.9999160953814391
 10
1045.8725447640795
 20
-1226.5245009554476
 30
0.0
 41
1.0
 10
1045.9053666514956
 20
-1226.500889799865
 30
0.0
 41
1.0
 10
1045.9381885389116
 20
-1226.4772786442827
 30
0.0
 41
1.0
 10
1046.0483587246688
 20
-1226.3980252679153
 30
0.0
 41
0.9980964527230666
 10
1046.1674477181687
 20
-1226.3329377950599
 30
0.0
 41
1.0
 10
1046.2044803250969
 20
-1226.3126978154669
 30
0.0
 41
1.0
 10
1046.241512932025
 20
-1226.2924578358736
 30
0.0
 41
1.0
 10
1046.4208399452987
 20
-1226.1944475851717
 30
0.0
 41
0.9984572810572134
 10
1046.6099285116588
 20
-1226.1169253238249
 30
0.0
 41
1.0
 10
1046.6135747810542
 20
-1226.1154304314873
 30
0.0
 41
1.0
 10
1046.6172210504496
 20
-1226.1139355391495
 30
0.0
 41
1.0
 10
1046.7990170780172
 20
-1226.0394030624786
 30
0.0
 41
0.9987838528033803
 10
1046.9872697365768
 20
-1225.9831374223127
 30
0.0
 41
1.0
 10
1046.9915076857737
 20
-1225.9818707686231
 30
0.0
 41
1.0
 10
1046.9957456349705
 20
-1225.9806041149334
 30
0.0
 41
1.0
 10
1047.1755223951343
 20
-1225.9268717821474
 30
0.0
 41
0.999065281620691
 10
1047.3592683268521
 20
-1225.8888681026049
 30
0.0
 41
1.0
 10
1047.364456727885
 20
-1225.8877949994981
 30
0.0
 41
1.0
 10
1047.3696451289179
 20
-1225.8867218963912
 30
0.0
 41
1.0
 10
1047.5430142585694
 20
-1225.8508644230626
 30
0.0
 41
0.9992909934270325
 10
1047.7185900250261
 20
-1225.8281539905963
 30
0.0
 41
1.0
 10
1047.8941657914845
 20
-1225.8054435581298
 30
0.0
 41
0.999455353944872
 10
1048.0708572245778
 20
-1225.7943642539235
 30
0.0
 41
1.0
 10
1048.1062916323747
 20
-1225.7921423658756
 30
0.0
 41
1.0
 10
1048.1417260401715
 20
-1225.7899204778278
 30
0.0
 41
1.0
 10
1048.30795180674
 20
-1225.7794974154162
 30
0.0
 41
0.9990928098293432
 10
1048.474461598641
 20
-1225.7832570566507
 30
0.0
 41
1.0
 10
1048.5130234339103
 20
-1225.7841277481837
 30
0.0
 41
1.0
 10
1048.5515852691797
 20
-1225.7849984397167
 30
0.0
 41
1.0
 10
1048.6409713905412
 20
-1225.7870166978851
 30
0.0
 41
0.9998382089205585
 10
1048.7302270733298
 20
-1225.7922488244135
 30
0.0
 41
1.0
 10
1048.7306569795519
 20
-1225.7922740253159
 30
0.0
 41
1.0
 10
1048.7310868857737
 20
-1225.7922992262183
 30
0.0
 41
1.0
 10
1048.8194827561181
 20
-1225.7974809509417
 30
0.0
 41
0.9997558016757435
 10
1048.9075633333168
 20
-1225.806563466308
 30
0.0
 41
1.0
 10
1048.908039471748
 20
-1225.8066125637906
 30
0.0
 41
1.0
 10
1048.9085156101794
 20
-1225.8066616612734
 30
0.0
 41
1.0
 10
1048.9956439105192
 20
-1225.8156459816746
 30
0.0
 41
0.9996565144181537
 10
1049.0821817638598
 20
-1225.8291832883633
 30
0.0
 41
1.0
 10
1049.0826476892373
 20
-1225.8292561740946
 30
0.0
 41
1.0
 10
1049.0831136146148
 20
-1225.829329059826
 30
0.0
 41
1.0
 10
1049.1687196172018
 20
-1225.8427205950525
 30
0.0
 41
0.9995321806867099
 10
1049.2533466975297
 20
-1225.8613210834817
 30
0.0
 41
1.0
 10
1049.2537358921018
 20
-1225.8614066259477
 30
0.0
 41
1.0
 10
1049.2541250866739
 20
-1225.8614921684136
 30
0.0
 41
1.0
 10
1049.337973777858
 20
-1225.8799215719112
 30
0.0
 41
0.9993819199218951
 10
1049.4203203120539
 20
-1225.9041969551718
 30
0.0
 41
1.0
 10
1049.4205587455526
 20
-1225.9042672442813
 30
0.0
 41
1.0
 10
1049.4207971790513
 20
-1225.9043375333908
 30
0.0
 41
1.0
 10
1049.5026668462508
 20
-1225.9284723384326
 30
0.0
 41
0.999208856850529
 10
1049.5823593652385
 20
-1225.9590375742268
 30
0.0
 41
1.0
 10
1049.6620403561176
 20
-1225.98959717496
 30
0.0
 41
0.9990226101773569
 10
1049.7387110260247
 20
-1226.0270746065744
 30
0.0
 41
1.0
 10
1049.8153701678232
 20
-1226.0645464031281
 30
0.0
 41
0.9988424273972867
 10
1049.8880737950356
 20
-1226.1092111783812
 30
0.0
 41
1.0
 10
1049.8883415034147
 20
-1226.1093756424534
 30
0.0
 41
1.0
 10
1049.8886092117937
 20
-1226.1095401065254
 30
0.0
 41
1.0
 10
1049.9618482557648
 20
-1226.1545338099227
 30
0.0
 41
0.9986928844490627
 10
1050.0301111224744
 20
-1226.2067695442024
 30
0.0
 41
1.0
 10
1050.0306924146971
 20
-1226.2072143574303
 30
0.0
 41
1.0
 10
1050.0312737069198
 20
-1226.2076591706582
 30
0.0
 41
1.0
 10
1050.1006991580746
 20
-1226.260784531393
 30
0.0
 41
0.9986007262277479
 10
1050.164125327841
 20
-1226.3209453010866
 30
0.0
 41
1.0
 10
1050.1650197432987
 20
-1226.3217936689221
 30
0.0
 41
1.0
 10
1050.1659141587561
 20
-1226.3226420367573
 30
0.0
 41
1.0
 10
1050.2311291594376
 20
-1226.3844995421211
 30
0.0
 41
0.9985581491380986
 10
1050.2893367711397
 20
-1226.4529920323932
 30
0.0
 41
1.0
 10
1050.2985952247352
 20
-1226.4638863900946
 30
0.0
 41
1.0
 10
1050.3078536783307
 20
-1226.4747807477961
 30
0.0
 41
1.0
 10
1050.3845781972243
 20
-1226.5650619534713
 30
0.0
 41
0.9970460233520592
 10
1050.4465700983837
 20
-1226.6660290376528
 30
0.0
 41
1.0
 10
1050.4610394634637
 20
-1226.6895954967354
 30
0.0
 41
1.0
 10
1050.475508828544
 20
-1226.7131619558177
 30
0.0
 41
1.0
 10
1050.5152455285554
 20
-1226.7778816798482
 30
0.0
 41
0.9988468816636843
 10
1050.5485918993063
 20
-1226.8461141322746
 30
0.0
 41
1.0
 10
1050.5556279217972
 20
-1226.8605110534108
 30
0.0
 41
1.0
 10
1050.562663944288
 20
-1226.8749079745471
 30
0.0
 41
1.0
 10
1050.581938270057
 20
-1226.9143465847005
 30
0.0
 41
0.9998431189998251
 10
1050.5998035975526
 20
-1226.954443139143
 30
0.0
 41
1.0
 10
1050.617668925046
 20
-1226.9945396935802
 30
0.0
 41
0.9999989989719124
 10
1050.6356476484711
 20
-1227.0345855311709
 30
0.0
 41
1.0
 10
1050.6418199600646
 20
-1227.0483337479818
 30
0.0
 41
1.0
 10
1050.647992271658
 20
-1227.0620819647929
 30
0.0
 41
1.0
 10
1050.6783156182701
 20
-1227.1296242360054
 30
0.0
 41
0.9998790356322675
 10
1050.7065234984098
 20
-1227.1980769879465
 30
0.0
 41
1.0
 10
1050.713358679692
 20
-1227.2146640893689
 30
0.0
 41
1.0
 10
1050.7201938609742
 20
-1227.2312511907912
 30
0.0
 41
1.0
 10
1050.7437515233548
 20
-1227.2884191456776
 30
0.0
 41
0.9998227574560545
 10
1050.7651402717447
 20
-1227.3464334539567
 30
0.0
 41
1.0
 10
1050.7865290201346
 20
-1227.404447762236
 30
0.0
 41
0.9996797971041749
 10
1050.8049553050946
 20
-1227.4634698813559
 30
0.0
 41
1.0
 10
1050.8088591078194
 20
-1227.475974339523
 30
0.0
 41
1.0
 10
1050.8127629105445
 20
-1227.4884787976903
 30
0.0
 41
1.0
 10
1050.8389968009549
 20
-1227.5725098331468
 30
0.0
 41
0.9979274938734777
 10
1050.8542213244343
 20
-1227.6592141918077
 30
0.0
 41
1.0
 10
1050.8564450116955
 20
-1227.6718781926297
 30
0.0
 41
1.0
 10
1050.858668698957
 20
-1227.6845421934515
 30
0.0
 41
1.0
 10
1050.8695986386549
 20
-1227.7467887007404
 30
0.0
 41
0.9994985982137988
 10
1050.8765668038316
 20
-1227.8096022018813
 30
0.0
 41
1.0
 10
1050.8835349690087
 20
-1227.8724157030263
 30
0.0
 41
0.9996372611201748
 10
1050.8871108347766
 20
-1227.9355132817127
 30
0.0
 41
1.0
 10
1050.8872794122658
 20
-1227.9384878987912
 30
0.0
 41
1.0
 10
1050.8874479897549
 20
-1227.9414625158697
 30
0.0
 41
1.0
 10
1050.8913610105012
 20
-1228.0105093287239
 30
0.0
 41
0.9997730630736974
 10
1050.8923293239895
 20
-1228.0796601527657
 30
0.0
 41
1.0
 10
1050.8923864304074
 20
-1228.0837383318997
 30
0.0
 41
1.0
 10
1050.8924435368256
 20
-1228.0878165110337
 30
0.0
 41
1.0
 10
1050.8935260631499
 20
-1228.165123693354
 30
0.0
 41
0.9998772614070812
 10
1050.892185976418
 20
-1228.2424268399207
 30
0.0
 41
1.0
 10
1050.8920967132194
 20
-1228.2475760037532
 30
0.0
 41
1.0
 10
1050.8920074500206
 20
-1228.2527251675858
 30
0.0
 41
1.0
 10
1050.8904888368916
 20
-1228.3403266418136
 30
0.0
 41
0.999941556732811
 10
1050.8870765266461
 20
-1228.4278748034819
 30
0.0
 41
1.0
 10
1050.8868352059703
 20
-1228.4340662632258
 30
0.0
 41
1.0
 10
1050.8865938852948
 20
-1228.4402577229698
 30
0.0
 41
1.0
 10
1050.8826989336981
 20
-1228.5401888041235
 30
0.0
 41
0.9999716810422471
 10
1050.8773003505794
 20
-1228.6400499423542
 30
0.0
 41
1.0
 10
1050.8740875517906
 20
-1228.6994791920106
 30
0.0
 41
1.0
 10
1050.8708747530018
 20
-1228.758908441667
 30
0.0
 41
1.0
 10
1050.8628008438493
 20
-1228.9082568429458
 30
0.0
 41
0.999981912990129
 10
1050.8529310522329
 20
-1229.0574973206553
 30
0.0
 41
1.0
 10
1050.8430612606162
 20
-1229.2067377983667
 30
0.0
 41
1.0
 10
1050.8406219400524
 20
-1229.243930844216
 30
0.0
 41
1.0
 10
1050.8633201738974
 20
-1229.2051898468626
 30
0.0
 41
0.9999982128036136
 10
1050.8861647326744
 20
-1229.1665349528682
 30
0.0
 41
1.0
 10
1050.9130742925413
 20
-1229.121001738843
 30
0.0
 41
1.0
 10
1050.9399838524084
 20
-1229.075468524818
 30
0.0
 41
1.0
 10
1051.0166475309361
 20
-1228.9457472027452
 30
0.0
 41
0.9998609190057078
 10
1051.0975948438008
 20
-1228.8186548208112
 30
0.0
 41
1.0
 10
1051.1272431652826
 20
-1228.772105087854
 30
0.0
 41
1.0
 10
1051.1568914867644
 20
-1228.7255553548969
 30
0.0
 41
1.0
 10
1051.2391637069998
 20
-1228.5963827849048
 30
0.0
 41
0.999906760973344
 10
1051.3249327164608
 20
-1228.4695050954683
 30
0.0
 41
1.0
 10
1051.327337419661
 20
-1228.4659478294143
 30
0.0
 41
1.0
 10
1051.3297421228615
 20
-1228.4623905633603
 30
0.0
 41
1.0
 10
1051.4107017259234
 20
-1228.3426274060284
 30
0.0
 41
0.9998784952149692
 10
1051.4953553356061
 20
-1228.2254461893181
 30
0.0
 41
1.0
 10
1051.5800089452887
 20
-1228.1082649726077
 30
0.0
 41
0.9998532968284165
 10
1051.6686265661124
 20
-1227.994052064136
 30
0.0
 41
1.0
 10
1051.6885883551008
 20
-1227.9683247431194
 30
0.0
 41
1.0
 10
1051.7085501440893
 20
-1227.9425974221026
 30
0.0
 41
1.0
 10
1051.8270341938494
 20
-1227.7898918111321
 30
0.0
 41
0.9991551975795269
 10
1051.9576586434746
 20
-1227.6474322490467
 30
0.0
 41
1.0
 10
1051.9611682594523
 20
-1227.6436046474246
 30
0.0
 41
1.0
 10
1051.96467787543
 20
-1227.6397770458025
 30
0.0
 41
1.0
 10
1052.0882830930957
 20
-1227.5049726869656
 30
0.0
 41
0.9997418144181223
 10
1052.2178852327988
 20
-1227.3759232763507
 30
0.0
 41
1.0
 10
1052.3474873725013
 20
-1227.2468738657367
 30
0.0
 41
0.9989238204633626
 10
1052.4884899207543
 20
-1227.1303889036963
 30
0.0
 41
1.0
 10
1052.5337375988915
 20
-1227.0930089120893
 30
0.0
 41
1.0
 10
1052.5789852770288
 20
-1227.0556289204824
 30
0.0
 41
1.0
 10
1052.7192253342505
 20
-1226.9397738671914
 30
0.0
 41
0.9990825084096636
 10
1052.868865266855
 20
-1226.8363448693581
 30
0.0
 41
1.0
 10
1052.8789106309077
 20
-1226.8294016562813
 30
0.0
 41
1.0
 10
1052.8889559949603
 20
-1226.8224584432048
 30
0.0
 41
1.0
 10
1053.0185051994547
 20
-1226.7329158715277
 30
0.0
 41
0.9998164899825498
 10
1053.1513894028353
 20
-1226.6484016300087
 30
0.0
 41
1.0
 10
1053.1632349633574
 20
-1226.6408678634855
 30
0.0
 41
1.0
 10
1053.1750805238794
 20
-1226.6333340969622
 30
0.0
 41
1.0
 10
1053.2842736062075
 20
-1226.5638873884945
 30
0.0
 41
0.9997473449130033
 10
1053.3964775634608
 20
-1226.4994184306765
 30
0.0
 41
1.0
 10
1053.5086815207139
 20
-1226.4349494728588
 30
0.0
 41
0.999932786114393
 10
1053.6223501314823
 20
-1226.3730994811749
 30
0.0
 41
1.0
 10
1053.6229021340387
 20
-1226.372799122498
 30
0.0
 41
1.0
 10
1053.6234541365952
 20
-1226.3724987638211
 30
0.0
 41
1.0
 10
1053.7382267524752
 20
-1226.3100480547837
 30
0.0
 41
0.9996956420483504
 10
1053.8559400783101
 20
-1226.2533345878114
 30
0.0
 41
1.0
 10
1053.8863804832072
 20
-1226.2386686110794
 30
0.0
 41
1.0
 10
1053.916820888104
 20
-1226.2240026343475
 30
0.0
 41
1.0
 10
1054.0197979948484
 20
-1226.1743889759036
 30
0.0
 41
0.9998070570177003
 10
1054.1246443837904
 20
-1226.1288583890023
 30
0.0
 41
1.0
 10
1054.2294907727303
 20
-1226.0833278021016
 30
0.0
 41
0.9997827436147574
 10
1054.3361437093388
 20
-1226.0422066307904
 30
0.0
 41
1.0
 10
1054.3553665589716
 20
-1226.0347950571575
 30
0.0
 41
1.0
 10
1054.3745894086042
 20
-1226.0273834835245
 30
0.0
 41
1.0
 10
1054.5196880444771
 20
-1225.9714391649477
 30
0.0
 41
0.9988031841976877
 10
1054.6695584070819
 20
-1225.9299391007798
 30
0.0
 41
1.0
 10
1054.694475655444
 20
-1225.9230393549733
 30
0.0
 41
1.0
 10
1054.719392903806
 20
-1225.9161396091667
 30
0.0
 41
1.0
 10
1054.8866629294544
 20
-1225.8698214667597
 30
0.0
 41
0.9984748040550027
 10
1055.058019838104
 20
-1225.8422272344947
 30
0.0
 41
1.0
 10
1055.0627589743526
 20
-1225.8414640739811
 30
0.0
 41
1.0
 10
1055.067498110601
 20
-1225.8407009134678
 30
0.0
 41
1.0
 10
1055.2293767467527
 20
-1225.8146330022298
 30
0.0
 41
0.9984436495480284
 10
1055.3931514904777
 20
-1225.8067550484111
 30
0.0
 41
1.0
 10
1055.4148486986091
 20
-1225.8057113612115
 30
0.0
 41
1.0
 10
1055.4365459067408
 20
-1225.8046676740119
 30
0.0
 41
1.0
 10
1055.5569262342026
 20
-1225.7988770945924
 30
0.0
 41
0.9987954789335256
 10
1055.6772944791123
 20
-1225.8049136223347
 30
0.0
 41
1.0
 10
1055.6972592716079
 20
-1225.8059148666734
 30
0.0
 41
1.0
 10
1055.7172240641034
 20
-1225.806916111012
 30
0.0
 41
1.0
 10
1055.7976627240232
 20
-1225.8109501500771
 30
0.0
 41
0.9997941595877389
 10
1055.8778715021165
 20
-1225.818244215998
 30
0.0
 41
1.0
 10
1055.95808028021
 20
-1225.8255382819189
 30
0.0
 41
0.9998589466235283
 10
1056.0379988270638
 20
-1225.835522136369
 30
0.0
 41
1.0
 10
1056.0704050288732
 20
-1225.8395704932882
 30
0.0
 41
1.0
 10
1056.1028112306824
 20
-1225.8436188502076
 30
0.0
 41
1.0
 10
1056.2475421811541
 20
-1225.8616994184961
 30
0.0
 41
0.9993495063248831
 10
1056.3905934249196
 20
-1225.8901651282379
 30
0.0
 41
1.0
 10
1056.4235271220728
 20
-1225.896718591453
 30
0.0
 41
1.0
 10
1056.4564608192261
 20
-1225.9032720546679
 30
0.0
 41
1.0
 10
1056.5657546424293
 20
-1225.925020388803
 30
0.0
 41
0.9996788715561155
 10
1056.6738062143845
 20
-1225.9522781881658
 30
0.0
 41
1.0
 10
1056.6758692169228
 20
-1225.9527986147386
 30
0.0
 41
1.0
 10
1056.6779322194609
 20
-1225.9533190413113
 30
0.0
 41
1.0
 10
1056.7818577863404
 20
-1225.9795359875286
 30
0.0
 41
0.9995480654492602
 10
1056.8840200215704
 20
-1226.0119509441533
 30
0.0
 41
1.0
 10
1056.8857096637
 20
-1226.0124870490674
 30
0.0
 41
1.0
 10
1056.8873993058296
 20
-1226.0130231539815
 30
0.0
 41
1.0
 10
1056.9861822568002
 20
-1226.0443659007778
 30
0.0
 41
0.9993867959456203
 10
1057.0825294152423
 20
-1226.0825452700674
 30
0.0
 41
1.0
 10
1057.0837723643269
 20
-1226.0830378119635
 30
0.0
 41
1.0
 10
1057.0850153134115
 20
-1226.0835303538597
 30
0.0
 41
1.0
 10
1057.1788765736844
 20
-1226.1207246393569
 30
0.0
 41
0.9992050256521933
 10
1057.2694762487181
 20
-1226.1652785385959
 30
0.0
 41
1.0
 10
1057.2702109314309
 20
-1226.165639831057
 30
0.0
 41
1.0
 10
1057.270945614144
 20
-1226.1660011235181
 30
0.0
 41
1.0
 10
1057.3600759237515
 20
-1226.2098324378346
 30
0.0
 41
0.9990222350741321
 10
1057.4449859851452
 20
-1226.2613657055331
 30
0.0
 41
1.0
 10
1057.4451698704283
 20
-1226.2614773084383
 30
0.0
 41
1.0
 10
1057.4453537557117
 20
-1226.2615889113433
 30
0.0
 41
1.0
 10
1057.5298960465395
 20
-1226.3128989732318
 30
0.0
 41
0.9988642743805106
 10
1057.609170581158
 20
-1226.3720231607565
 30
0.0
 41
1.0
 10
1057.6884451157766
 20
-1226.4311473482815
 30
0.0
 41
0.998768123331125
 10
1057.7614689000527
 20
-1226.4978380396819
 30
0.0
 41
1.0
 10
1057.7617978280186
 20
-1226.4981384408964
 30
0.0
 41
1.0
 10
1057.7621267559848
 20
-1226.4984388421108
 30
0.0
 41
1.0
 10
1057.835808396193
 20
-1226.5657303359408
 30
0.0
 41
0.9987496570899149
 10
1057.9024022015208
 20
-1226.6400431500279
 30
0.0
 41
1.0
 10
1057.9031743712808
 20
-1226.6409048233852
 30
0.0
 41
1.0
 10
1057.9039465410406
 20
-1226.6417664967425
 30
0.0
 41
1.0
 10
1057.9720846858881
 20
-1226.7178026575446
 30
0.0
 41
0.9988147669827204
 10
1058.0325069401129
 20
-1226.8001036643864
 30
0.0
 41
1.0
 10
1058.0336262661908
 20
-1226.8016282957394
 30
0.0
 41
1.0
 10
1058.034745592269
 20
-1226.8031529270925
 30
0.0
 41
1.0
 10
1058.0974064986497
 20
-1226.8885031966404
 30
0.0
 41
0.9989452636216225
 10
1058.1519734116114
 20
-1226.9792418857987
 30
0.0
 41
1.0
 10
1058.1533221376967
 20
-1226.9814846668244
 30
0.0
 41
1.0
 10
1058.154670863782
 20
-1226.98372744785
 30
0.0
 41
1.0
 10
1058.2119352289151
 20
-1227.0789516990606
 30
0.0
 41
0.9991046436071094
 10
1058.2609444422369
 20
-1227.1786761320861
 30
0.0
 41
1.0
 10
1058.2624083038268
 20
-1227.1816548121583
 30
0.0
 41
1.0
 10
1058.2638721654166
 20
-1227.1846334922307
 30
0.0
 41
1.0
 10
1058.3158091019175
 20
-1227.2903152853999
 30
0.0
 41
0.9992763831101607
 10
1058.3595622304722
 20
-1227.399639347354
 30
0.0
 41
1.0
 10
1058.3610415001363
 20
-1227.4033355348893
 30
0.0
 41
1.0
 10
1058.3625207698001
 20
-1227.4070317224243
 30
0.0
 41
1.0
 10
1058.409232437682
 20
-1227.5237481594479
 30
0.0
 41
0.9994163472883252
 10
1058.4478654688719
 20
-1227.6433817479124
 30
0.0
 41
1.0
 10
1058.4491036211191
 20
-1227.6472158916968
 30
0.0
 41
1.0
 10
1058.4503417733663
 20
-1227.6510500354811
 30
0.0
 41
1.0
 10
1058.490225334383
 20
-1227.7745560969577
 30
0.0
 41
0.9997268055890688
 10
1058.5242933902944
 20
-1227.8997911289061
 30
0.0
 41
1.0
 10
1058.5252235705641
 20
-1227.9032104950156
 30
0.0
 41
1.0
 10
1058.5261537508338
 20
-1227.9066298611253
 30
0.0
 41
1.0
 10
1058.5583614462064
 20
-1228.0250261608574
 30
0.0
 41
0.9996701319000357
 10
1058.5844470629768
 20
-1228.1449201141204
 30
0.0
 41
1.0
 10
1058.6105326797472
 20
-1228.2648140673837
 30
0.0
 41
0.9995785451109359
 10
1058.629616257087
 20
-1228.3860198284156
 30
0.0
 41
1.0
 10
1058.6338360392606
 20
-1228.4128209831797
 30
0.0
 41
1.0
 10
1058.6380558214341
 20
-1228.4396221379436
 30
0.0
 41
1.0
 10
1058.6646307973731
 20
-1228.6084081116478
 30
0.0
 41
0.9979925101216018
 10
1058.6696563832993
 20
-1228.7791994397401
 30
0.0
 41
1.0
 10
1058.6704811957238
 20
-1228.8072301632155
 30
0.0
 41
1.0
 10
1058.6713060081483
 20
-1228.8352608866908
 30
0.0
 41
1.0
 10
1058.674681969226
 20
-1228.9499907678255
 30
0.0
 41
0.999531490226262
 10
1058.6710317770871
 20
-1229.0647122515838
 30
0.0
 41
1.0
 10
1058.6673815849483
 20
-1229.1794337353404
 30
0.0
 41
0.999624548694438
 10
1058.6574524898172
 20
-1229.2937830064698
 30
0.0
 41
1.0
 10
1058.6572894418232
 20
-1229.2956607625999
 30
0.0
 41
1.0
 10
1058.6571263938295
 20
-1229.2975385187301
 30
0.0
 41
1.0
 10
1058.6468712027101
 20
-1229.4156433021235
 30
0.0
 41
0.9997286095001559
 10
1058.6311258791388
 20
-1229.533142211016
 30
0.0
 41
1.0
 10
1058.6307323864883
 20
-1229.5360786357196
 30
0.0
 41
1.0
 10
1058.6303388938377
 20
-1229.539015060423
 30
0.0
 41
1.0
 10
1058.6138065849655
 20
-1229.6623868187228
 30
0.0
 41
0.999826553396869
 10
1058.5926911262327
 20
-1229.785057293512
 30
0.0
 41
1.0
 10
1058.5920145840958
 20
-1229.7889876720183
 30
0.0
 41
1.0
 10
1058.5913380419588
 20
-1229.7929180505248
 30
0.0
 41
1.0
 10
1058.5688694989512
 20
-1229.9234492823314
 30
0.0
 41
0.999902253085204
 10
1058.542760034341
 20
-1230.0533012509713
 30
0.0
 41
1.0
 10
1058.5417813931761
 20
-1230.0581683933565
 30
0.0
 41
1.0
 10
1058.5408027520111
 20
-1230.0630355357414
 30
0.0
 41
1.0
 10
1058.5127360050715
 20
-1230.2026217891505
 30
0.0
 41
0.9999524761934362
 10
1058.4819530362379
 20
-1230.3416342823102
 30
0.0
 41
1.0
 10
1058.4806769290612
 20
-1230.3473970416171
 30
0.0
 41
1.0
 10
1058.4794008218848
 20
-1230.353159800924
 30
0.0
 41
1.0
 10
1058.4460656386977
 20
-1230.5036978127
 30
0.0
 41
0.9999813588726683
 10
1058.4108946378997
 20
-1230.6538175253645
 30
0.0
 41
1.0
 10
1058.4093407124451
 20
-1230.660450115779
 30
0.0
 41
1.0
 10
1058.4077867869903
 20
-1230.6670827061937
 30
0.0
 41
1.0
 10
1058.369507935276
 20
-1230.830467599716
 30
0.0
 41
0.9999955237653739
 10
1058.3302520572897
 20
-1230.9936205033475
 30
0.0
 41
1.0
 10
1058.3179704216609
 20
-1231.0446646938472
 30
0.0
 41
1.0
 10
1058.3056887860321
 20
-1231.095708884347
 30
0.0
 41
1.0
 10
1058.2418696367722
 20
-1231.360950169043
 30
0.0
 41
0.9999993604732145
 10
1058.1774506895929
 20
-1231.6260464197746
 30
0.0
 41
1.0
 10
1058.172731854057
 20
-1231.6454653277697
 30
0.0
 41
1.0
 10
1058.1680130185209
 20
-1231.6648842357645
 30
0.0
 41
1.0
 10
1058.0941564002569
 20
-1231.9688183025366
 30
0.0
 41
0.9999659914723394
 10
1058.0152968043681
 20
-1232.2714928491087
 30
0.0
 41
1.0
 10
1058.0103441154408
 20
-1232.2905019862781
 30
0.0
 41
1.0
 10
1058.0053914265136
 20
-1232.3095111234475
 30
0.0
 41
1.0
 10
1057.9166264527703
 20
-1232.6502039443599
 30
0.0
 41
0.9999441976027843
 10
1057.8206834198079
 20
-1232.9889453696549
 30
0.0
 41
1.0
 10
1057.803982901381
 20
-1233.0479090821877
 30
0.0
 41
1.0
 10
1057.7872823829539
 20
-1233.1068727947209
 30
0.0
 41
1.0
 10
1057.6579383131361
 20
-1233.5635416450855
 30
0.0
 41
0.9999625120734536
 10
1057.5207055458097
 20
-1234.0179021790916
 30
0.0
 41
1.0
 10
1057.4849156027271
 20
-1234.1363982057178
 30
0.0
 41
1.0
 10
1057.4491256596443
 20
-1234.2548942323438
 30
0.0
 41
1.0
 10
1057.3746054556068
 20
-1234.5016213104343
 30
0.0
 41
0.9999793386309165
 10
1057.2969194324712
 20
-1234.7473699496636
 30
0.0
 41
1.0
 10
1057.2192334093336
 20
-1234.9931185888997
 30
0.0
 41
1.0
 10
1057.208453850463
 20
-1235.0271364932744
 30
0.0
 41
1.0
 10
1055.3580807971939
 20
-1240.914208415742
 30
0.0
 41
1.0
 10
1053.5077077439246
 20
-1246.8012803382094
 30
0.0
 41
1.0
 10
1052.5464510539009
 20
-1246.8012803382094
 30
0.0
 41
1.0
 10
1051.5851943638775
 20
-1246.8012803382094
 30
0.0
 41
1.0
 10
1053.204139142556
 20
-1241.6532518364199
 30
0.0
 41
1.0
 10
1054.8230839212345
 20
-1236.5052233346305
 30
0.0
 41
1.0
 10
1054.8682497444179
 20
-1236.361192112332
 30
0.0
 41
1.0
 10
1054.9134155676011
 20
-1236.2171608900333
 30
0.0
 41
1.0
 10
1055.0837199849539
 20
-1235.6740698609019
 30
0.0
 41
0.9999911657921564
 10
1055.249452796626
 20
-1235.1295663295646
 30
0.0
 41
1.0
 10
1055.2791487401216
 20
-1235.0320023895301
 30
0.0
 41
1.0
 10
1055.3088446836173
 20
-1234.9344384494955
 30
0.0
 41
1.0
 10
1055.415185608301
 20
-1234.5850627982177
 30
0.0
 41
0.9999952428181266
 10
1055.519369197631
 20
-1234.2350377738512
 30
0.0
 41
1.0
 10
1055.5244286679535
 20
-1234.2180394996096
 30
0.0
 41
1.0
 10
1055.5294881382761
 20
-1234.201041225368
 30
0.0
 41
1.0
 10
1055.623552786948
 20
-1233.8850127495293
 30
0.0
 41
0.9999931687525685
 10
1055.7152786248298
 20
-1233.5682975362313
 30
0.0
 41
1.0
 10
1055.7202138892865
 20
-1233.5512568269701
 30
0.0
 41
1.0
 10
1055.7251491537431
 20
-1233.5342161177091
 30
0.0
 41
1.0
 10
1055.8070044627007
 20
-1233.2515823229696
 30
0.0
 41
0.9999893840789386
 10
1055.8862516891602
 20
-1232.9682061937142
 30
0.0
 41
1.0
 10
1055.9654989156224
 20
-1232.6848300644488
 30
0.0
 41
0.9999833980058595
 10
1056.0414751563669
 20
-1232.4005594814091
 30
0.0
 41
1.0
 10
1056.0504790930877
 20
-1232.3668706029371
 30
0.0
 41
1.0
 10
1056.0594830298082
 20
-1232.3331817244648
 30
0.0
 41
1.0
 10
1056.1284475786724
 20
-1232.0751458921759
 30
0.0
 41
0.9999233658068332
 10
1056.1910025498905
 20
-1231.8154817334612
 30
0.0
 41
1.0
 10
1056.2535575211109
 20
-1231.5558175747387
 30
0.0
 41
1.0
 10
1056.2930409399685
 20
-1231.3920109103126
 30
0.0
 41
1.0
 10
1056.2980195439427
 20
-1231.3713559484549
 30
0.0
 41
1.0
 10
1056.3029981479169
 20
-1231.3507009865973
 30
0.0
 41
1.0
 10
1056.3325243588235
 20
-1231.2282042458967
 30
0.0
 41
0.9999868670874954
 10
1056.3607934428223
 20
-1231.105411300241
 30
0.0
 41
1.0
 10
1056.3646909299796
 20
-1231.0884817128258
 30
0.0
 41
1.0
 10
1056.3685884171371
 20
-1231.0715521254103
 30
0.0
 41
1.0
 10
1056.3890625268173
 20
-1230.9826183546002
 30
0.0
 41
0.9999778173362877
 10
1056.4083501249338
 20
-1230.8934197373651
 30
0.0
 41
1.0
 10
1056.4276377230492
 20
-1230.8042211201346
 30
0.0
 41
0.9999602692859153
 10
1056.445332081681
 20
-1230.7146928317029
 30
0.0
 41
1.0
 10
1056.4485359137582
 20
-1230.6984823768198
 30
0.0
 41
1.0
 10
1056.4517397458353
 20
-1230.6822719219369
 30
0.0
 41
1.0
 10
1056.475841768621
 20
-1230.5603227237405
 30
0.0
 41
0.9995617985320582
 10
1056.4926851158395
 20
-1230.4371609760365
 30
0.0
 41
1.0
 10
1056.4951496057461
 20
-1230.4191401586691
 30
0.0
 41
1.0
 10
1056.4976140956526
 20
-1230.4011193413016
 30
0.0
 41
1.0
 10
1056.5178973567008
 20
-1230.252804291601
 30
0.0
 41
0.9991121410639698
 10
1056.5256227102891
 20
-1230.1033081927944
 30
0.0
 41
1.0
 10
1056.5265415003137
 20
-1230.0855283562169
 30
0.0
 41
1.0
 10
1056.5274602903382
 20
-1230.0677485196393
 30
0.0
 41
1.0
 10
1056.5333480638774
 20
-1229.9538120939869
 30
0.0
 41
0.9989792494904922
 10
1056.52892897176
 20
-1229.8398092580901
 30
0.0
 41
1.0
 10
1056.5282809998914
 20
-1229.8230930121626
 30
0.0
 41
1.0
 10
1056.5276330280228
 20
-1229.8063767662354
 30
0.0
 41
1.0
 10
1056.5245098796427
 20
-1229.7258064221915
 30
0.0
 41
0.9997820295395852
 10
1056.518025882267
 20
-1229.6454367004476
 30
0.0
 41
1.0
 10
1056.5115418848914
 20
-1229.5650669787035
 30
0.0
 41
0.9998335105971699
 10
1056.5021296893797
 20
-1229.4849873622536
 30
0.0
 41
1.0
 10
1056.5005347647034
 20
-1229.4714176317707
 30
0.0
 41
1.0
 10
1056.4989398400269
 20
-1229.4578479012876
 30
0.0
 41
1.0
 10
1056.4863377951626
 20
-1229.3506288238741
 30
0.0
 41
0.9996876457879301
 10
1056.4683938823648
 20
-1229.2441733961607
 30
0.0
 41
1.0
 10
1056.4661622192189
 20
-1229.2309336609155
 30
0.0
 41
1.0
 10
1056.4639305560731
 20
-1229.2176939256701
 30
0.0
 41
1.0
 10
1056.4501347346522
 20
-1229.1358477817125
 30
0.0
 41
0.9995547496494672
 10
1056.4314814127597
 20
-1229.0549702845221
 30
0.0
 41
1.0
 10
1056.4311074558882
 20
-1229.0533488738156
 30
0.0
 41
1.0
 10
1056.4307334990165
 20
-1229.0517274631088
 30
0.0
 41
1.0
 10
1056.4128280908669
 20
-1228.9740927873299
 30
0.0
 41
0.9994899427175079
 10
1056.3900031821879
 20
-1228.8977595044967
 30
0.0
 41
1.0
 10
1056.389544655447
 20
-1228.8962260547078
 30
0.0
 41
1.0
 10
1056.3890861287064
 20
-1228.8946926049189
 30
0.0
 41
1.0
 10
1056.3671782735087
 20
-1228.821426221662
 30
0.0
 41
0.9993784877590607
 10
1056.340162638402
 20
-1228.7498855165031
 30
0.0
 41
1.0
 10
1056.3396309474256
 20
-1228.7484775337834
 30
0.0
 41
1.0
 10
1056.3390992564489
 20
-1228.7470695510638
 30
0.0
 41
1.0
 10
1056.3131470032956
 20
-1228.6783448113445
 30
0.0
 41
0.9992430832254432
 10
1056.2819304681361
 20
-1228.6118456592758
 30
0.0
 41
1.0
 10
1056.2813483520795
 20
-1228.6106056041585
 30
0.0
 41
1.0
 10
1056.2807662360228
 20
-1228.6093655490411
 30
0.0
 41
1.0
 10
1056.2507139329766
 20
-1228.5453465072073
 30
0.0
 41
0.9990789632799098
 10
1056.2152833062
 20
-1228.4841398954579
 30
0.0
 41
1.0
 10
1056.2146876000179
 20
-1228.4831108095982
 30
0.0
 41
1.0
 10
1056.2140918938355
 20
-1228.4820817237387
 30
0.0
 41
1.0
 10
1056.1798526794228
 20
-1228.4229332837076
 30
0.0
 41
0.9988874801120904
 10
1056.1401934033911
 20
-1228.3672735712903
 30
0.0
 41
1.0
 10
1056.139637877327
 20
-1228.3664939196158
 30
0.0
 41
1.0
 10
1056.1390823512629
 20
-1228.3657142679413
 30
0.0
 41
1.0
 10
1056.1005341273592
 20
-1228.3116138588725
 30
0.0
 41
0.998676206069235
 10
1056.056631656083
 20
-1228.2617601444335
 30
0.0
 41
1.0
 10
1056.0561876957511
 20
-1228.2612560026173
 30
0.0
 41
1.0
 10
1056.0557437354191
 20
-1228.2607518608008
 30
0.0
 41
1.0
 10
1056.0127291848069
 20
-1228.2119064299943
 30
0.0
 41
0.998462164248823
 10
1055.964571628029
 20
-1228.1681231295231
 30
0.0
 41
1.0
 10
1055.9643249935127
 20
-1228.1678988973599
 30
0.0
 41
1.0
 10
1055.9640783589964
 20
-1228.1676746651965
 30
0.0
 41
1.0
 10
1055.9164140712517
 20
-1228.1243398290524
 30
0.0
 41
0.9982724693852252
 10
1055.8639954394098
 20
-1228.0868954785342
 30
0.0
 41
1.0
 10
1055.8115768075688
 20
-1228.0494511280172
 30
0.0
 41
0.9981399180160027
 10
1055.7549907441764
 20
-1228.018664608574
 30
0.0
 41
1.0
 10
1055.7549450820973
 20
-1228.0186397654165
 30
0.0
 41
1.0
 10
1055.7548994200181
 20
-1228.0186149222588
 30
0.0
 41
1.0
 10
1055.6982220324671
 20
-1227.9877787165005
 30
0.0
 41
0.9980927086836632
 10
1055.6381766814
 20
-1227.9641619076478
 30
0.0
 41
1.0
 10
1055.6377365116891
 20
-1227.9639887817732
 30
0.0
 41
1.0
 10
1055.6372963419781
 20
-1227.9638156558985
 30
0.0
 41
1.0
 10
1055.576370651489
 20
-1227.9398525952963
 30
0.0
 41
0.9981411356562504
 10
1055.5129821300902
 20
-1227.9234799537908
 30
0.0
 41
1.0
 10
1055.5121000133881
 20
-1227.923252111585
 30
0.0
 41
1.0
 10
1055.511217896686
 20
-1227.9230242693795
 30
0.0
 41
1.0
 10
1055.4460651418826
 20
-1227.9061959434628
 30
0.0
 41
0.9983031812934385
 10
1055.3793977128867
 20
-1227.8970565822865
 30
0.0
 41
1.0
 10
1055.370526687484
 20
-1227.8958404636155
 30
0.0
 41
1.0
 10
1055.3616556620814
 20
-1227.8946243449443
 30
0.0
 41
1.0
 10
1055.3073060195773
 20
-1227.8871736149531
 30
0.0
 41
0.9983887708262101
 10
1055.2524621702842
 20
-1227.8859289413199
 30
0.0
 41
1.0
 10
1055.2443987650718
 20
-1227.8857459434453
 30
0.0
 41
1.0
 10
1055.2363353598596
 20
-1227.8855629455704
 30
0.0
 41
1.0
 10
1055.1976183209965
 20
-1227.8846842676867
 30
0.0
 41
0.9998869563078945
 10
1055.1588923677887
 20
-1227.8849701370461
 30
0.0
 41
1.0
 10
1055.1201664145763
 20
-1227.8852560064058
 30
0.0
 41
0.9999972320104777
 10
1055.0814422353553
 20
-1227.8857241059352
 30
0.0
 41
1.0
 10
1055.0620892187853
 20
-1227.8859580460244
 30
0.0
 41
1.0
 10
1055.0427362022153
 20
-1227.8861919861138
 30
0.0
 41
1.0
 10
1054.9653059898467
 20
-1227.8871279658215
 30
0.0
 41
0.9997304945087423
 10
1054.8880026836111
 20
-1227.8916570596073
 30
0.0
 41
1.0
 10
1054.8789530419049
 20
-1227.8921872655974
 30
0.0
 41
1.0
 10
1054.8699034001984
 20
-1227.8927174715873
 30
0.0
 41
1.0
 10
1054.7745008105567
 20
-1227.8983069773531
 30
0.0
 41
0.9997888306415943
 10
1054.6794084747187
 20
-1227.9078119418416
 30
0.0
 41
1.0
 10
1054.6706874131414
 20
-1227.9086836564743
 30
0.0
 41
1.0
 10
1054.6619663515644
 20
-1227.9095553711068
 30
0.0
 41
1.0
 10
1054.5494318925755
 20
-1227.92080376486
 30
0.0
 41
0.9984170238190776
 10
1054.4388727452238
 20
-1227.9446198467958
 30
0.0
 41
1.0
 10
1054.4024916142389
 20
-1227.9524568826016
 30
0.0
 41
1.0
 10
1054.3661104832543
 20
-1227.9602939184074
 30
0.0
 41
1.0
 10
1054.2509194148315
 20
-1227.9851077849173
 30
0.0
 41
0.9976592854199435
 10
1054.1401912484253
 20
-1228.0254064620649
 30
0.0
 41
1.0
 10
1054.0294630820176
 20
-1228.0657051392129
 30
0.0
 41
0.9993255074351823
 10
1053.9219912832243
 20
-1228.1140220377067
 30
0.0
 41
1.0
 10
1053.9173661043037
 20
-1228.1161014139052
 30
0.0
 41
1.0
 10
1053.9127409253829
 20
-1228.1181807901039
 30
0.0
 41
1.0
 10
1053.7960187687465
 20
-1228.1706564409953
 30
0.0
 41
0.9976475078275346
 10
1053.687571424437
 20
-1228.2386044306529
 30
0.0
 41
1.0
 10
1053.6692290303031
 20
-1228.2500969094667
 30
0.0
 41
1.0
 10
1053.6508866361694
 20
-1228.2615893882808
 30
0.0
 41
1.0
 10
1053.5666844446162
 20
-1228.31434650905
 30
0.0
 41
0.9995131336407165
 10
1053.4859367296563
 20
-1228.3722527210048
 30
0.0
 41
1.0
 10
1053.4051890146984
 20
-1228.4301589329582
 30
0.0
 41
0.9995810107606006
 10
1053.3279273669689
 20
-1228.4926406154245
 30
0.0
 41
1.0
 10
1053.3249573357593
 20
-1228.4950424868887
 30
0.0
 41
1.0
 10
1053.3219873045498
 20
-1228.4974443583528
 30
0.0
 41
1.0
 10
1053.2387855944023
 20
-1228.5647297837468
 30
0.0
 41
0.9996617837954808
 10
1053.1591949072679
 20
-1228.6362502393058
 30
0.0
 41
1.0
 10
1053.1470641563842
 20
-1228.6471509723026
 30
0.0
 41
1.0
 10
1053.1349334055003
 20
-1228.6580517052994
 30
0.0
 41
1.0
 10
1053.0666578781081
 20
-1228.7194043207678
 30
0.0
 41
0.9997267750052366
 10
1053.0013243698304
 20
-1228.7838808572878
 30
0.0
 41
1.0
 10
1052.9359908615477
 20
-1228.848357393812
 30
0.0
 41
0.9999667288963463
 10
1052.8717179184011
 20
-1228.9138912007063
 30
0.0
 41
1.0
 10
1052.8028904706252
 20
-1228.984068859465
 30
0.0
 41
1.0
 10
1052.7340630228496
 20
-1229.0542465182239
 30
0.0
 41
1.0
 10
1052.5321351841533
 20
-1229.2601356426344
 30
0.0
 41
0.9988205335175335
 10
1052.3511295671742
 20
-1229.4846398746945
 30
0.0
 41
1.0
 10
1052.3204896022692
 20
-1229.5226431251249
 30
0.0
 41
1.0
 10
1052.2898496373641
 20
-1229.5606463755553
 30
0.0
 41
1.0
 10
1052.0475640905759
 20
-1229.8611571084748
 30
0.0
 41
0.9997077826755388
 10
1051.8200861394716
 20
-1230.1730269026898
 30
0.0
 41
1.0
 10
1051.8183627243402
 20
-1230.1753896860705
 30
0.0
 41
1.0
 10
1051.816639309209
 20
-1230.1777524694512
 30
0.0
 41
1.0
 10
1051.5857145278424
 20
-1230.4943478304272
 30
0.0
 41
0.9989147567078924
 10
1051.3852510249581
 20
-1230.8310572916134
 30
0.0
 41
1.0
 10
1051.3605098796509
 20
-1230.8726138721663
 30
0.0
 41
1.0
 10
1051.3357687343437
 20
-1230.9141704527192
 30
0.0
 41
1.0
 10
1051.180557435707
 20
-1231.1748718371712
 30
0.0
 41
0.9997476598181326
 10
1051.0372124481985
 20
-1231.4422815857515
 30
0.0
 41
1.0
 10
1050.8938674606889
 20
-1231.7096913343339
 30
0.0
 41
0.9996258967110534
 10
1050.765359208757
 20
-1231.9845392709578
 30
0.0
 41
1.0
 10
1050.7521592993041
 20
-1232.0127706710603
 30
0.0
 41
1.0
 10
1050.7389593898513
 20
-1232.0410020711627
 30
0.0
 41
1.0
 10
1050.598750668855
 20
-1232.3408744691087
 30
0.0
 41
0.9998735413944778
 10
1050.4681493221374
 20
-1232.6450540685705
 30
0.0
 41
1.0
 10
1050.4647064940746
 20
-1232.6530726540404
 30
0.0
 41
1.0
 10
1050.4612636660117
 20
-1232.6610912395104
 30
0.0
 41
1.0
 10
1050.3375479754152
 20
-1232.9492336680423
 30
0.0
 41
0.9999377418857941
 10
1050.2202931732422
 20
-1233.2400651357129
 30
0.0
 41
1.0
 10
1050.1030383710686
 20
-1233.5308966033849
 30
0.0
 41
0.9999508299512133
 10
1049.9915744276941
 20
-1233.8239962801988
 30
0.0
 41
1.0
 10
1049.9884936590295
 20
-1233.8320973061686
 30
0.0
 41
1.0
 10
1049.9854128903648
 20
-1233.8401983321382
 30
0.0
 41
1.0
 10
1049.8677874096629
 20
-1234.1495000608857
 30
0.0
 41
0.9999609228432315
 10
1049.7556488067885
 20
-1234.4608330769029
 30
0.0
 41
1.0
 10
1049.7526927964389
 20
-1234.4690399173123
 30
0.0
 41
1.0
 10
1049.7497367860892
 20
-1234.4772467577218
 30
0.0
 41
1.0
 10
1049.6316861625141
 20
-1234.8049934545611
 30
0.0
 41
0.9999674607396906
 10
1049.5189386364432
 20
-1235.1346020745641
 30
0.0
 41
1.0
 10
1049.4675402458829
 20
-1235.2848612702496
 30
0.0
 41
1.0
 10
1049.4161418553228
 20
-1235.4351204659349
 30
0.0
 41
1.0
 10
1049.3001312485649
 20
-1235.7742684484383
 30
0.0
 41
0.9999287532309891
 10
1049.1922498445942
 20
-1236.1160891874138
 30
0.0
 41
1.0
 10
1049.1457725884629
 20
-1236.2633517317599
 30
0.0
 41
1.0
 10
1049.0992953323316
 20
-1236.4106142761061
 30
0.0
 41
1.0
 10
1049.0843684406286
 20
-1236.4579099263728
 30
0.0
 41
0.999999822400631
 10
1049.069497931893
 20
-1236.5052233346305
 30
0.0
 41
1.0
 10
1047.4488417950975
 20
-1241.6532518364199
 30
0.0
 41
1.0
 10
1045.8281856583021
 20
-1246.8012803382094
 30
0.0
 41
1.0
 10
1044.9228772144111
 20
-1246.8012803382094
 30
0.0
 41
1.0
 10
1044.0175687705203
 20
-1246.8012803382094
 30
0.0
 41
1.0
 10
1045.8696531819064
 20
-1240.914208415742
 30
0.0
 41
1.0
 10
1047.7217375932923
 20
-1235.0271364932744
 30
0.0
 41
1.0
 10
1047.7318593515949
 20
-1234.9950932798247
 30
0.0
 41
1.0
 10
1047.8044670204447
 20
-1234.7647937379988
 30
0.0
 41
1.0
 10
1047.8770746892969
 20
-1234.5344941961648
 30
0.0
 41
0.9999825681973857
 10
1047.9469577285113
 20
-1234.3033533010905
 30
0.0
 41
1.0
 10
1047.9952487906689
 20
-1234.1436287176052
 30
0.0
 41
1.0
 10
1048.0435398528264
 20
-1233.9839041341202
 30
0.0
 41
1.0
 10
1048.1406922061428
 20
-1233.6625689123462
 30
0.0
 41
0.9999672528964453
 10
1048.2326310117669
 20
-1233.3397033667579
 30
0.0
 41
1.0
 10
1048.2354198954401
 20
-1233.3299095213556
 30
0.0
 41
1.0
 10
1048.2382087791134
 20
-1233.3201156759533
 30
0.0
 41
1.0
 10
1048.3245698173946
 20
-1233.0168378211563
 30
0.0
 41
0.9999899749124275
 10
1048.4082114269249
 20
-1232.7127987327194
 30
0.0
 41
1.0
 10
1048.4183173459437
 20
-1232.6760634950369
 30
0.0
 41
1.0
 10
1048.4284232649622
 20
-1232.6393282573545
 30
0.0
 41
1.0
 10
1048.49185303646
 20
-1232.4087596442648
 30
0.0
 41
0.9999214200506142
 10
1048.5494824648372
 20
-1232.1766733020577
 30
0.0
 41
1.0
 10
1048.5622483170141
 20
-1232.1252624166764
 30
0.0
 41
1.0
 10
1048.575014169191
 20
-1232.0738515312948
 30
0.0
 41
1.0
 10
1048.6071118932109
 20
-1231.9445869598649
 30
0.0
 41
0.9999828681669829
 10
1048.6376941452104
 20
-1231.8149554853808
 30
0.0
 41
1.0
 10
1048.6682763972058
 20
-1231.685324010914
 30
0.0
 41
0.9999389844478164
 10
1048.6959873859948
 20
-1231.5550485550143
 30
0.0
 41
1.0
 10
1048.7031251297153
 20
-1231.5214924511763
 30
0.0
 41
1.0
 10
1048.7102628734356
 20
-1231.4879363473383
 30
0.0
 41
1.0
 10
1048.7522493496642
 20
-1231.2905486837681
 30
0.0
 41
0.9998933699442398
 10
1048.7884536140657
 20
-1231.0920190760141
 30
0.0
 41
1.0
 10
1048.7898264392829
 20
-1231.0844910553128
 30
0.0
 41
1.0
 10
1048.7911992645002
 20
-1231.0769630346117
 30
0.0
 41
1.0
 10
1048.8301491793345
 20
-1230.8633773854635
 30
0.0
 41
0.9996850305193841
 10
1048.8583328555928
 20
-1230.6481063800304
 30
0.0
 41
1.0
 10
1048.8603278889623
 20
-1230.632868025908
 30
0.0
 41
1.0
 10
1048.8623229223315
 20
-1230.6176296717856
 30
0.0
 41
1.0
 10
1048.889730784791
 20
-1230.4082844446275
 30
0.0
 41
0.9994697936707024
 10
1048.903455344011
 20
-1230.1975992492939
 30
0.0
 41
1.0
 10
1048.9039324132605
 20
-1230.1902757770845
 30
0.0
 41
1.0
 10
1048.9044094825101
 20
-1230.182952304875
 30
0.0
 41
1.0
 10
1048.9171799032304
 20
-1229.9869140539649
 30
0.0
 41
0.9991804893137151
 10
1048.9140515869578
 20
-1229.7904852039899
 30
0.0
 41
1.0
 10
1048.9139677081357
 20
-1229.7852184025769
 30
0.0
 41
1.0
 10
1048.9138838293136
 20
-1229.7799516011637
 30
0.0
 41
1.0
 10
1048.9109232706851
 20
-1229.5940563540162
 30
0.0
 41
0.9988448329321636
 10
1048.8901317250613
 20
-1229.4093037641831
 30
0.0
 41
1.0
 10
1048.8885376513583
 20
-1229.3951389084118
 30
0.0
 41
1.0
 10
1048.8869435776553
 20
-1229.3809740526403
 30
0.0
 41
1.0
 10
1048.8693401794376
 20
-1229.2245511743497
 30
0.0
 41
0.9985503209458462
 10
1048.8350239071378
 20
-1229.0709269902604
 30
0.0
 41
1.0
 10
1048.8274379150662
 20
-1229.036966662858
 30
0.0
 41
1.0
 10
1048.8198519229945
 20
-1229.0030063354559
 30
0.0
 41
1.0
 10
1048.8007076348379
 20
-1228.9173028061691
 30
0.0
 41
0.9991036781370257
 10
1048.7743827731872
 20
-1228.8335257188462
 30
0.0
 41
1.0
 10
1048.7704005477331
 20
-1228.8208525563414
 30
0.0
 41
1.0
 10
1048.7664183222789
 20
-1228.8081793938368
 30
0.0
 41
1.0
 10
1048.7480579115379
 20
-1228.7497486315267
 30
0.0
 41
0.9998874504369539
 10
1048.7279527038577
 20
-1228.6918950292979
 30
0.0
 41
1.0
 10
1048.7078474961788
 20
-1228.634041427074
 30
0.0
 41
0.9994041637544164
 10
1048.6837988832442
 20
-1228.5777127231836
 30
0.0
 41
1.0
 10
1048.67960209902
 20
-1228.5678826587014
 30
0.0
 41
1.0
 10
1048.6754053147961
 20
-1228.5580525942194
 30
0.0
 41
1.0
 10
1048.6475264838018
 20
-1228.4927524282527
 30
0.0
 41
0.9991846840701847
 10
1048.6144701271091
 20
-1228.4299143969736
 30
0.0
 41
1.0
 10
1048.6133335207144
 20
-1228.4277537805192
 30
0.0
 41
1.0
 10
1048.6121969143196
 20
-1228.425593164065
 30
0.0
 41
1.0
 10
1048.5814137704162
 20
-1228.3670763656937
 30
0.0
 41
0.9989253167923824
 10
1048.5453443463612
 20
-1228.311661437303
 30
0.0
 41
1.0
 10
1048.5442902216869
 20
-1228.3100419425407
 30
0.0
 41
1.0
 10
1048.5432360970128
 20
-1228.3084224477784
 30
0.0
 41
1.0
 10
1048.5092749223063
 20
-1228.2562465089129
 30
0.0
 41
0.9986467172837258
 10
1048.4700777696689
 20
-1228.2078804752832
 30
0.0
 41
1.0
 10
1048.4692036409681
 20
-1228.2068018730047
 30
0.0
 41
1.0
 10
1048.4683295122672
 20
-1228.2057232707264
 30
0.0
 41
1.0
 10
1048.4308806170313
 20
-1228.1595144416535
 30
0.0
 41
0.9984001104268062
 10
1048.3884538865141
 20
-1228.117829334285
 30
0.0
 41
1.0
 10
1048.3878667484046
 20
-1228.1172524594037
 30
0.0
 41
1.0
 10
1048.3872796102953
 20
-1228.1166755845225
 30
0.0
 41
1.0
 10
1048.346027155997
 20
-1228.0761442269161
 30
0.0
 41
0.9982442159082214
 10
1048.3002710546616
 20
-1228.0407756656559
 30
0.0
 41
1.0
 10
1048.3000562591999
 20
-1228.0406096330128
 30
0.0
 41
1.0
 10
1048.2998414637382
 20
-1228.0404436003696
 30
0.0
 41
1.0
 10
1048.2545149533262
 20
-1228.005407104396
 30
0.0
 41
0.998245006083709
 10
1048.2053639742542
 20
-1227.9759753213621
 30
0.0
 41
1.0
 10
1048.1562129951819
 20
-1227.9465435383283
 30
0.0
 41
0.9983922639634868
 10
1048.1040466890172
 20
-1227.9228639036744
 30
0.0
 41
1.0
 10
1048.103819811693
 20
-1227.922760918193
 30
0.0
 41
1.0
 10
1048.1035929343686
 20
-1227.9226579327117
 30
0.0
 41
1.0
 10
1048.0509728735547
 20
-1227.8987723270948
 30
0.0
 41
0.9986517147149925
 10
1047.9961599006861
 20
-1227.8804712079727
 30
0.0
 41
1.0
 10
1047.9954819792586
 20
-1227.8802448615415
 30
0.0
 41
1.0
 10
1047.9948040578311
 20
-1227.8800185151101
 30
0.0
 41
1.0
 10
1047.938635242107
 20
-1227.8612647031252
 30
0.0
 41
0.998943559895627
 10
1047.8809818549551
 20
-1227.8477470008906
 30
0.0
 41
1.0
 10
1047.879901735374
 20
-1227.8474937506378
 30
0.0
 41
1.0
 10
1047.8788216157927
 20
-1227.8472405003849
 30
0.0
 41
1.0
 10
1047.8190079894789
 20
-1227.8332162976446
 30
0.0
 41
0.9992249241240816
 10
1047.7582764805825
 20
-1227.8239409549294
 30
0.0
 41
1.0
 10
1047.7568627922906
 20
-1227.8237250465213
 30
0.0
 41
1.0
 10
1047.7554491039987
 20
-1227.8235091381134
 30
0.0
 41
1.0
 10
1047.6918902185196
 20
-1227.8138019785827
 30
0.0
 41
0.9994396597834084
 10
1047.6278242819835
 20
-1227.8083690562371
 30
0.0
 41
1.0
 10
1047.608683614505
 20
-1227.8067458885184
 30
0.0
 41
1.0
 10
1047.5895429470265
 20
-1227.8051227207998
 30
0.0
 41
1.0
 10
1047.4871956755339
 20
-1227.7964434630167
 30
0.0
 41
0.9987693403121527
 10
1047.3844920519468
 20
-1227.7979465264691
 30
0.0
 41
1.0
 10
1047.37423771772
 20
-1227.7980965982433
 30
0.0
 41
1.0
 10
1047.3639833834932
 20
-1227.7982466700175
 30
0.0
 41
1.0
 10
1047.2544276173139
 20
-1227.7998500143051
 30
0.0
 41
0.9989753644966436
 10
1047.1454656172968
 20
-1227.8113530212304
 30
0.0
 41
1.0
 10
1047.0365036172789
 20
-1227.8228560281557
 30
0.0
 41
0.9983190067305306
 10
1046.9296048063125
 20
-1227.8468910199429
 30
0.0
 41
1.0
 10
1046.9207038547072
 20
-1227.8488922985052
 30
0.0
 41
1.0
 10
1046.9118029031019
 20
-1227.8508935770676
 30
0.0
 41
1.0
 10
1046.7871021889227
 20
-1227.87893112598
 30
0.0
 41
0.9985539388302326
 10
1046.666132435244
 20
-1227.9201948020261
 30
0.0
 41
1.0
 10
1046.6637870042846
 20
-1227.9209948458415
 30
0.0
 41
1.0
 10
1046.6614415733252
 20
-1227.9217948896571
 30
0.0
 41
1.0
 10
1046.535780957726
 20
-1227.9646586533345
 30
0.0
 41
0.9988468746493318
 10
1046.4148106154248
 20
-1228.0193767383973
 30
0.0
 41
1.0
 10
1046.4116277934368
 20
-1228.0208164129569
 30
0.0
 41
1.0
 10
1046.4084449714489
 20
-1228.0222560875166
 30
0.0
 41
1.0
 10
1046.2811089851705
 20
-1228.0798535216993
 30
0.0
 41
0.9991322885919138
 10
1046.1590084011125
 20
-1228.1478488538819
 30
0.0
 41
1.0
 10
1046.1414063900702
 20
-1228.1576510558707
 30
0.0
 41
1.0
 10
1046.1238043790279
 20
-1228.1674532578597
 30
0.0
 41
1.0
 10
1046.0216276979702
 20
-1228.2243533736405
 30
0.0
 41
0.9993860037849563
 10
1045.9236866938959
 20
-1228.2882693892295
 30
0.0
 41
1.0
 10
1045.918068381045
 20
-1228.2919358839235
 30
0.0
 41
1.0
 10
1045.9124500681942
 20
-1228.2956023786176
 30
0.0
 41
1.0
 10
1045.8257456898241
 20
-1228.3521854048172
 30
0.0
 41
0.9998821494955109
 10
1045.7408193140097
 20
-1228.4114036348947
 30
0.0
 41
1.0
 10
1045.655892938197
 20
-1228.4706218649715
 30
0.0
 41
0.9997976482743689
 10
1045.5734173077935
 20
-1228.5332082730131
 30
0.0
 41
1.0
 10
1045.5587810429884
 20
-1228.5443149627931
 30
0.0
 41
1.0
 10
1045.5441447781834
 20
-1228.5554216525729
 30
0.0
 41
1.0
 10
1045.4323966181673
 20
-1228.6402214401762
 30
0.0
 41
0.9998091630801773
 10
1045.3240463401376
 20
-1228.7293217908793
 30
0.0
 41
1.0
 10
1045.3110405876625
 20
-1228.7400168913236
 30
0.0
 41
1.0
 10
1045.2980348351875
 20
-1228.7507119917677
 30
0.0
 41
1.0
 10
1045.1636730522075
 20
-1228.8612025433597
 30
0.0
 41
0.9995035112317853
 10
1045.0365371744456
 20
-1228.9799363603727
 30
0.0
 41
1.0
 10
1045.0268898640545
 20
-1228.9889461065341
 30
0.0
 41
1.0
 10
1045.0172425536634
 20
-1228.9979558526957
 30
0.0
 41
1.0
 10
1044.8938194909003
 20
-1229.1132222244496
 30
0.0
 41
0.9994630424298899
 10
1044.7782110851181
 20
-1229.236324967683
 30
0.0
 41
1.0
 10
1044.7745282463457
 20
-1229.2402465471969
 30
0.0
 41
1.0
 10
1044.7708454075735
 20
-1229.2441681267107
 30
0.0
 41
1.0
 10
1044.6626026793335
 20
-1229.3594277109189
 30
0.0
 41
0.9995160693750111
 10
1044.5617366498022
 20
-1229.4811951287907
 30
0.0
 41
1.0
 10
1044.5598029297216
 20
-1229.4835295529986
 30
0.0
 41
1.0
 10
1044.5578692096412
 20
-1229.4858639772065
 30
0.0
 41
1.0
 10
1044.46087062027
 20
-1229.6029625466638
 30
0.0
 41
0.9996561470515046
 10
1044.3701444016046
 20
-1229.7249853091125
 30
0.0
 41
1.0
 10
1044.3639867357056
 20
-1229.7332670981509
 30
0.0
 41
1.0
 10
1044.3578290698067
 20
-1229.7415488871891
 30
0.0
 41
1.0
 10
1044.2794181829413
 20
-1229.8470080715583
 30
0.0
 41
0.9998349055173935
 10
1044.2048909010064
 20
-1229.955246655225
 30
0.0
 41
1.0
 10
1044.1303636190746
 20
-1230.0634852388878
 30
0.0
 41
0.9999728109563835
 10
1044.0574407231663
 20
-1230.17281116444
 30
0.0
 41
1.0
 10
1044.0561255077532
 20
-1230.1747829339442
 30
0.0
 41
1.0
 10
1044.0548102923403
 20
-1230.1767547034488
 30
0.0
 41
1.0
 10
1043.9792569656261
 20
-1230.2900241679799
 30
0.0
 41
0.9999972147396772
 10
1043.9042391552707
 20
-1230.4036490107871
 30
0.0
 41
1.0
 10
1043.8992676126295
 20
-1230.4111790992883
 30
0.0
 41
1.0
 10
1043.8942960699881
 20
-1230.4187091877893
 30
0.0
 41
1.0
 10
1043.8093351743657
 20
-1230.5473942075753
 30
0.0
 41
0.9999371979002965
 10
1043.7272798249594
 20
-1230.6779511213565
 30
0.0
 41
1.0
 10
1043.7237709406004
 20
-1230.6835340494172
 30
0.0
 41
1.0
 10
1043.7202620562412
 20
-1230.6891169774781
 30
0.0
 41
1.0
 10
1043.6311889381122
 20
-1230.8308397473872
 30
0.0
 41
0.9998272025609597
 10
1043.5474455472295
 20
-1230.9757756241306
 30
0.0
 41
1.0
 10
1043.5322303752059
 20
-1231.0021087385865
 30
0.0
 41
1.0
 10
1043.5170152031824
 20
-1231.0284418530423
 30
0.0
 41
1.0
 10
1043.4028414682521
 20
-1231.2260439586983
 30
0.0
 41
0.9995217214838273
 10
1043.3011017786966
 20
-1231.4303262865603
 30
0.0
 41
1.0
 10
1043.2934582160588
 20
-1231.4456737362689
 30
0.0
 41
1.0
 10
1043.2858146534209
 20
-1231.4610211859774
 30
0.0
 41
1.0
 10
1043.198909360834
 20
-1231.6355176440529
 30
0.0
 41
0.9998269762607104
 10
1043.1185548945646
 20
-1231.8131259307711
 30
0.0
 41
1.0
 10
1043.0382004282901
 20
-1231.9907342174999
 30
0.0
 41
0.9998944747388711
 10
1042.9630396337232
 20
-1232.1706019431354
 30
0.0
 41
1.0
 10
1042.9580859641401
 20
-1232.1824565980332
 30
0.0
 41
1.0
 10
1042.9531322945572
 20
-1232.1943112529309
 30
0.0
 41
1.0
 10
1042.8724852339985
 20
-1232.3873081929635
 30
0.0
 41
0.9999506734415214
 10
1042.795687705089
 20
-1232.5818689978341
 30
0.0
 41
1.0
 10
1042.7810877398169
 20
-1232.6188569196431
 30
0.0
 41
1.0
 10
1042.7664877745449
 20
-1232.6558448414521
 30
0.0
 41
1.0
 10
1042.7188901761815
 20
-1232.7764298027
 30
0.0
 41
0.9999912393922098
 10
1042.6723037321628
 20
-1232.897409005386
 30
0.0
 41
1.0
 10
1042.6257172881401
 20
-1233.0183882080828
 30
0.0
 41
0.9999927113987169
 10
1042.5800559937461
 20
-1233.1397196155838
 30
0.0
 41
1.0
 10
1042.5660875623485
 20
-1233.1768365975827
 30
0.0
 41
1.0
 10
1042.5521191309508
 20
-1233.2139535795816
 30
0.0
 41
1.0
 10
1042.4785209737636
 20
-1233.4095189510745
 30
0.0
 41
0.9999487550947604
 10
1042.4088973487947
 20
-1233.6065343162495
 30
0.0
 41
1.0
 10
1042.3853037388531
 20
-1233.6732976265557
 30
0.0
 41
1.0
 10
1042.3617101289115
 20
-1233.7400609368617
 30
0.0
 41
1.0
 10
1042.2670244945439
 20
-1234.0079947716779
 30
0.0
 41
0.999980843694621
 10
1042.1756629059037
 20
-1234.2770802029388
 30
0.0
 41
1.0
 10
1042.0843013172519
 20
-1234.5461656342341
 30
0.0
 41
0.9999873932896627
 10
1041.9956466085237
 20
-1234.8161549892793
 30
0.0
 41
1.0
 10
1041.9755542516646
 20
-1234.8773443220009
 30
0.0
 41
1.0
 10
1041.9554618948055
 20
-1234.9385336547225
 30
0.0
 41
1.0
 10
1041.8266224723504
 20
-1235.3309016752355
 30
0.0
 41
0.9999794883038203
 10
1041.702819687393
 20
-1235.7248878815114
 30
0.0
 41
1.0
 10
1041.6916674279623
 20
-1235.7603784917264
 30
0.0
 41
1.0
 10
1041.6805151685319
 20
-1235.7958691019412
 30
0.0
 41
1.0
 10
1041.537957004633
 20
-1236.2495418540329
 30
0.0
 41
0.9999982761794026
 10
1041.3970845646029
 20
-1236.7037408762028
 30
0.0
 41
1.0
 10
1039.8089442320302
 20
-1241.7525106072062
 30
0.0
 41
1.0
 10
1038.2208038994577
 20
-1246.8012803382094
 30
0.0
 41
1.0
 10
1037.2720532879812
 20
-1246.8012803382094
 30
0.0
 41
1.0
 10
1036.3233026765049
 20
-1246.8012803382094
 30
0.0
 41
1.0
 10
1039.561587162658
 20
-1236.4739581382632
 30
0.0
 41
1.0
 10
1042.7998716488112
 20
-1226.1466359383171
 30
0.0
 41
1.0
  0
LWPOLYLINE
  5
5C
100
AcDbEntity
  8
0
370
              15
390
0
  6
Continuous
 62
               7
100
AcDbPolyline
 90
      232
 70
             128
 10
1017.0963258749842
 20
-1227.2309787698323
 42
0.000437080070577
 10
1017.0434487007963
 20
-1227.2996454092392
 10
1017.0041644697848
 20
-1227.3507525219852
 42
0.0030481992179746
 10
1016.8738257526524
 20
-1227.5224742143471
 10
1016.8353140809152
 20
-1227.5738609981174
 42
0.0042058245761575
 10
1016.6313290302452
 20
-1227.8508667431913
 10
1016.5789239077446
 20
-1227.923299589972
 42
0.0120948898742435
 10
1016.282879990986
 20
-1228.3540491945166
 10
1016.1866874918589
 20
-1228.5015299297493
 42
0.0141601263947744
 10
1015.8830434449393
 20
-1228.9971992664812
 10
1015.8435061775111
 20
-1229.0660432339166
 42
0.0071131081300296
 10
1015.6382338542749
 20
-1229.4355460327511
 42
0.00684587910058
 10
1015.4433543274307
 20
-1229.8106375962295
 10
1015.4365424649741
 20
-1229.8241993099509
 42
0.0064120880287751
 10
1015.2384002149332
 20
-1230.2316237848622
 10
1015.2308655294128
 20
-1230.2476356415909
 42
0.0058857236447234
 10
1015.0281101375414
 20
-1230.6920117526251
 10
1015.0199352112471
 20
-1230.7105019062599
 42
0.0053189741895609
 10
1014.8112308985832
 20
-1231.196465380169
 10
1014.8024830928982
 20
-1231.2174472583738
 42
0.0047503650419164
 10
1014.5865093667401
 20
-1231.749646691602
 10
1014.5772411183993
 20
-1231.7731230676914
 42
0.0042071762170417
 10
1014.3526937346699
 20
-1232.356216661766
 10
1014.342944332323
 20
-1232.3821828366308
 42
0.0036680086484675
 10
1014.108489689008
 20
-1233.0208182211702
 10
1014.0982819091631
 20
-1233.0492667555068
 42
0.0032573142627381
 10
1013.8526496232063
 20
-1233.7481194152317
 10
1013.7839991023623
 20
-1233.9475824992944
 42
0.0026133366649138
 10
1013.4355539035978
 20
-1234.9774457829849
 10
1013.3722971160995
 20
-1235.1676766183705
 42
0.0020592950741283
 10
1013.15843404713
 20
-1235.819780270991
 10
1013.1553822559653
 20
-1235.8292167594059
 42
0.0025609928535391
 10
1012.953561754481
 20
-1236.4643619817666
 10
1012.9509703873422
 20
-1236.4726643227461
 42
0.0031362356244323
 10
1012.7614796016774
 20
-1237.0934271788867
 10
1012.7593485587505
 20
-1237.1005684850959
 42
0.0037229918025444
 10
1012.5825481718236
 20
-1237.7095537870719
 10
1012.5808695826202
 20
-1237.7155006772357
 42
0.0043077623707411
 10
1012.4171287805522
 20
-1238.3153194090155
 42
0.0047654161821753
 10
1012.2643000580376
 20
-1238.9180054979115
 10
1012.229835449197
 20
-1239.0595672750674
 42
0.0112969368443653
 10
1012.0339710910533
 20
-1239.9512594356925
 10
1012.0059647019568
 20
-1240.0940874817895
 42
0.0130056762570159
 10
1011.8051274583102
 20
-1241.2810285534345
 10
1011.784587708163
 20
-1241.4251066669121
 42
0.013872153214432
 10
1011.6808847036252
 20
-1242.3319361527372
 10
1011.6615892157176
 20
-1242.5554338746597
 42
0.0071254697009187
 10
1011.6282425697948
 20
-1243.0186208835094
 10
1011.6232815956332
 20
-1243.1046248780381
 42
0.0028881799200963
 10
1011.6081433023417
 20
-1243.3963665879123
 42
0.0060297297136493
 10
1011.5982111025661
 20
-1243.6883155240259
 10
1011.597148820899
 20
-1243.7367078959603
 42
0.0229523164156524
 10
1011.6048798486847
 20
-1244.0594627422438
 10
1011.6091056222051
 20
-1244.1198662762602
 42
0.0123673300666074
 10
1011.6281842687234
 20
-1244.3209870014348
 42
0.012857767446882
 10
1011.6573796591298
 20
-1244.5208848513619
 10
1011.6645055325167
 20
-1244.5622136659586
 42
0.028571785376406
 10
1011.7289995342124
 20
-1244.8403298172716
 10
1011.7426680578789
 20
-1244.8869845867489
 42
0.0316283099153228
 10
1011.858478637793
 20
-1245.2059990885748
 10
1011.861527329548
 20
-1245.2129854608991
 42
0.0338984824235501
 10
1012.0109590405158
 20
-1245.5005514250895
 10
1012.0132677698856
 20
-1245.5043424543653
 42
0.0350228718354129
 10
1012.1956280605592
 20
-1245.7613944390423
 10
1012.1965133123347
 20
-1245.7624735168069
 42
0.0347476747527005
 10
1012.4109379995743
 20
-1245.9896585640263
 42
0.0331337701909507
 10
1012.6541813253216
 20
-1246.1857872261046
 10
1012.6552814238369
 20
-1246.1865599292764
 42
0.0305233319078308
 10
1012.9238261194104
 20
-1246.3516880993677
 10
1012.9270561639114
 20
-1246.3534121112302
 42
0.0273744481155362
 10
1013.2196098754847
 20
-1246.4895502551203
 10
1013.2247144106233
 20
-1246.4915938395905
 42
0.0240964406197985
 10
1013.5401914862704
 20
-1246.6005775658721
 10
1013.546774815479
 20
-1246.6025023055467
 42
0.0209636179815369
 10
1013.8841749681327
 20
-1246.6859704534791
 10
1013.8918074285803
 20
-1246.6875223664804
 42
0.0181388704695429
 10
1014.2501298205838
 20
-1246.746938459695
 10
1014.2584106689569
 20
-1246.7480046435114
 42
0.0156086547588404
 10
1014.6365980331499
 20
-1246.7847408300884
 10
1014.6797932854678
 20
-1246.7875793325668
 42
0.0137148329021172
 10
1015.0074664307716
 20
-1246.8000995878183
 10
1015.0534026207166
 20
-1246.8005940209337
 42
0.0051057823883716
 10
1015.2895482072898
 20
-1246.8007242753429
 42
0.0052256693309773
 10
1015.525645491079
 20
-1246.7959754508784
 10
1015.5958722748179
 20
-1246.7938284848644
 42
0.0161507179050048
 10
1015.9716093529242
 20
-1246.7701781145374
 10
1015.9916223132923
 20
-1246.7682679192503
 42
0.0101216737833865
 10
1016.4056495347849
 20
-1246.7202749888845
 10
1016.4397028242097
 20
-1246.7156272920752
 42
0.0245291776398949
 10
1016.9164924797618
 20
-1246.6265522139986
 10
1017.0013157952785
 20
-1246.6063562936545
 42
0.0143509212558862
 10
1017.3579468992244
 20
-1246.5105516598742
 42
0.0156557857039044
 10
1017.7081629639481
 20
-1246.3935404440567
 10
1017.7156641784463
 20
-1246.3907702823012
 42
0.0170137333631783
 10
1018.0722601741264
 20
-1246.2451126674307
 10
1018.0793640965352
 20
-1246.2419248318665
 42
0.0183105364406872
 10
1018.4387137646991
 20
-1246.0645897900436
 10
1018.4456605293402
 20
-1246.0608393551702
 42
0.0194899958149328
 10
1018.804141270325
 20
-1245.848860373279
 10
1018.8111551496609
 20
-1245.8443350309844
 42
0.0204869852950421
 10
1019.1651694517548
 20
-1245.5948150158986
 10
1019.1724350603419
 20
-1245.5892349505502
 42
0.0212516938558919
 10
1019.5184249914525
 20
-1245.299330953653
 10
1019.5649416855236
 20
-1245.2568636435637
 42
0.0215248918250347
 10
1019.8249678544132
 20
-1244.9980993645672
 10
1019.8699975887939
 20
-1244.9492552432173
 42
0.0114578554957236
 10
1020.0247897424711
 20
-1244.7734323097593
 10
1020.0359842784528
 20
-1244.7601135462196
 42
0.0061531305128234
 10
1020.1624589244522
 20
-1244.6058240129082
 42
0.000632558712392
 10
1020.2868374086434
 20
-1244.4498206371827
 10
1020.3098775436554
 20
-1244.420847116573
 42
0.0041897761558778
 10
1020.4783329476436
 20
-1244.2053277404912
 10
1020.5367950675203
 20
-1244.1292263935261
 42
0.0092993880040037
 10
1020.8134069947516
 20
-1243.7549476296313
 10
1020.8958014879411
 20
-1243.639010626076
 42
0.0159321727083449
 10
1021.2424079705853
 20
-1243.1168364053174
 10
1021.2867641059805
 20
-1243.0451568410574
 42
0.0085547317025383
 10
1021.5212758713001
 20
-1242.6512818918427
 42
0.008460115689019
 10
1021.7422520487404
 20
-1242.2496550428141
 10
1021.7503675225726
 20
-1242.2342953605375
 42
0.0081429654285955
 10
1021.9736167930163
 20
-1241.7945738479841
 10
1021.9824769571941
 20
-1241.7763950059775
 42
0.0076574581326946
 10
1022.2088844677609
 20
-1241.2932121307242
 10
1022.2183641084845
 20
-1241.2721476524212
 42
0.0070682724201072
 10
1022.4488090162935
 20
-1240.7401103476348
 10
1022.458799300273
 20
-1240.7161211586285
 42
0.0064559514447909
 10
1022.6941325084514
 20
-1240.1298088921176
 10
1022.7045418666196
 20
-1240.1028739666672
 42
0.0058311413907791
 10
1022.9455886033844
 20
-1239.4568418722781
 10
1022.9563436807699
 20
-1239.4269575311232
 42
0.0052312425819256
 10
1023.2039249588141
 20
-1238.7157551172786
 10
1023.2149687951905
 20
-1238.6829284052187
 42
0.0046680544798254
 10
1023.4698972229268
 20
-1237.9011020894584
 10
1023.5118893729676
 20
-1237.7681188521751
 42
0.0041666856441709
 10
1023.7151753853636
 20
-1237.1051500771664
 10
1023.7528378260322
 20
-1236.9785689694968
 42
0.0015170975158418
 10
1023.8740244044404
 20
-1236.566700618019
 42
-0.000488799310922
 10
1023.9943641776053
 20
-1236.1545822058345
 10
1024.0708414350586
 20
-1235.8936248200359
 42
0.0002583378927851
 10
1024.3440560051054
 20
-1234.9595681169169
 10
1024.4258288547139
 20
-1234.679468857224
 42
0.0006636169673616
 10
1024.6196966147108
 20
-1234.0121159336868
 10
1024.6247932690974
 20
-1233.9944843506698
 42
0.0010589131325883
 10
1024.8062419699745
 20
-1233.3617530077579
 10
1024.8112240404489
 20
-1233.3442401007594
 42
0.0015655524460375
 10
1024.9794942476378
 20
-1232.7456234215369
 10
1024.9843244480417
 20
-1232.7282312626417
 42
0.0021640440473118
 10
1025.1386144200387
 20
-1232.1632042445831
 10
1025.1432486394783
 20
-1232.1459395145534
 42
0.00287638718555
 10
1025.2827643575215
 20
-1231.6139715637421
 10
1025.2871502216826
 20
-1231.5968475856116
 42
0.0037310511945249
 10
1025.4111069135256
 20
-1231.0973999915636
 10
1025.4151821338187
 20
-1231.0804397203017
 42
0.0047652197772104
 10
1025.5228060343234
 20
-1230.6129619520132
 10
1025.5264966336463
 20
-1230.5962023968648
 42
0.0060276699301539
 10
1025.6170267328002
 20
-1230.160126601719
 10
1025.6202454230913
 20
-1230.1436253874001
 42
0.0075824337756459
 10
1025.6929347325049
 20
-1229.7383582229836
 10
1025.6955801098875
 20
-1229.7222032755192
 42
0.0095130624608552
 10
1025.7496953455163
 20
-1229.3471139224612
 10
1025.756681569399
 20
-1229.2911803643435
 42
0.0121054653227895
 10
1025.783272899977
 20
-1229.0262845358709
 10
1025.784139389737
 20
-1229.0148810929336
 42
0.0069050827392831
 10
1025.7992282077739
 20
-1228.7719398660975
 10
1025.8003635074424
 20
-1228.7484136090554
 42
0.0169063976694558
 10
1025.8031907864229
 20
-1228.552220881752
 10
1025.8020201348916
 20
-1228.4918851204
 42
0.0052007732903988
 10
1025.7997666862987
 20
-1228.4162917302508
 42
0.0054038123303403
 10
1025.7798031744578
 20
-1228.2962734342298
 10
1025.7747173185894
 20
-1228.2676149476597
 42
0.0112050460457249
 10
1025.7393329565305
 20
-1228.0912885093189
 10
1025.7215079944901
 20
-1228.0117469225997
 42
0.0240764468009626
 10
1025.6306106283439
 20
-1227.6815098870982
 10
1025.6120518655314
 20
-1227.6248897221071
 42
0.02568123318331
 10
1025.468688945341
 20
-1227.2531655158475
 10
1025.4632795195193
 20
-1227.2410341808575
 42
0.0268360501217211
 10
1025.2938522786696
 20
-1226.9100410468368
 10
1025.2883158710347
 20
-1226.9005213765247
 42
0.0274670231731562
 10
1025.0961148946212
 20
-1226.6082340016073
 10
1025.0907335946597
 20
-1226.6009548540674
 42
0.0275035967101523
 10
1024.879160715097
 20
-1226.3454389637618
 10
1024.8740912141302
 20
-1226.3399598761309
 42
0.0269557673519682
 10
1024.6466876706909
 20
-1226.119317590169
 10
1024.6419446129096
 20
-1226.1151876357094
 42
0.0259124802210285
 10
1024.4023897814773
 20
-1225.9274971085561
 10
1024.3978589362944
 20
-1225.924311606225
 42
0.0245162153003484
 10
1024.1499425832008
 20
-1225.7675785971151
 10
1024.145416036876
 20
-1225.765018399914
 42
0.0229282588835636
 10
1023.8929964800491
 20
-1225.6371502074153
 10
1023.8882159862137
 20
-1225.634997907654
 42
0.0212984135691861
 10
1023.6351780337507
 20
-1225.533798990411
 10
1023.6298737487804
 20
-1225.5319354276508
 42
0.0197555462339629
 10
1023.3800954110582
 20
-1225.4551200096862
 42
0.0183511896785526
 10
1023.1251666855965
 20
-1225.3975371027211
 10
1023.0388014888732
 20
-1225.3813343123361
 42
0.0338057877148902
 10
1022.7532941396117
 20
-1225.3475259071956
 10
1022.6622887345694
 20
-1225.3429462519341
 42
0.009199052449704
 10
1022.5564416259358
 20
-1225.339570396012
 42
0.0028333980779074
 10
1022.4505277099393
 20
-1225.3387422884953
 10
1022.4496122568935
 20
-1225.3387403186712
 42
-0.0023619827808888
 10
1022.3418662417731
 20
-1225.3379994775926
 10
1022.3054610716117
 20
-1225.3375771711299
 42
0.0008824598479558
 10
1022.1249050818545
 20
-1225.3358013928923
 10
1022.0810436493559
 20
-1225.335447431366
 42
0.0038132665768092
 10
1021.8127607534994
 20
-1225.3353284952991
 10
1021.7962270986836
 20
-1225.3354472614428
 42
0.0060665569339572
 10
1021.4949466070749
 20
-1225.3412675608643
 10
1021.480696275067
 20
-1225.3417158688312
 42
0.0080356953336912
 10
1021.1512375587241
 20
-1225.3573835908983
 10
1021.1391675436405
 20
-1225.3581521738386
 42
0.0098996399104858
 10
1020.7864044589974
 20
-1225.387637403036
 10
1020.7763587496149
 20
-1225.3886776992349
 42
0.0117740981368618
 10
1020.4052018912669
 20
-1225.4359699467648
 10
1020.3969791947836
 20
-1225.4372150633355
 42
0.0137435215133504
 10
1020.0123903752999
 20
-1225.5063120368968
 10
1020.0057333361751
 20
-1225.5076979331307
 42
0.0158359869383673
 10
1019.6127362423758
 20
-1225.6025900216107
 10
1019.6073230555055
 20
-1225.604079962482
 42
0.0180554124026537
 10
1019.2110080108961
 20
-1225.7287179787197
 10
1019.2064512228097
 20
-1225.730334014987
 42
0.0203657431281382
 10
1018.8119737049993
 20
-1225.8885943565024
 10
1018.807830165991
 20
-1225.8904559779448
 42
0.0226819684654168
 10
1018.42039410979
 20
-1226.0860985566142
 10
1018.4161943187693
 20
-1226.0884641485354
 42
0.0248634984603664
 10
1018.0410123775896
 20
-1226.3250907944816
 10
1017.9928174488045
 20
-1226.3589478363083
 42
0.026704419088581
 10
1017.7185247518876
 20
-1226.5743882121765
 42
0.0139303002198323
 10
1017.4623575859467
 20
-1226.8116270530907
 10
1017.4575042002278
 20
-1226.8163797159486
 42
0.0283460963440129
 10
1017.2134316060037
 20
-1227.0841103763901
 10
1017.1737631008441
 20
-1227.1329119538668
 42
0.0070695364826344
 10
1017.0963258749842
 20
-1227.2309787698323
 42
0.0070695364826344
  0
LWPOLYLINE
  5
5D
100
AcDbEntity
  8
0
370
              15
390
0
  6
Continuous
 62
               7
100
AcDbPolyline
 90
      226
 70
             128
 10
1013.5675054377379
 20
-1242.9525675760162
 42
-0.0026277636629212
 10
1013.5674275539377
 20
-1242.8857956503052
 10
1013.5676449121698
 20
-1242.83264043283
 42
-0.008868029672447
 10
1013.571421528463
 20
-1242.6596246504221
 10
1013.5737678875753
 20
-1242.6003446249733
 42
-0.0077381705614374
 10
1013.5898139983385
 20
-1242.3090841291744
 10
1013.5906819095115
 20
-1242.29679589549
 42
-0.0068872530535552
 10
1013.61731398926
 20
-1241.9815741434188
 10
1013.6185182134458
 20
-1241.9693331644025
 42
-0.0062130021479445
 10
1013.6561119302767
 20
-1241.6304634731382
 10
1013.6576158338087
 20
-1241.6182896012474
 42
-0.0056726929671932
 10
1013.7065376933097
 20
-1241.256094379143
 10
1013.7083111389554
 20
-1241.2440005788885
 42
-0.0052341884490088
 10
1013.7689217252179
 20
-1240.8588073233559
 10
1013.770939713992
 20
-1240.8468023933783
 42
-0.0049768450168214
 10
1013.8436783954187
 20
-1240.4389578259443
 10
1013.8679274101402
 20
-1240.3104098429399
 42
-0.0089029805625203
 10
1014.0050082619331
 20
-1239.6486343955257
 10
1014.0377536372534
 20
-1239.5036029649939
 42
-0.0080318257099506
 10
1014.2673022515935
 20
-1238.5578933331426
 10
1014.2792871780424
 20
-1238.51176269795
 42
-0.0074265721317899
 10
1014.5632987168935
 20
-1237.4816981195656
 10
1014.5831782600069
 20
-1237.4135640589875
 42
-0.0069711922702743
 10
1014.9104828385157
 20
-1236.3472963186523
 10
1014.9704347856199
 20
-1236.1612749602857
 42
-0.005207042289633
 10
1015.1998600108805
 20
-1235.4740028832503
 10
1015.2171412030905
 20
-1235.4239756025238
 42
-0.0009167004447333
 10
1015.4202330903422
 20
-1234.8395197544792
 42
-0.0025162726944482
 10
1015.6273307205915
 20
-1234.2564784903529
 10
1015.6645553324097
 20
-1234.1533289444121
 42
-0.0028212681456229
 10
1015.9127312513733
 20
-1233.4775983122399
 10
1015.922562014129
 20
-1233.4512908675497
 42
-0.0031964916820069
 10
1016.1588542717863
 20
-1232.8310861054363
 10
1016.1684887257725
 20
-1232.8062761153258
 42
-0.0036281836453457
 10
1016.3935946868864
 20
-1232.2388354343998
 10
1016.4030330970407
 20
-1232.2155380029046
 42
-0.0041269166834279
 10
1016.6176507937031
 20
-1231.6980971069188
 10
1016.6502837501215
 20
-1231.6212186605633
 42
-0.0047472213056126
 10
1016.8073285556775
 20
-1231.2607971926743
 10
1016.8142226368714
 20
-1231.2453765953742
 42
-0.0025651659997587
 10
1016.9625806707359
 20
-1230.9180485395939
 42
-0.0057144634992
 10
1017.1163303645105
 20
-1230.5932388662243
 10
1017.1443610699091
 20
-1230.5357304838356
 42
-0.0065388068373966
 10
1017.3278280976482
 20
-1230.1714979871722
 10
1017.3362865534256
 20
-1230.1552384078047
 42
-0.0074510843023669
 10
1017.5124687993045
 20
-1229.8285501266801
 10
1017.520648469836
 20
-1229.8139093494103
 42
-0.0084648979863339
 10
1017.6902823229357
 20
-1229.52200033845
 10
1017.6981384494183
 20
-1229.5089933468082
 42
-0.0095638542812185
 10
1017.8619738970179
 20
-1229.2491044748206
 10
1017.8694488406876
 20
-1229.2377351133684
 42
-0.010719162680878
 10
1018.0282504210772
 20
-1229.0071238788209
 10
1018.0352671548062
 20
-1228.9973877864593
 42
-0.011845857390415
 10
1018.1898152533208
 20
-1228.7933155911458
 42
-0.0129184518189527
 10
1018.354267876927
 20
-1228.5971550749703
 10
1018.3844126492841
 20
-1228.5630289960777
 42
-0.0217742579637533
 10
1018.5610249716208
 20
-1228.3798222258256
 10
1018.5717705160736
 20
-1228.3696053926299
 42
-0.009726656865361
 10
1018.737828134937
 20
-1228.2177578181854
 42
-0.0187720905715687
 10
1018.9121757108293
 20
-1228.0756889647942
 10
1018.9428817015042
 20
-1228.0525298823975
 42
-0.0179428207516972
 10
1019.1753024214968
 20
-1227.8899777052884
 10
1019.1789547484144
 20
-1227.8876137703994
 42
-0.0170047877696744
 10
1019.4147183859429
 20
-1227.7461532562493
 10
1019.418501374689
 20
-1227.7440549512132
 42
-0.0160190788370969
 10
1019.6554099223248
 20
-1227.6224036492249
 42
-0.015110286149151
 10
1019.8994417047727
 20
-1227.5157208731696
 10
1019.9518282069832
 20
-1227.4946807402755
 42
-0.027194544188788
 10
1020.3104907660399
 20
-1227.3728159295699
 10
1020.3795555665342
 20
-1227.353466388302
 42
-0.0237596594018933
 10
1020.7953524135521
 20
-1227.2580156763215
 10
1020.8634152672826
 20
-1227.2457609881949
 42
-0.0213715440554661
 10
1021.1492901987278
 20
-1227.206813956685
 10
1021.2094373649502
 20
-1227.2012242419837
 42
-0.0101465655814066
 10
1021.3769298969399
 20
-1227.1890806987199
 10
1021.3862702831312
 20
-1227.188593783723
 42
-0.0100375910883161
 10
1021.5354243837007
 20
-1227.1838179657975
 10
1021.5456836533906
 20
-1227.1836955267829
 42
-0.0103625633371018
 10
1021.6743916480359
 20
-1227.1848269603097
 10
1021.6966572993097
 20
-1227.1854843187748
 42
-0.0115689250218445
 10
1021.7807080368308
 20
-1227.1899138250196
 42
-0.007243803743747
 10
1021.8645463162625
 20
-1227.1975030247684
 10
1021.8813468257428
 20
-1227.1992695674933
 42
-0.0217917313115731
 10
1021.9979165890622
 20
-1227.2166894602153
 10
1022.0635166796268
 20
-1227.2294360686296
 42
-0.0332943556752121
 10
1022.2679088446514
 20
-1227.2834763599358
 10
1022.2980814132021
 20
-1227.2936444370544
 42
-0.0184824084788487
 10
1022.436586469667
 20
-1227.3460954524407
 42
-0.0198002050689342
 10
1022.5706608101661
 20
-1227.4089795126401
 10
1022.5725474475432
 20
-1227.4099572995201
 42
-0.021224234298778
 10
1022.7046863899442
 20
-1227.4857200383128
 10
1022.7065016854885
 20
-1227.4868658405217
 42
-0.0226090605807463
 10
1022.8350055867112
 20
-1227.5763454840869
 10
1022.8368500284478
 20
-1227.5777577370736
 42
-0.0238457052245551
 10
1022.9600321097403
 20
-1227.6817536329356
 10
1022.9619848382997
 20
-1227.6835685107021
 42
-0.0248160564158735
 10
1023.0781863455996
 20
-1227.8028431119101
 10
1023.0802899790024
 20
-1227.8052284456153
 42
-0.0254109591449693
 10
1023.187895196868
 20
-1227.9405168315791
 10
1023.1901432187824
 20
-1227.9436583799802
 42
-0.0255528488296535
 10
1023.287589897579
 20
-1228.0956854342132
 10
1023.2899209974958
 20
-1228.0997670458219
 42
-0.0252146793216638
 10
1023.3757020235055
 20
-1228.2692692918204
 10
1023.3780042626624
 20
-1228.2744513737318
 42
-0.0244265635957055
 10
1023.450658956424
 20
-1228.4621979457786
 10
1023.4599053578925
 20
-1228.4900633641164
 42
-0.0231319612908602
 10
1023.5058281368844
 20
-1228.6533644109179
 42
-0.0112130424352011
 10
1023.5404641594224
 20
-1228.819568011105
 10
1023.5416666845351
 20
-1228.826064597994
 42
-0.0210527881240275
 10
1023.5673531599059
 20
-1229.0071202434347
 10
1023.5708637547277
 20
-1229.0425257919824
 42
-0.019002989242519
 10
1023.5863052282723
 20
-1229.2960616382541
 10
1023.5871152047164
 20
-1229.3315372526235
 42
-0.0137974553656551
 10
1023.5855663518806
 20
-1229.6565686593635
 10
1023.5847208969251
 20
-1229.682687403955
 42
-0.0081336634214296
 10
1023.5698615617027
 20
-1229.9880348715492
 42
-0.0073526923566486
 10
1023.5455530283288
 20
-1230.2927831158283
 10
1023.5442916045454
 20
-1230.3061197905004
 42
-0.0066886138690355
 10
1023.5085560184978
 20
-1230.636705834007
 10
1023.5068989290289
 20
-1230.6503274529891
 42
-0.0061359187354714
 10
1023.4590483269795
 20
-1231.0070914330793
 10
1023.4570108259052
 20
-1231.0209862359184
 42
-0.005669861006542
 10
1023.3963604951396
 20
-1231.4042648047487
 10
1023.3939550618152
 20
-1231.4184239239871
 42
-0.005272107726827
 10
1023.3198228610131
 20
-1231.8285512636776
 10
1023.3170597121738
 20
-1231.842967899051
 42
-0.0049289272174137
 10
1023.2287655940736
 20
-1232.2802764101739
 10
1023.2256530993911
 20
-1232.2949452629891
 42
-0.0047415956711922
 10
1023.1224151078586
 20
-1232.7597420204006
 10
1023.0876468974991
 20
-1232.909549115783
 42
-0.0084404470902697
 10
1022.8976304539265
 20
-1233.6697731403169
 10
1022.8915037659416
 20
-1233.6926372644675
 42
-0.0039635940260268
 10
1022.6700500816612
 20
-1234.4936261287019
 10
1022.6566732864781
 20
-1234.5405577453066
 42
-0.0072475040837414
 10
1022.3892263986191
 20
-1235.4297774616839
 10
1022.3190140717822
 20
-1235.6515178116863
 42
-0.0051345458828032
 10
1022.0322546997287
 20
-1236.5258429994801
 10
1022.0107284329707
 20
-1236.5892692665821
 42
-0.0019150016603265
 10
1021.7551950260945
 20
-1237.3328183868362
 10
1021.7487274217043
 20
-1237.3514058517401
 42
-0.0021524362751753
 10
1021.5002493706345
 20
-1238.0557316734657
 10
1021.4910389499355
 20
-1238.0814852517742
 42
-0.0024331286818645
 10
1021.2547836909021
 20
-1238.7320845598852
 10
1021.2457357383503
 20
-1238.756627866243
 42
-0.002744972179032
 10
1021.0211211675161
 20
-1239.3557577451641
 10
1021.0122311601162
 20
-1239.3790803350362
 42
-0.0031083229767463
 10
1020.7986886735139
 20
-1239.929004372596
 10
1020.7899525418434
 20
-1239.9510940884409
 42
-0.0035311343283308
 10
1020.5869113562464
 20
-1240.4540772141838
 10
1020.5783260170998
 20
-1240.4749199376915
 42
-0.0040245640951722
 10
1020.3852142133044
 20
-1240.9332292602867
 10
1020.376778099692
 20
-1240.9528086283801
 42
-0.0046015135848506
 10
1020.1930218065376
 20
-1241.3687136580008
 10
1020.1847356287135
 20
-1241.3870107974435
 42
-0.0052768638270039
 10
1020.0097581097536
 20
-1241.7627836817232
 10
1020.0016258991261
 20
-1241.7797770202676
 42
-0.0060672675643964
 10
1019.8348462863607
 20
-1242.1176926433807
 10
1019.8268768058748
 20
-1242.1333579023867
 42
-0.0069904648872477
 10
1019.6677084118778
 20
-1242.4356937090415
 10
1019.6599170122695
 20
-1242.4500042582642
 42
-0.0080637022767801
 10
1019.5077651519211
 20
-1242.7190395614221
 10
1019.5001761192949
 20
-1242.7319674270143
 42
-0.0093006455669439
 10
1019.3544354427584
 20
-1242.9699818255258
 10
1019.3470847760117
 20
-1242.9814997947037
 42
-0.0107060778053105
 10
1019.2071362325762
 20
-1243.1907701120781
 10
1019.2000744642971
 20
-1243.2008556546432
 42
-0.0122723111415035
 10
1019.0652807460986
 20
-1243.3836489841328
 10
1019.0649545225409
 20
-1243.3840693719471
 42
-0.0141836319630571
 10
1018.9213729195703
 20
-1243.558639129772
 10
1018.9144251639178
 20
-1243.5666141300374
 42
-0.0175957477211355
 10
1018.7745189958837
 20
-1243.7162350184417
 42
-0.0080466359675887
 10
1018.6270552308483
 20
-1243.8585575465977
 10
1018.581020686336
 20
-1243.9015779846841
 42
-0.0269600260397699
 10
1018.3277404403547
 20
-1244.113901243192
 10
1018.2611733040579
 20
-1244.1638526578158
 42
-0.0178362839753517
 10
1018.0212288144003
 20
-1244.3308705840695
 10
1018.0139838434045
 20
-1244.3355390962713
 42
-0.0174650732655786
 10
1017.7776476459585
 20
-1244.4764000612336
 42
-0.0169240130164124
 10
1017.5321814001028
 20
-1244.6006923210102
 10
1017.4861952445431
 20
-1244.6220542765782
 42
-0.0318883036838789
 10
1017.1358443889231
 20
-1244.7583925860883
 10
1017.0674788537581
 20
-1244.7800932065638
 42
-0.0284435909902635
 10
1016.6914287274673
 20
-1244.8763106420383
 10
1016.6562705669678
 20
-1244.8832042378669
 42
-0.0243909341015112
 10
1016.3428271060498
 20
-1244.928925268897
 10
1016.2925463792781
 20
-1244.9337708157987
 42
-0.0196639292932322
 10
1016.0769508017513
 20
-1244.9460191013122
 10
1016.0251267305894
 20
-1244.946922362049
 42
-0.0100501510681736
 10
1015.9127034489236
 20
-1244.9466219636959
 10
1015.8810435875741
 20
-1244.9459008918104
 42
-0.0019752031109811
 10
1015.8319512508982
 20
-1244.944588731601
 10
1015.8291909476677
 20
-1244.9445040397745
 42
0.0065378752027283
 10
1015.7856143729214
 20
-1244.9437371485596
 42
-0.0167974694669202
 10
1015.7420835499898
 20
-1244.9420772500334
 10
1015.7380042107275
 20
-1244.9417842391385
 42
-0.008128327630275
 10
1015.6864444129949
 20
-1244.9372372455014
 10
1015.6747048391103
 20
-1244.9360093279224
 42
-0.0126703440189495
 10
1015.5999865433229
 20
-1244.9262745368519
 10
1015.5771986756401
 20
-1244.9227162809357
 42
-0.0117852088424935
 10
1015.4576596898014
 20
-1244.9011532857774
 10
1015.4022792380447
 20
-1244.889809745544
 42
-0.025177459229294
 10
1015.175435199038
 20
-1244.8313117361115
 10
1015.1307160091864
 20
-1244.8173449167759
 42
-0.0146525199884064
 10
1014.9443230216473
 20
-1244.7530783895777
 42
-0.0166929435856956
 10
1014.7623453655189
 20
-1244.6772712565221
 10
1014.7576887342475
 20
-1244.675146355909
 42
-0.0191684358438856
 10
1014.5725051029992
 20
-1244.5819102721196
 10
1014.5691725172412
 20
-1244.5800690245655
 42
-0.0221181781811422
 10
1014.3858622133381
 20
-1244.4679355261942
 10
1014.3835124093306
 20
-1244.4663512282038
 42
-0.0254984685384514
 10
1014.2072222589447
 20
-1244.3339400782336
 10
1014.1847401112431
 20
-1244.3151877692976
 42
-0.0292492648810109
 10
1014.0599711724003
 20
-1244.1980949696549
 42
-0.0159048957499351
 10
1013.9461311749506
 20
-1244.0700749780563
 10
1013.9448123843708
 20
-1244.0684933650359
 42
-0.0343813379562657
 10
1013.8421751227443
 20
-1243.9266220392658
 10
1013.8106835913834
 20
-1243.8761186471718
 42
-0.0369117275695538
 10
1013.7247910894865
 20
-1243.7126414062238
 42
-0.019175137991172
 10
1013.6575977039303
 20
-1243.5402368002199
 10
1013.6558343801701
 20
-1243.535143455543
 42
-0.0378178042227803
 10
1013.6060396613857
 20
-1243.3462026794612
 10
1013.6000443656551
 20
-1243.3136420612625
 42
-0.0184846046475705
 10
1013.5793271663611
 20
-1243.1718892407198
 42
-0.017986635131624
 10
1013.5689941612875
 20
-1243.0289984276412
 10
1013.5689377188417
 20
-1243.0274407410261
 42
-0.0085497186109602
 10
1013.5675054377379
 20
-1242.9525675760162
 42
-0.0085497186109602
  0
ENDBLK
  5
5E
100
AcDbEntity
  8
template
390
0
100
AcDbBlockEnd
  0
BLOCK
  5
5F
100
AcDbEntity
  8
FAN70-0207
390
0
100
AcDbBlockBegin
  2
*D2
 70
               1
 10
0.0
 20
0.0
 30
0.0
  3
*D2
  1

  0
LINE
  5
60
100
AcDbEntity
  8
0
370
              -2
390
0
  6
Continuous
 62
               0
100
AcDbLine
 10
-752.37075218923724
 20
798.13847294663083
 30
0.0
 11
-752.37075218923724
 21
928.13847294663105
 31
0.0
  0
LINE
  5
61
100
AcDbEntity
  8
0
370
              -2
390
0
  6
Continuous
 62
               0
100
AcDbLine
 10
47.629247810762394
 20
803.13847294663083
 30
0.0
 11
47.629247810762422
 21
928.13847294663105
 31
0.0
  0
LINE
  5
62
100
AcDbEntity
  8
0
370
              -2
390
0
  6
Continuous
 62
               0
100
AcDbLine
 10
-752.37075218923724
 20
928.13847294663105
 30
0.0
 11
47.629247810762422
 21
928.13847294663105
 31
0.0
  0
CIRCLE
  5
63
102
{ACAD_REACTORS
330
64
102
}
100
AcDbEntity
  8
0
370
              -2
390
0
  6
Continuous
 62
               0
100
AcDbCircle
 10
-752.37075218923724
 20
928.13847294663105
 30
0.0
 40
4.99969482421875
  0
HATCH
  5
64
100
AcDbEntity
  8
0
370
              -2
390
0
  6
Continuous
 62
               0
100
AcDbHatch
 10
0.0
 20
0.0
 30
0.0
210
0.0
220
0.0
230
1.0
  2
SOLID
 70
               1
 71
               1
 91
        1
 92
        1
 93
        1
 72
               2
 10
-752.37075218923724
 20
928.13847294663105
 40
4.99969482421875
 50
0.0
 51
360.0
 73
               0
 97
        1
330
63
 75
               0
 76
               1
 98
        1
 10
0.0
 20
0.0
  0
CIRCLE
  5
65
102
{ACAD_REACTORS
330
66
102
}
100
AcDbEntity
  8
0
370
              -2
390
0
  6
Continuous
 62
               0
100
AcDbCircle
 10
47.629247810762422
 20
928.13847294663105
 30
0.0
 40
4.99969482421875
  0
HATCH
  5
66
100
AcDbEntity
  8
0
370
              -2
390
0
  6
Continuous
 62
               0
100
AcDbHatch
 10
0.0
 20
0.0
 30
0.0
210
0.0
220
0.0
230
1.0
  2
SOLID
 70
               1
 71
               1
 91
        1
 92
        1
 93
        1
 72
               2
 10
47.629247810762422
 20
928.13847294663105
 40
4.99969482421875
 50
0.0
 51
360.0
 73
               0
 97
        1
330
65
 75
               0
 76
               1
 98
        1
 10
0.0
 20
0.0
  0
MTEXT
  5
67
100
AcDbEntity
  8
0
390
0
 62
               0
100
AcDbMText
 10
-369.89535765903554
 20
962.01609013413099
 30
0.0
 40
24.432617187500004
 41
0.0
 71
               1
 72
               1
  1
800
  7
ＭＳ ゴシック
 73
               1
 44
0.7828267384257843
  0
POINT
  5
68
100
AcDbEntity
  8
Defpoints
370
               0
390
0
 62
               0
100
AcDbPoint
 10
47.629247810762394
 20
778.13847294663083
 30
0.0
  0
POINT
  5
69
100
AcDbEntity
  8
Defpoints
370
               0
390
0
 62
               0
100
AcDbPoint
 10
-752.37075218923724
 20
773.13847294663083
 30
0.0
  0
POINT
  5
6A
100
AcDbEntity
  8
Defpoints
370
               0
390
0
 62
               0
100
AcDbPoint
 10
-752.37075218923724
 20
928.13847294663105
 30
0.0
  0
ENDBLK
  5
6B
100
AcDbEntity
  8
FAN70-0207
390
0
100
AcDbBlockEnd
  0
BLOCK
  5
6C
100
AcDbEntity
  8
FAN70-0207
390
0
100
AcDbBlockBegin
  2
*D3
 70
               1
 10
0.0
 20
0.0
 30
0.0
  3
*D3
  1

  0
LINE
  5
6D
100
AcDbEntity
  8
0
370
              -2
390
0
  6
Continuous
 62
               0
100
AcDbLine
 10
47.629247810762166
 20
433.13847294663077
 30
0.0
 11
47.629247810762166
 21
353.13847294663077
 31
0.0
  0
LINE
  5
6E
100
AcDbEntity
  8
0
370
              -2
390
0
  6
Continuous
 62
               0
100
AcDbLine
 10
-2.3707521892376207
 20
428.13847294663077
 30
0.0
 11
-2.3707521892376207
 21
353.13847294663077
 31
0.0
  0
LINE
  5
6F
100
AcDbEntity
  8
0
370
              -2
390
0
  6
Continuous
 62
               0
100
AcDbLine
 10
47.629247810762166
 20
353.13847294663077
 30
0.0
 11
-2.3707521892376207
 21
353.13847294663077
 31
0.0
  0
CIRCLE
  5
70
102
{ACAD_REACTORS
330
71
102
}
100
AcDbEntity
  8
0
370
              -2
390
0
  6
Continuous
 62
               0
100
AcDbCircle
 10
47.629247810762166
 20
353.13847294663077
 30
0.0
 40
4.99969482421875
  0
HATCH
  5
71
100
AcDbEntity
  8
0
370
              -2
390
0
  6
Continuous
 62
               0
100
AcDbHatch
 10
0.0
 20
0.0
 30
0.0
210
0.0
220
0.0
230
1.0
  2
SOLID
 70
               1
 71
               1
 91
        1
 92
        1
 93
        1
 72
               2
 10
47.629247810762166
 20
353.13847294663077
 40
4.99969482421875
 50
0.0
 51
360.0
 73
               0
 97
        1
330
70
 75
               0
 76
               1
 98
        1
 10
0.0
 20
0.0
  0
CIRCLE
  5
72
102
{ACAD_REACTORS
330
73
102
}
100
AcDbEntity
  8
0
370
              -2
390
0
  6
Continuous
 62
               0
100
AcDbCircle
 10
-2.3707521892376207
 20
353.13847294663077
 30
0.0
 40
4.99969482421875
  0
HATCH
  5
73
100
AcDbEntity
  8
0
370
              -2
390
0
  6
Continuous
 62
               0
100
AcDbHatch
 10
0.0
 20
0.0
 30
0.0
210
0.0
220
0.0
230
1.0
  2
SOLID
 70
               1
 71
               1
 91
        1
 92
        1
 93
        1
 72
               2
 10
-2.3707521892376207
 20
353.13847294663077
 40
4.99969482421875
 50
0.0
 51
360.0
 73
               0
 97
        1
330
72
 75
               0
 76
               1
 98
        1
 10
0.0
 20
0.0
  0
MTEXT
  5
74
100
AcDbEntity
  8
0
390
0
 62
               0
100
AcDbMText
 10
6.7542478107622799
 20
387.01609013413076
 30
0.0
 40
24.432617187500004
 41
0.0
 71
               1
 72
               1
  1
50
  7
ＭＳ ゴシック
 73
               1
 44
0.7828267384257843
  0
POINT
  5
75
100
AcDbEntity
  8
Defpoints
370
               0
390
0
 62
               0
100
AcDbPoint
 10
-2.3707521892376207
 20
453.13847294663077
 30
0.0
  0
POINT
  5
76
100
AcDbEntity
  8
Defpoints
370
               0
390
0
 62
               0
100
AcDbPoint
 10
47.629247810762166
 20
458.13847294663077
 30
0.0
  0
POINT
  5
77
100
AcDbEntity
  8
Defpoints
370
               0
390
0
 62
               0
100
AcDbPoint
 10
47.629247810762166
 20
353.13847294663077
 30
0.0
  0
ENDBLK
  5
78
100
AcDbEntity
  8
FAN70-0207
390
0
100
AcDbBlockEnd
  0
BLOCK
  5
79
100
AcDbEntity
  8
FAN70-0207
390
0
100
AcDbBlockBegin
  2
*D4
 70
               1
 10
0.0
 20
0.0
 30
0.0
  3
*D4
  1

  0
LINE
  5
7A
100
AcDbEntity
  8
0
370
              -2
390
0
  6
Continuous
 62
               0
100
AcDbLine
 10
-2.3707521892376207
 20
428.13847294663077
 30
0.0
 11
-2.3707521892376207
 21
353.13847294663077
 31
0.0
  0
LINE
  5
7B
100
AcDbEntity
  8
0
370
              -2
390
0
  6
Continuous
 62
               0
100
AcDbLine
 10
-277.37075218923769
 20
428.13847294663077
 30
0.0
 11
-277.37075218923769
 21
353.13847294663077
 31
0.0
  0
LINE
  5
7C
100
AcDbEntity
  8
0
370
              -2
390
0
  6
Continuous
 62
               0
100
AcDbLine
 10
-2.3707521892376207
 20
353.13847294663077
 30
0.0
 11
-277.37075218923769
 21
353.13847294663077
 31
0.0
  0
CIRCLE
  5
7D
102
{ACAD_REACTORS
330
7E
102
}
100
AcDbEntity
  8
0
370
              -2
390
0
  6
Continuous
 62
               0
100
AcDbCircle
 10
-2.3707521892376207
 20
353.13847294663077
 30
0.0
 40
4.99969482421875
  0
HATCH
  5
7E
100
AcDbEntity
  8
0
370
              -2
390
0
  6
Continuous
 62
               0
100
AcDbHatch
 10
0.0
 20
0.0
 30
0.0
210
0.0
220
0.0
230
1.0
  2
SOLID
 70
               1
 71
               1
 91
        1
 92
        1
 93
        1
 72
               2
 10
-2.3707521892376207
 20
353.13847294663077
 40
4.99969482421875
 50
0.0
 51
360.0
 73
               0
 97
        1
330
7D
 75
               0
 76
               1
 98
        1
 10
0.0
 20
0.0
  0
CIRCLE
  5
7F
102
{ACAD_REACTORS
330
80
102
}
100
AcDbEntity
  8
0
370
              -2
390
0
  6
Continuous
 62
               0
100
AcDbCircle
 10
-277.37075218923769
 20
353.13847294663077
 30
0.0
 40
4.99969482421875
  0
HATCH
  5
80
100
AcDbEntity
  8
0
370
              -2
390
0
  6
Continuous
 62
               0
100
AcDbHatch
 10
0.0
 20
0.0
 30
0.0
210
0.0
220
0.0
230
1.0
  2
SOLID
 70
               1
 71
               1
 91
        1
 92
        1
 93
        1
 72
               2
 10
-277.37075218923769
 20
353.13847294663077
 40
4.99969482421875
 50
0.0
 51
360.0
 73
               0
 97
        1
330
7F
 75
               0
 76
               1
 98
        1
 10
0.0
 20
0.0
  0
MTEXT
  5
81
100
AcDbEntity
  8
0
390
0
 62
               0
100
AcDbMText
 10
-163.68325387141317
 20
387.01609013413076
 30
0.0
 40
24.432617187500004
 41
0.0
 71
               1
 72
               1
  1
275
  7
ＭＳ ゴシック
 73
               1
 44
0.7828267384257843
  0
POINT
  5
82
100
AcDbEntity
  8
Defpoints
370
               0
390
0
 62
               0
100
AcDbPoint
 10
-277.37075218923769
 20
453.13847294663077
 30
0.0
  0
POINT
  5
83
100
AcDbEntity
  8
Defpoints
370
               0
390
0
 62
               0
100
AcDbPoint
 10
-2.3707521892376207
 20
453.13847294663077
 30
0.0
  0
POINT
  5
84
100
AcDbEntity
  8
Defpoints
370
               0
390
0
 62
               0
100
AcDbPoint
 10
-2.3707521892376207
 20
353.13847294663077
 30
0.0
  0
ENDBLK
  5
85
100
AcDbEntity
  8
FAN70-0207
390
0
100
AcDbBlockEnd
  0
BLOCK
  5
86
100
AcDbEntity
  8
FAN70-0207
390
0
100
AcDbBlockBegin
  2
*D5
 70
               1
 10
0.0
 20
0.0
 30
0.0
  3
*D5
  1

  0
LINE
  5
87
100
AcDbEntity
  8
0
370
              -2
390
0
  6
Continuous
 62
               0
100
AcDbLine
 10
-277.37075218923769
 20
428.13847294663077
 30
0.0
 11
-277.37075218923769
 21
353.13847294663077
 31
0.0
  0
LINE
  5
88
100
AcDbEntity
  8
0
370
              -2
390
0
  6
Continuous
 62
               0
100
AcDbLine
 10
-752.37075218923724
 20
433.13847294663077
 30
0.0
 11
-752.37075218923724
 21
353.13847294663077
 31
0.0
  0
LINE
  5
89
100
AcDbEntity
  8
0
370
              -2
390
0
  6
Continuous
 62
               0
100
AcDbLine
 10
-277.37075218923769
 20
353.13847294663077
 30
0.0
 11
-752.37075218923724
 21
353.13847294663077
 31
0.0
  0
CIRCLE
  5
8A
102
{ACAD_REACTORS
330
8B
102
}
100
AcDbEntity
  8
0
370
              -2
390
0
  6
Continuous
 62
               0
100
AcDbCircle
 10
-277.37075218923769
 20
353.13847294663077
 30
0.0
 40
4.99969482421875
  0
HATCH
  5
8B
100
AcDbEntity
  8
0
370
              -2
390
0
  6
Continuous
 62
               0
100
AcDbHatch
 10
0.0
 20
0.0
 30
0.0
210
0.0
220
0.0
230
1.0
  2
SOLID
 70
               1
 71
               1
 91
        1
 92
        1
 93
        1
 72
               2
 10
-277.37075218923769
 20
353.13847294663077
 40
4.99969482421875
 50
0.0
 51
360.0
 73
               0
 97
        1
330
8A
 75
               0
 76
               1
 98
        1
 10
0.0
 20
0.0
  0
CIRCLE
  5
8C
102
{ACAD_REACTORS
330
8D
102
}
100
AcDbEntity
  8
0
370
              -2
390
0
  6
Continuous
 62
               0
100
AcDbCircle
 10
-752.37075218923724
 20
353.13847294663077
 30
0.0
 40
4.99969482421875
  0
HATCH
  5
8D
100
AcDbEntity
  8
0
370
              -2
390
0
  6
Continuous
 62
               0
100
AcDbHatch
 10
0.0
 20
0.0
 30
0.0
210
0.0
220
0.0
230
1.0
  2
SOLID
 70
               1
 71
               1
 91
        1
 92
        1
 93
        1
 72
               2
 10
-752.37075218923724
 20
353.13847294663077
 40
4.99969482421875
 50
0.0
 51
360.0
 73
               0
 97
        1
330
8C
 75
               0
 76
               1
 98
        1
 10
0.0
 20
0.0
  0
MTEXT
  5
8E
100
AcDbEntity
  8
0
390
0
 62
               0
100
AcDbMText
 10
-538.68325387141294
 20
387.01609013413076
 30
0.0
 40
24.432617187500004
 41
0.0
 71
               1
 72
               1
  1
475
  7
ＭＳ ゴシック
 73
               1
 44
0.7828267384257843
  0
POINT
  5
8F
100
AcDbEntity
  8
Defpoints
370
               0
390
0
 62
               0
100
AcDbPoint
 10
-752.37075218923724
 20
458.13847294663077
 30
0.0
  0
POINT
  5
90
100
AcDbEntity
  8
Defpoints
370
               0
390
0
 62
               0
100
AcDbPoint
 10
-277.37075218923769
 20
453.13847294663077
 30
0.0
  0
POINT
  5
91
100
AcDbEntity
  8
Defpoints
370
               0
390
0
 62
               0
100
AcDbPoint
 10
-277.37075218923769
 20
353.13847294663077
 30
0.0
  0
ENDBLK
  5
92
100
AcDbEntity
  8
FAN70-0207
390
0
100
AcDbBlockEnd
  0
BLOCK
  5
93
100
AcDbEntity
  8
FAN70-0207
390
0
100
AcDbBlockBegin
  2
*D6
 70
               1
 10
0.0
 20
0.0
 30
0.0
  3
*D6
  1

  0
LINE
  5
94
100
AcDbEntity
  8
0
370
              -2
390
0
  6
Continuous
 62
               0
100
AcDbLine
 10
-139.87075218923758
 20
-625.0
 30
0.0
 11
-139.87075218923758
 21
-750.0
 31
0.0
  0
LINE
  5
95
100
AcDbEntity
  8
0
370
              -2
390
0
  6
Continuous
 62
               0
100
AcDbLine
 10
47.629247810762394
 20
-618.89147341101909
 30
0.0
 11
47.629247810762394
 21
-750.0
 31
0.0
  0
LINE
  5
96
100
AcDbEntity
  8
0
370
              -2
390
0
  6
Continuous
 62
               0
100
AcDbLine
 10
-139.87075218923758
 20
-750.0
 30
0.0
 11
47.629247810762394
 21
-750.0
 31
0.0
  0
CIRCLE
  5
97
102
{ACAD_REACTORS
330
98
102
}
100
AcDbEntity
  8
0
370
              -2
390
0
  6
Continuous
 62
               0
100
AcDbCircle
 10
-139.87075218923758
 20
-750.0
 30
0.0
 40
4.99969482421875
  0
HATCH
  5
98
100
AcDbEntity
  8
0
370
              -2
390
0
  6
Continuous
 62
               0
100
AcDbHatch
 10
0.0
 20
0.0
 30
0.0
210
0.0
220
0.0
230
1.0
  2
SOLID
 70
               1
 71
               1
 91
        1
 92
        1
 93
        1
 72
               2
 10
-139.87075218923758
 20
-750.0
 40
4.99969482421875
 50
0.0
 51
360.0
 73
               0
 97
        1
330
97
 75
               0
 76
               1
 98
        1
 10
0.0
 20
0.0
  0
CIRCLE
  5
99
102
{ACAD_REACTORS
330
9A
102
}
100
AcDbEntity
  8
0
370
              -2
390
0
  6
Continuous
 62
               0
100
AcDbCircle
 10
47.629247810762394
 20
-750.0
 30
0.0
 40
4.99969482421875
  0
HATCH
  5
9A
100
AcDbEntity
  8
0
370
              -2
390
0
  6
Continuous
 62
               0
100
AcDbHatch
 10
0.0
 20
0.0
 30
0.0
210
0.0
220
0.0
230
1.0
  2
SOLID
 70
               1
 71
               1
 91
        1
 92
        1
 93
        1
 72
               2
 10
47.629247810762394
 20
-750.0
 40
4.99969482421875
 50
0.0
 51
360.0
 73
               0
 97
        1
330
99
 75
               0
 76
               1
 98
        1
 10
0.0
 20
0.0
  0
MTEXT
  5
9B
100
AcDbEntity
  8
0
390
0
 62
               0
100
AcDbMText
 10
-85.808252189237592
 20
-716.12238281250006
 30
0.0
 40
24.432617187500004
 41
0.0
 71
               1
 72
               1
  1
187.5
  7
ＭＳ ゴシック
 73
               1
 44
0.7828267384257843
  0
POINT
  5
9C
100
AcDbEntity
  8
Defpoints
370
               0
390
0
 62
               0
100
AcDbPoint
 10
47.629247810762394
 20
-593.89147341101909
 30
0.0
  0
POINT
  5
9D
100
AcDbEntity
  8
Defpoints
370
               0
390
0
 62
               0
100
AcDbPoint
 10
-139.87075218923758
 20
-600.0
 30
0.0
  0
POINT
  5
9E
100
AcDbEntity
  8
Defpoints
370
               0
390
0
 62
               0
100
AcDbPoint
 10
-139.87075218923758
 20
-750.0
 30
0.0
  0
ENDBLK
  5
9F
100
AcDbEntity
  8
FAN70-0207
390
0
100
AcDbBlockEnd
  0
BLOCK
  5
A0
100
AcDbEntity
  8
FAN70-0207
390
0
100
AcDbBlockBegin
  2
*D7
 70
               1
 10
0.0
 20
0.0
 30
0.0
  3
*D7
  1

  0
LINE
  5
A1
100
AcDbEntity
  8
0
370
              -2
390
0
  6
Continuous
 62
               0
100
AcDbLine
 10
-13.617465935640411
 20
749.23036280708357
 30
0.0
 11
-67.370752189237635
 21
814.53877950219749
 31
0.0
  0
CIRCLE
  5
A2
102
{ACAD_REACTORS
330
A3
102
}
100
AcDbEntity
  8
0
370
              -2
390
0
  6
Continuous
 62
               0
100
AcDbCircle
 10
-13.617465935640411
 20
749.23036280708357
 30
0.0
 40
4.99969482421875
  0
HATCH
  5
A3
100
AcDbEntity
  8
0
370
              -2
390
0
  6
Continuous
 62
               0
100
AcDbHatch
 10
0.0
 20
0.0
 30
0.0
210
0.0
220
0.0
230
1.0
  2
SOLID
 70
               1
 71
               1
 91
        1
 92
        1
 93
        1
 72
               2
 10
-13.617465935640411
 20
749.23036280708357
 40
4.99969482421875
 50
0.0
 51
360.0
 73
               0
 97
        1
330
A2
 75
               0
 76
               1
 98
        1
 10
0.0
 20
0.0
  0
LINE
  5
A4
100
AcDbEntity
  8
0
370
              -2
390
0
  6
Continuous
 62
               0
100
AcDbLine
 10
-67.370752189237635
 20
814.53877950219749
 30
0.0
 11
-190.87075218923763
 21
814.53877950219749
 31
0.0
  0
MTEXT
  5
A5
100
AcDbEntity
  8
0
390
0
 62
               0
100
AcDbMText
 10
-190.87075218923763
 20
848.41639668969765
 30
0.0
 40
24.432617187500004
 41
0.0
 71
               1
 72
               1
  1
φ36
  7
ＭＳ ゴシック
 73
               1
 44
0.7828267384257843
  0
POINT
  5
A6
100
AcDbEntity
  8
Defpoints
370
               0
390
0
 62
               0
100
AcDbPoint
 10
9.2603566631646288
 20
721.43458555337816
 30
0.0
  0
POINT
  5
A7
100
AcDbEntity
  8
Defpoints
370
               0
390
0
 62
               0
100
AcDbPoint
 10
-13.617465935640411
 20
749.23036280708357
 30
0.0
  0
ENDBLK
  5
A8
100
AcDbEntity
  8
FAN70-0207
390
0
100
AcDbBlockEnd
  0
BLOCK
  5
A9
100
AcDbEntity
  8
FAN70-0207
390
0
100
AcDbBlockBegin
  2
*D8
 70
               1
 10
0.0
 20
0.0
 30
0.0
  3
*D8
  1

  0
LINE
  5
AA
100
AcDbEntity
  8
0
370
              -2
390
0
  6
Continuous
 62
               0
100
AcDbLine
 10
-772.37075218923724
 20
778.13847294663105
 30
0.0
 11
-852.37075218923712
 21
778.13847294663105
 31
0.0
  0
LINE
  5
AB
100
AcDbEntity
  8
0
370
              -2
390
0
  6
Continuous
 62
               0
100
AcDbLine
 10
-777.37075218923724
 20
753.13847294663105
 30
0.0
 11
-852.37075218923712
 21
753.13847294663105
 31
0.0
  0
LINE
  5
AC
100
AcDbEntity
  8
0
370
              -2
390
0
  6
Continuous
 62
               0
100
AcDbLine
 10
-852.37075218923712
 20
778.13847294663105
 30
0.0
 11
-852.37075218923712
 21
753.13847294663105
 31
0.0
  0
CIRCLE
  5
AD
102
{ACAD_REACTORS
330
AE
102
}
100
AcDbEntity
  8
0
370
              -2
390
0
  6
Continuous
 62
               0
100
AcDbCircle
 10
-852.37075218923712
 20
778.13847294663105
 30
0.0
 40
4.99969482421875
  0
HATCH
  5
AE
100
AcDbEntity
  8
0
370
              -2
390
0
  6
Continuous
 62
               0
100
AcDbHatch
 10
0.0
 20
0.0
 30
0.0
210
0.0
220
0.0
230
1.0
  2
SOLID
 70
               1
 71
               1
 91
        1
 92
        1
 93
        1
 72
               2
 10
-852.37075218923712
 20
778.13847294663105
 40
4.99969482421875
 50
0.0
 51
360.0
 73
               0
 97
        1
330
AD
 75
               0
 76
               1
 98
        1
 10
0.0
 20
0.0
  0
CIRCLE
  5
AF
102
{ACAD_REACTORS
330
B0
102
}
100
AcDbEntity
  8
0
370
              -2
390
0
  6
Continuous
 62
               0
100
AcDbCircle
 10
-852.37075218923712
 20
753.13847294663105
 30
0.0
 40
4.99969482421875
  0
HATCH
  5
B0
100
AcDbEntity
  8
0
370
              -2
390
0
  6
Continuous
 62
               0
100
AcDbHatch
 10
0.0
 20
0.0
 30
0.0
210
0.0
220
0.0
230
1.0
  2
SOLID
 70
               1
 71
               1
 91
        1
 92
        1
 93
        1
 72
               2
 10
-852.37075218923712
 20
753.13847294663105
 40
4.99969482421875
 50
0.0
 51
360.0
 73
               0
 97
        1
330
AF
 75
               0
 76
               1
 98
        1
 10
0.0
 20
0.0
  0
MTEXT
  5
B1
100
AcDbEntity
  8
0
390
0
 62
               0
100
AcDbMText
 10
-886.24836937673717
 20
749.76347294663105
 30
0.0
 40
24.432617187500004
 41
0.0
 71
               1
 72
               1
  1
25
  7
ＭＳ ゴシック
 11
0.0
 21
1.0
 31
0.0
 73
               1
 44
0.7828267384257843
  0
POINT
  5
B2
100
AcDbEntity
  8
Defpoints
370
               0
390
0
 62
               0
100
AcDbPoint
 10
-752.37075218923724
 20
753.13847294663105
 30
0.0
  0
POINT
  5
B3
100
AcDbEntity
  8
Defpoints
370
               0
390
0
 62
               0
100
AcDbPoint
 10
-747.37075218923724
 20
778.13847294663105
 30
0.0
  0
POINT
  5
B4
100
AcDbEntity
  8
Defpoints
370
               0
390
0
 62
               0
100
AcDbPoint
 10
-852.37075218923712
 20
778.13847294663105
 30
0.0
  0
ENDBLK
  5
B5
100
AcDbEntity
  8
FAN70-0207
390
0
100
AcDbBlockEnd
  0
BLOCK
  5
B6
100
AcDbEntity
  8
FAN70-0207
390
0
100
AcDbBlockBegin
  2
*D9
 70
               1
 10
0.0
 20
0.0
 30
0.0
  3
*D9
  1

  0
LINE
  5
B7
100
AcDbEntity
  8
0
370
              -2
390
0
  6
Continuous
 62
               0
100
AcDbLine
 10
-777.37075218923724
 20
753.13847294663105
 30
0.0
 11
-852.37075218923712
 21
753.13847294663105
 31
0.0
  0
LINE
  5
B8
100
AcDbEntity
  8
0
370
              -2
390
0
  6
Continuous
 62
               0
100
AcDbLine
 10
-777.37075218923724
 20
478.13847294663077
 30
0.0
 11
-852.37075218923712
 21
478.13847294663077
 31
0.0
  0
LINE
  5
B9
100
AcDbEntity
  8
0
370
              -2
390
0
  6
Continuous
 62
               0
100
AcDbLine
 10
-852.37075218923712
 20
753.13847294663105
 30
0.0
 11
-852.37075218923712
 21
478.13847294663077
 31
0.0
  0
CIRCLE
  5
BA
102
{ACAD_REACTORS
330
BB
102
}
100
AcDbEntity
  8
0
370
              -2
390
0
  6
Continuous
 62
               0
100
AcDbCircle
 10
-852.37075218923712
 20
753.13847294663105
 30
0.0
 40
4.99969482421875
  0
HATCH
  5
BB
100
AcDbEntity
  8
0
370
              -2
390
0
  6
Continuous
 62
               0
100
AcDbHatch
 10
0.0
 20
0.0
 30
0.0
210
0.0
220
0.0
230
1.0
  2
SOLID
 70
               1
 71
               1
 91
        1
 92
        1
 93
        1
 72
               2
 10
-852.37075218923712
 20
753.13847294663105
 40
4.99969482421875
 50
0.0
 51
360.0
 73
               0
 97
        1
330
BA
 75
               0
 76
               1
 98
        1
 10
0.0
 20
0.0
  0
CIRCLE
  5
BC
102
{ACAD_REACTORS
330
BD
102
}
100
AcDbEntity
  8
0
370
              -2
390
0
  6
Continuous
 62
               0
100
AcDbCircle
 10
-852.37075218923712
 20
478.13847294663077
 30
0.0
 40
4.99969482421875
  0
HATCH
  5
BD
100
AcDbEntity
  8
0
370
              -2
390
0
  6
Continuous
 62
               0
100
AcDbHatch
 10
0.0
 20
0.0
 30
0.0
210
0.0
220
0.0
230
1.0
  2
SOLID
 70
               1
 71
               1
 91
        1
 92
        1
 93
        1
 72
               2
 10
-852.37075218923712
 20
478.13847294663077
 40
4.99969482421875
 50
0.0
 51
360.0
 73
               0
 97
        1
330
BC
 75
               0
 76
               1
 98
        1
 10
0.0
 20
0.0
  0
MTEXT
  5
BE
100
AcDbEntity
  8
0
390
0
 62
               0
100
AcDbMText
 10
-886.24836937673717
 20
608.72627782002201
 30
0.0
 40
24.432617187500004
 41
0.0
 71
               1
 72
               1
  1
275
  7
ＭＳ ゴシック
 11
0.0
 21
1.0
 31
0.0
 73
               1
 44
0.7828267384257843
  0
POINT
  5
BF
100
AcDbEntity
  8
Defpoints
370
               0
390
0
 62
               0
100
AcDbPoint
 10
-752.37075218923724
 20
478.13847294663077
 30
0.0
  0
POINT
  5
C0
100
AcDbEntity
  8
Defpoints
370
               0
390
0
 62
               0
100
AcDbPoint
 10
-752.37075218923724
 20
753.13847294663105
 30
0.0
  0
POINT
  5
C1
100
AcDbEntity
  8
Defpoints
370
               0
390
0
 62
               0
100
AcDbPoint
 10
-852.37075218923712
 20
753.13847294663105
 30
0.0
  0
ENDBLK
  5
C2
100
AcDbEntity
  8
FAN70-0207
390
0
100
AcDbBlockEnd
  0
BLOCK
  5
C3
100
AcDbEntity
  8
FAN70-0207
390
0
100
AcDbBlockBegin
  2
*D10
 70
               1
 10
0.0
 20
0.0
 30
0.0
  3
*D10
  1

  0
LINE
  5
C4
100
AcDbEntity
  8
0
370
              -2
390
0
  6
Continuous
 62
               0
100
AcDbLine
 10
-777.37075218923724
 20
478.13847294663077
 30
0.0
 11
-852.37075218923712
 21
478.13847294663077
 31
0.0
  0
LINE
  5
C5
100
AcDbEntity
  8
0
370
              -2
390
0
  6
Continuous
 62
               0
100
AcDbLine
 10
-772.37075218923724
 20
453.13847294663077
 30
0.0
 11
-852.37075218923712
 21
453.13847294663077
 31
0.0
  0
LINE
  5
C6
100
AcDbEntity
  8
0
370
              -2
390
0
  6
Continuous
 62
               0
100
AcDbLine
 10
-852.37075218923712
 20
478.13847294663077
 30
0.0
 11
-852.37075218923712
 21
453.13847294663077
 31
0.0
  0
CIRCLE
  5
C7
102
{ACAD_REACTORS
330
C8
102
}
100
AcDbEntity
  8
0
370
              -2
390
0
  6
Continuous
 62
               0
100
AcDbCircle
 10
-852.37075218923712
 20
478.13847294663077
 30
0.0
 40
4.99969482421875
  0
HATCH
  5
C8
100
AcDbEntity
  8
0
370
              -2
390
0
  6
Continuous
 62
               0
100
AcDbHatch
 10
0.0
 20
0.0
 30
0.0
210
0.0
220
0.0
230
1.0
  2
SOLID
 70
               1
 71
               1
 91
        1
 92
        1
 93
        1
 72
               2
 10
-852.37075218923712
 20
478.13847294663077
 40
4.99969482421875
 50
0.0
 51
360.0
 73
               0
 97
        1
330
C7
 75
               0
 76
               1
 98
        1
 10
0.0
 20
0.0
  0
CIRCLE
  5
C9
102
{ACAD_REACTORS
330
CA
102
}
100
AcDbEntity
  8
0
370
              -2
390
0
  6
Continuous
 62
               0
100
AcDbCircle
 10
-852.37075218923712
 20
453.13847294663077
 30
0.0
 40
4.99969482421875
  0
HATCH
  5
CA
100
AcDbEntity
  8
0
370
              -2
390
0
  6
Continuous
 62
               0
100
AcDbHatch
 10
0.0
 20
0.0
 30
0.0
210
0.0
220
0.0
230
1.0
  2
SOLID
 70
               1
 71
               1
 91
        1
 92
        1
 93
        1
 72
               2
 10
-852.37075218923712
 20
453.13847294663077
 40
4.99969482421875
 50
0.0
 51
360.0
 73
               0
 97
        1
330
C9
 75
               0
 76
               1
 98
        1
 10
0.0
 20
0.0
  0
MTEXT
  5
CB
100
AcDbEntity
  8
0
390
0
 62
               0
100
AcDbMText
 10
-886.24836937673717
 20
449.76347294663077
 30
0.0
 40
24.432617187500004
 41
0.0
 71
               1
 72
               1
  1
25
  7
ＭＳ ゴシック
 11
0.0
 21
1.0
 31
0.0
 73
               1
 44
0.7828267384257843
  0
POINT
  5
CC
100
AcDbEntity
  8
Defpoints
370
               0
390
0
 62
               0
100
AcDbPoint
 10
-747.37075218923724
 20
453.13847294663077
 30
0.0
  0
POINT
  5
CD
100
AcDbEntity
  8
Defpoints
370
               0
390
0
 62
               0
100
AcDbPoint
 10
-752.37075218923724
 20
478.13847294663077
 30
0.0
  0
POINT
  5
CE
100
AcDbEntity
  8
Defpoints
370
               0
390
0
 62
               0
100
AcDbPoint
 10
-852.37075218923712
 20
478.13847294663077
 30
0.0
  0
ENDBLK
  5
CF
100
AcDbEntity
  8
FAN70-0207
390
0
100
AcDbBlockEnd
  0
BLOCK
  5
D0
100
AcDbEntity
  8
FAN70-0207
390
0
100
AcDbBlockBegin
  2
*D11
 70
               1
 10
0.0
 20
0.0
 30
0.0
  3
*D11
  1

  0
LINE
  5
D1
100
AcDbEntity
  8
0
370
              -2
390
0
  6
Continuous
 62
               0
100
AcDbLine
 10
40.821445363762109
 20
734.51605904360531
 30
0.0
 11
147.62924781076222
 21
734.51605904360531
 31
0.0
  0
LINE
  5
D2
100
AcDbEntity
  8
0
370
              -2
390
0
  6
Continuous
 62
               0
100
AcDbLine
 10
67.629247810762394
 20
777.51605904360531
 30
0.0
 11
147.62924781076222
 21
777.51605904360531
 31
0.0
  0
LINE
  5
D3
100
AcDbEntity
  8
0
370
              -2
390
0
  6
Continuous
 62
               0
100
AcDbLine
 10
147.62924781076222
 20
734.51605904360531
 30
0.0
 11
147.62924781076222
 21
687.97236436557205
 31
0.0
  0
LINE
  5
D4
100
AcDbEntity
  8
0
370
              -2
390
0
  6
Continuous
 62
               0
100
AcDbLine
 10
147.62924781076222
 20
734.51605904360531
 30
0.0
 11
147.62924781076222
 21
777.51605904360531
 31
0.0
  0
CIRCLE
  5
D5
102
{ACAD_REACTORS
330
D6
102
}
100
AcDbEntity
  8
0
370
              -2
390
0
  6
Continuous
 62
               0
100
AcDbCircle
 10
147.62924781076222
 20
734.51605904360531
 30
0.0
 40
4.99969482421875
  0
HATCH
  5
D6
100
AcDbEntity
  8
0
370
              -2
390
0
  6
Continuous
 62
               0
100
AcDbHatch
 10
0.0
 20
0.0
 30
0.0
210
0.0
220
0.0
230
1.0
  2
SOLID
 70
               1
 71
               1
 91
        1
 92
        1
 93
        1
 72
               2
 10
147.62924781076222
 20
734.51605904360531
 40
4.99969482421875
 50
0.0
 51
360.0
 73
               0
 97
        1
330
D5
 75
               0
 76
               1
 98
        1
 10
0.0
 20
0.0
  0
CIRCLE
  5
D7
102
{ACAD_REACTORS
330
D8
102
}
100
AcDbEntity
  8
0
370
              -2
390
0
  6
Continuous
 62
               0
100
AcDbCircle
 10
147.62924781076222
 20
777.51605904360531
 30
0.0
 40
4.99969482421875
  0
HATCH
  5
D8
100
AcDbEntity
  8
0
370
              -2
390
0
  6
Continuous
 62
               0
100
AcDbHatch
 10
0.0
 20
0.0
 30
0.0
210
0.0
220
0.0
230
1.0
  2
SOLID
 70
               1
 71
               1
 91
        1
 92
        1
 93
        1
 72
               2
 10
147.62924781076222
 20
777.51605904360531
 40
4.99969482421875
 50
0.0
 51
360.0
 73
               0
 97
        1
330
D7
 75
               0
 76
               1
 98
        1
 10
0.0
 20
0.0
  0
MTEXT
  5
D9
100
AcDbEntity
  8
0
390
0
 62
               0
100
AcDbMText
 10
113.75163062326223
 20
687.97236436557205
 30
0.0
 40
24.432617187500004
 41
0.0
 71
               1
 72
               1
  1
43
  7
ＭＳ ゴシック
 11
0.0
 21
1.0
 31
0.0
 73
               1
 44
0.7828267384257843
  0
POINT
  5
DA
100
AcDbEntity
  8
Defpoints
370
               0
390
0
 62
               0
100
AcDbPoint
 10
42.629247810762394
 20
777.51605904360531
 30
0.0
  0
POINT
  5
DB
100
AcDbEntity
  8
Defpoints
370
               0
390
0
 62
               0
100
AcDbPoint
 10
15.821445363762109
 20
734.51605904360531
 30
0.0
  0
POINT
  5
DC
100
AcDbEntity
  8
Defpoints
370
               0
390
0
 62
               0
100
AcDbPoint
 10
147.62924781076222
 20
734.51605904360531
 30
0.0
  0
ENDBLK
  5
DD
100
AcDbEntity
  8
FAN70-0207
390
0
100
AcDbBlockEnd
  0
BLOCK
  5
DE
100
AcDbEntity
  8
FAN70-0207
390
0
100
AcDbBlockBegin
  2
*D12
 70
               1
 10
0.0
 20
0.0
 30
0.0
  3
*D12
  1

  0
LINE
  5
DF
100
AcDbEntity
  8
0
370
              -2
390
0
  6
Continuous
 62
               0
100
AcDbLine
 10
67.629247810762394
 20
778.13847294663083
 30
0.0
 11
197.62924781076217
 21
778.13847294663083
 31
0.0
  0
LINE
  5
E0
100
AcDbEntity
  8
0
370
              -2
390
0
  6
Continuous
 62
               0
100
AcDbLine
 10
67.629247810762166
 20
453.13847294663077
 30
0.0
 11
197.62924781076217
 21
453.13847294663077
 31
0.0
  0
LINE
  5
E1
100
AcDbEntity
  8
0
370
              -2
390
0
  6
Continuous
 62
               0
100
AcDbLine
 10
197.62924781076217
 20
778.13847294663083
 30
0.0
 11
197.62924781076217
 21
453.13847294663077
 31
0.0
  0
CIRCLE
  5
E2
102
{ACAD_REACTORS
330
E3
102
}
100
AcDbEntity
  8
0
370
              -2
390
0
  6
Continuous
 62
               0
100
AcDbCircle
 10
197.62924781076217
 20
778.13847294663083
 30
0.0
 40
4.99969482421875
  0
HATCH
  5
E3
100
AcDbEntity
  8
0
370
              -2
390
0
  6
Continuous
 62
               0
100
AcDbHatch
 10
0.0
 20
0.0
 30
0.0
210
0.0
220
0.0
230
1.0
  2
SOLID
 70
               1
 71
               1
 91
        1
 92
        1
 93
        1
 72
               2
 10
197.62924781076217
 20
778.13847294663083
 40
4.99969482421875
 50
0.0
 51
360.0
 73
               0
 97
        1
330
E2
 75
               0
 76
               1
 98
        1
 10
0.0
 20
0.0
  0
CIRCLE
  5
E4
102
{ACAD_REACTORS
330
E5
102
}
100
AcDbEntity
  8
0
370
              -2
390
0
  6
Continuous
 62
               0
100
AcDbCircle
 10
197.62924781076217
 20
453.13847294663077
 30
0.0
 40
4.99969482421875
  0
HATCH
  5
E5
100
AcDbEntity
  8
0
370
              -2
390
0
  6
Continuous
 62
               0
100
AcDbHatch
 10
0.0
 20
0.0
 30
0.0
210
0.0
220
0.0
230
1.0
  2
SOLID
 70
               1
 71
               1
 91
        1
 92
        1
 93
        1
 72
               2
 10
197.62924781076217
 20
453.13847294663077
 40
4.99969482421875
 50
0.0
 51
360.0
 73
               0
 97
        1
330
E4
 75
               0
 76
               1
 98
        1
 10
0.0
 20
0.0
  0
MTEXT
  5
E6
100
AcDbEntity
  8
0
390
0
 62
               0
100
AcDbMText
 10
163.75163062326217
 20
591.82597126445535
 30
0.0
 40
24.432617187500004
 41
0.0
 71
               1
 72
               1
  1
325
  7
ＭＳ ゴシック
 11
0.0
 21
1.0
 31
0.0
 73
               1
 44
0.7828267384257843
  0
POINT
  5
E7
100
AcDbEntity
  8
Defpoints
370
               0
390
0
 62
               0
100
AcDbPoint
 10
42.629247810762166
 20
453.13847294663077
 30
0.0
  0
POINT
  5
E8
100
AcDbEntity
  8
Defpoints
370
               0
390
0
 62
               0
100
AcDbPoint
 10
42.629247810762394
 20
778.13847294663083
 30
0.0
  0
POINT
  5
E9
100
AcDbEntity
  8
Defpoints
370
               0
390
0
 62
               0
100
AcDbPoint
 10
197.62924781076217
 20
778.13847294663083
 30
0.0
  0
ENDBLK
  5
EA
100
AcDbEntity
  8
FAN70-0207
390
0
100
AcDbBlockEnd
  0
BLOCK
  5
EB
100
AcDbEntity
  8
FAN70-0207
390
0
100
AcDbBlockBegin
  2
*D13
 70
               1
 10
0.0
 20
0.0
 30
0.0
  3
*D13
  1

  0
LINE
  5
EC
100
AcDbEntity
  8
0
370
              -2
390
0
  6
Continuous
 62
               0
100
AcDbLine
 10
14.222921088525197
 20
716.46473467466171
 30
0.0
 11
46.34075268943073
 21
679.51739589253702
 31
0.0
  0
LINE
  5
ED
100
AcDbEntity
  8
0
370
              -2
390
0
  6
Continuous
 62
               0
100
AcDbLine
 10
-123.51157730212805
 20
596.7339618838912
 30
0.0
 11
-91.393745701222514
 21
559.78662310176651
 31
0.0
  0
LINE
  5
EE
100
AcDbEntity
  8
0
370
              -2
390
0
  6
Continuous
 62
               0
100
AcDbLine
 10
46.34075268943073
 20
679.51739589253702
 30
0.0
 11
-91.393745701222514
 21
559.78662310176651
 31
0.0
  0
CIRCLE
  5
EF
102
{ACAD_REACTORS
330
F0
102
}
100
AcDbEntity
  8
0
370
              -2
390
0
  6
Continuous
 62
               0
100
AcDbCircle
 10
46.34075268943073
 20
679.51739589253702
 30
0.0
 40
4.99969482421875
  0
HATCH
  5
F0
100
AcDbEntity
  8
0
370
              -2
390
0
  6
Continuous
 62
               0
100
AcDbHatch
 10
0.0
 20
0.0
 30
0.0
210
0.0
220
0.0
230
1.0
  2
SOLID
 70
               1
 71
               1
 91
        1
 92
        1
 93
        1
 72
               2
 10
46.34075268943073
 20
679.51739589253702
 40
4.99969482421875
 50
0.0
 51
360.0
 73
               0
 97
        1
330
EF
 75
               0
 76
               1
 98
        1
 10
0.0
 20
0.0
  0
CIRCLE
  5
F1
102
{ACAD_REACTORS
330
F2
102
}
100
AcDbEntity
  8
0
370
              -2
390
0
  6
Continuous
 62
               0
100
AcDbCircle
 10
-91.393745701222514
 20
559.78662310176651
 30
0.0
 40
4.99969482421875
  0
HATCH
  5
F2
100
AcDbEntity
  8
0
370
              -2
390
0
  6
Continuous
 62
               0
100
AcDbHatch
 10
0.0
 20
0.0
 30
0.0
210
0.0
220
0.0
230
1.0
  2
SOLID
 70
               1
 71
               1
 91
        1
 92
        1
 93
        1
 72
               2
 10
-91.393745701222514
 20
559.78662310176651
 40
4.99969482421875
 50
0.0
 51
360.0
 73
               0
 97
        1
330
F1
 75
               0
 76
               1
 98
        1
 10
0.0
 20
0.0
  0
MTEXT
  5
F3
100
AcDbEntity
  8
0
390
0
 62
               0
100
AcDbMText
 10
-74.704749607530516
 20
619.18242903061582
 30
0.0
 40
24.432617187500004
 41
0.0
 71
               1
 72
               1
  1
182.5
  7
ＭＳ ゴシック
 11
0.7547095802227577
 21
0.6560590289905238
 31
0.0
 73
               1
 44
0.7828267384257843
  0
POINT
  5
F4
100
AcDbEntity
  8
Defpoints
370
               0
390
0
 62
               0
100
AcDbPoint
 10
-139.91305302689113
 20
615.60170138946
 30
0.0
  0
POINT
  5
F5
100
AcDbEntity
  8
Defpoints
370
               0
390
0
 62
               0
100
AcDbPoint
 10
-2.1785546362378909
 20
735.33247418023075
 30
0.0
  0
POINT
  5
F6
100
AcDbEntity
  8
Defpoints
370
               0
390
0
 62
               0
100
AcDbPoint
 10
46.34075268943073
 20
679.51739589253702
 30
0.0
  0
ENDBLK
  5
F7
100
AcDbEntity
  8
FAN70-0207
390
0
100
AcDbBlockEnd
  0
BLOCK
  5
F8
100
AcDbEntity
  8
FAN70-0207
390
0
100
AcDbBlockBegin
  2
*D14
 70
               1
 10
0.0
 20
0.0
 30
0.0
  3
*D14
  1

  0
LINE
  5
F9
100
AcDbEntity
  8
0
370
              -2
390
0
  6
Continuous
 62
               0
100
AcDbLine
 10
47.629247810762394
 20
798.13847294663083
 30
0.0
 11
47.629247810762394
 21
878.0
 31
0.0
  0
LINE
  5
FA
100
AcDbEntity
  8
0
370
              -2
390
0
  6
Continuous
 62
               0
100
AcDbLine
 10
-2.3707521892376064
 20
778.33247418023075
 30
0.0
 11
-2.3707521892376064
 21
878.0
 31
0.0
  0
LINE
  5
FB
100
AcDbEntity
  8
0
370
              -2
390
0
  6
Continuous
 62
               0
100
AcDbLine
 10
47.629247810762394
 20
878.0
 30
0.0
 11
-2.3707521892376064
 21
878.0
 31
0.0
  0
CIRCLE
  5
FC
102
{ACAD_REACTORS
330
FD
102
}
100
AcDbEntity
  8
0
370
              -2
390
0
  6
Continuous
 62
               0
100
AcDbCircle
 10
47.629247810762394
 20
878.0
 30
0.0
 40
4.99969482421875
  0
HATCH
  5
FD
100
AcDbEntity
  8
0
370
              -2
390
0
  6
Continuous
 62
               0
100
AcDbHatch
 10
0.0
 20
0.0
 30
0.0
210
0.0
220
0.0
230
1.0
  2
SOLID
 70
               1
 71
               1
 91
        1
 92
        1
 93
        1
 72
               2
 10
47.629247810762394
 20
878.0
 40
4.99969482421875
 50
0.0
 51
360.0
 73
               0
 97
        1
330
FC
 75
               0
 76
               1
 98
        1
 10
0.0
 20
0.0
  0
CIRCLE
  5
FE
102
{ACAD_REACTORS
330
FF
102
}
100
AcDbEntity
  8
0
370
              -2
390
0
  6
Continuous
 62
               0
100
AcDbCircle
 10
-2.3707521892376064
 20
878.0
 30
0.0
 40
4.99969482421875
  0
HATCH
  5
FF
100
AcDbEntity
  8
0
370
              -2
390
0
  6
Continuous
 62
               0
100
AcDbHatch
 10
0.0
 20
0.0
 30
0.0
210
0.0
220
0.0
230
1.0
  2
SOLID
 70
               1
 71
               1
 91
        1
 92
        1
 93
        1
 72
               2
 10
-2.3707521892376064
 20
878.0
 40
4.99969482421875
 50
0.0
 51
360.0
 73
               0
 97
        1
330
FE
 75
               0
 76
               1
 98
        1
 10
0.0
 20
0.0
  0
MTEXT
  5
100
100
AcDbEntity
  8
0
390
0
 62
               0
100
AcDbMText
 10
6.125
 20
911.87761718749994
 30
0.0
 40
24.432617187500004
 41
0.0
 71
               1
 72
               1
  1
50
  7
ＭＳ ゴシック
 73
               1
 44
0.7828267384257843
  0
POINT
  5
101
100
AcDbEntity
  8
Defpoints
370
               0
390
0
 62
               0
100
AcDbPoint
 10
-2.3707521892376064
 20
753.33247418023075
 30
0.0
  0
POINT
  5
102
100
AcDbEntity
  8
Defpoints
370
               0
390
0
 62
               0
100
AcDbPoint
 10
47.629247810762394
 20
773.13847294663083
 30
0.0
  0
POINT
  5
103
100
AcDbEntity
  8
Defpoints
370
               0
390
0
 62
               0
100
AcDbPoint
 10
47.629247810762394
 20
878.0
 30
0.0
  0
ENDBLK
  5
104
100
AcDbEntity
  8
FAN70-0207
390
0
100
AcDbBlockEnd
  0
BLOCK
  5
105
100
AcDbEntity
  8
FAN70-0207
390
0
100
AcDbBlockBegin
  2
*D15
 70
               1
 10
0.0
 20
0.0
 30
0.0
  3
*D15
  1

  0
LINE
  5
106
100
AcDbEntity
  8
0
370
              -2
390
0
  6
Continuous
 62
               0
100
AcDbLine
 10
-212.37075218923769
 20
-475.00000000000011
 30
0.0
 11
-212.37075218923769
 21
-340.00000000000011
 31
0.0
  0
LINE
  5
107
100
AcDbEntity
  8
0
370
              -2
390
0
  6
Continuous
 62
               0
100
AcDbLine
 10
-492.37075218923792
 20
-475.00000000000011
 30
0.0
 11
-492.37075218923792
 21
-340.00000000000011
 31
0.0
  0
LINE
  5
108
100
AcDbEntity
  8
0
370
              -2
390
0
  6
Continuous
 62
               0
100
AcDbLine
 10
-212.37075218923769
 20
-340.00000000000011
 30
0.0
 11
-492.37075218923792
 21
-340.00000000000011
 31
0.0
  0
CIRCLE
  5
109
102
{ACAD_REACTORS
330
10A
102
}
100
AcDbEntity
  8
0
370
              -2
390
0
  6
Continuous
 62
               0
100
AcDbCircle
 10
-212.37075218923769
 20
-340.00000000000011
 30
0.0
 40
4.99969482421875
  0
HATCH
  5
10A
100
AcDbEntity
  8
0
370
              -2
390
0
  6
Continuous
 62
               0
100
AcDbHatch
 10
0.0
 20
0.0
 30
0.0
210
0.0
220
0.0
230
1.0
  2
SOLID
 70
               1
 71
               1
 91
        1
 92
        1
 93
        1
 72
               2
 10
-212.37075218923769
 20
-340.00000000000011
 40
4.99969482421875
 50
0.0
 51
360.0
 73
               0
 97
        1
330
109
 75
               0
 76
               1
 98
        1
 10
0.0
 20
0.0
  0
CIRCLE
  5
10B
102
{ACAD_REACTORS
330
10C
102
}
100
AcDbEntity
  8
0
370
              -2
390
0
  6
Continuous
 62
               0
100
AcDbCircle
 10
-492.37075218923792
 20
-340.00000000000011
 30
0.0
 40
4.99969482421875
  0
HATCH
  5
10C
100
AcDbEntity
  8
0
370
              -2
390
0
  6
Continuous
 62
               0
100
AcDbHatch
 10
0.0
 20
0.0
 30
0.0
210
0.0
220
0.0
230
1.0
  2
SOLID
 70
               1
 71
               1
 91
        1
 92
        1
 93
        1
 72
               2
 10
-492.37075218923792
 20
-340.00000000000011
 40
4.99969482421875
 50
0.0
 51
360.0
 73
               0
 97
        1
330
10B
 75
               0
 76
               1
 98
        1
 10
0.0
 20
0.0
  0
MTEXT
  5
10D
100
AcDbEntity
  8
0
390
0
 62
               0
100
AcDbMText
 10
-376.18325387141329
 20
-306.12238281250012
 30
0.0
 40
24.432617187500004
 41
0.0
 71
               1
 72
               1
  1
280
  7
ＭＳ ゴシック
 73
               1
 44
0.7828267384257843
  0
POINT
  5
10E
100
AcDbEntity
  8
Defpoints
370
               0
390
0
 62
               0
100
AcDbPoint
 10
-492.37075218923792
 20
-500.00000000000011
 30
0.0
  0
POINT
  5
10F
100
AcDbEntity
  8
Defpoints
370
               0
390
0
 62
               0
100
AcDbPoint
 10
-212.37075218923769
 20
-500.00000000000011
 30
0.0
  0
POINT
  5
110
100
AcDbEntity
  8
Defpoints
370
               0
390
0
 62
               0
100
AcDbPoint
 10
-212.37075218923769
 20
-340.00000000000011
 30
0.0
  0
ENDBLK
  5
111
100
AcDbEntity
  8
FAN70-0207
390
0
100
AcDbBlockEnd
  0
BLOCK
  5
112
100
AcDbEntity
  8
FAN70-0207
390
0
100
AcDbBlockBegin
  2
*D16
 70
               1
 10
0.0
 20
0.0
 30
0.0
  3
*D16
  1

  0
LINE
  5
113
100
AcDbEntity
  8
0
370
              -2
390
0
  6
Continuous
 62
               0
100
AcDbLine
 10
-709.87075218923724
 20
-429.96122049780229
 30
0.0
 11
-709.87075218923724
 21
-263.4612204978024
 31
0.0
  0
LINE
  5
114
100
AcDbEntity
  8
0
370
              -2
390
0
  6
Continuous
 62
               0
100
AcDbLine
 10
5.1292478107623083
 20
-429.96122049780229
 30
0.0
 11
5.1292478107623083
 21
-263.4612204978024
 31
0.0
  0
LINE
  5
115
100
AcDbEntity
  8
0
370
              -2
390
0
  6
Continuous
 62
               0
100
AcDbLine
 10
-709.87075218923724
 20
-263.4612204978024
 30
0.0
 11
5.1292478107623083
 21
-263.4612204978024
 31
0.0
  0
CIRCLE
  5
116
102
{ACAD_REACTORS
330
117
102
}
100
AcDbEntity
  8
0
370
              -2
390
0
  6
Continuous
 62
               0
100
AcDbCircle
 10
-709.87075218923724
 20
-263.4612204978024
 30
0.0
 40
4.99969482421875
  0
HATCH
  5
117
100
AcDbEntity
  8
0
370
              -2
390
0
  6
Continuous
 62
               0
100
AcDbHatch
 10
0.0
 20
0.0
 30
0.0
210
0.0
220
0.0
230
1.0
  2
SOLID
 70
               1
 71
               1
 91
        1
 92
        1
 93
        1
 72
               2
 10
-709.87075218923724
 20
-263.4612204978024
 40
4.99969482421875
 50
0.0
 51
360.0
 73
               0
 97
        1
330
116
 75
               0
 76
               1
 98
        1
 10
0.0
 20
0.0
  0
CIRCLE
  5
118
102
{ACAD_REACTORS
330
119
102
}
100
AcDbEntity
  8
0
370
              -2
390
0
  6
Continuous
 62
               0
100
AcDbCircle
 10
5.1292478107623083
 20
-263.4612204978024
 30
0.0
 40
4.99969482421875
  0
HATCH
  5
119
100
AcDbEntity
  8
0
370
              -2
390
0
  6
Continuous
 62
               0
100
AcDbHatch
 10
0.0
 20
0.0
 30
0.0
210
0.0
220
0.0
230
1.0
  2
SOLID
 70
               1
 71
               1
 91
        1
 92
        1
 93
        1
 72
               2
 10
5.1292478107623083
 20
-263.4612204978024
 40
4.99969482421875
 50
0.0
 51
360.0
 73
               0
 97
        1
330
118
 75
               0
 76
               1
 98
        1
 10
0.0
 20
0.0
  0
MTEXT
  5
11A
100
AcDbEntity
  8
0
390
0
 62
               0
100
AcDbMText
 10
-376.18325387141294
 20
-229.58360331030241
 30
0.0
 40
24.432617187500004
 41
0.0
 71
               1
 72
               1
  1
715
  7
ＭＳ ゴシック
 73
               1
 44
0.7828267384257843
  0
POINT
  5
11B
100
AcDbEntity
  8
Defpoints
370
               0
390
0
 62
               0
100
AcDbPoint
 10
5.1292478107623083
 20
-454.96122049780229
 30
0.0
  0
POINT
  5
11C
100
AcDbEntity
  8
Defpoints
370
               0
390
0
 62
               0
100
AcDbPoint
 10
-709.87075218923724
 20
-454.96122049780229
 30
0.0
  0
POINT
  5
11D
100
AcDbEntity
  8
Defpoints
370
               0
390
0
 62
               0
100
AcDbPoint
 10
-709.87075218923724
 20
-263.4612204978024
 30
0.0
  0
ENDBLK
  5
11E
100
AcDbEntity
  8
FAN70-0207
390
0
100
AcDbBlockEnd
  0
BLOCK
  5
11F
100
AcDbEntity
  8
FAN70-0207
390
0
100
AcDbBlockBegin
  2
*D17
 70
               1
 10
0.0
 20
0.0
 30
0.0
  3
*D17
  1

  0
LINE
  5
120
100
AcDbEntity
  8
0
370
              -2
390
0
  6
Continuous
 62
               0
100
AcDbLine
 10
-754.87075218923724
 20
-464.96122049780229
 30
0.0
 11
-824.28136345609505
 21
-464.96122049780229
 31
0.0
  0
LINE
  5
121
100
AcDbEntity
  8
0
370
              -2
390
0
  6
Continuous
 62
               0
100
AcDbLine
 10
-754.87075218923724
 20
-574.96122049780229
 30
0.0
 11
-824.28136345609505
 21
-574.96122049780229
 31
0.0
  0
LINE
  5
122
100
AcDbEntity
  8
0
370
              -2
390
0
  6
Continuous
 62
               0
100
AcDbLine
 10
-824.28136345609505
 20
-464.96122049780229
 30
0.0
 11
-824.28136345609505
 21
-574.96122049780229
 31
0.0
  0
CIRCLE
  5
123
102
{ACAD_REACTORS
330
124
102
}
100
AcDbEntity
  8
0
370
              -2
390
0
  6
Continuous
 62
               0
100
AcDbCircle
 10
-824.28136345609505
 20
-464.96122049780229
 30
0.0
 40
4.99969482421875
  0
HATCH
  5
124
100
AcDbEntity
  8
0
370
              -2
390
0
  6
Continuous
 62
               0
100
AcDbHatch
 10
0.0
 20
0.0
 30
0.0
210
0.0
220
0.0
230
1.0
  2
SOLID
 70
               1
 71
               1
 91
        1
 92
        1
 93
        1
 72
               2
 10
-824.28136345609505
 20
-464.96122049780229
 40
4.99969482421875
 50
0.0
 51
360.0
 73
               0
 97
        1
330
123
 75
               0
 76
               1
 98
        1
 10
0.0
 20
0.0
  0
CIRCLE
  5
125
102
{ACAD_REACTORS
330
126
102
}
100
AcDbEntity
  8
0
370
              -2
390
0
  6
Continuous
 62
               0
100
AcDbCircle
 10
-824.28136345609505
 20
-574.96122049780229
 30
0.0
 40
4.99969482421875
  0
HATCH
  5
126
100
AcDbEntity
  8
0
370
              -2
390
0
  6
Continuous
 62
               0
100
AcDbHatch
 10
0.0
 20
0.0
 30
0.0
210
0.0
220
0.0
230
1.0
  2
SOLID
 70
               1
 71
               1
 91
        1
 92
        1
 93
        1
 72
               2
 10
-824.28136345609505
 20
-574.96122049780229
 40
4.99969482421875
 50
0.0
 51
360.0
 73
               0
 97
        1
330
125
 75
               0
 76
               1
 98
        1
 10
0.0
 20
0.0
  0
MTEXT
  5
127
100
AcDbEntity
  8
0
390
0
 62
               0
100
AcDbMText
 10
-858.1589806435951
 20
-543.77372217997777
 30
0.0
 40
24.432617187500004
 41
0.0
 71
               1
 72
               1
  1
110
  7
ＭＳ ゴシック
 11
0.0
 21
1.0
 31
0.0
 73
               1
 44
0.7828267384257843
  0
POINT
  5
128
100
AcDbEntity
  8
Defpoints
370
               0
390
0
 62
               0
100
AcDbPoint
 10
-729.87075218923724
 20
-574.96122049780229
 30
0.0
  0
POINT
  5
129
100
AcDbEntity
  8
Defpoints
370
               0
390
0
 62
               0
100
AcDbPoint
 10
-729.87075218923724
 20
-464.96122049780229
 30
0.0
  0
POINT
  5
12A
100
AcDbEntity
  8
Defpoints
370
               0
390
0
 62
               0
100
AcDbPoint
 10
-824.28136345609505
 20
-464.96122049780229
 30
0.0
  0
ENDBLK
  5
12B
100
AcDbEntity
  8
FAN70-0207
390
0
100
AcDbBlockEnd
  0
BLOCK
  5
12C
100
AcDbEntity
  8
FAN70-0207
390
0
100
AcDbBlockBegin
  2
*D18
 70
               1
 10
0.0
 20
0.0
 30
0.0
  3
*D18
  1

  0
LINE
  5
12D
100
AcDbEntity
  8
0
370
              -2
390
0
  6
Continuous
 62
               0
100
AcDbLine
 10
67.629247810762308
 20
-440.0
 30
0.0
 11
143.71863654390441
 21
-440.0
 31
0.0
  0
LINE
  5
12E
100
AcDbEntity
  8
0
370
              -2
390
0
  6
Continuous
 62
               0
100
AcDbLine
 10
-167.37075218923769
 20
-520.00000000000011
 30
0.0
 11
143.71863654390441
 21
-520.00000000000011
 31
0.0
  0
LINE
  5
12F
100
AcDbEntity
  8
0
370
              -2
390
0
  6
Continuous
 62
               0
100
AcDbLine
 10
143.71863654390441
 20
-440.0
 30
0.0
 11
143.71863654390441
 21
-520.00000000000011
 31
0.0
  0
CIRCLE
  5
130
102
{ACAD_REACTORS
330
131
102
}
100
AcDbEntity
  8
0
370
              -2
390
0
  6
Continuous
 62
               0
100
AcDbCircle
 10
143.71863654390441
 20
-440.0
 30
0.0
 40
4.99969482421875
  0
HATCH
  5
131
100
AcDbEntity
  8
0
370
              -2
390
0
  6
Continuous
 62
               0
100
AcDbHatch
 10
0.0
 20
0.0
 30
0.0
210
0.0
220
0.0
230
1.0
  2
SOLID
 70
               1
 71
               1
 91
        1
 92
        1
 93
        1
 72
               2
 10
143.71863654390441
 20
-440.0
 40
4.99969482421875
 50
0.0
 51
360.0
 73
               0
 97
        1
330
130
 75
               0
 76
               1
 98
        1
 10
0.0
 20
0.0
  0
CIRCLE
  5
132
102
{ACAD_REACTORS
330
133
102
}
100
AcDbEntity
  8
0
370
              -2
390
0
  6
Continuous
 62
               0
100
AcDbCircle
 10
143.71863654390441
 20
-520.00000000000011
 30
0.0
 40
4.99969482421875
  0
HATCH
  5
133
100
AcDbEntity
  8
0
370
              -2
390
0
  6
Continuous
 62
               0
100
AcDbHatch
 10
0.0
 20
0.0
 30
0.0
210
0.0
220
0.0
230
1.0
  2
SOLID
 70
               1
 71
               1
 91
        1
 92
        1
 93
        1
 72
               2
 10
143.71863654390441
 20
-520.00000000000011
 40
4.99969482421875
 50
0.0
 51
360.0
 73
               0
 97
        1
330
132
 75
               0
 76
               1
 98
        1
 10
0.0
 20
0.0
  0
MTEXT
  5
134
100
AcDbEntity
  8
0
390
0
 62
               0
100
AcDbMText
 10
109.84101935640442
 20
-495.87500000000006
 30
0.0
 40
24.432617187500004
 41
0.0
 71
               1
 72
               1
  1
80
  7
ＭＳ ゴシック
 11
0.0
 21
1.0
 31
0.0
 73
               1
 44
0.7828267384257843
  0
POINT
  5
135
100
AcDbEntity
  8
Defpoints
370
               0
390
0
 62
               0
100
AcDbPoint
 10
-192.37075218923769
 20
-520.00000000000011
 30
0.0
  0
POINT
  5
136
100
AcDbEntity
  8
Defpoints
370
               0
390
0
 62
               0
100
AcDbPoint
 10
42.629247810762308
 20
-440.0
 30
0.0
  0
POINT
  5
137
100
AcDbEntity
  8
Defpoints
370
               0
390
0
 62
               0
100
AcDbPoint
 10
143.71863654390441
 20
-440.0
 30
0.0
  0
ENDBLK
  5
138
100
AcDbEntity
  8
FAN70-0207
390
0
100
AcDbBlockEnd
  0
BLOCK
  5
139
100
AcDbEntity
  8
FAN70-0207
390
0
100
AcDbBlockBegin
  2
*D19
 70
               1
 10
0.0
 20
0.0
 30
0.0
  3
*D19
  1

  0
LINE
  5
13A
100
AcDbEntity
  8
0
370
              -2
390
0
  6
Continuous
 62
               0
100
AcDbLine
 10
598.21863654390495
 20
-590.00000000000011
 30
0.0
 11
850.71863654390495
 21
-590.00000000000011
 31
0.0
  0
LINE
  5
13B
100
AcDbEntity
  8
0
370
              -2
390
0
  6
Continuous
 62
               0
100
AcDbLine
 10
720.71863654390495
 20
-440.00000000000011
 30
0.0
 11
850.71863654390495
 21
-440.00000000000011
 31
0.0
  0
LINE
  5
13C
100
AcDbEntity
  8
0
370
              -2
390
0
  6
Continuous
 62
               0
100
AcDbLine
 10
850.71863654390495
 20
-590.00000000000011
 30
0.0
 11
850.71863654390495
 21
-440.00000000000011
 31
0.0
  0
CIRCLE
  5
13D
102
{ACAD_REACTORS
330
13E
102
}
100
AcDbEntity
  8
0
370
              -2
390
0
  6
Continuous
 62
               0
100
AcDbCircle
 10
850.71863654390495
 20
-590.00000000000011
 30
0.0
 40
4.99969482421875
  0
HATCH
  5
13E
100
AcDbEntity
  8
0
370
              -2
390
0
  6
Continuous
 62
               0
100
AcDbHatch
 10
0.0
 20
0.0
 30
0.0
210
0.0
220
0.0
230
1.0
  2
SOLID
 70
               1
 71
               1
 91
        1
 92
        1
 93
        1
 72
               2
 10
850.71863654390495
 20
-590.00000000000011
 40
4.99969482421875
 50
0.0
 51
360.0
 73
               0
 97
        1
330
13D
 75
               0
 76
               1
 98
        1
 10
0.0
 20
0.0
  0
CIRCLE
  5
13F
102
{ACAD_REACTORS
330
140
102
}
100
AcDbEntity
  8
0
370
              -2
390
0
  6
Continuous
 62
               0
100
AcDbCircle
 10
850.71863654390495
 20
-440.00000000000011
 30
0.0
 40
4.99969482421875
  0
HATCH
  5
140
100
AcDbEntity
  8
0
370
              -2
390
0
  6
Continuous
 62
               0
100
AcDbHatch
 10
0.0
 20
0.0
 30
0.0
210
0.0
220
0.0
230
1.0
  2
SOLID
 70
               1
 71
               1
 91
        1
 92
        1
 93
        1
 72
               2
 10
850.71863654390495
 20
-440.00000000000011
 40
4.99969482421875
 50
0.0
 51
360.0
 73
               0
 97
        1
330
13F
 75
               0
 76
               1
 98
        1
 10
0.0
 20
0.0
  0
MTEXT
  5
141
100
AcDbEntity
  8
0
390
0
 62
               0
100
AcDbMText
 10
816.8410193564049
 20
-538.81250168217571
 30
0.0
 40
24.432617187500004
 41
0.0
 71
               1
 72
               1
  1
150
  7
ＭＳ ゴシック
 11
0.0
 21
1.0
 31
0.0
 73
               1
 44
0.7828267384257843
  0
POINT
  5
142
100
AcDbEntity
  8
Defpoints
370
               0
390
0
 62
               0
100
AcDbPoint
 10
695.71863654390495
 20
-440.00000000000011
 30
0.0
  0
POINT
  5
143
100
AcDbEntity
  8
Defpoints
370
               0
390
0
 62
               0
100
AcDbPoint
 10
573.21863654390495
 20
-590.00000000000011
 30
0.0
  0
POINT
  5
144
100
AcDbEntity
  8
Defpoints
370
               0
390
0
 62
               0
100
AcDbPoint
 10
850.71863654390495
 20
-590.00000000000011
 30
0.0
  0
ENDBLK
  5
145
100
AcDbEntity
  8
FAN70-0207
390
0
100
AcDbBlockEnd
  0
BLOCK
  5
146
100
AcDbEntity
  8
FAN70-0207
390
0
100
AcDbBlockBegin
  2
*D20
 70
               1
 10
0.0
 20
0.0
 30
0.0
  3
*D20
  1

  0
LINE
  5
147
100
AcDbEntity
  8
0
370
              -2
390
0
  6
Continuous
 62
               0
100
AcDbLine
 10
538.21863654390495
 20
-625.0
 30
0.0
 11
538.21863654390495
 21
-700.0
 31
0.0
  0
LINE
  5
148
100
AcDbEntity
  8
0
370
              -2
390
0
  6
Continuous
 62
               0
100
AcDbLine
 10
375.71863654390427
 20
-620.0
 30
0.0
 11
375.71863654390427
 21
-700.0
 31
0.0
  0
LINE
  5
149
100
AcDbEntity
  8
0
370
              -2
390
0
  6
Continuous
 62
               0
100
AcDbLine
 10
538.21863654390495
 20
-700.0
 30
0.0
 11
375.71863654390427
 21
-700.0
 31
0.0
  0
CIRCLE
  5
14A
102
{ACAD_REACTORS
330
14B
102
}
100
AcDbEntity
  8
0
370
              -2
390
0
  6
Continuous
 62
               0
100
AcDbCircle
 10
538.21863654390495
 20
-700.0
 30
0.0
 40
4.99969482421875
  0
HATCH
  5
14B
100
AcDbEntity
  8
0
370
              -2
390
0
  6
Continuous
 62
               0
100
AcDbHatch
 10
0.0
 20
0.0
 30
0.0
210
0.0
220
0.0
230
1.0
  2
SOLID
 70
               1
 71
               1
 91
        1
 92
        1
 93
        1
 72
               2
 10
538.21863654390495
 20
-700.0
 40
4.99969482421875
 50
0.0
 51
360.0
 73
               0
 97
        1
330
14A
 75
               0
 76
               1
 98
        1
 10
0.0
 20
0.0
  0
CIRCLE
  5
14C
102
{ACAD_REACTORS
330
14D
102
}
100
AcDbEntity
  8
0
370
              -2
390
0
  6
Continuous
 62
               0
100
AcDbCircle
 10
375.71863654390427
 20
-700.0
 30
0.0
 40
4.99969482421875
  0
HATCH
  5
14D
100
AcDbEntity
  8
0
370
              -2
390
0
  6
Continuous
 62
               0
100
AcDbHatch
 10
0.0
 20
0.0
 30
0.0
210
0.0
220
0.0
230
1.0
  2
SOLID
 70
               1
 71
               1
 91
        1
 92
        1
 93
        1
 72
               2
 10
375.71863654390427
 20
-700.0
 40
4.99969482421875
 50
0.0
 51
360.0
 73
               0
 97
        1
330
14C
 75
               0
 76
               1
 98
        1
 10
0.0
 20
0.0
  0
MTEXT
  5
14E
100
AcDbEntity
  8
0
390
0
 62
               0
100
AcDbMText
 10
417.28113654390461
 20
-666.12238281250006
 30
0.0
 40
24.432617187500004
 41
0.0
 71
               1
 72
               1
  1
162.5
  7
ＭＳ ゴシック
 73
               1
 44
0.7828267384257843
  0
POINT
  5
14F
100
AcDbEntity
  8
Defpoints
370
               0
390
0
 62
               0
100
AcDbPoint
 10
375.71863654390427
 20
-595.0
 30
0.0
  0
POINT
  5
150
100
AcDbEntity
  8
Defpoints
370
               0
390
0
 62
               0
100
AcDbPoint
 10
538.21863654390495
 20
-600.0
 30
0.0
  0
POINT
  5
151
100
AcDbEntity
  8
Defpoints
370
               0
390
0
 62
               0
100
AcDbPoint
 10
538.21863654390495
 20
-700.0
 30
0.0
  0
ENDBLK
  5
152
100
AcDbEntity
  8
FAN70-0207
390
0
100
AcDbBlockEnd
  0
BLOCK
  5
153
100
AcDbEntity
  8
FAN70-0207
390
0
100
AcDbBlockBegin
  2
*D21
 70
               1
 10
0.0
 20
0.0
 30
0.0
  3
*D21
  1

  0
LINE
  5
154
100
AcDbEntity
  8
0
370
              -2
390
0
  6
Continuous
 62
               0
100
AcDbLine
 10
67.629247810762308
 20
-440.0
 30
0.0
 11
219.71863654390441
 21
-440.0
 31
0.0
  0
LINE
  5
155
100
AcDbEntity
  8
0
370
              -2
390
0
  6
Continuous
 62
               0
100
AcDbLine
 10
67.629247810762308
 20
-600.0
 30
0.0
 11
219.71863654390441
 21
-600.0
 31
0.0
  0
LINE
  5
156
100
AcDbEntity
  8
0
370
              -2
390
0
  6
Continuous
 62
               0
100
AcDbLine
 10
219.71863654390441
 20
-440.0
 30
0.0
 11
219.71863654390441
 21
-600.0
 31
0.0
  0
CIRCLE
  5
157
102
{ACAD_REACTORS
330
158
102
}
100
AcDbEntity
  8
0
370
              -2
390
0
  6
Continuous
 62
               0
100
AcDbCircle
 10
219.71863654390441
 20
-440.0
 30
0.0
 40
4.99969482421875
  0
HATCH
  5
158
100
AcDbEntity
  8
0
370
              -2
390
0
  6
Continuous
 62
               0
100
AcDbHatch
 10
0.0
 20
0.0
 30
0.0
210
0.0
220
0.0
230
1.0
  2
SOLID
 70
               1
 71
               1
 91
        1
 92
        1
 93
        1
 72
               2
 10
219.71863654390441
 20
-440.0
 40
4.99969482421875
 50
0.0
 51
360.0
 73
               0
 97
        1
330
157
 75
               0
 76
               1
 98
        1
 10
0.0
 20
0.0
  0
CIRCLE
  5
159
102
{ACAD_REACTORS
330
15A
102
}
100
AcDbEntity
  8
0
370
              -2
390
0
  6
Continuous
 62
               0
100
AcDbCircle
 10
219.71863654390441
 20
-600.0
 30
0.0
 40
4.99969482421875
  0
HATCH
  5
15A
100
AcDbEntity
  8
0
370
              -2
390
0
  6
Continuous
 62
               0
100
AcDbHatch
 10
0.0
 20
0.0
 30
0.0
210
0.0
220
0.0
230
1.0
  2
SOLID
 70
               1
 71
               1
 91
        1
 92
        1
 93
        1
 72
               2
 10
219.71863654390441
 20
-600.0
 40
4.99969482421875
 50
0.0
 51
360.0
 73
               0
 97
        1
330
159
 75
               0
 76
               1
 98
        1
 10
0.0
 20
0.0
  0
MTEXT
  5
15B
100
AcDbEntity
  8
0
390
0
 62
               0
100
AcDbMText
 10
185.84101935640442
 20
-541.30969995023997
 30
0.0
 40
24.432617187500004
 41
0.0
 71
               1
 72
               1
  1
160
  7
ＭＳ ゴシック
 11
0.0
 21
1.0
 31
0.0
 73
               1
 44
0.7828267384257843
  0
POINT
  5
15C
100
AcDbEntity
  8
Defpoints
370
               0
390
0
 62
               0
100
AcDbPoint
 10
42.629247810762308
 20
-600.0
 30
0.0
  0
POINT
  5
15D
100
AcDbEntity
  8
Defpoints
370
               0
390
0
 62
               0
100
AcDbPoint
 10
42.629247810762308
 20
-440.0
 30
0.0
  0
POINT
  5
15E
100
AcDbEntity
  8
Defpoints
370
               0
390
0
 62
               0
100
AcDbPoint
 10
219.71863654390441
 20
-440.0
 30
0.0
  0
ENDBLK
  5
15F
100
AcDbEntity
  8
FAN70-0207
390
0
100
AcDbBlockEnd
  0
BLOCK
  5
160
100
AcDbEntity
  8
FAN70-0207
390
0
100
AcDbBlockBegin
  2
*D22
 70
               1
 10
0.0
 20
0.0
 30
0.0
  3
*D22
  1

  0
LINE
  5
161
100
AcDbEntity
  8
0
370
              -2
390
0
  6
Continuous
 62
               0
100
AcDbLine
 10
513.21863654390404
 20
-540.00379204770343
 30
0.0
 11
535.84363654390506
 21
-540.00379204770343
 31
0.0
  0
LINE
  5
162
100
AcDbEntity
  8
0
370
              -2
390
0
  6
Continuous
 62
               0
100
AcDbLine
 10
513.21863654390495
 20
-440.00379204770343
 30
0.0
 11
535.84363654390506
 21
-440.00379204770343
 31
0.0
  0
LINE
  5
163
100
AcDbEntity
  8
0
370
              -2
390
0
  6
Continuous
 62
               0
100
AcDbLine
 10
535.84363654390506
 20
-440.00379204770343
 30
0.0
 11
535.84363654390506
 21
-288.58622049780246
 31
0.0
  0
LINE
  5
164
100
AcDbEntity
  8
0
370
              -2
390
0
  6
Continuous
 62
               0
100
AcDbLine
 10
535.84363654390506
 20
-540.00379204770343
 30
0.0
 11
535.84363654390506
 21
-440.00379204770343
 31
0.0
  0
CIRCLE
  5
165
102
{ACAD_REACTORS
330
166
102
}
100
AcDbEntity
  8
0
370
              -2
390
0
  6
Continuous
 62
               0
100
AcDbCircle
 10
535.84363654390506
 20
-540.00379204770343
 30
0.0
 40
4.99969482421875
  0
HATCH
  5
166
100
AcDbEntity
  8
0
370
              -2
390
0
  6
Continuous
 62
               0
100
AcDbHatch
 10
0.0
 20
0.0
 30
0.0
210
0.0
220
0.0
230
1.0
  2
SOLID
 70
               1
 71
               1
 91
        1
 92
        1
 93
        1
 72
               2
 10
535.84363654390506
 20
-540.00379204770343
 40
4.99969482421875
 50
0.0
 51
360.0
 73
               0
 97
        1
330
165
 75
               0
 76
               1
 98
        1
 10
0.0
 20
0.0
  0
CIRCLE
  5
167
102
{ACAD_REACTORS
330
168
102
}
100
AcDbEntity
  8
0
370
              -2
390
0
  6
Continuous
 62
               0
100
AcDbCircle
 10
535.84363654390506
 20
-440.00379204770343
 30
0.0
 40
4.99969482421875
  0
HATCH
  5
168
100
AcDbEntity
  8
0
370
              -2
390
0
  6
Continuous
 62
               0
100
AcDbHatch
 10
0.0
 20
0.0
 30
0.0
210
0.0
220
0.0
230
1.0
  2
SOLID
 70
               1
 71
               1
 91
        1
 92
        1
 93
        1
 72
               2
 10
535.84363654390506
 20
-440.00379204770343
 40
4.99969482421875
 50
0.0
 51
360.0
 73
               0
 97
        1
330
167
 75
               0
 76
               1
 98
        1
 10
0.0
 20
0.0
  0
MTEXT
  5
169
100
AcDbEntity
  8
0
390
0
 62
               0
100
AcDbMText
 10
501.96601935640501
 20
-431.46122049780246
 30
0.0
 40
24.432617187500004
 41
0.0
 71
               1
 72
               1
  1
100(深さ)
  7
ＭＳ ゴシック
 11
0.0
 21
1.0
 31
0.0
 73
               1
 44
0.7828267384257843
  0
POINT
  5
16A
100
AcDbEntity
  8
Defpoints
370
               0
390
0
 62
               0
100
AcDbPoint
 10
538.21863654390495
 20
-440.00379204770343
 30
0.0
  0
POINT
  5
16B
100
AcDbEntity
  8
Defpoints
370
               0
390
0
 62
               0
100
AcDbPoint
 10
538.21863654390404
 20
-540.00379204770343
 30
0.0
  0
POINT
  5
16C
100
AcDbEntity
  8
Defpoints
370
               0
390
0
 62
               0
100
AcDbPoint
 10
535.84363654390506
 20
-540.00379204770343
 30
0.0
  0
ENDBLK
  5
16D
100
AcDbEntity
  8
FAN70-0207
390
0
100
AcDbBlockEnd
  0
BLOCK
  5
16E
100
AcDbEntity
  8
FAN70-0207
390
0
100
AcDbBlockBegin
  2
*D23
 70
               1
 10
0.0
 20
0.0
 30
0.0
  3
*D23
  1

  0
LINE
  5
16F
100
AcDbEntity
  8
0
370
              -2
390
0
  6
Continuous
 62
               0
100
AcDbLine
 10
-139.87075218923758
 20
-625.0
 30
0.0
 11
-139.87075218923758
 21
-750.0
 31
0.0
  0
LINE
  5
170
100
AcDbEntity
  8
0
370
              -2
390
0
  6
Continuous
 62
               0
100
AcDbLine
 10
47.629247810762394
 20
-618.89147341101909
 30
0.0
 11
47.629247810762394
 21
-750.0
 31
0.0
  0
LINE
  5
171
100
AcDbEntity
  8
0
370
              -2
390
0
  6
Continuous
 62
               0
100
AcDbLine
 10
-139.87075218923758
 20
-750.0
 30
0.0
 11
47.629247810762394
 21
-750.0
 31
0.0
  0
CIRCLE
  5
172
102
{ACAD_REACTORS
330
173
102
}
100
AcDbEntity
  8
0
370
              -2
390
0
  6
Continuous
 62
               0
100
AcDbCircle
 10
-139.87075218923758
 20
-750.0
 30
0.0
 40
4.99969482421875
  0
HATCH
  5
173
100
AcDbEntity
  8
0
370
              -2
390
0
  6
Continuous
 62
               0
100
AcDbHatch
 10
0.0
 20
0.0
 30
0.0
210
0.0
220
0.0
230
1.0
  2
SOLID
 70
               1
 71
               1
 91
        1
 92
        1
 93
        1
 72
               2
 10
-139.87075218923758
 20
-750.0
 40
4.99969482421875
 50
0.0
 51
360.0
 73
               0
 97
        1
330
172
 75
               0
 76
               1
 98
        1
 10
0.0
 20
0.0
  0
CIRCLE
  5
174
102
{ACAD_REACTORS
330
175
102
}
100
AcDbEntity
  8
0
370
              -2
390
0
  6
Continuous
 62
               0
100
AcDbCircle
 10
47.629247810762394
 20
-750.0
 30
0.0
 40
4.99969482421875
  0
HATCH
  5
175
100
AcDbEntity
  8
0
370
              -2
390
0
  6
Continuous
 62
               0
100
AcDbHatch
 10
0.0
 20
0.0
 30
0.0
210
0.0
220
0.0
230
1.0
  2
SOLID
 70
               1
 71
               1
 91
        1
 92
        1
 93
        1
 72
               2
 10
47.629247810762394
 20
-750.0
 40
4.99969482421875
 50
0.0
 51
360.0
 73
               0
 97
        1
330
174
 75
               0
 76
               1
 98
        1
 10
0.0
 20
0.0
  0
MTEXT
  5
176
100
AcDbEntity
  8
0
390
0
 62
               0
100
AcDbMText
 10
-85.808252189237592
 20
-716.12238281250006
 30
0.0
 40
24.432617187500004
 41
0.0
 71
               1
 72
               1
  1
187.5
  7
ＭＳ ゴシック
 73
               1
 44
0.7828267384257843
  0
POINT
  5
177
100
AcDbEntity
  8
Defpoints
370
               0
390
0
 62
               0
100
AcDbPoint
 10
47.629247810762394
 20
-593.89147341101909
 30
0.0
  0
POINT
  5
178
100
AcDbEntity
  8
Defpoints
370
               0
390
0
 62
               0
100
AcDbPoint
 10
-139.87075218923758
 20
-600.0
 30
0.0
  0
POINT
  5
179
100
AcDbEntity
  8
Defpoints
370
               0
390
0
 62
               0
100
AcDbPoint
 10
-139.87075218923758
 20
-750.0
 30
0.0
  0
ENDBLK
  5
17A
100
AcDbEntity
  8
FAN70-0207
390
0
100
AcDbBlockEnd
  0
ENDSEC
  0
SECTION
  2
ENTITIES
  0
MTEXT
  5
17B
100
AcDbEntity
  8
template
390
0
 62
               7
100
AcDbMText
 10
-967.99999999975921
 20
-1147.4176292337004
 30
0.0
 40
16.288411458333332
 41
0.0
 71
               1
 72
               1
  1
品名
  7
ＭＳ ゴシック
 73
               1
 44
0.7828267384257843
  0
MTEXT
  5
17C
100
AcDbEntity
  8
template
390
0
 62
               7
100
AcDbMText
 10
-967.99999999975921
 20
-1232.4176292337004
 30
0.0
 40
16.288411458333332
 41
0.0
 71
               1
 72
               1
  1
仕様
  7
ＭＳ ゴシック
 73
               1
 44
0.7828267384257843
  0
MTEXT
  5
17D
100
AcDbEntity
  8
template
390
0
 62
               7
100
AcDbMText
 10
-914.99999999975921
 20
-1176.0000901712006
 30
0.0
 40
24.432617187500004
 41
0.0
 71
               1
 72
               1
  1
手洗器 -ALAPE-
  7
ＭＳ ゴシック
 73
               1
 44
0.7828267384257843
  0
LINE
  5
17E
100
AcDbEntity
  8
template
370
               5
390
0
  6
Continuous
 62
               7
100
AcDbLine
 10
974.99999999975876
 20
-1224.0027073587005
 30
0.0
 11
-975.00000000024124
 21
-1224.0027073587005
 31
0.0
  0
LWPOLYLINE
  5
17F
100
AcDbEntity
  8
template
370
               5
390
0
  6
Continuous
 62
               7
100
AcDbPolyline
 90
        5
 70
             128
 10
975.00000000024124
 20
1405.9972926412995
 10
-974.99999999975921
 20
1405.9972926412995
 10
-974.99999999975921
 20
-1394.0027073587005
 10
975.00000000024124
 20
-1394.0027073587005
 10
975.00000000024124
 20
1405.9972926412995
  0
LINE
  5
180
100
AcDbEntity
  8
template
370
               5
390
0
  6
Continuous
 62
               7
100
AcDbLine
 10
974.99999999975876
 20
-1139.0027073587005
 30
0.0
 11
-975.00000000024124
 21
-1139.0027073587005
 31
0.0
  0
LINE
  5
181
100
AcDbEntity
  8
template
370
               5
390
0
  6
Continuous
 62
               7
100
AcDbLine
 10
975.00000000024124
 20
-1309.0027073587005
 30
0.0
 11
222.00000000024127
 21
-1309.0027073587005
 31
0.0
  0
MTEXT
  5
182
100
AcDbEntity
  8
template
390
0
 62
               7
100
AcDbMText
 10
-974.99999999955594
 20
-1405.8565294155574
 30
0.0
 40
21.717881944444446
 41
0.0
 71
               1
 72
               1
  1
100724SH
  7
ＭＳ ゴシック
 73
               1
 44
0.7828267384257843
  0
MTEXT
  5
183
100
AcDbEntity
  8
template
390
0
 62
               7
100
AcDbMText
 10
251.87140625250086
 20
-1338.9131018320081
 30
0.0
 40
24.432617187500004
 41
0.0
 71
               1
 72
               1
  1
大洋金物株式会社 ティーフォルム事業部
  7
ＭＳ ゴシック
 73
               1
 44
0.7828267384257843
  0
INSERT
  5
184
100
AcDbEntity
  8
template
390
0
 62
               7
100
AcDbBlockReference
  2
グループ
 10
-112.49999999999997
 20
-118.13679245283021
 30
0.0
  0
MTEXT
  5
185
100
AcDbEntity
  8
template
390
0
 62
               7
100
AcDbMText
 10
784.00000000049999
 20
-1261.0000901712006
 30
0.0
 40
24.432617187500004
 41
0.0
 71
               1
 72
               1
  1
1:10
  7
ＭＳ ゴシック
 73
               1
 44
0.7828267384257843
  0
MTEXT
  5
186
100
AcDbEntity
  8
template
390
0
 62
               7
100
AcDbMText
 10
731.00000000049999
 20
-1232.4176292337004
 30
0.0
 40
16.288411458333332
 41
0.0
 71
               1
 72
               1
  1
縮尺
  7
ＭＳ ゴシック
 73
               1
 44
0.7828267384257843
  0
LINE
  5
187
100
AcDbEntity
  8
template
370
               5
390
0
  6
Continuous
 62
               7
100
AcDbLine
 10
724.00000000049999
 20
-1309.0027073587005
 30
0.0
 11
724.00000000049999
 21
-1224.0027073587005
 31
0.0
  0
MTEXT
  5
188
100
AcDbEntity
  8
template
390
0
 62
               7
100
AcDbMText
 10
480.00000000049999
 20
-1232.4176292337004
 30
0.0
 40
16.288411458333332
 41
0.0
 71
               1
 72
               1
  1
容量
  7
ＭＳ ゴシック
 73
               1
 44
0.7828267384257843
  0
LINE
  5
189
100
AcDbEntity
  8
template
370
               5
390
0
  6
Continuous
 62
               7
100
AcDbLine
 10
473.00000000049999
 20
-1309.0027073587005
 30
0.0
 11
473.00000000049999
 21
-1224.0027073587005
 31
0.0
  0
MTEXT
  5
18A
100
AcDbEntity
  8
template
390
0
 62
               7
100
AcDbMText
 10
229.00000000050002
 20
-1147.4176292337004
 30
0.0
 40
16.288411458333332
 41
0.0
 71
               1
 72
               1
  1
品番
  7
ＭＳ ゴシック
 73
               1
 44
0.7828267384257843
  0
MTEXT
  5
18B
100
AcDbEntity
  8
template
390
0
 62
               7
100
AcDbMText
 10
229.00000000050002
 20
-1232.4176292337004
 30
0.0
 40
16.288411458333332
 41
0.0
 71
               1
 72
               1
  1
重量
  7
ＭＳ ゴシック
 73
               1
 44
0.7828267384257843
  0
MTEXT
  5
18C
100
AcDbEntity
  8
template
390
0
 62
               7
100
AcDbMText
 10
282.00000000049999
 20
-1176.0000901712006
 30
0.0
 40
24.432617187500004
 41
0.0
 71
               1
 72
               1
  1
FAN70-0207
  7
ＭＳ ゴシック
 73
               1
 44
0.7828267384257843
  0
LINE
  5
18D
100
AcDbEntity
  8
template
370
               5
390
0
  6
Continuous
 62
               7
100
AcDbLine
 10
222.00000000050002
 20
-1394.0027073587005
 30
0.0
 11
222.00000000050002
 21
-1139.0027073587005
 31
0.0
  0
MTEXT
  5
18E
100
AcDbEntity
  8
template
390
0
 62
               7
100
AcDbMText
 10
-914.99999999975921
 20
-1261.0000901712003
 30
0.0
 40
24.432617187500004
 41
0.0
 71
               1
 72
               1
  1
壁掛け/オーバーフローなし/壁取付ボルト付属/\P鋼板ホーロー/ホワイト
  7
ＭＳ ゴシック
 73
               1
 44
1.1307497332816883
  0
MTEXT
  5
18F
100
AcDbEntity
  8
template
390
0
 62
               7
100
AcDbMText
 10
548.25
 20
-1261.0000901712006
 30
0.0
 40
24.432617187500004
 41
0.0
 71
               1
 72
               1
  1
3.8L
  7
ＭＳ ゴシック
 73
               1
 44
0.7828267384257843
  0
LINE
  5
190
100
AcDbEntity
  8
FAN70-0207
370
              15
390
0
  6
Continuous
 62
               7
100
AcDbLine
 10
47.629247810762394
 20
-595.0
 30
0.0
 11
47.629247810762394
 21
-445.0
 31
0.0
  0
ARC
  5
191
100
AcDbEntity
  8
FAN70-0207
370
              15
390
0
  6
Continuous
 62
               7
100
AcDbCircle
 10
-747.37075218923724
 20
773.13847294663083
 30
0.0
 40
5.0000000000002274
100
AcDbArc
 50
90.0
 51
180.0
  0
LINE
  5
192
100
AcDbEntity
  8
FAN70-0207
370
              15
390
0
  6
Continuous
 62
               7
100
AcDbLine
 10
42.629247810762394
 20
778.13847294663083
 30
0.0
 11
-547.37075218923769
 21
778.13847294663083
 31
0.0
  0
ARC
  5
193
100
AcDbEntity
  8
FAN70-0207
370
              15
390
0
  6
Continuous
 62
               7
100
AcDbCircle
 10
42.629247810762394
 20
773.13847294663083
 30
0.0
 40
5.0
100
AcDbArc
 50
0.0
 51
90.0
  0
LINE
  5
194
100
AcDbEntity
  8
FAN70-0207
370
              15
390
0
  6
Continuous
 62
               7
100
AcDbLine
 10
47.629247810762166
 20
458.13847294663077
 30
0.0
 11
47.629247810762394
 21
773.13847294663083
 31
0.0
  0
LINE
  5
195
100
AcDbEntity
  8
FAN70-0207
370
              15
390
0
  6
Continuous
 62
               7
100
AcDbLine
 10
-752.37075218923724
 20
773.13847294663083
 30
0.0
 11
-752.37075218923724
 21
458.13847294663077
 31
0.0
  0
CIRCLE
  5
196
100
AcDbEntity
  8
FAN70-0207
370
              15
390
0
  6
Continuous
 62
               7
100
AcDbCircle
 10
-139.87075218923758
 20
615.63847294663083
 30
0.0
 40
137.50000000000011
  0
ARC
  5
197
100
AcDbEntity
  8
FAN70-0207
370
              15
390
0
  6
Continuous
 62
               7
100
AcDbCircle
 10
42.629247810762166
 20
458.13847294663077
 30
0.0
 40
5.0
100
AcDbArc
 50
270.0
 51
359.99999999999869
  0
ARC
  5
198
100
AcDbEntity
  8
FAN70-0207
370
              15
390
0
  6
Continuous
 62
               7
100
AcDbCircle
 10
-747.37075218923724
 20
458.13847294663077
 30
0.0
 40
5.0
100
AcDbArc
 50
180.0
 51
269.99999999999744
  0
LINE
  5
199
100
AcDbEntity
  8
FAN70-0207
370
              15
390
0
  6
Continuous
 62
               7
100
AcDbLine
 10
-747.37075218923746
 20
453.13847294663077
 30
0.0
 11
42.629247810762166
 21
453.13847294663077
 31
0.0
  0
CIRCLE
  5
19A
100
AcDbEntity
  8
FAN70-0207
370
              15
390
0
  6
Continuous
 62
               7
100
AcDbCircle
 10
-139.87075218923758
 20
615.63847294663105
 30
0.0
 40
34.748994922088308
  0
CIRCLE
  5
19B
100
AcDbEntity
  8
FAN70-0207
370
              15
390
0
  6
Continuous
 62
               7
100
AcDbCircle
 10
-139.87075218923758
 20
615.63847294663128
 30
0.0
 40
24.000000000000064
  0
DIMENSION
  5
19C
100
AcDbEntity
  8
FAN70-0207
370
               5
390
0
  6
Continuous
 62
               7
100
AcDbDimension
  2
*D2
 10
-752.37075218923724
 20
928.13847294663105
 30
0.0
 11
-346.08285597686006
 21
933.13847294663105
 31
0.0
 70
             128
 71
               5
 72
               1
 41
1.0
 42
0.0
  3
tfrom線あり
100
AcDbAlignedDimension
 13
47.629247810762394
 23
778.13847294663083
 33
0.0
 14
-752.37075218923724
 24
773.13847294663083
 34
0.0
100
AcDbRotatedDimension
1001
ACAD
1000
DSTYLE
1002
{
1070
             271
1070
               4
1070
             279
1070
               2
1070
             340
1005
3B
1070
             147
1040
5.0
1002
}
  0
ARC
  5
19D
100
AcDbEntity
  8
FAN70-0207
370
              15
390
0
  6
STYLE_12
 62
               7
100
AcDbCircle
 10
-146.16309843346687
 20
-396.04759236773191
 30
0.0
 40
152.00000000000011
100
AcDbArc
 50
288.72322098948592
 51
342.36700481343155
  0
LINE
  5
19E
100
AcDbEntity
  8
FAN70-0207
370
              15
390
0
  6
STYLE_12
 62
               7
100
AcDbLine
 10
-97.371576898468575
 20
-540.00379204770343
 30
0.0
 11
-118.37075218923758
 21
-549.87494598343562
 31
0.0
  0
LINE
  5
19F
100
AcDbEntity
  8
FAN70-0207
370
              15
390
0
  6
STYLE_12
 62
               7
100
AcDbLine
 10
-97.371576898468575
 20
-540.00379204770343
 30
0.0
 11
-139.87075218923758
 21
-540.00379204770343
 31
0.0
  0
LINE
  5
1A0
100
AcDbEntity
  8
FAN70-0207
370
              15
390
0
  6
STYLE_12
 62
               7
100
AcDbLine
 10
-118.37075218923758
 20
-549.87494598343562
 30
0.0
 11
-161.37075218923758
 21
-549.87494598343562
 31
0.0
  0
ARC
  5
1A1
100
AcDbEntity
  8
FAN70-0207
370
              15
390
0
  6
STYLE_12
 62
               7
100
AcDbCircle
 10
-133.57840594500829
 20
-396.04759236773191
 30
0.0
 40
152.00000000000014
100
AcDbArc
 50
197.63299518656845
 51
251.2767790105141
  0
LINE
  5
1A2
100
AcDbEntity
  8
FAN70-0207
370
              15
390
0
  6
STYLE_12
 62
               7
100
AcDbLine
 10
-182.36992748000662
 20
-540.00379204770343
 30
0.0
 11
-139.87075218923758
 21
-540.00379204770343
 31
0.0
  0
LINE
  5
1A3
100
AcDbEntity
  8
FAN70-0207
370
              15
390
0
  6
STYLE_12
 62
               7
100
AcDbLine
 10
-161.37075218923758
 20
-549.87494598343562
 30
0.0
 11
-182.36992748000662
 21
-540.00379204770343
 31
0.0
  0
ARC
  5
1A4
100
AcDbEntity
  8
FAN70-0207
370
              15
390
0
  6
STYLE_12
 62
               7
100
AcDbCircle
 10
-281.29594524733113
 20
-443.00000000000011
 30
0.0
 40
2.9999999999998104
100
AcDbArc
 50
17.632995186569932
 51
90.000000000000014
  0
ARC
  5
1A5
100
AcDbEntity
  8
FAN70-0207
370
              15
390
0
  6
STYLE_12
 62
               7
100
AcDbCircle
 10
1.5544408688559486
 20
-443.00000000000011
 30
0.0
 40
3.0
100
AcDbArc
 50
90.0
 51
162.36700481343004
  0
LINE
  5
1A6
100
AcDbEntity
  8
FAN70-0207
370
              15
390
0
  6
STYLE_12
 62
               7
100
AcDbLine
 10
-38.426801348753258
 20
-440.00000000000011
 30
0.0
 11
-252.4268013487532
 21
-440.00000000000011
 31
0.0
  0
LINE
  5
1A7
100
AcDbEntity
  8
FAN70-0207
370
              15
390
0
  6
STYLE_12
 62
               7
100
AcDbLine
 10
-72.620752189237606
 20
-440.00000000000011
 30
0.0
 11
-210.31394356679982
 21
-440.00000000000011
 31
0.0
  0
DIMENSION
  5
1A8
100
AcDbEntity
  8
FAN70-0207
370
               5
390
0
  6
Continuous
 62
               7
100
AcDbDimension
  2
*D3
 10
47.629247810762166
 20
353.13847294663077
 30
0.0
 11
22.62924781076228
 21
353.13847294663077
 31
0.0
 71
               5
 72
               1
 41
1.0
 42
0.0
  3
tfrom線あり
100
AcDbAlignedDimension
 13
-2.3707521892376207
 23
453.13847294663077
 33
0.0
 14
47.629247810762166
 24
458.13847294663077
 34
0.0
100
AcDbRotatedDimension
1001
ACAD
1000
DSTYLE
1002
{
1070
             279
1070
               2
1070
             340
1005
3B
1070
             147
1040
5.0
1002
}
  0
DIMENSION
  5
1A9
100
AcDbEntity
  8
FAN70-0207
370
               5
390
0
  6
Continuous
 62
               7
100
AcDbDimension
  2
*D4
 10
-2.3707521892376207
 20
353.13847294663077
 30
0.0
 11
-139.87075218923763
 21
353.13847294663077
 31
0.0
 71
               5
 72
               1
 41
1.0
 42
0.0
  3
tfrom線あり
100
AcDbAlignedDimension
 13
-277.37075218923769
 23
453.13847294663077
 33
0.0
 14
-2.3707521892376207
 24
453.13847294663077
 34
0.0
100
AcDbRotatedDimension
1001
ACAD
1000
DSTYLE
1002
{
1070
             279
1070
               2
1070
             340
1005
3B
1070
             147
1040
5.0
1002
}
  0
DIMENSION
  5
1AA
100
AcDbEntity
  8
FAN70-0207
370
               5
390
0
  6
Continuous
 62
               7
100
AcDbDimension
  2
*D5
 10
-277.37075218923769
 20
353.13847294663077
 30
0.0
 11
-514.87075218923746
 21
353.13847294663077
 31
0.0
 71
               5
 72
               1
 41
1.0
 42
0.0
  3
tfrom線あり
100
AcDbAlignedDimension
 13
-752.37075218923724
 23
458.13847294663077
 33
0.0
 14
-277.37075218923769
 24
453.13847294663077
 34
0.0
100
AcDbRotatedDimension
1001
ACAD
1000
DSTYLE
1002
{
1070
             279
1070
               2
1070
             340
1005
3B
1070
             147
1040
5.0
1002
}
  0
LINE
  5
1AB
100
AcDbEntity
  8
FAN70-0207
370
              15
390
0
  6
Continuous
 62
               7
100
AcDbLine
 10
42.629247810762394
 20
778.13847294663083
 30
0.0
 11
-747.37075218923724
 21
778.13847294663105
 31
0.0
  0
DIMENSION
  5
1AC
100
AcDbEntity
  8
FAN70-0207
370
               5
390
0
  6
Continuous
 62
               7
100
AcDbDimension
  2
*D6
 10
-139.87075218923758
 20
-750.0
 30
0.0
 11
-46.120752189237592
 21
-750.0
 31
0.0
 71
               5
 72
               1
 41
1.0
 42
0.0
  3
tfrom線あり
100
AcDbAlignedDimension
 13
47.629247810762394
 23
-593.89147341101909
 33
0.0
 14
-139.87075218923758
 24
-600.0
 34
0.0
100
AcDbRotatedDimension
1001
ACAD
1000
DSTYLE
1002
{
1070
             279
1070
               2
1070
             340
1005
3B
1070
             147
1040
5.0
1002
}
  0
CIRCLE
  5
1AD
100
AcDbEntity
  8
FAN70-0207
370
              15
390
0
  6
Continuous
 62
               7
100
AcDbCircle
 10
-2.1785546362379051
 20
735.33247418023075
 30
0.0
 40
18.000000000000014
  0
DIMENSION
  5
1AE
100
AcDbEntity
  8
FAN70-0207
370
               5
390
0
  6
Continuous
 62
               7
100
AcDbDimension
  2
*D7
 10
9.2603566631646288
 20
721.43458555337816
 30
0.0
 11
-127.37075218923769
 21
814.53877950219749
 31
0.0
 70
               3
 71
               5
 72
               1
 41
1.0
 42
0.0
  3
tfrom線あり
100
AcDbDiametricDimension
 15
-13.617465935640411
 25
749.23036280708357
 35
0.0
 40
84.584898618392941
1001
ACAD
1000
DSTYLE
1002
{
1070
             289
1070
               0
1070
             342
1005
4E
1070
             340
1005
3B
1070
              75
1070
               1
1070
              76
1070
               1
1070
               3
1000

1070
             174
1070
               0
1070
             147
1040
5.0
1002
}
  0
DIMENSION
  5
1AF
100
AcDbEntity
  8
FAN70-0207
370
               5
390
0
  6
Continuous
 62
               7
100
AcDbDimension
  2
*D8
 10
-852.37075218923712
 20
778.13847294663105
 30
0.0
 11
-852.37075218923712
 21
765.63847294663105
 31
0.0
 71
               5
 72
               1
 41
1.0
 42
0.0
  3
tfrom線あり
100
AcDbAlignedDimension
 13
-752.37075218923724
 23
753.13847294663105
 33
0.0
 14
-747.37075218923724
 24
778.13847294663105
 34
0.0
 50
90.0
100
AcDbRotatedDimension
1001
ACAD
1000
DSTYLE
1002
{
1070
             279
1070
               2
1070
             340
1005
3B
1070
             147
1040
5.0
1002
}
  0
DIMENSION
  5
1B0
100
AcDbEntity
  8
FAN70-0207
370
               5
390
0
  6
Continuous
 62
               7
100
AcDbDimension
  2
*D9
 10
-852.37075218923712
 20
753.13847294663105
 30
0.0
 11
-857.37075218923712
 21
632.53877950219749
 31
0.0
 70
             128
 71
               5
 72
               1
 41
1.0
 42
0.0
  3
tfrom線あり
100
AcDbAlignedDimension
 13
-752.37075218923724
 23
478.13847294663077
 33
0.0
 14
-752.37075218923724
 24
753.13847294663105
 34
0.0
 50
90.0
100
AcDbRotatedDimension
1001
ACAD
1000
DSTYLE
1002
{
1070
             279
1070
               2
1070
             340
1005
3B
1070
             147
1040
5.0
1002
}
  0
DIMENSION
  5
1B1
100
AcDbEntity
  8
FAN70-0207
370
               5
390
0
  6
Continuous
 62
               7
100
AcDbDimension
  2
*D10
 10
-852.37075218923712
 20
478.13847294663077
 30
0.0
 11
-852.37075218923712
 21
465.63847294663077
 31
0.0
 71
               5
 72
               1
 41
1.0
 42
0.0
  3
tfrom線あり
100
AcDbAlignedDimension
 13
-747.37075218923724
 23
453.13847294663077
 33
0.0
 14
-752.37075218923724
 24
478.13847294663077
 34
0.0
 50
90.0
100
AcDbRotatedDimension
1001
ACAD
1000
DSTYLE
1002
{
1070
             279
1070
               2
1070
             340
1005
3B
1070
             147
1040
5.0
1002
}
  0
DIMENSION
  5
1B2
100
AcDbEntity
  8
FAN70-0207
370
               5
390
0
  6
Continuous
 62
               7
100
AcDbDimension
  2
*D11
 10
147.62924781076222
 20
734.51605904360531
 30
0.0
 11
152.62924781076222
 21
719.72236436557205
 31
0.0
 70
             128
 71
               5
 72
               1
 41
1.0
 42
0.0
  3
tfrom線あり
100
AcDbAlignedDimension
 13
42.629247810762394
 23
777.51605904360531
 33
0.0
 14
15.821445363762109
 24
734.51605904360531
 34
0.0
 50
90.0
100
AcDbRotatedDimension
1001
ACAD
1000
DSTYLE
1002
{
1070
             279
1070
               2
1070
             340
1005
3B
1070
             174
1070
               0
1070
             147
1040
5.0
1002
}
  0
DIMENSION
  5
1B3
100
AcDbEntity
  8
FAN70-0207
370
               5
390
0
  6
Continuous
 62
               7
100
AcDbDimension
  2
*D12
 10
197.62924781076217
 20
778.13847294663083
 30
0.0
 11
197.62924781076217
 21
615.63847294663083
 31
0.0
 71
               5
 72
               1
 41
1.0
 42
0.0
  3
tfrom線あり
100
AcDbAlignedDimension
 13
42.629247810762166
 23
453.13847294663077
 33
0.0
 14
42.629247810762394
 24
778.13847294663083
 34
0.0
 50
90.0
100
AcDbRotatedDimension
1001
ACAD
1000
DSTYLE
1002
{
1070
             279
1070
               2
1070
             340
1005
3B
1070
             147
1040
5.0
1002
}
  0
DIMENSION
  5
1B4
100
AcDbEntity
  8
FAN70-0207
370
               5
390
0
  6
Continuous
 62
               7
100
AcDbDimension
  2
*D13
 10
46.34075268943073
 20
679.51739589253702
 30
0.0
 11
-22.526496505895906
 21
619.65200949715177
 31
0.0
 70
               1
 71
               5
 72
               1
 41
1.0
 42
0.0
  3
tfrom線あり
100
AcDbAlignedDimension
 13
-139.91305302689113
 23
615.60170138946
 33
0.0
 14
-2.1785546362378909
 24
735.33247418023075
 34
0.0
 50
41.000000000001272
1001
ACAD
1000
DSTYLE
1002
{
1070
             279
1070
               2
1070
             340
1005
3B
1070
             147
1040
5.0
1002
}
  0
DIMENSION
  5
1B5
100
AcDbEntity
  8
FAN70-0207
370
               5
390
0
  6
Continuous
 62
               7
100
AcDbDimension
  2
*D14
 10
47.629247810762394
 20
878.0
 30
0.0
 11
22.0
 21
883.0
 31
0.0
 70
             128
 71
               5
 72
               1
 41
1.0
 42
0.0
  3
tfrom線あり
100
AcDbAlignedDimension
 13
-2.3707521892376064
 23
753.33247418023075
 33
0.0
 14
47.629247810762394
 24
773.13847294663083
 34
0.0
100
AcDbRotatedDimension
1001
ACAD
1000
DSTYLE
1002
{
1070
             279
1070
               2
1070
             340
1005
3B
1070
             147
1040
5.0
1002
}
  0
MTEXT
  5
1B6
100
AcDbEntity
  8
FAN70-0207
390
0
 62
               7
100
AcDbMText
 10
71.160979208000072
 20
-348.38206265867768
 30
0.0
 40
24.253472222222221
 41
0.0
 71
               1
 72
               1
  1
壁取付ボルト穴(6ヶ所)
  7
MS UI Gothic
 73
               1
 44
0.8762322015334064
  0
LINE
  5
1B7
100
AcDbEntity
  8
FAN70-0207
370
               5
390
0
  6
Continuous
 62
               7
100
AcDbLine
 10
5.1292478107623083
 20
-464.96122049780229
 30
0.0
 11
88.718636543904495
 21
-381.37183176466021
 31
0.0
  0
DIMENSION
  5
1B8
100
AcDbEntity
  8
FAN70-0207
370
               5
390
0
  6
Continuous
 62
               7
100
AcDbDimension
  2
*D15
 10
-212.37075218923769
 20
-340.00000000000011
 30
0.0
 11
-352.37075218923781
 21
-340.00000000000011
 31
0.0
 71
               5
 72
               1
 41
1.0
 42
0.0
  3
tfrom線あり
100
AcDbAlignedDimension
 13
-492.37075218923792
 23
-500.00000000000011
 33
0.0
 14
-212.37075218923769
 24
-500.00000000000011
 34
0.0
100
AcDbRotatedDimension
1001
ACAD
1000
DSTYLE
1002
{
1070
             279
1070
               2
1070
             340
1005
3B
1070
             147
1040
5.0
1002
}
  0
DIMENSION
  5
1B9
100
AcDbEntity
  8
FAN70-0207
370
               5
390
0
  6
Continuous
 62
               7
100
AcDbDimension
  2
*D16
 10
-709.87075218923724
 20
-263.4612204978024
 30
0.0
 11
-352.37075218923746
 21
-263.4612204978024
 31
0.0
 71
               5
 72
               1
 41
1.0
 42
0.0
  3
tfrom線あり
100
AcDbAlignedDimension
 13
5.1292478107623083
 23
-454.96122049780229
 33
0.0
 14
-709.87075218923724
 24
-454.96122049780229
 34
0.0
100
AcDbRotatedDimension
1001
ACAD
1000
DSTYLE
1002
{
1070
             279
1070
               2
1070
             340
1005
3B
1070
             147
1040
5.0
1002
}
  0
DIMENSION
  5
1BA
100
AcDbEntity
  8
FAN70-0207
370
               5
390
0
  6
Continuous
 62
               7
100
AcDbDimension
  2
*D17
 10
-824.28136345609505
 20
-464.96122049780229
 30
0.0
 11
-824.28136345609505
 21
-519.96122049780229
 31
0.0
 71
               5
 72
               1
 41
1.0
 42
0.0
  3
tfrom線あり
100
AcDbAlignedDimension
 13
-729.87075218923724
 23
-574.96122049780229
 33
0.0
 14
-729.87075218923724
 24
-464.96122049780229
 34
0.0
 50
90.0
100
AcDbRotatedDimension
1001
ACAD
1000
DSTYLE
1002
{
1070
             279
1070
               2
1070
             340
1005
3B
1070
             147
1040
5.0
1002
}
  0
DIMENSION
  5
1BB
100
AcDbEntity
  8
FAN70-0207
370
               5
390
0
  6
Continuous
 62
               7
100
AcDbDimension
  2
*D18
 10
143.71863654390441
 20
-440.0
 30
0.0
 11
143.71863654390441
 21
-480.00000000000006
 31
0.0
 71
               5
 72
               1
 41
1.0
 42
0.0
  3
tfrom線あり
100
AcDbAlignedDimension
 13
-192.37075218923769
 23
-520.00000000000011
 33
0.0
 14
42.629247810762308
 24
-440.0
 34
0.0
 50
90.0
100
AcDbRotatedDimension
1001
ACAD
1000
DSTYLE
1002
{
1070
             279
1070
               2
1070
             340
1005
3B
1070
             147
1040
5.0
1002
}
  0
DIMENSION
  5
1BC
100
AcDbEntity
  8
FAN70-0207
370
               5
390
0
  6
Continuous
 62
               7
100
AcDbDimension
  2
*D19
 10
850.71863654390495
 20
-590.00000000000011
 30
0.0
 11
850.71863654390495
 21
-515.00000000000011
 31
0.0
 71
               5
 72
               1
 41
1.0
 42
0.0
  3
tfrom線あり
100
AcDbAlignedDimension
 13
695.71863654390495
 23
-440.00000000000011
 33
0.0
 14
573.21863654390495
 24
-590.00000000000011
 34
0.0
 50
90.0
100
AcDbRotatedDimension
1001
ACAD
1000
DSTYLE
1002
{
1070
             279
1070
               2
1070
             340
1005
3B
1070
             147
1040
5.0
1002
}
  0
DIMENSION
  5
1BD
100
AcDbEntity
  8
FAN70-0207
370
               5
390
0
  6
Continuous
 62
               7
100
AcDbDimension
  2
*D20
 10
538.21863654390495
 20
-700.0
 30
0.0
 11
456.96863654390461
 21
-700.0
 31
0.0
 71
               5
 72
               1
 41
1.0
 42
0.0
  3
tfrom線あり
100
AcDbAlignedDimension
 13
375.71863654390427
 23
-595.0
 33
0.0
 14
538.21863654390495
 24
-600.0
 34
0.0
100
AcDbRotatedDimension
1001
ACAD
1000
DSTYLE
1002
{
1070
             279
1070
               2
1070
             340
1005
3B
1070
             147
1040
5.0
1002
}
  0
DIMENSION
  5
1BE
100
AcDbEntity
  8
FAN70-0207
370
               5
390
0
  6
Continuous
 62
               7
100
AcDbDimension
  2
*D21
 10
219.71863654390441
 20
-440.0
 30
0.0
 11
224.71863654390441
 21
-517.49719826806438
 31
0.0
 70
             128
 71
               5
 72
               1
 41
1.0
 42
0.0
  3
tfrom線あり
100
AcDbAlignedDimension
 13
42.629247810762308
 23
-600.0
 33
0.0
 14
42.629247810762308
 24
-440.0
 34
0.0
 50
90.0
100
AcDbRotatedDimension
1001
ACAD
1000
DSTYLE
1002
{
1070
             271
1070
               4
1070
             279
1070
               2
1070
             340
1005
3B
1070
             147
1040
5.0
1002
}
  0
DIMENSION
  5
1BF
100
AcDbEntity
  8
FAN70-0207
370
               5
390
0
  6
Continuous
 62
               7
100
AcDbDimension
  2
*D22
 10
535.84363654390506
 20
-540.00379204770343
 30
0.0
 11
530.84363654390506
 21
-431.46122049780246
 31
0.0
 70
             128
 71
               5
 72
               1
 41
1.0
 42
0.0
  3
tfrom線あり
100
AcDbAlignedDimension
 13
538.21863654390495
 23
-440.00379204770343
 33
0.0
 14
538.21863654390404
 24
-540.00379204770343
 34
0.0
 50
90.0
100
AcDbRotatedDimension
1001
ACAD
1000
DSTYLE
1002
{
1070
             279
1070
               2
1070
             340
1005
3B
1070
               3
1000
<>(深さ)
1070
             174
1070
               0
1070
             147
1040
5.0
1002
}
  0
ARC
  5
1C0
100
AcDbEntity
  8
FAN70-0207
370
              15
390
0
  6
Continuous
 62
               7
100
AcDbCircle
 10
-747.37075218923724
 20
-595.0
 30
0.0
 40
5.0
100
AcDbArc
 50
180.0
 51
270.0
  0
ARC
  5
1C1
100
AcDbEntity
  8
FAN70-0207
370
              15
390
0
  6
Continuous
 62
               7
100
AcDbCircle
 10
-747.37075218923724
 20
-445.0
 30
0.0
 40
5.0
100
AcDbArc
 50
90.0
 51
180.0
  0
LINE
  5
1C2
100
AcDbEntity
  8
FAN70-0207
370
              15
390
0
  6
Continuous
 62
               7
100
AcDbLine
 10
-752.37075218923724
 20
-595.0
 30
0.0
 11
-752.37075218923724
 21
-445.0
 31
0.0
  0
LINE
  5
1C3
100
AcDbEntity
  8
FAN70-0207
370
              15
390
0
  6
Continuous
 62
               7
100
AcDbLine
 10
-747.37075218923724
 20
-440.00000000000011
 30
0.0
 11
42.629247810762308
 21
-440.0
 31
0.0
  0
LINE
  5
1C4
100
AcDbEntity
  8
FAN70-0207
370
              15
390
0
  6
Continuous
 62
               7
100
AcDbLine
 10
42.629247810762308
 20
-600.0
 30
0.0
 11
-747.37075218923724
 21
-600.0
 31
0.0
  0
ARC
  5
1C5
100
AcDbEntity
  8
FAN70-0207
370
              15
390
0
  6
Continuous
 62
               7
100
AcDbCircle
 10
42.629247810762308
 20
-445.0
 30
0.0
 40
5.0
100
AcDbArc
 50
0.0
 51
90.0
  0
ARC
  5
1C6
100
AcDbEntity
  8
FAN70-0207
370
              15
390
0
  6
Continuous
 62
               7
100
AcDbCircle
 10
42.629247810762308
 20
-595.0
 30
0.0
 40
5.0
100
AcDbArc
 50
270.0
 51
0.0
  0
LINE
  5
1C7
100
AcDbEntity
  8
FAN70-0207
370
              15
390
0
  6
Continuous
 62
               7
100
AcDbLine
 10
695.71863654390495
 20
-600.0
 30
0.0
 11
380.71863654390427
 21
-600.0
 31
0.0
  0
ARC
  5
1C8
100
AcDbEntity
  8
FAN70-0207
370
              15
390
0
  6
Continuous
 62
               7
100
AcDbCircle
 10
380.71863654390427
 20
-595.0
 30
0.0
 40
5.0
100
AcDbArc
 50
180.0
 51
270.0
  0
ARC
  5
1C9
100
AcDbEntity
  8
FAN70-0207
370
              15
390
0
  6
Continuous
 62
               7
100
AcDbCircle
 10
380.71863654390427
 20
-445.0
 30
0.0
 40
4.9999999999998863
100
AcDbArc
 50
90.0
 51
180.0
  0
LINE
  5
1CA
100
AcDbEntity
  8
FAN70-0207
370
              15
390
0
  6
Continuous
 62
               7
100
AcDbLine
 10
375.71863654390427
 20
-595.0
 30
0.0
 11
375.71863654390427
 21
-445.0
 31
0.0
  0
LINE
  5
1CB
100
AcDbEntity
  8
FAN70-0207
370
              15
390
0
  6
Continuous
 62
               7
100
AcDbLine
 10
380.71863654390427
 20
-440.00000000000011
 30
0.0
 11
695.71863654390495
 21
-440.00000000000011
 31
0.0
  0
ARC
  5
1CC
100
AcDbEntity
  8
FAN70-0207
370
              15
390
0
  6
Continuous
 62
               7
100
AcDbCircle
 10
695.71863654390495
 20
-445.0
 30
0.0
 40
5.0
100
AcDbArc
 50
0.0
 51
90.0
  0
ARC
  5
1CD
100
AcDbEntity
  8
FAN70-0207
370
              15
390
0
  6
Continuous
 62
               7
100
AcDbCircle
 10
695.71863654390495
 20
-595.0
 30
0.0
 40
5.0
100
AcDbArc
 50
270.0
 51
0.0
  0
LINE
  5
1CE
100
AcDbEntity
  8
FAN70-0207
370
              15
390
0
  6
Continuous
 62
               7
100
AcDbLine
 10
700.71863654390495
 20
-445.0
 30
0.0
 11
700.71863654390495
 21
-595.0
 31
0.0
  0
ARC
  5
1CF
100
AcDbEntity
  8
FAN70-0207
370
              15
390
0
  6
STYLE_12
 62
               7
100
AcDbCircle
 10
544.51098278813311
 20
-396.04759236773191
 30
0.0
 40
152.00000000000057
100
AcDbArc
 50
197.63299518656839
 51
251.27677901051422
  0
LINE
  5
1D0
100
AcDbEntity
  8
FAN70-0207
370
              15
390
0
  6
STYLE_12
 62
               7
100
AcDbLine
 10
495.71946125313502
 20
-540.00379204770343
 30
0.0
 11
516.71863654390404
 21
-549.87494598343562
 31
0.0
  0
LINE
  5
1D1
100
AcDbEntity
  8
FAN70-0207
370
              15
390
0
  6
STYLE_12
 62
               7
100
AcDbLine
 10
495.71946125313502
 20
-540.00379204770343
 30
0.0
 11
538.21863654390404
 21
-540.00379204770343
 31
0.0
  0
LINE
  5
1D2
100
AcDbEntity
  8
FAN70-0207
370
              15
390
0
  6
STYLE_12
 62
               7
100
AcDbLine
 10
516.71863654390404
 20
-549.87494598343562
 30
0.0
 11
559.71863654390404
 21
-549.87494598343562
 31
0.0
  0
ARC
  5
1D3
100
AcDbEntity
  8
FAN70-0207
370
              15
390
0
  6
STYLE_12
 62
               7
100
AcDbCircle
 10
531.92629029967452
 20
-396.04759236773191
 30
0.0
 40
152.0000000000002
100
AcDbArc
 50
288.72322098948592
 51
342.36700481343155
  0
LINE
  5
1D4
100
AcDbEntity
  8
FAN70-0207
370
              15
390
0
  6
STYLE_12
 62
               7
100
AcDbLine
 10
580.71781183467306
 20
-540.00379204770343
 30
0.0
 11
538.21863654390404
 21
-540.00379204770343
 31
0.0
  0
LINE
  5
1D5
100
AcDbEntity
  8
FAN70-0207
370
              15
390
0
  6
STYLE_12
 62
               7
100
AcDbLine
 10
559.71863654390404
 20
-549.87494598343562
 30
0.0
 11
580.71781183467306
 21
-540.00379204770343
 31
0.0
  0
ARC
  5
1D6
100
AcDbEntity
  8
FAN70-0207
370
              15
390
0
  6
STYLE_12
 62
               7
100
AcDbCircle
 10
679.6438296019976
 20
-443.00000000000011
 30
0.0
 40
3.0
100
AcDbArc
 50
90.0
 51
162.36700481342993
  0
ARC
  5
1D7
100
AcDbEntity
  8
FAN70-0207
370
              15
390
0
  6
STYLE_12
 62
               7
100
AcDbCircle
 10
396.7934434858098
 20
-443.00000000000011
 30
0.0
 40
2.9999999999997833
100
AcDbArc
 50
17.632995186570088
 51
90.0
  0
CIRCLE
  5
1D8
100
AcDbEntity
  8
FAN70-0207
370
              15
390
0
  6
STYLE_12
 62
               7
100
AcDbCircle
 10
5.1292478107623083
 20
-464.96122049780229
 30
0.0
 40
10.0
  0
LINE
  5
1D9
100
AcDbEntity
  8
FAN70-0207
370
              15
390
0
  6
STYLE_12
 62
               7
100
AcDbLine
 10
-14.87075218923772
 20
-464.96122049780229
 30
0.0
 11
25.129247810762308
 21
-464.96122049780229
 31
0.0
  0
LINE
  5
1DA
100
AcDbEntity
  8
FAN70-0207
370
              15
390
0
  6
STYLE_12
 62
               7
100
AcDbLine
 10
5.1292478107623083
 20
-484.96122049780229
 30
0.0
 11
5.1292478107623083
 21
-444.96122049780229
 31
0.0
  0
CIRCLE
  5
1DB
100
AcDbEntity
  8
FAN70-0207
370
              15
390
0
  6
STYLE_12
 62
               7
100
AcDbCircle
 10
5.1292478107623083
 20
-574.96122049780229
 30
0.0
 40
10.0
  0
LINE
  5
1DC
100
AcDbEntity
  8
FAN70-0207
370
              15
390
0
  6
STYLE_12
 62
               7
100
AcDbLine
 10
-14.87075218923772
 20
-574.96122049780229
 30
0.0
 11
25.129247810762308
 21
-574.96122049780229
 31
0.0
  0
LINE
  5
1DD
100
AcDbEntity
  8
FAN70-0207
370
              15
390
0
  6
STYLE_12
 62
               7
100
AcDbLine
 10
5.1292478107623083
 20
-594.96122049780229
 30
0.0
 11
5.1292478107623083
 21
-554.96122049780229
 31
0.0
  0
CIRCLE
  5
1DE
100
AcDbEntity
  8
FAN70-0207
370
              15
390
0
  6
STYLE_12
 62
               7
100
AcDbCircle
 10
-709.87075218923724
 20
-464.96122049780229
 30
0.0
 40
10.0
  0
LINE
  5
1DF
100
AcDbEntity
  8
FAN70-0207
370
              15
390
0
  6
STYLE_12
 62
               7
100
AcDbLine
 10
-729.87075218923724
 20
-464.96122049780229
 30
0.0
 11
-689.87075218923724
 21
-464.96122049780229
 31
0.0
  0
LINE
  5
1E0
100
AcDbEntity
  8
FAN70-0207
370
              15
390
0
  6
STYLE_12
 62
               7
100
AcDbLine
 10
-709.87075218923724
 20
-484.96122049780229
 30
0.0
 11
-709.87075218923724
 21
-444.96122049780229
 31
0.0
  0
CIRCLE
  5
1E1
100
AcDbEntity
  8
FAN70-0207
370
              15
390
0
  6
STYLE_12
 62
               7
100
AcDbCircle
 10
-709.87075218923724
 20
-574.96122049780229
 30
0.0
 40
10.0
  0
LINE
  5
1E2
100
AcDbEntity
  8
FAN70-0207
370
              15
390
0
  6
STYLE_12
 62
               7
100
AcDbLine
 10
-729.87075218923724
 20
-574.96122049780229
 30
0.0
 11
-689.87075218923724
 21
-574.96122049780229
 31
0.0
  0
LINE
  5
1E3
100
AcDbEntity
  8
FAN70-0207
370
              15
390
0
  6
STYLE_12
 62
               7
100
AcDbLine
 10
-709.87075218923724
 20
-594.96122049780229
 30
0.0
 11
-709.87075218923724
 21
-554.96122049780229
 31
0.0
  0
CIRCLE
  5
1E4
100
AcDbEntity
  8
FAN70-0207
370
              15
390
0
  6
STYLE_12
 62
               7
100
AcDbCircle
 10
-492.37075218923792
 20
-520.00000000000011
 30
0.0
 40
10.0
  0
LINE
  5
1E5
100
AcDbEntity
  8
FAN70-0207
370
              15
390
0
  6
STYLE_12
 62
               7
100
AcDbLine
 10
-512.37075218923792
 20
-520.00000000000011
 30
0.0
 11
-472.37075218923792
 21
-520.00000000000011
 31
0.0
  0
LINE
  5
1E6
100
AcDbEntity
  8
FAN70-0207
370
              15
390
0
  6
STYLE_12
 62
               7
100
AcDbLine
 10
-492.37075218923792
 20
-540.00000000000011
 30
0.0
 11
-492.37075218923792
 21
-500.00000000000011
 31
0.0
  0
CIRCLE
  5
1E7
100
AcDbEntity
  8
FAN70-0207
370
              15
390
0
  6
STYLE_12
 62
               7
100
AcDbCircle
 10
-212.37075218923769
 20
-520.00000000000011
 30
0.0
 40
10.0
  0
LINE
  5
1E8
100
AcDbEntity
  8
FAN70-0207
370
              15
390
0
  6
STYLE_12
 62
               7
100
AcDbLine
 10
-232.37075218923769
 20
-520.00000000000011
 30
0.0
 11
-192.37075218923769
 21
-520.00000000000011
 31
0.0
  0
LINE
  5
1E9
100
AcDbEntity
  8
FAN70-0207
370
              15
390
0
  6
STYLE_12
 62
               7
100
AcDbLine
 10
-212.37075218923769
 20
-540.00000000000011
 30
0.0
 11
-212.37075218923769
 21
-500.00000000000011
 31
0.0
  0
POLYLINE
  5
1EA
100
AcDbEntity
  8
FAN70-0207
370
              15
390
0
  6
STYLE_12
 62
               7
100
AcDb2dPolyline
 66
               1
 10
0.0
 20
0.0
 30
0.0
 70
               1
 75
               5
  0
VERTEX
  5
1EB
100
AcDbEntity
  8
FAN70-0207
370
              15
390
0
  6
STYLE_12
 62
               7
100
AcDbVertex
100
AcDb2dVertex
 10
503.21863654390495
 20
-546.00000000000011
 30
0.0
  0
VERTEX
  5
1EC
100
AcDbEntity
  8
FAN70-0207
370
              15
390
0
  6
STYLE_12
 62
               7
100
AcDbVertex
100
AcDb2dVertex
 10
573.21863654390495
 20
-546.00000000000011
 30
0.0
  0
VERTEX
  5
1ED
100
AcDbEntity
  8
FAN70-0207
370
              15
390
0
  6
STYLE_12
 62
               7
100
AcDbVertex
100
AcDb2dVertex
 10
573.21863654390495
 20
-590.00000000000011
 30
0.0
  0
VERTEX
  5
1EE
100
AcDbEntity
  8
FAN70-0207
370
              15
390
0
  6
STYLE_12
 62
               7
100
AcDbVertex
100
AcDb2dVertex
 10
503.21863654390495
 20
-590.00000000000011
 30
0.0
  0
SEQEND
  5
1EF
100
AcDbEntity
  8
FAN70-0207
370
              15
390
0
  6
STYLE_12
 62
               7
  0
POLYLINE
  5
1F0
100
AcDbEntity
  8
FAN70-0207
370
              15
390
0
  6
STYLE_12
 62
               7
100
AcDb2dPolyline
 66
               1
 10
0.0
 20
0.0
 30
0.0
 70
               1
 75
               5
  0
VERTEX
  5
1F1
100
AcDbEntity
  8
FAN70-0207
370
              15
390
0
  6
STYLE_12
 62
               7
100
AcDbVertex
100
AcDb2dVertex
 10
-174.90064284706105
 20
-546.00000000000011
 30
0.0
  0
VERTEX
  5
1F2
100
AcDbEntity
  8
FAN70-0207
370
              15
390
0
  6
STYLE_12
 62
               7
100
AcDbVertex
100
AcDb2dVertex
 10
-104.90064284706105
 20
-546.00000000000011
 30
0.0
  0
VERTEX
  5
1F3
100
AcDbEntity
  8
FAN70-0207
370
              15
390
0
  6
STYLE_12
 62
               7
100
AcDbVertex
100
AcDb2dVertex
 10
-104.90064284706105
 20
-590.00000000000011
 30
0.0
  0
VERTEX
  5
1F4
100
AcDbEntity
  8
FAN70-0207
370
              15
390
0
  6
STYLE_12
 62
               7
100
AcDbVertex
100
AcDb2dVertex
 10
-174.90064284706105
 20
-590.00000000000011
 30
0.0
  0
SEQEND
  5
1F5
100
AcDbEntity
  8
FAN70-0207
370
              15
390
0
  6
STYLE_12
 62
               7
  0
LINE
  5
1F6
100
AcDbEntity
  8
FAN70-0207
370
               5
390
0
  6
STYLE_12
 62
               7
100
AcDbLine
 10
503.21863654390495
 20
-556.0
 30
0.0
 11
573.21863654390495
 21
-556.0
 31
0.0
  0
LINE
  5
1F7
100
AcDbEntity
  8
FAN70-0207
370
               5
390
0
  6
STYLE_12
 62
               7
100
AcDbLine
 10
-174.99999999999997
 20
-556.0
 30
0.0
 11
-104.99999999999997
 21
-556.0
 31
0.0
  0
DIMENSION
  5
1F8
100
AcDbEntity
  8
FAN70-0207
370
               5
390
0
  6
Continuous
 62
               7
100
AcDbDimension
  2
*D23
 10
-139.87075218923758
 20
-750.0
 30
0.0
 11
-46.120752189237592
 21
-750.0
 31
0.0
 71
               5
 72
               1
 41
1.0
 42
0.0
  3
tfrom線あり
100
AcDbAlignedDimension
 13
47.629247810762394
 23
-593.89147341101909
 33
0.0
 14
-139.87075218923758
 24
-600.0
 34
0.0
100
AcDbRotatedDimension
1001
ACAD
1000
DSTYLE
1002
{
1070
             279
1070
               2
1070
             340
1005
3B
1070
             147
1040
5.0
1002
}
  0
ENDSEC
  0
SECTION
  2
OBJECTS
  0
DICTIONARY
  5
19
100
AcDbDictionary
280
               0
281
               1
  3
ACAD_GROUP
350
1A
  3
ACAD_MLINESTYLE
350
1B
  3
ACAD_LAYOUT
350
1E
  3
ACAD_PLOTSETTINGS
350
22
  3
ACAD_PLOTSTYLENAME
350
1F
  0
DICTIONARY
  5
1A
102
{ACAD_REACTORS
330
19
102
}
100
AcDbDictionary
280
               0
281
               1
  0
DICTIONARY
  5
1B
102
{ACAD_REACTORS
330
19
102
}
100
AcDbDictionary
280
               0
281
               1
  3
Standard
350
1C
  0
MLINESTYLE
  5
1C
102
{ACAD_REACTORS
330
1B
102
}
100
AcDbMlineStyle
  2
Standard
 70
               0
  3

 62
               0
 51
90.0
 52
90.0
 71
               2
 49
0.5
 62
             256
  6
ByLayer
 49
-0.5
 62
             256
  6
ByLayer
  0
ACDBDICTIONARYWDFLT
  5
1F
102
{ACAD_REACTORS
330
19
102
}
100
AcDbDictionary
281
               1
  3
Normal
350
1D
100
AcDbDictionaryWithDefault
340
1D
  0
ACDBPLACEHOLDER
  5
1D
102
{ACAD_REACTORS
330
1F
102
}
  0
LAYOUT
  5
20
102
{ACAD_REACTORS
330
1E
102
}
100
AcDbPlotSettings
  1

  2

  4

  6

 40
0.0
 41
0.0
 42
0.0
 43
0.0
 44
0.0
 45
0.0
 46
0.0
 47
0.0
 48
0.0
 49
0.0
140
0.0
141
0.0
142
1.0
143
1.0
 70
            1024
 72
               0
 73
               0
 74
               0
  7

 75
               0
147
1.0
148
0.0
149
0.0
100
AcDbLayout
  1
Model
 70
               0
 71
               0
 10
0.0
 20
0.0
 11
0.0
 21
0.0
 12
0.0
 22
0.0
 32
0.0
 14
0.0
 24
0.0
 34
0.0
 15
0.0
 25
0.0
 35
0.0
146
0.0
 13
0.0
 23
0.0
 33
0.0
 16
0.0
 26
0.0
 36
0.0
 17
0.0
 27
0.0
 37
0.0
 76
               0
330
A
331
0
345
0
346
0
  0
LAYOUT
  5
21
102
{ACAD_REACTORS
330
1E
102
}
100
AcDbPlotSettings
  1

  2

  4

  6

 40
0.0
 41
0.0
 42
0.0
 43
0.0
 44
0.0
 45
0.0
 46
0.0
 47
0.0
 48
0.0
 49
0.0
140
0.0
141
0.0
142
1.0
143
1.0
 70
               0
 72
               0
 73
               0
 74
               0
  7

 75
               0
147
1.0
148
0.0
149
0.0
100
AcDbLayout
  1
Layout1
 70
               0
 71
               0
 10
0.0
 20
0.0
 11
0.0
 21
0.0
 12
0.0
 22
0.0
 32
0.0
 14
0.0
 24
0.0
 34
0.0
 15
0.0
 25
0.0
 35
0.0
146
0.0
 13
0.0
 23
0.0
 33
0.0
 16
0.0
 26
0.0
 36
0.0
 17
0.0
 27
0.0
 37
0.0
 76
               0
330
B
331
0
345
0
346
0
  0
DICTIONARY
  5
1E
102
{ACAD_REACTORS
330
19
102
}
100
AcDbDictionary
280
               0
281
               1
  3
Layout1
350
21
  3
Model
350
20
  0
DICTIONARY
  5
22
102
{ACAD_REACTORS
330
19
102
}
100
AcDbDictionary
280
               0
281
               1
  0
ENDSEC
  0
EOF
