  0
SECTION
  2
HEADER
  9
$ACADVER
  1
AC1015
  9
$ACADMAINTVER
 70
               6
  9
$DWGCODEPAGE
  3
ANSI_932
  9
$INSBASE
 10
0.0
 20
0.0
 30
0.0
  9
$EXTMIN
 10
-975.00000000024124
 20
-1431.5255224711129
 30
-14.834305555555554
  9
$EXTMAX
 10
975.00000000024124
 20
1405.9972926412995
 30
14.834305555555554
  9
$LIMMIN
 10
0.0
 20
0.0
  9
$LIMMAX
 10
0.0
 20
0.0
  9
$ORTHOMODE
 70
               0
  9
$REGENMODE
 70
               1
  9
$FILLMODE
 70
               1
  9
$QTEXTMODE
 70
               0
  9
$MIRRTEXT
 70
               1
  9
$LTSCALE
 40
50.799999999999997
  9
$ATTMODE
 70
               1
  9
$TEXTSIZE
 40
0.2
  9
$TRACEWID
 40
1.0
  9
$TEXTSTYLE
  7
Standard
  9
$CLAYER
  8
FAN70-0301
  9
$CELTYPE
  6
Continuous
  9
$CECOLOR
 62
             256
  9
$CELTSCALE
 40
1.0
  9
$DISPSILH
 70
               0
  9
$DIMSCALE
 40
1.0
  9
$DIMASZ
 40
9.9993896484374982
  9
$DIMEXO
 40
24.999999999999996
  9
$DIMDLI
 40
0.9999999999999999
  9
$DIMRND
 40
0.0
  9
$DIMDLE
 40
0.0
  9
$DIMEXE
 40
0.0
  9
$DIMTP
 40
0.0
  9
$DIMTM
 40
0.0
  9
$DIMTXT
 40
24.432617187500004
  9
$DIMCEN
 40
0.0
  9
$DIMTSZ
 40
0.0
  9
$DIMTOL
 70
               0
  9
$DIMLIM
 70
               0
  9
$DIMTIH
 70
               0
  9
$DIMTOH
 70
               0
  9
$DIMSE1
 70
               0
  9
$DIMSE2
 70
               0
  9
$DIMTAD
 70
               1
  9
$DIMZIN
 70
              11
  9
$DIMBLK
  1
_DOT
  9
$DIMASO
 70
               1
  9
$DIMSHO
 70
               1
  9
$DIMPOST
  1
<>
  9
$DIMAPOST
  1
[]
  9
$DIMALT
 70
               0
  9
$DIMALTD
 70
               1
  9
$DIMALTF
 40
1.0
  9
$DIMLFAC
 40
1.0
  9
$DIMTOFL
 70
               0
  9
$DIMTVP
 40
0.0
  9
$DIMTIX
 70
               1
  9
$DIMSOXD
 70
               0
  9
$DIMSAH
 70
               0
  9
$DIMBLK1
  1

  9
$DIMBLK2
  1

  9
$DIMSTYLE
  2
tfrom線あり
  9
$DIMCLRD
 70
               0
  9
$DIMCLRE
 70
               0
  9
$DIMCLRT
 70
               0
  9
$DIMTFAC
 40
1.0
  9
$DIMGAP
 40
0.4999999999999999
  9
$DIMJUST
 70
               0
  9
$DIMSD1
 70
               0
  9
$DIMSD2
 70
               0
  9
$DIMTOLJ
 70
               1
  9
$DIMTZIN
 70
              11
  9
$DIMALTZ
 70
              11
  9
$DIMALTTZ
 70
              11
  9
$DIMUPT
 70
               0
  9
$DIMDEC
 70
               1
  9
$DIMTDEC
 70
               1
  9
$DIMALTU
 70
               2
  9
$DIMALTTD
 70
               2
  9
$DIMTXSTY
  7
ＭＳ ゴシック
  9
$DIMAUNIT
 70
               0
  9
$DIMADEC
 70
               2
  9
$DIMALTRND
 40
0.0
  9
$DIMAZIN
 70
               0
  9
$DIMDSEP
 70
              46
  9
$DIMATFIT
 70
               0
  9
$DIMFRAC
 70
               2
  9
$DIMLDRBLK
  1

  9
$DIMLUNIT
 70
               2
  9
$DIMLWD
 70
              -2
  9
$DIMLWE
 70
              -2
  9
$DIMTMOVE
 70
               0
  9
$LUNITS
 70
               2
  9
$LUPREC
 70
               4
  9
$SKETCHINC
 40
0.1
  9
$FILLETRAD
 40
0.0
  9
$AUNITS
 70
               0
  9
$AUPREC
 70
               0
  9
$MENU
  1
acad
  9
$ELEVATION
 40
0.0
  9
$PELEVATION
 40
0.0
  9
$THICKNESS
 40
0.0
  9
$LIMCHECK
 70
               0
  9
$CHAMFERA
 40
0.0
  9
$CHAMFERB
 40
0.0
  9
$CHAMFERC
 40
0.0
  9
$CHAMFERD
 40
0.0
  9
$SKPOLY
 70
               0
  9
$TDCREATE
 40
2456050.619074074
  9
$TDUCREATE
 40
0.000000000
  9
$TDUPDATE
 40
2456050.619074074
  9
$TDUUPDATE
 40
0.000000000
  9
$TDINDWG
 40
0.0000000000
  9
$TDUSRTIMER
 40
0.0000000000
  9
$USRTIMER
 70
               1
  9
$ANGBASE
 50
0.0
  9
$ANGDIR
 70
               0
  9
$PDMODE
 70
               1
  9
$PDSIZE
 40
-2.0
  9
$PLINEWID
 40
0.0
  9
$SPLFRAME
 70
               0
  9
$SPLINETYPE
 70
               6
  9
$SPLINESEGS
 70
               8
  9
$HANDSEED
  5
193
  9
$SURFTAB1
 70
               6
  9
$SURFTAB2
 70
               6
  9
$SURFTYPE
 70
               6
  9
$SURFU
 70
               6
  9
$SURFV
 70
               6
  9
$UCSBASE
  2

  9
$UCSNAME
  2

  9
$UCSORG
 10
0.0
 20
0.0
 30
0.0
  9
$UCSXDIR
 10
1.0
 20
0.0
 30
0.0
  9
$UCSYDIR
 10
0.0
 20
1.0
 30
0.0
  9
$UCSORTHOREF
  2

  9
$UCSORTHOVIEW
 70
               0
  9
$UCSORGTOP
 10
0.0
 20
0.0
 30
0.0
  9
$UCSORGBOTTOM
 10
0.0
 20
0.0
 30
0.0
  9
$UCSORGLEFT
 10
0.0
 20
0.0
 30
0.0
  9
$UCSORGRIGHT
 10
0.0
 20
0.0
 30
0.0
  9
$UCSORGFRONT
 10
0.0
 20
0.0
 30
0.0
  9
$UCSORGBACK
 10
0.0
 20
0.0
 30
0.0
  9
$PUCSBASE
  2

  9
$PUCSNAME
  2

  9
$PUCSORG
 10
0.0
 20
0.0
 30
0.0
  9
$PUCSXDIR
 10
1.0
 20
0.0
 30
0.0
  9
$PUCSYDIR
 10
0.0
 20
1.0
 30
0.0
  9
$PUCSORTHOREF
  2

  9
$PUCSORTHOVIEW
 70
               0
  9
$PUCSORGTOP
 10
0.0
 20
0.0
 30
0.0
  9
$PUCSORGBOTTOM
 10
0.0
 20
0.0
 30
0.0
  9
$PUCSORGLEFT
 10
0.0
 20
0.0
 30
0.0
  9
$PUCSORGRIGHT
 10
0.0
 20
0.0
 30
0.0
  9
$PUCSORGFRONT
 10
0.0
 20
0.0
 30
0.0
  9
$PUCSORGBACK
 10
0.0
 20
0.0
 30
0.0
  9
$USERI1
 70
               0
  9
$USERI2
 70
               0
  9
$USERI3
 70
               0
  9
$USERI4
 70
               0
  9
$USERI5
 70
               0
  9
$USERR1
 40
0.0
  9
$USERR2
 40
0.0
  9
$USERR3
 40
0.0
  9
$USERR4
 40
0.0
  9
$USERR5
 40
0.0
  9
$WORLDVIEW
 70
               1
  9
$SHADEDGE
 70
               3
  9
$SHADEDIF
 70
              70
  9
$TILEMODE
 70
               1
  9
$MAXACTVP
 70
              64
  9
$PINSBASE
 10
0.0
 20
0.0
 30
0.0
  9
$PLIMCHECK
 70
               0
  9
$PEXTMIN
 10
1.0000000000000000E+20
 20
1.0000000000000000E+20
 30
1.0000000000000000E+20
  9
$PEXTMAX
 10
-1.0000000000000000E+20
 20
-1.0000000000000000E+20
 30
-1.0000000000000000E+20
  9
$PLIMMIN
 10
0.0
 20
0.0
  9
$PLIMMAX
 10
12.0
 20
9.0
  9
$UNITMODE
 70
               0
  9
$VISRETAIN
 70
               0
  9
$PLINEGEN
 70
               1
  9
$PSLTSCALE
 70
               0
  9
$TREEDEPTH
 70
            3020
  9
$CMLSTYLE
  2
Standard
  9
$CMLJUST
 70
               0
  9
$CMLSCALE
 40
1.0
  9
$PROXYGRAPHICS
 70
               0
  9
$MEASUREMENT
 70
               1
  9
$CELWEIGHT
370
               0
  9
$ENDCAPS
280
               0
  9
$JOINSTYLE
280
               0
  9
$LWDISPLAY
290
               1
  9
$INSUNITS
 70
               4
  9
$HYPERLINKBASE
  1

  9
$STYLESHEET
  1

  9
$XEDIT
290
               1
  9
$CEPSNTYPE
380
               0
  9
$PSTYLEMODE
290
               1
  9
$FINGERPRINTGUID
  2

  9
$VERSIONGUID
  2

  9
$EXTNAMES
290
               1
  9
$PSVPSCALE
 40
0.0
  0
ENDSEC
  0
SECTION
  2
CLASSES
  0
CLASS
  1
LWPOLYLINE
  2
AcDbPolyline
  3
AutoCAD 2000
 90
        0
280
               0
281
               1
  0
CLASS
  1
IMAGE
  2
AcDbRasterImage
  3
ISM
 90
      127
280
               0
281
               1
  0
CLASS
  1
OLE2FRAME
  2
AcDbOle2Frame
  3
AutoCAD 2000
 90
        0
280
               0
281
               1
  0
CLASS
  1
HATCH
  2
AcDbHatch
  3
AutoCAD 2000
 90
        0
280
               0
281
               1
  0
CLASS
  1
DICTIONARYVAR
  2
AcDbDictionaryVar
  3
AutoCAD 2000
 90
        0
280
               0
281
               0
  0
CLASS
  1
RASTERVARIABLES
  2
AcDbRasterVariables
  3
ISM
 90
        0
280
               0
281
               0
  0
CLASS
  1
IMAGEDEF
  2
AcDbRasterImageDef
  3
ISM
 90
        0
280
               0
281
               0
  0
CLASS
  1
IMAGEDEF_REACTOR
  2
AcDbRasterImageDefReactor
  3
ISM
 90
        1
280
               0
281
               0
  0
CLASS
  1
IDBUFFER
  2
AcDbIdBuffer
  3
AutoCAD 2000
 90
        0
280
               0
281
               0
  0
CLASS
  1
SPATIAL_FILTER
  2
AcDbSpatialFilter
  3
AutoCAD 2000
 90
        0
280
               0
281
               0
  0
CLASS
  1
XRECORD
  2
AcDbXrecord
  3
AutoCAD 2000
 90
        0
280
               0
281
               0
  0
CLASS
  1
SORTENTSTABLE
  2
AcDbSortentsTable
  3
AutoCAD 2000
 90
        0
280
               0
281
               0
  0
CLASS
  1
LAYER_INDEX
  2
AcDbLayerIndex
  3
AutoCAD 2000
 90
        0
280
               0
281
               0
  0
CLASS
  1
SPATIAL_INDEX
  2
AcDbSpatialIndex
  3
AutoCAD 2000
 90
        0
280
               0
281
               0
  0
CLASS
  1
OBJECT_PTR
  2
CAseDLPNTableRecord
  3
"ASE-LPNTableRecord"
 90
        1
280
               0
281
               0
  0
CLASS
  1
LAYOUT
  2
AcDbLayout
  3
AutoCAD 2000
 90
        0
280
               0
281
               0
  0
CLASS
  1
PLOTSETTINGS
  2
AcDbPlotSettings
  3
AutoCAD 2000
 90
        0
280
               0
281
               0
  0
CLASS
  1
ACDBDICTIONARYWDFLT
  2
AcDbDictionaryWithDefault
  3
AutoCAD 2000
 90
        0
280
               0
281
               0
  0
CLASS
  1
ACDBPLACEHOLDER
  2
AcDbPlaceHolder
  3
AutoCAD 2000
 90
        0
280
               0
281
               0
  0
ENDSEC
  0
SECTION
  2
TABLES
  0
TABLE
  2
VPORT
  5
7
100
AcDbSymbolTable
 70
               1
  0
VPORT
  5
15
100
AcDbSymbolTableRecord
100
AcDbViewportTableRecord
  2
*ACTIVE
 70
               0
 10
0.0
 20
0.0
 11
1.0
 21
1.0
 12
0.0
 22
-12.764114914906713
 13
0.0
 23
0.0
 14
1.0
 24
1.0
 15
0.0
 25
0.0
 16
0.0
 26
0.0
 36
1.0
 17
0.0
 27
0.0
 37
0.0
 40
2837.5228151124124
 41
0.688564
 42
50.0
 43
0.0
 44
0.0
 50
0.0
 51
0.0
 71
               0
 72
            2000
 73
               1
 74
               1
 75
               0
 76
               0
 77
               0
 78
               0
281
               0
 65
               0
110
0.0
120
0.0
130
0.0
111
1.0
121
0.0
131
0.0
112
0.0
122
1.0
132
0.0
345
0
346
0
 79
               0
146
0.0
  0
ENDTAB
  0
TABLE
  2
LTYPE
  5
4
100
AcDbSymbolTable
 70
              17
  0
LTYPE
  5
11
100
AcDbSymbolTableRecord
100
AcDbLinetypeTableRecord
  2
ByBlock
 70
              64
  3

 72
              65
 73
               0
 40
0.0
  0
LTYPE
  5
12
100
AcDbSymbolTableRecord
100
AcDbLinetypeTableRecord
  2
ByLayer
 70
              64
  3

 72
              65
 73
               0
 40
0.0
  0
LTYPE
  5
13
100
AcDbSymbolTableRecord
100
AcDbLinetypeTableRecord
  2
Continuous
 70
              64
  3
Solid line
 72
              65
 73
               0
 40
0.0
  0
LTYPE
  5
33
100
AcDbSymbolTableRecord
100
AcDbLinetypeTableRecord
  2
STYLE_01
 70
               0
  3

 72
              65
 73
               4
 40
0.3999999999999999
 49
0.25
 74
               0
 49
-0.05
 74
               0
 49
0.05
 74
               0
 49
-0.05
 74
               0
  0
LTYPE
  5
34
100
AcDbSymbolTableRecord
100
AcDbLinetypeTableRecord
  2
STYLE_02
 70
               0
  3

 72
              65
 73
               2
 40
0.6944250000000001
 49
0.48607
 74
               0
 49
-0.2083550000000001
 74
               0
  0
LTYPE
  5
35
100
AcDbSymbolTableRecord
100
AcDbLinetypeTableRecord
  2
STYLE_03
 70
               0
  3

 72
              65
 73
               2
 40
1.25
 49
1.0416400000000001
 74
               0
 49
-0.2083599999999999
 74
               0
  0
LTYPE
  5
36
100
AcDbSymbolTableRecord
100
AcDbLinetypeTableRecord
  2
STYLE_04
 70
               0
  3

 72
              65
 73
               2
 40
1.5277099999999999
 49
1.3194249999999998
 74
               0
 49
-0.208285
 74
               0
  0
LTYPE
  5
37
100
AcDbSymbolTableRecord
100
AcDbLinetypeTableRecord
  2
STYLE_05
 70
               0
  3

 72
              65
 73
               2
 40
0.20828
 49
0.069425
 74
               0
 49
-0.138855
 74
               0
  0
LTYPE
  5
38
100
AcDbSymbolTableRecord
100
AcDbLinetypeTableRecord
  2
STYLE_06
 70
               0
  3

 72
              65
 73
               4
 40
1.0416400000000001
 49
0.625
 74
               0
 49
-0.20828
 74
               0
 49
0.06943
 74
               0
 49
-0.13893
 74
               0
  0
LTYPE
  5
39
100
AcDbSymbolTableRecord
100
AcDbLinetypeTableRecord
  2
STYLE_07
 70
               0
  3

 72
              65
 73
               6
 40
1.875
 49
0.625
 74
               0
 49
-0.20828
 74
               0
 49
0.6250000000000001
 74
               0
 49
-0.2083599999999999
 74
               0
 49
0.06943
 74
               0
 49
-0.1389299999999999
 74
               0
  0
LTYPE
  5
3A
100
AcDbSymbolTableRecord
100
AcDbLinetypeTableRecord
  2
STYLE_08
 70
               0
  3

 72
              65
 73
               6
 40
1.25
 49
0.625
 74
               0
 49
-0.20828
 74
               0
 49
0.06943
 74
               0
 49
-0.13893
 74
               0
 49
0.0694299999999999
 74
               0
 49
-0.13893
 74
               0
  0
LTYPE
  5
3B
100
AcDbSymbolTableRecord
100
AcDbLinetypeTableRecord
  2
STYLE_09
 70
               0
  3

 72
              65
 73
               4
 40
5.0
 49
3.75
 74
               0
 49
-0.2777849999999998
 74
               0
 49
0.6944300000000003
 74
               0
 49
-0.2777849999999998
 74
               0
  0
LTYPE
  5
3C
100
AcDbSymbolTableRecord
100
AcDbLinetypeTableRecord
  2
STYLE_10
 70
               0
  3

 72
              65
 73
               6
 40
5.9375
 49
3.75
 74
               0
 49
-0.2777849999999998
 74
               0
 49
0.6944300000000003
 74
               0
 49
-0.2777849999999998
 74
               0
 49
0.625
 74
               0
 49
-0.3125
 74
               0
  0
LTYPE
  5
3D
100
AcDbSymbolTableRecord
100
AcDbLinetypeTableRecord
  2
STYLE_11
 70
               0
  3

 72
              65
 73
               2
 40
0.0694444881889764
 49
0.0347222440944882
 74
               0
 49
-0.0347222440944882
 74
               0
  0
LTYPE
  5
3E
100
AcDbSymbolTableRecord
100
AcDbLinetypeTableRecord
  2
STYLE_12
 70
               0
  3

 72
              65
 73
               2
 40
0.3937007874015748
 49
0.1968503937007874
 74
               0
 49
-0.1968503937007874
 74
               0
  0
LTYPE
  5
3F
100
AcDbSymbolTableRecord
100
AcDbLinetypeTableRecord
  2
STYLE_13
 70
               0
  3

 72
              65
 73
               2
 40
0.5905511811023622
 49
0.2952755905511811
 74
               0
 49
-0.2952755905511811
 74
               0
  0
LTYPE
  5
40
100
AcDbSymbolTableRecord
100
AcDbLinetypeTableRecord
  2
STYLE_14
 70
               0
  3

 72
              65
 73
               2
 40
1.9685039370078738
 49
0.9842519685039369
 74
               0
 49
-0.9842519685039369
 74
               0
  0
ENDTAB
  0
TABLE
  2
LAYER
  5
2
100
AcDbSymbolTable
 70
               5
  0
LAYER
  5
14
100
AcDbSymbolTableRecord
100
AcDbLayerTableRecord
  2
0
 70
               0
 62
               7
  6
Continuous
290
               1
370
              -3
390
1D
  0
LAYER
  5
41
100
AcDbSymbolTableRecord
100
AcDbLayerTableRecord
  2
Defpoints
 70
               0
 62
               7
  6
Continuous
290
               0
370
              -3
390
1D
  0
LAYER
  5
42
100
AcDbSymbolTableRecord
100
AcDbLayerTableRecord
  2
template
 70
               0
 62
               7
  6
Continuous
290
               1
370
              -3
390
1D
  0
LAYER
  5
43
100
AcDbSymbolTableRecord
100
AcDbLayerTableRecord
  2
notes
 70
               0
 62
               7
  6
Continuous
290
               1
370
              -3
390
1D
  0
LAYER
  5
44
100
AcDbSymbolTableRecord
100
AcDbLayerTableRecord
  2
FAN70-0301
 70
               0
 62
               7
  6
Continuous
290
               1
370
              -3
390
1D
  0
ENDTAB
  0
TABLE
  2
STYLE
  5
3
100
AcDbSymbolTable
 70
               2
  0
STYLE
  5
17
100
AcDbSymbolTableRecord
100
AcDbTextStyleTableRecord
  2
Standard
 70
               0
 40
0.0
 41
1.0
 50
0.0
 71
               0
 42
0.0
  3
txt
  4
BIGFONT.SHX
  0
STYLE
  5
32
100
AcDbSymbolTableRecord
100
AcDbTextStyleTableRecord
  2
ＭＳ ゴシック
 70
               0
 40
0.0
 41
1.0
 50
0.0
 71
               0
 42
0.0
  3

  4
ＭＳ ゴシック
1001
ACAD
1000
ＭＳ ゴシック
1071
        0
  0
ENDTAB
  0
TABLE
  2
VIEW
  5
5
100
AcDbSymbolTable
 70
               0
  0
ENDTAB
  0
TABLE
  2
UCS
  5
6
100
AcDbSymbolTable
 70
               0
  0
ENDTAB
  0
TABLE
  2
APPID
  5
8
100
AcDbSymbolTable
 70
               1
  0
APPID
  5
16
100
AcDbSymbolTableRecord
100
AcDbRegAppTableRecord
  2
ACAD
 70
               0
  0
ENDTAB
  0
TABLE
  2
DIMSTYLE
  5
9
100
AcDbSymbolTable
 70
               2
100
AcDbDimStyleTable
 71
               0
  0
DIMSTYLE
105
18
100
AcDbSymbolTableRecord
100
AcDbDimStyleTableRecord
  2
Standard
 70
               0
  3

  4

 40
1.0
 41
0.18
 42
0.0625
 43
0.38
 44
0.18
 45
0.0
 46
0.0
 47
0.0
 48
0.0
 71
               0
 72
               0
 73
               1
 74
               1
 75
               0
 76
               0
 77
               0
 78
               0
 79
               0
140
0.18
141
0.09
142
0.0
143
25.399999999999999
144
1.0
145
0.0
146
1.0
147
0.09
148
0.0
170
               0
171
               2
172
               0
173
               0
174
               0
175
               0
176
               0
177
               0
178
               0
179
               0
271
               4
272
               4
273
               2
274
               2
275
               0
276
               0
277
               2
278
              46
279
               0
280
               0
281
               0
282
               0
283
               1
284
               0
285
               0
286
               0
288
               0
289
               3
340
17
341
0
342
0
343
0
344
0
371
              -2
372
              -2
  0
DIMSTYLE
105
4D
100
AcDbSymbolTableRecord
100
AcDbDimStyleTableRecord
  2
tfrom線あり
 70
               0
  3
<>
  4
[]
 40
1.0
 41
9.9993896484374982
 42
24.999999999999996
 43
0.9999999999999999
 44
0.0
 45
0.0
 46
0.0
 47
0.0
 48
0.0
 71
               0
 72
               0
 73
               0
 74
               0
 75
               0
 76
               0
 77
               1
 78
              11
 79
               0
140
24.432617187500004
141
0.0
142
0.0
143
1.0
144
1.0
145
0.0
146
1.0
147
0.4999999999999999
148
0.0
170
               0
171
               1
172
               0
173
               0
174
               1
175
               0
176
               0
177
               0
178
               0
179
               2
271
               1
272
               1
273
               2
274
               2
275
               0
276
               2
277
               2
278
              46
279
               0
280
               0
281
               0
282
               0
283
               1
284
              11
285
              11
286
              11
288
               0
289
               0
340
32
341
45
342
45
343
0
344
0
371
              -2
372
              -2
  0
ENDTAB
  0
TABLE
  2
BLOCK_RECORD
  5
1
100
AcDbSymbolTable
 70
              16
  0
BLOCK_RECORD
  5
A
100
AcDbSymbolTableRecord
100
AcDbBlockTableRecord
  2
*MODEL_SPACE
340
20
  0
BLOCK_RECORD
  5
B
100
AcDbSymbolTableRecord
100
AcDbBlockTableRecord
  2
*PAPER_SPACE
340
21
  0
BLOCK_RECORD
  5
45
100
AcDbSymbolTableRecord
100
AcDbBlockTableRecord
  2
_DOT
340
0
  0
BLOCK_RECORD
  5
23
100
AcDbSymbolTableRecord
100
AcDbBlockTableRecord
  2
グループ
340
0
102
{BLKREFS
331
10F
102
}
  0
BLOCK_RECORD
  5
24
100
AcDbSymbolTableRecord
100
AcDbBlockTableRecord
  2
*D2
340
0
  0
BLOCK_RECORD
  5
25
100
AcDbSymbolTableRecord
100
AcDbBlockTableRecord
  2
*D3
340
0
  0
BLOCK_RECORD
  5
26
100
AcDbSymbolTableRecord
100
AcDbBlockTableRecord
  2
*D4
340
0
  0
BLOCK_RECORD
  5
27
100
AcDbSymbolTableRecord
100
AcDbBlockTableRecord
  2
*D5
340
0
  0
BLOCK_RECORD
  5
28
100
AcDbSymbolTableRecord
100
AcDbBlockTableRecord
  2
*D6
340
0
  0
BLOCK_RECORD
  5
29
100
AcDbSymbolTableRecord
100
AcDbBlockTableRecord
  2
*D7
340
0
  0
BLOCK_RECORD
  5
2A
100
AcDbSymbolTableRecord
100
AcDbBlockTableRecord
  2
*D8
340
0
  0
BLOCK_RECORD
  5
2B
100
AcDbSymbolTableRecord
100
AcDbBlockTableRecord
  2
*D9
340
0
  0
BLOCK_RECORD
  5
2C
100
AcDbSymbolTableRecord
100
AcDbBlockTableRecord
  2
*D10
340
0
  0
BLOCK_RECORD
  5
2D
100
AcDbSymbolTableRecord
100
AcDbBlockTableRecord
  2
*D11
340
0
  0
BLOCK_RECORD
  5
2E
100
AcDbSymbolTableRecord
100
AcDbBlockTableRecord
  2
*D12
340
0
  0
BLOCK_RECORD
  5
2F
100
AcDbSymbolTableRecord
100
AcDbBlockTableRecord
  2
*D13
340
0
  0
BLOCK_RECORD
  5
30
100
AcDbSymbolTableRecord
100
AcDbBlockTableRecord
  2
*D14
340
0
  0
BLOCK_RECORD
  5
31
100
AcDbSymbolTableRecord
100
AcDbBlockTableRecord
  2
*D15
340
0
  0
ENDTAB
  0
ENDSEC
  0
SECTION
  2
BLOCKS
  0
BLOCK
  5
D
100
AcDbEntity
  8
0
390
0
100
AcDbBlockBegin
  2
*MODEL_SPACE
 70
               0
 10
0.0
 20
0.0
 30
0.0
  3
*MODEL_SPACE
  1

  0
ENDBLK
  5
E
100
AcDbEntity
  8
0
390
0
100
AcDbBlockEnd
  0
BLOCK
  5
F
100
AcDbEntity
 67
               1
  8
0
390
0
100
AcDbBlockBegin
  2
*PAPER_SPACE
 70
               0
 10
0.0
 20
0.0
 30
0.0
  3
*PAPER_SPACE
  1

  0
ENDBLK
  5
10
100
AcDbEntity
 67
               1
  8
0
390
0
100
AcDbBlockEnd
  0
BLOCK
  5
46
100
AcDbEntity
  8
0
390
0
100
AcDbBlockBegin
  2
_DOT
 70
               0
 10
0.0
 20
0.0
 30
0.0
  3
_DOT
  1

  0
POLYLINE
  5
47
100
AcDbEntity
  8
0
370
              -2
390
0
  6
ByBlock
 62
               0
100
AcDb2dPolyline
 66
               1
 10
0.0
 20
0.0
 30
0.0
 70
               1
 40
0.5
 41
0.5
  0
VERTEX
  5
48
100
AcDbEntity
  8
0
370
              -2
390
0
  6
ByBlock
 62
               0
100
AcDbVertex
100
AcDb2dVertex
 10
-0.25
 20
0.0
 30
0.0
 42
1.0
  0
VERTEX
  5
49
100
AcDbEntity
  8
0
370
              -2
390
0
  6
ByBlock
 62
               0
100
AcDbVertex
100
AcDb2dVertex
 10
0.25
 20
0.0
 30
0.0
 42
1.0
  0
SEQEND
  5
4A
100
AcDbEntity
  8
0
390
0
  0
LINE
  5
4B
100
AcDbEntity
  8
0
370
              -2
390
0
  6
ByBlock
 62
               0
100
AcDbLine
 10
-0.5
 20
0.0
 30
0.0
 11
-1.0
 21
0.0
 31
0.0
  0
ENDBLK
  5
4C
100
AcDbEntity
  8
0
390
0
100
AcDbBlockEnd
  0
BLOCK
  5
4E
100
AcDbEntity
  8
template
390
0
100
AcDbBlockBegin
  2
グループ
 70
               0
 10
0.0
 20
0.0
 30
0.0
  3
グループ
  1

  0
LWPOLYLINE
  5
4F
100
AcDbEntity
  8
0
370
              15
390
0
  6
Continuous
 62
               7
100
AcDbPolyline
 90
        8
 70
             129
 10
838.42850780307481
 20
-1406.9447210237267
 10
838.42850780307481
 20
-1412.9421097173026
 10
828.92731088507151
 20
-1412.9421097173026
 10
828.92731088507151
 20
-1437.3930729808114
 10
820.57193362328871
 20
-1437.3930729808114
 10
820.57193362328871
 20
-1412.9421097173026
 10
811.23897667697929
 20
-1412.9421097173026
 10
811.23897667697929
 20
-1406.9447210237267
  0
LWPOLYLINE
  5
50
100
AcDbEntity
  8
0
370
              15
390
0
  6
Continuous
 62
               7
100
AcDbPolyline
 90
      101
 70
             128
 10
851.15679963363175
 20
-1407.6729695166632
 10
851.17214966241647
 20
-1407.6686087599783
 42
-0.0222221607815131
 10
851.46215423908779
 20
-1407.5999842947335
 10
851.47794800307724
 20
-1407.5969808716372
 42
-0.0146883565586603
 10
851.74065070830557
 20
-1407.5549776846872
 42
-0.0127458844184519
 10
852.00528967545881
 20
-1407.5274407166146
 10
852.06774475377142
 20
-1407.5225472940265
 42
-0.019809901856755
 10
852.4585938632415
 20
-1407.5074621366298
 10
852.51040533269202
 20
-1407.5075159122948
 42
-0.0147617382759417
 10
853.00502879366957
 20
-1407.5226359375399
 10
853.07772024854228
 20
-1407.5270085444276
 42
-0.0162624549003738
 10
853.46787387800578
 20
-1407.5632414196998
 10
853.58940626926551
 20
-1407.5785279786962
 42
-0.0080020874659215
 10
853.73498530035658
 20
-1407.5992108259647
 10
853.7733047709429
 20
-1407.6052821037745
 42
-0.0053821929681708
 10
853.84178887626638
 20
-1407.6168896275974
 10
853.11538317706777
 20
-1409.7978180833113
 42
0.0108667757397966
 10
853.04806610693583
 20
-1409.7846309680913
 10
853.01059808374748
 20
-1409.778133225497
 42
0.0170663203306925
 10
852.8673812968317
 20
-1409.7583036282051
 10
852.79950596414892
 20
-1409.7512564576177
 42
0.0220162375274143
 10
852.51912655629519
 20
-1409.7345740968476
 10
852.44127098924196
 20
-1409.7333747295811
 42
0.0282606915787075
 10
852.10563466566362
 20
-1409.7471780065503
 10
852.06172139189255
 20
-1409.7514779965538
 42
0.0169677213687021
 10
851.8157968969324
 20
-1409.7840150461057
 42
0.0190576269865589
 10
851.57288893435111
 20
-1409.8341619182124
 10
851.56662974624146
 20
-1409.8357048923215
 42
0.0213685642844558
 10
851.31624526176722
 20
-1409.9089051774251
 10
851.3107553668475
 20
-1409.9107681734854
 42
0.0237595297599652
 10
851.05726048194879
 20
-1410.010452695381
 10
851.05215840791914
 20
-1410.0127444708592
 42
0.0261857468820509
 10
850.79998763169021
 20
-1410.1422808082332
 10
850.78956144260451
 20
-1410.1483462827007
 42
0.0272553062017536
 10
850.55313166736369
 20
-1410.3037184886462
 10
850.51836865385656
 20
-1410.3293796367366
 42
0.032599689316664
 10
850.36821331020269
 20
-1410.4561275097099
 10
850.34450388107712
 20
-1410.4789455382252
 42
0.0138050960639049
 10
850.25262072486953
 20
-1410.5723951997743
 42
0.0125280103797566
 10
850.1657781920436
 20
-1410.6705585263655
 10
850.14209774712765
 20
-1410.6987170245618
 42
0.0205218024742867
 10
850.01699767161301
 20
-1410.8605103387922
 10
849.99453133112684
 20
-1410.8921700686178
 42
0.0163110129582301
 10
849.8388209518771
 20
-1411.1275005036853
 10
849.83609705582455
 20
-1411.1319242656732
 42
0.0131897341898462
 10
849.68929653491534
 20
-1411.3850563580438
 10
849.68759643955218
 20
-1411.3881745971735
 42
0.0107895576063642
 10
849.54981973734141
 20
-1411.6543898068087
 10
849.5490868478164
 20
-1411.655884039455
 42
0.0091371507218753
 10
849.42060689917116
 20
-1411.9304092372049
 10
849.3908612677576
 20
-1411.9971157443733
 42
0.0135418326348206
 10
849.21914732868606
 20
-1412.4120535296418
 10
849.1855425202499
 20
-1412.499919671928
 42
0.0092834542414931
 10
849.01431346033087
 20
-1412.9738181702287
 10
848.98869633260915
 20
-1413.049059240034
 42
0.0054261043581402
 10
848.88105818432018
 20
-1413.3768232130874
 10
848.86353219812452
 20
-1413.4322113753751
 42
0.0008225090814146
 10
848.79486214631277
 20
-1413.6504801334665
 10
847.8101730143793
 20
-1416.6753714267231
 10
851.04279685445317
 20
-1416.6753714267231
 10
850.53860442459973
 20
-1418.5798497250755
 10
847.28254814261641
 20
-1418.5798497250755
 10
841.45339911026258
 20
-1437.3930727910804
 10
839.62830149995227
 20
-1437.3930727910804
 10
845.4629795354532
 20
-1418.5798497250755
 10
843.05786316641286
 20
-1418.5798497250755
 10
843.5620555962663
 20
-1416.6753714267231
 10
845.99060440721632
 20
-1416.6753714267231
 10
846.85075932540497
 20
-1414.0389584260242
 42
-0.000586356063831
 10
846.88749400358961
 20
-1413.9221320057923
 10
846.96358183726886
 20
-1413.681139706347
 42
-0.0087522378925971
 10
847.16304998072815
 20
-1413.0858636191938
 10
847.25531425614258
 20
-1412.8257234506777
 42
-0.0077400953829253
 10
847.51324791527031
 20
-1412.1327187731395
 10
847.52901288685041
 20
-1412.0922878897504
 42
-0.0082369946330391
 10
847.77609735746114
 20
-1411.4882088235577
 42
-0.0085725238367201
 10
848.04334345346194
 20
-1410.8927827842747
 10
848.14497305447469
 20
-1410.6763616822786
 42
-0.0168109410595792
 10
848.43191748320146
 20
-1410.115154156181
 10
848.55776087357947
 20
-1409.8881901233294
 42
-0.0007817726867613
 10
848.61204522371713
 20
-1409.7906458781526
 10
848.61217352972233
 20
-1409.7904161694378
 42
-0.0036626142162031
 10
848.6670613937556
 20
-1409.6938182894476
 42
-0.0080221150678226
 10
848.72418564916859
 20
-1409.5985390546846
 10
848.75488560052349
 20
-1409.5491481055724
 42
-0.0202139325577203
 10
848.88254134032752
 20
-1409.3611665048948
 10
848.93660880551784
 20
-1409.2880876406502
 42
-0.0249323791800456
 10
849.19577159923688
 20
-1408.9720423984961
 10
849.219911413364
 20
-1408.9454281255835
 42
-0.0242132121540533
 10
849.5595921549085
 20
-1408.6055446393773
 10
849.60750372765415
 20
-1408.5620355031956
 42
-0.0251017527860336
 10
849.8914854282973
 20
-1408.3290427574284
 10
849.8929309051116
 20
-1408.3279734998489
 42
-0.0130868069032241
 10
850.19119155506837
 20
-1408.1191930313071
 10
850.19275337420936
 20
-1408.1181595910332
 42
-0.0290329526389257
 10
850.50386451560439
 20
-1407.9373340894026
 10
850.53371007759097
 20
-1407.9222317065628
 42
-0.0160250190047957
 10
850.79961449135521
 20
-1407.79821559635
 42
-0.026760037478757
 10
851.07489056882162
 20
-1407.697467275802
 10
851.10162648834478
 20
-1407.6892747169757
 42
-0.0049981587669914
 10
851.15679963363175
 20
-1407.6729695166632
 42
-0.0049981587669914
  0
LWPOLYLINE
  5
51
100
AcDbEntity
  8
0
370
              15
390
0
  6
Continuous
 62
               7
100
AcDbPolyline
 90
      118
 70
             128
 10
870.97116719807866
 20
-1416.7493547545505
 10
872.84628912257813
 20
-1416.7493547545505
 10
872.00825021697824
 20
-1419.4309212809505
 42
-0.001058722925848
 10
872.03970603251639
 20
-1419.3940167476349
 10
872.09790012318217
 20
-1419.3260344914195
 42
-0.0071874740411037
 10
872.24827534127871
 20
-1419.1553937993922
 10
872.38999811454244
 20
-1418.9991576580774
 42
-0.0148118053512518
 10
872.84012740726007
 20
-1418.5315438120595
 10
872.92734974214238
 20
-1418.4461464912251
 42
-0.0086273358699082
 10
873.26289854316542
 20
-1418.1287708571942
 10
873.30673225939051
 20
-1418.0887212128619
 42
-0.010313832311658
 10
873.56475596162477
 20
-1417.8625580755229
 10
873.6105303679501
 20
-1417.8240760282642
 42
-0.0060206748572584
 10
873.78337843206407
 20
-1417.6822813775084
 10
873.78540956294751
 20
-1417.6806556718791
 42
-0.0067069027295849
 10
873.95770237761258
 20
-1417.5465050380822
 10
873.96025114354188
 20
-1417.5445748682043
 42
-0.0076184352051748
 10
874.13115640940987
 20
-1417.4191999929631
 42
-0.0089652861669566
 10
874.30611737215213
 20
-1417.2995667326252
 10
874.34246909228989
 20
-1417.275655519147
 42
-0.015691624594055
 10
874.5384285894495
 20
-1417.1553930326731
 42
-0.00232990110646
 10
874.73869063342272
 20
-1417.0422150931358
 10
874.75407476580915
 20
-1417.0336150980675
 42
-0.010766934148747
 10
874.98831159091026
 20
-1416.9092149647181
 10
875.0105763919853
 20
-1416.897998214768
 42
-0.0078058045895303
 10
875.29416650993994
 20
-1416.7606367591286
 10
875.30407359764718
 20
-1416.7560276312611
 42
-0.0181829330473168
 10
875.61438300226246
 20
-1416.6251638901656
 10
875.66843844482958
 20
-1416.604648770222
 42
-0.0208411536030692
 10
876.01752341227984
 20
-1416.4885583077289
 10
876.03187951240614
 20
-1416.4844398627758
 42
-0.0222799817142485
 10
876.3605993063245
 20
-1416.4057982966351
 10
876.36948826956518
 20
-1416.4040862860493
 42
-0.0215509523879962
 10
876.68595923784142
 20
-1416.3571705975155
 10
876.72844119888782
 20
-1416.352733070725
 42
-0.0182545924873198
 10
876.96254997819551
 20
-1416.3368892453339
 10
877.00195099454913
 20
-1416.3356647002545
 42
-0.0072962856530919
 10
877.15787387423256
 20
-1416.3330953717325
 10
877.18697354480264
 20
-1416.3330405363288
 42
-0.0059227516321968
 10
877.2847230439495
 20
-1416.3340142481193
 10
877.31396526145647
 20
-1416.3346520147234
 42
-0.0011833111914344
 10
877.35321654515383
 20
-1416.3356010190325
 10
876.55782994954666
 20
-1418.8743349641315
 42
0.0143932051577806
 10
876.53142856719819
 20
-1418.8641359940871
 10
876.52415659477879
 20
-1418.861564775229
 42
0.0234388603538173
 10
876.48232572884308
 20
-1418.8489455395127
 10
876.47364406593397
 20
-1418.8467645775086
 42
0.0199162742976861
 10
876.4133552318558
 20
-1418.8341478421737
 10
876.39254129404776
 20
-1418.830650642745
 42
0.029364355066219
 10
876.2894664352882
 20
-1418.8195005970917
 10
876.26478125456833
 20
-1418.8182889800732
 42
0.0214606686863442
 10
876.11164033861655
 20
-1418.8173504196557
 10
876.10226842779787
 20
-1418.8176953312
 42
0.0167564054177521
 10
875.9307482366886
 20
-1418.8297723735682
 10
875.92228844393048
 20
-1418.8306537139952
 42
0.0137677553238995
 10
875.73493513066751
 20
-1418.8554030225384
 10
875.72758339115785
 20
-1418.8565809425068
 42
0.0118497261490052
 10
875.52708562704959
 20
-1418.8935982926973
 10
875.52093561980928
 20
-1418.894885155416
 42
0.0106421143888335
 10
875.31005473251912
 20
-1418.943717530992
 10
875.30514592413522
 20
-1418.9449648736759
 42
0.0099746379702925
 10
875.08668745497346
 20
-1419.0051394019904
 10
875.02513941480242
 20
-1419.0234212806213
 42
0.0191613675860657
 10
874.68915495228305
 20
-1419.1373986609096
 10
874.6010951795397
 20
-1419.1710855712329
 42
0.0205274080142899
 10
874.21578840764073
 20
-1419.3369139790589
 10
874.15813912566284
 20
-1419.3645819436292
 42
0.0181256912191483
 10
873.89986218499178
 20
-1419.5002657626092
 10
873.84690680167705
 20
-1419.5305833758243
 42
0.0140709242413888
 10
873.7019518670495
 20
-1419.6190780492582
 10
873.67570299843135
 20
-1419.6361348679734
 42
0.0086667884398158
 10
873.58677683688848
 20
-1419.6961375358565
 42
0.0036408192014727
 10
873.4993435988813
 20
-1419.7583183936299
 10
873.46411672438649
 20
-1419.7837593395616
 42
0.0052260781274247
 10
873.30788802700522
 20
-1419.8990917261885
 10
873.29168117073573
 20
-1419.9113198368141
 42
0.0050024435895972
 10
873.1056778276843
 20
-1420.0546024050705
 10
873.09035967116176
 20
-1420.0666484275221
 42
0.0136138710279387
 10
872.8799184028386
 20
-1420.2416149324335
 10
872.84625052704291
 20
-1420.2711939051496
 42
0.0172815186915739
 10
872.5818469853798
 20
-1420.5201905777735
 10
872.57928463953772
 20
-1420.5227763949201
 42
0.0189403857995256
 10
872.32870284095873
 20
-1420.7955816597243
 10
872.29607134742128
 20
-1420.8339255912231
 42
0.0185044199505493
 10
872.10411490844263
 20
-1421.0771741723443
 42
0.0088565243896443
 10
871.92565480181725
 20
-1421.3306905924899
 10
871.91647682216569
 20
-1421.3442319722544
 42
0.0157195347230454
 10
871.73325621583206
 20
-1421.6337541815692
 10
871.68717327389629
 20
-1421.7119063785983
 42
0.0095451879785924
 10
871.52208772376309
 20
-1422.0045010209474
 10
871.51093980483574
 20
-1422.0251716930752
 42
0.0100351706254857
 10
871.3788960556742
 20
-1422.2822272535702
 42
0.008693591541877
 10
871.25656490388064
 20
-1422.5440603989734
 10
871.25324416246565
 20
-1422.5515027219465
 42
0.0072580174866162
 10
871.13289771051745
 20
-1422.8320947135373
 10
871.1296360772144
 20
-1422.8400147395473
 42
0.0060005122613581
 10
871.01043540886997
 20
-1423.1396244101572
 10
871.00722443053007
 20
-1423.1479859380574
 42
0.0049017786979748
 10
870.8883242716704
 20
-1423.4669149186677
 10
870.88515846528219
 20
-1423.475667855892
 42
0.0039415167602001
 10
870.76572218722754
 20
-1423.8142099182996
 10
870.76259108457339
 20
-1423.8233131191814
 42
0.0031035838768161
 10
870.64178629887942
 20
-1424.1817529809575
 10
870.63867625434989
 20
-1424.1911736023299
 42
0.0025070747156361
 10
870.51577490303271
 20
-1424.5698208192796
 10
870.47848100660917
 20
-1424.6867124845267
 42
0.0029081910283976
 10
870.28646270879858
 20
-1425.3008761428171
 10
870.24565954028128
 20
-1425.4340993850942
 42
0.0009266453730917
 10
869.97724216601512
 20
-1426.3163238448572
 10
869.95635469328181
 20
-1426.3854357243997
 42
-0.0005809993665113
 10
869.67901801273479
 20
-1427.2992438308925
 10
869.61273621443547
 20
-1427.5167287631386
 42
-0.0012018708164857
 10
869.46575190503268
 20
-1427.9948914275728
 10
869.41343205353724
 20
-1428.1636505682125
 42
-0.000269105960794
 10
869.36986257229853
 20
-1428.3039181887807
 10
866.53690667400929
 20
-1437.3930727910804
 10
864.71891778203076
 20
-1437.3930727910804
 10
870.97116719807866
 20
-1416.7493547545505
  0
SPLINE
  5
52
100
AcDbEntity
  8
0
370
              15
390
0
  6
Continuous
 62
               7
100
AcDbSpline
210
0.0
220
0.0
230
1.0
 70
              13
 71
               2
 72
             782
 73
             779
 74
               0
 42
0.000001
 43
0.000001
 40
0.0
 40
0.0
 40
0.0
 40
1.0
 40
1.0
 40
2.0
 40
2.0
 40
3.0
 40
3.0
 40
4.0
 40
4.0
 40
5.0
 40
5.0
 40
6.0
 40
6.0
 40
7.0
 40
7.0
 40
8.0
 40
8.0
 40
9.0
 40
9.0
 40
10.0
 40
10.0
 40
11.0
 40
11.0
 40
12.0
 40
12.0
 40
13.0
 40
13.0
 40
14.0
 40
14.0
 40
15.0
 40
15.0
 40
16.0
 40
16.0
 40
17.0
 40
17.0
 40
18.0
 40
18.0
 40
19.0
 40
19.0
 40
20.0
 40
20.0
 40
21.0
 40
21.0
 40
22.0
 40
22.0
 40
23.0
 40
23.0
 40
24.0
 40
24.0
 40
25.0
 40
25.0
 40
26.0
 40
26.0
 40
27.0
 40
27.0
 40
28.0
 40
28.0
 40
29.0
 40
29.0
 40
30.0
 40
30.0
 40
31.0
 40
31.0
 40
32.0
 40
32.0
 40
33.0
 40
33.0
 40
34.0
 40
34.0
 40
35.0
 40
35.0
 40
36.0
 40
36.0
 40
37.0
 40
37.0
 40
38.0
 40
38.0
 40
39.0
 40
39.0
 40
40.0
 40
40.0
 40
41.0
 40
41.0
 40
42.0
 40
42.0
 40
43.0
 40
43.0
 40
44.0
 40
44.0
 40
45.0
 40
45.0
 40
46.0
 40
46.0
 40
47.0
 40
47.0
 40
48.0
 40
48.0
 40
49.0
 40
49.0
 40
50.0
 40
50.0
 40
51.0
 40
51.0
 40
52.0
 40
52.0
 40
53.0
 40
53.0
 40
54.0
 40
54.0
 40
55.0
 40
55.0
 40
56.0
 40
56.0
 40
57.0
 40
57.0
 40
58.0
 40
58.0
 40
59.0
 40
59.0
 40
60.0
 40
60.0
 40
61.0
 40
61.0
 40
62.0
 40
62.0
 40
63.0
 40
63.0
 40
64.0
 40
64.0
 40
65.0
 40
65.0
 40
66.0
 40
66.0
 40
67.0
 40
67.0
 40
68.0
 40
68.0
 40
69.0
 40
69.0
 40
70.0
 40
70.0
 40
71.0
 40
71.0
 40
72.0
 40
72.0
 40
73.0
 40
73.0
 40
74.0
 40
74.0
 40
75.0
 40
75.0
 40
76.0
 40
76.0
 40
77.0
 40
77.0
 40
78.0
 40
78.0
 40
79.0
 40
79.0
 40
80.0
 40
80.0
 40
81.0
 40
81.0
 40
82.0
 40
82.0
 40
83.0
 40
83.0
 40
84.0
 40
84.0
 40
85.0
 40
85.0
 40
86.0
 40
86.0
 40
87.0
 40
87.0
 40
88.0
 40
88.0
 40
89.0
 40
89.0
 40
90.0
 40
90.0
 40
91.0
 40
91.0
 40
92.0
 40
92.0
 40
93.0
 40
93.0
 40
94.0
 40
94.0
 40
95.0
 40
95.0
 40
96.0
 40
96.0
 40
97.0
 40
97.0
 40
98.0
 40
98.0
 40
99.0
 40
99.0
 40
100.0
 40
100.0
 40
101.0
 40
101.0
 40
102.0
 40
102.0
 40
103.0
 40
103.0
 40
104.0
 40
104.0
 40
105.0
 40
105.0
 40
106.0
 40
106.0
 40
107.0
 40
107.0
 40
108.0
 40
108.0
 40
109.0
 40
109.0
 40
110.0
 40
110.0
 40
111.0
 40
111.0
 40
112.0
 40
112.0
 40
113.0
 40
113.0
 40
114.0
 40
114.0
 40
115.0
 40
115.0
 40
116.0
 40
116.0
 40
117.0
 40
117.0
 40
118.0
 40
118.0
 40
119.0
 40
119.0
 40
120.0
 40
120.0
 40
121.0
 40
121.0
 40
122.0
 40
122.0
 40
123.0
 40
123.0
 40
124.0
 40
124.0
 40
125.0
 40
125.0
 40
126.0
 40
126.0
 40
127.0
 40
127.0
 40
128.0
 40
128.0
 40
129.0
 40
129.0
 40
130.0
 40
130.0
 40
131.0
 40
131.0
 40
132.0
 40
132.0
 40
133.0
 40
133.0
 40
134.0
 40
134.0
 40
135.0
 40
135.0
 40
136.0
 40
136.0
 40
137.0
 40
137.0
 40
138.0
 40
138.0
 40
139.0
 40
139.0
 40
140.0
 40
140.0
 40
141.0
 40
141.0
 40
142.0
 40
142.0
 40
143.0
 40
143.0
 40
144.0
 40
144.0
 40
145.0
 40
145.0
 40
146.0
 40
146.0
 40
147.0
 40
147.0
 40
148.0
 40
148.0
 40
149.0
 40
149.0
 40
150.0
 40
150.0
 40
151.0
 40
151.0
 40
152.0
 40
152.0
 40
153.0
 40
153.0
 40
154.0
 40
154.0
 40
155.0
 40
155.0
 40
156.0
 40
156.0
 40
157.0
 40
157.0
 40
158.0
 40
158.0
 40
159.0
 40
159.0
 40
160.0
 40
160.0
 40
161.0
 40
161.0
 40
162.0
 40
162.0
 40
163.0
 40
163.0
 40
164.0
 40
164.0
 40
165.0
 40
165.0
 40
166.0
 40
166.0
 40
167.0
 40
167.0
 40
168.0
 40
168.0
 40
169.0
 40
169.0
 40
170.0
 40
170.0
 40
171.0
 40
171.0
 40
172.0
 40
172.0
 40
173.0
 40
173.0
 40
174.0
 40
174.0
 40
175.0
 40
175.0
 40
176.0
 40
176.0
 40
177.0
 40
177.0
 40
178.0
 40
178.0
 40
179.0
 40
179.0
 40
180.0
 40
180.0
 40
181.0
 40
181.0
 40
182.0
 40
182.0
 40
183.0
 40
183.0
 40
184.0
 40
184.0
 40
185.0
 40
185.0
 40
186.0
 40
186.0
 40
187.0
 40
187.0
 40
188.0
 40
188.0
 40
189.0
 40
189.0
 40
190.0
 40
190.0
 40
191.0
 40
191.0
 40
192.0
 40
192.0
 40
193.0
 40
193.0
 40
194.0
 40
194.0
 40
195.0
 40
195.0
 40
196.0
 40
196.0
 40
197.0
 40
197.0
 40
198.0
 40
198.0
 40
199.0
 40
199.0
 40
200.0
 40
200.0
 40
201.0
 40
201.0
 40
202.0
 40
202.0
 40
203.0
 40
203.0
 40
204.0
 40
204.0
 40
205.0
 40
205.0
 40
206.0
 40
206.0
 40
207.0
 40
207.0
 40
208.0
 40
208.0
 40
209.0
 40
209.0
 40
210.0
 40
210.0
 40
211.0
 40
211.0
 40
212.0
 40
212.0
 40
213.0
 40
213.0
 40
214.0
 40
214.0
 40
215.0
 40
215.0
 40
216.0
 40
216.0
 40
217.0
 40
217.0
 40
218.0
 40
218.0
 40
219.0
 40
219.0
 40
220.0
 40
220.0
 40
221.0
 40
221.0
 40
222.0
 40
222.0
 40
223.0
 40
223.0
 40
224.0
 40
224.0
 40
225.0
 40
225.0
 40
226.0
 40
226.0
 40
227.0
 40
227.0
 40
228.0
 40
228.0
 40
229.0
 40
229.0
 40
230.0
 40
230.0
 40
231.0
 40
231.0
 40
232.0
 40
232.0
 40
233.0
 40
233.0
 40
234.0
 40
234.0
 40
235.0
 40
235.0
 40
236.0
 40
236.0
 40
237.0
 40
237.0
 40
238.0
 40
238.0
 40
239.0
 40
239.0
 40
240.0
 40
240.0
 40
241.0
 40
241.0
 40
242.0
 40
242.0
 40
243.0
 40
243.0
 40
244.0
 40
244.0
 40
245.0
 40
245.0
 40
246.0
 40
246.0
 40
247.0
 40
247.0
 40
248.0
 40
248.0
 40
249.0
 40
249.0
 40
250.0
 40
250.0
 40
251.0
 40
251.0
 40
252.0
 40
252.0
 40
253.0
 40
253.0
 40
254.0
 40
254.0
 40
255.0
 40
255.0
 40
256.0
 40
256.0
 40
257.0
 40
257.0
 40
258.0
 40
258.0
 40
259.0
 40
259.0
 40
260.0
 40
260.0
 40
261.0
 40
261.0
 40
262.0
 40
262.0
 40
263.0
 40
263.0
 40
264.0
 40
264.0
 40
265.0
 40
265.0
 40
266.0
 40
266.0
 40
267.0
 40
267.0
 40
268.0
 40
268.0
 40
269.0
 40
269.0
 40
270.0
 40
270.0
 40
271.0
 40
271.0
 40
272.0
 40
272.0
 40
273.0
 40
273.0
 40
274.0
 40
274.0
 40
275.0
 40
275.0
 40
276.0
 40
276.0
 40
277.0
 40
277.0
 40
278.0
 40
278.0
 40
279.0
 40
279.0
 40
280.0
 40
280.0
 40
281.0
 40
281.0
 40
282.0
 40
282.0
 40
283.0
 40
283.0
 40
284.0
 40
284.0
 40
285.0
 40
285.0
 40
286.0
 40
286.0
 40
287.0
 40
287.0
 40
288.0
 40
288.0
 40
289.0
 40
289.0
 40
290.0
 40
290.0
 40
291.0
 40
291.0
 40
292.0
 40
292.0
 40
293.0
 40
293.0
 40
294.0
 40
294.0
 40
295.0
 40
295.0
 40
296.0
 40
296.0
 40
297.0
 40
297.0
 40
298.0
 40
298.0
 40
299.0
 40
299.0
 40
300.0
 40
300.0
 40
301.0
 40
301.0
 40
302.0
 40
302.0
 40
303.0
 40
303.0
 40
304.0
 40
304.0
 40
305.0
 40
305.0
 40
306.0
 40
306.0
 40
307.0
 40
307.0
 40
308.0
 40
308.0
 40
309.0
 40
309.0
 40
310.0
 40
310.0
 40
311.0
 40
311.0
 40
312.0
 40
312.0
 40
313.0
 40
313.0
 40
314.0
 40
314.0
 40
315.0
 40
315.0
 40
316.0
 40
316.0
 40
317.0
 40
317.0
 40
318.0
 40
318.0
 40
319.0
 40
319.0
 40
320.0
 40
320.0
 40
321.0
 40
321.0
 40
322.0
 40
322.0
 40
323.0
 40
323.0
 40
324.0
 40
324.0
 40
325.0
 40
325.0
 40
326.0
 40
326.0
 40
327.0
 40
327.0
 40
328.0
 40
328.0
 40
329.0
 40
329.0
 40
330.0
 40
330.0
 40
331.0
 40
331.0
 40
332.0
 40
332.0
 40
333.0
 40
333.0
 40
334.0
 40
334.0
 40
335.0
 40
335.0
 40
336.0
 40
336.0
 40
337.0
 40
337.0
 40
338.0
 40
338.0
 40
339.0
 40
339.0
 40
340.0
 40
340.0
 40
341.0
 40
341.0
 40
342.0
 40
342.0
 40
343.0
 40
343.0
 40
344.0
 40
344.0
 40
345.0
 40
345.0
 40
346.0
 40
346.0
 40
347.0
 40
347.0
 40
348.0
 40
348.0
 40
349.0
 40
349.0
 40
350.0
 40
350.0
 40
351.0
 40
351.0
 40
352.0
 40
352.0
 40
353.0
 40
353.0
 40
354.0
 40
354.0
 40
355.0
 40
355.0
 40
356.0
 40
356.0
 40
357.0
 40
357.0
 40
358.0
 40
358.0
 40
359.0
 40
359.0
 40
360.0
 40
360.0
 40
361.0
 40
361.0
 40
362.0
 40
362.0
 40
363.0
 40
363.0
 40
364.0
 40
364.0
 40
365.0
 40
365.0
 40
366.0
 40
366.0
 40
367.0
 40
367.0
 40
368.0
 40
368.0
 40
369.0
 40
369.0
 40
370.0
 40
370.0
 40
371.0
 40
371.0
 40
372.0
 40
372.0
 40
373.0
 40
373.0
 40
374.0
 40
374.0
 40
375.0
 40
375.0
 40
376.0
 40
376.0
 40
377.0
 40
377.0
 40
378.0
 40
378.0
 40
379.0
 40
379.0
 40
380.0
 40
380.0
 40
381.0
 40
381.0
 40
382.0
 40
382.0
 40
383.0
 40
383.0
 40
384.0
 40
384.0
 40
385.0
 40
385.0
 40
386.0
 40
386.0
 40
387.0
 40
387.0
 40
388.0
 40
388.0
 40
389.0
 40
389.0
 40
389.0
 10
881.29987164881129
 20
-1416.7384283911881
 30
0.0
 41
1.0
 10
882.11829575753177
 20
-1416.7384283911881
 30
0.0
 41
1.0
 10
882.93671986625225
 20
-1416.7384283911881
 30
0.0
 41
1.0
 10
882.52296613073554
 20
-1418.0810546554378
 30
0.0
 41
1.0
 10
882.10921239521872
 20
-1419.4236809196875
 30
0.0
 41
1.0
 10
882.12755189035659
 20
-1419.3949801468223
 30
0.0
 41
0.999995726439131
 10
882.14605888717608
 20
-1419.3663870966896
 30
0.0
 41
1.0
 10
882.17648821133412
 20
-1419.3193742182816
 30
0.0
 41
1.0
 10
882.20691753549204
 20
-1419.2723613398737
 30
0.0
 41
1.0
 10
882.28628318059327
 20
-1419.1497425329767
 30
0.0
 41
0.9995394069080349
 10
882.37294157214262
 20
-1419.0321644712387
 30
0.0
 41
1.0
 10
882.40869843440646
 20
-1418.9836495786396
 30
0.0
 41
1.0
 10
882.4444552966703
 20
-1418.9351346860406
 30
0.0
 41
1.0
 10
882.57818196448716
 20
-1418.7536944109154
 30
0.0
 41
0.9994460617143224
 10
882.72368244577569
 20
-1418.5815520132651
 30
0.0
 41
1.0
 10
882.72807062674906
 20
-1418.5763603328846
 30
0.0
 41
1.0
 10
882.73245880772231
 20
-1418.571168652504
 30
0.0
 41
1.0
 10
882.86918292706093
 20
-1418.4094096156184
 30
0.0
 41
0.9994359394934121
 10
883.01645715741506
 20
-1418.257193414451
 30
0.0
 41
1.0
 10
883.01884051136597
 20
-1418.2547300840802
 30
0.0
 41
1.0
 10
883.02122386531687
 20
-1418.2522667537096
 30
0.0
 41
1.0
 10
883.16373138776339
 20
-1418.1049772132892
 30
0.0
 41
0.9995293688567714
 10
883.31500306874864
 20
-1417.9667040011223
 30
0.0
 41
1.0
 10
883.33429682801091
 20
-1417.9490681154721
 30
0.0
 41
1.0
 10
883.35359058727317
 20
-1417.9314322298219
 30
0.0
 41
1.0
 10
883.46627474973047
 20
-1417.8284307889583
 30
0.0
 41
0.9997087614802888
 10
883.58379763868584
 20
-1417.7309865081602
 30
0.0
 41
1.0
 10
883.602963711862
 20
-1417.7150949296515
 30
0.0
 41
1.0
 10
883.62212978503828
 20
-1417.6992033511431
 30
0.0
 41
1.0
 10
883.70132052763847
 20
-1417.6335422273642
 30
0.0
 41
0.9999595338694757
 10
883.78167979849604
 20
-1417.5693164967074
 30
0.0
 41
1.0
 10
883.86203906934372
 20
-1417.5050907660582
 30
0.0
 41
0.9999749417506005
 10
883.94329960367384
 20
-1417.4420092121222
 30
0.0
 41
1.0
 10
883.96428574985976
 20
-1417.4257179248025
 30
0.0
 41
1.0
 10
883.98527189604567
 20
-1417.4094266374825
 30
0.0
 41
1.0
 10
884.06983978133997
 20
-1417.3437776276478
 30
0.0
 41
0.999979203711597
 10
884.15524738109707
 20
-1417.2792248460132
 30
0.0
 41
1.0
 10
884.1760722069746
 20
-1417.2634850237812
 30
0.0
 41
1.0
 10
884.19689703285223
 20
-1417.2477452015492
 30
0.0
 41
1.0
 10
884.24065498085474
 20
-1417.2146720643786
 30
0.0
 41
0.9999993373819874
 10
884.28433666700971
 20
-1417.1814982689457
 30
0.0
 41
1.0
 10
884.32801835315206
 20
-1417.1483244735223
 30
0.0
 41
0.9999160953813586
 10
884.37254476407088
 20
-1417.1162934083245
 30
0.0
 41
1.0
 10
884.40536665149125
 20
-1417.092682252739
 30
0.0
 41
1.0
 10
884.4381885389115
 20
-1417.0690710971535
 30
0.0
 41
1.0
 10
884.5483587246689
 20
-1416.9898177207863
 30
0.0
 41
0.9980964527231908
 10
884.66744771816832
 20
-1416.9247302479309
 30
0.0
 41
1.0
 10
884.70448032509887
 20
-1416.9044902683363
 30
0.0
 41
1.0
 10
884.74151293202942
 20
-1416.8842502887419
 30
0.0
 41
1.0
 10
884.92083994530094
 20
-1416.7862400380418
 30
0.0
 41
0.9984572810573248
 10
885.10992851165884
 20
-1416.7087177766957
 30
0.0
 41
1.0
 10
885.11357478105515
 20
-1416.7072228843576
 30
0.0
 41
1.0
 10
885.11722105045135
 20
-1416.7057279920195
 30
0.0
 41
1.0
 10
885.29901707801878
 20
-1416.6311955153492
 30
0.0
 41
0.9987838528034212
 10
885.48726973657699
 20
-1416.5749298751837
 30
0.0
 41
1.0
 10
885.4915076857751
 20
-1416.5736632214937
 30
0.0
 41
1.0
 10
885.49574563497322
 20
-1416.5723965678037
 30
0.0
 41
1.0
 10
885.67552239513554
 20
-1416.5186642350179
 30
0.0
 41
0.999065281620695
 10
885.85926832685209
 20
-1416.4806605554759
 30
0.0
 41
1.0
 10
885.86445672788352
 20
-1416.4795874523693
 30
0.0
 41
1.0
 10
885.86964512891495
 20
-1416.4785143492629
 30
0.0
 41
1.0
 10
886.04301425856795
 20
-1416.4426568759338
 30
0.0
 41
0.9992909934270063
 10
886.21859002502629
 20
-1416.4199464434673
 30
0.0
 41
1.0
 10
886.39416579148428
 20
-1416.3972360110008
 30
0.0
 41
0.9994553539448311
 10
886.5708572245768
 20
-1416.3861567067945
 30
0.0
 41
1.0
 10
886.60629163237331
 20
-1416.3839348187466
 30
0.0
 41
1.0
 10
886.64172604016994
 20
-1416.381712930699
 30
0.0
 41
1.0
 10
886.80795180673908
 20
-1416.3712898682872
 30
0.0
 41
0.9990928098292643
 10
886.97446159864103
 20
-1416.3750495095219
 30
0.0
 41
1.0
 10
887.01302343391626
 20
-1416.3759202010549
 30
0.0
 41
1.0
 10
887.05158526919149
 20
-1416.3767908925879
 30
0.0
 41
1.0
 10
887.14097139054707
 20
-1416.3788091507565
 30
0.0
 41
0.9998382089204834
 10
887.23022707332984
 20
-1416.3840412772843
 30
0.0
 41
1.0
 10
887.2306569795503
 20
-1416.3840664781865
 30
0.0
 41
1.0
 10
887.23108688577076
 20
-1416.3840916790889
 30
0.0
 41
1.0
 10
887.3194827561166
 20
-1416.3892734038125
 30
0.0
 41
0.9997558016758223
 10
887.40756333331683
 20
-1416.3983559191788
 30
0.0
 41
1.0
 10
887.40803947174504
 20
-1416.3984050166614
 30
0.0
 41
1.0
 10
887.40851561017337
 20
-1416.3984541141438
 30
0.0
 41
1.0
 10
887.49564391051604
 20
-1416.4074384345452
 30
0.0
 41
0.9996565144181298
 10
887.58218176385981
 20
-1416.4209757412345
 30
0.0
 41
1.0
 10
887.58264768923823
 20
-1416.421048626966
 30
0.0
 41
1.0
 10
887.58311361461665
 20
-1416.4211215126975
 30
0.0
 41
1.0
 10
887.66871961720301
 20
-1416.4345130479237
 30
0.0
 41
0.9995321806866777
 10
887.75334669752976
 20
-1416.4531135363527
 30
0.0
 41
1.0
 10
887.75373589210062
 20
-1416.4531990788182
 30
0.0
 41
1.0
 10
887.75412508667137
 20
-1416.453284621284
 30
0.0
 41
1.0
 10
887.83797377785663
 20
-1416.4717140247817
 30
0.0
 41
0.9993819199219365
 10
887.92032031205395
 20
-1416.4959894080425
 30
0.0
 41
1.0
 10
887.92055874555376
 20
-1416.4960596971523
 30
0.0
 41
1.0
 10
887.92079717905369
 20
-1416.4961299862623
 30
0.0
 41
1.0
 10
888.00266684625194
 20
-1416.5202647913038
 30
0.0
 41
0.9992088568506083
 10
888.0823593652384
 20
-1416.5508300270976
 30
0.0
 41
1.0
 10
888.16204035611747
 20
-1416.581389627831
 30
0.0
 41
0.9990226101773508
 10
888.23871102602459
 20
-1416.6188670594456
 30
0.0
 41
1.0
 10
888.31537016782306
 20
-1416.6563388559989
 30
0.0
 41
0.9988424273972199
 10
888.38807379503544
 20
-1416.701003631252
 30
0.0
 41
1.0
 10
888.38834150341449
 20
-1416.7011680953242
 30
0.0
 41
1.0
 10
888.38860921179366
 20
-1416.7013325593962
 30
0.0
 41
1.0
 10
888.46184825576483
 20
-1416.7463262627939
 30
0.0
 41
0.9986928844492051
 10
888.53011112247509
 20
-1416.7985619970736
 30
0.0
 41
1.0
 10
888.53069241469746
 20
-1416.7990068103013
 30
0.0
 41
1.0
 10
888.53127370691982
 20
-1416.799451623529
 30
0.0
 41
1.0
 10
888.60069915807503
 20
-1416.8525769842645
 30
0.0
 41
0.9986007262279003
 10
888.66412532784148
 20
-1416.9127377539576
 30
0.0
 41
1.0
 10
888.6650197432989
 20
-1416.9135861217928
 30
0.0
 41
1.0
 10
888.66591415875632
 20
-1416.9144344896281
 30
0.0
 41
1.0
 10
888.73112915943705
 20
-1416.9762919949912
 30
0.0
 41
0.998558149138112
 10
888.78933677113832
 20
-1417.0447844852624
 30
0.0
 41
1.0
 10
888.79859522473453
 20
-1417.0556788429647
 30
0.0
 41
1.0
 10
888.80785367833073
 20
-1417.0665732006669
 30
0.0
 41
1.0
 10
888.88457819722373
 20
-1417.1568544063416
 30
0.0
 41
0.9970460233520608
 10
888.94657009838386
 20
-1417.2578214905245
 30
0.0
 41
1.0
 10
888.96103946346307
 20
-1417.2813879496052
 30
0.0
 41
1.0
 10
888.97550882854216
 20
-1417.3049544086857
 30
0.0
 41
1.0
 10
889.0152455285546
 20
-1417.3696741327176
 30
0.0
 41
0.9988468816636266
 10
889.0485918993063
 20
-1417.4379065851456
 30
0.0
 41
1.0
 10
889.05562792179853
 20
-1417.4523035062844
 30
0.0
 41
1.0
 10
889.06266394429076
 20
-1417.4667004274233
 30
0.0
 41
1.0
 10
889.08193827005834
 20
-1417.5061390375745
 30
0.0
 41
0.9998431189999686
 10
889.09980359755286
 20
-1417.546235592014
 30
0.0
 41
1.0
 10
889.1176689250492
 20
-1417.5863321464576
 30
0.0
 41
0.999998998973771
 10
889.13564764847638
 20
-1417.6263779840531
 30
0.0
 41
1.0
 10
889.14181996006732
 20
-1417.6401262008585
 30
0.0
 41
1.0
 10
889.14799227165827
 20
-1417.6538744176637
 30
0.0
 41
1.0
 10
889.17831561826733
 20
-1417.7214166888696
 30
0.0
 41
0.9998790356323384
 10
889.20652349840668
 20
-1417.78986944081
 30
0.0
 41
1.0
 10
889.2133586796906
 20
-1417.8064565422364
 30
0.0
 41
1.0
 10
889.22019386097452
 20
-1417.8230436436629
 30
0.0
 41
1.0
 10
889.2437515233562
 20
-1417.8802115985518
 30
0.0
 41
0.9998227574560931
 10
889.26514027174494
 20
-1417.9382259068279
 30
0.0
 41
1.0
 10
889.28652902013334
 20
-1417.9962402151023
 30
0.0
 41
0.9996797971040837
 10
889.3049553050929
 20
-1418.0552623342217
 30
0.0
 41
1.0
 10
889.30885910781876
 20
-1418.0677667923915
 30
0.0
 41
1.0
 10
889.31276291054451
 20
-1418.0802712505613
 30
0.0
 41
1.0
 10
889.33899680095521
 20
-1418.1643022860187
 30
0.0
 41
0.9979274938733895
 10
889.35422132443421
 20
-1418.2510066446787
 30
0.0
 41
1.0
 10
889.35644501169543
 20
-1418.2636706455
 30
0.0
 41
1.0
 10
889.35866869895665
 20
-1418.2763346463214
 30
0.0
 41
1.0
 10
889.36959863865502
 20
-1418.3385811536125
 30
0.0
 41
0.9994985982137847
 10
889.37656680383157
 20
-1418.401394654752
 30
0.0
 41
1.0
 10
889.38353496900868
 20
-1418.464208155895
 30
0.0
 41
0.999637261120149
 10
889.38711083477642
 20
-1418.5273057345789
 30
0.0
 41
1.0
 10
889.38727941226568
 20
-1418.5302803516597
 30
0.0
 41
1.0
 10
889.38744798975495
 20
-1418.5332549687407
 30
0.0
 41
1.0
 10
889.39136101050121
 20
-1418.602301781586
 30
0.0
 41
0.9997730630735754
 10
889.39232932398932
 20
-1418.6714526056189
 30
0.0
 41
1.0
 10
889.39238643040744
 20
-1418.6755307847618
 30
0.0
 41
1.0
 10
889.39244353682557
 20
-1418.6796089639047
 30
0.0
 41
1.0
 10
889.39352606314992
 20
-1418.756916146227
 30
0.0
 41
0.9998772614070264
 10
889.39218597641809
 20
-1418.8342192927885
 30
0.0
 41
1.0
 10
889.39209671321942
 20
-1418.8393684566227
 30
0.0
 41
1.0
 10
889.39200745002063
 20
-1418.8445176204568
 30
0.0
 41
1.0
 10
889.39048883689111
 20
-1418.9321190946991
 30
0.0
 41
0.9999415567325417
 10
889.38707652664527
 20
-1419.0196672563716
 30
0.0
 41
1.0
 10
889.3868352059701
 20
-1419.0258587161061
 30
0.0
 41
1.0
 10
889.38659388529481
 20
-1419.0320501758408
 30
0.0
 41
1.0
 10
889.38269893369818
 20
-1419.1319812569927
 30
0.0
 41
0.9999716810419752
 10
889.37730035057962
 20
-1419.231842395222
 30
0.0
 41
1.0
 10
889.37408755179081
 20
-1419.2912716448802
 30
0.0
 41
1.0
 10
889.37087475300189
 20
-1419.3507008945385
 30
0.0
 41
1.0
 10
889.36280084384873
 20
-1419.5000492958266
 30
0.0
 41
0.999981912989205
 10
889.35293105223286
 20
-1419.6492897735263
 30
0.0
 41
1.0
 10
889.34306126061631
 20
-1419.7985302512377
 30
0.0
 41
1.0
 10
889.34062194005242
 20
-1419.835723297087
 30
0.0
 41
1.0
 10
889.36332017386644
 20
-1419.7969822997861
 30
0.0
 41
0.9999982128193179
 10
889.38616473261254
 20
-1419.7583274058441
 30
0.0
 41
1.0
 10
889.4130742925106
 20
-1419.7127941917665
 30
0.0
 41
1.0
 10
889.43998385240855
 20
-1419.667260977689
 30
0.0
 41
1.0
 10
889.51664753093564
 20
-1419.5375396556174
 30
0.0
 41
0.999860919005932
 10
889.59759484379958
 20
-1419.4104472736847
 30
0.0
 41
1.0
 10
889.62724316527863
 20
-1419.3638975407316
 30
0.0
 41
1.0
 10
889.65689148675767
 20
-1419.3173478077786
 30
0.0
 41
1.0
 10
889.73916370699828
 20
-1419.1881752377781
 30
0.0
 41
0.9999067609733606
 10
889.82493271646081
 20
-1419.0612975483391
 30
0.0
 41
1.0
 10
889.8273374196599
 20
-1419.0577402822869
 30
0.0
 41
1.0
 10
889.8297421228591
 20
-1419.0541830162347
 30
0.0
 41
1.0
 10
889.91070172592242
 20
-1418.9344198589013
 30
0.0
 41
0.9998784952150057
 10
889.99535533560618
 20
-1418.8172386421893
 30
0.0
 41
1.0
 10
890.08000894529073
 20
-1418.7000574254766
 30
0.0
 41
0.9998532968282416
 10
890.16862656611261
 20
-1418.5858445170068
 30
0.0
 41
1.0
 10
890.18858835510139
 20
-1418.5601171959897
 30
0.0
 41
1.0
 10
890.20855014409017
 20
-1418.5343898749725
 30
0.0
 41
1.0
 10
890.32703419385007
 20
-1418.3816842640026
 30
0.0
 41
0.9991551975795137
 10
890.45765864347482
 20
-1418.2392247019177
 30
0.0
 41
1.0
 10
890.4611682594541
 20
-1418.2353971002938
 30
0.0
 41
1.0
 10
890.46467787543349
 20
-1418.2315694986698
 30
0.0
 41
1.0
 10
890.58828309309638
 20
-1418.096765139836
 30
0.0
 41
0.9997418144180751
 10
890.71788523279884
 20
-1417.9677157292217
 30
0.0
 41
1.0
 10
890.84748737249845
 20
-1417.8386663186102
 30
0.0
 41
0.9989238204633075
 10
890.98848992074818
 20
-1417.7221813565723
 30
0.0
 41
1.0
 10
891.03373759888814
 20
-1417.6848013649631
 30
0.0
 41
1.0
 10
891.07898527702821
 20
-1417.6474213733538
 30
0.0
 41
1.0
 10
891.2192253342497
 20
-1417.5315663200629
 30
0.0
 41
0.9990825084096835
 10
891.36886526685498
 20
-1417.4281373222288
 30
0.0
 41
1.0
 10
891.37891063091593
 20
-1417.4211941091467
 30
0.0
 41
1.0
 10
891.38895599497687
 20
-1417.4142508960642
 30
0.0
 41
1.0
 10
891.51850519946174
 20
-1417.3247083243941
 30
0.0
 41
0.9998164899827473
 10
891.65138940283521
 20
-1417.2401940828795
 30
0.0
 41
1.0
 10
891.66323496336031
 20
-1417.2326603163544
 30
0.0
 41
1.0
 10
891.6750805238853
 20
-1417.2251265498294
 30
0.0
 41
1.0
 10
891.78427360621095
 20
-1417.1556798413635
 30
0.0
 41
0.9997473449130959
 10
891.89647756346085
 20
-1417.0912108835475
 30
0.0
 41
1.0
 10
892.0086815207078
 20
-1417.0267419257332
 30
0.0
 41
0.9999327861142511
 10
892.12235013147028
 20
-1416.9648919340523
 30
0.0
 41
1.0
 10
892.12290213403276
 20
-1416.9645915753722
 30
0.0
 41
1.0
 10
892.12345413659523
 20
-1416.9642912166921
 30
0.0
 41
1.0
 10
892.23822675247902
 20
-1416.9018405076529
 30
0.0
 41
0.99969564204831
 10
892.35594007831833
 20
-1416.8451270406786
 30
0.0
 41
1.0
 10
892.38638048321309
 20
-1416.8304610639475
 30
0.0
 41
1.0
 10
892.41682088810774
 20
-1416.8157950872167
 30
0.0
 41
1.0
 10
892.51979799485059
 20
-1416.7661814287737
 30
0.0
 41
0.9998070570176737
 10
892.6246443837905
 20
-1416.7206508418731
 30
0.0
 41
1.0
 10
892.7294907727312
 20
-1416.6751202549724
 30
0.0
 41
0.9997827436147918
 10
892.83614370933856
 20
-1416.6339990836614
 30
0.0
 41
1.0
 10
892.85536655897135
 20
-1416.6265875100285
 30
0.0
 41
1.0
 10
892.87458940860415
 20
-1416.6191759363955
 30
0.0
 41
1.0
 10
893.01968804447654
 20
-1416.5632316178189
 30
0.0
 41
0.9988031841976407
 10
893.16955840708135
 20
-1416.5217315536513
 30
0.0
 41
1.0
 10
893.1944756554451
 20
-1416.5148318078443
 30
0.0
 41
1.0
 10
893.21939290380874
 20
-1416.5079320620373
 30
0.0
 41
1.0
 10
893.38666292945516
 20
-1416.4616139196305
 30
0.0
 41
0.9984748040549779
 10
893.55801983810409
 20
-1416.4340196873657
 30
0.0
 41
1.0
 10
893.56275897435364
 20
-1416.4332565268521
 30
0.0
 41
1.0
 10
893.5674981106032
 20
-1416.4324933663386
 30
0.0
 41
1.0
 10
893.72937674675347
 20
-1416.4064254551008
 30
0.0
 41
0.9984436495480011
 10
893.89315149047775
 20
-1416.3985475012821
 30
0.0
 41
1.0
 10
893.91484869861085
 20
-1416.3975038140825
 30
0.0
 41
1.0
 10
893.93654590674396
 20
-1416.3964601268826
 30
0.0
 41
1.0
 10
894.05692623420418
 20
-1416.3906695474634
 30
0.0
 41
0.9987954789335672
 10
894.17729447911233
 20
-1416.3967060752057
 30
0.0
 41
1.0
 10
894.19725927160505
 20
-1416.3977073195442
 30
0.0
 41
1.0
 10
894.21722406409776
 20
-1416.3987085638826
 30
0.0
 41
1.0
 10
894.29766272402071
 20
-1416.4027426029477
 30
0.0
 41
0.9997941595876801
 10
894.37787150211659
 20
-1416.410036668869
 30
0.0
 41
1.0
 10
894.4580802802077
 20
-1416.4173307347896
 30
0.0
 41
0.9998589466237862
 10
894.53799882705937
 20
-1416.4273145892394
 30
0.0
 41
1.0
 10
894.57040502887094
 20
-1416.431362946159
 30
0.0
 41
1.0
 10
894.60281123068251
 20
-1416.4354113030786
 30
0.0
 41
1.0
 10
894.7475421811555
 20
-1416.4534918713675
 30
0.0
 41
0.9993495063249848
 10
894.89059342492294
 20
-1416.4819575811093
 30
0.0
 41
1.0
 10
894.92352712207457
 20
-1416.488511044324
 30
0.0
 41
1.0
 10
894.95646081922632
 20
-1416.4950645075387
 30
0.0
 41
1.0
 10
895.06575464242928
 20
-1416.516812841674
 30
0.0
 41
0.9996788715561585
 10
895.17380621438463
 20
-1416.5440706410368
 30
0.0
 41
1.0
 10
895.17586921692441
 20
-1416.5445910676099
 30
0.0
 41
1.0
 10
895.1779322194642
 20
-1416.5451114941832
 30
0.0
 41
1.0
 10
895.28185778634224
 20
-1416.5713284404003
 30
0.0
 41
0.9995480654492415
 10
895.38402002157045
 20
-1416.6037433970241
 30
0.0
 41
1.0
 10
895.38570966369855
 20
-1416.6042795019378
 30
0.0
 41
1.0
 10
895.38739930582665
 20
-1416.6048156068514
 30
0.0
 41
1.0
 10
895.48618225679843
 20
-1416.6361583536479
 30
0.0
 41
0.9993867959456106
 10
895.58252941524245
 20
-1416.6743377229384
 30
0.0
 41
1.0
 10
895.58377236432773
 20
-1416.6748302648348
 30
0.0
 41
1.0
 10
895.58501531341301
 20
-1416.6753228067312
 30
0.0
 41
1.0
 10
895.67887657368544
 20
-1416.7125170922284
 30
0.0
 41
0.9992050256521985
 10
895.76947624871832
 20
-1416.7570709914669
 30
0.0
 41
1.0
 10
895.77021093143185
 20
-1416.7574322839282
 30
0.0
 41
1.0
 10
895.77094561414549
 20
-1416.7577935763898
 30
0.0
 41
1.0
 10
895.86007592375313
 20
-1416.8016248907063
 30
0.0
 41
0.9990222350741934
 10
895.94498598514542
 20
-1416.8531581584039
 30
0.0
 41
1.0
 10
895.94516987042834
 20
-1416.8532697613089
 30
0.0
 41
1.0
 10
895.94535375571138
 20
-1416.8533813642139
 30
0.0
 41
1.0
 10
896.02989604653908
 20
-1416.9046914261023
 30
0.0
 41
0.9988642743805369
 10
896.10917058115797
 20
-1416.9638156136275
 30
0.0
 41
1.0
 10
896.1884451157772
 20
-1417.0229398011529
 30
0.0
 41
0.998768123331086
 10
896.26146890005361
 20
-1417.0896304925541
 30
0.0
 41
1.0
 10
896.26179782801921
 20
-1417.089930893768
 30
0.0
 41
1.0
 10
896.26212675598481
 20
-1417.090231294982
 30
0.0
 41
1.0
 10
896.33580839619299
 20
-1417.1575227888118
 30
0.0
 41
0.9987496570898883
 10
896.40240220151975
 20
-1417.2318356028979
 30
0.0
 41
1.0
 10
896.4031743712801
 20
-1417.2326972762557
 30
0.0
 41
1.0
 10
896.40394654104057
 20
-1417.2335589496136
 30
0.0
 41
1.0
 10
896.47208468588815
 20
-1417.3095951104153
 30
0.0
 41
0.9988147669826443
 10
896.53250694011365
 20
-1417.3918961172585
 30
0.0
 41
1.0
 10
896.53362626619139
 20
-1417.3934207486109
 30
0.0
 41
1.0
 10
896.53474559226913
 20
-1417.3949453799635
 30
0.0
 41
1.0
 10
896.59740649864955
 20
-1417.4802956495109
 30
0.0
 41
0.9989452636215606
 10
896.65197341161081
 20
-1417.5710343386688
 30
0.0
 41
1.0
 10
896.65332213769648
 20
-1417.5732771196949
 30
0.0
 41
1.0
 10
896.65467086378226
 20
-1417.5755199007212
 30
0.0
 41
1.0
 10
896.71193522891508
 20
-1417.6707441519313
 30
0.0
 41
0.9991046436070133
 10
896.76094444223668
 20
-1417.7704685849569
 30
0.0
 41
1.0
 10
896.76240830382665
 20
-1417.7734472650295
 30
0.0
 41
1.0
 10
896.76387216541661
 20
-1417.7764259451019
 30
0.0
 41
1.0
 10
896.81580910191838
 20
-1417.8821077382722
 30
0.0
 41
0.9992763831101029
 10
896.85956223047356
 20
-1417.9914318002284
 30
0.0
 41
1.0
 10
896.86104150013682
 20
-1417.9951279877619
 30
0.0
 41
1.0
 10
896.86252076980008
 20
-1417.9988241752953
 30
0.0
 41
1.0
 10
896.90923243768225
 20
-1418.11554061232
 30
0.0
 41
0.9994163472883956
 10
896.94786546887235
 20
-1418.2351742007852
 30
0.0
 41
1.0
 10
896.94910362111932
 20
-1418.2390083445687
 30
0.0
 41
1.0
 10
896.9503417733664
 20
-1418.2428424883522
 30
0.0
 41
1.0
 10
896.99022533438358
 20
-1418.3663485498307
 30
0.0
 41
0.9997268055891169
 10
897.02429339029436
 20
-1418.4915835817771
 30
0.0
 41
1.0
 10
897.02522357056409
 20
-1418.4950029478869
 30
0.0
 41
1.0
 10
897.02615375083394
 20
-1418.4984223139966
 30
0.0
 41
1.0
 10
897.05836144620685
 20
-1418.6168186137302
 30
0.0
 41
0.9996701319000723
 10
897.08444706297678
 20
-1418.7367125669912
 30
0.0
 41
1.0
 10
897.11053267974671
 20
-1418.8566065202508
 30
0.0
 41
0.9995785451109166
 10
897.12961625708647
 20
-1418.9778122812827
 30
0.0
 41
1.0
 10
897.13383603926059
 20
-1419.0046134360507
 30
0.0
 41
1.0
 10
897.13805582143482
 20
-1419.0314145908187
 30
0.0
 41
1.0
 10
897.16463079737309
 20
-1419.2002005645218
 30
0.0
 41
0.9979925101217503
 10
897.16965638329941
 20
-1419.3709918926111
 30
0.0
 41
1.0
 10
897.17048119572405
 20
-1419.3990226160886
 30
0.0
 41
1.0
 10
897.17130600814858
 20
-1419.4270533395661
 30
0.0
 41
1.0
 10
897.17468196922607
 20
-1419.5417832206965
 30
0.0
 41
0.9995314902262492
 10
897.17103177708725
 20
-1419.6565047044546
 30
0.0
 41
1.0
 10
897.16738158494877
 20
-1419.7712261882066
 30
0.0
 41
0.9996245486944307
 10
897.1574524898183
 20
-1419.8855754593269
 30
0.0
 41
1.0
 10
897.15728944182388
 20
-1419.8874532154641
 30
0.0
 41
1.0
 10
897.15712639382946
 20
-1419.8893309716011
 30
0.0
 41
1.0
 10
897.14687120271037
 20
-1420.0074357549934
 30
0.0
 41
0.9997286095000808
 10
897.13112587913872
 20
-1420.1249346638892
 30
0.0
 41
1.0
 10
897.13073238648826
 20
-1420.1278710885917
 30
0.0
 41
1.0
 10
897.13033889383792
 20
-1420.130807513294
 30
0.0
 41
1.0
 10
897.11380658496614
 20
-1420.2541792715911
 30
0.0
 41
0.9998265533969046
 10
897.0926911262336
 20
-1420.376849746378
 30
0.0
 41
1.0
 10
897.0920145840962
 20
-1420.380780124887
 30
0.0
 41
1.0
 10
897.09133804195881
 20
-1420.384710503396
 30
0.0
 41
1.0
 10
897.06886949895409
 20
-1420.5152417351881
 30
0.0
 41
0.9999022530851168
 10
897.04276003434541
 20
-1420.645093703821
 30
0.0
 41
1.0
 10
897.04178139317833
 20
-1420.6499608462168
 30
0.0
 41
1.0
 10
897.04080275201125
 20
-1420.6548279886124
 30
0.0
 41
1.0
 10
897.01273600507068
 20
-1420.7944142420249
 30
0.0
 41
0.9999524761936542
 10
896.98195303623379
 20
-1420.933426735199
 30
0.0
 41
1.0
 10
896.98067692905931
 20
-1420.939189494497
 30
0.0
 41
1.0
 10
896.97940082188484
 20
-1420.9449522537948
 30
0.0
 41
1.0
 10
896.94606563869581
 20
-1421.0954902655781
 30
0.0
 41
0.9999813588710675
 10
896.91089463790047
 20
-1421.2456099782326
 30
0.0
 41
1.0
 10
896.90934071244533
 20
-1421.2522425686486
 30
0.0
 41
1.0
 10
896.9077867869903
 20
-1421.2588751590647
 30
0.0
 41
1.0
 10
896.86950793527274
 20
-1421.4222600526016
 30
0.0
 41
0.9999955237700891
 10
896.83025205729143
 20
-1421.5854129562115
 30
0.0
 41
1.0
 10
896.81797042166181
 20
-1421.6364571467147
 30
0.0
 41
1.0
 10
896.80568878603208
 20
-1421.687501337218
 30
0.0
 41
1.0
 10
896.74186963677266
 20
-1421.952742621912
 30
0.0
 41
0.9999993604437995
 10
896.67745068958857
 20
-1422.2178388726625
 30
0.0
 41
1.0
 10
896.67273185405475
 20
-1422.2372577806489
 30
0.0
 41
1.0
 10
896.66801301852081
 20
-1422.2566766886353
 30
0.0
 41
1.0
 10
896.59415640025713
 20
-1422.560610755407
 30
0.0
 41
0.9999659914735685
 10
896.51529680437216
 20
-1422.8632853019651
 30
0.0
 41
1.0
 10
896.51034411544299
 20
-1422.8822944391418
 30
0.0
 41
1.0
 10
896.50539142651382
 20
-1422.9013035763185
 30
0.0
 41
1.0
 10
896.41662645277074
 20
-1423.2419963972302
 30
0.0
 41
0.9999441976030677
 10
896.32068341980835
 20
-1423.5807378225245
 30
0.0
 41
1.0
 10
896.30398290138112
 20
-1423.6397015350583
 30
0.0
 41
1.0
 10
896.28728238295389
 20
-1423.6986652475921
 30
0.0
 41
1.0
 10
896.15793831314306
 20
-1424.1553340979333
 30
0.0
 41
0.9999625120734829
 10
896.02070554582031
 20
-1424.6096946319274
 30
0.0
 41
1.0
 10
895.98491560273044
 20
-1424.7281906585772
 30
0.0
 41
1.0
 10
895.94912565964057
 20
-1424.846686685227
 30
0.0
 41
1.0
 10
895.8746054556018
 20
-1425.0934137633208
 30
0.0
 41
0.9999793386307139
 10
895.79691943247121
 20
-1425.3391624025346
 30
0.0
 41
1.0
 10
895.7192334093337
 20
-1425.5849110417707
 30
0.0
 41
1.0
 10
895.708453850463
 20
-1425.6189289461454
 30
0.0
 41
1.0
 10
893.85808079719391
 20
-1431.5060008686128
 30
0.0
 41
1.0
 10
892.0077077439247
 20
-1437.3930727910804
 30
0.0
 41
1.0
 10
891.04645105390114
 20
-1437.3930727910804
 30
0.0
 41
1.0
 10
890.08519436387758
 20
-1437.3930727910804
 30
0.0
 41
1.0
 10
891.70413914255596
 20
-1432.2450442892909
 30
0.0
 41
1.0
 10
893.32308392123446
 20
-1427.0970157875015
 30
0.0
 41
1.0
 10
893.36824974440879
 20
-1426.9529845652319
 30
0.0
 41
1.0
 10
893.413415567583
 20
-1426.808953342962
 30
0.0
 41
1.0
 10
893.5837199849426
 20
-1426.2658623138095
 30
0.0
 41
0.9999911657892332
 10
893.74945279662597
 20
-1425.7213587824356
 30
0.0
 41
1.0
 10
893.77914874012163
 20
-1425.6237948424011
 30
0.0
 41
1.0
 10
893.80884468361717
 20
-1425.5262309023667
 30
0.0
 41
1.0
 10
893.91518560829604
 20
-1425.1768552511057
 30
0.0
 41
0.9999952428134039
 10
894.01936919763125
 20
-1424.8268302267224
 30
0.0
 41
1.0
 10
894.02442866796491
 20
-1424.8098319524433
 30
0.0
 41
1.0
 10
894.02948813829857
 20
-1424.7928336781642
 30
0.0
 41
1.0
 10
894.12355278695895
 20
-1424.4768052023628
 30
0.0
 41
0.999993168750642
 10
894.21527862482981
 20
-1424.1600899891023
 30
0.0
 41
1.0
 10
894.22021388929181
 20
-1424.1430492798227
 30
0.0
 41
1.0
 10
894.22514915375382
 20
-1424.126008570543
 30
0.0
 41
1.0
 10
894.30700446270998
 20
-1423.8433747758097
 30
0.0
 41
0.9999893840821365
 10
894.3862516891603
 20
-1423.5599986465852
 30
0.0
 41
1.0
 10
894.46549891561597
 20
-1423.276622517343
 30
0.0
 41
0.9999833980068159
 10
894.54147515635498
 20
-1422.9923519343251
 30
0.0
 41
1.0
 10
894.55047909307916
 20
-1422.9586630558392
 30
0.0
 41
1.0
 10
894.55948302980335
 20
-1422.9249741773535
 30
0.0
 41
1.0
 10
894.62844757867015
 20
-1422.6669383450558
 30
0.0
 41
0.9999233658065664
 10
894.69100254989064
 20
-1422.4072741863322
 30
0.0
 41
1.0
 10
894.75355752111091
 20
-1422.1476100276097
 30
0.0
 41
1.0
 10
894.79304093996848
 20
-1421.9838033631836
 30
0.0
 41
1.0
 10
894.79801954394406
 20
-1421.9631484013203
 30
0.0
 41
1.0
 10
894.80299814791965
 20
-1421.9424934394569
 30
0.0
 41
1.0
 10
894.83252435882753
 20
-1421.8199966987513
 30
0.0
 41
0.9999868670865728
 10
894.86079344282223
 20
-1421.697203753112
 30
0.0
 41
1.0
 10
894.8646909299805
 20
-1421.6802741656925
 30
0.0
 41
1.0
 10
894.86858841713888
 20
-1421.6633445782729
 30
0.0
 41
1.0
 10
894.88906252681829
 20
-1421.5744108074671
 30
0.0
 41
0.9999778173345456
 10
894.9083501249338
 20
-1421.4852121902361
 30
0.0
 41
1.0
 10
894.92763772304954
 20
-1421.396013573004
 30
0.0
 41
0.9999602692860735
 10
894.94533208168173
 20
-1421.3064852845707
 30
0.0
 41
1.0
 10
894.94853591375852
 20
-1421.2902748296892
 30
0.0
 41
1.0
 10
894.95173974583531
 20
-1421.2740643748079
 30
0.0
 41
1.0
 10
894.97584176862097
 20
-1421.1521151766117
 30
0.0
 41
0.9995617985320648
 10
894.99268511583955
 20
-1421.0289534289079
 30
0.0
 41
1.0
 10
894.99514960574606
 20
-1421.0109326115403
 30
0.0
 41
1.0
 10
894.99761409565247
 20
-1420.9929117941729
 30
0.0
 41
1.0
 10
895.0178973567007
 20
-1420.8445967444738
 30
0.0
 41
0.9991121410639462
 10
895.0256227102891
 20
-1420.6951006456657
 30
0.0
 41
1.0
 10
895.02654150031367
 20
-1420.6773208090901
 30
0.0
 41
1.0
 10
895.02746029033813
 20
-1420.6595409725146
 30
0.0
 41
1.0
 10
895.03334806387716
 20
-1420.5456045468613
 30
0.0
 41
0.9989792494906087
 10
895.02892897176002
 20
-1420.4316017109609
 30
0.0
 41
1.0
 10
895.02828099989142
 20
-1420.4148854650339
 30
0.0
 41
1.0
 10
895.02763302802271
 20
-1420.3981692191069
 30
0.0
 41
1.0
 10
895.02450987964289
 20
-1420.3175988750654
 30
0.0
 41
0.9997820295393993
 10
895.01802588226701
 20
-1420.2372291533186
 30
0.0
 41
1.0
 10
895.01154188489136
 20
-1420.156859431575
 30
0.0
 41
0.9998335105973449
 10
895.00212968937967
 20
-1420.0767798151251
 30
0.0
 41
1.0
 10
895.00053476470327
 20
-1420.0632100846417
 30
0.0
 41
1.0
 10
894.99893984002688
 20
-1420.0496403541583
 30
0.0
 41
1.0
 10
894.98633779516263
 20
-1419.9424212767422
 30
0.0
 41
0.9996876457879665
 10
894.96839388236492
 20
-1419.8359658490306
 30
0.0
 41
1.0
 10
894.96616221921931
 20
-1419.822726113787
 30
0.0
 41
1.0
 10
894.96393055607371
 20
-1419.8094863785434
 30
0.0
 41
1.0
 10
894.95013473465224
 20
-1419.7276402345826
 30
0.0
 41
0.9995547496494609
 10
894.93148141275992
 20
-1419.6467627373931
 30
0.0
 41
1.0
 10
894.93110745588842
 20
-1419.6451413266871
 30
0.0
 41
1.0
 10
894.93073349901704
 20
-1419.643519915981
 30
0.0
 41
1.0
 10
894.9128280908667
 20
-1419.5658852401996
 30
0.0
 41
0.9994899427175283
 10
894.89000318218791
 20
-1419.4895519573674
 30
0.0
 41
1.0
 10
894.88954465544703
 20
-1419.4880185075785
 30
0.0
 41
1.0
 10
894.88908612870625
 20
-1419.4864850577899
 30
0.0
 41
1.0
 10
894.86717827350833
 20
-1419.4132186745317
 30
0.0
 41
0.9993784877590035
 10
894.84016263840203
 20
-1419.3416779693741
 30
0.0
 41
1.0
 10
894.83963094742558
 20
-1419.3402699866549
 30
0.0
 41
1.0
 10
894.83909925644923
 20
-1419.3388620039357
 30
0.0
 41
1.0
 10
894.81314700329517
 20
-1419.2701372642148
 30
0.0
 41
0.9992430832255159
 10
894.78193046813612
 20
-1419.2036381121468
 30
0.0
 41
1.0
 10
894.78134835207925
 20
-1419.2023980570289
 30
0.0
 41
1.0
 10
894.78076623602226
 20
-1419.2011580019107
 30
0.0
 41
1.0
 10
894.75071393297594
 20
-1419.1371389600768
 30
0.0
 41
0.9990789632798182
 10
894.71528330620004
 20
-1419.0759323483289
 30
0.0
 41
1.0
 10
894.71468760001835
 20
-1419.0749032624703
 30
0.0
 41
1.0
 10
894.71409189383655
 20
-1419.0738741766115
 30
0.0
 41
1.0
 10
894.67985267942402
 20
-1419.0147257365804
 30
0.0
 41
0.9988874801120864
 10
894.64019340339132
 20
-1418.9590660241615
 30
0.0
 41
1.0
 10
894.639637877327
 20
-1418.9582863724868
 30
0.0
 41
1.0
 10
894.63908235126269
 20
-1418.9575067208118
 30
0.0
 41
1.0
 10
894.60053412735908
 20
-1418.9034063117433
 30
0.0
 41
0.9986762060693085
 10
894.55663165608303
 20
-1418.8535525973043
 30
0.0
 41
1.0
 10
894.55618769575108
 20
-1418.8530484554879
 30
0.0
 41
1.0
 10
894.55574373541901
 20
-1418.8525443136714
 30
0.0
 41
1.0
 10
894.51272918480663
 20
-1418.8036988828649
 30
0.0
 41
0.9984621642488175
 10
894.46457162802903
 20
-1418.7599155823941
 30
0.0
 41
1.0
 10
894.46432499351226
 20
-1418.7596913502302
 30
0.0
 41
1.0
 10
894.46407835899538
 20
-1418.7594671180666
 30
0.0
 41
1.0
 10
894.41641407125155
 20
-1418.7161322819231
 30
0.0
 41
0.9982724693850346
 10
894.36399543940979
 20
-1418.6786879314054
 30
0.0
 41
1.0
 10
894.31157680756792
 20
-1418.6412435808872
 30
0.0
 41
0.9981399180157283
 10
894.25499074417451
 20
-1418.6104570614439
 30
0.0
 41
1.0
 10
894.25494508209636
 20
-1418.6104322182869
 30
0.0
 41
1.0
 10
894.25489942001809
 20
-1418.6104073751299
 30
0.0
 41
1.0
 10
894.19822203246838
 20
-1418.5795711693722
 30
0.0
 41
0.9980927086837347
 10
894.13817668140211
 20
-1418.5559543605198
 30
0.0
 41
1.0
 10
894.13773651169004
 20
-1418.5557812346447
 30
0.0
 41
1.0
 10
894.13729634197807
 20
-1418.5556081087695
 30
0.0
 41
1.0
 10
894.07637065148776
 20
-1418.5316450481669
 30
0.0
 41
0.9981411356561566
 10
894.01298213008806
 20
-1418.5152724066613
 30
0.0
 41
1.0
 10
894.012100013387
 20
-1418.5150445644558
 30
0.0
 41
1.0
 10
894.01121789668605
 20
-1418.5148167222505
 30
0.0
 41
1.0
 10
893.94606514188524
 20
-1418.4979883963344
 30
0.0
 41
0.9983031812935739
 10
893.87939771289177
 20
-1418.4888490351582
 30
0.0
 41
1.0
 10
893.87052668748584
 20
-1418.4876329164867
 30
0.0
 41
1.0
 10
893.86165566207978
 20
-1418.4864167978151
 30
0.0
 41
1.0
 10
893.80730601957646
 20
-1418.4789660678239
 30
0.0
 41
0.9983887708262837
 10
893.75246217028428
 20
-1418.4777213941907
 30
0.0
 41
1.0
 10
893.74439876507108
 20
-1418.477538396316
 30
0.0
 41
1.0
 10
893.73633535985789
 20
-1418.4773553984412
 30
0.0
 41
1.0
 10
893.69761832099584
 20
-1418.4764767205575
 30
0.0
 41
0.9998869563078182
 10
893.65889236778878
 20
-1418.4767625899171
 30
0.0
 41
1.0
 10
893.62016641457865
 20
-1418.4770484592768
 30
0.0
 41
0.9999972320062245
 10
893.58144223536067
 20
-1418.477516558806
 30
0.0
 41
1.0
 10
893.56208921878806
 20
-1418.4777504988951
 30
0.0
 41
1.0
 10
893.54273620221534
 20
-1418.4779844389845
 30
0.0
 41
1.0
 10
893.46530598984498
 20
-1418.4789204186925
 30
0.0
 41
0.9997304945087
 10
893.38800268360751
 20
-1418.4834495124785
 30
0.0
 41
1.0
 10
893.37895304190306
 20
-1418.4839797184686
 30
0.0
 41
1.0
 10
893.3699034001985
 20
-1418.4845099244585
 30
0.0
 41
1.0
 10
893.27450081055542
 20
-1418.4900994302241
 30
0.0
 41
0.9997888306416751
 10
893.1794084747163
 20
-1418.4996043947126
 30
0.0
 41
1.0
 10
893.17068741314029
 20
-1418.5004761093451
 30
0.0
 41
1.0
 10
893.16196635156427
 20
-1418.5013478239775
 30
0.0
 41
1.0
 10
893.04943189257494
 20
-1418.512596217731
 30
0.0
 41
0.9984170238190886
 10
892.93887274522285
 20
-1418.5364122996671
 30
0.0
 41
1.0
 10
892.90249161423844
 20
-1418.5442493354726
 30
0.0
 41
1.0
 10
892.86611048325415
 20
-1418.5520863712784
 30
0.0
 41
1.0
 10
892.75091941483186
 20
-1418.5769002377883
 30
0.0
 41
0.997659285420018
 10
892.64019124842548
 20
-1418.6171989149357
 30
0.0
 41
1.0
 10
892.52946308201979
 20
-1418.6574975920832
 30
0.0
 41
0.9993255074352474
 10
892.42199128322818
 20
-1418.7058144905759
 30
0.0
 41
1.0
 10
892.41736610430564
 20
-1418.7078938667753
 30
0.0
 41
1.0
 10
892.4127409253831
 20
-1418.7099732429747
 30
0.0
 41
1.0
 10
892.2960187687454
 20
-1418.7624488938668
 30
0.0
 41
0.9976475078275207
 10
892.18757142443508
 20
-1418.8303968835253
 30
0.0
 41
1.0
 10
892.16922903029581
 20
-1418.8418893623427
 30
0.0
 41
1.0
 10
892.15088663615643
 20
-1418.8533818411602
 30
0.0
 41
1.0
 10
892.06668444460865
 20
-1418.9061389619255
 30
0.0
 41
0.9995131336406008
 10
891.98593672965615
 20
-1418.9640451738758
 30
0.0
 41
1.0
 10
891.90518901470477
 20
-1419.0219513858247
 30
0.0
 41
0.9995810107606247
 10
891.82792736697957
 20
-1419.0844330682871
 30
0.0
 41
1.0
 10
891.82495733576468
 20
-1419.0868349397556
 30
0.0
 41
1.0
 10
891.82198730454979
 20
-1419.0892368112241
 30
0.0
 41
1.0
 10
891.73878559440391
 20
-1419.1565222366164
 30
0.0
 41
0.9996617837954495
 10
891.6591949072689
 20
-1419.2280426921759
 30
0.0
 41
1.0
 10
891.64706415639273
 20
-1419.2389434251659
 30
0.0
 41
1.0
 10
891.63493340551656
 20
-1419.2498441581558
 30
0.0
 41
1.0
 10
891.56665787811755
 20
-1419.3111967736302
 30
0.0
 41
0.9997267750053019
 10
891.5013243698304
 20
-1419.3756733101586
 30
0.0
 41
1.0
 10
891.43599086154109
 20
-1419.4401498466893
 30
0.0
 41
0.9999667288958941
 10
891.37171791838841
 20
-1419.5056836535903
 30
0.0
 41
1.0
 10
891.3028904706191
 20
-1419.5758613123426
 30
0.0
 41
1.0
 10
891.2340630228498
 20
-1419.6460389710951
 30
0.0
 41
1.0
 10
891.03213518415237
 20
-1419.8519280955063
 30
0.0
 41
0.9988205335174824
 10
890.85112956717239
 20
-1420.0764323275678
 30
0.0
 41
1.0
 10
890.82048960226825
 20
-1420.114435577997
 30
0.0
 41
1.0
 10
890.78984963736411
 20
-1420.1524388284263
 30
0.0
 41
1.0
 10
890.5475640905745
 20
-1420.4529495613476
 30
0.0
 41
0.9997077826755604
 10
890.32008613946891
 20
-1420.7648193555644
 30
0.0
 41
1.0
 10
890.31836272433895
 20
-1420.7671821389433
 30
0.0
 41
1.0
 10
890.31663930920899
 20
-1420.7695449223222
 30
0.0
 41
1.0
 10
890.08571452784281
 20
-1421.0861402832977
 30
0.0
 41
0.9989147567078822
 10
889.88525102495896
 20
-1421.4228497444831
 30
0.0
 41
1.0
 10
889.86050987965291
 20
-1421.4644063250339
 30
0.0
 41
1.0
 10
889.83576873434686
 20
-1421.505962905585
 30
0.0
 41
1.0
 10
889.68055743570847
 20
-1421.7666642900394
 30
0.0
 41
0.9997476598181564
 10
889.53721244819849
 20
-1422.0340740386225
 30
0.0
 41
1.0
 10
889.39386746068863
 20
-1422.3014837872054
 30
0.0
 41
0.9996258967110089
 10
889.26535920875699
 20
-1422.5763317238295
 30
0.0
 41
1.0
 10
889.25215929930528
 20
-1422.6045631239294
 30
0.0
 41
1.0
 10
889.23895938985345
 20
-1422.6327945240296
 30
0.0
 41
1.0
 10
889.09875066885752
 20
-1422.9326669219745
 30
0.0
 41
0.9998735413946187
 10
888.96814932213738
 20
-1423.2368465214413
 30
0.0
 41
1.0
 10
888.96470649407456
 20
-1423.2448651069114
 30
0.0
 41
1.0
 10
888.96126366601163
 20
-1423.2528836923816
 30
0.0
 41
1.0
 10
888.83754797541326
 20
-1423.5410261209176
 30
0.0
 41
0.99993774188584
 10
888.72029317324223
 20
-1423.8318575885842
 30
0.0
 41
1.0
 10
888.60303837106335
 20
-1424.1226890562689
 30
0.0
 41
0.9999508299506956
 10
888.49157442768433
 20
-1424.4157887330957
 30
0.0
 41
1.0
 10
888.48849365902458
 20
-1424.4238897590524
 30
0.0
 41
1.0
 10
888.48541289036484
 20
-1424.431990785009
 30
0.0
 41
1.0
 10
888.36778740966201
 20
-1424.7412925137594
 30
0.0
 41
0.9999609228429655
 10
888.25564880678644
 20
-1425.0526255297793
 30
0.0
 41
1.0
 10
888.25269279643783
 20
-1425.0608323701858
 30
0.0
 41
1.0
 10
888.24973678608922
 20
-1425.0690392105926
 30
0.0
 41
1.0
 10
888.13168616252119
 20
-1425.3967859074128
 30
0.0
 41
0.9999674607403635
 10
888.01893863645216
 20
-1425.7263945274094
 30
0.0
 41
1.0
 10
887.96754024588722
 20
-1425.8766537231086
 30
0.0
 41
1.0
 10
887.91614185532217
 20
-1426.026912918808
 30
0.0
 41
1.0
 10
887.80013124856441
 20
-1426.3660609013109
 30
0.0
 41
0.999928753230518
 10
887.69224984459424
 20
-1426.707881640285
 30
0.0
 41
1.0
 10
887.64577258845668
 20
-1426.8551441846507
 30
0.0
 41
1.0
 10
887.59929533231912
 20
-1427.0024067290167
 30
0.0
 41
1.0
 10
887.58436844062112
 20
-1427.0497023792682
 30
0.0
 41
0.9999998225145688
 10
887.56949793189301
 20
-1427.0970157875015
 30
0.0
 41
1.0
 10
885.94884179509756
 20
-1432.2450442892909
 30
0.0
 41
1.0
 10
884.32818565830212
 20
-1437.3930727910804
 30
0.0
 41
1.0
 10
883.42287721441119
 20
-1437.3930727910804
 30
0.0
 41
1.0
 10
882.51756877052026
 20
-1437.3930727910804
 30
0.0
 41
1.0
 10
884.3696531819063
 20
-1431.5060008686128
 30
0.0
 41
1.0
 10
886.22173759329235
 20
-1425.6189289461454
 30
0.0
 41
1.0
 10
886.23185935159506
 20
-1425.5868857326957
 30
0.0
 41
1.0
 10
886.3044670204448
 20
-1425.3565861908698
 30
0.0
 41
1.0
 10
886.3770746892983
 20
-1425.126286649032
 30
0.0
 41
0.9999825681974253
 10
886.44695772851344
 20
-1424.8951457539547
 30
0.0
 41
1.0
 10
886.49524879067508
 20
-1424.735421170456
 30
0.0
 41
1.0
 10
886.54353985283672
 20
-1424.5756965869571
 30
0.0
 41
1.0
 10
886.64069220614613
 20
-1424.2543613652069
 30
0.0
 41
0.9999672528957866
 10
886.7326310117669
 20
-1423.9314958196292
 30
0.0
 41
1.0
 10
886.73541989543901
 20
-1423.9217019742312
 30
0.0
 41
1.0
 10
886.73820877911101
 20
-1423.9119081288331
 30
0.0
 41
1.0
 10
886.82456981739642
 20
-1423.6086302740209
 30
0.0
 41
0.9999899749171801
 10
886.90821142692494
 20
-1423.3045911855902
 30
0.0
 41
1.0
 10
886.91831734594496
 20
-1423.2678559479027
 30
0.0
 41
1.0
 10
886.92842326496498
 20
-1423.2311207102152
 30
0.0
 41
1.0
 10
886.99185303646152
 20
-1423.0005520971308
 30
0.0
 41
0.9999214200503773
 10
887.04948246483741
 20
-1422.7684657549285
 30
0.0
 41
1.0
 10
887.0622483170207
 20
-1422.7170548695217
 30
0.0
 41
1.0
 10
887.07501416920388
 20
-1422.6656439841147
 30
0.0
 41
1.0
 10
887.10711189321717
 20
-1422.5363794127104
 30
0.0
 41
0.9999828681660566
 10
887.1376941452105
 20
-1422.4067479382518
 30
0.0
 41
1.0
 10
887.16827639720543
 20
-1422.277116463787
 30
0.0
 41
0.9999389844475672
 10
887.19598738599404
 20
-1422.1468410078894
 30
0.0
 41
1.0
 10
887.20312512971486
 20
-1422.1132849040496
 30
0.0
 41
1.0
 10
887.21026287343557
 20
-1422.0797288002095
 30
0.0
 41
1.0
 10
887.25224934966457
 20
-1421.8823411366373
 30
0.0
 41
0.9998933699441801
 10
887.28845361406638
 20
-1421.6838115288817
 30
0.0
 41
1.0
 10
887.28982643928327
 20
-1421.6762835081822
 30
0.0
 41
1.0
 10
887.29119926450016
 20
-1421.6687554874827
 30
0.0
 41
1.0
 10
887.33014917933565
 20
-1421.4551698383279
 30
0.0
 41
0.9996850305193812
 10
887.35833285559409
 20
-1421.2398988328928
 30
0.0
 41
1.0
 10
887.36032788896307
 20
-1421.2246604787729
 30
0.0
 41
1.0
 10
887.36232292233205
 20
-1421.2094221246532
 30
0.0
 41
1.0
 10
887.38973078479171
 20
-1421.0000768974951
 30
0.0
 41
0.9994697936706656
 10
887.40345534401104
 20
-1420.7893917021652
 30
0.0
 41
1.0
 10
887.40393241326058
 20
-1420.7820682299557
 30
0.0
 41
1.0
 10
887.40440948251012
 20
-1420.7747447577465
 30
0.0
 41
1.0
 10
887.41717990323048
 20
-1420.5787065068364
 30
0.0
 41
0.9991804893137047
 10
887.41405158695784
 20
-1420.3822776568609
 30
0.0
 41
1.0
 10
887.41396770813571
 20
-1420.3770108554481
 30
0.0
 41
1.0
 10
887.41388382931359
 20
-1420.3717440540352
 30
0.0
 41
1.0
 10
887.41092327068509
 20
-1420.1858488068874
 30
0.0
 41
0.9988448329321628
 10
887.39013172506134
 20
-1420.0010962170541
 30
0.0
 41
1.0
 10
887.38853765135832
 20
-1419.9869313612824
 30
0.0
 41
1.0
 10
887.38694357765519
 20
-1419.9727665055107
 30
0.0
 41
1.0
 10
887.36934017943759
 20
-1419.8163436272193
 30
0.0
 41
0.9985503209458099
 10
887.33502390713807
 20
-1419.6627194431314
 30
0.0
 41
1.0
 10
887.32743791506675
 20
-1419.6287591157306
 30
0.0
 41
1.0
 10
887.31985192299544
 20
-1419.5947987883301
 30
0.0
 41
1.0
 10
887.30070763483843
 20
-1419.5090952590417
 30
0.0
 41
0.9991036781369559
 10
887.2743827731872
 20
-1419.4253181717172
 30
0.0
 41
1.0
 10
887.27040054773136
 20
-1419.4126450092072
 30
0.0
 41
1.0
 10
887.26641832227551
 20
-1419.3999718466969
 30
0.0
 41
1.0
 10
887.24805791153608
 20
-1419.3415410843922
 30
0.0
 41
0.999887450436876
 10
887.22795270385768
 20
-1419.2836874821689
 30
0.0
 41
1.0
 10
887.20784749617906
 20
-1419.2258338799452
 30
0.0
 41
0.9994041637543266
 10
887.18379888324444
 20
-1419.1695051760546
 30
0.0
 41
1.0
 10
887.17960209902083
 20
-1419.1596751115737
 30
0.0
 41
1.0
 10
887.17540531479722
 20
-1419.1498450470929
 30
0.0
 41
1.0
 10
887.14752648380284
 20
-1419.0845448811262
 30
0.0
 41
0.9991846840702863
 10
887.11447012710926
 20
-1419.0217068498446
 30
0.0
 41
1.0
 10
887.11333352071449
 20
-1419.0195462333904
 30
0.0
 41
1.0
 10
887.11219691431972
 20
-1419.0173856169361
 30
0.0
 41
1.0
 10
887.08141377041693
 20
-1418.9588688185659
 30
0.0
 41
0.9989253167923539
 10
887.04534434636116
 20
-1418.9034538901742
 30
0.0
 41
1.0
 10
887.04429022168654
 20
-1418.9018343954112
 30
0.0
 41
1.0
 10
887.04323609701191
 20
-1418.9002149006485
 30
0.0
 41
1.0
 10
887.00927492230596
 20
-1418.8480389617835
 30
0.0
 41
0.9986467172835316
 10
886.97007776966893
 20
-1418.7996729281545
 30
0.0
 41
1.0
 10
886.96920364096854
 20
-1418.7985943258764
 30
0.0
 41
1.0
 10
886.96832951226804
 20
-1418.7975157235985
 30
0.0
 41
1.0
 10
886.93088061703213
 20
-1418.7513068945257
 30
0.0
 41
0.9984001104269065
 10
886.8884538865143
 20
-1418.7096217871558
 30
0.0
 41
1.0
 10
886.88786674840492
 20
-1418.7090449122745
 30
0.0
 41
1.0
 10
886.88727961029554
 20
-1418.7084680373932
 30
0.0
 41
1.0
 10
886.84602715599715
 20
-1418.6679366797871
 30
0.0
 41
0.9982442159083834
 10
886.80027105466161
 20
-1418.6325681185269
 30
0.0
 41
1.0
 10
886.80005625919978
 20
-1418.6324020858838
 30
0.0
 41
1.0
 10
886.79984146373795
 20
-1418.6322360532404
 30
0.0
 41
1.0
 10
886.75451495332595
 20
-1418.5971995572668
 30
0.0
 41
0.9982450060836122
 10
886.70536397425417
 20
-1418.5677677742333
 30
0.0
 41
1.0
 10
886.65621299518193
 20
-1418.5383359911993
 30
0.0
 41
0.9983922639633857
 10
886.60404668901731
 20
-1418.5146563565454
 30
0.0
 41
1.0
 10
886.60381981169303
 20
-1418.514553371064
 30
0.0
 41
1.0
 10
886.60359293436863
 20
-1418.5144503855827
 30
0.0
 41
1.0
 10
886.55097287355534
 20
-1418.490564779966
 30
0.0
 41
0.9986517147150429
 10
886.4961599006881
 20
-1418.4722636608444
 30
0.0
 41
1.0
 10
886.49548197925969
 20
-1418.4720373144128
 30
0.0
 41
1.0
 10
886.49480405783129
 20
-1418.4718109679811
 30
0.0
 41
1.0
 10
886.43863524210894
 20
-1418.4530571559969
 30
0.0
 41
0.9989435598956994
 10
886.38098185495892
 20
-1418.4395394537626
 30
0.0
 41
1.0
 10
886.37990173537582
 20
-1418.4392862035093
 30
0.0
 41
1.0
 10
886.37882161579273
 20
-1418.4390329532559
 30
0.0
 41
1.0
 10
886.31900798947754
 20
-1418.4250087505152
 30
0.0
 41
0.9992249241239348
 10
886.25827648057918
 20
-1418.4157334078002
 30
0.0
 41
1.0
 10
886.25686279228887
 20
-1418.4155174993925
 30
0.0
 41
1.0
 10
886.25544910399856
 20
-1418.4153015909847
 30
0.0
 41
1.0
 10
886.19189021851867
 20
-1418.4055944314537
 30
0.0
 41
0.9994396597832863
 10
886.12782428198102
 20
-1418.4001615091079
 30
0.0
 41
1.0
 10
886.10868361450378
 20
-1418.3985383413892
 30
0.0
 41
1.0
 10
886.08954294702653
 20
-1418.3969151736705
 30
0.0
 41
1.0
 10
885.98719567553337
 20
-1418.3882359158877
 30
0.0
 41
0.9987693403121511
 10
885.88449205194581
 20
-1418.3897389793403
 30
0.0
 41
1.0
 10
885.87423771771955
 20
-1418.3898890511146
 30
0.0
 41
1.0
 10
885.86398338349341
 20
-1418.3900391228888
 30
0.0
 41
1.0
 10
885.75442761731415
 20
-1418.3916424671761
 30
0.0
 41
0.998975364496615
 10
885.64546561729708
 20
-1418.4031454741012
 30
0.0
 41
1.0
 10
885.5365036172808
 20
-1418.4146484810265
 30
0.0
 41
0.9983190067306469
 10
885.42960480631552
 20
-1418.4386834728132
 30
0.0
 41
1.0
 10
885.42070385470879
 20
-1418.440684751376
 30
0.0
 41
1.0
 10
885.41180290310217
 20
-1418.4426860299386
 30
0.0
 41
1.0
 10
885.2871021889232
 20
-1418.4707235788508
 30
0.0
 41
0.9985539388303004
 10
885.16613243524591
 20
-1418.5119872548962
 30
0.0
 41
1.0
 10
885.1637870042855
 20
-1418.5127872987121
 30
0.0
 41
1.0
 10
885.16144157332519
 20
-1418.5135873425279
 30
0.0
 41
1.0
 10
885.03578095772718
 20
-1418.556451106205
 30
0.0
 41
0.9988468746494081
 10
884.91481061542629
 20
-1418.6111691912677
 30
0.0
 41
1.0
 10
884.91162779343767
 20
-1418.6126088658275
 30
0.0
 41
1.0
 10
884.90844497144894
 20
-1418.6140485403876
 30
0.0
 41
1.0
 10
884.7811089851732
 20
-1418.6716459745689
 30
0.0
 41
0.9991322885919765
 10
884.65900840111669
 20
-1418.7396413067502
 30
0.0
 41
1.0
 10
884.64140639007235
 20
-1418.7494435087403
 30
0.0
 41
1.0
 10
884.623804379028
 20
-1418.7592457107305
 30
0.0
 41
1.0
 10
884.52162769797042
 20
-1418.8161458265115
 30
0.0
 41
0.9993860037849459
 10
884.423686693896
 20
-1418.8800618421005
 30
0.0
 41
1.0
 10
884.41806838104674
 20
-1418.8837283367934
 30
0.0
 41
1.0
 10
884.41245006819747
 20
-1418.8873948314863
 30
0.0
 41
1.0
 10
884.32574568982386
 20
-1418.9439778576882
 30
0.0
 41
0.9998821494954552
 10
884.24081931400974
 20
-1419.0031960877659
 30
0.0
 41
1.0
 10
884.15589293819824
 20
-1419.0624143178416
 30
0.0
 41
0.9997976482743445
 10
884.07341730779581
 20
-1419.1250007258825
 30
0.0
 41
1.0
 10
884.05878104298972
 20
-1419.1361074156632
 30
0.0
 41
1.0
 10
884.04414477818352
 20
-1419.1472141054439
 30
0.0
 41
1.0
 10
883.93239661817142
 20
-1419.2320138930443
 30
0.0
 41
0.9998091630800416
 10
883.82404634014563
 20
-1419.3211142437442
 30
0.0
 41
1.0
 10
883.81104058766664
 20
-1419.3318093441917
 30
0.0
 41
1.0
 10
883.79803483518776
 20
-1419.342504444639
 30
0.0
 41
1.0
 10
883.66367305220729
 20
-1419.4529949962309
 30
0.0
 41
0.9995035112317394
 10
883.53653717444558
 20
-1419.5717288132441
 30
0.0
 41
1.0
 10
883.52688986405565
 20
-1419.5807385594044
 30
0.0
 41
1.0
 10
883.5172425536656
 20
-1419.5897483055649
 30
0.0
 41
1.0
 10
883.39381949090068
 20
-1419.7050146773202
 30
0.0
 41
0.9994630424298954
 10
883.2782110851183
 20
-1419.828117420554
 30
0.0
 41
1.0
 10
883.27452824634975
 20
-1419.832039000064
 30
0.0
 41
1.0
 10
883.27084540758108
 20
-1419.835960579574
 30
0.0
 41
1.0
 10
883.16260267933728
 20
-1419.9512201637858
 30
0.0
 41
0.9995160693750066
 10
883.06173664980236
 20
-1420.0729875816619
 30
0.0
 41
1.0
 10
883.05980292972242
 20
-1420.0753220058691
 30
0.0
 41
1.0
 10
883.05786920964249
 20
-1420.0776564300763
 30
0.0
 41
1.0
 10
882.96087062027061
 20
-1420.1947549995343
 30
0.0
 41
0.9996561470514721
 10
882.87014440160453
 20
-1420.3167777619835
 30
0.0
 41
1.0
 10
882.86398673570329
 20
-1420.3250595510249
 30
0.0
 41
1.0
 10
882.85782906980205
 20
-1420.3333413400662
 30
0.0
 41
1.0
 10
882.77941818293743
 20
-1420.4388005244346
 30
0.0
 41
0.9998349055173651
 10
882.70489090100637
 20
-1420.5470391080962
 30
0.0
 41
1.0
 10
882.63036361907257
 20
-1420.655277691762
 30
0.0
 41
0.9999728109566686
 10
882.55744072316963
 20
-1420.7646036173062
 30
0.0
 41
1.0
 10
882.55612550775504
 20
-1420.766575386813
 30
0.0
 41
1.0
 10
882.55481029234056
 20
-1420.7685471563198
 30
0.0
 41
1.0
 10
882.47925696562379
 20
-1420.8818166208546
 30
0.0
 41
0.9999972147447439
 10
882.40423915526753
 20
-1420.9954414636634
 30
0.0
 41
1.0
 10
882.39926761262791
 20
-1421.0029715521619
 30
0.0
 41
1.0
 10
882.39429606998817
 20
-1421.0105016406606
 30
0.0
 41
1.0
 10
882.30933517436915
 20
-1421.1391866604413
 30
0.0
 41
0.9999371979007456
 10
882.22727982497054
 20
-1421.2697435742098
 30
0.0
 41
1.0
 10
882.22377094060585
 20
-1421.2753265022793
 30
0.0
 41
1.0
 10
882.22026205624115
 20
-1421.2809094303491
 30
0.0
 41
1.0
 10
882.13118893811281
 20
-1421.4226322002573
 30
0.0
 41
0.9998272025611943
 10
882.04744554723322
 20
-1421.5675680769953
 30
0.0
 41
1.0
 10
882.03223037520775
 20
-1421.5939011914543
 30
0.0
 41
1.0
 10
882.01701520318238
 20
-1421.6202343059135
 30
0.0
 41
1.0
 10
881.90284146825115
 20
-1421.8178364115713
 30
0.0
 41
0.9995217214838111
 10
881.8011017786946
 20
-1422.0221187394352
 30
0.0
 41
1.0
 10
881.79345821606069
 20
-1422.037466189136
 30
0.0
 41
1.0
 10
881.78581465342677
 20
-1422.0528136388368
 30
0.0
 41
1.0
 10
881.69890936083721
 20
-1422.2273100969182
 30
0.0
 41
0.9998269762607708
 10
881.6185548945648
 20
-1422.4049183836421
 30
0.0
 41
1.0
 10
881.53820042829193
 20
-1422.5825266703675
 30
0.0
 41
0.9998944747387907
 10
881.46303963372918
 20
-1422.7623943959923
 30
0.0
 41
1.0
 10
881.45808596413701
 20
-1422.7742490509117
 30
0.0
 41
1.0
 10
881.45313229454484
 20
-1422.7861037058315
 30
0.0
 41
1.0
 10
881.37248523399046
 20
-1422.9791006458543
 30
0.0
 41
0.9999506734411475
 10
881.29568770508899
 20
-1423.1736614507049
 30
0.0
 41
1.0
 10
881.28108773981444
 20
-1423.21064937252
 30
0.0
 41
1.0
 10
881.26648777453988
 20
-1423.2476372943354
 30
0.0
 41
1.0
 10
881.21889017617912
 20
-1423.3682222555772
 30
0.0
 41
0.9999912393904004
 10
881.17230373216285
 20
-1423.489201458257
 30
0.0
 41
1.0
 10
881.12571728814078
 20
-1423.6101806609518
 30
0.0
 41
0.9999927113956978
 10
881.08005599374815
 20
-1423.7315120684495
 30
0.0
 41
1.0
 10
881.06608756234948
 20
-1423.7686290504512
 30
0.0
 41
1.0
 10
881.05211913095081
 20
-1423.8057460324526
 30
0.0
 41
1.0
 10
880.97852097376278
 20
-1424.001311403948
 30
0.0
 41
0.9999487550950947
 10
880.90889734879306
 20
-1424.1983267691246
 30
0.0
 41
1.0
 10
880.88530373885033
 20
-1424.2650900794338
 30
0.0
 41
1.0
 10
880.8617101289077
 20
-1424.3318533897432
 30
0.0
 41
1.0
 10
880.76702449454478
 20
-1424.5997872245462
 30
0.0
 41
0.9999808436947789
 10
880.67566290590366
 20
-1424.8688726558098
 30
0.0
 41
1.0
 10
880.58430131726755
 20
-1425.1379580870589
 30
0.0
 41
0.9999873932924954
 10
880.49564660855435
 20
-1425.4079474420569
 30
0.0
 41
1.0
 10
880.47555425167991
 20
-1425.4691367748251
 30
0.0
 41
1.0
 10
880.45546189480547
 20
-1425.5303261075935
 30
0.0
 41
1.0
 10
880.32662247235055
 20
-1425.922694128107
 30
0.0
 41
0.9999794883026066
 10
880.20281968739278
 20
-1426.3166803343829
 30
0.0
 41
1.0
 10
880.19166742794346
 20
-1426.3521709446577
 30
0.0
 41
1.0
 10
880.18051516849403
 20
-1426.3876615549327
 30
0.0
 41
1.0
 10
880.03795700461865
 20
-1426.8413343069487
 30
0.0
 41
0.9999982761782539
 10
879.89708456460289
 20
-1427.2955333290738
 30
0.0
 41
1.0
 10
878.30894423203029
 20
-1432.344303060077
 30
0.0
 41
1.0
 10
876.72080389945768
 20
-1437.3930727910804
 30
0.0
 41
1.0
 10
875.77205328798129
 20
-1437.3930727910804
 30
0.0
 41
1.0
 10
874.82330267650491
 20
-1437.3930727910804
 30
0.0
 41
1.0
 10
878.06158716265804
 20
-1427.0657505911342
 30
0.0
 41
1.0
 10
881.29987164881129
 20
-1416.7384283911881
 30
0.0
 41
1.0
  0
LWPOLYLINE
  5
53
100
AcDbEntity
  8
0
370
              15
390
0
  6
Continuous
 62
               7
100
AcDbPolyline
 90
      232
 70
             128
 10
855.59632587498425
 20
-1417.8227712227033
 42
0.0004370800678623
 10
855.54344870094315
 20
-1417.891437861919
 10
855.50416446978477
 20
-1417.942544974856
 42
0.0030481992173941
 10
855.37382575264974
 20
-1418.1142666672215
 10
855.33531408091517
 20
-1418.1656534509884
 42
0.0042058245757186
 10
855.13132903023097
 20
-1418.4426591960819
 10
855.07892390774464
 20
-1418.5150920428428
 42
0.0120948898742125
 10
854.78287999098723
 20
-1418.9458416473858
 10
854.68668749185986
 20
-1419.0933223826191
 42
0.0141601263948656
 10
854.38304344493929
 20
-1419.5889917193522
 10
854.34350617751204
 20
-1419.657835686786
 42
0.0071131081302364
 10
854.13823385427486
 20
-1420.0273384856221
 42
0.0068458791002393
 10
853.9433543274331
 20
-1420.4024300490955
 10
853.93654246497408
 20
-1420.4159917628217
 42
0.0064120880289483
 10
853.7384002149314
 20
-1420.8234162377371
 10
853.73086552941277
 20
-1420.8394280944619
 42
0.0058857236450936
 10
853.52811013753978
 20
-1421.2838042055
 10
853.51993521124712
 20
-1421.3022943591309
 42
0.0053189741893391
 10
853.31123089858045
 20
-1421.7882578330468
 10
853.30248309289823
 20
-1421.809239711245
 42
0.0047503650421224
 10
853.08650936674474
 20
-1422.3414391444617
 10
853.07724111839934
 20
-1422.3649155205626
 42
0.0042071762170763
 10
852.85269373467906
 20
-1422.9480091146127
 10
852.84294433232299
 20
-1422.9739752895021
 42
0.0036680086484996
 10
852.60848968900757
 20
-1423.6126106740423
 10
852.59828190916312
 20
-1423.6410592083776
 42
0.003257314262672
 10
852.35264962320377
 20
-1424.3399118681098
 10
852.28399910234941
 20
-1424.5393749522023
 42
0.0026133366650837
 10
851.93555390359779
 20
-1425.5692382358559
 10
851.87229711610814
 20
-1425.7594690712156
 42
0.0020592950740576
 10
851.65843404712996
 20
-1426.411572723862
 10
851.65538225598004
 20
-1426.421009212231
 42
0.0025609928532979
 10
851.45356175448103
 20
-1427.0561544346376
 10
851.45097038735423
 20
-1427.0644567755785
 42
0.0031362356240606
 10
851.26147960167737
 20
-1427.6852196317577
 10
851.25934855875175
 20
-1427.6923609379626
 42
0.0037229918027979
 10
851.08254817182365
 20
-1428.3013462399431
 10
851.08086958261254
 20
-1428.307293130134
 42
0.004307762370688
 10
850.91712878055216
 20
-1428.9071118618863
 42
0.0047654161820632
 10
850.76430005803945
 20
-1429.509797950775
 10
850.72983544919703
 20
-1429.6513597279386
 42
0.0112969368444735
 10
850.5339710910539
 20
-1430.543051888561
 10
850.50596470195683
 20
-1430.6858799346605
 42
0.0130056762571942
 10
850.30512745831015
 20
-1431.8728210063055
 10
850.28458770816292
 20
-1432.0168991197836
 42
0.013872153214473
 10
850.18088470362522
 20
-1432.9237286056082
 10
850.16158921571662
 20
-1433.1472263275418
 42
0.0071254697011632
 10
850.12824256979479
 20
-1433.6104133363806
 10
850.12328159563117
 20
-1433.6964173309461
 42
0.0028881799198248
 10
850.10814330234166
 20
-1433.9881590407831
 42
0.0060297297134766
 10
850.09821110256598
 20
-1434.2801079769013
 10
850.09714882089895
 20
-1434.328500348832
 42
0.0229523164157315
 10
850.10487984868473
 20
-1434.6512551951146
 10
850.10910562220522
 20
-1434.7116587291318
 42
0.0123673300665698
 10
850.12818426872343
 20
-1434.9127794543056
 42
0.0128577674470473
 10
850.15737965912979
 20
-1435.1126773042326
 10
850.16450553251673
 20
-1435.1540061188293
 42
0.0285717853763766
 10
850.22899953421268
 20
-1435.4321222701437
 10
850.24266805787897
 20
-1435.4787770396204
 42
0.0316283099158446
 10
850.35847863779304
 20
-1435.7977915414458
 10
850.36152732954906
 20
-1435.8047779137723
 42
0.033898482424027
 10
850.51095904051579
 20
-1436.0923438779605
 10
850.51326776988503
 20
-1436.0961349072352
 42
0.0350228718359306
 10
850.69562806055922
 20
-1436.3531868919133
 10
850.69651331233445
 20
-1436.3542659696777
 42
0.0347476747529007
 10
850.91093799957434
 20
-1436.5814510168975
 42
0.0331337701911264
 10
851.15418132532102
 20
-1436.7775796789749
 10
851.15528142383687
 20
-1436.7783523821472
 42
0.0305233319080097
 10
851.42382611941082
 20
-1436.9434805522392
 10
851.4270561639114
 20
-1436.9452045641015
 42
0.0273744481150269
 10
851.71960987548607
 20
-1437.081342707992
 10
851.72471441062328
 20
-1437.0833862924615
 42
0.0240964406193306
 10
852.04019148626776
 20
-1437.1923700187426
 10
852.04677481547901
 20
-1437.194294758418
 42
0.0209636179810116
 10
852.38417496813406
 20
-1437.2777629063505
 10
852.39180742858025
 20
-1437.2793148193514
 42
0.0181388704693215
 10
852.75012982057922
 20
-1437.3387309125653
 10
852.75841066895691
 20
-1437.3397970963824
 42
0.0156086547588836
 10
853.13659803314783
 20
-1437.3765332829591
 10
853.17979328547483
 20
-1437.3793717854383
 42
0.0137148329020812
 10
853.50746643077161
 20
-1437.3918920406895
 10
853.55340262070547
 20
-1437.3923864738047
 42
0.0051057823883498
 10
853.78954820728984
 20
-1437.3925167282136
 42
0.0052256693312535
 10
854.02564549107262
 20
-1437.3877679037496
 10
854.09587227481791
 20
-1437.3856209377354
 42
0.016150717905016
 10
854.47160935292425
 20
-1437.3619705674084
 10
854.49162231329228
 20
-1437.3600603721213
 42
0.0101216737833049
 10
854.90564953478895
 20
-1437.3120674417551
 10
854.93970282420969
 20
-1437.3074197449462
 42
0.0245291776396028
 10
855.41649247975897
 20
-1437.2183446668705
 10
855.50131579528261
 20
-1437.1981487465248
 42
0.0143509212553733
 10
855.85794689922443
 20
-1437.1023441127454
 42
0.0156557857033281
 10
856.20816296394878
 20
-1436.9853328969277
 10
856.21566417844633
 20
-1436.9825627351725
 42
0.0170137333627924
 10
856.5722601741254
 20
-1436.8369051203022
 10
856.57936409653519
 20
-1436.8337172847375
 42
0.0183105364413479
 10
856.93871376470383
 20
-1436.6563822429118
 10
856.94566052934022
 20
-1436.652631808041
 42
0.0194899958153589
 10
857.30414127032532
 20
-1436.4406528261495
 10
857.31115514966086
 20
-1436.4361274838552
 42
0.0204869852953977
 10
857.66516945175522
 20
-1436.1866074687691
 10
857.67243506034185
 20
-1436.181027403421
 42
0.0212516938558952
 10
858.01842499145084
 20
-1435.8911234065256
 10
858.06494168552535
 20
-1435.8486560964329
 42
0.0215248918253112
 10
858.32496785441322
 20
-1435.5898918174385
 10
858.3699975887971
 20
-1435.5410476960851
 42
0.0114578554958666
 10
858.52478974247106
 20
-1435.3652247626301
 10
858.53598427844474
 20
-1435.3519059991002
 42
0.0061531305131054
 10
858.66245892445215
 20
-1435.197616465779
 42
0.0006325587124139
 10
858.78683740859856
 20
-1435.0416130901101
 10
858.80987754365538
 20
-1435.012639569444
 42
0.0041897761560467
 10
858.97833294764632
 20
-1434.7971201933585
 10
859.0367950675203
 20
-1434.7210188463969
 42
0.0092993880041395
 10
859.31340699474924
 20
-1434.3467400825057
 10
859.39580148794278
 20
-1434.2308030789447
 42
0.0159321727085856
 10
859.7424079705853
 20
-1433.7086288581884
 10
859.78676410597734
 20
-1433.6369492939334
 42
0.0085547317025058
 10
860.02127587130008
 20
-1433.2430743447137
 42
0.0084601156891946
 10
860.24225204874472
 20
-1432.8414474956769
 10
860.25036752257256
 20
-1432.8260878134085
 42
0.0081429654287132
 10
860.47361679300968
 20
-1432.3863663008683
 10
860.48247695719408
 20
-1432.3681874588483
 42
0.0076574581329094
 10
860.70888446776371
 20
-1431.8850045835891
 10
860.71836410848448
 20
-1431.8639401052924
 42
0.0070682724200021
 10
860.94880901629369
 20
-1431.3319028005053
 10
860.95879930027297
 20
-1431.3079136114993
 42
0.0064559514449672
 10
861.194132508454
 20
-1430.721601344982
 10
861.20454186661959
 20
-1430.6946664195384
 42
0.0058311413906779
 10
861.44558860337906
 20
-1430.0486343251639
 10
861.45634368076992
 20
-1430.018749983994
 42
0.0052312425818831
 10
861.70392495880867
 20
-1429.3075475701658
 10
861.71496879519054
 20
-1429.2747208580899
 42
0.0046680544796693
 10
861.9698972229254
 20
-1428.4928945423342
 10
862.01188937296899
 20
-1428.359911305042
 42
0.0041666856444591
 10
862.21517538536364
 20
-1427.6969425300374
 10
862.25283782603708
 20
-1427.570361422351
 42
0.0015170975156497
 10
862.37402440444043
 20
-1427.15849307089
 42
-0.0004887993113763
 10
862.4943641775958
 20
-1426.7463746587377
 10
862.57084143505858
 20
-1426.4854172729069
 42
0.0002583378927582
 10
862.84405600509092
 20
-1425.5513605698375
 10
862.92582885465777
 20
-1425.2712613102883
 42
0.0006636169670061
 10
863.11969661471085
 20
-1424.6039083865578
 10
863.12479326907442
 20
-1424.5862768036204
 42
0.0010589131324311
 10
863.30624196997451
 20
-1423.9535454606289
 10
863.31122404045232
 20
-1423.9360325536181
 42
0.0015655524461306
 10
863.47949424763783
 20
-1423.337415874408
 10
863.48432444804916
 20
-1423.3200237154851
 42
0.0021640440479563
 10
863.63861442003872
 20
-1422.7549966974539
 10
863.64324863947832
 20
-1422.737731967424
 42
0.0028763871854559
 10
863.78276435752173
 20
-1422.2057640166131
 10
863.78715022169115
 20
-1422.1886400384501
 42
0.0037310511946365
 10
863.91110691352583
 20
-1421.6891924444349
 10
863.91518213381096
 20
-1421.6722321732057
 42
0.0047652197766774
 10
864.02280603432325
 20
-1421.2047544048842
 10
864.02649663364593
 20
-1421.1879948497372
 42
0.0060276699298062
 10
864.11702673280024
 20
-1420.75191905459
 10
864.12024542309007
 20
-1420.735417840277
 42
0.0075824337760633
 10
864.19293473250491
 20
-1420.3301506758546
 10
864.19558010988442
 20
-1420.3139957284084
 42
0.0095130624609318
 10
864.24969534551633
 20
-1419.9389063753324
 10
864.25668156939946
 20
-1419.8829728172113
 42
0.0121054653232546
 10
864.28327289997685
 20
-1419.6180769887419
 10
864.28413938973586
 20
-1419.6066735458194
 42
0.0069050827383967
 10
864.29922820777415
 20
-1419.3637323189687
 10
864.30036350744274
 20
-1419.340206061923
 42
0.016906397670184
 10
864.30319078642287
 20
-1419.1440133346232
 10
864.30202013489168
 20
-1419.0836775732751
 42
0.0052007732891632
 10
864.29976668629865
 20
-1419.0080841831218
 42
0.0054038123300372
 10
864.27980317445736
 20
-1418.8880658870976
 10
864.27471731858941
 20
-1418.8594074005307
 42
0.0112050460469956
 10
864.23933295653092
 20
-1418.6830809621922
 10
864.22150799449014
 20
-1418.603539375471
 42
0.0240764468009464
 10
864.13061062834436
 20
-1418.2733023399708
 10
864.11205186553059
 20
-1418.2166821749759
 42
0.0256812331834211
 10
863.968688945341
 20
-1417.8449579687185
 10
863.96327951952014
 20
-1417.8328266337298
 42
0.0268360501215108
 10
863.79385227866976
 20
-1417.5018334997078
 10
863.788315871034
 20
-1417.4923138293943
 42
0.0274670231726512
 10
863.59611489462145
 20
-1417.2000264544781
 10
863.59073359465924
 20
-1417.1927473069372
 42
0.0275035967097861
 10
863.37916071509699
 20
-1416.9372314166328
 10
863.37409121413066
 20
-1416.9317523290026
 42
0.0269557673524168
 10
863.14668767069088
 20
-1416.7111100430402
 10
863.1419446129089
 20
-1416.7069800885799
 42
0.0259124802206722
 10
862.9023897814775
 20
-1416.5192895614268
 10
862.89785893629653
 20
-1416.5161040590972
 42
0.0245162153000772
 10
862.64994258320075
 20
-1416.3593710499863
 10
862.64541603687519
 20
-1416.3568108527847
 42
0.022928258884448
 10
862.39299648004919
 20
-1416.2289426602865
 10
862.38821598621496
 20
-1416.2267903605257
 42
0.0212984135698823
 10
862.13517803375066
 20
-1416.1255914432822
 10
862.12987374878173
 20
-1416.1237278805224
 42
0.0197555462345346
 10
861.88009541105816
 20
-1416.0469124625574
 42
0.0183511896789793
 10
861.62516668559226
 20
-1415.9893295555912
 10
861.53880148887026
 20
-1415.9731267652064
 42
0.0338057877148362
 10
861.25329413961174
 20
-1415.9393183600664
 10
861.16228873456123
 20
-1415.9347387048047
 42
0.0091990524503711
 10
861.0564416259358
 20
-1415.9313628488831
 42
0.0028333980790536
 10
860.95052770993721
 20
-1415.9305347413665
 10
860.94961225689349
 20
-1415.9305327715424
 42
-0.0023619827801074
 10
860.84186624177676
 20
-1415.9297919304636
 10
860.80546107161172
 20
-1415.9293696240006
 42
0.0008824598469021
 10
860.62490508182407
 20
-1415.9275938457629
 10
860.58104364935593
 20
-1415.9272398842368
 42
0.0038132665768165
 10
860.31276075348285
 20
-1415.9271209481703
 10
860.29622709868363
 20
-1415.9272397143138
 42
0.0060665569333006
 10
859.9949466071015
 20
-1415.9330600137343
 10
859.98069627506698
 20
-1415.9335083217022
 42
0.0080356953337275
 10
859.6512375587248
 20
-1415.9491760437693
 10
859.6391675436405
 20
-1415.9499446267096
 42
0.0098996399104052
 10
859.28640445899396
 20
-1415.9794298559073
 10
859.27635874961493
 20
-1415.9804701521059
 42
0.0117740981368299
 10
858.90520189126482
 20
-1416.027762399636
 10
858.89697919478363
 20
-1416.0290075162065
 42
0.0137435215137177
 10
858.51239037529649
 20
-1416.0981044897687
 10
858.50573333617513
 20
-1416.0994903860019
 42
0.0158359869389822
 10
858.11273624237026
 20
-1416.1943824744833
 10
858.1073230555055
 20
-1416.1958724153531
 42
0.0180554124026249
 10
857.71100801089688
 20
-1416.3205104315905
 10
857.70645122280973
 20
-1416.3221264678582
 42
0.0203657431282477
 10
857.31197370499729
 20
-1416.4803868093741
 10
857.30783016599105
 20
-1416.4822484308156
 42
0.0226819684655161
 10
856.92039410978975
 20
-1416.6778910094856
 10
856.91619431876927
 20
-1416.6802566014067
 42
0.0248634984606864
 10
856.54101237758857
 20
-1416.9168832473533
 10
856.49281744880534
 20
-1416.9507402891784
 42
0.026704419088242
 10
856.21852475188757
 20
-1417.1661806650477
 42
0.0139303002197221
 10
855.96235758595128
 20
-1417.4034195059571
 10
855.95750420022785
 20
-1417.4081721688196
 42
0.0283460963449292
 10
855.71343160599758
 20
-1417.6759028292684
 10
855.6737631008441
 20
-1417.7247044067378
 42
0.0070695364819217
 10
855.59632587498425
 20
-1417.8227712227033
 42
0.0070695364819217
  0
LWPOLYLINE
  5
54
100
AcDbEntity
  8
0
370
              15
390
0
  6
Continuous
 62
               7
100
AcDbPolyline
 90
      226
 70
             128
 10
852.06750543773785
 20
-1433.5443600288872
 42
-0.0026277636671014
 10
852.0674275539377
 20
-1433.4775881031876
 10
852.06764491216984
 20
-1433.4244328857012
 42
-0.008868029673088
 10
852.07142152846291
 20
-1433.2514171032969
 10
852.07376788757529
 20
-1433.1921370778446
 42
-0.0077381705616868
 10
852.08981399833749
 20
-1432.9008765820602
 10
852.09068190951155
 20
-1432.8885883483613
 42
-0.0068872530535432
 10
852.11731398925951
 20
-1432.5733665962937
 10
852.11851821344578
 20
-1432.5611256172733
 42
-0.0062130021482718
 10
852.15611193027485
 20
-1432.2222559260244
 10
852.15761583380868
 20
-1432.2100820541184
 42
-0.0056726929666525
 10
852.20653769331068
 20
-1431.8478868320071
 10
852.20831113895542
 20
-1431.8357930317597
 42
-0.0052341884493495
 10
852.26892172521718
 20
-1431.4505997762308
 10
852.27093971399199
 20
-1431.4385948462493
 42
-0.0049768450168856
 10
852.34367839542085
 20
-1431.030750278803
 10
852.36792741014017
 20
-1430.9022022958106
 42
-0.0089029805623137
 10
852.5050082619349
 20
-1430.2404268483883
 10
852.53775363725345
 20
-1430.0953954178649
 42
-0.0080318257099523
 10
852.76730225159463
 20
-1429.1496857860095
 10
852.77928717804241
 20
-1429.1035551508212
 42
-0.0074265721320085
 10
853.06329871689059
 20
-1428.0734905724469
 10
853.08317826001257
 20
-1428.005356511839
 42
-0.0069711922701031
 10
853.41048283851569
 20
-1426.9390887715231
 10
853.47043478562205
 20
-1426.7530674131497
 42
-0.0052070422891359
 10
853.69986001088046
 20
-1426.0657953361213
 10
853.71714120304807
 20
-1426.0157680555174
 42
-0.0009167004447182
 10
853.92023309034221
 20
-1425.4313122073499
 42
-0.0025162726942718
 10
854.12733072060905
 20
-1424.8482709431757
 10
854.16455533240833
 20
-1424.745121397287
 42
-0.0028212681457164
 10
854.41273125137332
 20
-1424.0693907651112
 10
854.42256201411874
 20
-1424.0430833204484
 42
-0.0031964916824063
 10
854.65885427178625
 20
-1423.4228785583073
 10
854.66848872578407
 20
-1423.398068568167
 42
-0.00362818364525
 10
854.89359468688644
 20
-1422.830627887271
 10
854.90303309704291
 20
-1422.8073304557706
 42
-0.0041269166830327
 10
855.11765079370309
 20
-1422.2898895597898
 10
855.15028375013082
 20
-1422.2130111134124
 42
-0.004747221305386
 10
855.30732855567749
 20
-1421.8525896455453
 10
855.31422263687921
 20
-1421.8371690482279
 42
-0.0025651659996261
 10
855.46258067073586
 20
-1421.5098409924649
 42
-0.0057144634987628
 10
855.61633036451246
 20
-1421.1850313190914
 10
855.64436106990604
 20
-1421.1275229367129
 42
-0.0065388068374147
 10
855.82782809764819
 20
-1420.7632904400432
 10
855.83628655341931
 20
-1420.7470308606878
 42
-0.0074510843023791
 10
856.01246879930454
 20
-1420.4203425795508
 10
856.02064846983035
 20
-1420.4057018022913
 42
-0.0084648979859231
 10
856.19028232293567
 20
-1420.113792791321
 10
856.19813844942723
 20
-1420.1007857996644
 42
-0.0095638542799737
 10
856.36197389701795
 20
-1419.8408969276916
 10
856.369448840686
 20
-1419.8295275662417
 42
-0.0107191626807543
 10
856.52825042107725
 20
-1419.5989163316922
 10
856.53526715481325
 20
-1419.5891802393207
 42
-0.0118458573901372
 10
856.68981525332083
 20
-1419.3851080440168
 42
-0.0129184518190602
 10
856.85426787692199
 20
-1419.1889475278467
 10
856.88441264928963
 20
-1419.1548214489421
 42
-0.0217742579631371
 10
857.06102497162078
 20
-1418.9716146786968
 10
857.0717705160846
 20
-1418.9613978454906
 42
-0.0097266568649442
 10
857.23782813493699
 20
-1418.8095502710564
 42
-0.0187720905726469
 10
857.41217571082359
 20
-1418.6674814176697
 10
857.44288170149514
 20
-1418.6443223352753
 42
-0.0179428207523562
 10
857.67530242149678
 20
-1418.4817701581594
 10
857.67895474841328
 20
-1418.4794062232711
 42
-0.0170047877695318
 10
857.91471838594293
 20
-1418.33794570912
 10
857.91850137468612
 20
-1418.3358474040856
 42
-0.0160190788364547
 10
858.15540992232479
 20
-1418.2141961020957
 42
-0.0151102861488008
 10
858.39944170477349
 20
-1418.1075133260404
 10
858.45182820698324
 20
-1418.0864731931465
 42
-0.0271945441886685
 10
858.81049076604143
 20
-1417.9646083824405
 10
858.87955556652844
 20
-1417.9452588411746
 42
-0.0237596594024532
 10
859.29535241355211
 20
-1417.8498081291928
 10
859.36341526728302
 20
-1417.8375534410659
 42
-0.0213715440555061
 10
859.64929019872784
 20
-1417.798606409556
 10
859.70943736494587
 20
-1417.7930166948552
 42
-0.010146565582545
 10
859.87692989693994
 20
-1417.7808731515911
 10
859.88627028313374
 20
-1417.780386236594
 42
-0.0100375910885457
 10
860.03542438370073
 20
-1417.7756104186685
 10
860.04568365338287
 20
-1417.7754879796541
 42
-0.0103625633382399
 10
860.17439164803591
 20
-1417.7766194131807
 10
860.19665729929841
 20
-1417.7772767716453
 42
-0.0115689250240169
 10
860.28070803683079
 20
-1417.7817062778909
 42
-0.0072438037451621
 10
860.3645463162643
 20
-1417.7892954776396
 10
860.38134682574275
 20
-1417.7910620203643
 42
-0.021791731312393
 10
860.49791658905883
 20
-1417.8084819130856
 10
860.5635166796261
 20
-1417.8212285215002
 42
-0.0332943556750294
 10
860.7679088446514
 20
-1417.875268812807
 10
860.79808141320063
 20
-1417.8854368899251
 42
-0.0184824084804916
 10
860.93658646966696
 20
-1417.937887905312
 42
-0.0198002050698194
 10
861.07066081016364
 20
-1418.0007719655098
 10
861.07254744754323
 20
-1418.0017497523911
 42
-0.0212242342970638
 10
861.20468638994487
 20
-1418.0775124911838
 10
861.20650168548855
 20
-1418.0786582933924
 42
-0.0226090605791791
 10
861.33500558671028
 20
-1418.1681379369568
 10
861.33685002844777
 20
-1418.1695501899444
 42
-0.0238457052236504
 10
861.46003210973981
 20
-1418.2735460858059
 10
861.46198483829971
 20
-1418.2753609635729
 42
-0.0248160564147644
 10
861.57818634559999
 20
-1418.3946355647813
 10
861.58028997900237
 20
-1418.3970208984861
 42
-0.0254109591447059
 10
861.68789519686857
 20
-1418.5323092844505
 10
861.6901432187824
 20
-1418.535450832851
 42
-0.0255528488285418
 10
861.78758989757875
 20
-1418.687477887084
 10
861.78992099749576
 20
-1418.6915594986931
 42
-0.0252146793221836
 10
861.8757020235056
 20
-1418.8610617446916
 10
861.87800426266244
 20
-1418.8662438266028
 42
-0.0244265635952456
 10
861.95065895642347
 20
-1419.053990398648
 10
861.95990535789281
 20
-1419.0818558169888
 42
-0.0231319612893746
 10
862.00582813688436
 20
-1419.2451568637889
 42
-0.0112130424351987
 10
862.04046415942219
 20
-1419.4113604639747
 10
862.04166668453513
 20
-1419.4178570508648
 42
-0.0210527881240648
 10
862.06735315990591
 20
-1419.5989126963063
 10
862.07086375472772
 20
-1419.6343182448534
 42
-0.0190029892418574
 10
862.08630522827252
 20
-1419.887854091131
 10
862.08711520471638
 20
-1419.9233297054948
 42
-0.0137974553662897
 10
862.08556635188097
 20
-1420.2483611122238
 10
862.08472089692532
 20
-1420.2744798568192
 42
-0.0081336634216002
 10
862.06986156170274
 20
-1420.5798273244202
 42
-0.0073526923569987
 10
862.0455530283283
 20
-1420.8845755687037
 10
862.04429160454538
 20
-1420.8979122433714
 42
-0.0066886138696135
 10
862.00855601850026
 20
-1421.2284982868566
 10
862.00689892902892
 20
-1421.2421199058599
 42
-0.006135918735848
 10
861.95904832697693
 20
-1421.5988838859673
 10
861.95701082590517
 20
-1421.6127786887891
 42
-0.0056698610065934
 10
861.89636049513911
 20
-1421.9960572576222
 10
861.89395506181518
 20
-1422.0102163768579
 42
-0.0052721077270455
 10
861.81982286101356
 20
-1422.4203437165456
 10
861.81705971217377
 20
-1422.4347603519218
 42
-0.0049289272182416
 10
861.72876559407382
 20
-1422.8720688630438
 10
861.72565309939114
 20
-1422.8867377158601
 42
-0.0047415956706683
 10
861.62241510785691
 20
-1423.3515344732793
 10
861.5876468974991
 20
-1423.501341568654
 42
-0.008440447090236
 10
861.39763045392726
 20
-1424.261565593185
 10
861.39150376594159
 20
-1424.2844297173385
 42
-0.0039635940257257
 10
861.17005008165415
 20
-1425.0854185815979
 10
861.15667328647805
 20
-1425.1323501981778
 42
-0.0072475040836677
 10
860.88922639861573
 20
-1426.0215699145654
 10
860.81901407179271
 20
-1426.2433102645239
 42
-0.0051345458828302
 10
860.5322546997287
 20
-1427.1176354523511
 10
860.51072843295469
 20
-1427.1810617195001
 42
-0.0019150016601671
 10
860.2551950260945
 20
-1427.9246108397072
 10
860.24872742170089
 20
-1427.9431983046209
 42
-0.0021524362753558
 10
860.00024937063449
 20
-1428.6475241263365
 10
859.99103894994278
 20
-1428.6732777046248
 42
-0.0024331286819159
 10
859.75478369090206
 20
-1429.3238770127564
 10
859.74573573834709
 20
-1429.3484203191226
 42
-0.0027449721786604
 10
859.52112116751607
 20
-1429.9475501980351
 10
859.51223116011602
 20
-1429.9708727879076
 42
-0.0031083229767887
 10
859.29868867351388
 20
-1430.520796825467
 10
859.28995254185406
 20
-1430.542886541285
 42
-0.0035311343284566
 10
859.08691135624645
 20
-1431.0458696670548
 10
859.07832601709663
 20
-1431.0667123905703
 42
-0.0040245640949826
 10
858.88521421330438
 20
-1431.5250217131575
 10
858.87677809970376
 20
-1431.5446010812238
 42
-0.0046015135853106
 10
858.69302180653756
 20
-1431.9605061108718
 10
858.68473562870906
 20
-1431.9788032503243
 42
-0.0052768638272459
 10
858.50975810975365
 20
-1432.3545761345943
 10
858.50162589913089
 20
-1432.3715694731286
 42
-0.0060672675645886
 10
858.33484628636074
 20
-1432.7094850962517
 10
858.32687680587776
 20
-1432.725150355252
 42
-0.0069904648871345
 10
858.16770841187781
 20
-1433.0274861619127
 10
858.15991701226642
 20
-1433.0417967111412
 42
-0.0080637022762335
 10
858.00776515192115
 20
-1433.3108320142931
 10
858.00017611928877
 20
-1433.3237598798958
 42
-0.0093006455663229
 10
857.85443544275836
 20
-1433.561774278397
 10
857.84708477601316
 20
-1433.5732922475725
 42
-0.0107060778048236
 10
857.7071362325762
 20
-1433.7825625649491
 10
857.70007446429486
 20
-1433.7926481075174
 42
-0.0122723111410611
 10
857.56528074609855
 20
-1433.9754414370041
 10
857.56495452254364
 20
-1433.9758618248147
 42
-0.01418363196285
 10
857.42137291957033
 20
-1434.1504315826433
 10
857.41442516391942
 20
-1434.1584065829068
 42
-0.0175957477205448
 10
857.27451899588368
 20
-1434.3080274713127
 42
-0.0080466359674507
 10
857.12705523085458
 20
-1434.450349999463
 10
857.08102068633605
 20
-1434.4933704375551
 42
-0.0269600260397626
 10
856.82774044035591
 20
-1434.7056936960621
 10
856.76117330405941
 20
-1434.7556451106857
 42
-0.0178362839756252
 10
856.52122881440027
 20
-1434.9226630369405
 10
856.513983843397
 20
-1434.9273315491473
 42
-0.0174650732647615
 10
856.2776476459585
 20
-1435.0681925141046
 42
-0.0169240130168069
 10
856.03218140010313
 20
-1435.192484773881
 10
855.98619524454307
 20
-1435.2138467294492
 42
-0.0318883036843563
 10
855.63584438892588
 20
-1435.3501850389584
 10
855.56747885375751
 20
-1435.3718856594351
 42
-0.0284435909898881
 10
855.19142872746727
 20
-1435.4681030949096
 10
855.15627056696553
 20
-1435.4749966907386
 42
-0.0243909341009543
 10
854.84282710604975
 20
-1435.5207177217681
 10
854.79254637927875
 20
-1435.5255632686697
 42
-0.0196639292931782
 10
854.57695080175131
 20
-1435.5378115541832
 10
854.52512673058436
 20
-1435.53871481492
 42
-0.0100501510681383
 10
854.41270344892359
 20
-1435.5384144165669
 10
854.38104358757664
 20
-1435.5376933446814
 42
-0.001975203113911
 10
854.33195125089821
 20
-1435.5363811844718
 10
854.32919094766248
 20
-1435.5362964926451
 42
0.0065378752001796
 10
854.28561437292137
 20
-1435.5355296014307
 42
-0.0167974694630692
 10
854.24208354998689
 20
-1435.5338697029044
 10
854.23800421072747
 20
-1435.5335766920098
 42
-0.0081283276269414
 10
854.18644441299011
 20
-1435.5290296983719
 10
854.17470483911029
 20
-1435.5278017807934
 42
-0.0126703440192016
 10
854.0999865433231
 20
-1435.5180669897229
 10
854.07719867564015
 20
-1435.5145087338067
 42
-0.0117852088428175
 10
853.95765968980288
 20
-1435.4929457386486
 10
853.90227923804468
 20
-1435.481602198415
 42
-0.0251774592295554
 10
853.67543519903745
 20
-1435.4231041889821
 10
853.63071600918681
 20
-1435.4091373696469
 42
-0.0146525199894742
 10
853.44432302164728
 20
-1435.3448708424485
 42
-0.0166929435859457
 10
853.26234536552147
 20
-1435.2690637093945
 10
853.25768873424749
 20
-1435.26693880878
 42
-0.0191684358429742
 10
853.07250510299968
 20
-1435.173702724991
 10
853.06917251724121
 20
-1435.1718614774368
 42
-0.0221181781809473
 10
852.88586221333833
 20
-1435.0597279790654
 10
852.88351240933059
 20
-1435.0581436810749
 42
-0.0254984685376965
 10
852.70722225894508
 20
-1434.9257325311053
 10
852.68474011124295
 20
-1434.9069802221688
 42
-0.0292492648800697
 10
852.55997117240031
 20
-1434.7898874225259
 42
-0.0159048957507321
 10
852.44613117495112
 20
-1434.6618674309279
 10
852.44481238437083
 20
-1434.6602858179067
 42
-0.0343813379562809
 10
852.3421751227454
 20
-1434.5184144921384
 10
852.31068359138362
 20
-1434.4679111000428
 42
-0.036911727570039
 10
852.22479108948653
 20
-1434.3044338590948
 42
-0.0191751379908487
 10
852.15759770392958
 20
-1434.1320292530891
 10
852.15583438017006
 20
-1434.126935908414
 42
-0.0378178042225677
 10
852.10603966138547
 20
-1433.937995132331
 10
852.10004436565532
 20
-1433.9054345141349
 42
-0.0184846046461391
 10
852.07932716636105
 20
-1433.7636816935908
 42
-0.0179866351316456
 10
852.06899416128749
 20
-1433.6207908805109
 10
852.06893771884165
 20
-1433.6192331938971
 42
-0.0085497186139372
 10
852.06750543773785
 20
-1433.5443600288872
 42
-0.0085497186139372
  0
ENDBLK
  5
55
100
AcDbEntity
  8
template
390
0
100
AcDbBlockEnd
  0
BLOCK
  5
56
100
AcDbEntity
  8
notes
390
0
100
AcDbBlockBegin
  2
*D2
 70
               1
 10
0.0
 20
0.0
 30
0.0
  3
*D2
  1

  0
LINE
  5
57
100
AcDbEntity
  8
0
370
              -2
390
0
  6
Continuous
 62
               0
100
AcDbLine
 10
-224.28398136948272
 20
-448.13847294663054
 30
0.0
 11
-145.78451443638272
 21
-448.13847294663054
 31
0.0
  0
LINE
  5
58
100
AcDbEntity
  8
0
370
              -2
390
0
  6
Continuous
 62
               0
100
AcDbLine
 10
-405.99454019398291
 20
-649.1384729466306
 30
0.0
 11
-145.78451443638272
 21
-649.1384729466306
 31
0.0
  0
LINE
  5
59
100
AcDbEntity
  8
0
370
              -2
390
0
  6
Continuous
 62
               0
100
AcDbLine
 10
-145.78451443638272
 20
-448.13847294663054
 30
0.0
 11
-145.78451443638272
 21
-649.1384729466306
 31
0.0
  0
CIRCLE
  5
5A
102
{ACAD_REACTORS
330
5B
102
}
100
AcDbEntity
  8
0
370
              -2
390
0
  6
Continuous
 62
               0
100
AcDbCircle
 10
-145.78451443638272
 20
-448.13847294663054
 30
0.0
 40
4.99969482421875
  0
HATCH
  5
5B
100
AcDbEntity
  8
0
370
              -2
390
0
  6
Continuous
 62
               0
100
AcDbHatch
 10
0.0
 20
0.0
 30
0.0
210
0.0
220
0.0
230
1.0
  2
SOLID
 70
               1
 71
               1
 91
        1
 92
        1
 93
        1
 72
               2
 10
-145.78451443638272
 20
-448.13847294663054
 40
4.99969482421875
 50
0.0
 51
360.0
 73
               0
 97
        1
330
5A
 75
               0
 76
               1
 98
        1
 10
0.0
 20
0.0
  0
CIRCLE
  5
5C
102
{ACAD_REACTORS
330
5D
102
}
100
AcDbEntity
  8
0
370
              -2
390
0
  6
Continuous
 62
               0
100
AcDbCircle
 10
-145.78451443638272
 20
-649.1384729466306
 30
0.0
 40
4.99969482421875
  0
HATCH
  5
5D
100
AcDbEntity
  8
0
370
              -2
390
0
  6
Continuous
 62
               0
100
AcDbHatch
 10
0.0
 20
0.0
 30
0.0
210
0.0
220
0.0
230
1.0
  2
SOLID
 70
               1
 71
               1
 91
        1
 92
        1
 93
        1
 72
               2
 10
-145.78451443638272
 20
-649.1384729466306
 40
4.99969482421875
 50
0.0
 51
360.0
 73
               0
 97
        1
330
5C
 75
               0
 76
               1
 98
        1
 10
0.0
 20
0.0
  0
MTEXT
  5
5E
100
AcDbEntity
  8
0
390
0
 62
               0
100
AcDbMText
 10
-179.66213162388271
 20
-572.45097462880608
 30
0.0
 40
24.432617187500004
 41
0.0
 71
               1
 72
               1
  1
201
  7
ＭＳ ゴシック
 11
0.0
 21
1.0
 31
0.0
 73
               1
 44
0.7828267384257843
  0
POINT
  5
5F
100
AcDbEntity
  8
Defpoints
370
               0
390
0
 62
               0
100
AcDbPoint
 10
-430.99454019398291
 20
-649.1384729466306
 30
0.0
  0
POINT
  5
60
100
AcDbEntity
  8
Defpoints
370
               0
390
0
 62
               0
100
AcDbPoint
 10
-249.28398136948272
 20
-448.13847294663054
 30
0.0
  0
POINT
  5
61
100
AcDbEntity
  8
Defpoints
370
               0
390
0
 62
               0
100
AcDbPoint
 10
-145.78451443638272
 20
-448.13847294663054
 30
0.0
  0
ENDBLK
  5
62
100
AcDbEntity
  8
notes
390
0
100
AcDbBlockEnd
  0
BLOCK
  5
63
100
AcDbEntity
  8
notes
390
0
100
AcDbBlockBegin
  2
*D3
 70
               1
 10
0.0
 20
0.0
 30
0.0
  3
*D3
  1

  0
LINE
  5
64
100
AcDbEntity
  8
0
370
              -2
390
0
  6
Continuous
 62
               0
100
AcDbLine
 10
377.95296209613747
 20
-636.22847294663052
 30
0.0
 11
377.95296209613747
 21
-711.22847294663052
 31
0.0
  0
LINE
  5
65
100
AcDbEntity
  8
0
370
              -2
390
0
  6
Continuous
 62
               0
100
AcDbLine
 10
201.95296209613764
 20
-481.13847294663054
 30
0.0
 11
201.95296209613764
 21
-711.22847294663052
 31
0.0
  0
LINE
  5
66
100
AcDbEntity
  8
0
370
              -2
390
0
  6
Continuous
 62
               0
100
AcDbLine
 10
377.95296209613747
 20
-711.22847294663052
 30
0.0
 11
201.95296209613764
 21
-711.22847294663052
 31
0.0
  0
CIRCLE
  5
67
102
{ACAD_REACTORS
330
68
102
}
100
AcDbEntity
  8
0
370
              -2
390
0
  6
Continuous
 62
               0
100
AcDbCircle
 10
377.95296209613747
 20
-711.22847294663052
 30
0.0
 40
4.99969482421875
  0
HATCH
  5
68
100
AcDbEntity
  8
0
370
              -2
390
0
  6
Continuous
 62
               0
100
AcDbHatch
 10
0.0
 20
0.0
 30
0.0
210
0.0
220
0.0
230
1.0
  2
SOLID
 70
               1
 71
               1
 91
        1
 92
        1
 93
        1
 72
               2
 10
377.95296209613747
 20
-711.22847294663052
 40
4.99969482421875
 50
0.0
 51
360.0
 73
               0
 97
        1
330
67
 75
               0
 76
               1
 98
        1
 10
0.0
 20
0.0
  0
CIRCLE
  5
69
102
{ACAD_REACTORS
330
6A
102
}
100
AcDbEntity
  8
0
370
              -2
390
0
  6
Continuous
 62
               0
100
AcDbCircle
 10
201.95296209613764
 20
-711.22847294663052
 30
0.0
 40
4.99969482421875
  0
HATCH
  5
6A
100
AcDbEntity
  8
0
370
              -2
390
0
  6
Continuous
 62
               0
100
AcDbHatch
 10
0.0
 20
0.0
 30
0.0
210
0.0
220
0.0
230
1.0
  2
SOLID
 70
               1
 71
               1
 91
        1
 92
        1
 93
        1
 72
               2
 10
201.95296209613764
 20
-711.22847294663052
 40
4.99969482421875
 50
0.0
 51
360.0
 73
               0
 97
        1
330
69
 75
               0
 76
               1
 98
        1
 10
0.0
 20
0.0
  0
MTEXT
  5
6B
100
AcDbEntity
  8
0
390
0
 62
               0
100
AcDbMText
 10
266.14046041396205
 20
-677.35085575913035
 30
0.0
 40
24.432617187500004
 41
0.0
 71
               1
 72
               1
  1
176
  7
ＭＳ ゴシック
 73
               1
 44
0.7828267384257843
  0
POINT
  5
6C
100
AcDbEntity
  8
Defpoints
370
               0
390
0
 62
               0
100
AcDbPoint
 10
201.95296209613764
 20
-456.13847294663054
 30
0.0
  0
POINT
  5
6D
100
AcDbEntity
  8
Defpoints
370
               0
390
0
 62
               0
100
AcDbPoint
 10
377.95296209613747
 20
-611.22847294663052
 30
0.0
  0
POINT
  5
6E
100
AcDbEntity
  8
Defpoints
370
               0
390
0
 62
               0
100
AcDbPoint
 10
377.95296209613747
 20
-711.22847294663052
 30
0.0
  0
ENDBLK
  5
6F
100
AcDbEntity
  8
notes
390
0
100
AcDbBlockEnd
  0
BLOCK
  5
70
100
AcDbEntity
  8
notes
390
0
100
AcDbBlockBegin
  2
*D4
 70
               1
 10
0.0
 20
0.0
 30
0.0
  3
*D4
  1

  0
LINE
  5
71
100
AcDbEntity
  8
0
370
              -2
390
0
  6
Continuous
 62
               0
100
AcDbLine
 10
201.89293604643763
 20
-426.57738952413041
 30
0.0
 11
201.89293604643763
 21
-348.13847294663043
 31
0.0
  0
LINE
  5
72
100
AcDbEntity
  8
0
370
              -2
390
0
  6
Continuous
 62
               0
100
AcDbLine
 10
251.89293604643746
 20
-423.13847294663054
 30
0.0
 11
251.89293604643746
 21
-348.13847294663043
 31
0.0
  0
LINE
  5
73
100
AcDbEntity
  8
0
370
              -2
390
0
  6
Continuous
 62
               0
100
AcDbLine
 10
201.89293604643763
 20
-348.13847294663043
 30
0.0
 11
251.89293604643746
 21
-348.13847294663043
 31
0.0
  0
CIRCLE
  5
74
102
{ACAD_REACTORS
330
75
102
}
100
AcDbEntity
  8
0
370
              -2
390
0
  6
Continuous
 62
               0
100
AcDbCircle
 10
201.89293604643763
 20
-348.13847294663043
 30
0.0
 40
4.99969482421875
  0
HATCH
  5
75
100
AcDbEntity
  8
0
370
              -2
390
0
  6
Continuous
 62
               0
100
AcDbHatch
 10
0.0
 20
0.0
 30
0.0
210
0.0
220
0.0
230
1.0
  2
SOLID
 70
               1
 71
               1
 91
        1
 92
        1
 93
        1
 72
               2
 10
201.89293604643763
 20
-348.13847294663043
 40
4.99969482421875
 50
0.0
 51
360.0
 73
               0
 97
        1
330
74
 75
               0
 76
               1
 98
        1
 10
0.0
 20
0.0
  0
CIRCLE
  5
76
102
{ACAD_REACTORS
330
77
102
}
100
AcDbEntity
  8
0
370
              -2
390
0
  6
Continuous
 62
               0
100
AcDbCircle
 10
251.89293604643746
 20
-348.13847294663043
 30
0.0
 40
4.99969482421875
  0
HATCH
  5
77
100
AcDbEntity
  8
0
370
              -2
390
0
  6
Continuous
 62
               0
100
AcDbHatch
 10
0.0
 20
0.0
 30
0.0
210
0.0
220
0.0
230
1.0
  2
SOLID
 70
               1
 71
               1
 91
        1
 92
        1
 93
        1
 72
               2
 10
251.89293604643746
 20
-348.13847294663043
 40
4.99969482421875
 50
0.0
 51
360.0
 73
               0
 97
        1
330
76
 75
               0
 76
               1
 98
        1
 10
0.0
 20
0.0
  0
MTEXT
  5
78
100
AcDbEntity
  8
0
390
0
 62
               0
100
AcDbMText
 10
211.01793604643757
 20
-314.26085575913044
 30
0.0
 40
24.432617187500004
 41
0.0
 71
               1
 72
               1
  1
50
  7
ＭＳ ゴシック
 73
               1
 44
0.7828267384257843
  0
POINT
  5
79
100
AcDbEntity
  8
Defpoints
370
               0
390
0
 62
               0
100
AcDbPoint
 10
251.89293604643746
 20
-448.13847294663054
 30
0.0
  0
POINT
  5
7A
100
AcDbEntity
  8
Defpoints
370
               0
390
0
 62
               0
100
AcDbPoint
 10
201.89293604643763
 20
-451.57738952413041
 30
0.0
  0
POINT
  5
7B
100
AcDbEntity
  8
Defpoints
370
               0
390
0
 62
               0
100
AcDbPoint
 10
201.89293604643763
 20
-348.13847294663043
 30
0.0
  0
ENDBLK
  5
7C
100
AcDbEntity
  8
notes
390
0
100
AcDbBlockEnd
  0
BLOCK
  5
7D
100
AcDbEntity
  8
notes
390
0
100
AcDbBlockBegin
  2
*D5
 70
               1
 10
0.0
 20
0.0
 30
0.0
  3
*D5
  1

  0
LINE
  5
7E
100
AcDbEntity
  8
0
370
              -2
390
0
  6
Continuous
 62
               0
100
AcDbLine
 10
402.95296209613747
 20
-448.13847294663054
 30
0.0
 11
382.80851410269605
 21
-448.13847294663054
 31
0.0
  0
LINE
  5
7F
100
AcDbEntity
  8
0
370
              -2
390
0
  6
Continuous
 62
               0
100
AcDbLine
 10
402.95296209613747
 20
-602.1384729466306
 30
0.0
 11
382.80851410269605
 21
-602.1384729466306
 31
0.0
  0
LINE
  5
80
100
AcDbEntity
  8
0
370
              -2
390
0
  6
Continuous
 62
               0
100
AcDbLine
 10
382.80851410269605
 20
-448.13847294663054
 30
0.0
 11
382.80851410269605
 21
-293.31648589730401
 31
0.0
  0
LINE
  5
81
100
AcDbEntity
  8
0
370
              -2
390
0
  6
Continuous
 62
               0
100
AcDbLine
 10
382.80851410269605
 20
-448.13847294663054
 30
0.0
 11
382.80851410269605
 21
-602.1384729466306
 31
0.0
  0
CIRCLE
  5
82
102
{ACAD_REACTORS
330
83
102
}
100
AcDbEntity
  8
0
370
              -2
390
0
  6
Continuous
 62
               0
100
AcDbCircle
 10
382.80851410269605
 20
-448.13847294663054
 30
0.0
 40
4.99969482421875
  0
HATCH
  5
83
100
AcDbEntity
  8
0
370
              -2
390
0
  6
Continuous
 62
               0
100
AcDbHatch
 10
0.0
 20
0.0
 30
0.0
210
0.0
220
0.0
230
1.0
  2
SOLID
 70
               1
 71
               1
 91
        1
 92
        1
 93
        1
 72
               2
 10
382.80851410269605
 20
-448.13847294663054
 40
4.99969482421875
 50
0.0
 51
360.0
 73
               0
 97
        1
330
82
 75
               0
 76
               1
 98
        1
 10
0.0
 20
0.0
  0
CIRCLE
  5
84
102
{ACAD_REACTORS
330
85
102
}
100
AcDbEntity
  8
0
370
              -2
390
0
  6
Continuous
 62
               0
100
AcDbCircle
 10
382.80851410269605
 20
-602.1384729466306
 30
0.0
 40
4.99969482421875
  0
HATCH
  5
85
100
AcDbEntity
  8
0
370
              -2
390
0
  6
Continuous
 62
               0
100
AcDbHatch
 10
0.0
 20
0.0
 30
0.0
210
0.0
220
0.0
230
1.0
  2
SOLID
 70
               1
 71
               1
 91
        1
 92
        1
 93
        1
 72
               2
 10
382.80851410269605
 20
-602.1384729466306
 40
4.99969482421875
 50
0.0
 51
360.0
 73
               0
 97
        1
330
84
 75
               0
 76
               1
 98
        1
 10
0.0
 20
0.0
  0
MTEXT
  5
86
100
AcDbEntity
  8
0
390
0
 62
               0
100
AcDbMText
 10
348.93089691519606
 20
-436.19148589730401
 30
0.0
 40
24.432617187500004
 41
0.0
 71
               1
 72
               1
  1
154(深さ)
  7
ＭＳ ゴシック
 11
0.0
 21
1.0
 31
0.0
 73
               1
 44
0.7828267384257843
  0
POINT
  5
87
100
AcDbEntity
  8
Defpoints
370
               0
390
0
 62
               0
100
AcDbPoint
 10
377.95296209613747
 20
-602.1384729466306
 30
0.0
  0
POINT
  5
88
100
AcDbEntity
  8
Defpoints
370
               0
390
0
 62
               0
100
AcDbPoint
 10
377.95296209613747
 20
-448.13847294663054
 30
0.0
  0
POINT
  5
89
100
AcDbEntity
  8
Defpoints
370
               0
390
0
 62
               0
100
AcDbPoint
 10
382.80851410269605
 20
-448.13847294663054
 30
0.0
  0
ENDBLK
  5
8A
100
AcDbEntity
  8
notes
390
0
100
AcDbBlockEnd
  0
BLOCK
  5
8B
100
AcDbEntity
  8
notes
390
0
100
AcDbBlockBegin
  2
*D6
 70
               1
 10
0.0
 20
0.0
 30
0.0
  3
*D6
  1

  0
LINE
  5
8C
100
AcDbEntity
  8
0
370
              -2
390
0
  6
Continuous
 62
               0
100
AcDbLine
 10
573.61759314264668
 20
398.27534290379197
 30
0.0
 11
617.29845508252583
 21
354.59448096391276
 31
0.0
  0
CIRCLE
  5
8D
102
{ACAD_REACTORS
330
8E
102
}
100
AcDbEntity
  8
0
370
              -2
390
0
  6
Continuous
 62
               0
100
AcDbCircle
 10
573.61759314264668
 20
398.27534290379197
 30
0.0
 40
4.99969482421875
  0
HATCH
  5
8E
100
AcDbEntity
  8
0
370
              -2
390
0
  6
Continuous
 62
               0
100
AcDbHatch
 10
0.0
 20
0.0
 30
0.0
210
0.0
220
0.0
230
1.0
  2
SOLID
 70
               1
 71
               1
 91
        1
 92
        1
 93
        1
 72
               2
 10
573.61759314264668
 20
398.27534290379197
 40
4.99969482421875
 50
0.0
 51
360.0
 73
               0
 97
        1
330
8D
 75
               0
 76
               1
 98
        1
 10
0.0
 20
0.0
  0
LINE
  5
8F
100
AcDbEntity
  8
0
370
              -2
390
0
  6
Continuous
 62
               0
100
AcDbLine
 10
617.29845508252583
 20
354.59448096391276
 30
0.0
 11
756.67345508252583
 21
354.59448096391276
 31
0.0
  0
MTEXT
  5
90
100
AcDbEntity
  8
0
390
0
 62
               0
100
AcDbMText
 10
677.29845508252583
 20
388.47209815141275
 30
0.0
 40
24.432617187500004
 41
0.0
 71
               1
 72
               1
  1
φ415
  7
ＭＳ ゴシック
 73
               1
 44
0.7828267384257843
  0
POINT
  5
91
100
AcDbEntity
  8
Defpoints
370
               0
390
0
 62
               0
100
AcDbPoint
 10
280.16827895022902
 20
691.7246570962086
 30
0.0
  0
POINT
  5
92
100
AcDbEntity
  8
Defpoints
370
               0
390
0
 62
               0
100
AcDbPoint
 10
573.61759314264668
 20
398.27534290379197
 30
0.0
  0
ENDBLK
  5
93
100
AcDbEntity
  8
notes
390
0
100
AcDbBlockEnd
  0
BLOCK
  5
94
100
AcDbEntity
  8
notes
390
0
100
AcDbBlockBegin
  2
*D7
 70
               1
 10
0.0
 20
0.0
 30
0.0
  3
*D7
  1

  0
LINE
  5
95
100
AcDbEntity
  8
0
370
              -2
390
0
  6
Continuous
 62
               0
100
AcDbLine
 10
-245.84454048608279
 20
595.00000000000023
 30
0.0
 11
-245.84454048608279
 21
870.00000000000023
 31
0.0
  0
LINE
  5
96
100
AcDbEntity
  8
0
370
              -2
390
0
  6
Continuous
 62
               0
100
AcDbLine
 10
-695.84454048608268
 20
595.00000000000023
 30
0.0
 11
-695.84454048608268
 21
870.00000000000023
 31
0.0
  0
LINE
  5
97
100
AcDbEntity
  8
0
370
              -2
390
0
  6
Continuous
 62
               0
100
AcDbLine
 10
-245.84454048608279
 20
870.00000000000023
 30
0.0
 11
-695.84454048608268
 21
870.00000000000023
 31
0.0
  0
CIRCLE
  5
98
102
{ACAD_REACTORS
330
99
102
}
100
AcDbEntity
  8
0
370
              -2
390
0
  6
Continuous
 62
               0
100
AcDbCircle
 10
-245.84454048608279
 20
870.00000000000023
 30
0.0
 40
4.99969482421875
  0
HATCH
  5
99
100
AcDbEntity
  8
0
370
              -2
390
0
  6
Continuous
 62
               0
100
AcDbHatch
 10
0.0
 20
0.0
 30
0.0
210
0.0
220
0.0
230
1.0
  2
SOLID
 70
               1
 71
               1
 91
        1
 92
        1
 93
        1
 72
               2
 10
-245.84454048608279
 20
870.00000000000023
 40
4.99969482421875
 50
0.0
 51
360.0
 73
               0
 97
        1
330
98
 75
               0
 76
               1
 98
        1
 10
0.0
 20
0.0
  0
CIRCLE
  5
9A
102
{ACAD_REACTORS
330
9B
102
}
100
AcDbEntity
  8
0
370
              -2
390
0
  6
Continuous
 62
               0
100
AcDbCircle
 10
-695.84454048608268
 20
870.00000000000023
 30
0.0
 40
4.99969482421875
  0
HATCH
  5
9B
100
AcDbEntity
  8
0
370
              -2
390
0
  6
Continuous
 62
               0
100
AcDbHatch
 10
0.0
 20
0.0
 30
0.0
210
0.0
220
0.0
230
1.0
  2
SOLID
 70
               1
 71
               1
 91
        1
 92
        1
 93
        1
 72
               2
 10
-695.84454048608268
 20
870.00000000000023
 40
4.99969482421875
 50
0.0
 51
360.0
 73
               0
 97
        1
330
9A
 75
               0
 76
               1
 98
        1
 10
0.0
 20
0.0
  0
MTEXT
  5
9C
100
AcDbEntity
  8
0
390
0
 62
               0
100
AcDbMText
 10
-494.65704216825816
 20
903.87761718750039
 30
0.0
 40
24.432617187500004
 41
0.0
 71
               1
 72
               1
  1
450
  7
ＭＳ ゴシック
 73
               1
 44
0.7828267384257843
  0
POINT
  5
9D
100
AcDbEntity
  8
Defpoints
370
               0
390
0
 62
               0
100
AcDbPoint
 10
-695.84454048608268
 20
570.00000000000034
 30
0.0
  0
POINT
  5
9E
100
AcDbEntity
  8
Defpoints
370
               0
390
0
 62
               0
100
AcDbPoint
 10
-245.84454048608279
 20
570.00000000000034
 30
0.0
  0
POINT
  5
9F
100
AcDbEntity
  8
Defpoints
370
               0
390
0
 62
               0
100
AcDbPoint
 10
-245.84454048608279
 20
870.00000000000023
 30
0.0
  0
ENDBLK
  5
A0
100
AcDbEntity
  8
notes
390
0
100
AcDbBlockEnd
  0
BLOCK
  5
A1
100
AcDbEntity
  8
notes
390
0
100
AcDbBlockBegin
  2
*D8
 70
               1
 10
0.0
 20
0.0
 30
0.0
  3
*D8
  1

  0
LINE
  5
A2
100
AcDbEntity
  8
0
370
              -2
390
0
  6
Continuous
 62
               0
100
AcDbLine
 10
-682.92740982477972
 20
670.00000000000023
 30
0.0
 11
-795.84454048608268
 21
670.00000000000023
 31
0.0
  0
LINE
  5
A3
100
AcDbEntity
  8
0
370
              -2
390
0
  6
Continuous
 62
               0
100
AcDbLine
 10
-598.92367807213714
 20
345.0007715152002
 30
0.0
 11
-795.84454048608268
 21
345.0007715152002
 31
0.0
  0
LINE
  5
A4
100
AcDbEntity
  8
0
370
              -2
390
0
  6
Continuous
 62
               0
100
AcDbLine
 10
-795.84454048608268
 20
670.00000000000023
 30
0.0
 11
-795.84454048608268
 21
345.0007715152002
 31
0.0
  0
CIRCLE
  5
A5
102
{ACAD_REACTORS
330
A6
102
}
100
AcDbEntity
  8
0
370
              -2
390
0
  6
Continuous
 62
               0
100
AcDbCircle
 10
-795.84454048608268
 20
670.00000000000023
 30
0.0
 40
4.99969482421875
  0
HATCH
  5
A6
100
AcDbEntity
  8
0
370
              -2
390
0
  6
Continuous
 62
               0
100
AcDbHatch
 10
0.0
 20
0.0
 30
0.0
210
0.0
220
0.0
230
1.0
  2
SOLID
 70
               1
 71
               1
 91
        1
 92
        1
 93
        1
 72
               2
 10
-795.84454048608268
 20
670.00000000000023
 40
4.99969482421875
 50
0.0
 51
360.0
 73
               0
 97
        1
330
A5
 75
               0
 76
               1
 98
        1
 10
0.0
 20
0.0
  0
CIRCLE
  5
A7
102
{ACAD_REACTORS
330
A8
102
}
100
AcDbEntity
  8
0
370
              -2
390
0
  6
Continuous
 62
               0
100
AcDbCircle
 10
-795.84454048608268
 20
345.0007715152002
 30
0.0
 40
4.99969482421875
  0
HATCH
  5
A8
100
AcDbEntity
  8
0
370
              -2
390
0
  6
Continuous
 62
               0
100
AcDbHatch
 10
0.0
 20
0.0
 30
0.0
210
0.0
220
0.0
230
1.0
  2
SOLID
 70
               1
 71
               1
 91
        1
 92
        1
 93
        1
 72
               2
 10
-795.84454048608268
 20
345.0007715152002
 40
4.99969482421875
 50
0.0
 51
360.0
 73
               0
 97
        1
330
A7
 75
               0
 76
               1
 98
        1
 10
0.0
 20
0.0
  0
MTEXT
  5
A9
100
AcDbEntity
  8
0
390
0
 62
               0
100
AcDbMText
 10
-829.72215767358273
 20
483.68788407542468
 30
0.0
 40
24.432617187500004
 41
0.0
 71
               1
 72
               1
  1
325
  7
ＭＳ ゴシック
 11
0.0
 21
1.0
 31
0.0
 73
               1
 44
0.7828267384257843
  0
POINT
  5
AA
100
AcDbEntity
  8
Defpoints
370
               0
390
0
 62
               0
100
AcDbPoint
 10
-573.92367807213714
 20
345.0007715152002
 30
0.0
  0
POINT
  5
AB
100
AcDbEntity
  8
Defpoints
370
               0
390
0
 62
               0
100
AcDbPoint
 10
-657.92740982477972
 20
670.00000000000023
 30
0.0
  0
POINT
  5
AC
100
AcDbEntity
  8
Defpoints
370
               0
390
0
 62
               0
100
AcDbPoint
 10
-795.84454048608268
 20
670.00000000000023
 30
0.0
  0
ENDBLK
  5
AD
100
AcDbEntity
  8
notes
390
0
100
AcDbBlockEnd
  0
BLOCK
  5
AE
100
AcDbEntity
  8
notes
390
0
100
AcDbBlockBegin
  2
*D9
 70
               1
 10
0.0
 20
0.0
 30
0.0
  3
*D9
  1

  0
LINE
  5
AF
100
AcDbEntity
  8
0
370
              -2
390
0
  6
Continuous
 62
               0
100
AcDbLine
 10
-598.92220761529961
 20
345.00001365200501
 30
0.0
 11
-795.84454048608268
 21
345.00001365200501
 31
0.0
  0
LINE
  5
B0
100
AcDbEntity
  8
0
370
              -2
390
0
  6
Continuous
 62
               0
100
AcDbLine
 10
-495.84454048608291
 20
319.93997395030027
 30
0.0
 11
-795.84454048608268
 21
319.93997395030027
 31
0.0
  0
LINE
  5
B1
100
AcDbEntity
  8
0
370
              -2
390
0
  6
Continuous
 62
               0
100
AcDbLine
 10
-795.84454048608268
 20
345.00001365200501
 30
0.0
 11
-795.84454048608268
 21
319.93997395030027
 31
0.0
  0
CIRCLE
  5
B2
102
{ACAD_REACTORS
330
B3
102
}
100
AcDbEntity
  8
0
370
              -2
390
0
  6
Continuous
 62
               0
100
AcDbCircle
 10
-795.84454048608268
 20
345.00001365200501
 30
0.0
 40
4.99969482421875
  0
HATCH
  5
B3
100
AcDbEntity
  8
0
370
              -2
390
0
  6
Continuous
 62
               0
100
AcDbHatch
 10
0.0
 20
0.0
 30
0.0
210
0.0
220
0.0
230
1.0
  2
SOLID
 70
               1
 71
               1
 91
        1
 92
        1
 93
        1
 72
               2
 10
-795.84454048608268
 20
345.00001365200501
 40
4.99969482421875
 50
0.0
 51
360.0
 73
               0
 97
        1
330
B2
 75
               0
 76
               1
 98
        1
 10
0.0
 20
0.0
  0
CIRCLE
  5
B4
102
{ACAD_REACTORS
330
B5
102
}
100
AcDbEntity
  8
0
370
              -2
390
0
  6
Continuous
 62
               0
100
AcDbCircle
 10
-795.84454048608268
 20
319.93997395030027
 30
0.0
 40
4.99969482421875
  0
HATCH
  5
B5
100
AcDbEntity
  8
0
370
              -2
390
0
  6
Continuous
 62
               0
100
AcDbHatch
 10
0.0
 20
0.0
 30
0.0
210
0.0
220
0.0
230
1.0
  2
SOLID
 70
               1
 71
               1
 91
        1
 92
        1
 93
        1
 72
               2
 10
-795.84454048608268
 20
319.93997395030027
 40
4.99969482421875
 50
0.0
 51
360.0
 73
               0
 97
        1
330
B4
 75
               0
 76
               1
 98
        1
 10
0.0
 20
0.0
  0
MTEXT
  5
B6
100
AcDbEntity
  8
0
390
0
 62
               0
100
AcDbMText
 10
-829.72215767358273
 20
316.59499380115261
 30
0.0
 40
24.432617187500004
 41
0.0
 71
               1
 72
               1
  1
25
  7
ＭＳ ゴシック
 11
0.0
 21
1.0
 31
0.0
 73
               1
 44
0.7828267384257843
  0
POINT
  5
B7
100
AcDbEntity
  8
Defpoints
370
               0
390
0
 62
               0
100
AcDbPoint
 10
-470.84454048608291
 20
319.93997395030027
 30
0.0
  0
POINT
  5
B8
100
AcDbEntity
  8
Defpoints
370
               0
390
0
 62
               0
100
AcDbPoint
 10
-573.92220761529961
 20
345.00001365200501
 30
0.0
  0
POINT
  5
B9
100
AcDbEntity
  8
Defpoints
370
               0
390
0
 62
               0
100
AcDbPoint
 10
-795.84454048608268
 20
345.00001365200501
 30
0.0
  0
ENDBLK
  5
BA
100
AcDbEntity
  8
notes
390
0
100
AcDbBlockEnd
  0
BLOCK
  5
BB
100
AcDbEntity
  8
notes
390
0
100
AcDbBlockBegin
  2
*D10
 70
               1
 10
0.0
 20
0.0
 30
0.0
  3
*D10
  1

  0
LINE
  5
BC
100
AcDbEntity
  8
0
370
              -2
390
0
  6
Continuous
 62
               0
100
AcDbLine
 10
-445.84454048608291
 20
320.00000000000034
 30
0.0
 11
-145.84454048608279
 21
320.00000000000034
 31
0.0
  0
LINE
  5
BD
100
AcDbEntity
  8
0
370
              -2
390
0
  6
Continuous
 62
               0
100
AcDbLine
 10
-445.84454048608291
 20
770.00000000000023
 30
0.0
 11
-145.84454048608279
 21
770.00000000000023
 31
0.0
  0
LINE
  5
BE
100
AcDbEntity
  8
0
370
              -2
390
0
  6
Continuous
 62
               0
100
AcDbLine
 10
-145.84454048608279
 20
320.00000000000034
 30
0.0
 11
-145.84454048608279
 21
770.00000000000023
 31
0.0
  0
CIRCLE
  5
BF
102
{ACAD_REACTORS
330
C0
102
}
100
AcDbEntity
  8
0
370
              -2
390
0
  6
Continuous
 62
               0
100
AcDbCircle
 10
-145.84454048608279
 20
320.00000000000034
 30
0.0
 40
4.99969482421875
  0
HATCH
  5
C0
100
AcDbEntity
  8
0
370
              -2
390
0
  6
Continuous
 62
               0
100
AcDbHatch
 10
0.0
 20
0.0
 30
0.0
210
0.0
220
0.0
230
1.0
  2
SOLID
 70
               1
 71
               1
 91
        1
 92
        1
 93
        1
 72
               2
 10
-145.84454048608279
 20
320.00000000000034
 40
4.99969482421875
 50
0.0
 51
360.0
 73
               0
 97
        1
330
BF
 75
               0
 76
               1
 98
        1
 10
0.0
 20
0.0
  0
CIRCLE
  5
C1
102
{ACAD_REACTORS
330
C2
102
}
100
AcDbEntity
  8
0
370
              -2
390
0
  6
Continuous
 62
               0
100
AcDbCircle
 10
-145.84454048608279
 20
770.00000000000023
 30
0.0
 40
4.99969482421875
  0
HATCH
  5
C2
100
AcDbEntity
  8
0
370
              -2
390
0
  6
Continuous
 62
               0
100
AcDbHatch
 10
0.0
 20
0.0
 30
0.0
210
0.0
220
0.0
230
1.0
  2
SOLID
 70
               1
 71
               1
 91
        1
 92
        1
 93
        1
 72
               2
 10
-145.84454048608279
 20
770.00000000000023
 40
4.99969482421875
 50
0.0
 51
360.0
 73
               0
 97
        1
330
C1
 75
               0
 76
               1
 98
        1
 10
0.0
 20
0.0
  0
MTEXT
  5
C3
100
AcDbEntity
  8
0
390
0
 62
               0
100
AcDbMText
 10
-179.72215767358279
 20
521.18749831782475
 30
0.0
 40
24.432617187500004
 41
0.0
 71
               1
 72
               1
  1
450
  7
ＭＳ ゴシック
 11
0.0
 21
1.0
 31
0.0
 73
               1
 44
0.7828267384257843
  0
POINT
  5
C4
100
AcDbEntity
  8
Defpoints
370
               0
390
0
 62
               0
100
AcDbPoint
 10
-470.84454048608291
 20
770.00000000000023
 30
0.0
  0
POINT
  5
C5
100
AcDbEntity
  8
Defpoints
370
               0
390
0
 62
               0
100
AcDbPoint
 10
-470.84454048608291
 20
320.00000000000034
 30
0.0
  0
POINT
  5
C6
100
AcDbEntity
  8
Defpoints
370
               0
390
0
 62
               0
100
AcDbPoint
 10
-145.84454048608279
 20
320.00000000000034
 30
0.0
  0
ENDBLK
  5
C7
100
AcDbEntity
  8
notes
390
0
100
AcDbBlockEnd
  0
BLOCK
  5
C8
100
AcDbEntity
  8
notes
390
0
100
AcDbBlockBegin
  2
*D11
 70
               1
 10
0.0
 20
0.0
 30
0.0
  3
*D11
  1

  0
LINE
  5
C9
100
AcDbEntity
  8
0
370
              -2
390
0
  6
Continuous
 62
               0
100
AcDbLine
 10
-495.84454048608291
 20
770.00000000000023
 30
0.0
 11
-795.84454048608291
 21
770.00000000000023
 31
0.0
  0
LINE
  5
CA
100
AcDbEntity
  8
0
370
              -2
390
0
  6
Continuous
 62
               0
100
AcDbLine
 10
-682.92740982477972
 20
670.00000000000023
 30
0.0
 11
-795.84454048608291
 21
670.00000000000023
 31
0.0
  0
LINE
  5
CB
100
AcDbEntity
  8
0
370
              -2
390
0
  6
Continuous
 62
               0
100
AcDbLine
 10
-795.84454048608291
 20
770.00000000000023
 30
0.0
 11
-795.84454048608291
 21
670.00000000000023
 31
0.0
  0
CIRCLE
  5
CC
102
{ACAD_REACTORS
330
CD
102
}
100
AcDbEntity
  8
0
370
              -2
390
0
  6
Continuous
 62
               0
100
AcDbCircle
 10
-795.84454048608291
 20
770.00000000000023
 30
0.0
 40
4.99969482421875
  0
HATCH
  5
CD
100
AcDbEntity
  8
0
370
              -2
390
0
  6
Continuous
 62
               0
100
AcDbHatch
 10
0.0
 20
0.0
 30
0.0
210
0.0
220
0.0
230
1.0
  2
SOLID
 70
               1
 71
               1
 91
        1
 92
        1
 93
        1
 72
               2
 10
-795.84454048608291
 20
770.00000000000023
 40
4.99969482421875
 50
0.0
 51
360.0
 73
               0
 97
        1
330
CC
 75
               0
 76
               1
 98
        1
 10
0.0
 20
0.0
  0
CIRCLE
  5
CE
102
{ACAD_REACTORS
330
CF
102
}
100
AcDbEntity
  8
0
370
              -2
390
0
  6
Continuous
 62
               0
100
AcDbCircle
 10
-795.84454048608291
 20
670.00000000000023
 30
0.0
 40
4.99969482421875
  0
HATCH
  5
CF
100
AcDbEntity
  8
0
370
              -2
390
0
  6
Continuous
 62
               0
100
AcDbHatch
 10
0.0
 20
0.0
 30
0.0
210
0.0
220
0.0
230
1.0
  2
SOLID
 70
               1
 71
               1
 91
        1
 92
        1
 93
        1
 72
               2
 10
-795.84454048608291
 20
670.00000000000023
 40
4.99969482421875
 50
0.0
 51
360.0
 73
               0
 97
        1
330
CE
 75
               0
 76
               1
 98
        1
 10
0.0
 20
0.0
  0
MTEXT
  5
D0
100
AcDbEntity
  8
0
390
0
 62
               0
100
AcDbMText
 10
-829.72215767358296
 20
696.18749831782475
 30
0.0
 40
24.432617187500004
 41
0.0
 71
               1
 72
               1
  1
100
  7
ＭＳ ゴシック
 11
0.0
 21
1.0
 31
0.0
 73
               1
 44
0.7828267384257843
  0
POINT
  5
D1
100
AcDbEntity
  8
Defpoints
370
               0
390
0
 62
               0
100
AcDbPoint
 10
-657.92740982477972
 20
670.00000000000023
 30
0.0
  0
POINT
  5
D2
100
AcDbEntity
  8
Defpoints
370
               0
390
0
 62
               0
100
AcDbPoint
 10
-470.84454048608291
 20
770.00000000000023
 30
0.0
  0
POINT
  5
D3
100
AcDbEntity
  8
Defpoints
370
               0
390
0
 62
               0
100
AcDbPoint
 10
-795.84454048608291
 20
770.00000000000023
 30
0.0
  0
ENDBLK
  5
D4
100
AcDbEntity
  8
notes
390
0
100
AcDbBlockEnd
  0
BLOCK
  5
D5
100
AcDbEntity
  8
notes
390
0
100
AcDbBlockBegin
  2
*D12
 70
               1
 10
0.0
 20
0.0
 30
0.0
  3
*D12
  1

  0
LINE
  5
D6
100
AcDbEntity
  8
0
370
              -2
390
0
  6
Continuous
 62
               0
100
AcDbLine
 10
-670.84454048608245
 20
413.62816422769379
 30
0.0
 11
-670.84454048608245
 21
211.80851410269605
 31
0.0
  0
LINE
  5
D7
100
AcDbEntity
  8
0
370
              -2
390
0
  6
Continuous
 62
               0
100
AcDbLine
 10
-270.84454048608279
 20
413.62816422769379
 30
0.0
 11
-270.84454048608279
 21
211.80851410269605
 31
0.0
  0
LINE
  5
D8
100
AcDbEntity
  8
0
370
              -2
390
0
  6
Continuous
 62
               0
100
AcDbLine
 10
-670.84454048608245
 20
211.80851410269605
 30
0.0
 11
-270.84454048608279
 21
211.80851410269605
 31
0.0
  0
CIRCLE
  5
D9
102
{ACAD_REACTORS
330
DA
102
}
100
AcDbEntity
  8
0
370
              -2
390
0
  6
Continuous
 62
               0
100
AcDbCircle
 10
-670.84454048608245
 20
211.80851410269605
 30
0.0
 40
4.99969482421875
  0
HATCH
  5
DA
100
AcDbEntity
  8
0
370
              -2
390
0
  6
Continuous
 62
               0
100
AcDbHatch
 10
0.0
 20
0.0
 30
0.0
210
0.0
220
0.0
230
1.0
  2
SOLID
 70
               1
 71
               1
 91
        1
 92
        1
 93
        1
 72
               2
 10
-670.84454048608245
 20
211.80851410269605
 40
4.99969482421875
 50
0.0
 51
360.0
 73
               0
 97
        1
330
D9
 75
               0
 76
               1
 98
        1
 10
0.0
 20
0.0
  0
CIRCLE
  5
DB
102
{ACAD_REACTORS
330
DC
102
}
100
AcDbEntity
  8
0
370
              -2
390
0
  6
Continuous
 62
               0
100
AcDbCircle
 10
-270.84454048608279
 20
211.80851410269605
 30
0.0
 40
4.99969482421875
  0
HATCH
  5
DC
100
AcDbEntity
  8
0
370
              -2
390
0
  6
Continuous
 62
               0
100
AcDbHatch
 10
0.0
 20
0.0
 30
0.0
210
0.0
220
0.0
230
1.0
  2
SOLID
 70
               1
 71
               1
 91
        1
 92
        1
 93
        1
 72
               2
 10
-270.84454048608279
 20
211.80851410269605
 40
4.99969482421875
 50
0.0
 51
360.0
 73
               0
 97
        1
330
DB
 75
               0
 76
               1
 98
        1
 10
0.0
 20
0.0
  0
MTEXT
  5
DD
100
AcDbEntity
  8
0
390
0
 62
               0
100
AcDbMText
 10
-494.65704216825816
 20
245.68613129019604
 30
0.0
 40
24.432617187500004
 41
0.0
 71
               1
 72
               1
  1
400
  7
ＭＳ ゴシック
 73
               1
 44
0.7828267384257843
  0
POINT
  5
DE
100
AcDbEntity
  8
Defpoints
370
               0
390
0
 62
               0
100
AcDbPoint
 10
-270.84454048608279
 20
438.62816422769379
 30
0.0
  0
POINT
  5
DF
100
AcDbEntity
  8
Defpoints
370
               0
390
0
 62
               0
100
AcDbPoint
 10
-670.84454048608245
 20
438.62816422769379
 30
0.0
  0
POINT
  5
E0
100
AcDbEntity
  8
Defpoints
370
               0
390
0
 62
               0
100
AcDbPoint
 10
-670.84454048608245
 20
211.80851410269605
 30
0.0
  0
ENDBLK
  5
E1
100
AcDbEntity
  8
notes
390
0
100
AcDbBlockEnd
  0
BLOCK
  5
E2
100
AcDbEntity
  8
notes
390
0
100
AcDbBlockBegin
  2
*D13
 70
               1
 10
0.0
 20
0.0
 30
0.0
  3
*D13
  1

  0
LINE
  5
E3
100
AcDbEntity
  8
0
370
              -2
390
0
  6
Continuous
 62
               0
100
AcDbLine
 10
-435.89148589730394
 20
-676.1384729466306
 30
0.0
 11
-435.89148589730394
 21
-724.19148589730389
 31
0.0
  0
LINE
  5
E4
100
AcDbEntity
  8
0
370
              -2
390
0
  6
Continuous
 62
               0
100
AcDbLine
 10
-505.89148589730394
 20
-676.1384729466306
 30
0.0
 11
-505.89148589730394
 21
-724.19148589730389
 31
0.0
  0
LINE
  5
E5
100
AcDbEntity
  8
0
370
              -2
390
0
  6
Continuous
 62
               0
100
AcDbLine
 10
-435.89148589730394
 20
-724.19148589730389
 30
0.0
 11
-505.89148589730394
 21
-724.19148589730389
 31
0.0
  0
CIRCLE
  5
E6
102
{ACAD_REACTORS
330
E7
102
}
100
AcDbEntity
  8
0
370
              -2
390
0
  6
Continuous
 62
               0
100
AcDbCircle
 10
-435.89148589730394
 20
-724.19148589730389
 30
0.0
 40
4.99969482421875
  0
HATCH
  5
E7
100
AcDbEntity
  8
0
370
              -2
390
0
  6
Continuous
 62
               0
100
AcDbHatch
 10
0.0
 20
0.0
 30
0.0
210
0.0
220
0.0
230
1.0
  2
SOLID
 70
               1
 71
               1
 91
        1
 92
        1
 93
        1
 72
               2
 10
-435.89148589730394
 20
-724.19148589730389
 40
4.99969482421875
 50
0.0
 51
360.0
 73
               0
 97
        1
330
E6
 75
               0
 76
               1
 98
        1
 10
0.0
 20
0.0
  0
CIRCLE
  5
E8
102
{ACAD_REACTORS
330
E9
102
}
100
AcDbEntity
  8
0
370
              -2
390
0
  6
Continuous
 62
               0
100
AcDbCircle
 10
-505.89148589730394
 20
-724.19148589730389
 30
0.0
 40
4.99969482421875
  0
HATCH
  5
E9
100
AcDbEntity
  8
0
370
              -2
390
0
  6
Continuous
 62
               0
100
AcDbHatch
 10
0.0
 20
0.0
 30
0.0
210
0.0
220
0.0
230
1.0
  2
SOLID
 70
               1
 71
               1
 91
        1
 92
        1
 93
        1
 72
               2
 10
-505.89148589730394
 20
-724.19148589730389
 40
4.99969482421875
 50
0.0
 51
360.0
 73
               0
 97
        1
330
E8
 75
               0
 76
               1
 98
        1
 10
0.0
 20
0.0
  0
MTEXT
  5
EA
100
AcDbEntity
  8
0
390
0
 62
               0
100
AcDbMText
 10
-486.76648589730394
 20
-690.31386870980396
 30
0.0
 40
24.432617187500004
 41
0.0
 71
               1
 72
               1
  1
70
  7
ＭＳ ゴシック
 73
               1
 44
0.7828267384257843
  0
POINT
  5
EB
100
AcDbEntity
  8
Defpoints
370
               0
390
0
 62
               0
100
AcDbPoint
 10
-505.89148589730394
 20
-651.1384729466306
 30
0.0
  0
POINT
  5
EC
100
AcDbEntity
  8
Defpoints
370
               0
390
0
 62
               0
100
AcDbPoint
 10
-435.89148589730394
 20
-651.1384729466306
 30
0.0
  0
POINT
  5
ED
100
AcDbEntity
  8
Defpoints
370
               0
390
0
 62
               0
100
AcDbPoint
 10
-435.89148589730394
 20
-724.19148589730389
 30
0.0
  0
ENDBLK
  5
EE
100
AcDbEntity
  8
notes
390
0
100
AcDbBlockEnd
  0
BLOCK
  5
EF
100
AcDbEntity
  8
notes
390
0
100
AcDbBlockBegin
  2
*D14
 70
               1
 10
0.0
 20
0.0
 30
0.0
  3
*D14
  1

  0
LINE
  5
F0
100
AcDbEntity
  8
0
370
              -2
390
0
  6
Continuous
 62
               0
100
AcDbLine
 10
-458.85496463651907
 20
733.42572376182352
 30
0.0
 11
-405.4248204956873
 21
793.2558953626592
 31
0.0
  0
CIRCLE
  5
F1
102
{ACAD_REACTORS
330
F2
102
}
100
AcDbEntity
  8
0
370
              -2
390
0
  6
Continuous
 62
               0
100
AcDbCircle
 10
-458.85496463651907
 20
733.42572376182352
 30
0.0
 40
4.99969482421875
  0
HATCH
  5
F2
100
AcDbEntity
  8
0
370
              -2
390
0
  6
Continuous
 62
               0
100
AcDbHatch
 10
0.0
 20
0.0
 30
0.0
210
0.0
220
0.0
230
1.0
  2
SOLID
 70
               1
 71
               1
 91
        1
 92
        1
 93
        1
 72
               2
 10
-458.85496463651907
 20
733.42572376182352
 40
4.99969482421875
 50
0.0
 51
360.0
 73
               0
 97
        1
330
F1
 75
               0
 76
               1
 98
        1
 10
0.0
 20
0.0
  0
LINE
  5
F3
100
AcDbEntity
  8
0
370
              -2
390
0
  6
Continuous
 62
               0
100
AcDbLine
 10
-405.4248204956873
 20
793.2558953626592
 30
0.0
 11
-281.9248204956873
 21
793.2558953626592
 31
0.0
  0
MTEXT
  5
F4
100
AcDbEntity
  8
0
390
0
 62
               0
100
AcDbMText
 10
-345.4248204956873
 20
827.13351255015914
 30
0.0
 40
24.432617187500004
 41
0.0
 71
               1
 72
               1
  1
φ36
  7
ＭＳ ゴシック
 73
               1
 44
0.7828267384257843
  0
POINT
  5
F5
100
AcDbEntity
  8
Defpoints
370
               0
390
0
 62
               0
100
AcDbPoint
 10
-482.83411633564697
 20
706.57427531317717
 30
0.0
  0
POINT
  5
F6
100
AcDbEntity
  8
Defpoints
370
               0
390
0
 62
               0
100
AcDbPoint
 10
-458.85496463651907
 20
733.42572376182352
 30
0.0
  0
ENDBLK
  5
F7
100
AcDbEntity
  8
notes
390
0
100
AcDbBlockEnd
  0
BLOCK
  5
F8
100
AcDbEntity
  8
notes
390
0
100
AcDbBlockBegin
  2
*D15
 70
               1
 10
0.0
 20
0.0
 30
0.0
  3
*D15
  1

  0
LINE
  5
F9
100
AcDbEntity
  8
0
370
              -2
390
0
  6
Continuous
 62
               0
100
AcDbLine
 10
673.5135212127384
 20
-448.13847294663054
 30
0.0
 11
752.01298814583856
 21
-448.13847294663054
 31
0.0
  0
LINE
  5
FA
100
AcDbEntity
  8
0
370
              -2
390
0
  6
Continuous
 62
               0
100
AcDbLine
 10
676.32939660833836
 20
-456.13847294663054
 30
0.0
 11
752.01298814583856
 21
-456.13847294663054
 31
0.0
  0
LINE
  5
FB
100
AcDbEntity
  8
0
370
              -2
390
0
  6
Continuous
 62
               0
100
AcDbLine
 10
752.01298814583856
 20
-448.13847294663054
 30
0.0
 11
752.01298814583856
 21
-427.2634729466306
 31
0.0
  0
LINE
  5
FC
100
AcDbEntity
  8
0
370
              -2
390
0
  6
Continuous
 62
               0
100
AcDbLine
 10
752.01298814583856
 20
-448.13847294663054
 30
0.0
 11
752.01298814583856
 21
-456.13847294663054
 31
0.0
  0
CIRCLE
  5
FD
102
{ACAD_REACTORS
330
FE
102
}
100
AcDbEntity
  8
0
370
              -2
390
0
  6
Continuous
 62
               0
100
AcDbCircle
 10
752.01298814583856
 20
-448.13847294663054
 30
0.0
 40
4.99969482421875
  0
HATCH
  5
FE
100
AcDbEntity
  8
0
370
              -2
390
0
  6
Continuous
 62
               0
100
AcDbHatch
 10
0.0
 20
0.0
 30
0.0
210
0.0
220
0.0
230
1.0
  2
SOLID
 70
               1
 71
               1
 91
        1
 92
        1
 93
        1
 72
               2
 10
752.01298814583856
 20
-448.13847294663054
 40
4.99969482421875
 50
0.0
 51
360.0
 73
               0
 97
        1
330
FD
 75
               0
 76
               1
 98
        1
 10
0.0
 20
0.0
  0
CIRCLE
  5
FF
102
{ACAD_REACTORS
330
100
102
}
100
AcDbEntity
  8
0
370
              -2
390
0
  6
Continuous
 62
               0
100
AcDbCircle
 10
752.01298814583856
 20
-456.13847294663054
 30
0.0
 40
4.99969482421875
  0
HATCH
  5
100
100
AcDbEntity
  8
0
370
              -2
390
0
  6
Continuous
 62
               0
100
AcDbHatch
 10
0.0
 20
0.0
 30
0.0
210
0.0
220
0.0
230
1.0
  2
SOLID
 70
               1
 71
               1
 91
        1
 92
        1
 93
        1
 72
               2
 10
752.01298814583856
 20
-456.13847294663054
 40
4.99969482421875
 50
0.0
 51
360.0
 73
               0
 97
        1
330
FF
 75
               0
 76
               1
 98
        1
 10
0.0
 20
0.0
  0
MTEXT
  5
101
100
AcDbEntity
  8
0
390
0
 62
               0
100
AcDbMText
 10
718.13537095833851
 20
-443.13847294663054
 30
0.0
 40
24.432617187500004
 41
0.0
 71
               1
 72
               1
  1
8
  7
ＭＳ ゴシック
 11
0.0
 21
1.0
 31
0.0
 73
               1
 44
0.7828267384257843
  0
POINT
  5
102
100
AcDbEntity
  8
Defpoints
370
               0
390
0
 62
               0
100
AcDbPoint
 10
651.32939660833836
 20
-456.13847294663054
 30
0.0
  0
POINT
  5
103
100
AcDbEntity
  8
Defpoints
370
               0
390
0
 62
               0
100
AcDbPoint
 10
648.5135212127384
 20
-448.13847294663054
 30
0.0
  0
POINT
  5
104
100
AcDbEntity
  8
Defpoints
370
               0
390
0
 62
               0
100
AcDbPoint
 10
752.01298814583856
 20
-448.13847294663054
 30
0.0
  0
ENDBLK
  5
105
100
AcDbEntity
  8
notes
390
0
100
AcDbBlockEnd
  0
ENDSEC
  0
SECTION
  2
ENTITIES
  0
MTEXT
  5
106
100
AcDbEntity
  8
template
390
0
 62
               7
100
AcDbMText
 10
-967.99999999975921
 20
-1147.4176292337004
 30
0.0
 40
16.288411458333332
 41
0.0
 71
               1
 72
               1
  1
品名
  7
ＭＳ ゴシック
 73
               1
 44
0.7828267384257843
  0
MTEXT
  5
107
100
AcDbEntity
  8
template
390
0
 62
               7
100
AcDbMText
 10
-967.99999999975921
 20
-1232.4176292337004
 30
0.0
 40
16.288411458333332
 41
0.0
 71
               1
 72
               1
  1
仕様
  7
ＭＳ ゴシック
 73
               1
 44
0.7828267384257843
  0
MTEXT
  5
108
100
AcDbEntity
  8
template
390
0
 62
               7
100
AcDbMText
 10
-914.99999999975921
 20
-1176.0000901712006
 30
0.0
 40
24.432617187500004
 41
0.0
 71
               1
 72
               1
  1
洗面器 -ALAPE-
  7
ＭＳ ゴシック
 73
               1
 44
0.7828267384257843
  0
LINE
  5
109
100
AcDbEntity
  8
template
370
               5
390
0
  6
Continuous
 62
               7
100
AcDbLine
 10
974.99999999975876
 20
-1224.0027073587005
 30
0.0
 11
-975.00000000024124
 21
-1224.0027073587005
 31
0.0
  0
LWPOLYLINE
  5
10A
100
AcDbEntity
  8
template
370
               5
390
0
  6
Continuous
 62
               7
100
AcDbPolyline
 90
        5
 70
             128
 10
975.00000000024124
 20
1405.9972926412995
 10
-974.99999999975921
 20
1405.9972926412995
 10
-974.99999999975921
 20
-1394.0027073587005
 10
975.00000000024124
 20
-1394.0027073587005
 10
975.00000000024124
 20
1405.9972926412995
  0
LINE
  5
10B
100
AcDbEntity
  8
template
370
               5
390
0
  6
Continuous
 62
               7
100
AcDbLine
 10
974.99999999975876
 20
-1139.0027073587005
 30
0.0
 11
-975.00000000024124
 21
-1139.0027073587005
 31
0.0
  0
LINE
  5
10C
100
AcDbEntity
  8
template
370
               5
390
0
  6
Continuous
 62
               7
100
AcDbLine
 10
975.00000000024124
 20
-1309.0027073587005
 30
0.0
 11
222.00000000024124
 21
-1309.0027073587005
 31
0.0
  0
MTEXT
  5
10D
100
AcDbEntity
  8
template
390
0
 62
               7
100
AcDbMText
 10
-974.99999999955594
 20
-1405.8565294155574
 30
0.0
 40
21.717881944444446
 41
0.0
 71
               1
 72
               1
  1
120501SH
  7
ＭＳ ゴシック
 73
               1
 44
0.7828267384257843
  0
MTEXT
  5
10E
100
AcDbEntity
  8
template
390
0
 62
               7
100
AcDbMText
 10
251.87140625250089
 20
-1338.9131018320081
 30
0.0
 40
24.432617187500004
 41
0.0
 71
               1
 72
               1
  1
大洋金物株式会社 ティーフォルム事業部
  7
ＭＳ ゴシック
 73
               1
 44
0.7828267384257843
  0
INSERT
  5
10F
100
AcDbEntity
  8
template
390
0
 62
               7
100
AcDbBlockReference
  2
グループ
 10
49.000000000000014
 20
72.455000000040911
 30
0.0
  0
MTEXT
  5
110
100
AcDbEntity
  8
template
390
0
 62
               7
100
AcDbMText
 10
784.00000000049999
 20
-1261.0000901712006
 30
0.0
 40
24.432617187500004
 41
0.0
 71
               1
 72
               1
  1
1:10
  7
ＭＳ ゴシック
 73
               1
 44
0.7828267384257843
  0
MTEXT
  5
111
100
AcDbEntity
  8
template
390
0
 62
               7
100
AcDbMText
 10
731.00000000049999
 20
-1232.4176292337004
 30
0.0
 40
16.288411458333332
 41
0.0
 71
               1
 72
               1
  1
縮尺
  7
ＭＳ ゴシック
 73
               1
 44
0.7828267384257843
  0
LINE
  5
112
100
AcDbEntity
  8
template
370
               5
390
0
  6
Continuous
 62
               7
100
AcDbLine
 10
724.00000000049999
 20
-1309.0027073587005
 30
0.0
 11
724.00000000049999
 21
-1224.0027073587005
 31
0.0
  0
MTEXT
  5
113
100
AcDbEntity
  8
template
390
0
 62
               7
100
AcDbMText
 10
480.00000000049999
 20
-1232.4176292337004
 30
0.0
 40
16.288411458333332
 41
0.0
 71
               1
 72
               1
  1
容量
  7
ＭＳ ゴシック
 73
               1
 44
0.7828267384257843
  0
LINE
  5
114
100
AcDbEntity
  8
template
370
               5
390
0
  6
Continuous
 62
               7
100
AcDbLine
 10
473.00000000049999
 20
-1309.0027073587005
 30
0.0
 11
473.00000000049999
 21
-1224.0027073587005
 31
0.0
  0
MTEXT
  5
115
100
AcDbEntity
  8
template
390
0
 62
               7
100
AcDbMText
 10
229.00000000049999
 20
-1147.4176292337004
 30
0.0
 40
16.288411458333332
 41
0.0
 71
               1
 72
               1
  1
品番
  7
ＭＳ ゴシック
 73
               1
 44
0.7828267384257843
  0
MTEXT
  5
116
100
AcDbEntity
  8
template
390
0
 62
               7
100
AcDbMText
 10
229.00000000049999
 20
-1232.4176292337004
 30
0.0
 40
16.288411458333332
 41
0.0
 71
               1
 72
               1
  1
重量
  7
ＭＳ ゴシック
 73
               1
 44
0.7828267384257843
  0
MTEXT
  5
117
100
AcDbEntity
  8
template
390
0
 62
               7
100
AcDbMText
 10
282.00000000049999
 20
-1176.0000901712006
 30
0.0
 40
24.432617187500004
 41
0.0
 71
               1
 72
               1
  1
FAN70-0301
  7
ＭＳ ゴシック
 73
               1
 44
0.7828267384257843
  0
LINE
  5
118
100
AcDbEntity
  8
template
370
               5
390
0
  6
Continuous
 62
               7
100
AcDbLine
 10
222.00000000049999
 20
-1394.0027073587005
 30
0.0
 11
222.00000000049999
 21
-1139.0027073587005
 31
0.0
  0
MTEXT
  5
119
100
AcDbEntity
  8
template
390
0
 62
               7
100
AcDbMText
 10
-914.99999999975921
 20
-1261.0000901712003
 30
0.0
 40
24.432617187500004
 41
0.0
 71
               1
 72
               1
  1
オーバーカウンター/オーバーフロー付き/型紙付属/\P鋼板ホーロー/ホワイト
  7
ＭＳ ゴシック
 73
               1
 44
1.1307497332816883
  0
MTEXT
  5
11A
100
AcDbEntity
  8
template
390
0
 62
               7
100
AcDbMText
 10
296.25
 20
-1261.0000901712006
 30
0.0
 40
24.432617187500004
 41
0.0
 71
               1
 72
               1
  1
3.1kg
  7
ＭＳ ゴシック
 73
               1
 44
0.7828267384257843
  0
DIMENSION
  5
11B
100
AcDbEntity
  8
notes
370
               5
390
0
  6
Continuous
 62
               7
100
AcDbDimension
  2
*D2
 10
-145.78451443638272
 20
-448.13847294663054
 30
0.0
 11
-145.78451443638272
 21
-548.6384729466306
 31
0.0
 71
               5
 72
               1
 41
1.0
 42
0.0
  3
tfrom線あり
100
AcDbAlignedDimension
 13
-430.99454019398291
 23
-649.1384729466306
 33
0.0
 14
-249.28398136948272
 24
-448.13847294663054
 34
0.0
 50
90.0
100
AcDbRotatedDimension
1001
ACAD
1000
DSTYLE
1002
{
1070
             271
1070
               2
1070
             279
1070
               2
1070
             340
1005
32
1070
             147
1040
5.0
1002
}
  0
DIMENSION
  5
11C
100
AcDbEntity
  8
notes
370
               5
390
0
  6
Continuous
 62
               7
100
AcDbDimension
  2
*D3
 10
377.95296209613747
 20
-711.22847294663052
 30
0.0
 11
289.95296209613758
 21
-706.22847294663052
 31
0.0
 70
             128
 71
               5
 72
               1
 41
1.0
 42
0.0
  3
tfrom線あり
100
AcDbAlignedDimension
 13
201.95296209613764
 23
-456.13847294663054
 33
0.0
 14
377.95296209613747
 24
-611.22847294663052
 34
0.0
100
AcDbRotatedDimension
1001
ACAD
1000
DSTYLE
1002
{
1070
             279
1070
               2
1070
             340
1005
32
1070
             147
1040
5.0
1002
}
  0
DIMENSION
  5
11D
100
AcDbEntity
  8
notes
370
               5
390
0
  6
Continuous
 62
               7
100
AcDbDimension
  2
*D4
 10
201.89293604643763
 20
-348.13847294663043
 30
0.0
 11
226.89293604643757
 21
-348.13847294663043
 31
0.0
 71
               5
 72
               1
 41
1.0
 42
0.0
  3
tfrom線あり
100
AcDbAlignedDimension
 13
251.89293604643746
 23
-448.13847294663054
 33
0.0
 14
201.89293604643763
 24
-451.57738952413041
 34
0.0
100
AcDbRotatedDimension
1001
ACAD
1000
DSTYLE
1002
{
1070
             279
1070
               2
1070
             340
1005
32
1070
             147
1040
5.0
1002
}
  0
DIMENSION
  5
11E
100
AcDbEntity
  8
notes
370
               5
390
0
  6
Continuous
 62
               7
100
AcDbDimension
  2
*D5
 10
382.80851410269605
 20
-448.13847294663054
 30
0.0
 11
387.80851410269605
 21
-436.19148589730401
 31
0.0
 70
             128
 71
               5
 72
               1
 41
1.0
 42
0.0
  3
tfrom線あり
100
AcDbAlignedDimension
 13
377.95296209613747
 23
-602.1384729466306
 33
0.0
 14
377.95296209613747
 24
-448.13847294663054
 34
0.0
 50
90.0
100
AcDbRotatedDimension
1001
ACAD
1000
DSTYLE
1002
{
1070
             279
1070
               2
1070
             340
1005
32
1070
               3
1000
<>(深さ)
1070
             174
1070
               0
1070
             147
1040
5.0
1002
}
  0
DIMENSION
  5
11F
100
AcDbEntity
  8
notes
370
               5
390
0
  6
Continuous
 62
               7
100
AcDbDimension
  2
*D6
 10
280.16827895022902
 20
691.7246570962086
 30
0.0
 11
677.29845508252595
 21
354.59448096391282
 31
0.0
 70
               3
 71
               5
 72
               1
 41
1.0
 42
0.0
  3
tfrom線あり
100
AcDbDiametricDimension
 15
573.61759314264668
 25
398.27534290379197
 35
0.0
 40
61.77406737152392
1001
ACAD
1000
DSTYLE
1002
{
1070
             289
1070
               0
1070
             342
1005
45
1070
             340
1005
32
1070
              75
1070
               1
1070
              76
1070
               1
1070
               3
1000

1070
             174
1070
               0
1070
             147
1040
5.0
1002
}
  0
MTEXT
  5
120
100
AcDbEntity
  8
notes
390
0
 62
               7
100
AcDbMText
 10
51.569840095560423
 20
195.18075137238282
 30
0.0
 40
24.432617187500004
 41
780.0
 71
               1
 72
               1
  1
※陶器製品には寸法公差があります。\P  洗面器の収め方をご確認の上、必ず現物を合わせて\P  カウンターの切込を行ってください。
  7
ＭＳ ゴシック
 73
               1
 44
1.0437689845677123
  0
MTEXT
  5
121
100
AcDbEntity
  8
notes
390
0
 62
               7
100
AcDbMText
 10
283.58817084113508
 20
951.22093967177875
 30
0.0
 40
24.432617187500004
 41
0.0
 71
               1
 72
               1
  1
カウンター切込寸法
  7
ＭＳ ゴシック
 73
               1
 44
0.7828267384257843
  0
DIMENSION
  5
122
100
AcDbEntity
  8
notes
370
               5
390
0
  6
Continuous
 62
               7
100
AcDbDimension
  2
*D7
 10
-245.84454048608279
 20
870.00000000000023
 30
0.0
 11
-470.84454048608268
 21
870.00000000000023
 31
0.0
 71
               5
 72
               1
 41
1.0
 42
0.0
  3
tfrom線あり
100
AcDbAlignedDimension
 13
-695.84454048608268
 23
570.00000000000034
 33
0.0
 14
-245.84454048608279
 24
570.00000000000034
 34
0.0
100
AcDbRotatedDimension
1001
ACAD
1000
DSTYLE
1002
{
1070
             271
1070
               2
1070
             279
1070
               2
1070
             340
1005
32
1070
             147
1040
5.0
1002
}
  0
DIMENSION
  5
123
100
AcDbEntity
  8
notes
370
               5
390
0
  6
Continuous
 62
               7
100
AcDbDimension
  2
*D8
 10
-795.84454048608268
 20
670.00000000000023
 30
0.0
 11
-795.84454048608268
 21
507.50038575760021
 31
0.0
 71
               5
 72
               1
 41
1.0
 42
0.0
  3
tfrom線あり
100
AcDbAlignedDimension
 13
-573.92367807213714
 23
345.0007715152002
 33
0.0
 14
-657.92740982477972
 24
670.00000000000023
 34
0.0
 50
90.0
100
AcDbRotatedDimension
1001
ACAD
1000
DSTYLE
1002
{
1070
             271
1070
               0
1070
             279
1070
               2
1070
             340
1005
32
1070
             147
1040
5.0
1002
}
  0
DIMENSION
  5
124
100
AcDbEntity
  8
notes
370
               5
390
0
  6
Continuous
 62
               7
100
AcDbDimension
  2
*D9
 10
-795.84454048608268
 20
345.00001365200501
 30
0.0
 11
-795.84454048608268
 21
332.46999380115261
 31
0.0
 71
               5
 72
               1
 41
1.0
 42
0.0
  3
tfrom線あり
100
AcDbAlignedDimension
 13
-470.84454048608291
 23
319.93997395030027
 33
0.0
 14
-573.92220761529961
 24
345.00001365200501
 34
0.0
 50
90.0
100
AcDbRotatedDimension
1001
ACAD
1000
DSTYLE
1002
{
1070
             271
1070
               0
1070
             279
1070
               2
1070
             340
1005
32
1070
             147
1040
5.0
1002
}
  0
DIMENSION
  5
125
100
AcDbEntity
  8
notes
370
               5
390
0
  6
Continuous
 62
               7
100
AcDbDimension
  2
*D10
 10
-145.84454048608279
 20
320.00000000000034
 30
0.0
 11
-145.84454048608279
 21
545.00000000000023
 31
0.0
 71
               5
 72
               1
 41
1.0
 42
0.0
  3
tfrom線あり
100
AcDbAlignedDimension
 13
-470.84454048608291
 23
770.00000000000023
 33
0.0
 14
-470.84454048608291
 24
320.00000000000034
 34
0.0
 50
90.0
100
AcDbRotatedDimension
1001
ACAD
1000
DSTYLE
1002
{
1070
             279
1070
               2
1070
             340
1005
32
1070
             147
1040
5.0
1002
}
  0
DIMENSION
  5
126
100
AcDbEntity
  8
notes
370
               5
390
0
  6
Continuous
 62
               7
100
AcDbDimension
  2
*D11
 10
-795.84454048608291
 20
770.00000000000023
 30
0.0
 11
-795.84454048608291
 21
720.00000000000023
 31
0.0
 71
               5
 72
               1
 41
1.0
 42
0.0
  3
tfrom線あり
100
AcDbAlignedDimension
 13
-657.92740982477972
 23
670.00000000000023
 33
0.0
 14
-470.84454048608291
 24
770.00000000000023
 34
0.0
 50
90.0
100
AcDbRotatedDimension
1001
ACAD
1000
DSTYLE
1002
{
1070
             279
1070
               2
1070
             340
1005
32
1070
             147
1040
5.0
1002
}
  0
DIMENSION
  5
127
100
AcDbEntity
  8
notes
370
               5
390
0
  6
Continuous
 62
               7
100
AcDbDimension
  2
*D12
 10
-670.84454048608245
 20
211.80851410269605
 30
0.0
 11
-470.84454048608268
 21
211.80851410269605
 31
0.0
 71
               5
 72
               1
 41
1.0
 42
0.0
  3
tfrom線あり
100
AcDbAlignedDimension
 13
-270.84454048608279
 23
438.62816422769379
 33
0.0
 14
-670.84454048608245
 24
438.62816422769379
 34
0.0
100
AcDbRotatedDimension
1001
ACAD
1000
DSTYLE
1002
{
1070
             279
1070
               2
1070
             340
1005
32
1070
             147
1040
5.0
1002
}
  0
DIMENSION
  5
128
100
AcDbEntity
  8
notes
370
               5
390
0
  6
Continuous
 62
               7
100
AcDbDimension
  2
*D13
 10
-435.89148589730394
 20
-724.19148589730389
 30
0.0
 11
-470.89148589730394
 21
-724.19148589730389
 31
0.0
 71
               5
 72
               1
 41
1.0
 42
0.0
  3
tfrom線あり
100
AcDbAlignedDimension
 13
-505.89148589730394
 23
-651.1384729466306
 33
0.0
 14
-435.89148589730394
 24
-651.1384729466306
 34
0.0
100
AcDbRotatedDimension
1001
ACAD
1000
DSTYLE
1002
{
1070
             279
1070
               2
1070
             340
1005
32
1070
             147
1040
5.0
1002
}
  0
DIMENSION
  5
129
100
AcDbEntity
  8
notes
370
               5
390
0
  6
Continuous
 62
               7
100
AcDbDimension
  2
*D14
 10
-482.83411633564697
 20
706.57427531317717
 30
0.0
 11
-345.4248204956873
 21
793.2558953626592
 31
0.0
 70
               3
 71
               5
 72
               1
 41
1.0
 42
0.0
  3
tfrom線あり
100
AcDbDiametricDimension
 15
-458.85496463651907
 25
733.42572376182352
 35
0.0
 40
80.214897224240644
1001
ACAD
1000
DSTYLE
1002
{
1070
             289
1070
               0
1070
             342
1005
45
1070
             340
1005
32
1070
              75
1070
               1
1070
              76
1070
               1
1070
               3
1000

1070
             174
1070
               0
1070
             147
1040
5.0
1002
}
  0
DIMENSION
  5
12A
100
AcDbEntity
  8
notes
370
               5
390
0
  6
Continuous
 62
               7
100
AcDbDimension
  2
*D15
 10
752.01298814583856
 20
-448.13847294663054
 30
0.0
 11
757.01298814583856
 21
-443.13847294663054
 31
0.0
 70
             128
 71
               5
 72
               1
 41
1.0
 42
0.0
  3
tfrom線あり
100
AcDbAlignedDimension
 13
651.32939660833836
 23
-456.13847294663054
 33
0.0
 14
648.5135212127384
 24
-448.13847294663054
 34
0.0
 50
90.0
100
AcDbRotatedDimension
1001
ACAD
1000
DSTYLE
1002
{
1070
             279
1070
               2
1070
             340
1005
32
1070
             174
1070
               0
1070
             147
1040
5.0
1002
}
  0
ARC
  5
12B
100
AcDbEntity
  8
FAN70-0301
370
              15
390
0
  6
Continuous
 62
               7
100
AcDbCircle
 10
202.57652758383767
 20
-455.38847294663054
 30
0.0
 40
0.7500000000000122
100
AcDbArc
 50
178.99999999998954
 51
270.0
  0
ARC
  5
12C
100
AcDbEntity
  8
FAN70-0301
370
              15
390
0
  6
Continuous
 62
               7
100
AcDbCircle
 10
651.32939660833836
 20
-455.38847294663054
 30
0.0
 40
0.75
100
AcDbArc
 50
270.0
 51
1.0000000004968683
  0
LINE
  5
12D
100
AcDbEntity
  8
FAN70-0301
370
              15
390
0
  6
Continuous
 62
               7
100
AcDbLine
 10
652.07928237973852
 20
-455.37538364183041
 30
0.0
 11
652.01298814583856
 21
-451.57738952413041
 31
0.0
  0
LINE
  5
12E
100
AcDbEntity
  8
FAN70-0301
370
              15
390
0
  6
Continuous
 62
               7
100
AcDbLine
 10
201.89293604643763
 20
-451.57738952413041
 30
0.0
 11
201.82664181253767
 21
-455.37538364183041
 31
0.0
  0
ARC
  5
12F
100
AcDbEntity
  8
FAN70-0301
370
              15
390
0
  6
Continuous
 62
               7
100
AcDbCircle
 10
205.39240297943763
 20
-451.63847294663054
 30
0.0
 40
3.5
100
AcDbArc
 50
90.0
 51
178.99999999979724
  0
ARC
  5
130
100
AcDbEntity
  8
FAN70-0301
370
              15
390
0
  6
Continuous
 62
               7
100
AcDbCircle
 10
648.5135212127384
 20
-451.63847294663054
 30
0.0
 40
3.4999999999999107
100
AcDbArc
 50
1.0000000002996188
 51
90.0
  0
LWPOLYLINE
  5
131
100
AcDbEntity
  8
FAN70-0301
370
              15
390
0
  6
Continuous
 62
               7
100
AcDbPolyline
 90
        8
 70
             128
 10
309.55618838783749
 20
-593.39163940403068
 10
315.78469017973754
 20
-595.9047625836306
 10
318.72806848613749
 20
-596.95935759943063
 10
321.7076791199375
 20
-597.95229611183049
 10
324.72106258163745
 20
-598.88181148223066
 10
328.2092224179375
 20
-599.86593343963068
 10
332.67589204673749
 20
-600.98549344963067
 10
338.10296209613745
 20
-602.1384729466306
  0
LWPOLYLINE
  5
132
100
AcDbEntity
  8
FAN70-0301
370
              15
390
0
  6
Continuous
 62
               7
100
AcDbPolyline
 90
       28
 70
             128
 10
417.80296209613761
 20
-602.1384729466306
 10
424.13844353193775
 20
-601.15297504583054
 10
429.54976718353782
 20
-600.19207457983066
 10
434.0304567810378
 20
-599.31259417233059
 10
437.67185551893795
 20
-598.54139073183069
 10
441.156999782838
 20
-597.75542578603063
 10
454.63719013183811
 20
-594.26598588033062
 10
466.84913878313824
 20
-590.46987684863052
 10
479.85728707973851
 20
-585.73286117943053
 10
492.30760161793847
 20
-580.49115728333049
 10
505.12903057793852
 20
-574.32383230503046
 10
517.79696817663853
 20
-567.40500944973064
 10
530.21571575223857
 20
-559.75452315893062
 10
542.32355544403856
 20
-551.38573584323058
 10
554.05781769993848
 20
-542.31613632913059
 10
565.24394833183851
 20
-532.67826479653058
 10
575.54481715723841
 20
-522.82034806503066
 10
584.96286450493858
 20
-512.85282074053066
 10
593.52786538913847
 20
-502.86301350433058
 10
600.7869621560385
 20
-493.5835206408305
 10
607.40304197333853
 20
-484.3605723612306
 10
613.41362587123854
 20
-475.23052322413054
 10
617.04510106573844
 20
-469.30741510943056
 10
620.36243089693858
 20
-463.58835457093045
 10
621.34417815563847
 20
-461.83377128153046
 10
622.51375846863857
 20
-459.70380689863049
 10
624.00726252283857
 20
-456.91798316183048
 10
624.41253969233844
 20
-456.13847294663054
  0
LWPOLYLINE
  5
133
100
AcDbEntity
  8
FAN70-0301
370
              15
390
0
  6
Continuous
 62
               7
100
AcDbPolyline
 90
        9
 70
             128
 10
309.5400274380375
 20
-593.41537473483049
 10
307.58638560253752
 20
-592.40170704673051
 10
305.80211111063755
 20
-591.11306552533051
 10
304.22561938113751
 20
-589.57719461473062
 10
302.89085227133745
 20
-587.82716160623067
 10
301.82654730893745
 20
-585.90064469963067
 10
301.05561897323747
 20
-583.83912179223057
 10
300.59466534653751
 20
-581.68697745943064
 10
300.45296214283752
 20
-579.62885933063058
  0
ARC
  5
134
100
AcDbEntity
  8
FAN70-0301
370
              15
390
0
  6
Continuous
 62
               7
100
AcDbCircle
 10
421.57109808383768
 20
-616.65746572083071
 30
0.0
 40
15.000000000000115
100
AcDbArc
 50
104.55228054520025
 51
124.89922840240014
  0
ARC
  5
135
100
AcDbEntity
  8
FAN70-0301
370
              15
390
0
  6
Continuous
 62
               7
100
AcDbCircle
 10
334.33482610843754
 20
-616.65746572083071
 30
0.0
 40
15.000000000000121
100
AcDbArc
 50
55.100771597600598
 51
75.438438184600258
  0
LINE
  5
136
100
AcDbEntity
  8
FAN70-0301
370
              15
390
0
  6
Continuous
 62
               7
100
AcDbLine
 10
342.91684853553755
 20
-604.35507200823054
 30
0.0
 11
350.09062468603753
 21
-609.82002494253061
 31
0.0
  0
LINE
  5
137
100
AcDbEntity
  8
FAN70-0301
370
              15
390
0
  6
Continuous
 62
               7
100
AcDbLine
 10
405.81529950623752
 20
-609.82002494253061
 30
0.0
 11
412.98907565673755
 21
-604.35507200823054
 31
0.0
  0
ARC
  5
138
100
AcDbEntity
  8
FAN70-0301
370
              15
390
0
  6
Continuous
 62
               7
100
AcDbCircle
 10
401.95296209613747
 20
-605.22847294663052
 30
0.0
 40
6.0
100
AcDbArc
 50
270.0
 51
310.06999042470034
  0
ARC
  5
139
100
AcDbEntity
  8
FAN70-0301
370
              15
390
0
  6
Continuous
 62
               7
100
AcDbCircle
 10
353.95296209613747
 20
-605.22847294663052
 30
0.0
 40
5.9999999999999867
100
AcDbArc
 50
229.93000957529966
 51
270.0
  0
ARC
  5
13A
100
AcDbEntity
  8
FAN70-0301
370
              15
390
0
  6
Continuous
 62
               7
100
AcDbCircle
 10
298.88082569583747
 20
-462.18124329563051
 30
0.0
 40
1.5799791214000865
100
AcDbArc
 50
306.09912730529578
 51
354.28882912739573
  0
ARC
  5
13B
100
AcDbEntity
  8
FAN70-0301
370
              15
390
0
  6
Continuous
 62
               7
100
AcDbCircle
 10
298.88082569583747
 20
-504.09570259763058
 30
0.0
 40
1.5799791214000649
100
AcDbArc
 50
5.7111708726043355
 51
53.900872694704248
  0
ARC
  5
13C
100
AcDbEntity
  8
FAN70-0301
370
              15
390
0
  6
Continuous
 62
               7
100
AcDbCircle
 10
302.42259925433751
 20
-467.69858760483061
 30
0.0
 40
4.980000000000155
100
AcDbArc
 50
121.61925432769949
 51
179.30835344340022
  0
ARC
  5
13D
100
AcDbEntity
  8
FAN70-0301
370
              15
390
0
  6
Continuous
 62
               7
100
AcDbCircle
 10
302.42259925433751
 20
-498.57835828853052
 30
0.0
 40
4.9799999999999729
100
AcDbArc
 50
180.69164655669917
 51
238.38074567229913
  0
LINE
  5
13E
100
AcDbEntity
  8
FAN70-0301
370
              15
390
0
  6
Continuous
 62
               7
100
AcDbLine
 10
426.9529620961377
 20
-456.13847294663054
 30
0.0
 11
202.57652758383767
 21
-456.13847294663054
 31
0.0
  0
LINE
  5
13F
100
AcDbEntity
  8
FAN70-0301
370
              15
390
0
  6
Continuous
 62
               7
100
AcDbLine
 10
651.32939660833836
 20
-456.13847294663054
 30
0.0
 11
426.9529620961377
 21
-456.13847294663054
 31
0.0
  0
LINE
  5
140
100
AcDbEntity
  8
FAN70-0301
370
              15
390
0
  6
Continuous
 62
               7
100
AcDbLine
 10
426.9529620961377
 20
-448.13847294663054
 30
0.0
 11
648.5135212127384
 21
-448.13847294663054
 31
0.0
  0
LINE
  5
141
100
AcDbEntity
  8
FAN70-0301
370
              15
390
0
  6
Continuous
 62
               7
100
AcDbLine
 10
205.39240297943763
 20
-448.13847294663054
 30
0.0
 11
426.9529620961377
 21
-448.13847294663054
 31
0.0
  0
LINE
  5
142
100
AcDbEntity
  8
FAN70-0301
370
              15
390
0
  6
Continuous
 62
               7
100
AcDbLine
 10
417.80214853733759
 20
-602.13868411513067
 30
0.0
 11
338.10296209613745
 21
-602.1384729466306
 31
0.0
  0
LINE
  5
143
100
AcDbEntity
  8
FAN70-0301
370
              15
390
0
  6
Continuous
 62
               7
100
AcDbLine
 10
300.45296209613747
 20
-456.13847294663054
 30
0.0
 11
300.45296209613747
 21
-579.53250056473053
 31
0.0
  0
LINE
  5
144
100
AcDbEntity
  8
FAN70-0301
370
              15
390
0
  6
Continuous
 62
               7
100
AcDbLine
 10
412.98907565673755
 20
-604.35507200823054
 30
0.0
 11
342.91684853553755
 21
-604.35507200823054
 31
0.0
  0
LINE
  5
145
100
AcDbEntity
  8
FAN70-0301
370
              15
390
0
  6
Continuous
 62
               7
100
AcDbLine
 10
405.81529950623752
 20
-609.82002494253061
 30
0.0
 11
350.09062468603753
 21
-609.82002494253061
 31
0.0
  0
LINE
  5
146
100
AcDbEntity
  8
FAN70-0301
370
              15
390
0
  6
Continuous
 62
               7
100
AcDbLine
 10
401.95296209613747
 20
-611.22847294663052
 30
0.0
 11
353.95296209613747
 21
-611.22847294663052
 31
0.0
  0
LINE
  5
147
100
AcDbEntity
  8
FAN70-0301
370
              15
390
0
  6
Continuous
 62
               7
100
AcDbLine
 10
299.8117241943375
 20
-463.45786462153063
 30
0.0
 11
299.8117241943375
 21
-502.81908127173045
 31
0.0
  0
LINE
  5
148
100
AcDbEntity
  8
FAN70-0301
370
              15
390
0
  6
Continuous
 62
               7
100
AcDbLine
 10
297.44296209613748
 20
-467.63847294663054
 30
0.0
 11
297.44296209613748
 21
-498.63847294663054
 31
0.0
  0
LINE
  5
149
100
AcDbEntity
  8
FAN70-0301
370
              15
390
0
  6
Continuous
 62
               7
100
AcDbLine
 10
290.55771481043752
 20
-468.63847294663054
 30
0.0
 11
291.93442396183747
 21
-466.63847294663054
 31
0.0
  0
LINE
  5
14A
100
AcDbEntity
  8
FAN70-0301
370
              15
390
0
  6
Continuous
 62
               7
100
AcDbLine
 10
272.66049584243746
 20
-468.63847294663054
 30
0.0
 11
290.55771481043752
 21
-468.63847294663054
 31
0.0
  0
LINE
  5
14B
100
AcDbEntity
  8
FAN70-0301
370
              15
390
0
  6
Continuous
 62
               7
100
AcDbLine
 10
271.28378669103751
 20
-466.63847294663054
 30
0.0
 11
272.66049584243746
 21
-468.63847294663054
 31
0.0
  0
LINE
  5
14C
100
AcDbEntity
  8
FAN70-0301
370
              15
390
0
  6
Continuous
 62
               7
100
AcDbLine
 10
271.28378669103751
 20
-456.13847294663054
 30
0.0
 11
271.28378669103751
 21
-466.63847294663054
 31
0.0
  0
LINE
  5
14D
100
AcDbEntity
  8
FAN70-0301
370
              15
390
0
  6
Continuous
 62
               7
100
AcDbLine
 10
291.93442396183747
 20
-456.13847294663054
 30
0.0
 11
291.93442396183747
 21
-466.63847294663054
 31
0.0
  0
LINE
  5
14E
100
AcDbEntity
  8
FAN70-0301
370
              15
390
0
  6
Continuous
 62
               7
100
AcDbLine
 10
278.85568702363747
 20
-464.63847294663054
 30
0.0
 11
278.85568702363747
 21
-458.63847294663054
 31
0.0
  0
LINE
  5
14F
100
AcDbEntity
  8
FAN70-0301
370
              15
390
0
  6
Continuous
 62
               7
100
AcDbLine
 10
284.3625236292375
 20
-464.63847294663054
 30
0.0
 11
278.85568702363747
 21
-464.63847294663054
 31
0.0
  0
LINE
  5
150
100
AcDbEntity
  8
FAN70-0301
370
              15
390
0
  6
Continuous
 62
               7
100
AcDbLine
 10
284.3625236292375
 20
-458.63847294663054
 30
0.0
 11
284.3625236292375
 21
-464.63847294663054
 31
0.0
  0
LINE
  5
151
100
AcDbEntity
  8
FAN70-0301
370
              15
390
0
  6
Continuous
 62
               7
100
AcDbLine
 10
278.85568702363747
 20
-458.63847294663054
 30
0.0
 11
284.3625236292375
 21
-458.63847294663054
 31
0.0
  0
LINE
  5
152
100
AcDbEntity
  8
FAN70-0301
370
              15
390
0
  6
Continuous
 62
               7
100
AcDbLine
 10
292.65979833283751
 20
-456.13847294663054
 30
0.0
 11
292.65979833283751
 21
-466.63847294663054
 31
0.0
  0
LINE
  5
153
100
AcDbEntity
  8
FAN70-0301
370
              15
390
0
  6
Continuous
 62
               7
100
AcDbLine
 10
291.93442396183747
 20
-466.63847294663054
 30
0.0
 11
292.65979833283751
 21
-466.63847294663054
 31
0.0
  0
LINE
  5
154
100
AcDbEntity
  8
FAN70-0301
370
              15
390
0
  6
Continuous
 62
               7
100
AcDbLine
 10
291.28308918143745
 20
-468.63847294663054
 30
0.0
 11
290.55771481043752
 21
-468.63847294663054
 31
0.0
  0
LINE
  5
155
100
AcDbEntity
  8
FAN70-0301
370
              15
390
0
  6
Continuous
 62
               7
100
AcDbLine
 10
292.65979833283751
 20
-466.63847294663054
 30
0.0
 11
291.28308918143745
 21
-468.63847294663054
 31
0.0
  0
LINE
  5
156
100
AcDbEntity
  8
FAN70-0301
370
              15
390
0
  6
Continuous
 62
               7
100
AcDbLine
 10
279.58106139463752
 20
-464.63847294663054
 30
0.0
 11
279.58106139463752
 21
-458.63847294663054
 31
0.0
  0
ARC
  5
157
100
AcDbEntity
  8
FAN70-0301
370
              15
390
0
  6
Continuous
 62
               7
100
AcDbCircle
 10
-695.2209749982826
 20
-455.38847294663054
 30
0.0
 40
0.7500000000001458
100
AcDbArc
 50
178.99999999990288
 51
270.0
  0
ARC
  5
158
100
AcDbEntity
  8
FAN70-0301
370
              15
390
0
  6
Continuous
 62
               7
100
AcDbCircle
 10
-246.46810597388276
 20
-455.38847294663054
 30
0.0
 40
0.75
100
AcDbArc
 50
270.0
 51
1.0000000000104023
  0
LINE
  5
159
100
AcDbEntity
  8
FAN70-0301
370
              15
390
0
  6
Continuous
 62
               7
100
AcDbLine
 10
-245.71822020248271
 20
-455.37538364183041
 30
0.0
 11
-245.78451443638266
 21
-451.57738952413041
 31
0.0
  0
LINE
  5
15A
100
AcDbEntity
  8
FAN70-0301
370
              15
390
0
  6
Continuous
 62
               7
100
AcDbLine
 10
-695.90456653578258
 20
-451.57738952413041
 30
0.0
 11
-695.97086076968276
 21
-455.37538364183041
 31
0.0
  0
ARC
  5
15B
100
AcDbEntity
  8
FAN70-0301
370
              15
390
0
  6
Continuous
 62
               7
100
AcDbCircle
 10
-692.40509960268264
 20
-451.63847294663054
 30
0.0
 40
3.5
100
AcDbArc
 50
90.0
 51
178.99999999989768
  0
ARC
  5
15C
100
AcDbEntity
  8
FAN70-0301
370
              15
390
0
  6
Continuous
 62
               7
100
AcDbCircle
 10
-249.28398136948272
 20
-451.63847294663054
 30
0.0
 40
3.5000000000000311
100
AcDbArc
 50
1.000000000199071
 51
90.0
  0
ARC
  5
15D
100
AcDbEntity
  8
FAN70-0301
370
              15
390
0
  6
Continuous
 62
               7
100
AcDbCircle
 10
-427.22640449838286
 20
-616.65746572093076
 30
0.0
 40
15.000000000000087
100
AcDbArc
 50
104.55228054519982
 51
124.8992284023996
  0
ARC
  5
15E
100
AcDbEntity
  8
FAN70-0301
370
              15
390
0
  6
Continuous
 62
               7
100
AcDbCircle
 10
-514.46267647378295
 20
-616.65746572093076
 30
0.0
 40
15.000000000000187
100
AcDbArc
 50
55.100771597600236
 51
75.438438184599846
  0
LINE
  5
15F
100
AcDbEntity
  8
FAN70-0301
370
              15
390
0
  6
Continuous
 62
               7
100
AcDbLine
 10
-505.88065404668282
 20
-604.35507200823054
 30
0.0
 11
-498.70687789618296
 21
-609.82002494253061
 31
0.0
  0
LINE
  5
160
100
AcDbEntity
  8
FAN70-0301
370
              15
390
0
  6
Continuous
 62
               7
100
AcDbLine
 10
-442.98220307598291
 20
-609.82002494253061
 30
0.0
 11
-435.80842692548288
 21
-604.35507200823054
 31
0.0
  0
ARC
  5
161
100
AcDbEntity
  8
FAN70-0301
370
              15
390
0
  6
Continuous
 62
               7
100
AcDbCircle
 10
-446.84454048608291
 20
-605.22847294663052
 30
0.0
 40
6.0
100
AcDbArc
 50
270.0
 51
310.06999042470034
  0
ARC
  5
162
100
AcDbEntity
  8
FAN70-0301
370
              15
390
0
  6
Continuous
 62
               7
100
AcDbCircle
 10
-494.84454048608291
 20
-605.22847294663052
 30
0.0
 40
5.9999999999999867
100
AcDbArc
 50
229.93000957529966
 51
270.0
  0
LINE
  5
163
100
AcDbEntity
  8
FAN70-0301
370
              15
390
0
  6
Continuous
 62
               7
100
AcDbLine
 10
-246.46810597388276
 20
-456.13847294663054
 30
0.0
 11
-695.2209749982826
 21
-456.13847294663054
 31
0.0
  0
LINE
  5
164
100
AcDbEntity
  8
FAN70-0301
370
              15
390
0
  6
Continuous
 62
               7
100
AcDbLine
 10
-692.40509960268264
 20
-448.13847294663054
 30
0.0
 11
-249.28398136948272
 21
-448.13847294663054
 31
0.0
  0
LINE
  5
165
100
AcDbEntity
  8
FAN70-0301
370
              15
390
0
  6
Continuous
 62
               7
100
AcDbLine
 10
-430.9953540448829
 20
-602.13868411513045
 30
0.0
 11
-510.69454077818295
 21
-602.1384729466306
 31
0.0
  0
LINE
  5
166
100
AcDbEntity
  8
FAN70-0301
370
              15
390
0
  6
Continuous
 62
               7
100
AcDbLine
 10
-435.80842692548288
 20
-604.35507200823054
 30
0.0
 11
-505.88065404668282
 21
-604.35507200823054
 31
0.0
  0
LINE
  5
167
100
AcDbEntity
  8
FAN70-0301
370
              15
390
0
  6
Continuous
 62
               7
100
AcDbLine
 10
-442.98220307598291
 20
-609.82002494253061
 30
0.0
 11
-498.70687789618296
 21
-609.82002494253061
 31
0.0
  0
LINE
  5
168
100
AcDbEntity
  8
FAN70-0301
370
              15
390
0
  6
Continuous
 62
               7
100
AcDbLine
 10
-446.84454048608291
 20
-611.22847294663052
 30
0.0
 11
-494.84454048608291
 21
-611.22847294663052
 31
0.0
  0
ARC
  5
169
100
AcDbEntity
  8
FAN70-0301
370
              15
390
0
  6
STYLE_12
 62
               7
100
AcDbCircle
 10
379.37905460224232
 20
-328.52029205717338
 30
0.0
 40
273.49999999999989
100
AcDbArc
 50
276.97028109634971
 51
334.0161765048212
  0
ARC
  5
16A
100
AcDbEntity
  8
FAN70-0301
370
              15
390
0
  6
STYLE_12
 62
               7
100
AcDbCircle
 10
315.8625134647765
 20
-579.31556558360739
 30
0.0
 40
12.999999999999998
100
AcDbArc
 50
175.63181819849046
 51
252.21174592248659
  0
LINE
  5
16B
100
AcDbEntity
  8
FAN70-0301
370
              15
390
0
  6
STYLE_12
 62
               7
100
AcDbLine
 10
302.95296209613747
 20
-578.74432567834469
 30
0.0
 11
302.95296209613747
 21
-456.13847294663054
 31
0.0
  0
LINE
  5
16C
100
AcDbEntity
  8
FAN70-0301
370
              15
390
0
  6
STYLE_12
 62
               7
100
AcDbLine
 10
-437.23876399669649
 20
-602.30467305620755
 30
0.0
 11
-448.25515175294072
 21
-611.22847294663052
 31
0.0
  0
LINE
  5
16D
100
AcDbEntity
  8
FAN70-0301
370
              15
390
0
  6
STYLE_12
 62
               7
100
AcDbLine
 10
412.70300045940382
 20
-601.09078685165582
 30
0.0
 11
400.03934307210369
 21
-611.22847294663052
 31
0.0
  0
ARC
  5
16E
100
AcDbEntity
  8
FAN70-0301
370
              15
390
0
  6
STYLE_12
 62
               7
100
AcDbCircle
 10
377.47907080251235
 20
-431.15821685162905
 30
0.0
 40
173.29999999999993
100
AcDbArc
 50
247.80258178592297
 51
258.61157414772094
  0
LINE
  5
16F
100
AcDbEntity
  8
FAN70-0301
370
              15
390
0
  6
STYLE_12
 62
               7
100
AcDbLine
 10
343.25937156113861
 20
-601.04612749811963
 30
0.0
 11
356.78832988444469
 21
-611.2183307646701
 31
0.0
  0
ARC
  5
170
100
AcDbEntity
  8
FAN70-0301
370
              15
390
0
  6
STYLE_12
 62
               7
100
AcDbCircle
 10
294.90851410269607
 20
-456.13847294663054
 30
0.0
 40
8.0
100
AcDbArc
 50
0.0
 51
90.0
  0
ARC
  5
171
100
AcDbEntity
  8
FAN70-0301
370
              15
390
0
  6
Continuous
 62
               7
100
AcDbCircle
 10
-470.84454048608291
 20
545.00000000000023
 30
0.0
 40
199.99999999999977
100
AcDbArc
 50
143.32904625734383
 51
36.676670423017839
  0
CIRCLE
  5
172
100
AcDbEntity
  8
FAN70-0301
370
              15
390
0
  6
STYLE_12
 62
               7
100
AcDbCircle
 10
426.89293604643768
 20
719.99999953750034
 30
0.0
 40
18.000000000000227
  0
CIRCLE
  5
173
100
AcDbEntity
  8
FAN70-0301
370
              15
390
0
  6
STYLE_12
 62
               7
100
AcDbCircle
 10
426.89293604643768
 20
545.00000000000034
 30
0.0
 40
225.00000000000085
  0
CIRCLE
  5
174
100
AcDbEntity
  8
FAN70-0301
370
              15
390
0
  6
STYLE_12
 62
               7
100
AcDbCircle
 10
426.89293604643768
 20
594.00000000000023
 30
0.0
 40
24.000000000000341
  0
CIRCLE
  5
175
100
AcDbEntity
  8
FAN70-0301
370
              15
390
0
  6
Continuous
 62
               7
100
AcDbCircle
 10
426.89293604643768
 20
545.00000000000034
 30
0.0
 40
207.50000000000085
  0
LWPOLYLINE
  5
176
100
AcDbEntity
  8
FAN70-0301
370
              15
390
0
  6
Continuous
 62
               7
100
AcDbPolyline
 90
       38
 70
             128
 10
-630.70258546538275
 20
664.45029907050025
 10
-629.21571289098256
 20
664.30072753290028
 10
-627.26082128398275
 20
664.15602519460026
 10
-623.47028286268255
 20
663.94636776630023
 10
-618.7203426762826
 20
663.7458138233003
 10
-613.08625817458255
 20
663.55351586500024
 10
-606.64328680718268
 20
663.36862639080027
 10
-599.46668602378259
 20
663.19029789990032
 10
-590.57177155808267
 20
662.99652837830013
 10
-580.81363047348259
 20
662.81017501560018
 10
-570.2842135217827
 20
662.63371208930016
 10
-559.0754714552827
 20
662.46961387750025
 10
-548.83176061528275
 20
662.33931341640027
 10
-538.09372368738286
 20
662.22029246590023
 10
-526.9432297552828
 20
662.11245839000026
 10
-515.46214790258296
 20
662.01571855270026
 10
-503.73234721318295
 20
661.92998031790034
 10
-493.38783063678284
 20
661.86635699400017
 10
-482.89140563948285
 20
661.81951579150018
 10
-472.32953403788292
 20
661.79701018950027
 10
-461.78867764898291
 20
661.8063936673002
 10
-448.85990019568294
 20
661.85696198220035
 10
-436.06559086918287
 20
661.93478744170034
 10
-423.53743186108295
 20
662.03208229270035
 10
-411.40710536338293
 20
662.14105878220016
 10
-399.89743427258281
 20
662.25845364750035
 10
-388.81627648068297
 20
662.38898448000032
 10
-378.2429417544829
 20
662.53145314430026
 10
-368.25673986118295
 20
662.68466150470022
 10
-357.71134034868282
 20
662.86853874560029
 10
-347.96870510298299
 20
663.06203378680016
 10
-339.12708966918285
 20
663.2637370570003
 10
-331.28474959208302
 20
663.47223898490029
 10
-324.72921215058295
 20
663.6809536901003
 10
-319.19775449658277
 20
663.90077772390032
 10
-314.80388669348281
 20
664.13221097440032
 10
-311.66111880488302
 20
664.37575332920028
 10
-310.98648830568277
 20
664.45030259770033
  0
LWPOLYLINE
  5
177
100
AcDbEntity
  8
FAN70-0301
370
              15
390
0
  6
Continuous
 62
               7
100
AcDbPolyline
 90
        5
 70
             128
 10
-310.45341075315787
 20
664.45030259770033
 10
-312.64451931235794
 20
666.72878240830028
 10
-315.419316705558
 20
668.48842378420022
 10
-318.38391243905789
 20
669.55399312580016
 10
-322.00356847005787
 20
670.00000000000023
  0
LWPOLYLINE
  5
178
100
AcDbEntity
  8
FAN70-0301
370
              15
390
0
  6
Continuous
 62
               7
100
AcDbPolyline
 90
        5
 70
             128
 10
-619.71889914625126
 20
670.00000000000023
 10
-623.33327980355125
 20
669.55534063630034
 10
-626.29507568585132
 20
668.49249643200028
 10
-629.07422070065127
 20
666.73193223010026
 10
-631.26907603615132
 20
664.45029907050025
  0
CIRCLE
  5
179
100
AcDbEntity
  8
FAN70-0301
370
              15
390
0
  6
Continuous
 62
               7
100
AcDbCircle
 10
-470.84454048608291
 20
719.99999953750034
 30
0.0
 40
18.0
  0
LINE
  5
17A
100
AcDbEntity
  8
FAN70-0301
370
              15
390
0
  6
Continuous
 62
               7
100
AcDbLine
 10
-322.00356847005787
 20
670.00000000000023
 30
0.0
 11
-619.71889914625126
 21
670.00000000000023
 31
0.0
  0
CIRCLE
  5
17B
100
AcDbEntity
  8
FAN70-0301
370
              15
390
0
  6
Continuous
 62
               7
100
AcDbCircle
 10
-470.84454048608291
 20
545.00000000000034
 30
0.0
 40
225.00000000000011
  0
CIRCLE
  5
17C
100
AcDbEntity
  8
FAN70-0301
370
              15
390
0
  6
Continuous
 62
               7
100
AcDbCircle
 10
-470.84454048608291
 20
594.00000000000023
 30
0.0
 40
34.151537310900039
  0
CIRCLE
  5
17D
100
AcDbEntity
  8
FAN70-0301
370
              15
390
0
  6
Continuous
 62
               7
100
AcDbCircle
 10
-470.84454048608291
 20
594.00000000000023
 30
0.0
 40
24.0
  0
ARC
  5
17E
100
AcDbEntity
  8
FAN70-0301
370
              15
390
0
  6
Continuous
 62
               7
100
AcDbCircle
 10
-477.20014131129551
 20
-391.88981938410336
 30
0.0
 40
215.26600730135672
100
AcDbArc
 50
282.39465446994046
 51
342.63476810761682
  0
ARC
  5
17F
100
AcDbEntity
  8
FAN70-0301
370
              15
390
0
  6
STYLE_12
 62
               7
100
AcDbCircle
 10
-477.20014131129551
 20
-391.88981938410336
 30
0.0
 40
212.80000000000007
100
AcDbArc
 50
282.39465446994046
 51
344.683103692347
  0
ARC
  5
180
100
AcDbEntity
  8
FAN70-0301
370
              15
390
0
  6
Continuous
 62
               7
100
AcDbCircle
 10
-427.22640449838286
 20
-616.65746572093076
 30
0.0
 40
17.500000000000053
100
AcDbArc
 50
104.55228054519971
 51
124.89922840239966
  0
LINE
  5
181
100
AcDbEntity
  8
FAN70-0301
370
              15
390
0
  6
STYLE_12
 62
               7
100
AcDbLine
 10
-504.45031697546938
 20
-602.30467305620755
 30
0.0
 11
-493.43392921922509
 21
-611.22847294663052
 31
0.0
  0
ARC
  5
182
100
AcDbEntity
  8
FAN70-0301
370
              15
390
0
  6
Continuous
 62
               7
100
AcDbCircle
 10
-464.4889396608703
 20
-391.88981938410336
 30
0.0
 40
215.26600730135652
100
AcDbArc
 50
197.36523189238321
 51
257.60534553005954
  0
ARC
  5
183
100
AcDbEntity
  8
FAN70-0301
370
              15
390
0
  6
STYLE_12
 62
               7
100
AcDbCircle
 10
-464.4889396608703
 20
-391.88981938410336
 30
0.0
 40
212.79999999999981
100
AcDbArc
 50
195.31689630765311
 51
257.60534553005954
  0
ARC
  5
184
100
AcDbEntity
  8
FAN70-0301
370
              15
390
0
  6
Continuous
 62
               7
100
AcDbCircle
 10
-514.46267647378295
 20
-616.65746572093076
 30
0.0
 40
17.500000000000068
100
AcDbArc
 50
55.100771597600506
 51
75.447719454800293
  0
POLYLINE
  5
185
100
AcDbEntity
  8
FAN70-0301
370
              15
390
0
  6
Continuous
 62
               7
100
AcDb2dPolyline
 66
               1
 10
0.0
 20
0.0
 30
0.0
 70
               1
 75
               5
  0
VERTEX
  5
186
100
AcDbEntity
  8
FAN70-0301
370
              15
390
0
  6
Continuous
 62
               7
100
AcDbVertex
100
AcDb2dVertex
 10
342.90864937120216
 20
-602.1384729466306
 30
0.0
  0
VERTEX
  5
187
100
AcDbEntity
  8
FAN70-0301
370
              15
390
0
  6
Continuous
 62
               7
100
AcDbVertex
100
AcDb2dVertex
 10
412.90864937120216
 20
-602.1384729466306
 30
0.0
  0
VERTEX
  5
188
100
AcDbEntity
  8
FAN70-0301
370
              15
390
0
  6
Continuous
 62
               7
100
AcDbVertex
100
AcDb2dVertex
 10
412.90864937120216
 20
-649.1384729466306
 30
0.0
  0
VERTEX
  5
189
100
AcDbEntity
  8
FAN70-0301
370
              15
390
0
  6
Continuous
 62
               7
100
AcDbVertex
100
AcDb2dVertex
 10
342.90864937120216
 20
-649.1384729466306
 30
0.0
  0
SEQEND
  5
18A
100
AcDbEntity
  8
FAN70-0301
370
              15
390
0
  6
Continuous
 62
               7
  0
POLYLINE
  5
18B
100
AcDbEntity
  8
FAN70-0301
370
              15
390
0
  6
Continuous
 62
               7
100
AcDb2dPolyline
 66
               1
 10
0.0
 20
0.0
 30
0.0
 70
               1
 75
               5
  0
VERTEX
  5
18C
100
AcDbEntity
  8
FAN70-0301
370
              15
390
0
  6
Continuous
 62
               7
100
AcDbVertex
100
AcDb2dVertex
 10
-505.89148589730394
 20
-604.1384729466306
 30
0.0
  0
VERTEX
  5
18D
100
AcDbEntity
  8
FAN70-0301
370
              15
390
0
  6
Continuous
 62
               7
100
AcDbVertex
100
AcDb2dVertex
 10
-435.89148589730394
 20
-604.1384729466306
 30
0.0
  0
VERTEX
  5
18E
100
AcDbEntity
  8
FAN70-0301
370
              15
390
0
  6
Continuous
 62
               7
100
AcDbVertex
100
AcDb2dVertex
 10
-435.89148589730394
 20
-651.1384729466306
 30
0.0
  0
VERTEX
  5
18F
100
AcDbEntity
  8
FAN70-0301
370
              15
390
0
  6
Continuous
 62
               7
100
AcDbVertex
100
AcDb2dVertex
 10
-505.89148589730394
 20
-651.1384729466306
 30
0.0
  0
SEQEND
  5
190
100
AcDbEntity
  8
FAN70-0301
370
              15
390
0
  6
Continuous
 62
               7
  0
LINE
  5
191
100
AcDbEntity
  8
FAN70-0301
370
               5
390
0
  6
Continuous
 62
               7
100
AcDbLine
 10
342.90864937120216
 20
-614.71098006290003
 30
0.0
 11
412.90864937120216
 21
-614.71098006290003
 31
0.0
  0
LINE
  5
192
100
AcDbEntity
  8
FAN70-0301
370
               5
390
0
  6
Continuous
 62
               7
100
AcDbLine
 10
-505.0
 20
-614.71098006290003
 30
0.0
 11
-435.0
 21
-614.71098006290003
 31
0.0
  0
ENDSEC
  0
SECTION
  2
OBJECTS
  0
DICTIONARY
  5
19
100
AcDbDictionary
280
               0
281
               1
  3
ACAD_GROUP
350
1A
  3
ACAD_MLINESTYLE
350
1B
  3
ACAD_LAYOUT
350
1E
  3
ACAD_PLOTSETTINGS
350
22
  3
ACAD_PLOTSTYLENAME
350
1F
  0
DICTIONARY
  5
1A
102
{ACAD_REACTORS
330
19
102
}
100
AcDbDictionary
280
               0
281
               1
  0
DICTIONARY
  5
1B
102
{ACAD_REACTORS
330
19
102
}
100
AcDbDictionary
280
               0
281
               1
  3
Standard
350
1C
  0
MLINESTYLE
  5
1C
102
{ACAD_REACTORS
330
1B
102
}
100
AcDbMlineStyle
  2
Standard
 70
               0
  3

 62
               0
 51
90.0
 52
90.0
 71
               2
 49
0.5
 62
             256
  6
ByLayer
 49
-0.5
 62
             256
  6
ByLayer
  0
ACDBDICTIONARYWDFLT
  5
1F
102
{ACAD_REACTORS
330
19
102
}
100
AcDbDictionary
281
               1
  3
Normal
350
1D
100
AcDbDictionaryWithDefault
340
1D
  0
ACDBPLACEHOLDER
  5
1D
102
{ACAD_REACTORS
330
1F
102
}
  0
LAYOUT
  5
20
102
{ACAD_REACTORS
330
1E
102
}
100
AcDbPlotSettings
  1

  2

  4

  6

 40
0.0
 41
0.0
 42
0.0
 43
0.0
 44
0.0
 45
0.0
 46
0.0
 47
0.0
 48
0.0
 49
0.0
140
0.0
141
0.0
142
1.0
143
1.0
 70
            1024
 72
               0
 73
               0
 74
               0
  7

 75
               0
147
1.0
148
0.0
149
0.0
100
AcDbLayout
  1
Model
 70
               0
 71
               0
 10
0.0
 20
0.0
 11
0.0
 21
0.0
 12
0.0
 22
0.0
 32
0.0
 14
0.0
 24
0.0
 34
0.0
 15
0.0
 25
0.0
 35
0.0
146
0.0
 13
0.0
 23
0.0
 33
0.0
 16
0.0
 26
0.0
 36
0.0
 17
0.0
 27
0.0
 37
0.0
 76
               0
330
A
331
0
345
0
346
0
  0
LAYOUT
  5
21
102
{ACAD_REACTORS
330
1E
102
}
100
AcDbPlotSettings
  1

  2

  4

  6

 40
0.0
 41
0.0
 42
0.0
 43
0.0
 44
0.0
 45
0.0
 46
0.0
 47
0.0
 48
0.0
 49
0.0
140
0.0
141
0.0
142
1.0
143
1.0
 70
               0
 72
               0
 73
               0
 74
               0
  7

 75
               0
147
1.0
148
0.0
149
0.0
100
AcDbLayout
  1
Layout1
 70
               0
 71
               0
 10
0.0
 20
0.0
 11
0.0
 21
0.0
 12
0.0
 22
0.0
 32
0.0
 14
0.0
 24
0.0
 34
0.0
 15
0.0
 25
0.0
 35
0.0
146
0.0
 13
0.0
 23
0.0
 33
0.0
 16
0.0
 26
0.0
 36
0.0
 17
0.0
 27
0.0
 37
0.0
 76
               0
330
B
331
0
345
0
346
0
  0
DICTIONARY
  5
1E
102
{ACAD_REACTORS
330
19
102
}
100
AcDbDictionary
280
               0
281
               1
  3
Layout1
350
21
  3
Model
350
20
  0
DICTIONARY
  5
22
102
{ACAD_REACTORS
330
19
102
}
100
AcDbDictionary
280
               0
281
               1
  0
ENDSEC
  0
EOF
