  0
SECTION
  2
HEADER
  9
$ACADVER
  1
AC1015
  9
$ACADMAINTVER
 70
               6
  9
$DWGCODEPAGE
  3
ANSI_932
  9
$INSBASE
 10
0.0
 20
0.0
 30
0.0
  9
$EXTMIN
 10
-975.00000000024124
 20
-1431.5255224711129
 30
-14.834305555555554
  9
$EXTMAX
 10
975.00000000024124
 20
1405.9972926412995
 30
14.834305555555554
  9
$LIMMIN
 10
0.0
 20
0.0
  9
$LIMMAX
 10
0.0
 20
0.0
  9
$ORTHOMODE
 70
               0
  9
$REGENMODE
 70
               1
  9
$FILLMODE
 70
               1
  9
$QTEXTMODE
 70
               0
  9
$MIRRTEXT
 70
               1
  9
$LTSCALE
 40
50.799999999999997
  9
$ATTMODE
 70
               1
  9
$TEXTSIZE
 40
0.2
  9
$TRACEWID
 40
1.0
  9
$TEXTSTYLE
  7
Standard
  9
$CLAYER
  8
template
  9
$CELTYPE
  6
Continuous
  9
$CECOLOR
 62
             256
  9
$CELTSCALE
 40
1.0
  9
$DISPSILH
 70
               0
  9
$DIMSCALE
 40
1.0
  9
$DIMASZ
 40
9.9993896484374982
  9
$DIMEXO
 40
24.999999999999996
  9
$DIMDLI
 40
0.9999999999999999
  9
$DIMRND
 40
0.0
  9
$DIMDLE
 40
0.0
  9
$DIMEXE
 40
0.0
  9
$DIMTP
 40
0.0
  9
$DIMTM
 40
0.0
  9
$DIMTXT
 40
24.432617187500004
  9
$DIMCEN
 40
0.0
  9
$DIMTSZ
 40
0.0
  9
$DIMTOL
 70
               0
  9
$DIMLIM
 70
               0
  9
$DIMTIH
 70
               0
  9
$DIMTOH
 70
               0
  9
$DIMSE1
 70
               0
  9
$DIMSE2
 70
               0
  9
$DIMTAD
 70
               1
  9
$DIMZIN
 70
              11
  9
$DIMBLK
  1
_DOT
  9
$DIMASO
 70
               1
  9
$DIMSHO
 70
               1
  9
$DIMPOST
  1
<>
  9
$DIMAPOST
  1
[]
  9
$DIMALT
 70
               0
  9
$DIMALTD
 70
               1
  9
$DIMALTF
 40
1.0
  9
$DIMLFAC
 40
1.0
  9
$DIMTOFL
 70
               0
  9
$DIMTVP
 40
0.0
  9
$DIMTIX
 70
               1
  9
$DIMSOXD
 70
               0
  9
$DIMSAH
 70
               0
  9
$DIMBLK1
  1

  9
$DIMBLK2
  1

  9
$DIMSTYLE
  2
tfrom線あり
  9
$DIMCLRD
 70
               0
  9
$DIMCLRE
 70
               0
  9
$DIMCLRT
 70
               0
  9
$DIMTFAC
 40
1.0
  9
$DIMGAP
 40
0.4999999999999999
  9
$DIMJUST
 70
               0
  9
$DIMSD1
 70
               0
  9
$DIMSD2
 70
               0
  9
$DIMTOLJ
 70
               1
  9
$DIMTZIN
 70
              11
  9
$DIMALTZ
 70
              11
  9
$DIMALTTZ
 70
              11
  9
$DIMUPT
 70
               0
  9
$DIMDEC
 70
               1
  9
$DIMTDEC
 70
               1
  9
$DIMALTU
 70
               2
  9
$DIMALTTD
 70
               2
  9
$DIMTXSTY
  7
ＭＳ ゴシック
  9
$DIMAUNIT
 70
               0
  9
$DIMADEC
 70
               2
  9
$DIMALTRND
 40
0.0
  9
$DIMAZIN
 70
               0
  9
$DIMDSEP
 70
              46
  9
$DIMATFIT
 70
               0
  9
$DIMFRAC
 70
               2
  9
$DIMLDRBLK
  1

  9
$DIMLUNIT
 70
               2
  9
$DIMLWD
 70
              -2
  9
$DIMLWE
 70
              -2
  9
$DIMTMOVE
 70
               0
  9
$LUNITS
 70
               2
  9
$LUPREC
 70
               4
  9
$SKETCHINC
 40
0.1
  9
$FILLETRAD
 40
0.0
  9
$AUNITS
 70
               0
  9
$AUPREC
 70
               0
  9
$MENU
  1
acad
  9
$ELEVATION
 40
0.0
  9
$PELEVATION
 40
0.0
  9
$THICKNESS
 40
0.0
  9
$LIMCHECK
 70
               0
  9
$CHAMFERA
 40
0.0
  9
$CHAMFERB
 40
0.0
  9
$CHAMFERC
 40
0.0
  9
$CHAMFERD
 40
0.0
  9
$SKPOLY
 70
               0
  9
$TDCREATE
 40
2456050.619606481
  9
$TDUCREATE
 40
0.000000000
  9
$TDUPDATE
 40
2456050.619606481
  9
$TDUUPDATE
 40
0.000000000
  9
$TDINDWG
 40
0.0000000000
  9
$TDUSRTIMER
 40
0.0000000000
  9
$USRTIMER
 70
               1
  9
$ANGBASE
 50
0.0
  9
$ANGDIR
 70
               0
  9
$PDMODE
 70
               1
  9
$PDSIZE
 40
-2.0
  9
$PLINEWID
 40
0.0
  9
$SPLFRAME
 70
               0
  9
$SPLINETYPE
 70
               6
  9
$SPLINESEGS
 70
               8
  9
$HANDSEED
  5
1B8
  9
$SURFTAB1
 70
               6
  9
$SURFTAB2
 70
               6
  9
$SURFTYPE
 70
               6
  9
$SURFU
 70
               6
  9
$SURFV
 70
               6
  9
$UCSBASE
  2

  9
$UCSNAME
  2

  9
$UCSORG
 10
0.0
 20
0.0
 30
0.0
  9
$UCSXDIR
 10
1.0
 20
0.0
 30
0.0
  9
$UCSYDIR
 10
0.0
 20
1.0
 30
0.0
  9
$UCSORTHOREF
  2

  9
$UCSORTHOVIEW
 70
               0
  9
$UCSORGTOP
 10
0.0
 20
0.0
 30
0.0
  9
$UCSORGBOTTOM
 10
0.0
 20
0.0
 30
0.0
  9
$UCSORGLEFT
 10
0.0
 20
0.0
 30
0.0
  9
$UCSORGRIGHT
 10
0.0
 20
0.0
 30
0.0
  9
$UCSORGFRONT
 10
0.0
 20
0.0
 30
0.0
  9
$UCSORGBACK
 10
0.0
 20
0.0
 30
0.0
  9
$PUCSBASE
  2

  9
$PUCSNAME
  2

  9
$PUCSORG
 10
0.0
 20
0.0
 30
0.0
  9
$PUCSXDIR
 10
1.0
 20
0.0
 30
0.0
  9
$PUCSYDIR
 10
0.0
 20
1.0
 30
0.0
  9
$PUCSORTHOREF
  2

  9
$PUCSORTHOVIEW
 70
               0
  9
$PUCSORGTOP
 10
0.0
 20
0.0
 30
0.0
  9
$PUCSORGBOTTOM
 10
0.0
 20
0.0
 30
0.0
  9
$PUCSORGLEFT
 10
0.0
 20
0.0
 30
0.0
  9
$PUCSORGRIGHT
 10
0.0
 20
0.0
 30
0.0
  9
$PUCSORGFRONT
 10
0.0
 20
0.0
 30
0.0
  9
$PUCSORGBACK
 10
0.0
 20
0.0
 30
0.0
  9
$USERI1
 70
               0
  9
$USERI2
 70
               0
  9
$USERI3
 70
               0
  9
$USERI4
 70
               0
  9
$USERI5
 70
               0
  9
$USERR1
 40
0.0
  9
$USERR2
 40
0.0
  9
$USERR3
 40
0.0
  9
$USERR4
 40
0.0
  9
$USERR5
 40
0.0
  9
$WORLDVIEW
 70
               1
  9
$SHADEDGE
 70
               3
  9
$SHADEDIF
 70
              70
  9
$TILEMODE
 70
               1
  9
$MAXACTVP
 70
              64
  9
$PINSBASE
 10
0.0
 20
0.0
 30
0.0
  9
$PLIMCHECK
 70
               0
  9
$PEXTMIN
 10
1.0000000000000000E+20
 20
1.0000000000000000E+20
 30
1.0000000000000000E+20
  9
$PEXTMAX
 10
-1.0000000000000000E+20
 20
-1.0000000000000000E+20
 30
-1.0000000000000000E+20
  9
$PLIMMIN
 10
0.0
 20
0.0
  9
$PLIMMAX
 10
12.0
 20
9.0
  9
$UNITMODE
 70
               0
  9
$VISRETAIN
 70
               0
  9
$PLINEGEN
 70
               1
  9
$PSLTSCALE
 70
               0
  9
$TREEDEPTH
 70
            3020
  9
$CMLSTYLE
  2
Standard
  9
$CMLJUST
 70
               0
  9
$CMLSCALE
 40
1.0
  9
$PROXYGRAPHICS
 70
               0
  9
$MEASUREMENT
 70
               1
  9
$CELWEIGHT
370
               0
  9
$ENDCAPS
280
               0
  9
$JOINSTYLE
280
               0
  9
$LWDISPLAY
290
               1
  9
$INSUNITS
 70
               4
  9
$HYPERLINKBASE
  1

  9
$STYLESHEET
  1

  9
$XEDIT
290
               1
  9
$CEPSNTYPE
380
               0
  9
$PSTYLEMODE
290
               1
  9
$FINGERPRINTGUID
  2

  9
$VERSIONGUID
  2

  9
$EXTNAMES
290
               1
  9
$PSVPSCALE
 40
0.0
  0
ENDSEC
  0
SECTION
  2
CLASSES
  0
CLASS
  1
LWPOLYLINE
  2
AcDbPolyline
  3
AutoCAD 2000
 90
        0
280
               0
281
               1
  0
CLASS
  1
IMAGE
  2
AcDbRasterImage
  3
ISM
 90
      127
280
               0
281
               1
  0
CLASS
  1
OLE2FRAME
  2
AcDbOle2Frame
  3
AutoCAD 2000
 90
        0
280
               0
281
               1
  0
CLASS
  1
HATCH
  2
AcDbHatch
  3
AutoCAD 2000
 90
        0
280
               0
281
               1
  0
CLASS
  1
DICTIONARYVAR
  2
AcDbDictionaryVar
  3
AutoCAD 2000
 90
        0
280
               0
281
               0
  0
CLASS
  1
RASTERVARIABLES
  2
AcDbRasterVariables
  3
ISM
 90
        0
280
               0
281
               0
  0
CLASS
  1
IMAGEDEF
  2
AcDbRasterImageDef
  3
ISM
 90
        0
280
               0
281
               0
  0
CLASS
  1
IMAGEDEF_REACTOR
  2
AcDbRasterImageDefReactor
  3
ISM
 90
        1
280
               0
281
               0
  0
CLASS
  1
IDBUFFER
  2
AcDbIdBuffer
  3
AutoCAD 2000
 90
        0
280
               0
281
               0
  0
CLASS
  1
SPATIAL_FILTER
  2
AcDbSpatialFilter
  3
AutoCAD 2000
 90
        0
280
               0
281
               0
  0
CLASS
  1
XRECORD
  2
AcDbXrecord
  3
AutoCAD 2000
 90
        0
280
               0
281
               0
  0
CLASS
  1
SORTENTSTABLE
  2
AcDbSortentsTable
  3
AutoCAD 2000
 90
        0
280
               0
281
               0
  0
CLASS
  1
LAYER_INDEX
  2
AcDbLayerIndex
  3
AutoCAD 2000
 90
        0
280
               0
281
               0
  0
CLASS
  1
SPATIAL_INDEX
  2
AcDbSpatialIndex
  3
AutoCAD 2000
 90
        0
280
               0
281
               0
  0
CLASS
  1
OBJECT_PTR
  2
CAseDLPNTableRecord
  3
"ASE-LPNTableRecord"
 90
        1
280
               0
281
               0
  0
CLASS
  1
LAYOUT
  2
AcDbLayout
  3
AutoCAD 2000
 90
        0
280
               0
281
               0
  0
CLASS
  1
PLOTSETTINGS
  2
AcDbPlotSettings
  3
AutoCAD 2000
 90
        0
280
               0
281
               0
  0
CLASS
  1
ACDBDICTIONARYWDFLT
  2
AcDbDictionaryWithDefault
  3
AutoCAD 2000
 90
        0
280
               0
281
               0
  0
CLASS
  1
ACDBPLACEHOLDER
  2
AcDbPlaceHolder
  3
AutoCAD 2000
 90
        0
280
               0
281
               0
  0
ENDSEC
  0
SECTION
  2
TABLES
  0
TABLE
  2
VPORT
  5
7
100
AcDbSymbolTable
 70
               1
  0
VPORT
  5
15
100
AcDbSymbolTableRecord
100
AcDbViewportTableRecord
  2
*ACTIVE
 70
               0
 10
0.0
 20
0.0
 11
1.0
 21
1.0
 12
0.0
 22
-12.764114914906713
 13
0.0
 23
0.0
 14
1.0
 24
1.0
 15
0.0
 25
0.0
 16
0.0
 26
0.0
 36
1.0
 17
0.0
 27
0.0
 37
0.0
 40
2837.5228151124124
 41
0.688564
 42
50.0
 43
0.0
 44
0.0
 50
0.0
 51
0.0
 71
               0
 72
            2000
 73
               1
 74
               1
 75
               0
 76
               0
 77
               0
 78
               0
281
               0
 65
               0
110
0.0
120
0.0
130
0.0
111
1.0
121
0.0
131
0.0
112
0.0
122
1.0
132
0.0
345
0
346
0
 79
               0
146
0.0
  0
ENDTAB
  0
TABLE
  2
LTYPE
  5
4
100
AcDbSymbolTable
 70
              17
  0
LTYPE
  5
11
100
AcDbSymbolTableRecord
100
AcDbLinetypeTableRecord
  2
ByBlock
 70
              64
  3

 72
              65
 73
               0
 40
0.0
  0
LTYPE
  5
12
100
AcDbSymbolTableRecord
100
AcDbLinetypeTableRecord
  2
ByLayer
 70
              64
  3

 72
              65
 73
               0
 40
0.0
  0
LTYPE
  5
13
100
AcDbSymbolTableRecord
100
AcDbLinetypeTableRecord
  2
Continuous
 70
              64
  3
Solid line
 72
              65
 73
               0
 40
0.0
  0
LTYPE
  5
32
100
AcDbSymbolTableRecord
100
AcDbLinetypeTableRecord
  2
STYLE_01
 70
               0
  3

 72
              65
 73
               4
 40
0.3999999999999999
 49
0.25
 74
               0
 49
-0.05
 74
               0
 49
0.05
 74
               0
 49
-0.05
 74
               0
  0
LTYPE
  5
33
100
AcDbSymbolTableRecord
100
AcDbLinetypeTableRecord
  2
STYLE_02
 70
               0
  3

 72
              65
 73
               2
 40
0.6944250000000001
 49
0.48607
 74
               0
 49
-0.2083550000000001
 74
               0
  0
LTYPE
  5
34
100
AcDbSymbolTableRecord
100
AcDbLinetypeTableRecord
  2
STYLE_03
 70
               0
  3

 72
              65
 73
               2
 40
1.25
 49
1.0416400000000001
 74
               0
 49
-0.2083599999999999
 74
               0
  0
LTYPE
  5
35
100
AcDbSymbolTableRecord
100
AcDbLinetypeTableRecord
  2
STYLE_04
 70
               0
  3

 72
              65
 73
               2
 40
1.5277099999999999
 49
1.3194249999999998
 74
               0
 49
-0.208285
 74
               0
  0
LTYPE
  5
36
100
AcDbSymbolTableRecord
100
AcDbLinetypeTableRecord
  2
STYLE_05
 70
               0
  3

 72
              65
 73
               2
 40
0.20828
 49
0.069425
 74
               0
 49
-0.138855
 74
               0
  0
LTYPE
  5
37
100
AcDbSymbolTableRecord
100
AcDbLinetypeTableRecord
  2
STYLE_06
 70
               0
  3

 72
              65
 73
               4
 40
1.0416400000000001
 49
0.625
 74
               0
 49
-0.20828
 74
               0
 49
0.06943
 74
               0
 49
-0.13893
 74
               0
  0
LTYPE
  5
38
100
AcDbSymbolTableRecord
100
AcDbLinetypeTableRecord
  2
STYLE_07
 70
               0
  3

 72
              65
 73
               6
 40
1.875
 49
0.625
 74
               0
 49
-0.20828
 74
               0
 49
0.6250000000000001
 74
               0
 49
-0.2083599999999999
 74
               0
 49
0.06943
 74
               0
 49
-0.1389299999999999
 74
               0
  0
LTYPE
  5
39
100
AcDbSymbolTableRecord
100
AcDbLinetypeTableRecord
  2
STYLE_08
 70
               0
  3

 72
              65
 73
               6
 40
1.25
 49
0.625
 74
               0
 49
-0.20828
 74
               0
 49
0.06943
 74
               0
 49
-0.13893
 74
               0
 49
0.0694299999999999
 74
               0
 49
-0.13893
 74
               0
  0
LTYPE
  5
3A
100
AcDbSymbolTableRecord
100
AcDbLinetypeTableRecord
  2
STYLE_09
 70
               0
  3

 72
              65
 73
               4
 40
5.0
 49
3.75
 74
               0
 49
-0.2777849999999998
 74
               0
 49
0.6944300000000003
 74
               0
 49
-0.2777849999999998
 74
               0
  0
LTYPE
  5
3B
100
AcDbSymbolTableRecord
100
AcDbLinetypeTableRecord
  2
STYLE_10
 70
               0
  3

 72
              65
 73
               6
 40
5.9375
 49
3.75
 74
               0
 49
-0.2777849999999998
 74
               0
 49
0.6944300000000003
 74
               0
 49
-0.2777849999999998
 74
               0
 49
0.625
 74
               0
 49
-0.3125
 74
               0
  0
LTYPE
  5
3C
100
AcDbSymbolTableRecord
100
AcDbLinetypeTableRecord
  2
STYLE_11
 70
               0
  3

 72
              65
 73
               2
 40
0.0694444881889764
 49
0.0347222440944882
 74
               0
 49
-0.0347222440944882
 74
               0
  0
LTYPE
  5
3D
100
AcDbSymbolTableRecord
100
AcDbLinetypeTableRecord
  2
STYLE_12
 70
               0
  3

 72
              65
 73
               2
 40
0.3937007874015748
 49
0.1968503937007874
 74
               0
 49
-0.1968503937007874
 74
               0
  0
LTYPE
  5
3E
100
AcDbSymbolTableRecord
100
AcDbLinetypeTableRecord
  2
STYLE_13
 70
               0
  3

 72
              65
 73
               2
 40
0.5905511811023622
 49
0.2952755905511811
 74
               0
 49
-0.2952755905511811
 74
               0
  0
LTYPE
  5
3F
100
AcDbSymbolTableRecord
100
AcDbLinetypeTableRecord
  2
STYLE_14
 70
               0
  3

 72
              65
 73
               2
 40
1.9685039370078738
 49
0.9842519685039369
 74
               0
 49
-0.9842519685039369
 74
               0
  0
ENDTAB
  0
TABLE
  2
LAYER
  5
2
100
AcDbSymbolTable
 70
               5
  0
LAYER
  5
14
100
AcDbSymbolTableRecord
100
AcDbLayerTableRecord
  2
0
 70
               0
 62
               7
  6
Continuous
290
               1
370
              -3
390
1D
  0
LAYER
  5
40
100
AcDbSymbolTableRecord
100
AcDbLayerTableRecord
  2
Defpoints
 70
               0
 62
               7
  6
Continuous
290
               0
370
              -3
390
1D
  0
LAYER
  5
41
100
AcDbSymbolTableRecord
100
AcDbLayerTableRecord
  2
template
 70
               0
 62
               7
  6
Continuous
290
               1
370
              -3
390
1D
  0
LAYER
  5
42
100
AcDbSymbolTableRecord
100
AcDbLayerTableRecord
  2
notes
 70
               0
 62
               7
  6
Continuous
290
               1
370
              -3
390
1D
  0
LAYER
  5
43
100
AcDbSymbolTableRecord
100
AcDbLayerTableRecord
  2
FAN70-0302
 70
               0
 62
               7
  6
Continuous
290
               1
370
              -3
390
1D
  0
ENDTAB
  0
TABLE
  2
STYLE
  5
3
100
AcDbSymbolTable
 70
               2
  0
STYLE
  5
17
100
AcDbSymbolTableRecord
100
AcDbTextStyleTableRecord
  2
Standard
 70
               0
 40
0.0
 41
1.0
 50
0.0
 71
               0
 42
0.0
  3
txt
  4
BIGFONT.SHX
  0
STYLE
  5
31
100
AcDbSymbolTableRecord
100
AcDbTextStyleTableRecord
  2
ＭＳ ゴシック
 70
               0
 40
0.0
 41
1.0
 50
0.0
 71
               0
 42
0.0
  3

  4
ＭＳ ゴシック
1001
ACAD
1000
ＭＳ ゴシック
1071
        0
  0
ENDTAB
  0
TABLE
  2
VIEW
  5
5
100
AcDbSymbolTable
 70
               0
  0
ENDTAB
  0
TABLE
  2
UCS
  5
6
100
AcDbSymbolTable
 70
               0
  0
ENDTAB
  0
TABLE
  2
APPID
  5
8
100
AcDbSymbolTable
 70
               1
  0
APPID
  5
16
100
AcDbSymbolTableRecord
100
AcDbRegAppTableRecord
  2
ACAD
 70
               0
  0
ENDTAB
  0
TABLE
  2
DIMSTYLE
  5
9
100
AcDbSymbolTable
 70
               2
100
AcDbDimStyleTable
 71
               0
  0
DIMSTYLE
105
18
100
AcDbSymbolTableRecord
100
AcDbDimStyleTableRecord
  2
Standard
 70
               0
  3

  4

 40
1.0
 41
0.18
 42
0.0625
 43
0.38
 44
0.18
 45
0.0
 46
0.0
 47
0.0
 48
0.0
 71
               0
 72
               0
 73
               1
 74
               1
 75
               0
 76
               0
 77
               0
 78
               0
 79
               0
140
0.18
141
0.09
142
0.0
143
25.399999999999999
144
1.0
145
0.0
146
1.0
147
0.09
148
0.0
170
               0
171
               2
172
               0
173
               0
174
               0
175
               0
176
               0
177
               0
178
               0
179
               0
271
               4
272
               4
273
               2
274
               2
275
               0
276
               0
277
               2
278
              46
279
               0
280
               0
281
               0
282
               0
283
               1
284
               0
285
               0
286
               0
288
               0
289
               3
340
17
341
0
342
0
343
0
344
0
371
              -2
372
              -2
  0
DIMSTYLE
105
4C
100
AcDbSymbolTableRecord
100
AcDbDimStyleTableRecord
  2
tfrom線あり
 70
               0
  3
<>
  4
[]
 40
1.0
 41
9.9993896484374982
 42
24.999999999999996
 43
0.9999999999999999
 44
0.0
 45
0.0
 46
0.0
 47
0.0
 48
0.0
 71
               0
 72
               0
 73
               0
 74
               0
 75
               0
 76
               0
 77
               1
 78
              11
 79
               0
140
24.432617187500004
141
0.0
142
0.0
143
1.0
144
1.0
145
0.0
146
1.0
147
0.4999999999999999
148
0.0
170
               0
171
               1
172
               0
173
               0
174
               1
175
               0
176
               0
177
               0
178
               0
179
               2
271
               1
272
               1
273
               2
274
               2
275
               0
276
               2
277
               2
278
              46
279
               0
280
               0
281
               0
282
               0
283
               1
284
              11
285
              11
286
              11
288
               0
289
               0
340
31
341
44
342
44
343
0
344
0
371
              -2
372
              -2
  0
ENDTAB
  0
TABLE
  2
BLOCK_RECORD
  5
1
100
AcDbSymbolTable
 70
              15
  0
BLOCK_RECORD
  5
A
100
AcDbSymbolTableRecord
100
AcDbBlockTableRecord
  2
*MODEL_SPACE
340
20
  0
BLOCK_RECORD
  5
B
100
AcDbSymbolTableRecord
100
AcDbBlockTableRecord
  2
*PAPER_SPACE
340
21
  0
BLOCK_RECORD
  5
44
100
AcDbSymbolTableRecord
100
AcDbBlockTableRecord
  2
_DOT
340
0
  0
BLOCK_RECORD
  5
23
100
AcDbSymbolTableRecord
100
AcDbBlockTableRecord
  2
グループ
340
0
102
{BLKREFS
331
101
102
}
  0
BLOCK_RECORD
  5
24
100
AcDbSymbolTableRecord
100
AcDbBlockTableRecord
  2
*D2
340
0
  0
BLOCK_RECORD
  5
25
100
AcDbSymbolTableRecord
100
AcDbBlockTableRecord
  2
*D3
340
0
  0
BLOCK_RECORD
  5
26
100
AcDbSymbolTableRecord
100
AcDbBlockTableRecord
  2
*D4
340
0
  0
BLOCK_RECORD
  5
27
100
AcDbSymbolTableRecord
100
AcDbBlockTableRecord
  2
*D5
340
0
  0
BLOCK_RECORD
  5
28
100
AcDbSymbolTableRecord
100
AcDbBlockTableRecord
  2
*D6
340
0
  0
BLOCK_RECORD
  5
29
100
AcDbSymbolTableRecord
100
AcDbBlockTableRecord
  2
*D7
340
0
  0
BLOCK_RECORD
  5
2A
100
AcDbSymbolTableRecord
100
AcDbBlockTableRecord
  2
*D8
340
0
  0
BLOCK_RECORD
  5
2B
100
AcDbSymbolTableRecord
100
AcDbBlockTableRecord
  2
*D9
340
0
  0
BLOCK_RECORD
  5
2C
100
AcDbSymbolTableRecord
100
AcDbBlockTableRecord
  2
*D10
340
0
  0
BLOCK_RECORD
  5
2D
100
AcDbSymbolTableRecord
100
AcDbBlockTableRecord
  2
*D11
340
0
  0
BLOCK_RECORD
  5
2E
100
AcDbSymbolTableRecord
100
AcDbBlockTableRecord
  2
*D12
340
0
  0
BLOCK_RECORD
  5
2F
100
AcDbSymbolTableRecord
100
AcDbBlockTableRecord
  2
*D13
340
0
  0
BLOCK_RECORD
  5
30
100
AcDbSymbolTableRecord
100
AcDbBlockTableRecord
  2
*D14
340
0
  0
ENDTAB
  0
ENDSEC
  0
SECTION
  2
BLOCKS
  0
BLOCK
  5
D
100
AcDbEntity
  8
0
390
0
100
AcDbBlockBegin
  2
*MODEL_SPACE
 70
               0
 10
0.0
 20
0.0
 30
0.0
  3
*MODEL_SPACE
  1

  0
ENDBLK
  5
E
100
AcDbEntity
  8
0
390
0
100
AcDbBlockEnd
  0
BLOCK
  5
F
100
AcDbEntity
 67
               1
  8
0
390
0
100
AcDbBlockBegin
  2
*PAPER_SPACE
 70
               0
 10
0.0
 20
0.0
 30
0.0
  3
*PAPER_SPACE
  1

  0
ENDBLK
  5
10
100
AcDbEntity
 67
               1
  8
0
390
0
100
AcDbBlockEnd
  0
BLOCK
  5
45
100
AcDbEntity
  8
0
390
0
100
AcDbBlockBegin
  2
_DOT
 70
               0
 10
0.0
 20
0.0
 30
0.0
  3
_DOT
  1

  0
POLYLINE
  5
46
100
AcDbEntity
  8
0
370
              -2
390
0
  6
ByBlock
 62
               0
100
AcDb2dPolyline
 66
               1
 10
0.0
 20
0.0
 30
0.0
 70
               1
 40
0.5
 41
0.5
  0
VERTEX
  5
47
100
AcDbEntity
  8
0
370
              -2
390
0
  6
ByBlock
 62
               0
100
AcDbVertex
100
AcDb2dVertex
 10
-0.25
 20
0.0
 30
0.0
 42
1.0
  0
VERTEX
  5
48
100
AcDbEntity
  8
0
370
              -2
390
0
  6
ByBlock
 62
               0
100
AcDbVertex
100
AcDb2dVertex
 10
0.25
 20
0.0
 30
0.0
 42
1.0
  0
SEQEND
  5
49
100
AcDbEntity
  8
0
390
0
  0
LINE
  5
4A
100
AcDbEntity
  8
0
370
              -2
390
0
  6
ByBlock
 62
               0
100
AcDbLine
 10
-0.5
 20
0.0
 30
0.0
 11
-1.0
 21
0.0
 31
0.0
  0
ENDBLK
  5
4B
100
AcDbEntity
  8
0
390
0
100
AcDbBlockEnd
  0
BLOCK
  5
4D
100
AcDbEntity
  8
template
390
0
100
AcDbBlockBegin
  2
グループ
 70
               0
 10
0.0
 20
0.0
 30
0.0
  3
グループ
  1

  0
LWPOLYLINE
  5
4E
100
AcDbEntity
  8
0
370
              15
390
0
  6
Continuous
 62
               7
100
AcDbPolyline
 90
        8
 70
             129
 10
887.42850780307481
 20
-1394.8147210236859
 10
887.42850780307481
 20
-1400.8121097172618
 10
877.92731088507151
 20
-1400.8121097172618
 10
877.92731088507151
 20
-1425.2630729807706
 10
869.57193362328871
 20
-1425.2630729807706
 10
869.57193362328871
 20
-1400.8121097172618
 10
860.23897667697929
 20
-1400.8121097172618
 10
860.23897667697929
 20
-1394.8147210236859
  0
LWPOLYLINE
  5
4F
100
AcDbEntity
  8
0
370
              15
390
0
  6
Continuous
 62
               7
100
AcDbPolyline
 90
      101
 70
             128
 10
900.15679963363175
 20
-1395.5429695166224
 10
900.17214966241681
 20
-1395.5386087599372
 42
-0.0222221607812437
 10
900.46215423908779
 20
-1395.4699842946927
 10
900.47794800308122
 20
-1395.4669808715958
 42
-0.0146883565586991
 10
900.74065070830557
 20
-1395.4249776846464
 42
-0.0127458844187303
 10
901.00528967545358
 20
-1395.3974407165742
 10
901.06774475377142
 20
-1395.3925472939857
 42
-0.0198099018566922
 10
901.45859386324832
 20
-1395.3774621365892
 10
901.51040533269202
 20
-1395.3775159122542
 42
-0.0147617382765124
 10
902.00502879366343
 20
-1395.3926359374989
 10
902.07772024853898
 20
-1395.3970085443866
 42
-0.016262454900472
 10
902.46787387800578
 20
-1395.433241419659
 10
902.58940626927017
 20
-1395.4485279786561
 42
-0.0080020874660534
 10
902.73498530035658
 20
-1395.4692108259239
 10
902.77330477094858
 20
-1395.4752821037346
 42
-0.0053821929678304
 10
902.84178887626638
 20
-1395.4868896275566
 10
902.11538317706777
 20
-1397.6678180832705
 42
0.010866775739458
 10
902.04806610693299
 20
-1397.6546309680498
 10
902.01059808374748
 20
-1397.6481332254561
 42
0.0170663203307658
 10
901.8673812968334
 20
-1397.6283036281645
 10
901.79950596414892
 20
-1397.6212564575769
 42
0.0220162375276673
 10
901.51912655629246
 20
-1397.6045740968068
 10
901.44127098924173
 20
-1397.6033747295403
 42
0.0282606915783777
 10
901.10563466566362
 20
-1397.6171780065092
 10
901.06172139189118
 20
-1397.621477996513
 42
0.0169677213690567
 10
900.8157968969324
 20
-1397.6540150460651
 42
0.0190576269865509
 10
900.57288893435555
 20
-1397.7041619181705
 10
900.56662974624146
 20
-1397.7057048922807
 42
0.0213685642844021
 10
900.3162452617612
 20
-1397.7789051773862
 10
900.3107553668475
 20
-1397.7807681734444
 42
0.0237595297591213
 10
900.05726048194606
 20
-1397.8804526953411
 10
900.05215840791914
 20
-1397.8827444708181
 42
0.0261857468810989
 10
899.79998763168908
 20
-1398.0122808081926
 10
899.78956144260007
 20
-1398.0183462826624
 42
0.0272553062025773
 10
899.55313166736369
 20
-1398.1737184886056
 10
899.51836865385542
 20
-1398.1993796366969
 42
0.0325996893171638
 10
899.36821331020269
 20
-1398.326127509669
 10
899.34450388107427
 20
-1398.3489455381871
 42
0.0138050960639914
 10
899.25262072486953
 20
-1398.4423951997337
 42
0.0125280103807697
 10
899.16577819204315
 20
-1398.5405585263254
 10
899.14209774712765
 20
-1398.568717024521
 42
0.0205218024738399
 10
899.01699767161153
 20
-1398.7305103387534
 10
898.99453133112684
 20
-1398.762170068577
 42
0.0163110129581913
 10
898.83882095187528
 20
-1398.9975005036472
 10
898.83609705582455
 20
-1399.0019242656324
 42
0.013189734190081
 10
898.68929653491568
 20
-1399.2550563580021
 10
898.68759643955218
 20
-1399.2581745971324
 42
0.0107895576063661
 10
898.54981973734107
 20
-1399.5243898067686
 10
898.5490868478164
 20
-1399.5258840394142
 42
0.0091371507210245
 10
898.42060689916946
 20
-1399.8004092371677
 10
898.3908612677576
 20
-1399.8671157443328
 42
0.0135418326351868
 10
898.21914732868379
 20
-1400.2820535296071
 10
898.1855425202524
 20
-1400.369919671881
 42
0.009283454240957
 10
898.01431346033087
 20
-1400.8438181701881
 10
897.98869633261324
 20
-1400.9190592399812
 42
0.0054261043578205
 10
897.88105818432018
 20
-1401.2468232130464
 10
897.86353219816351
 20
-1401.3022113752111
 42
0.0008225090811953
 10
897.79486214631277
 20
-1401.5204801334257
 10
896.8101730143793
 20
-1404.5453714266823
 10
900.04279685445317
 20
-1404.5453714266823
 10
899.53860442459973
 20
-1406.4498497250347
 10
896.28254814261641
 20
-1406.4498497250347
 10
890.45339911026258
 20
-1425.2630727910396
 10
888.62830149995227
 20
-1425.2630727910396
 10
894.4629795354532
 20
-1406.4498497250347
 10
892.05786316641286
 20
-1406.4498497250347
 10
892.5620555962663
 20
-1404.5453714266823
 10
894.99060440721632
 20
-1404.5453714266823
 10
895.85075932540497
 20
-1401.9089584259834
 42
-0.0005863560628843
 10
895.88749400360086
 20
-1401.7921320057155
 10
895.96358183726886
 20
-1401.5511397063062
 42
-0.0087522378925503
 10
896.16304998072599
 20
-1400.9558636191589
 10
896.25531425614076
 20
-1400.6957234506424
 42
-0.0077400953830024
 10
896.51324791527031
 20
-1400.0027187730984
 10
896.52901288684689
 20
-1399.9622878897183
 42
-0.0082369946330518
 10
896.77609735746114
 20
-1399.3582088235166
 42
-0.0085725238363833
 10
897.0433434534657
 20
-1398.7627827842261
 10
897.14497305447048
 20
-1398.5463616822465
 42
-0.0168109410596449
 10
897.43191748320146
 20
-1397.9851541561402
 10
897.55776087360528
 20
-1397.7581901232422
 42
-0.0007817726866814
 10
897.61204522371713
 20
-1397.6606458781116
 10
897.6121735297196
 20
-1397.6604161694017
 42
-0.0036626142161405
 10
897.6670613937556
 20
-1397.5638182894068
 42
-0.0080221150679748
 10
897.72418564916165
 20
-1397.4685390546551
 10
897.75488560052349
 20
-1397.4191481055318
 42
-0.020213932556849
 10
897.88254134033025
 20
-1397.2311665048503
 10
897.93660880551784
 20
-1397.1580876406094
 42
-0.0249323791798447
 10
898.1957715992371
 20
-1396.8420423984549
 10
898.219911413364
 20
-1396.8154281255424
 42
-0.0242132121536144
 10
898.55959215490543
 20
-1396.475544639339
 10
898.60750372765756
 20
-1396.4320355031516
 42
-0.025101752785879
 10
898.8914854282973
 20
-1396.1990427573878
 10
898.8929309051116
 20
-1396.1979734998085
 42
-0.0130868069040762
 10
899.19119155506837
 20
-1395.9891930312663
 10
899.19275337420993
 20
-1395.9881595909919
 42
-0.0290329526391372
 10
899.50386451560439
 20
-1395.807334089362
 10
899.53371007759586
 20
-1395.7922317065197
 42
-0.0160250190043653
 10
899.79961449135521
 20
-1395.668215596309
 42
-0.0267600374781006
 10
900.07489056882639
 20
-1395.5674672757598
 10
900.10162648834478
 20
-1395.5592747169349
 42
-0.0049981587670053
 10
900.15679963363175
 20
-1395.5429695166224
 42
-0.0049981587670053
  0
LWPOLYLINE
  5
50
100
AcDbEntity
  8
0
370
              15
390
0
  6
Continuous
 62
               7
100
AcDbPolyline
 90
      118
 70
             128
 10
919.97116719807866
 20
-1404.6193547545097
 10
921.84628912257813
 20
-1404.6193547545097
 10
921.00825021697824
 20
-1407.3009212809097
 42
-0.0010587229255597
 10
921.03970603248558
 20
-1407.26401674763
 10
921.09790012318217
 20
-1407.1960344913787
 42
-0.0071874740417101
 10
921.2482753412711
 20
-1407.0253937993596
 10
921.38999811454244
 20
-1406.8691576580363
 42
-0.0148118053512363
 10
921.84012740725746
 20
-1406.4015438120211
 10
921.92734974215796
 20
-1406.3161464911689
 42
-0.0086273358692412
 10
922.26289854316542
 20
-1405.9987708571534
 10
922.30673225939188
 20
-1405.9587212128199
 42
-0.0103138323110657
 10
922.56475596162477
 20
-1405.7325580754821
 10
922.61053036794067
 20
-1405.6940760282312
 42
-0.0060206748566775
 10
922.78337843206407
 20
-1405.5522813774674
 10
922.78540956294921
 20
-1405.5506556718367
 42
-0.0067069027288388
 10
922.95770237761258
 20
-1405.4165050380411
 10
922.96025114353938
 20
-1405.4145748681651
 42
-0.0076184352042701
 10
923.13115640940987
 20
-1405.289199992922
 42
-0.0089652861674684
 10
923.30611737214042
 20
-1405.1695667325923
 10
923.34246909229182
 20
-1405.145655519105
 42
-0.0156916245935726
 10
923.5384285894495
 20
-1405.0253930326321
 42
-0.002329901106332
 10
923.7386906333893
 20
-1404.9122150931137
 10
923.75407476580915
 20
-1404.9036150980266
 42
-0.0107669341484053
 10
923.98831159090878
 20
-1404.779214964678
 10
924.0105763919853
 20
-1404.7679982147272
 42
-0.0078058045895926
 10
924.29416650993699
 20
-1404.6306367590892
 10
924.30407359764718
 20
-1404.6260276312203
 42
-0.0181829330473932
 10
924.61438300225871
 20
-1404.4951638901262
 10
924.66843844483174
 20
-1404.4746487701802
 42
-0.0208411536025736
 10
925.01752341227984
 20
-1404.3585583076879
 10
925.03187951240682
 20
-1404.3544398627346
 42
-0.0222799817135775
 10
925.3605993063245
 20
-1404.2757982965941
 10
925.36948826956063
 20
-1404.2740862860092
 42
-0.0215509523883742
 10
925.68595923784142
 20
-1404.2271705974749
 10
925.72844119889146
 20
-1404.2227330706839
 42
-0.0182545924873259
 10
925.96254997819551
 20
-1404.206889245293
 10
926.00195099454572
 20
-1404.2056647002137
 42
-0.0072962856529045
 10
926.15787387423256
 20
-1404.2030953716917
 10
926.18697354479764
 20
-1404.203040536288
 42
-0.0059227516312746
 10
926.2847230439495
 20
-1404.2040142480782
 10
926.31396526140736
 20
-1404.2046520146812
 42
-0.0011833111893293
 10
926.35321654515383
 20
-1404.2056010189917
 10
925.55782994954666
 20
-1406.7443349640907
 42
0.0143932051568036
 10
925.53142856719148
 20
-1406.7341359940438
 10
925.52415659477879
 20
-1406.731564775188
 42
0.0234388603493147
 10
925.48232572884899
 20
-1406.7189455394735
 10
925.47364406593397
 20
-1406.7167645774678
 42
0.0199162742988359
 10
925.41335523185239
 20
-1406.7041478421324
 10
925.39254129404776
 20
-1406.7006506427042
 42
0.0293643550669375
 10
925.28946643528752
 20
-1406.6895005970509
 10
925.26478125456833
 20
-1406.6882889800324
 42
0.0214606686870283
 10
925.11164033861701
 20
-1406.6873504196151
 10
925.10226842779787
 20
-1406.6876953311594
 42
0.0167564054187906
 10
924.93074823669042
 20
-1406.6997723735274
 10
924.92228844393048
 20
-1406.7006537139546
 42
0.0137677553246384
 10
924.73493513066614
 20
-1406.7254030224979
 10
924.72758339115785
 20
-1406.7265809424659
 42
0.0118497261481275
 10
924.52708562705527
 20
-1406.7635982926552
 10
924.52093561980928
 20
-1406.7648851553752
 42
0.0106421143891844
 10
924.31005473252526
 20
-1406.8137175309498
 10
924.30514592413522
 20
-1406.8149648736351
 42
0.0099746379706335
 10
924.08668745497073
 20
-1406.8751394019505
 10
924.02513941480242
 20
-1406.8934212805805
 42
0.0191613675860962
 10
923.68915495228782
 20
-1407.0073986608672
 10
923.60109517953936
 20
-1407.0410855711925
 42
0.0205274080147135
 10
923.21578840764073
 20
-1407.2069139790181
 10
923.15813912565523
 20
-1407.234581943592
 42
0.0181256912193595
 10
922.89986218499178
 20
-1407.3702657625681
 10
922.84690680167512
 20
-1407.4005833757844
 42
0.0140709242412418
 10
922.7019518670495
 20
-1407.4890780492174
 10
922.6757029984326
 20
-1407.5061348679319
 42
0.0086667884399223
 10
922.58677683688848
 20
-1407.5661375358156
 42
0.003640819201488
 10
922.4993435988797
 20
-1407.6283183935902
 10
922.46411672438649
 20
-1407.6537593395208
 42
0.0052260781283436
 10
922.30788802698567
 20
-1407.7690917261623
 10
922.29168117073573
 20
-1407.781319836773
 42
0.0050024435892504
 10
922.1056778276743
 20
-1407.9246024050374
 10
922.09035967116176
 20
-1407.936648427481
 42
0.0136138710277092
 10
921.87991840283541
 20
-1408.1116149323955
 10
921.84625052704291
 20
-1408.1411939051086
 42
0.0172815186909998
 10
921.58184698538162
 20
-1408.3901905777307
 10
921.57928463953772
 20
-1408.3927763948791
 42
0.0189403857991616
 10
921.32870284095702
 20
-1408.6655816596854
 10
921.29607134742253
 20
-1408.7039255911809
 42
0.0185044199506342
 10
921.10411490844263
 20
-1408.9471741723037
 42
0.0088565243900613
 10
920.92565480181463
 20
-1409.2006905924532
 10
920.91647682216569
 20
-1409.2142319722136
 42
0.0157195347224029
 10
920.73325621583353
 20
-1409.5037541815261
 10
920.68717327389925
 20
-1409.5819063785527
 42
0.0095451879781822
 10
920.52208772376309
 20
-1409.8745010209068
 10
920.51093980483574
 20
-1409.8951716930344
 42
0.0100351706254988
 10
920.3788960556742
 20
-1410.1522272535294
 42
0.0086935915428606
 10
920.25656490388008
 20
-1410.414060398934
 10
920.25324416246565
 20
-1410.4215027219057
 42
0.0072580174864106
 10
920.13289771052462
 20
-1410.7020947134793
 10
920.1296360772144
 20
-1410.7100147395067
 42
0.0060005122612714
 10
920.01043540887395
 20
-1411.0096244101057
 10
920.00722443053007
 20
-1411.0179859380164
 42
0.0049017786978771
 10
919.88832427166892
 20
-1411.3369149186312
 10
919.88515846528219
 20
-1411.3456678558514
 42
0.0039415167601332
 10
919.76572218722583
 20
-1411.6842099182636
 10
919.76259108457339
 20
-1411.6933131191406
 42
0.0031035838758816
 10
919.64178629888499
 20
-1412.0517529808997
 10
919.63867625434989
 20
-1412.0611736022888
 42
0.0025070747153345
 10
919.51577490302338
 20
-1412.4398208192677
 10
919.47848100660917
 20
-1412.5567124844858
 42
0.0029081910282878
 10
919.28646270880768
 20
-1413.1708761427467
 10
919.24565954028128
 20
-1413.3040993850534
 42
0.0009266453734886
 10
918.97724216595361
 20
-1414.1863238450198
 10
918.9563546933739
 20
-1414.2554357240542
 42
-0.0005809993666427
 10
918.67901801273479
 20
-1415.1692438308519
 10
918.61273621446651
 20
-1415.3867287629962
 42
-0.0012018708167339
 10
918.46575190503268
 20
-1415.8648914275323
 10
918.41343205345527
 20
-1416.0336505684359
 42
-0.0002691059615676
 10
918.36986257229853
 20
-1416.1739181887399
 10
915.53690667400929
 20
-1425.2630727910396
 10
913.71891778203076
 20
-1425.2630727910396
 10
919.97116719807866
 20
-1404.6193547545097
  0
SPLINE
  5
51
100
AcDbEntity
  8
0
370
              15
390
0
  6
Continuous
 62
               7
100
AcDbSpline
210
0.0
220
0.0
230
1.0
 70
              13
 71
               2
 72
             782
 73
             779
 74
               0
 42
0.000001
 43
0.000001
 40
0.0
 40
0.0
 40
0.0
 40
1.0
 40
1.0
 40
2.0
 40
2.0
 40
3.0
 40
3.0
 40
4.0
 40
4.0
 40
5.0
 40
5.0
 40
6.0
 40
6.0
 40
7.0
 40
7.0
 40
8.0
 40
8.0
 40
9.0
 40
9.0
 40
10.0
 40
10.0
 40
11.0
 40
11.0
 40
12.0
 40
12.0
 40
13.0
 40
13.0
 40
14.0
 40
14.0
 40
15.0
 40
15.0
 40
16.0
 40
16.0
 40
17.0
 40
17.0
 40
18.0
 40
18.0
 40
19.0
 40
19.0
 40
20.0
 40
20.0
 40
21.0
 40
21.0
 40
22.0
 40
22.0
 40
23.0
 40
23.0
 40
24.0
 40
24.0
 40
25.0
 40
25.0
 40
26.0
 40
26.0
 40
27.0
 40
27.0
 40
28.0
 40
28.0
 40
29.0
 40
29.0
 40
30.0
 40
30.0
 40
31.0
 40
31.0
 40
32.0
 40
32.0
 40
33.0
 40
33.0
 40
34.0
 40
34.0
 40
35.0
 40
35.0
 40
36.0
 40
36.0
 40
37.0
 40
37.0
 40
38.0
 40
38.0
 40
39.0
 40
39.0
 40
40.0
 40
40.0
 40
41.0
 40
41.0
 40
42.0
 40
42.0
 40
43.0
 40
43.0
 40
44.0
 40
44.0
 40
45.0
 40
45.0
 40
46.0
 40
46.0
 40
47.0
 40
47.0
 40
48.0
 40
48.0
 40
49.0
 40
49.0
 40
50.0
 40
50.0
 40
51.0
 40
51.0
 40
52.0
 40
52.0
 40
53.0
 40
53.0
 40
54.0
 40
54.0
 40
55.0
 40
55.0
 40
56.0
 40
56.0
 40
57.0
 40
57.0
 40
58.0
 40
58.0
 40
59.0
 40
59.0
 40
60.0
 40
60.0
 40
61.0
 40
61.0
 40
62.0
 40
62.0
 40
63.0
 40
63.0
 40
64.0
 40
64.0
 40
65.0
 40
65.0
 40
66.0
 40
66.0
 40
67.0
 40
67.0
 40
68.0
 40
68.0
 40
69.0
 40
69.0
 40
70.0
 40
70.0
 40
71.0
 40
71.0
 40
72.0
 40
72.0
 40
73.0
 40
73.0
 40
74.0
 40
74.0
 40
75.0
 40
75.0
 40
76.0
 40
76.0
 40
77.0
 40
77.0
 40
78.0
 40
78.0
 40
79.0
 40
79.0
 40
80.0
 40
80.0
 40
81.0
 40
81.0
 40
82.0
 40
82.0
 40
83.0
 40
83.0
 40
84.0
 40
84.0
 40
85.0
 40
85.0
 40
86.0
 40
86.0
 40
87.0
 40
87.0
 40
88.0
 40
88.0
 40
89.0
 40
89.0
 40
90.0
 40
90.0
 40
91.0
 40
91.0
 40
92.0
 40
92.0
 40
93.0
 40
93.0
 40
94.0
 40
94.0
 40
95.0
 40
95.0
 40
96.0
 40
96.0
 40
97.0
 40
97.0
 40
98.0
 40
98.0
 40
99.0
 40
99.0
 40
100.0
 40
100.0
 40
101.0
 40
101.0
 40
102.0
 40
102.0
 40
103.0
 40
103.0
 40
104.0
 40
104.0
 40
105.0
 40
105.0
 40
106.0
 40
106.0
 40
107.0
 40
107.0
 40
108.0
 40
108.0
 40
109.0
 40
109.0
 40
110.0
 40
110.0
 40
111.0
 40
111.0
 40
112.0
 40
112.0
 40
113.0
 40
113.0
 40
114.0
 40
114.0
 40
115.0
 40
115.0
 40
116.0
 40
116.0
 40
117.0
 40
117.0
 40
118.0
 40
118.0
 40
119.0
 40
119.0
 40
120.0
 40
120.0
 40
121.0
 40
121.0
 40
122.0
 40
122.0
 40
123.0
 40
123.0
 40
124.0
 40
124.0
 40
125.0
 40
125.0
 40
126.0
 40
126.0
 40
127.0
 40
127.0
 40
128.0
 40
128.0
 40
129.0
 40
129.0
 40
130.0
 40
130.0
 40
131.0
 40
131.0
 40
132.0
 40
132.0
 40
133.0
 40
133.0
 40
134.0
 40
134.0
 40
135.0
 40
135.0
 40
136.0
 40
136.0
 40
137.0
 40
137.0
 40
138.0
 40
138.0
 40
139.0
 40
139.0
 40
140.0
 40
140.0
 40
141.0
 40
141.0
 40
142.0
 40
142.0
 40
143.0
 40
143.0
 40
144.0
 40
144.0
 40
145.0
 40
145.0
 40
146.0
 40
146.0
 40
147.0
 40
147.0
 40
148.0
 40
148.0
 40
149.0
 40
149.0
 40
150.0
 40
150.0
 40
151.0
 40
151.0
 40
152.0
 40
152.0
 40
153.0
 40
153.0
 40
154.0
 40
154.0
 40
155.0
 40
155.0
 40
156.0
 40
156.0
 40
157.0
 40
157.0
 40
158.0
 40
158.0
 40
159.0
 40
159.0
 40
160.0
 40
160.0
 40
161.0
 40
161.0
 40
162.0
 40
162.0
 40
163.0
 40
163.0
 40
164.0
 40
164.0
 40
165.0
 40
165.0
 40
166.0
 40
166.0
 40
167.0
 40
167.0
 40
168.0
 40
168.0
 40
169.0
 40
169.0
 40
170.0
 40
170.0
 40
171.0
 40
171.0
 40
172.0
 40
172.0
 40
173.0
 40
173.0
 40
174.0
 40
174.0
 40
175.0
 40
175.0
 40
176.0
 40
176.0
 40
177.0
 40
177.0
 40
178.0
 40
178.0
 40
179.0
 40
179.0
 40
180.0
 40
180.0
 40
181.0
 40
181.0
 40
182.0
 40
182.0
 40
183.0
 40
183.0
 40
184.0
 40
184.0
 40
185.0
 40
185.0
 40
186.0
 40
186.0
 40
187.0
 40
187.0
 40
188.0
 40
188.0
 40
189.0
 40
189.0
 40
190.0
 40
190.0
 40
191.0
 40
191.0
 40
192.0
 40
192.0
 40
193.0
 40
193.0
 40
194.0
 40
194.0
 40
195.0
 40
195.0
 40
196.0
 40
196.0
 40
197.0
 40
197.0
 40
198.0
 40
198.0
 40
199.0
 40
199.0
 40
200.0
 40
200.0
 40
201.0
 40
201.0
 40
202.0
 40
202.0
 40
203.0
 40
203.0
 40
204.0
 40
204.0
 40
205.0
 40
205.0
 40
206.0
 40
206.0
 40
207.0
 40
207.0
 40
208.0
 40
208.0
 40
209.0
 40
209.0
 40
210.0
 40
210.0
 40
211.0
 40
211.0
 40
212.0
 40
212.0
 40
213.0
 40
213.0
 40
214.0
 40
214.0
 40
215.0
 40
215.0
 40
216.0
 40
216.0
 40
217.0
 40
217.0
 40
218.0
 40
218.0
 40
219.0
 40
219.0
 40
220.0
 40
220.0
 40
221.0
 40
221.0
 40
222.0
 40
222.0
 40
223.0
 40
223.0
 40
224.0
 40
224.0
 40
225.0
 40
225.0
 40
226.0
 40
226.0
 40
227.0
 40
227.0
 40
228.0
 40
228.0
 40
229.0
 40
229.0
 40
230.0
 40
230.0
 40
231.0
 40
231.0
 40
232.0
 40
232.0
 40
233.0
 40
233.0
 40
234.0
 40
234.0
 40
235.0
 40
235.0
 40
236.0
 40
236.0
 40
237.0
 40
237.0
 40
238.0
 40
238.0
 40
239.0
 40
239.0
 40
240.0
 40
240.0
 40
241.0
 40
241.0
 40
242.0
 40
242.0
 40
243.0
 40
243.0
 40
244.0
 40
244.0
 40
245.0
 40
245.0
 40
246.0
 40
246.0
 40
247.0
 40
247.0
 40
248.0
 40
248.0
 40
249.0
 40
249.0
 40
250.0
 40
250.0
 40
251.0
 40
251.0
 40
252.0
 40
252.0
 40
253.0
 40
253.0
 40
254.0
 40
254.0
 40
255.0
 40
255.0
 40
256.0
 40
256.0
 40
257.0
 40
257.0
 40
258.0
 40
258.0
 40
259.0
 40
259.0
 40
260.0
 40
260.0
 40
261.0
 40
261.0
 40
262.0
 40
262.0
 40
263.0
 40
263.0
 40
264.0
 40
264.0
 40
265.0
 40
265.0
 40
266.0
 40
266.0
 40
267.0
 40
267.0
 40
268.0
 40
268.0
 40
269.0
 40
269.0
 40
270.0
 40
270.0
 40
271.0
 40
271.0
 40
272.0
 40
272.0
 40
273.0
 40
273.0
 40
274.0
 40
274.0
 40
275.0
 40
275.0
 40
276.0
 40
276.0
 40
277.0
 40
277.0
 40
278.0
 40
278.0
 40
279.0
 40
279.0
 40
280.0
 40
280.0
 40
281.0
 40
281.0
 40
282.0
 40
282.0
 40
283.0
 40
283.0
 40
284.0
 40
284.0
 40
285.0
 40
285.0
 40
286.0
 40
286.0
 40
287.0
 40
287.0
 40
288.0
 40
288.0
 40
289.0
 40
289.0
 40
290.0
 40
290.0
 40
291.0
 40
291.0
 40
292.0
 40
292.0
 40
293.0
 40
293.0
 40
294.0
 40
294.0
 40
295.0
 40
295.0
 40
296.0
 40
296.0
 40
297.0
 40
297.0
 40
298.0
 40
298.0
 40
299.0
 40
299.0
 40
300.0
 40
300.0
 40
301.0
 40
301.0
 40
302.0
 40
302.0
 40
303.0
 40
303.0
 40
304.0
 40
304.0
 40
305.0
 40
305.0
 40
306.0
 40
306.0
 40
307.0
 40
307.0
 40
308.0
 40
308.0
 40
309.0
 40
309.0
 40
310.0
 40
310.0
 40
311.0
 40
311.0
 40
312.0
 40
312.0
 40
313.0
 40
313.0
 40
314.0
 40
314.0
 40
315.0
 40
315.0
 40
316.0
 40
316.0
 40
317.0
 40
317.0
 40
318.0
 40
318.0
 40
319.0
 40
319.0
 40
320.0
 40
320.0
 40
321.0
 40
321.0
 40
322.0
 40
322.0
 40
323.0
 40
323.0
 40
324.0
 40
324.0
 40
325.0
 40
325.0
 40
326.0
 40
326.0
 40
327.0
 40
327.0
 40
328.0
 40
328.0
 40
329.0
 40
329.0
 40
330.0
 40
330.0
 40
331.0
 40
331.0
 40
332.0
 40
332.0
 40
333.0
 40
333.0
 40
334.0
 40
334.0
 40
335.0
 40
335.0
 40
336.0
 40
336.0
 40
337.0
 40
337.0
 40
338.0
 40
338.0
 40
339.0
 40
339.0
 40
340.0
 40
340.0
 40
341.0
 40
341.0
 40
342.0
 40
342.0
 40
343.0
 40
343.0
 40
344.0
 40
344.0
 40
345.0
 40
345.0
 40
346.0
 40
346.0
 40
347.0
 40
347.0
 40
348.0
 40
348.0
 40
349.0
 40
349.0
 40
350.0
 40
350.0
 40
351.0
 40
351.0
 40
352.0
 40
352.0
 40
353.0
 40
353.0
 40
354.0
 40
354.0
 40
355.0
 40
355.0
 40
356.0
 40
356.0
 40
357.0
 40
357.0
 40
358.0
 40
358.0
 40
359.0
 40
359.0
 40
360.0
 40
360.0
 40
361.0
 40
361.0
 40
362.0
 40
362.0
 40
363.0
 40
363.0
 40
364.0
 40
364.0
 40
365.0
 40
365.0
 40
366.0
 40
366.0
 40
367.0
 40
367.0
 40
368.0
 40
368.0
 40
369.0
 40
369.0
 40
370.0
 40
370.0
 40
371.0
 40
371.0
 40
372.0
 40
372.0
 40
373.0
 40
373.0
 40
374.0
 40
374.0
 40
375.0
 40
375.0
 40
376.0
 40
376.0
 40
377.0
 40
377.0
 40
378.0
 40
378.0
 40
379.0
 40
379.0
 40
380.0
 40
380.0
 40
381.0
 40
381.0
 40
382.0
 40
382.0
 40
383.0
 40
383.0
 40
384.0
 40
384.0
 40
385.0
 40
385.0
 40
386.0
 40
386.0
 40
387.0
 40
387.0
 40
388.0
 40
388.0
 40
389.0
 40
389.0
 40
389.0
 10
930.29987164881129
 20
-1404.6084283911473
 30
0.0
 41
1.0
 10
931.11829575753177
 20
-1404.6084283911473
 30
0.0
 41
1.0
 10
931.93671986625225
 20
-1404.6084283911473
 30
0.0
 41
1.0
 10
931.52296613073554
 20
-1405.951054655397
 30
0.0
 41
1.0
 10
931.10921239521872
 20
-1407.2936809196467
 30
0.0
 41
1.0
 10
931.12755189038626
 20
-1407.264980146736
 30
0.0
 41
0.9999957264340734
 10
931.14605888723565
 20
-1407.2363870965564
 30
0.0
 41
1.0
 10
931.1764882113639
 20
-1407.1893742181946
 30
0.0
 41
1.0
 10
931.20691753549204
 20
-1407.1423613398329
 30
0.0
 41
1.0
 10
931.2862831805985
 20
-1407.0197425329286
 30
0.0
 41
0.9995394069080581
 10
931.3729415721516
 20
-1406.9021644711856
 30
0.0
 41
1.0
 10
931.40869843441237
 20
-1406.8536495785906
 30
0.0
 41
1.0
 10
931.44445529667325
 20
-1406.8051346859957
 30
0.0
 41
1.0
 10
931.57818196449057
 20
-1406.6236944108707
 30
0.0
 41
0.9994460617143309
 10
931.72368244577569
 20
-1406.4515520132245
 30
0.0
 41
1.0
 10
931.72807062675201
 20
-1406.4463603328404
 30
0.0
 41
1.0
 10
931.73245880772845
 20
-1406.4411686524561
 30
0.0
 41
1.0
 10
931.86918292706423
 20
-1406.2794096155742
 30
0.0
 41
0.9994359394934378
 10
932.01645715741506
 20
-1406.1271934144102
 30
0.0
 41
1.0
 10
932.01884051136688
 20
-1406.1247300840387
 30
0.0
 41
1.0
 10
932.02122386531869
 20
-1406.122266753667
 30
0.0
 41
1.0
 10
932.16373138776441
 20
-1405.9749772132475
 30
0.0
 41
0.999529368856773
 10
932.31500306874864
 20
-1405.8367040010812
 30
0.0
 41
1.0
 10
932.33429682800704
 20
-1405.8190681154347
 30
0.0
 41
1.0
 10
932.35359058726544
 20
-1405.8014322297879
 30
0.0
 41
1.0
 10
932.46627474972661
 20
-1405.6984307889209
 30
0.0
 41
0.9997087614802612
 10
932.58379763868584
 20
-1405.6009865081194
 30
0.0
 41
1.0
 10
932.6029637118711
 20
-1405.5850949296032
 30
0.0
 41
1.0
 10
932.62212978505647
 20
-1405.5692033510873
 30
0.0
 41
1.0
 10
932.70132052764779
 20
-1405.5035422273158
 30
0.0
 41
0.9999595338701152
 10
932.78167979849604
 20
-1405.4393164966664
 30
0.0
 41
1.0
 10
932.86203906936078
 20
-1405.3750907660042
 30
0.0
 41
0.9999749417497325
 10
932.94329960370794
 20
-1405.3120092120548
 30
0.0
 41
1.0
 10
932.96428574986498
 20
-1405.2957179247574
 30
0.0
 41
1.0
 10
932.98527189602214
 20
-1405.2794266374599
 30
0.0
 41
1.0
 10
933.06983978132359
 20
-1405.2137776276193
 30
0.0
 41
0.9999792037126249
 10
933.15524738109707
 20
-1405.1492248459726
 30
0.0
 41
1.0
 10
933.17607220707259
 20
-1405.1334850236663
 30
0.0
 41
1.0
 10
933.19689703304812
 20
-1405.1177452013601
 30
0.0
 41
1.0
 10
933.2406549809275
 20
-1405.0846720642828
 30
0.0
 41
0.9999993373911212
 10
933.28433666700971
 20
-1405.0514982689049
 30
0.0
 41
1.0
 10
933.32801835315365
 20
-1405.0183244734803
 30
0.0
 41
0.9999160953814502
 10
933.37254476407406
 20
-1404.9862934082814
 30
0.0
 41
1.0
 10
933.40536665149284
 20
-1404.962682252697
 30
0.0
 41
1.0
 10
933.4381885389115
 20
-1404.9390710971129
 30
0.0
 41
1.0
 10
933.54835872467049
 20
-1404.8598177207446
 30
0.0
 41
0.9980964527231465
 10
933.66744771817071
 20
-1404.794730247889
 30
0.0
 41
1.0
 10
933.70448032510012
 20
-1404.7744902682953
 30
0.0
 41
1.0
 10
933.74151293202942
 20
-1404.7542502887013
 30
0.0
 41
1.0
 10
933.92083994530083
 20
-1404.656240038001
 30
0.0
 41
0.9984572810572661
 10
934.10992851165884
 20
-1404.5787177766551
 30
0.0
 41
1.0
 10
934.11357478105367
 20
-1404.5772228843175
 30
0.0
 41
1.0
 10
934.11722105044851
 20
-1404.5757279919801
 30
0.0
 41
1.0
 10
934.29901707801673
 20
-1404.5011955153091
 30
0.0
 41
0.9987838528033862
 10
934.48726973657699
 20
-1404.4449298751429
 30
0.0
 41
1.0
 10
934.4915076857742
 20
-1404.4436632214531
 30
0.0
 41
1.0
 10
934.49574563497151
 20
-1404.4423965677634
 30
0.0
 41
1.0
 10
934.67552239513429
 20
-1404.3886642349776
 30
0.0
 41
0.9990652816207084
 10
934.85926832685209
 20
-1404.3506605554351
 30
0.0
 41
1.0
 10
934.86445672788182
 20
-1404.3495874523289
 30
0.0
 41
1.0
 10
934.86964512891166
 20
-1404.3485143492228
 30
0.0
 41
1.0
 10
935.04301425856613
 20
-1404.3126568758933
 30
0.0
 41
0.9992909934270304
 10
935.21859002502629
 20
-1404.2899464434265
 30
0.0
 41
1.0
 10
935.39416579148269
 20
-1404.2672360109602
 30
0.0
 41
0.9994553539448484
 10
935.57085722457441
 20
-1404.2561567067539
 30
0.0
 41
1.0
 10
935.60629163237218
 20
-1404.2539348187061
 30
0.0
 41
1.0
 10
935.64172604016983
 20
-1404.2517129306582
 30
0.0
 41
1.0
 10
935.80795180673897
 20
-1404.2412898682464
 30
0.0
 41
0.9990928098293043
 10
935.97446159864103
 20
-1404.2450495094809
 30
0.0
 41
1.0
 10
936.01302343391262
 20
-1404.2459202010139
 30
0.0
 41
1.0
 10
936.05158526918422
 20
-1404.2467908925469
 30
0.0
 41
1.0
 10
936.14097139054343
 20
-1404.2488091507155
 30
0.0
 41
0.9998382089205282
 10
936.23022707332984
 20
-1404.2540412772437
 30
0.0
 41
1.0
 10
936.23065697954962
 20
-1404.2540664781459
 30
0.0
 41
1.0
 10
936.2310868857694
 20
-1404.2540916790481
 30
0.0
 41
1.0
 10
936.31948275611592
 20
-1404.2592734037717
 30
0.0
 41
0.9997558016758135
 10
936.40756333331683
 20
-1404.2683559191382
 30
0.0
 41
1.0
 10
936.40803947174948
 20
-1404.2684050166213
 30
0.0
 41
1.0
 10
936.40851561018212
 20
-1404.2684541141041
 30
0.0
 41
1.0
 10
936.49564391052058
 20
-1404.277438434505
 30
0.0
 41
0.999656514418068
 10
936.58218176385981
 20
-1404.2909757411935
 30
0.0
 41
1.0
 10
936.58264768923573
 20
-1404.2910486269247
 30
0.0
 41
1.0
 10
936.58311361461176
 20
-1404.2911215126558
 30
0.0
 41
1.0
 10
936.66871961720017
 20
-1404.3045130478822
 30
0.0
 41
0.9995321806867492
 10
936.75334669752976
 20
-1404.3231135363119
 30
0.0
 41
1.0
 10
936.75373589210108
 20
-1404.3231990787776
 30
0.0
 41
1.0
 10
936.7541250866725
 20
-1404.3232846212434
 30
0.0
 41
1.0
 10
936.8379737778572
 20
-1404.3417140247411
 30
0.0
 41
0.9993819199219686
 10
936.92032031205395
 20
-1404.365989408002
 30
0.0
 41
1.0
 10
936.92055874555172
 20
-1404.3660596971113
 30
0.0
 41
1.0
 10
936.92079717904949
 20
-1404.3661299862206
 30
0.0
 41
1.0
 10
937.00266684624955
 20
-1404.3902647912621
 30
0.0
 41
0.9992088568504717
 10
937.0823593652384
 20
-1404.420830027057
 30
0.0
 41
1.0
 10
937.16204035611759
 20
-1404.4513896277901
 30
0.0
 41
0.99902261017734
 10
937.23871102602459
 20
-1404.4888670594046
 30
0.0
 41
1.0
 10
937.31537016782192
 20
-1404.5263388559576
 30
0.0
 41
0.9988424273972379
 10
937.38807379503442
 20
-1404.5710036312107
 30
0.0
 41
1.0
 10
937.38834150341404
 20
-1404.5711680952832
 30
0.0
 41
1.0
 10
937.38860921179366
 20
-1404.5713325593556
 30
0.0
 41
1.0
 10
937.46184825576461
 20
-1404.6163262627529
 30
0.0
 41
0.998692884449067
 10
937.53011112247441
 20
-1404.6685619970326
 30
0.0
 41
1.0
 10
937.53069241469711
 20
-1404.6690068102605
 30
0.0
 41
1.0
 10
937.53127370691982
 20
-1404.6694516234884
 30
0.0
 41
1.0
 10
937.6006991580748
 20
-1404.7225769842235
 30
0.0
 41
0.9986007262277985
 10
937.66412532784125
 20
-1404.7827377539168
 30
0.0
 41
1.0
 10
937.66501974329879
 20
-1404.7835861217523
 30
0.0
 41
1.0
 10
937.66591415875632
 20
-1404.7844344895875
 30
0.0
 41
1.0
 10
937.73112915943818
 20
-1404.8462919949518
 30
0.0
 41
0.9985581491381195
 10
937.78933677113935
 20
-1404.914784485223
 30
0.0
 41
1.0
 10
937.79859522473498
 20
-1404.9256788429248
 30
0.0
 41
1.0
 10
937.80785367833073
 20
-1404.9365732006263
 30
0.0
 41
1.0
 10
937.8845781972243
 20
-1405.0268544063017
 30
0.0
 41
0.9970460233520636
 10
937.9465700983842
 20
-1405.1278214904839
 30
0.0
 41
1.0
 10
937.96103946346375
 20
-1405.1513879495651
 30
0.0
 41
1.0
 10
937.9755088285433
 20
-1405.1749544086465
 30
0.0
 41
1.0
 10
938.01524552855506
 20
-1405.2396741326777
 30
0.0
 41
0.9988468816637008
 10
938.0485918993063
 20
-1405.3079065851048
 30
0.0
 41
1.0
 10
938.05562792179842
 20
-1405.3223035062433
 30
0.0
 41
1.0
 10
938.06266394429053
 20
-1405.3367004273821
 30
0.0
 41
1.0
 10
938.08193827005812
 20
-1405.3761390375332
 30
0.0
 41
0.9998431189996929
 10
938.09980359755286
 20
-1405.4162355919732
 30
0.0
 41
1.0
 10
938.11766892506489
 20
-1405.4563321464525
 30
0.0
 41
0.9999989989972418
 10
938.13564764850821
 20
-1405.4963779840837
 30
0.0
 41
1.0
 10
938.14181996008324
 20
-1405.5101262008534
 30
0.0
 41
1.0
 10
938.14799227165827
 20
-1405.5238744176231
 30
0.0
 41
1.0
 10
938.17831561826631
 20
-1405.591416688826
 30
0.0
 41
0.999879035632118
 10
938.20652349840441
 20
-1405.6598694407639
 30
0.0
 41
1.0
 10
938.21335867969003
 20
-1405.6764565421945
 30
0.0
 41
1.0
 10
938.22019386097566
 20
-1405.6930436436251
 30
0.0
 41
1.0
 10
938.24375152335676
 20
-1405.7502115985126
 30
0.0
 41
0.9998227574560588
 10
938.26514027174494
 20
-1405.8082259067869
 30
0.0
 41
1.0
 10
938.28652902013471
 20
-1405.866240215066
 30
0.0
 41
0.9996797971041512
 10
938.30495530509313
 20
-1405.9252623341815
 30
0.0
 41
1.0
 10
938.30885910781876
 20
-1405.9377667923509
 30
0.0
 41
1.0
 10
938.31276291054451
 20
-1405.9502712505205
 30
0.0
 41
1.0
 10
938.33899680095487
 20
-1406.0343022859765
 30
0.0
 41
0.9979274938734355
 10
938.35422132443409
 20
-1406.121006644637
 30
0.0
 41
1.0
 10
938.35644501169531
 20
-1406.1336706454581
 30
0.0
 41
1.0
 10
938.35866869895642
 20
-1406.146334646279
 30
0.0
 41
1.0
 10
938.36959863865445
 20
-1406.2085811535674
 30
0.0
 41
0.9994985982137159
 10
938.37656680383157
 20
-1406.2713946547115
 30
0.0
 41
1.0
 10
938.38353496900834
 20
-1406.3342081558492
 30
0.0
 41
0.9996372611200984
 10
938.38711083477608
 20
-1406.397305734532
 30
0.0
 41
1.0
 10
938.38727941226557
 20
-1406.4002803516159
 30
0.0
 41
1.0
 10
938.38744798975495
 20
-1406.4032549686999
 30
0.0
 41
1.0
 10
938.39136101050144
 20
-1406.472301781545
 30
0.0
 41
0.9997730630735139
 10
938.39232932398932
 20
-1406.5414526055777
 30
0.0
 41
1.0
 10
938.39238643040744
 20
-1406.5455307847208
 30
0.0
 41
1.0
 10
938.39244353682557
 20
-1406.5496089638639
 30
0.0
 41
1.0
 10
938.39352606314969
 20
-1406.626916146186
 30
0.0
 41
0.9998772614072129
 10
938.39218597641809
 20
-1406.7042192927472
 30
0.0
 41
1.0
 10
938.39209671321942
 20
-1406.7093684565816
 30
0.0
 41
1.0
 10
938.39200745002063
 20
-1406.714517620416
 30
0.0
 41
1.0
 10
938.39048883689111
 20
-1406.8021190946581
 30
0.0
 41
0.9999415567322868
 10
938.38707652664527
 20
-1406.8896672563303
 30
0.0
 41
1.0
 10
938.3868352059701
 20
-1406.895858716065
 30
0.0
 41
1.0
 10
938.38659388529481
 20
-1406.9020501758
 30
0.0
 41
1.0
 10
938.38269893369886
 20
-1407.0019812569403
 30
0.0
 41
0.9999716810424117
 10
938.37730035057996
 20
-1407.1018423951734
 30
0.0
 41
1.0
 10
938.37408755179115
 20
-1407.1612716448317
 30
0.0
 41
1.0
 10
938.37087475300234
 20
-1407.2207008944899
 30
0.0
 41
1.0
 10
938.36280084384907
 20
-1407.3700492957814
 30
0.0
 41
0.999981912991207
 10
938.35293105223286
 20
-1407.5192897734855
 30
0.0
 41
1.0
 10
938.34306126061631
 20
-1407.6685302511969
 30
0.0
 41
1.0
 10
938.34062194005242
 20
-1407.7057232970462
 30
0.0
 41
1.0
 10
938.36332017392749
 20
-1407.6669822996421
 30
0.0
 41
0.9999982128193935
 10
938.38616473270929
 20
-1407.6283274056393
 30
0.0
 41
1.0
 10
938.41307429255892
 20
-1407.5827941916436
 30
0.0
 41
1.0
 10
938.43998385240855
 20
-1407.5372609776482
 30
0.0
 41
1.0
 10
938.51664753093155
 20
-1407.4075396555829
 30
0.0
 41
0.9998609190058746
 10
938.59759484379163
 20
-1407.2804472736561
 30
0.0
 41
1.0
 10
938.62724316527374
 20
-1407.2338975406985
 30
0.0
 41
1.0
 10
938.65689148675574
 20
-1407.1873478077409
 30
0.0
 41
1.0
 10
938.7391637069951
 20
-1407.058175237742
 30
0.0
 41
0.9999067609731702
 10
938.82493271646081
 20
-1406.9312975482985
 30
0.0
 41
1.0
 10
938.82733741966035
 20
-1406.9277402822458
 30
0.0
 41
1.0
 10
938.8297421228599
 20
-1406.924183016193
 30
0.0
 41
1.0
 10
938.91070172592447
 20
-1406.8044198588575
 30
0.0
 41
0.99987849521479
 10
938.99535533560618
 20
-1406.6872386421483
 30
0.0
 41
1.0
 10
939.08000894528914
 20
-1406.5700574254377
 30
0.0
 41
0.9998532968284247
 10
939.16862656611295
 20
-1406.4558445169657
 30
0.0
 41
1.0
 10
939.18858835510105
 20
-1406.4301171959494
 30
0.0
 41
1.0
 10
939.20855014408926
 20
-1406.404389874933
 30
0.0
 41
1.0
 10
939.32703419384961
 20
-1406.2516842639623
 30
0.0
 41
0.9991551975795099
 10
939.45765864347482
 20
-1406.1092247018769
 30
0.0
 41
1.0
 10
939.4611682594533
 20
-1406.1053971002539
 30
0.0
 41
1.0
 10
939.46467787543179
 20
-1406.1015694986309
 30
0.0
 41
1.0
 10
939.58828309309672
 20
-1405.9667651397951
 30
0.0
 41
0.9997418144180621
 10
939.71788523279884
 20
-1405.8377157291809
 30
0.0
 41
1.0
 10
939.84748737249856
 20
-1405.7086663185692
 30
0.0
 41
0.9989238204632881
 10
939.98848992074863
 20
-1405.5921813565312
 30
0.0
 41
1.0
 10
940.03373759889155
 20
-1405.5548013649197
 30
0.0
 41
1.0
 10
940.07898527703435
 20
-1405.5174213733083
 30
0.0
 41
1.0
 10
940.21922533425413
 20
-1405.4015663200189
 30
0.0
 41
0.9990825084096954
 10
940.36886526685498
 20
-1405.2981373221883
 30
0.0
 41
1.0
 10
940.3789106309091
 20
-1405.2911941091106
 30
0.0
 41
1.0
 10
940.38895599496323
 20
-1405.284250896033
 30
0.0
 41
1.0
 10
940.51850519945754
 20
-1405.194708324356
 30
0.0
 41
0.9998164899826258
 10
940.65138940283521
 20
-1405.1101940828389
 30
0.0
 41
1.0
 10
940.66323496335917
 20
-1405.1026603163145
 30
0.0
 41
1.0
 10
940.67508052388314
 20
-1405.0951265497902
 30
0.0
 41
1.0
 10
940.78427360621083
 20
-1405.0256798413227
 30
0.0
 41
0.9997473449130689
 10
940.89647756346085
 20
-1404.9612108835067
 30
0.0
 41
1.0
 10
941.00868152070495
 20
-1404.896741925694
 30
0.0
 41
0.999932786114679
 10
941.12235013146881
 20
-1404.8348919340124
 30
0.0
 41
1.0
 10
941.12290213403207
 20
-1404.8345915753318
 30
0.0
 41
1.0
 10
941.12345413659523
 20
-1404.8342912166513
 30
0.0
 41
1.0
 10
941.23822675248164
 20
-1404.7718405076109
 30
0.0
 41
0.9996956420484265
 10
941.35594007832333
 20
-1404.7151270406355
 30
0.0
 41
1.0
 10
941.38638048321604
 20
-1404.7004610639055
 30
0.0
 41
1.0
 10
941.41682088810865
 20
-1404.6857950871756
 30
0.0
 41
1.0
 10
941.51979799485105
 20
-1404.6361814287327
 30
0.0
 41
0.9998070570176726
 10
941.6246443837905
 20
-1404.5906508418325
 30
0.0
 41
1.0
 10
941.72949077272949
 20
-1404.545120254932
 30
0.0
 41
0.9997827436147982
 10
941.83614370933537
 20
-1404.5039990836219
 30
0.0
 41
1.0
 10
941.85536655896976
 20
-1404.4965875099883
 30
0.0
 41
1.0
 10
941.87458940860415
 20
-1404.4891759363547
 30
0.0
 41
1.0
 10
942.01968804447711
 20
-1404.4332316177779
 30
0.0
 41
0.9988031841976705
 10
942.16955840708192
 20
-1404.39173155361
 30
0.0
 41
1.0
 10
942.1944756554459
 20
-1404.384831807803
 30
0.0
 41
1.0
 10
942.21939290380988
 20
-1404.377932061996
 30
0.0
 41
1.0
 10
942.38666292945641
 20
-1404.3316139195895
 30
0.0
 41
0.9984748040550282
 10
942.55801983810409
 20
-1404.3040196873249
 30
0.0
 41
1.0
 10
942.56275897435319
 20
-1404.3032565268113
 30
0.0
 41
1.0
 10
942.56749811060229
 20
-1404.302493366298
 30
0.0
 41
1.0
 10
942.72937674675313
 20
-1404.27642545506
 30
0.0
 41
0.9984436495479823
 10
942.89315149047775
 20
-1404.2685475012413
 30
0.0
 41
1.0
 10
942.91484869860903
 20
-1404.2675038140417
 30
0.0
 41
1.0
 10
942.93654590674032
 20
-1404.266460126842
 30
0.0
 41
1.0
 10
943.05692623420248
 20
-1404.2606695474226
 30
0.0
 41
0.9987954789335357
 10
943.17729447911233
 20
-1404.2667060751648
 30
0.0
 41
1.0
 10
943.19725927160812
 20
-1404.2677073195036
 30
0.0
 41
1.0
 10
943.21722406410402
 20
-1404.2687085638422
 30
0.0
 41
1.0
 10
943.29766272402367
 20
-1404.2727426029073
 30
0.0
 41
0.9997941595877944
 10
943.37787150211659
 20
-1404.2800366688282
 30
0.0
 41
1.0
 10
943.45808028021474
 20
-1404.2873307347497
 30
0.0
 41
0.9998589466236151
 10
943.53799882707324
 20
-1404.2973145892001
 30
0.0
 41
1.0
 10
943.57040502887787
 20
-1404.3013629461188
 30
0.0
 41
1.0
 10
943.60281123068251
 20
-1404.3054113030378
 30
0.0
 41
1.0
 10
943.7475421811514
 20
-1404.3234918713258
 30
0.0
 41
0.9993495063249268
 10
943.8905934249143
 20
-1404.3519575810669
 30
0.0
 41
1.0
 10
943.9235271220673
 20
-1404.3585110442818
 30
0.0
 41
1.0
 10
943.9564608192203
 20
-1404.365064507497
 30
0.0
 41
1.0
 10
944.0657546424269
 20
-1404.3868128416325
 30
0.0
 41
0.9996788715560276
 10
944.17380621438463
 20
-1404.414070640996
 30
0.0
 41
1.0
 10
944.17586921692441
 20
-1404.4145910675691
 30
0.0
 41
1.0
 10
944.1779322194642
 20
-1404.4151114941421
 30
0.0
 41
1.0
 10
944.28185778634236
 20
-1404.4413284403595
 30
0.0
 41
0.999548065449272
 10
944.38402002157045
 20
-1404.4737433969835
 30
0.0
 41
1.0
 10
944.38570966370105
 20
-1404.4742795018979
 30
0.0
 41
1.0
 10
944.38739930583165
 20
-1404.4748156068124
 30
0.0
 41
1.0
 10
944.48618225680082
 20
-1404.5061583536083
 30
0.0
 41
0.9993867959456075
 10
944.58252941524245
 20
-1404.5443377228976
 30
0.0
 41
1.0
 10
944.58377236432545
 20
-1404.5448302647931
 30
0.0
 41
1.0
 10
944.58501531340846
 20
-1404.5453228066885
 30
0.0
 41
1.0
 10
944.67887657368226
 20
-1404.582517092186
 30
0.0
 41
0.9992050256521772
 10
944.76947624871832
 20
-1404.6270709914261
 30
0.0
 41
1.0
 10
944.77021093143162
 20
-1404.6274322838874
 30
0.0
 41
1.0
 10
944.77094561414503
 20
-1404.6277935763487
 30
0.0
 41
1.0
 10
944.86007592375199
 20
-1404.671624890665
 30
0.0
 41
0.9990222350741262
 10
944.94498598514542
 20
-1404.7231581583633
 30
0.0
 41
1.0
 10
944.94516987042812
 20
-1404.7232697612681
 30
0.0
 41
1.0
 10
944.94535375571081
 20
-1404.7233813641728
 30
0.0
 41
1.0
 10
945.02989604653919
 20
-1404.7746914260615
 30
0.0
 41
0.9988642743805022
 10
945.10917058115797
 20
-1404.8338156135867
 30
0.0
 41
1.0
 10
945.18844511577674
 20
-1404.8929398011119
 30
0.0
 41
0.9987681233311231
 10
945.26146890005339
 20
-1404.9596304925128
 30
0.0
 41
1.0
 10
945.2617978280191
 20
-1404.9599308937268
 30
0.0
 41
1.0
 10
945.26212675598481
 20
-1404.960231294941
 30
0.0
 41
1.0
 10
945.33580839619231
 20
-1405.0275227887701
 30
0.0
 41
0.9987496570898684
 10
945.40240220151941
 20
-1405.1018356028567
 30
0.0
 41
1.0
 10
945.40317437127999
 20
-1405.1026972762147
 30
0.0
 41
1.0
 10
945.40394654104057
 20
-1405.1035589495727
 30
0.0
 41
1.0
 10
945.47208468588781
 20
-1405.1795951103738
 30
0.0
 41
0.9988147669826533
 10
945.53250694011274
 20
-1405.2618961172163
 30
0.0
 41
1.0
 10
945.53362626619094
 20
-1405.2634207485694
 30
0.0
 41
1.0
 10
945.53474559226913
 20
-1405.2649453799227
 30
0.0
 41
1.0
 10
945.59740649864955
 20
-1405.3502956494701
 30
0.0
 41
0.9989452636216141
 10
945.65197341161104
 20
-1405.441034338628
 30
0.0
 41
1.0
 10
945.6533221376967
 20
-1405.4432771196541
 30
0.0
 41
1.0
 10
945.65467086378226
 20
-1405.4455199006802
 30
0.0
 41
1.0
 10
945.71193522891485
 20
-1405.5407441518903
 30
0.0
 41
0.9991046436070412
 10
945.76094444223747
 20
-1405.6404685849177
 30
0.0
 41
1.0
 10
945.76240830382699
 20
-1405.6434472649894
 30
0.0
 41
1.0
 10
945.76387216541661
 20
-1405.6464259450609
 30
0.0
 41
1.0
 10
945.81580910191849
 20
-1405.7521077382323
 30
0.0
 41
0.9992763831101611
 10
945.85956223047424
 20
-1405.8614318001892
 30
0.0
 41
1.0
 10
945.86104150013716
 20
-1405.8651279877217
 30
0.0
 41
1.0
 10
945.86252076980008
 20
-1405.8688241752545
 30
0.0
 41
1.0
 10
945.90923243768168
 20
-1405.9855406122779
 30
0.0
 41
0.9994163472884043
 10
945.94786546887065
 20
-1406.1051742007389
 30
0.0
 41
1.0
 10
945.94910362111727
 20
-1406.1090083445215
 30
0.0
 41
1.0
 10
945.95034177336402
 20
-1406.1128424883038
 30
0.0
 41
1.0
 10
945.99022533438188
 20
-1406.2363485497838
 30
0.0
 41
0.9997268055890448
 10
946.02429339029436
 20
-1406.3615835817363
 30
0.0
 41
1.0
 10
946.02522357056341
 20
-1406.3650029478431
 30
0.0
 41
1.0
 10
946.02615375083246
 20
-1406.3684223139501
 30
0.0
 41
1.0
 10
946.05836144620582
 20
-1406.4868186136846
 30
0.0
 41
0.9996701319000434
 10
946.08444706297678
 20
-1406.6067125669506
 30
0.0
 41
1.0
 10
946.11053267974717
 20
-1406.726606520213
 30
0.0
 41
0.9995785451109329
 10
946.12961625708738
 20
-1406.8478122812476
 30
0.0
 41
1.0
 10
946.13383603926093
 20
-1406.8746134360117
 30
0.0
 41
1.0
 10
946.13805582143448
 20
-1406.9014145907756
 30
0.0
 41
1.0
 10
946.16463079737321
 20
-1407.0702005644789
 30
0.0
 41
0.9979925101216277
 10
946.16965638329941
 20
-1407.2409918925703
 30
0.0
 41
1.0
 10
946.17048119572405
 20
-1407.2690226160512
 30
0.0
 41
1.0
 10
946.17130600814869
 20
-1407.2970533395319
 30
0.0
 41
1.0
 10
946.17468196922584
 20
-1407.4117832206609
 30
0.0
 41
0.9995314902262807
 10
946.17103177708725
 20
-1407.526504704414
 30
0.0
 41
1.0
 10
946.16738158494877
 20
-1407.6412261881653
 30
0.0
 41
0.9996245486944555
 10
946.1574524898183
 20
-1407.7555754592854
 30
0.0
 41
1.0
 10
946.15728944182388
 20
-1407.7574532154229
 30
0.0
 41
1.0
 10
946.15712639382946
 20
-1407.7593309715603
 30
0.0
 41
1.0
 10
946.14687120271037
 20
-1407.877435754953
 30
0.0
 41
0.9997286095000642
 10
946.13112587913929
 20
-1407.9949346638443
 30
0.0
 41
1.0
 10
946.1307323864886
 20
-1407.9978710885489
 30
0.0
 41
1.0
 10
946.13033889383792
 20
-1408.0008075132532
 30
0.0
 41
1.0
 10
946.11380658496546
 20
-1408.1241792715527
 30
0.0
 41
0.9998265533968451
 10
946.09269112623269
 20
-1408.2468497463421
 30
0.0
 41
1.0
 10
946.09201458409575
 20
-1408.2507801248485
 30
0.0
 41
1.0
 10
946.09133804195881
 20
-1408.254710503355
 30
0.0
 41
1.0
 10
946.0688694989509
 20
-1408.3852417351634
 30
0.0
 41
0.99990225308519
 10
946.04276003433881
 20
-1408.5150937038125
 30
0.0
 41
1.0
 10
946.04178139317503
 20
-1408.5199608461921
 30
0.0
 41
1.0
 10
946.04080275201125
 20
-1408.5248279885716
 30
0.0
 41
1.0
 10
946.01273600507238
 20
-1408.6644142419761
 30
0.0
 41
0.9999524761939345
 10
945.98195303623743
 20
-1408.8034267351422
 30
0.0
 41
1.0
 10
945.98067692906113
 20
-1408.8091894944482
 30
0.0
 41
1.0
 10
945.97940082188484
 20
-1408.8149522537542
 30
0.0
 41
1.0
 10
945.94606563870298
 20
-1408.9654902655079
 30
0.0
 41
0.9999813588708286
 10
945.91089463790615
 20
-1409.1156099781674
 30
0.0
 41
1.0
 10
945.90934071244828
 20
-1409.1222425685955
 30
0.0
 41
1.0
 10
945.9077867869903
 20
-1409.1288751590239
 30
0.0
 41
1.0
 10
945.86950793528126
 20
-1409.2922600525253
 30
0.0
 41
0.9999955237690646
 10
945.83025205729973
 20
-1409.4554129561359
 30
0.0
 41
1.0
 10
945.8179704216659
 20
-1409.5064571466564
 30
0.0
 41
1.0
 10
945.80568878603208
 20
-1409.5575013371772
 30
0.0
 41
1.0
 10
945.74186963676425
 20
-1409.8227426219057
 30
0.0
 41
0.9999993604222683
 10
945.67745068959232
 20
-1410.0878388726067
 30
0.0
 41
1.0
 10
945.67273185405656
 20
-1410.1072577806008
 30
0.0
 41
1.0
 10
945.66801301852081
 20
-1410.1266766885947
 30
0.0
 41
1.0
 10
945.59415640026123
 20
-1410.4306107553502
 30
0.0
 41
0.9999659914724535
 10
945.51529680437375
 20
-1410.7332853019182
 30
0.0
 41
1.0
 10
945.51034411544379
 20
-1410.752294439098
 30
0.0
 41
1.0
 10
945.50539142651382
 20
-1410.7713035762777
 30
0.0
 41
1.0
 10
945.41662645277006
 20
-1411.1119963971917
 30
0.0
 41
0.9999441976027048
 10
945.32068341980721
 20
-1411.4507378224878
 30
0.0
 41
1.0
 10
945.30398290138055
 20
-1411.5097015350193
 30
0.0
 41
1.0
 10
945.28728238295389
 20
-1411.5686652475511
 30
0.0
 41
1.0
 10
945.15793831313886
 20
-1412.0253340979066
 30
0.0
 41
0.9999625120731456
 10
945.02070554581871
 20
-1412.4796946318918
 30
0.0
 41
1.0
 10
944.98491560273396
 20
-1412.5981906585248
 30
0.0
 41
1.0
 10
944.94912565964921
 20
-1412.7166866851576
 30
0.0
 41
1.0
 10
944.87460545560657
 20
-1412.9634137632652
 30
0.0
 41
0.9999793386325312
 10
944.79691943247121
 20
-1413.2091624024938
 30
0.0
 41
1.0
 10
944.7192334093337
 20
-1413.4549110417299
 30
0.0
 41
1.0
 10
944.708453850463
 20
-1413.4889289461046
 30
0.0
 41
1.0
 10
942.85808079719391
 20
-1419.3760008685722
 30
0.0
 41
1.0
 10
941.0077077439247
 20
-1425.2630727910396
 30
0.0
 41
1.0
 10
940.04645105390114
 20
-1425.2630727910396
 30
0.0
 41
1.0
 10
939.08519436387758
 20
-1425.2630727910396
 30
0.0
 41
1.0
 10
940.70413914255596
 20
-1420.1150442892501
 30
0.0
 41
1.0
 10
942.32308392123446
 20
-1414.9670157874607
 30
0.0
 41
1.0
 10
942.36824974440469
 20
-1414.8229845652038
 30
0.0
 41
1.0
 10
942.41341556757493
 20
-1414.6789533429469
 30
0.0
 41
1.0
 10
942.58371998494204
 20
-1414.1358623137708
 30
0.0
 41
0.9999911657892285
 10
942.74945279662597
 20
-1413.5913587823948
 30
0.0
 41
1.0
 10
942.77914874012833
 20
-1413.493794842338
 30
0.0
 41
1.0
 10
942.8088446836307
 20
-1413.3962309022811
 30
0.0
 41
1.0
 10
942.91518560830878
 20
-1413.0468552510229
 30
0.0
 41
0.9999952428128422
 10
943.01936919763125
 20
-1412.6968302266814
 30
0.0
 41
1.0
 10
943.02442866796537
 20
-1412.6798319524005
 30
0.0
 41
1.0
 10
943.0294881382996
 20
-1412.6628336781193
 30
0.0
 41
1.0
 10
943.123552786956
 20
-1412.3468052023327
 30
0.0
 41
0.9999931687568561
 10
943.21527862482981
 20
-1412.0300899890615
 30
0.0
 41
1.0
 10
943.22021388928908
 20
-1412.0130492797912
 30
0.0
 41
1.0
 10
943.22514915374836
 20
-1411.9960085705211
 30
0.0
 41
1.0
 10
943.30700446270703
 20
-1411.7133747757789
 30
0.0
 41
0.999989384080074
 10
943.3862516891603
 20
-1411.4299986465444
 30
0.0
 41
1.0
 10
943.46549891561813
 20
-1411.1466225172944
 30
0.0
 41
0.9999833980076508
 10
943.5414751563535
 20
-1410.8623519342896
 30
0.0
 41
1.0
 10
943.55047909307984
 20
-1410.8286630557959
 30
0.0
 41
1.0
 10
943.55948302980619
 20
-1410.7949741773025
 30
0.0
 41
1.0
 10
943.62844757867026
 20
-1410.5369383450143
 30
0.0
 41
0.9999233658065484
 10
943.69100254989064
 20
-1410.2772741862914
 30
0.0
 41
1.0
 10
943.75355752111091
 20
-1410.0176100275689
 30
0.0
 41
1.0
 10
943.79304093996848
 20
-1409.8538033631428
 30
0.0
 41
1.0
 10
943.7980195439427
 20
-1409.8331484012851
 30
0.0
 41
1.0
 10
943.80299814791692
 20
-1409.8124934394275
 30
0.0
 41
1.0
 10
943.83252435882628
 20
-1409.6899966987157
 30
0.0
 41
0.9999868670859464
 10
943.86079344282223
 20
-1409.5672037530712
 30
0.0
 41
1.0
 10
943.86469092998141
 20
-1409.5502741656478
 30
0.0
 41
1.0
 10
943.86858841714059
 20
-1409.5333445782244
 30
0.0
 41
1.0
 10
943.88906252682102
 20
-1409.444410807414
 30
0.0
 41
0.9999778173351187
 10
943.9083501249338
 20
-1409.3552121901953
 30
0.0
 41
1.0
 10
943.92763772304795
 20
-1409.2660135729718
 30
0.0
 41
0.9999602692859541
 10
943.94533208167832
 20
-1409.1764852845477
 30
0.0
 41
1.0
 10
943.94853591375681
 20
-1409.1602748296573
 30
0.0
 41
1.0
 10
943.95173974583531
 20
-1409.1440643747671
 30
0.0
 41
1.0
 10
943.97584176862131
 20
-1409.02211517657
 30
0.0
 41
0.9995617985320069
 10
943.99268511583978
 20
-1408.8989534288648
 30
0.0
 41
1.0
 10
943.99514960574606
 20
-1408.8809326114992
 30
0.0
 41
1.0
 10
943.99761409565224
 20
-1408.8629117941337
 30
0.0
 41
1.0
 10
944.0178973567007
 20
-1408.7145967444308
 30
0.0
 41
0.9991121410640059
 10
944.0256227102891
 20
-1408.5651006456246
 30
0.0
 41
1.0
 10
944.02654150031367
 20
-1408.5473208090489
 30
0.0
 41
1.0
 10
944.02746029033813
 20
-1408.5295409724731
 30
0.0
 41
1.0
 10
944.03334806387716
 20
-1408.4156045468201
 30
0.0
 41
0.9989792494906002
 10
944.02892897176002
 20
-1408.3016017109203
 30
0.0
 41
1.0
 10
944.02828099989142
 20
-1408.2848854649947
 30
0.0
 41
1.0
 10
944.02763302802282
 20
-1408.2681692190693
 30
0.0
 41
1.0
 10
944.02450987964266
 20
-1408.1875988750232
 30
0.0
 41
0.9997820295393372
 10
944.01802588226701
 20
-1408.1072291532778
 30
0.0
 41
1.0
 10
944.01154188489124
 20
-1408.0268594315316
 30
0.0
 41
0.9998335105974672
 10
944.00212968937979
 20
-1407.9467798150856
 30
0.0
 41
1.0
 10
944.00053476470339
 20
-1407.9332100846018
 30
0.0
 41
1.0
 10
943.99893984002688
 20
-1407.9196403541177
 30
0.0
 41
1.0
 10
943.98633779516217
 20
-1407.8124212766975
 30
0.0
 41
0.999687645787859
 10
943.96839388236356
 20
-1407.7059658489818
 30
0.0
 41
1.0
 10
943.9661622192184
 20
-1407.6927261137412
 30
0.0
 41
1.0
 10
943.96393055607336
 20
-1407.6794863785003
 30
0.0
 41
1.0
 10
943.95013473465235
 20
-1407.5976402345427
 30
0.0
 41
0.99955474964952
 10
943.93148141275992
 20
-1407.5167627373523
 30
0.0
 41
1.0
 10
943.93110745588842
 20
-1407.5151413266462
 30
0.0
 41
1.0
 10
943.93073349901692
 20
-1407.5135199159399
 30
0.0
 41
1.0
 10
943.91282809086727
 20
-1407.4358852401606
 30
0.0
 41
0.9994899427174295
 10
943.89000318218791
 20
-1407.3595519573269
 30
0.0
 41
1.0
 10
943.8895446554468
 20
-1407.3580185075371
 30
0.0
 41
1.0
 10
943.88908612870569
 20
-1407.3564850577475
 30
0.0
 41
1.0
 10
943.86717827350833
 20
-1407.2832186744915
 30
0.0
 41
0.9993784877590231
 10
943.84016263840203
 20
-1407.2116779693333
 30
0.0
 41
1.0
 10
943.83963094742512
 20
-1407.2102699866127
 30
0.0
 41
1.0
 10
943.83909925644821
 20
-1407.2088620038921
 30
0.0
 41
1.0
 10
943.81314700329528
 20
-1407.1401372641737
 30
0.0
 41
0.9992430832254525
 10
943.78193046813612
 20
-1407.073638112106
 30
0.0
 41
1.0
 10
943.7813483520797
 20
-1407.0723980569892
 30
0.0
 41
1.0
 10
943.78076623602328
 20
-1407.0711580018722
 30
0.0
 41
1.0
 10
943.75071393297685
 20
-1407.0071389600382
 30
0.0
 41
0.9990789632799295
 10
943.71528330620004
 20
-1406.9459323482881
 30
0.0
 41
1.0
 10
943.71468760001767
 20
-1406.9449032624284
 30
0.0
 41
1.0
 10
943.71409189383542
 20
-1406.9438741765687
 30
0.0
 41
1.0
 10
943.67985267942231
 20
-1406.8847257365367
 30
0.0
 41
0.9988874801120632
 10
943.64019340339132
 20
-1406.8290660241205
 30
0.0
 41
1.0
 10
943.63963787732769
 20
-1406.8282863724467
 30
0.0
 41
1.0
 10
943.63908235126394
 20
-1406.8275067207726
 30
0.0
 41
1.0
 10
943.60053412736033
 20
-1406.7734063117041
 30
0.0
 41
0.998676206069311
 10
943.55663165608303
 20
-1406.7235525972637
 30
0.0
 41
1.0
 10
943.55618769575131
 20
-1406.7230484554475
 30
0.0
 41
1.0
 10
943.55574373541958
 20
-1406.7225443136315
 30
0.0
 41
1.0
 10
943.51272918480731
 20
-1406.673698882825
 30
0.0
 41
0.9984621642488807
 10
943.46457162802903
 20
-1406.6299155823533
 30
0.0
 41
1.0
 10
943.46432499351272
 20
-1406.6296913501901
 30
0.0
 41
1.0
 10
943.46407835899629
 20
-1406.6294671180267
 30
0.0
 41
1.0
 10
943.4164140712511
 20
-1406.5861322818821
 30
0.0
 41
0.9982724693852217
 10
943.36399543940979
 20
-1406.5486879313644
 30
0.0
 41
1.0
 10
943.31157680756883
 20
-1406.5112435808471
 30
0.0
 41
0.9981399180158521
 10
943.25499074417519
 20
-1406.4804570614035
 30
0.0
 41
1.0
 10
943.25494508209658
 20
-1406.4804322182463
 30
0.0
 41
1.0
 10
943.25489942001809
 20
-1406.480407375089
 30
0.0
 41
1.0
 10
943.19822203246792
 20
-1406.4495711693312
 30
0.0
 41
0.9980927086836922
 10
943.13817668140155
 20
-1406.4259543604787
 30
0.0
 41
1.0
 10
943.13773651168981
 20
-1406.4257812346036
 30
0.0
 41
1.0
 10
943.13729634197807
 20
-1406.4256081087287
 30
0.0
 41
1.0
 10
943.07637065148788
 20
-1406.4016450481261
 30
0.0
 41
0.9981411356560863
 10
943.01298213008727
 20
-1406.3852724066203
 30
0.0
 41
1.0
 10
943.01210001338666
 20
-1406.385044564415
 30
0.0
 41
1.0
 10
943.01121789668605
 20
-1406.3848167222097
 30
0.0
 41
1.0
 10
942.9460651418832
 20
-1406.367988396293
 30
0.0
 41
0.9983031812935185
 10
942.87939771288757
 20
-1406.3588490351167
 30
0.0
 41
1.0
 10
942.87052668748595
 20
-1406.3576329164457
 30
0.0
 41
1.0
 10
942.86165566208433
 20
-1406.3564167977747
 30
0.0
 41
1.0
 10
942.8073060195785
 20
-1406.3489660677835
 30
0.0
 41
0.9983887708263911
 10
942.75246217028428
 20
-1406.3477213941501
 30
0.0
 41
1.0
 10
942.74439876507051
 20
-1406.3475383962752
 30
0.0
 41
1.0
 10
942.73633535985675
 20
-1406.3473553984004
 30
0.0
 41
1.0
 10
942.69761832099505
 20
-1406.3464767205166
 30
0.0
 41
0.9998869563079441
 10
942.65889236778878
 20
-1406.3467625898763
 30
0.0
 41
1.0
 10
942.62016641454215
 20
-1406.3470484592362
 30
0.0
 41
0.9999972320166541
 10
942.58144223528654
 20
-1406.3475165587661
 30
0.0
 41
1.0
 10
942.562089218751
 20
-1406.347750498855
 30
0.0
 41
1.0
 10
942.54273620221534
 20
-1406.347984438944
 30
0.0
 41
1.0
 10
942.46530598984361
 20
-1406.3489204186517
 30
0.0
 41
0.9997304945087319
 10
942.38800268360478
 20
-1406.3534495124377
 30
0.0
 41
1.0
 10
942.3789530419017
 20
-1406.3539797184276
 30
0.0
 41
1.0
 10
942.3699034001985
 20
-1406.3545099244175
 30
0.0
 41
1.0
 10
942.27450081055133
 20
-1406.3600994301835
 30
0.0
 41
0.9997888306414919
 10
942.17940847470788
 20
-1406.3696043946729
 30
0.0
 41
1.0
 10
942.17068741313608
 20
-1406.3704761093049
 30
0.0
 41
1.0
 10
942.16196635156427
 20
-1406.371347823937
 30
0.0
 41
1.0
 10
942.0494318925754
 20
-1406.3825962176902
 30
0.0
 41
0.9984170238190225
 10
941.93887274522331
 20
-1406.4064122996263
 30
0.0
 41
1.0
 10
941.90249161423731
 20
-1406.4142493354323
 30
0.0
 41
1.0
 10
941.86611048325142
 20
-1406.4220863712383
 30
0.0
 41
1.0
 10
941.75091941483038
 20
-1406.4469002377477
 30
0.0
 41
0.9976592854198741
 10
941.64019124842548
 20
-1406.4871989148951
 30
0.0
 41
1.0
 10
941.52946308201967
 20
-1406.5274975920424
 30
0.0
 41
0.9993255074351625
 10
941.42199128322716
 20
-1406.5758144905358
 30
0.0
 41
1.0
 10
941.41736610430507
 20
-1406.5778938667349
 30
0.0
 41
1.0
 10
941.4127409253831
 20
-1406.5799732429341
 30
0.0
 41
1.0
 10
941.29601876874528
 20
-1406.6324488938262
 30
0.0
 41
0.9976475078274926
 10
941.18757142443451
 20
-1406.7003968834847
 30
0.0
 41
1.0
 10
941.16922903030127
 20
-1406.7118893622983
 30
0.0
 41
1.0
 10
941.15088663616814
 20
-1406.7233818411116
 30
0.0
 41
1.0
 10
941.06668444461548
 20
-1406.7761389618804
 30
0.0
 41
0.9995131336406915
 10
940.98593672965615
 20
-1406.834045173835
 30
0.0
 41
1.0
 10
940.9051890146992
 20
-1406.8919513857877
 30
0.0
 41
0.9995810107606254
 10
940.82792736697081
 20
-1406.9544330682534
 30
0.0
 41
1.0
 10
940.82495733576025
 20
-1406.9568349397182
 30
0.0
 41
1.0
 10
940.82198730454979
 20
-1406.959236811183
 30
0.0
 41
1.0
 10
940.73878559440129
 20
-1407.0265222365779
 30
0.0
 41
0.9996617837954557
 10
940.65919490726583
 20
-1407.0980426921378
 30
0.0
 41
1.0
 10
940.64706415639353
 20
-1407.1089434251244
 30
0.0
 41
1.0
 10
940.63493340552122
 20
-1407.1198441581107
 30
0.0
 41
1.0
 10
940.56665787811858
 20
-1407.1811967735885
 30
0.0
 41
0.9997267750053495
 10
940.5013243698304
 20
-1407.245673310118
 30
0.0
 41
1.0
 10
940.43599086154632
 20
-1407.3101498466435
 30
0.0
 41
0.9999667288965898
 10
940.37171791839887
 20
-1407.3756836535388
 30
0.0
 41
1.0
 10
940.30289047062433
 20
-1407.4458613122965
 30
0.0
 41
1.0
 10
940.2340630228498
 20
-1407.5160389710541
 30
0.0
 41
1.0
 10
940.03213518415248
 20
-1407.7219280954655
 30
0.0
 41
0.9988205335174978
 10
939.85112956717217
 20
-1407.9464323275272
 30
0.0
 41
1.0
 10
939.82048960226814
 20
-1407.9844355779564
 30
0.0
 41
1.0
 10
939.78984963736411
 20
-1408.0224388283855
 30
0.0
 41
1.0
 10
939.54756409057563
 20
-1408.3229495613054
 30
0.0
 41
0.9997077826755412
 10
939.32008613947335
 20
-1408.6348193555175
 30
0.0
 41
1.0
 10
939.31836272434111
 20
-1408.6371821388993
 30
0.0
 41
1.0
 10
939.31663930920899
 20
-1408.6395449222814
 30
0.0
 41
1.0
 10
939.08571452784213
 20
-1408.9561402832578
 30
0.0
 41
0.9989147567078871
 10
938.88525102495782
 20
-1409.2928497444441
 30
0.0
 41
1.0
 10
938.86050987965291
 20
-1409.3344063249933
 30
0.0
 41
1.0
 10
938.83576873434799
 20
-1409.3759629055423
 30
0.0
 41
1.0
 10
938.68055743570892
 20
-1409.636664289998
 30
0.0
 41
0.9997476598182256
 10
938.53721244819849
 20
-1409.9040740385817
 30
0.0
 41
1.0
 10
938.39386746068885
 20
-1410.1714837871641
 30
0.0
 41
0.9996258967109089
 10
938.26535920875699
 20
-1410.4463317237885
 30
0.0
 41
1.0
 10
938.25215929930482
 20
-1410.4745631238893
 30
0.0
 41
1.0
 10
938.23895938985265
 20
-1410.5027945239904
 30
0.0
 41
1.0
 10
938.0987506688557
 20
-1410.8026669219375
 30
0.0
 41
0.9998735413945613
 10
937.96814932213738
 20
-1411.1068465214007
 30
0.0
 41
1.0
 10
937.96470649407308
 20
-1411.1148651068743
 30
0.0
 41
1.0
 10
937.96126366600879
 20
-1411.1228836923478
 30
0.0
 41
1.0
 10
937.83754797541383
 20
-1411.4110261208757
 30
0.0
 41
0.9999377418858623
 10
937.72029317324223
 20
-1411.7018575885431
 30
0.0
 41
1.0
 10
937.60303837106551
 20
-1411.9926890562228
 30
0.0
 41
0.9999508299509609
 10
937.49157442768796
 20
-1412.2857887330454
 30
0.0
 41
1.0
 10
937.4884936590264
 20
-1412.293889759007
 30
0.0
 41
1.0
 10
937.48541289036484
 20
-1412.3019907849684
 30
0.0
 41
1.0
 10
937.36778740966338
 20
-1412.6112925137149
 30
0.0
 41
0.9999609228433611
 10
937.2556488067894
 20
-1412.9226255297306
 30
0.0
 41
1.0
 10
937.25269279643931
 20
-1412.9308323701412
 30
0.0
 41
1.0
 10
937.24973678608922
 20
-1412.939039210552
 30
0.0
 41
1.0
 10
937.13168616251278
 20
-1413.2667859073954
 30
0.0
 41
0.9999674607402643
 10
937.01893863644489
 20
-1413.59639452739
 30
0.0
 41
1.0
 10
936.96754024588654
 20
-1413.7466537230698
 30
0.0
 41
1.0
 10
936.91614185532808
 20
-1413.8969129187499
 30
0.0
 41
1.0
 10
936.80013124856748
 20
-1414.2360609012608
 30
0.0
 41
0.9999287532305983
 10
936.69224984459424
 20
-1414.577881640244
 30
0.0
 41
1.0
 10
936.6457725884751
 20
-1414.7251441845515
 30
0.0
 41
1.0
 10
936.59929533235595
 20
-1414.872406728859
 30
0.0
 41
1.0
 10
936.5843684406409
 20
-1414.9197023791644
 30
0.0
 41
0.9999998223054231
 10
936.56949793189301
 20
-1414.9670157874607
 30
0.0
 41
1.0
 10
934.94884179509756
 20
-1420.1150442892501
 30
0.0
 41
1.0
 10
933.32818565830212
 20
-1425.2630727910396
 30
0.0
 41
1.0
 10
932.42287721441119
 20
-1425.2630727910396
 30
0.0
 41
1.0
 10
931.51756877052026
 20
-1425.2630727910396
 30
0.0
 41
1.0
 10
933.3696531819063
 20
-1419.3760008685722
 30
0.0
 41
1.0
 10
935.22173759329235
 20
-1413.4889289461046
 30
0.0
 41
1.0
 10
935.23185935159506
 20
-1413.4568857326549
 30
0.0
 41
1.0
 10
935.3044670204448
 20
-1413.226586190829
 30
0.0
 41
1.0
 10
935.37707468928988
 20
-1412.9962866490177
 30
0.0
 41
0.9999825681963102
 10
935.4469577284973
 20
-1412.7651457539671
 30
0.0
 41
1.0
 10
935.49524879065746
 20
-1412.6054211704732
 30
0.0
 41
1.0
 10
935.54353985281762
 20
-1412.4456965869795
 30
0.0
 41
1.0
 10
935.64069220613669
 20
-1412.1243613651973
 30
0.0
 41
0.9999672528970581
 10
935.7326310117669
 20
-1411.8014958195881
 30
0.0
 41
1.0
 10
935.73541989543651
 20
-1411.7917019741985
 30
0.0
 41
1.0
 10
935.73820877910623
 20
-1411.7819081288089
 30
0.0
 41
1.0
 10
935.82456981738744
 20
-1411.4786302740119
 30
0.0
 41
0.9999899749153135
 10
935.90821142692494
 20
-1411.1745911855496
 30
0.0
 41
1.0
 10
935.91831734594257
 20
-1411.1378559478708
 30
0.0
 41
1.0
 10
935.9284232649602
 20
-1411.1011207101919
 30
0.0
 41
1.0
 10
935.99185303645925
 20
-1410.8705520970989
 30
0.0
 41
0.9999214200503028
 10
936.04948246483741
 20
-1410.6384657548879
 30
0.0
 41
1.0
 10
936.06224831702059
 20
-1410.5870548694811
 30
0.0
 41
1.0
 10
936.07501416920377
 20
-1410.5356439840743
 30
0.0
 41
1.0
 10
936.10711189321955
 20
-1410.40637941266
 30
0.0
 41
0.9999828681664491
 10
936.1376941452105
 20
-1410.276747938211
 30
0.0
 41
1.0
 10
936.16827639720543
 20
-1410.1471164637451
 30
0.0
 41
0.9999389844480446
 10
936.1959873859945
 20
-1410.0168410078463
 30
0.0
 41
1.0
 10
936.20312512971509
 20
-1409.9832849040074
 30
0.0
 41
1.0
 10
936.21026287343557
 20
-1409.9497288001685
 30
0.0
 41
1.0
 10
936.25224934966502
 20
-1409.7523411365946
 30
0.0
 41
0.9998933699441946
 10
936.28845361406707
 20
-1409.5538115288371
 30
0.0
 41
1.0
 10
936.28982643928362
 20
-1409.5462835081394
 30
0.0
 41
1.0
 10
936.29119926450016
 20
-1409.5387554874419
 30
0.0
 41
1.0
 10
936.33014917933474
 20
-1409.3251698382921
 30
0.0
 41
0.9996850305194082
 10
936.35833285559386
 20
-1409.1098988328533
 30
0.0
 41
1.0
 10
936.36032788896296
 20
-1409.0946604787327
 30
0.0
 41
1.0
 10
936.36232292233205
 20
-1409.0794221246122
 30
0.0
 41
1.0
 10
936.38973078479171
 20
-1408.8700768974543
 30
0.0
 41
0.9994697936706802
 10
936.40345534401104
 20
-1408.6593917021241
 30
0.0
 41
1.0
 10
936.40393241326069
 20
-1408.6520682299129
 30
0.0
 41
1.0
 10
936.40440948251046
 20
-1408.6447447577016
 30
0.0
 41
1.0
 10
936.41717990323082
 20
-1408.448706506792
 30
0.0
 41
0.9991804893136633
 10
936.41405158695784
 20
-1408.2522776568201
 30
0.0
 41
1.0
 10
936.41396770813571
 20
-1408.2470108554071
 30
0.0
 41
1.0
 10
936.41388382931359
 20
-1408.2417440539939
 30
0.0
 41
1.0
 10
936.41092327068509
 20
-1408.0558488068461
 30
0.0
 41
0.9988448329321711
 10
936.39013172506134
 20
-1407.8710962170132
 30
0.0
 41
1.0
 10
936.38853765135809
 20
-1407.8569313612409
 30
0.0
 41
1.0
 10
936.38694357765496
 20
-1407.8427665054685
 30
0.0
 41
1.0
 10
936.3693401794377
 20
-1407.6863436271799
 30
0.0
 41
0.9985503209457927
 10
936.33502390713807
 20
-1407.5327194430906
 30
0.0
 41
1.0
 10
936.32743791506709
 20
-1407.4987591156919
 30
0.0
 41
1.0
 10
936.31985192299624
 20
-1407.4647987882929
 30
0.0
 41
1.0
 10
936.300707634839
 20
-1407.3790952590041
 30
0.0
 41
0.9991036781371003
 10
936.2743827731872
 20
-1407.2953181716764
 30
0.0
 41
1.0
 10
936.27040054773101
 20
-1407.2826450091652
 30
0.0
 41
1.0
 10
936.26641832227483
 20
-1407.269971846654
 30
0.0
 41
1.0
 10
936.24805791153574
 20
-1407.2115410843505
 30
0.0
 41
0.9998874504368696
 10
936.22795270385768
 20
-1407.1536874821281
 30
0.0
 41
1.0
 10
936.20784749617826
 20
-1407.0958338799028
 30
0.0
 41
0.9994041637544384
 10
936.18379888324409
 20
-1407.0395051760129
 30
0.0
 41
1.0
 10
936.17960209902037
 20
-1407.0296751115318
 30
0.0
 41
1.0
 10
936.17540531479665
 20
-1407.0198450470507
 30
0.0
 41
1.0
 10
936.14752648380215
 20
-1406.9545448810836
 30
0.0
 41
0.9991846840701656
 10
936.11447012710926
 20
-1406.8917068498038
 30
0.0
 41
1.0
 10
936.11333352071449
 20
-1406.8895462333496
 30
0.0
 41
1.0
 10
936.11219691431972
 20
-1406.8873856168955
 30
0.0
 41
1.0
 10
936.08141377041682
 20
-1406.8288688185248
 30
0.0
 41
0.9989253167923567
 10
936.04534434636116
 20
-1406.7734538901332
 30
0.0
 41
1.0
 10
936.04429022168711
 20
-1406.7718343953711
 30
0.0
 41
1.0
 10
936.04323609701316
 20
-1406.7702149006093
 30
0.0
 41
1.0
 10
936.00927492230687
 20
-1406.7180389617442
 30
0.0
 41
0.9986467172838246
 10
935.97007776966893
 20
-1406.6696729281134
 30
0.0
 41
1.0
 10
935.9692036409682
 20
-1406.6685943258353
 30
0.0
 41
1.0
 10
935.96832951226747
 20
-1406.667515723557
 30
0.0
 41
1.0
 10
935.93088061703133
 20
-1406.6213068944837
 30
0.0
 41
0.998400110426685
 10
935.8884538865143
 20
-1406.5796217871152
 30
0.0
 41
1.0
 10
935.88786674840503
 20
-1406.5790449122342
 30
0.0
 41
1.0
 10
935.88727961029588
 20
-1406.5784680373531
 30
0.0
 41
1.0
 10
935.84602715599783
 20
-1406.537936679747
 30
0.0
 41
0.9982442159082329
 10
935.80027105466161
 20
-1406.5025681184861
 30
0.0
 41
1.0
 10
935.80005625919966
 20
-1406.5024020858427
 30
0.0
 41
1.0
 10
935.79984146373772
 20
-1406.5022360531993
 30
0.0
 41
1.0
 10
935.75451495332584
 20
-1406.467199557226
 30
0.0
 41
0.9982450060837239
 10
935.70536397425417
 20
-1406.4377677741923
 30
0.0
 41
1.0
 10
935.65621299518284
 20
-1406.408335991159
 30
0.0
 41
0.9983922639635469
 10
935.60404668901776
 20
-1406.3846563565048
 30
0.0
 41
1.0
 10
935.60381981169326
 20
-1406.3845533710232
 30
0.0
 41
1.0
 10
935.60359293436863
 20
-1406.3844503855419
 30
0.0
 41
1.0
 10
935.55097287355488
 20
-1406.360564779925
 30
0.0
 41
0.9986517147150245
 10
935.49615990068673
 20
-1406.3422636608032
 30
0.0
 41
1.0
 10
935.49548197925901
 20
-1406.3420373143717
 30
0.0
 41
1.0
 10
935.49480405783129
 20
-1406.3418109679403
 30
0.0
 41
1.0
 10
935.43863524210849
 20
-1406.3230571559561
 30
0.0
 41
0.9989435598957154
 10
935.38098185495801
 20
-1406.3095394537215
 30
0.0
 41
1.0
 10
935.37990173537537
 20
-1406.3092862034682
 30
0.0
 41
1.0
 10
935.37882161579273
 20
-1406.3090329532151
 30
0.0
 41
1.0
 10
935.31900798947754
 20
-1406.2950087504746
 30
0.0
 41
0.9992249241240599
 10
935.25827648058032
 20
-1406.2857334077592
 30
0.0
 41
1.0
 10
935.25686279228944
 20
-1406.2855174993515
 30
0.0
 41
1.0
 10
935.25544910399856
 20
-1406.2853015909436
 30
0.0
 41
1.0
 10
935.19189021851867
 20
-1406.2755944314129
 30
0.0
 41
0.9994396597833741
 10
935.12782428198057
 20
-1406.2701615090671
 30
0.0
 41
1.0
 10
935.10868361450355
 20
-1406.2685383413486
 30
0.0
 41
1.0
 10
935.08954294702653
 20
-1406.26691517363
 30
0.0
 41
1.0
 10
934.98719567553417
 20
-1406.2582359158469
 30
0.0
 41
0.998769340312162
 10
934.8844920519474
 20
-1406.2597389792993
 30
0.0
 41
1.0
 10
934.87423771771842
 20
-1406.2598890510735
 30
0.0
 41
1.0
 10
934.86398338348943
 20
-1406.2600391228477
 30
0.0
 41
1.0
 10
934.7544276173121
 20
-1406.2616424671353
 30
0.0
 41
0.9989753644966073
 10
934.64546561729708
 20
-1406.2731454740606
 30
0.0
 41
1.0
 10
934.53650361727955
 20
-1406.2846484809859
 30
0.0
 41
0.9983190067305424
 10
934.42960480631359
 20
-1406.3086834727728
 30
0.0
 41
1.0
 10
934.42070385470788
 20
-1406.3106847513354
 30
0.0
 41
1.0
 10
934.41180290310217
 20
-1406.3126860298978
 30
0.0
 41
1.0
 10
934.2871021889232
 20
-1406.34072357881
 30
0.0
 41
0.9985539388302652
 10
934.16613243524512
 20
-1406.3819872548559
 30
0.0
 41
1.0
 10
934.16378700428515
 20
-1406.3827872986717
 30
0.0
 41
1.0
 10
934.16144157332519
 20
-1406.3835873424873
 30
0.0
 41
1.0
 10
934.03578095772764
 20
-1406.4264511061642
 30
0.0
 41
0.9988468746493737
 10
933.91481061542822
 20
-1406.4811691912259
 30
0.0
 41
1.0
 10
933.91162779343858
 20
-1406.4826088657865
 30
0.0
 41
1.0
 10
933.90844497144894
 20
-1406.4840485403467
 30
0.0
 41
1.0
 10
933.78110898517116
 20
-1406.541645974529
 30
0.0
 41
0.9991322885918755
 10
933.6590084011151
 20
-1406.6096413067107
 30
0.0
 41
1.0
 10
933.64140639006996
 20
-1406.6194435087011
 30
0.0
 41
1.0
 10
933.62380437902482
 20
-1406.6292457106915
 30
0.0
 41
1.0
 10
933.52162769796848
 20
-1406.6861458264716
 30
0.0
 41
0.9993860037849144
 10
933.423686693896
 20
-1406.7500618420597
 30
0.0
 41
1.0
 10
933.41806838103753
 20
-1406.7537283367587
 30
0.0
 41
1.0
 10
933.41245006817917
 20
-1406.7573948314575
 30
0.0
 41
1.0
 10
933.32574568981659
 20
-1406.8139778576522
 30
0.0
 41
0.9998821494954426
 10
933.24081931400974
 20
-1406.8731960877249
 30
0.0
 41
1.0
 10
933.15589293819244
 20
-1406.9324143178048
 30
0.0
 41
0.9997976482744052
 10
933.07341730778421
 20
-1406.9950007258503
 30
0.0
 41
1.0
 10
933.05878104298381
 20
-1407.0061074156267
 30
0.0
 41
1.0
 10
933.04414477818352
 20
-1407.0172141054031
 30
0.0
 41
1.0
 10
932.93239661816961
 20
-1407.1020138930048
 30
0.0
 41
0.9998091630800315
 10
932.82404634013938
 20
-1407.1911142437082
 30
0.0
 41
1.0
 10
932.81104058766357
 20
-1407.2018093441529
 30
0.0
 41
1.0
 10
932.79803483518776
 20
-1407.2125044445979
 30
0.0
 41
1.0
 10
932.66367305220217
 20
-1407.3229949961944
 30
0.0
 41
0.999503511231748
 10
932.53653717443706
 20
-1407.4417288132111
 30
0.0
 41
1.0
 10
932.52688986405224
 20
-1407.4507385593665
 30
0.0
 41
1.0
 10
932.5172425536673
 20
-1407.4597483055222
 30
0.0
 41
1.0
 10
932.39381949090239
 20
-1407.575014677278
 30
0.0
 41
0.9994630424299369
 10
932.2782110851183
 20
-1407.6981174205132
 30
0.0
 41
1.0
 10
932.2745282463477
 20
-1407.7020390000253
 30
0.0
 41
1.0
 10
932.27084540757721
 20
-1407.7059605795373
 30
0.0
 41
1.0
 10
932.16260267933535
 20
-1407.8212201637471
 30
0.0
 41
0.9995160693749906
 10
932.06173664980236
 20
-1407.9429875816209
 30
0.0
 41
1.0
 10
932.05980292972163
 20
-1407.945322005829
 30
0.0
 41
1.0
 10
932.05786920964101
 20
-1407.9476564300371
 30
0.0
 41
1.0
 10
931.96087062027095
 20
-1408.0647549994928
 30
0.0
 41
0.9996561470514485
 10
931.87014440160453
 20
-1408.1867777619427
 30
0.0
 41
1.0
 10
931.86398673570466
 20
-1408.195059550982
 30
0.0
 41
1.0
 10
931.85782906980489
 20
-1408.2033413400216
 30
0.0
 41
1.0
 10
931.7794181829405
 20
-1408.3088005243894
 30
0.0
 41
0.9998349055175018
 10
931.70489090100637
 20
-1408.4170391080552
 30
0.0
 41
1.0
 10
931.63036361907075
 20
-1408.5252776917241
 30
0.0
 41
0.9999728109573848
 10
931.557440723166
 20
-1408.6346036172711
 30
0.0
 41
1.0
 10
931.55612550775322
 20
-1408.6365753867749
 30
0.0
 41
1.0
 10
931.55481029234056
 20
-1408.6385471562789
 30
0.0
 41
1.0
 10
931.47925696558627
 20
-1408.7518166208706
 30
0.0
 41
0.9999972147460084
 10
931.4042391551925
 20
-1408.865441463736
 30
0.0
 41
1.0
 10
931.39926761259039
 20
-1408.8729715521777
 30
0.0
 41
1.0
 10
931.39429606998817
 20
-1408.8805016406195
 30
0.0
 41
1.0
 10
931.30933517436688
 20
-1409.0091866604039
 30
0.0
 41
0.9999371979005746
 10
931.22727982496156
 20
-1409.1397435741833
 30
0.0
 41
1.0
 10
931.2237709406013
 20
-1409.1453265022458
 30
0.0
 41
1.0
 10
931.22026205624115
 20
-1409.1509094303083
 30
0.0
 41
1.0
 10
931.13118893811179
 20
-1409.2926322002181
 30
0.0
 41
0.9998272025611418
 10
931.0474455472314
 20
-1409.4375680769576
 30
0.0
 41
1.0
 10
931.03223037520684
 20
-1409.4639011914151
 30
0.0
 41
1.0
 10
931.01701520318238
 20
-1409.4902343058725
 30
0.0
 41
1.0
 10
930.90284146825195
 20
-1409.6878364115291
 30
0.0
 41
0.9995217214838064
 10
930.80110177869619
 20
-1409.8921187393914
 30
0.0
 41
1.0
 10
930.7934582160633
 20
-1409.90746618909
 30
0.0
 41
1.0
 10
930.78581465343041
 20
-1409.9228136387887
 30
0.0
 41
1.0
 10
930.69890936083891
 20
-1410.0973100968736
 30
0.0
 41
0.9998269762609202
 10
930.6185548945648
 20
-1410.2749183836013
 30
0.0
 41
1.0
 10
930.53820042829454
 20
-1410.4525266703206
 30
0.0
 41
0.9998944747387638
 10
930.46303963373157
 20
-1410.6323943959455
 30
0.0
 41
1.0
 10
930.45808596413713
 20
-1410.6442490508709
 30
0.0
 41
1.0
 10
930.45313229454257
 20
-1410.6561037057963
 30
0.0
 41
1.0
 10
930.37248523398932
 20
-1410.8491006458162
 30
0.0
 41
0.9999506734410982
 10
930.29568770508899
 20
-1411.0436614506643
 30
0.0
 41
1.0
 10
930.28108773981705
 20
-1411.0806493724731
 30
0.0
 41
1.0
 10
930.26648777454511
 20
-1411.1176372942816
 30
0.0
 41
1.0
 10
930.21889017618173
 20
-1411.2382222555298
 30
0.0
 41
0.9999912393922587
 10
930.17230373216285
 20
-1411.3592014582161
 30
0.0
 41
1.0
 10
930.1257172881426
 20
-1411.4801806609069
 30
0.0
 41
0.9999927113997817
 10
930.08005599376031
 20
-1411.6015120683765
 30
0.0
 41
1.0
 10
930.06608756235551
 20
-1411.6386290503942
 30
0.0
 41
1.0
 10
930.05211913095081
 20
-1411.6757460324118
 30
0.0
 41
1.0
 10
929.97852097376347
 20
-1411.8713114039051
 30
0.0
 41
0.9999487550951756
 10
929.9088973487942
 20
-1412.0683267690806
 30
0.0
 41
1.0
 10
929.88530373885737
 20
-1412.1350900793732
 30
0.0
 41
1.0
 10
929.86171012892066
 20
-1412.2018533896655
 30
0.0
 41
1.0
 10
929.76702449454547
 20
-1412.4697872245038
 30
0.0
 41
0.9999808436943467
 10
929.67566290590366
 20
-1412.738872655769
 30
0.0
 41
1.0
 10
929.58430131727505
 20
-1413.0079580869956
 30
0.0
 41
0.9999873932907344
 10
929.49564660856265
 20
-1413.277947441991
 30
0.0
 41
1.0
 10
929.47555425168412
 20
-1413.3391367747718
 30
0.0
 41
1.0
 10
929.45546189480547
 20
-1413.4003261075527
 30
0.0
 41
1.0
 10
929.32662247234305
 20
-1413.7926941280882
 30
0.0
 41
0.9999794883036763
 10
929.20281968737845
 20
-1414.186680334388
 30
0.0
 41
1.0
 10
929.19166742794675
 20
-1414.2221709446067
 30
0.0
 41
1.0
 10
929.18051516851506
 20
-1414.2576615548251
 30
0.0
 41
1.0
 10
929.03795700462206
 20
-1414.7113343068977
 30
0.0
 41
0.9999982761780545
 10
928.89708456460289
 20
-1415.165533329033
 30
0.0
 41
1.0
 10
927.30894423203029
 20
-1420.2143030600364
 30
0.0
 41
1.0
 10
925.72080389945768
 20
-1425.2630727910396
 30
0.0
 41
1.0
 10
924.77205328798129
 20
-1425.2630727910396
 30
0.0
 41
1.0
 10
923.82330267650491
 20
-1425.2630727910396
 30
0.0
 41
1.0
 10
927.06158716265804
 20
-1414.9357505910934
 30
0.0
 41
1.0
 10
930.29987164881129
 20
-1404.6084283911473
 30
0.0
 41
1.0
  0
LWPOLYLINE
  5
52
100
AcDbEntity
  8
0
370
              15
390
0
  6
Continuous
 62
               7
100
AcDbPolyline
 90
      232
 70
             128
 10
904.59632587498425
 20
-1405.6927712226625
 42
0.0004370800691959
 10
904.54344870091234
 20
-1405.7614378619185
 10
904.50416446978477
 20
-1405.8125449748154
 42
0.0030481992182682
 10
904.37382575262939
 20
-1405.9842666672077
 10
904.33531408091517
 20
-1406.0356534509476
 42
0.0042058245756988
 10
904.13132903026974
 20
-1406.3126591959876
 10
904.07892390774464
 20
-1406.3850920428022
 42
0.0120948898742033
 10
903.78287999098779
 20
-1406.8158416473441
 10
903.68668749185724
 20
-1406.9633223825822
 42
0.0141601263949857
 10
903.38304344493929
 20
-1407.4589917193114
 10
903.34350617751545
 20
-1407.5278356867393
 42
0.0071131081298959
 10
903.13823385427486
 20
-1407.8973384855813
 42
0.006845879100065
 10
902.94335432743731
 20
-1408.2724300490465
 10
902.93654246497408
 20
-1408.2859917627811
 42
0.0064120880291788
 10
902.73840021492765
 20
-1408.6934162377045
 10
902.73086552941277
 20
-1408.7094280944211
 42
0.0058857236446621
 10
902.52811013754763
 20
-1409.1538042054412
 10
902.51993521124712
 20
-1409.1722943590901
 42
0.0053189741898597
 10
902.31123089857454
 20
-1409.6582578330201
 10
902.30248309289823
 20
-1409.679239711204
 42
0.0047503650418258
 10
902.08650936674155
 20
-1410.2114391444286
 10
902.07724111839934
 20
-1410.2349155205216
 42
0.0042071762169229
 10
901.85269373467156
 20
-1410.8180091145916
 10
901.84294433232299
 20
-1410.843975289461
 42
0.0036680086485583
 10
901.60848968900348
 20
-1411.4826106740131
 10
901.59828190916312
 20
-1411.511059208337
 42
0.0032573142627999
 10
901.35264962319297
 20
-1412.2099118681003
 10
901.28399910234373
 20
-1412.4093749521783
 42
0.0026133366650678
 10
900.93555390359779
 20
-1413.4392382358151
 10
900.87229711611883
 20
-1413.6294690711427
 42
0.0020592950739767
 10
900.65843404712996
 20
-1414.2815727238212
 10
900.65538225595492
 20
-1414.2910092122679
 42
0.002560992853558
 10
900.45356175448103
 20
-1414.9261544345968
 10
900.45097038736401
 20
-1414.9344567755063
 42
0.0031362356240584
 10
900.26147960167737
 20
-1415.5552196317169
 10
900.2593485587505
 20
-1415.5623609379261
 42
0.0037229918025463
 10
900.08254817182365
 20
-1416.1713462399021
 10
900.08086958261583
 20
-1416.1772931300816
 42
0.0043077623709361
 10
899.91712878055216
 20
-1416.7771118618457
 42
0.0047654161823734
 10
899.7643000580357
 20
-1417.3797979507499
 10
899.72983544919703
 20
-1417.5213597278976
 42
0.0112969368445368
 10
899.53397109105254
 20
-1418.4130518885272
 10
899.50596470195683
 20
-1418.5558799346197
 42
0.0130056762570148
 10
899.30512745831015
 20
-1419.7428210062646
 10
899.28458770816303
 20
-1419.8868991197423
 42
0.013872153214434
 10
899.18088470362522
 20
-1420.7937286055674
 10
899.16158921571719
 20
-1421.0172263274935
 42
0.0071254697008242
 10
899.12824256979479
 20
-1421.4804133363396
 10
899.12328159563037
 20
-1421.5664173309192
 42
0.0028881799205744
 10
899.10814330234166
 20
-1421.8581590407425
 42
0.0060297297134317
 10
899.09821110256621
 20
-1422.1501079768525
 10
899.09714882089895
 20
-1422.1985003487941
 42
0.022952316416052
 10
899.10487984868473
 20
-1422.521255195074
 10
899.10910562220545
 20
-1422.581658729094
 42
0.0123673300678824
 10
899.12818426872343
 20
-1422.782779454265
 42
0.0128577674470041
 10
899.15737965912945
 20
-1422.9826773041902
 10
899.16450553251673
 20
-1423.0240061187887
 42
0.0285717853763926
 10
899.22899953421245
 20
-1423.3021222701018
 10
899.24266805787886
 20
-1423.3487770395791
 42
0.0316283099153373
 10
899.35847863779304
 20
-1423.667791541405
 10
899.36152732954861
 20
-1423.6747779137306
 42
0.0338984824234845
 10
899.51095904051579
 20
-1423.9623438779197
 10
899.51326776988617
 20
-1423.9661349071964
 42
0.0350228718351254
 10
899.69562806055922
 20
-1424.2231868918725
 10
899.6965133123341
 20
-1424.2242659696365
 42
0.0347476747530243
 10
899.91093799957434
 20
-1424.4514510168565
 42
0.0331337701908588
 10
900.15418132532091
 20
-1424.6475796789343
 10
900.15528142383687
 20
-1424.6483523821066
 42
0.0305233319079248
 10
900.42382611941002
 20
-1424.8134805521977
 10
900.4270561639114
 20
-1424.8152045640604
 42
0.0273744481157136
 10
900.71960987548698
 20
-1424.9513427079514
 10
900.72471441062328
 20
-1424.9533862924206
 42
0.0240964406197581
 10
901.04019148627094
 20
-1425.0623700187025
 10
901.04677481547901
 20
-1425.0642947583769
 42
0.0209636179813253
 10
901.38417496813292
 20
-1425.1477629063095
 10
901.39180742858025
 20
-1425.1493148193106
 42
0.0181388704693376
 10
901.75012982057876
 20
-1425.2087309125245
 10
901.75841066895691
 20
-1425.2097970963416
 42
0.0156086547586063
 10
902.13659803314567
 20
-1425.2465332829183
 10
902.17979328547915
 20
-1425.2493717853977
 42
0.0137148329026478
 10
902.50746643077161
 20
-1425.2618920406485
 10
902.55340262071343
 20
-1425.2623864737636
 42
0.0051057823887168
 10
902.78954820728984
 20
-1425.2625167281731
 42
0.0052256693311858
 10
903.02564549107444
 20
-1425.2577679037086
 10
903.09587227481791
 20
-1425.2556209376946
 42
0.0161507179048001
 10
903.47160935291924
 20
-1425.2319705673681
 10
903.49162231329228
 20
-1425.2300603720805
 42
0.0101216737832733
 10
903.90564953478167
 20
-1425.1820674417152
 10
903.93970282420969
 20
-1425.1774197449054
 42
0.0245291776397622
 10
904.41649247975909
 20
-1425.0883446668295
 10
904.50131579528295
 20
-1425.0681487464838
 42
0.0143509212559003
 10
904.85794689922443
 20
-1424.9723441127044
 42
0.0156557857041937
 10
905.20816296395094
 20
-1424.8553328968858
 10
905.21566417844633
 20
-1424.8525627351314
 42
0.0170137333631318
 10
905.57226017412859
 20
-1424.70690512026
 10
905.57936409653519
 20
-1424.7037172846967
 42
0.0183105364409703
 10
905.93871376470281
 20
-1424.5263822428717
 10
905.94566052934022
 20
-1424.5226318080004
 42
0.0194899958149863
 10
906.30414127032441
 20
-1424.3106528261094
 10
906.31115514966086
 20
-1424.3061274838146
 42
0.0204869852948138
 10
906.66516945175306
 20
-1424.0566074687301
 10
906.67243506034185
 20
-1424.0510274033804
 42
0.0212516938555694
 10
907.01842499145016
 20
-1423.7611234064855
 10
907.0649416855241
 20
-1423.7186560963935
 42
0.0215248918250838
 10
907.32496785441322
 20
-1423.4598918173974
 10
907.36999758879824
 20
-1423.4110476960427
 42
0.0114578554961629
 10
907.52478974247106
 20
-1423.2352247625895
 10
907.53598427847123
 20
-1423.221905999028
 42
0.0061531305139987
 10
907.66245892445215
 20
-1423.0676164657384
 42
0.0006325587120629
 10
907.78683740858332
 20
-1422.9116130900884
 10
907.80987754365538
 20
-1422.8826395694032
 42
0.0041897761562604
 10
907.97833294766122
 20
-1422.6671201932986
 10
908.0367950675203
 20
-1422.5910188463563
 42
0.0092993880038708
 10
908.31340699474731
 20
-1422.2167400824678
 10
908.39580148794505
 20
-1422.1008030789008
 42
0.0159321727086775
 10
908.7424079705853
 20
-1421.5786288581476
 10
908.78676410597825
 20
-1421.5069492938912
 42
0.0085547317024815
 10
909.02127587130008
 20
-1421.1130743446729
 42
0.0084601156889796
 10
909.24225204874233
 20
-1420.7114474956406
 10
909.25036752257256
 20
-1420.6960878133677
 42
0.0081429654285291
 10
909.47361679301139
 20
-1420.2563663008243
 10
909.48247695719408
 20
-1420.2381874588077
 42
0.0076574581327662
 10
909.70888446776621
 20
-1419.7550045835426
 10
909.71836410848448
 20
-1419.7339401052513
 42
0.007068272420114
 10
909.94880901629483
 20
-1419.2019028004618
 10
909.95879930027297
 20
-1419.1779136114587
 42
0.0064559514449747
 10
910.19413250845673
 20
-1418.5916013449341
 10
910.20454186661959
 20
-1418.5646664194974
 42
0.0058311413907803
 10
910.44558860338441
 20
-1417.9186343251083
 10
910.45634368076992
 20
-1417.8887499839534
 42
0.0052312425821312
 10
910.70392495881811
 20
-1417.1775475700967
 10
910.71496879519054
 20
-1417.1447208580489
 42
0.0046680544796515
 10
910.96989722292653
 20
-1416.3628945422895
 10
911.01188937297275
 20
-1416.2299113049889
 42
0.004166685644544
 10
911.21517538536364
 20
-1415.5669425299966
 10
911.25283782602696
 20
-1415.4403614223443
 42
0.0015170975153707
 10
911.37402440444043
 20
-1415.0284930708492
 42
-0.0004887993113905
 10
911.49436417753179
 20
-1414.6163746589157
 10
911.57084143505858
 20
-1414.3554172728661
 42
0.0002583378926776
 10
911.84405600499008
 20
-1413.4213605701418
 10
911.92582885467448
 20
-1413.1412613101897
 42
0.0006636169670793
 10
912.11969661471085
 20
-1412.473908386517
 10
912.12479326907169
 20
-1412.4562768035892
 42
0.0010589131323852
 10
912.30624196997451
 20
-1411.8235454605881
 10
912.31122404046948
 20
-1411.8060325535168
 42
0.0015655524464142
 10
912.47949424763783
 20
-1411.2074158743671
 10
912.48432444805644
 20
-1411.1900237154182
 42
0.0021640440480012
 10
912.63861442003872
 20
-1410.6249966974133
 10
912.64324863948264
 20
-1410.6077319673673
 42
0.0028763871855066
 10
912.78276435752173
 20
-1410.0757640165723
 10
912.78715022168819
 20
-1410.0586400384209
 42
0.0037310511943836
 10
912.91110691352583
 20
-1409.5591924443938
 10
912.91518213381789
 20
-1409.5422321731355
 42
0.0047652197769745
 10
913.02280603432325
 20
-1409.0747544048434
 10
913.02649663364787
 20
-1409.0579948496877
 42
0.006027669930269
 10
913.11702673280024
 20
-1408.6219190545492
 10
913.12024542308882
 20
-1408.605417840243
 42
0.0075824337754354
 10
913.19293473250491
 20
-1408.2001506758138
 10
913.19558010988624
 20
-1408.1839957283564
 42
0.0095130624612675
 10
913.24969534551633
 20
-1407.8089063752914
 10
913.25668156939776
 20
-1407.7529728171846
 42
0.0121054653218948
 10
913.28327289997685
 20
-1407.4880769887011
 10
913.28413938973699
 20
-1407.4766735457638
 42
0.0069050827388067
 10
913.29922820777415
 20
-1407.2337323189277
 10
913.3003635074424
 20
-1407.2102060618893
 42
0.0169063976698285
 10
913.30319078642287
 20
-1407.0140133345822
 10
913.30202013489179
 20
-1406.9536775732411
 42
0.0052007732895822
 10
913.29976668629865
 20
-1406.878084183081
 42
0.0054038123303146
 10
913.27980317445883
 20
-1406.7580658870654
 10
913.27471731858941
 20
-1406.7294074004899
 42
0.0112050460458506
 10
913.23933295652955
 20
-1406.5530809621448
 10
913.22150799449014
 20
-1406.4735393754299
 42
0.024076446800975
 10
913.13061062834413
 20
-1406.1433023399293
 10
913.11205186553093
 20
-1406.086682174936
 42
0.0256812331834053
 10
912.968688945341
 20
-1405.7149579686777
 10
912.96327951951946
 20
-1405.7028266336877
 42
0.0268360501217043
 10
912.79385227866976
 20
-1405.371833499667
 10
912.78831587103537
 20
-1405.3623138293558
 42
0.0274670231731511
 10
912.59611489462145
 20
-1405.0700264544375
 10
912.59073359465879
 20
-1405.0627473068962
 42
0.0275035967101781
 10
912.37916071509699
 20
-1404.807231416592
 10
912.37409121413066
 20
-1404.8017523289618
 42
0.0269557673526001
 10
912.14668767069088
 20
-1404.5811100429992
 10
912.14194461290776
 20
-1404.576980088538
 42
0.025912480220986
 10
911.9023897814775
 20
-1404.3892895613862
 10
911.89785893629505
 20
-1404.3861040590555
 42
0.024516215300471
 10
911.64994258320075
 20
-1404.2293710499453
 10
911.64541603687599
 20
-1404.2268108527442
 42
0.0229282588837823
 10
911.39299648004919
 20
-1404.0989426602455
 10
911.38821598621178
 20
-1404.0967903604833
 42
0.0212984135693418
 10
911.13517803375066
 20
-1403.9955914432412
 10
911.12987374878207
 20
-1403.9937278804816
 42
0.0197555462340629
 10
910.88009541105816
 20
-1403.9169124625164
 42
0.0183511896788059
 10
910.62516668559488
 20
-1403.8593295555511
 10
910.53880148887231
 20
-1403.8431267651661
 42
0.033805787715043
 10
910.25329413961174
 20
-1403.8093183600258
 10
910.16228873457555
 20
-1403.8047387047645
 42
0.0091990524488355
 10
910.0564416259358
 20
-1403.8013628488422
 42
0.0028333980777335
 10
909.9505277099438
 20
-1403.8005347413255
 10
909.94961225689349
 20
-1403.8005327715014
 42
-0.0023619827812061
 10
909.84186624179131
 20
-1403.799791930423
 10
909.80546107161172
 20
-1403.79936962396
 42
0.0008824598485377
 10
909.62490508169446
 20
-1403.7975938457212
 10
909.58104364935593
 20
-1403.7972398841962
 42
0.0038132665768037
 10
909.31276075349149
 20
-1403.7971209481293
 10
909.29622709868363
 20
-1403.797239714273
 42
0.0060665569335522
 10
908.9949466070974
 20
-1403.8030600136938
 10
908.98069627506698
 20
-1403.8035083216614
 42
0.0080356953336834
 10
908.65123755872389
 20
-1403.8191760437285
 10
908.6391675436405
 20
-1403.8199446266688
 42
0.0098996399105952
 10
908.28640445898736
 20
-1403.8494298558671
 10
908.27635874961493
 20
-1403.8504701520651
 42
0.0117740981366489
 10
907.90520189126732
 20
-1403.8977623995947
 10
907.89697919478363
 20
-1403.8990075161657
 42
0.013743521513501
 10
907.51239037529808
 20
-1403.9681044897275
 10
907.50573333617513
 20
-1403.9694903859609
 42
0.015835986938262
 10
907.11273624237356
 20
-1404.0643824744413
 10
907.1073230555055
 20
-1404.0658724153122
 42
0.018055412402713
 10
906.71100801089335
 20
-1404.1905104315508
 10
906.70645122280973
 20
-1404.1921264678172
 42
0.0203657431282945
 10
906.3119737049991
 20
-1404.3503868093328
 10
906.30783016599105
 20
-1404.352248430775
 42
0.022681968465513
 10
905.92039410978794
 20
-1404.5478910094455
 10
905.91619431876927
 20
-1404.5502566013656
 42
0.0248634984606092
 10
905.5410123775888
 20
-1404.7868832473125
 10
905.49281744880352
 20
-1404.8207402891392
 42
0.0267044190885524
 10
905.21852475188757
 20
-1405.0361806650067
 42
0.0139303002197481
 10
904.9623575859506
 20
-1405.273419505917
 10
904.95750420022785
 20
-1405.2781721687788
 42
0.0283460963442526
 10
904.71343160599974
 20
-1405.545902829225
 10
904.6737631008441
 20
-1405.594704406697
 42
0.0070695364826285
 10
904.59632587498425
 20
-1405.6927712226625
 42
0.0070695364826285
  0
LWPOLYLINE
  5
53
100
AcDbEntity
  8
0
370
              15
390
0
  6
Continuous
 62
               7
100
AcDbPolyline
 90
      226
 70
             128
 10
901.06750543773785
 20
-1421.4143600288464
 42
-0.0026277636599557
 10
901.06742755393793
 20
-1421.3475881030445
 10
901.06764491216984
 20
-1421.2944328856602
 42
-0.0088680296730309
 10
901.07142152846291
 20
-1421.1214171032559
 10
901.07376788757529
 20
-1421.0621370778035
 42
-0.007738170561624
 10
901.08981399833749
 20
-1420.7708765820191
 10
901.09068190951155
 20
-1420.7585883483202
 42
-0.0068872530529698
 10
901.11731398925883
 20
-1420.4433665962599
 10
901.11851821344578
 20
-1420.4311256172327
 42
-0.0062130021485298
 10
901.15611193027223
 20
-1420.0922559260048
 10
901.15761583380868
 20
-1420.0800820540776
 42
-0.0056726929665583
 10
901.20653769331068
 20
-1419.7178868319659
 10
901.20831113895542
 20
-1419.7057930317187
 42
-0.0052341884489253
 10
901.26892172521661
 20
-1419.3205997761934
 10
901.27093971399199
 20
-1419.3085948462085
 42
-0.0049768450167545
 10
901.34367839541767
 20
-1418.9007502787799
 10
901.36792741014017
 20
-1418.7722022957701
 42
-0.0089029805622428
 10
901.50500826193581
 20
-1418.1104268483432
 10
901.53775363725345
 20
-1417.9653954178241
 42
-0.0080318257097363
 10
901.76730225159542
 20
-1417.0196857859655
 10
901.77928717804241
 20
-1416.9735551507802
 42
-0.0074265721318534
 10
902.06329871689172
 20
-1415.9434905724022
 10
902.08317826001144
 20
-1415.875356511802
 42
-0.0069711922701568
 10
902.41048283851569
 20
-1414.8090887714825
 10
902.47043478562591
 20
-1414.6230674130975
 42
-0.0052070422894757
 10
902.69986001088046
 20
-1413.9357953360804
 10
902.71714120305626
 20
-1413.8857680554531
 42
-0.0009167004448166
 10
902.92023309034221
 20
-1413.3013122073094
 42
-0.0025162726945475
 10
903.12733072060666
 20
-1412.7182709431413
 10
903.16455533241003
 20
-1412.6151213972414
 42
-0.0028212681457016
 10
903.41273125137332
 20
-1411.9393907650701
 10
903.4225620141209
 20
-1411.9130833204017
 42
-0.0031964916821002
 10
903.65885427178625
 20
-1411.2928785582665
 10
903.66848872578635
 20
-1411.2680685681205
 42
-0.0036281836451888
 10
903.89359468688644
 20
-1410.70062788723
 10
903.90303309704564
 20
-1410.677330455723
 42
-0.0041269166833253
 10
904.11765079370309
 20
-1410.159889559749
 10
904.15028375012298
 20
-1410.0830111133898
 42
-0.004747221305617
 10
904.30732855567749
 20
-1409.7225896455045
 10
904.31422263687273
 20
-1409.7071690482016
 42
-0.0025651659999156
 10
904.46258067073586
 20
-1409.3798409924241
 42
-0.0057144634991878
 10
904.6163303645136
 20
-1409.0550313190481
 10
904.64436106991161
 20
-1408.9975229366607
 42
-0.0065388068371207
 10
904.82782809764819
 20
-1408.6332904400024
 10
904.83628655342488
 20
-1408.6170308606363
 42
-0.0074510843021667
 10
905.01246879930454
 20
-1408.2903425795103
 10
905.02064846983785
 20
-1408.2757018022373
 42
-0.0084648979862929
 10
905.19028232293567
 20
-1407.9837927912802
 10
905.19813844943042
 20
-1407.9707857996182
 42
-0.0095638542802481
 10
905.36197389701795
 20
-1407.7108969276508
 10
905.36944884068498
 20
-1407.6995275662025
 42
-0.0107191626807893
 10
905.52825042107725
 20
-1407.4689163316511
 10
905.53526715480803
 20
-1407.459180239287
 42
-0.0118458573902972
 10
905.68981525332083
 20
-1407.255108043976
 42
-0.0129184518193892
 10
905.85426787692222
 20
-1407.0589475278059
 10
905.88441264928747
 20
-1407.0248214489038
 42
-0.02177425796298
 10
906.06102497162078
 20
-1406.8416146786558
 10
906.0717705160755
 20
-1406.8313978454582
 42
-0.0097266568651055
 10
906.23782813493699
 20
-1406.6795502710156
 42
-0.0187720905728109
 10
906.41217571082154
 20
-1406.5374814176303
 10
906.4428817015023
 20
-1406.5143223352291
 42
-0.0179428207518637
 10
906.67530242149678
 20
-1406.3517701581186
 10
906.67895474841396
 20
-1406.3494062232301
 42
-0.0170047877699502
 10
906.91471838594293
 20
-1406.2079457090795
 10
906.91850137469214
 20
-1406.2058474040416
 42
-0.0160190788367999
 10
907.15540992232479
 20
-1406.0841961020551
 42
-0.0151102861496382
 10
907.39944170477122
 20
-1405.9775133260005
 10
907.45182820698324
 20
-1405.9564731931057
 42
-0.0271945441887192
 10
907.81049076604165
 20
-1405.8346083823997
 10
907.87955556653117
 20
-1405.8152588411331
 42
-0.0237596594021696
 10
908.29535241355211
 20
-1405.7198081291517
 10
908.36341526728256
 20
-1405.7075534410251
 42
-0.0213715440554837
 10
908.64929019872784
 20
-1405.6686064095152
 10
908.70943736494155
 20
-1405.6630166948146
 42
-0.0101465655815673
 10
908.87692989693994
 20
-1405.6508731515501
 10
908.88627028313556
 20
-1405.650386236553
 42
-0.0100375910879606
 10
909.03542438370073
 20
-1405.6456104186277
 10
909.04568365337718
 20
-1405.6454879796133
 42
-0.0103625633384195
 10
909.17439164803591
 20
-1405.6466194131399
 10
909.19665729930318
 20
-1405.6472767716048
 42
-0.0115689250225736
 10
909.28070803683079
 20
-1405.6517062778498
 42
-0.0072438037433704
 10
909.36454631627089
 20
-1405.6592954775995
 10
909.38134682574275
 20
-1405.6610620203235
 42
-0.0217917313134212
 10
909.49791658905451
 20
-1405.6784819130442
 10
909.56351667962474
 20
-1405.6912285214594
 42
-0.0332943556753817
 10
909.7679088446514
 20
-1405.745268812766
 10
909.79808141320382
 20
-1405.7554368898852
 42
-0.0184824084788148
 10
909.93658646966696
 20
-1405.8078879052709
 42
-0.0198002050689504
 10
910.07066081016615
 20
-1405.8707719654703
 10
910.07254744754323
 20
-1405.8717497523503
 42
-0.0212242342982324
 10
910.20468638994589
 20
-1405.9475124911439
 10
910.20650168548855
 20
-1405.9486582933519
 42
-0.022609060580686
 10
910.33500558671074
 20
-1406.0381379369167
 10
910.33685002844777
 20
-1406.0395501899038
 42
-0.0238457052246776
 10
910.4600321097405
 20
-1406.143546085766
 10
910.46198483829971
 20
-1406.1453609635323
 42
-0.0248160564157572
 10
910.57818634559987
 20
-1406.2646355647405
 10
910.58028997900237
 20
-1406.2670208984455
 42
-0.0254109591459934
 10
910.68789519686845
 20
-1406.40230928441
 10
910.6901432187824
 20
-1406.4054508328104
 42
-0.0255528488285827
 10
910.78758989758001
 20
-1406.5574778870453
 10
910.78992099749576
 20
-1406.5615594986521
 42
-0.0252146793219262
 10
910.87570202350503
 20
-1406.7310617446497
 10
910.87800426266244
 20
-1406.736243826562
 42
-0.0244265635947783
 10
910.95065895642415
 20
-1406.923990398609
 10
910.95990535789213
 20
-1406.9518558169457
 42
-0.0231319612907658
 10
911.00582813688436
 20
-1407.1151568637481
 42
-0.0112130424362394
 10
911.0404641594231
 20
-1407.2813604639389
 10
911.04166668453513
 20
-1407.2878570508242
 42
-0.0210527881225694
 10
911.06735315990613
 20
-1407.4689126962676
 10
911.07086375472772
 20
-1407.5043182448126
 42
-0.0190029892425727
 10
911.08630522827229
 20
-1407.7578540910824
 10
911.08711520471638
 20
-1407.7933297054537
 42
-0.0137974553663159
 10
911.08556635188097
 20
-1408.1183611121828
 10
911.08472089692555
 20
-1408.1444798567707
 42
-0.0081336634218494
 10
911.06986156170274
 20
-1408.4498273243794
 42
-0.0073526923578256
 10
911.0455530283283
 20
-1408.7545755686624
 10
911.04429160454538
 20
-1408.7679122433306
 42
-0.0066886138688591
 10
911.00855601849901
 20
-1409.0984982868263
 10
911.00689892902892
 20
-1409.1121199058193
 42
-0.0061359187355268
 10
910.95904832697863
 20
-1409.4688838859149
 10
910.95701082590517
 20
-1409.4827786887486
 42
-0.0056698610058675
 10
910.8963604951374
 20
-1409.8660572575918
 10
910.89395506181518
 20
-1409.8802163768173
 42
-0.0052721077276971
 10
910.8198228610172
 20
-1410.2903437164862
 10
910.81705971217377
 20
-1410.3047603518812
 42
-0.0049289272176615
 10
910.72876559407007
 20
-1410.7420688630204
 10
910.72565309939114
 20
-1410.7567377158193
 42
-0.0047415956711762
 10
910.62241510785907
 20
-1411.221534473229
 10
910.5876468974991
 20
-1411.3713415686132
 42
-0.0084404470905147
 10
910.39763045392817
 20
-1412.131565593141
 10
910.39150376594159
 20
-1412.1544297172977
 42
-0.0039635940259936
 10
910.17005008165791
 20
-1412.9554185815439
 10
910.15667328647805
 20
-1413.0023501981368
 42
-0.007247504083593
 10
909.88922639861289
 20
-1413.8915699145341
 10
909.81901407178736
 20
-1414.1133102645001
 42
-0.0051345458828748
 10
909.5322546997287
 20
-1414.9876354523103
 10
909.51072843295651
 20
-1415.0510617194543
 42
-0.0019150016601091
 10
909.2551950260945
 20
-1415.7946108396663
 10
909.24872742170169
 20
-1415.8131983045776
 42
-0.0021524362752816
 10
909.00024937063449
 20
-1416.5175241262959
 10
908.99103894993937
 20
-1416.5432777045937
 42
-0.002433128681876
 10
908.75478369090206
 20
-1417.1938770127153
 10
908.74573573834994
 20
-1417.2184203190741
 42
-0.0027449721789537
 10
908.52112116751607
 20
-1417.8175501979943
 10
908.51223116012352
 20
-1417.8408727878473
 42
-0.0031083229768579
 10
908.29868867351388
 20
-1418.3907968254262
 10
908.28995254183644
 20
-1418.4128865412886
 42
-0.0035311343283131
 10
908.08691135624645
 20
-1418.915869667014
 10
908.07832601709083
 20
-1418.9367123905436
 42
-0.0040245640948722
 10
907.88521421330438
 20
-1419.3950217131169
 10
907.87677809970603
 20
-1419.414601081178
 42
-0.0046015135852457
 10
907.69302180653756
 20
-1419.830506110831
 10
907.6847356287052
 20
-1419.8488032502921
 42
-0.005276863826829
 10
907.50975810975365
 20
-1420.2245761345534
 10
907.50162589912281
 20
-1420.2415694731048
 42
-0.0060672675640418
 10
907.33484628636074
 20
-1420.5794850962109
 10
907.32687680588162
 20
-1420.5951503552035
 42
-0.0069904648875565
 10
907.16770841187781
 20
-1420.8974861618717
 10
907.1599170122696
 20
-1420.9117967110942
 42
-0.0080637022769557
 10
907.00776515192115
 20
-1421.1808320142522
 10
907.00017611929047
 20
-1421.193759879852
 42
-0.0093006455665356
 10
906.85443544275836
 20
-1421.431774278356
 10
906.84708477601612
 20
-1421.4432922475269
 42
-0.0107060778059661
 10
906.7071362325762
 20
-1421.6525625649083
 10
906.70007446429759
 20
-1421.6626481074727
 42
-0.0122723111415997
 10
906.56528074609855
 20
-1421.845441436963
 10
906.56495452255001
 20
-1421.8458618247655
 42
-0.0141836319641338
 10
906.42137291957033
 20
-1422.0204315826022
 10
906.41442516391794
 20
-1422.0284065828675
 42
-0.0175957477207174
 10
906.27451899588368
 20
-1422.1780274712719
 42
-0.0080466359680596
 10
906.12705523085583
 20
-1422.3203499994208
 10
906.08102068633605
 20
-1422.3633704375143
 42
-0.0269600260399394
 10
905.82774044035648
 20
-1422.5756936960208
 10
905.76117330405248
 20
-1422.6256451106501
 42
-0.0178362839751624
 10
905.52122881440027
 20
-1422.7926630368997
 10
905.51398384340109
 20
-1422.7973315491038
 42
-0.0174650732652146
 10
905.2776476459585
 20
-1422.9381925140638
 42
-0.0169240130163348
 10
905.03218140009903
 20
-1423.062484773842
 10
904.98619524454307
 20
-1423.0838467294084
 42
-0.03188830368418
 10
904.63584438892519
 20
-1423.2201850389179
 10
904.56747885375785
 20
-1423.241885659394
 42
-0.0284435909903825
 10
904.19142872746727
 20
-1423.3381030948685
 10
904.15627056696667
 20
-1423.3449966906974
 42
-0.0243909341014154
 10
903.84282710604975
 20
-1423.3907177217272
 10
903.79254637928307
 20
-1423.3955632686286
 42
-0.0196639292931273
 10
903.57695080175131
 20
-1423.4078115541424
 10
903.52512673058823
 20
-1423.4087148148792
 42
-0.0100501510681176
 10
903.41270344892359
 20
-1423.4084144165261
 10
903.38104358754617
 20
-1423.4076933446399
 42
-0.0019752031102434
 10
903.33195125089821
 20
-1423.4063811844312
 10
903.32919094767999
 20
-1423.406296492605
 42
0.0065378751992104
 10
903.28561437292137
 20
-1423.4055296013898
 42
-0.016797469468768
 10
903.24208354999348
 20
-1423.4038697028639
 10
903.23800421072747
 20
-1423.4035766919687
 42
-0.0081283276280933
 10
903.18644441298738
 20
-1423.3990296983309
 10
903.17470483911029
 20
-1423.3978017807526
 42
-0.0126703440184251
 10
903.09998654331741
 20
-1423.3880669896812
 10
903.07719867564015
 20
-1423.3845087337659
 42
-0.0117852088426261
 10
902.95765968980265
 20
-1423.3629457386078
 10
902.90227923804468
 20
-1423.3516021983742
 42
-0.0251774592292896
 10
902.67543519903802
 20
-1423.2931041889417
 10
902.63071600918704
 20
-1423.2791373696064
 42
-0.0146525199883907
 10
902.44432302164728
 20
-1423.2148708424079
 42
-0.0166929435854322
 10
902.26234536552101
 20
-1423.1390637093534
 10
902.25768873424749
 20
-1423.1369388087392
 42
-0.0191684358439037
 10
902.07250510299923
 20
-1423.0437027249498
 10
902.06917251724121
 20
-1423.0418614773957
 42
-0.0221181781813434
 10
901.88586221333844
 20
-1422.9297279790246
 10
901.88351240933059
 20
-1422.928143681034
 42
-0.0254984685387022
 10
901.70722225894519
 20
-1422.7957325310642
 10
901.6847401112434
 20
-1422.7769802221283
 42
-0.0292492648804158
 10
901.55997117240031
 20
-1422.6598874224851
 42
-0.0159048957495093
 10
901.44613117495066
 20
-1422.5318674308867
 10
901.44481238437083
 20
-1422.5302858178661
 42
-0.0343813379558462
 10
901.34217512274461
 20
-1422.3884144920964
 10
901.31068359138294
 20
-1422.3379111000013
 42
-0.0369117275698362
 10
901.22479108948653
 20
-1422.174433859054
 42
-0.0191751379920098
 10
901.1575977039297
 20
-1422.0020292530482
 10
901.15583438017006
 20
-1421.9969359083732
 42
-0.0378178042228349
 10
901.10603966138569
 20
-1421.8079951322914
 10
901.10004436565634
 20
-1421.7754345141
 42
-0.0184846046478667
 10
901.07932716636105
 20
-1421.63368169355
 42
-0.0179866351324468
 10
901.06899416128738
 20
-1421.4907908804678
 10
901.06893771884165
 20
-1421.4892331938563
 42
-0.0085497186109164
 10
901.06750543773785
 20
-1421.4143600288464
 42
-0.0085497186109164
  0
ENDBLK
  5
54
100
AcDbEntity
  8
template
390
0
100
AcDbBlockEnd
  0
BLOCK
  5
55
100
AcDbEntity
  8
notes
390
0
100
AcDbBlockBegin
  2
*D2
 70
               1
 10
0.0
 20
0.0
 30
0.0
  3
*D2
  1

  0
LINE
  5
56
100
AcDbEntity
  8
0
370
              -2
390
0
  6
Continuous
 62
               0
100
AcDbLine
 10
145.41226560080668
 20
-456.62273649631106
 30
0.0
 11
145.41226560080668
 21
-382.43381991884155
 31
0.0
  0
LINE
  5
57
100
AcDbEntity
  8
0
370
              -2
390
0
  6
Continuous
 62
               0
100
AcDbLine
 10
195.41226560080668
 20
-453.18381991884155
 30
0.0
 11
195.41226560080668
 21
-382.43381991884155
 31
0.0
  0
LINE
  5
58
100
AcDbEntity
  8
0
370
              -2
390
0
  6
Continuous
 62
               0
100
AcDbLine
 10
145.41226560080668
 20
-382.43381991884155
 30
0.0
 11
195.41226560080668
 21
-382.43381991884155
 31
0.0
  0
CIRCLE
  5
59
102
{ACAD_REACTORS
330
5A
102
}
100
AcDbEntity
  8
0
370
              -2
390
0
  6
Continuous
 62
               0
100
AcDbCircle
 10
145.41226560080668
 20
-382.43381991884155
 30
0.0
 40
4.99969482421875
  0
HATCH
  5
5A
100
AcDbEntity
  8
0
370
              -2
390
0
  6
Continuous
 62
               0
100
AcDbHatch
 10
0.0
 20
0.0
 30
0.0
210
0.0
220
0.0
230
1.0
  2
SOLID
 70
               1
 71
               1
 91
        1
 92
        1
 93
        1
 72
               2
 10
145.41226560080668
 20
-382.43381991884155
 40
4.99969482421875
 50
0.0
 51
360.0
 73
               0
 97
        1
330
59
 75
               0
 76
               1
 98
        1
 10
0.0
 20
0.0
  0
CIRCLE
  5
5B
102
{ACAD_REACTORS
330
5C
102
}
100
AcDbEntity
  8
0
370
              -2
390
0
  6
Continuous
 62
               0
100
AcDbCircle
 10
195.41226560080668
 20
-382.43381991884155
 30
0.0
 40
4.99969482421875
  0
HATCH
  5
5C
100
AcDbEntity
  8
0
370
              -2
390
0
  6
Continuous
 62
               0
100
AcDbHatch
 10
0.0
 20
0.0
 30
0.0
210
0.0
220
0.0
230
1.0
  2
SOLID
 70
               1
 71
               1
 91
        1
 92
        1
 93
        1
 72
               2
 10
195.41226560080668
 20
-382.43381991884155
 40
4.99969482421875
 50
0.0
 51
360.0
 73
               0
 97
        1
330
5B
 75
               0
 76
               1
 98
        1
 10
0.0
 20
0.0
  0
MTEXT
  5
5D
100
AcDbEntity
  8
0
390
0
 62
               0
100
AcDbMText
 10
154.53726560080668
 20
-348.55620273134156
 30
0.0
 40
24.432617187500004
 41
0.0
 71
               1
 72
               1
  1
50
  7
ＭＳ ゴシック
 73
               1
 44
0.7828267384257843
  0
POINT
  5
5E
100
AcDbEntity
  8
Defpoints
370
               0
390
0
 62
               0
100
AcDbPoint
 10
195.41226560080668
 20
-478.18381991884155
 30
0.0
  0
POINT
  5
5F
100
AcDbEntity
  8
Defpoints
370
               0
390
0
 62
               0
100
AcDbPoint
 10
145.41226560080668
 20
-481.62273649631106
 30
0.0
  0
POINT
  5
60
100
AcDbEntity
  8
Defpoints
370
               0
390
0
 62
               0
100
AcDbPoint
 10
145.41226560080668
 20
-382.43381991884155
 30
0.0
  0
ENDBLK
  5
61
100
AcDbEntity
  8
notes
390
0
100
AcDbBlockEnd
  0
BLOCK
  5
62
100
AcDbEntity
  8
notes
390
0
100
AcDbBlockBegin
  2
*D3
 70
               1
 10
0.0
 20
0.0
 30
0.0
  3
*D3
  1

  0
LINE
  5
63
100
AcDbEntity
  8
0
370
              -2
390
0
  6
Continuous
 62
               0
100
AcDbLine
 10
432.97229211295394
 20
-478.18381991884155
 30
0.0
 11
407.98219452175431
 21
-478.18381991884155
 31
0.0
  0
LINE
  5
64
100
AcDbEntity
  8
0
370
              -2
390
0
  6
Continuous
 62
               0
100
AcDbLine
 10
432.97229211295394
 20
-603.18381991884155
 30
0.0
 11
407.98219452175431
 21
-603.18381991884155
 31
0.0
  0
LINE
  5
65
100
AcDbEntity
  8
0
370
              -2
390
0
  6
Continuous
 62
               0
100
AcDbLine
 10
407.98219452175431
 20
-478.18381991884155
 30
0.0
 11
407.98219452175431
 21
-285.23183286947415
 31
0.0
  0
LINE
  5
66
100
AcDbEntity
  8
0
370
              -2
390
0
  6
Continuous
 62
               0
100
AcDbLine
 10
407.98219452175431
 20
-478.18381991884155
 30
0.0
 11
407.98219452175431
 21
-603.18381991884155
 31
0.0
  0
CIRCLE
  5
67
102
{ACAD_REACTORS
330
68
102
}
100
AcDbEntity
  8
0
370
              -2
390
0
  6
Continuous
 62
               0
100
AcDbCircle
 10
407.98219452175431
 20
-478.18381991884155
 30
0.0
 40
4.99969482421875
  0
HATCH
  5
68
100
AcDbEntity
  8
0
370
              -2
390
0
  6
Continuous
 62
               0
100
AcDbHatch
 10
0.0
 20
0.0
 30
0.0
210
0.0
220
0.0
230
1.0
  2
SOLID
 70
               1
 71
               1
 91
        1
 92
        1
 93
        1
 72
               2
 10
407.98219452175431
 20
-478.18381991884155
 40
4.99969482421875
 50
0.0
 51
360.0
 73
               0
 97
        1
330
67
 75
               0
 76
               1
 98
        1
 10
0.0
 20
0.0
  0
CIRCLE
  5
69
102
{ACAD_REACTORS
330
6A
102
}
100
AcDbEntity
  8
0
370
              -2
390
0
  6
Continuous
 62
               0
100
AcDbCircle
 10
407.98219452175431
 20
-603.18381991884155
 30
0.0
 40
4.99969482421875
  0
HATCH
  5
6A
100
AcDbEntity
  8
0
370
              -2
390
0
  6
Continuous
 62
               0
100
AcDbHatch
 10
0.0
 20
0.0
 30
0.0
210
0.0
220
0.0
230
1.0
  2
SOLID
 70
               1
 71
               1
 91
        1
 92
        1
 93
        1
 72
               2
 10
407.98219452175431
 20
-603.18381991884155
 40
4.99969482421875
 50
0.0
 51
360.0
 73
               0
 97
        1
330
69
 75
               0
 76
               1
 98
        1
 10
0.0
 20
0.0
  0
MTEXT
  5
6B
100
AcDbEntity
  8
0
390
0
 62
               0
100
AcDbMText
 10
374.10457733425432
 20
-428.10683286947415
 30
0.0
 40
24.432617187500004
 41
0.0
 71
               1
 72
               1
  1
125(深さ)
  7
ＭＳ ゴシック
 11
0.0
 21
1.0
 31
0.0
 73
               1
 44
0.7828267384257843
  0
POINT
  5
6C
100
AcDbEntity
  8
Defpoints
370
               0
390
0
 62
               0
100
AcDbPoint
 10
407.97229211295394
 20
-603.18381991884155
 30
0.0
  0
POINT
  5
6D
100
AcDbEntity
  8
Defpoints
370
               0
390
0
 62
               0
100
AcDbPoint
 10
407.97229211295394
 20
-478.18381991884155
 30
0.0
  0
POINT
  5
6E
100
AcDbEntity
  8
Defpoints
370
               0
390
0
 62
               0
100
AcDbPoint
 10
407.98219452175431
 20
-478.18381991884155
 30
0.0
  0
ENDBLK
  5
6F
100
AcDbEntity
  8
notes
390
0
100
AcDbBlockEnd
  0
BLOCK
  5
70
100
AcDbEntity
  8
notes
390
0
100
AcDbBlockBegin
  2
*D4
 70
               1
 10
0.0
 20
0.0
 30
0.0
  3
*D4
  1

  0
LINE
  5
71
100
AcDbEntity
  8
0
370
              -2
390
0
  6
Continuous
 62
               0
100
AcDbLine
 10
-661.66722072348773
 20
564.95465302778928
 30
0.0
 11
-661.66722072348773
 21
839.95465302778928
 31
0.0
  0
LINE
  5
72
100
AcDbEntity
  8
0
370
              -2
390
0
  6
Continuous
 62
               0
100
AcDbLine
 10
-211.54716769928768
 20
564.95465302778928
 30
0.0
 11
-211.54716769928768
 21
839.95465302778928
 31
0.0
  0
LINE
  5
73
100
AcDbEntity
  8
0
370
              -2
390
0
  6
Continuous
 62
               0
100
AcDbLine
 10
-661.66722072348773
 20
839.95465302778928
 30
0.0
 11
-211.54716769928768
 21
839.95465302778928
 31
0.0
  0
CIRCLE
  5
74
102
{ACAD_REACTORS
330
75
102
}
100
AcDbEntity
  8
0
370
              -2
390
0
  6
Continuous
 62
               0
100
AcDbCircle
 10
-661.66722072348773
 20
839.95465302778928
 30
0.0
 40
4.99969482421875
  0
HATCH
  5
75
100
AcDbEntity
  8
0
370
              -2
390
0
  6
Continuous
 62
               0
100
AcDbHatch
 10
0.0
 20
0.0
 30
0.0
210
0.0
220
0.0
230
1.0
  2
SOLID
 70
               1
 71
               1
 91
        1
 92
        1
 93
        1
 72
               2
 10
-661.66722072348773
 20
839.95465302778928
 40
4.99969482421875
 50
0.0
 51
360.0
 73
               0
 97
        1
330
74
 75
               0
 76
               1
 98
        1
 10
0.0
 20
0.0
  0
CIRCLE
  5
76
102
{ACAD_REACTORS
330
77
102
}
100
AcDbEntity
  8
0
370
              -2
390
0
  6
Continuous
 62
               0
100
AcDbCircle
 10
-211.54716769928768
 20
839.95465302778928
 30
0.0
 40
4.99969482421875
  0
HATCH
  5
77
100
AcDbEntity
  8
0
370
              -2
390
0
  6
Continuous
 62
               0
100
AcDbHatch
 10
0.0
 20
0.0
 30
0.0
210
0.0
220
0.0
230
1.0
  2
SOLID
 70
               1
 71
               1
 91
        1
 92
        1
 93
        1
 72
               2
 10
-211.54716769928768
 20
839.95465302778928
 40
4.99969482421875
 50
0.0
 51
360.0
 73
               0
 97
        1
330
76
 75
               0
 76
               1
 98
        1
 10
0.0
 20
0.0
  0
MTEXT
  5
78
100
AcDbEntity
  8
0
390
0
 62
               0
100
AcDbMText
 10
-461.45595239046327
 20
873.83227021528933
 30
0.0
 40
24.432617187500004
 41
0.0
 71
               1
 72
               1
  1
450
  7
ＭＳ ゴシック
 73
               1
 44
0.7828267384257843
  0
POINT
  5
79
100
AcDbEntity
  8
Defpoints
370
               0
390
0
 62
               0
100
AcDbPoint
 10
-211.54716769928768
 20
539.95465302778928
 30
0.0
  0
POINT
  5
7A
100
AcDbEntity
  8
Defpoints
370
               0
390
0
 62
               0
100
AcDbPoint
 10
-661.66722072348773
 20
539.95465302778928
 30
0.0
  0
POINT
  5
7B
100
AcDbEntity
  8
Defpoints
370
               0
390
0
 62
               0
100
AcDbPoint
 10
-661.66722072348773
 20
839.95465302778928
 30
0.0
  0
ENDBLK
  5
7C
100
AcDbEntity
  8
notes
390
0
100
AcDbBlockEnd
  0
BLOCK
  5
7D
100
AcDbEntity
  8
notes
390
0
100
AcDbBlockBegin
  2
*D5
 70
               1
 10
0.0
 20
0.0
 30
0.0
  3
*D5
  1

  0
LINE
  5
7E
100
AcDbEntity
  8
0
370
              -2
390
0
  6
Continuous
 62
               0
100
AcDbLine
 10
-424.95629017924421
 20
703.67531027275015
 30
0.0
 11
-365.50079529896675
 21
773.69292129513906
 31
0.0
  0
CIRCLE
  5
7F
102
{ACAD_REACTORS
330
80
102
}
100
AcDbEntity
  8
0
370
              -2
390
0
  6
Continuous
 62
               0
100
AcDbCircle
 10
-424.95629017924421
 20
703.67531027275015
 30
0.0
 40
4.99969482421875
  0
HATCH
  5
80
100
AcDbEntity
  8
0
370
              -2
390
0
  6
Continuous
 62
               0
100
AcDbHatch
 10
0.0
 20
0.0
 30
0.0
210
0.0
220
0.0
230
1.0
  2
SOLID
 70
               1
 71
               1
 91
        1
 92
        1
 93
        1
 72
               2
 10
-424.95629017924421
 20
703.67531027275015
 40
4.99969482421875
 50
0.0
 51
360.0
 73
               0
 97
        1
330
7F
 75
               0
 76
               1
 98
        1
 10
0.0
 20
0.0
  0
LINE
  5
81
100
AcDbEntity
  8
0
370
              -2
390
0
  6
Continuous
 62
               0
100
AcDbLine
 10
-365.50079529896675
 20
773.69292129513906
 30
0.0
 11
-242.00079529896675
 21
773.69292129513906
 31
0.0
  0
MTEXT
  5
82
100
AcDbEntity
  8
0
390
0
 62
               0
100
AcDbMText
 10
-305.50079529896675
 20
807.57053848263911
 30
0.0
 40
24.432617187500004
 41
0.0
 71
               1
 72
               1
  1
φ36
  7
ＭＳ ゴシック
 73
               1
 44
0.7828267384257843
  0
POINT
  5
83
100
AcDbEntity
  8
Defpoints
370
               0
390
0
 62
               0
100
AcDbPoint
 10
-448.25809824353138
 20
676.23399578282852
 30
0.0
  0
POINT
  5
84
100
AcDbEntity
  8
Defpoints
370
               0
390
0
 62
               0
100
AcDbPoint
 10
-424.95629017924421
 20
703.67531027275015
 30
0.0
  0
ENDBLK
  5
85
100
AcDbEntity
  8
notes
390
0
100
AcDbBlockEnd
  0
BLOCK
  5
86
100
AcDbEntity
  8
notes
390
0
100
AcDbBlockBegin
  2
*D6
 70
               1
 10
0.0
 20
0.0
 30
0.0
  3
*D6
  1

  0
LINE
  5
87
100
AcDbEntity
  8
0
370
              -2
390
0
  6
Continuous
 62
               0
100
AcDbLine
 10
-564.68483485182946
 20
314.95465302778933
 30
0.0
 11
-761.66722072348762
 21
314.95465302778933
 31
0.0
  0
LINE
  5
88
100
AcDbEntity
  8
0
370
              -2
390
0
  6
Continuous
 62
               0
100
AcDbLine
 10
-648.69006355008491
 20
639.95465302778928
 30
0.0
 11
-761.66722072348762
 21
639.95465302778928
 31
0.0
  0
LINE
  5
89
100
AcDbEntity
  8
0
370
              -2
390
0
  6
Continuous
 62
               0
100
AcDbLine
 10
-761.66722072348762
 20
314.95465302778933
 30
0.0
 11
-761.66722072348762
 21
639.95465302778928
 31
0.0
  0
CIRCLE
  5
8A
102
{ACAD_REACTORS
330
8B
102
}
100
AcDbEntity
  8
0
370
              -2
390
0
  6
Continuous
 62
               0
100
AcDbCircle
 10
-761.66722072348762
 20
314.95465302778933
 30
0.0
 40
4.99969482421875
  0
HATCH
  5
8B
100
AcDbEntity
  8
0
370
              -2
390
0
  6
Continuous
 62
               0
100
AcDbHatch
 10
0.0
 20
0.0
 30
0.0
210
0.0
220
0.0
230
1.0
  2
SOLID
 70
               1
 71
               1
 91
        1
 92
        1
 93
        1
 72
               2
 10
-761.66722072348762
 20
314.95465302778933
 40
4.99969482421875
 50
0.0
 51
360.0
 73
               0
 97
        1
330
8A
 75
               0
 76
               1
 98
        1
 10
0.0
 20
0.0
  0
CIRCLE
  5
8C
102
{ACAD_REACTORS
330
8D
102
}
100
AcDbEntity
  8
0
370
              -2
390
0
  6
Continuous
 62
               0
100
AcDbCircle
 10
-761.66722072348762
 20
639.95465302778928
 30
0.0
 40
4.99969482421875
  0
HATCH
  5
8D
100
AcDbEntity
  8
0
370
              -2
390
0
  6
Continuous
 62
               0
100
AcDbHatch
 10
0.0
 20
0.0
 30
0.0
210
0.0
220
0.0
230
1.0
  2
SOLID
 70
               1
 71
               1
 91
        1
 92
        1
 93
        1
 72
               2
 10
-761.66722072348762
 20
639.95465302778928
 40
4.99969482421875
 50
0.0
 51
360.0
 73
               0
 97
        1
330
8C
 75
               0
 76
               1
 98
        1
 10
0.0
 20
0.0
  0
MTEXT
  5
8E
100
AcDbEntity
  8
0
390
0
 62
               0
100
AcDbMText
 10
-795.54483791098767
 20
453.64215134561374
 30
0.0
 40
24.432617187500004
 41
0.0
 71
               1
 72
               1
  1
325
  7
ＭＳ ゴシック
 11
0.0
 21
1.0
 31
0.0
 73
               1
 44
0.7828267384257843
  0
POINT
  5
8F
100
AcDbEntity
  8
Defpoints
370
               0
390
0
 62
               0
100
AcDbPoint
 10
-623.69006355008491
 20
639.95465302778928
 30
0.0
  0
POINT
  5
90
100
AcDbEntity
  8
Defpoints
370
               0
390
0
 62
               0
100
AcDbPoint
 10
-539.68483485182946
 20
314.95465302778933
 30
0.0
  0
POINT
  5
91
100
AcDbEntity
  8
Defpoints
370
               0
390
0
 62
               0
100
AcDbPoint
 10
-761.66722072348762
 20
314.95465302778933
 30
0.0
  0
ENDBLK
  5
92
100
AcDbEntity
  8
notes
390
0
100
AcDbBlockEnd
  0
BLOCK
  5
93
100
AcDbEntity
  8
notes
390
0
100
AcDbBlockBegin
  2
*D7
 70
               1
 10
0.0
 20
0.0
 30
0.0
  3
*D7
  1

  0
LINE
  5
94
100
AcDbEntity
  8
0
370
              -2
390
0
  6
Continuous
 62
               0
100
AcDbLine
 10
-648.69006355008491
 20
639.95465302778928
 30
0.0
 11
-761.66722072348762
 21
639.95465302778928
 31
0.0
  0
LINE
  5
95
100
AcDbEntity
  8
0
370
              -2
390
0
  6
Continuous
 62
               0
100
AcDbLine
 10
-486.60719421138788
 20
739.95465302778928
 30
0.0
 11
-761.66722072348762
 21
739.95465302778928
 31
0.0
  0
LINE
  5
96
100
AcDbEntity
  8
0
370
              -2
390
0
  6
Continuous
 62
               0
100
AcDbLine
 10
-761.66722072348762
 20
639.95465302778928
 30
0.0
 11
-761.66722072348762
 21
739.95465302778928
 31
0.0
  0
CIRCLE
  5
97
102
{ACAD_REACTORS
330
98
102
}
100
AcDbEntity
  8
0
370
              -2
390
0
  6
Continuous
 62
               0
100
AcDbCircle
 10
-761.66722072348762
 20
639.95465302778928
 30
0.0
 40
4.99969482421875
  0
HATCH
  5
98
100
AcDbEntity
  8
0
370
              -2
390
0
  6
Continuous
 62
               0
100
AcDbHatch
 10
0.0
 20
0.0
 30
0.0
210
0.0
220
0.0
230
1.0
  2
SOLID
 70
               1
 71
               1
 91
        1
 92
        1
 93
        1
 72
               2
 10
-761.66722072348762
 20
639.95465302778928
 40
4.99969482421875
 50
0.0
 51
360.0
 73
               0
 97
        1
330
97
 75
               0
 76
               1
 98
        1
 10
0.0
 20
0.0
  0
CIRCLE
  5
99
102
{ACAD_REACTORS
330
9A
102
}
100
AcDbEntity
  8
0
370
              -2
390
0
  6
Continuous
 62
               0
100
AcDbCircle
 10
-761.66722072348762
 20
739.95465302778928
 30
0.0
 40
4.99969482421875
  0
HATCH
  5
9A
100
AcDbEntity
  8
0
370
              -2
390
0
  6
Continuous
 62
               0
100
AcDbHatch
 10
0.0
 20
0.0
 30
0.0
210
0.0
220
0.0
230
1.0
  2
SOLID
 70
               1
 71
               1
 91
        1
 92
        1
 93
        1
 72
               2
 10
-761.66722072348762
 20
739.95465302778928
 40
4.99969482421875
 50
0.0
 51
360.0
 73
               0
 97
        1
330
99
 75
               0
 76
               1
 98
        1
 10
0.0
 20
0.0
  0
MTEXT
  5
9B
100
AcDbEntity
  8
0
390
0
 62
               0
100
AcDbMText
 10
-795.54483791098767
 20
666.1421513456138
 30
0.0
 40
24.432617187500004
 41
0.0
 71
               1
 72
               1
  1
100
  7
ＭＳ ゴシック
 11
0.0
 21
1.0
 31
0.0
 73
               1
 44
0.7828267384257843
  0
POINT
  5
9C
100
AcDbEntity
  8
Defpoints
370
               0
390
0
 62
               0
100
AcDbPoint
 10
-461.60719421138788
 20
739.95465302778928
 30
0.0
  0
POINT
  5
9D
100
AcDbEntity
  8
Defpoints
370
               0
390
0
 62
               0
100
AcDbPoint
 10
-623.69006355008491
 20
639.95465302778928
 30
0.0
  0
POINT
  5
9E
100
AcDbEntity
  8
Defpoints
370
               0
390
0
 62
               0
100
AcDbPoint
 10
-761.66722072348762
 20
639.95465302778928
 30
0.0
  0
ENDBLK
  5
9F
100
AcDbEntity
  8
notes
390
0
100
AcDbBlockEnd
  0
BLOCK
  5
A0
100
AcDbEntity
  8
notes
390
0
100
AcDbBlockBegin
  2
*D8
 70
               1
 10
0.0
 20
0.0
 30
0.0
  3
*D8
  1

  0
LINE
  5
A1
100
AcDbEntity
  8
0
370
              -2
390
0
  6
Continuous
 62
               0
100
AcDbLine
 10
-486.60719421138788
 20
289.95465302778928
 30
0.0
 11
-761.66722072348773
 21
289.95465302778928
 31
0.0
  0
LINE
  5
A2
100
AcDbEntity
  8
0
370
              -2
390
0
  6
Continuous
 62
               0
100
AcDbLine
 10
-572.50079529896675
 20
314.95465302778933
 30
0.0
 11
-761.66722072348773
 21
314.95465302778933
 31
0.0
  0
LINE
  5
A3
100
AcDbEntity
  8
0
370
              -2
390
0
  6
Continuous
 62
               0
100
AcDbLine
 10
-761.66722072348773
 20
289.95465302778928
 30
0.0
 11
-761.66722072348773
 21
314.95465302778933
 31
0.0
  0
CIRCLE
  5
A4
102
{ACAD_REACTORS
330
A5
102
}
100
AcDbEntity
  8
0
370
              -2
390
0
  6
Continuous
 62
               0
100
AcDbCircle
 10
-761.66722072348773
 20
289.95465302778928
 30
0.0
 40
4.99969482421875
  0
HATCH
  5
A5
100
AcDbEntity
  8
0
370
              -2
390
0
  6
Continuous
 62
               0
100
AcDbHatch
 10
0.0
 20
0.0
 30
0.0
210
0.0
220
0.0
230
1.0
  2
SOLID
 70
               1
 71
               1
 91
        1
 92
        1
 93
        1
 72
               2
 10
-761.66722072348773
 20
289.95465302778928
 40
4.99969482421875
 50
0.0
 51
360.0
 73
               0
 97
        1
330
A4
 75
               0
 76
               1
 98
        1
 10
0.0
 20
0.0
  0
CIRCLE
  5
A6
102
{ACAD_REACTORS
330
A7
102
}
100
AcDbEntity
  8
0
370
              -2
390
0
  6
Continuous
 62
               0
100
AcDbCircle
 10
-761.66722072348773
 20
314.95465302778933
 30
0.0
 40
4.99969482421875
  0
HATCH
  5
A7
100
AcDbEntity
  8
0
370
              -2
390
0
  6
Continuous
 62
               0
100
AcDbHatch
 10
0.0
 20
0.0
 30
0.0
210
0.0
220
0.0
230
1.0
  2
SOLID
 70
               1
 71
               1
 91
        1
 92
        1
 93
        1
 72
               2
 10
-761.66722072348773
 20
314.95465302778933
 40
4.99969482421875
 50
0.0
 51
360.0
 73
               0
 97
        1
330
A6
 75
               0
 76
               1
 98
        1
 10
0.0
 20
0.0
  0
MTEXT
  5
A8
100
AcDbEntity
  8
0
390
0
 62
               0
100
AcDbMText
 10
-795.54483791098778
 20
286.57965302778933
 30
0.0
 40
24.432617187500004
 41
0.0
 71
               1
 72
               1
  1
25
  7
ＭＳ ゴシック
 11
0.0
 21
1.0
 31
0.0
 73
               1
 44
0.7828267384257843
  0
POINT
  5
A9
100
AcDbEntity
  8
Defpoints
370
               0
390
0
 62
               0
100
AcDbPoint
 10
-547.50079529896675
 20
314.95465302778933
 30
0.0
  0
POINT
  5
AA
100
AcDbEntity
  8
Defpoints
370
               0
390
0
 62
               0
100
AcDbPoint
 10
-461.60719421138788
 20
289.95465302778928
 30
0.0
  0
POINT
  5
AB
100
AcDbEntity
  8
Defpoints
370
               0
390
0
 62
               0
100
AcDbPoint
 10
-761.66722072348773
 20
289.95465302778928
 30
0.0
  0
ENDBLK
  5
AC
100
AcDbEntity
  8
notes
390
0
100
AcDbBlockEnd
  0
BLOCK
  5
AD
100
AcDbEntity
  8
notes
390
0
100
AcDbBlockBegin
  2
*D9
 70
               1
 10
0.0
 20
0.0
 30
0.0
  3
*D9
  1

  0
LINE
  5
AE
100
AcDbEntity
  8
0
370
              -2
390
0
  6
Continuous
 62
               0
100
AcDbLine
 10
-274.10719421138782
 20
334.33090805293017
 30
0.0
 11
-274.10719421138782
 21
189.95465302778925
 31
0.0
  0
LINE
  5
AF
100
AcDbEntity
  8
0
370
              -2
390
0
  6
Continuous
 62
               0
100
AcDbLine
 10
-599.10719421138788
 20
334.33090805293006
 30
0.0
 11
-599.10719421138788
 21
189.95465302778925
 31
0.0
  0
LINE
  5
B0
100
AcDbEntity
  8
0
370
              -2
390
0
  6
Continuous
 62
               0
100
AcDbLine
 10
-274.10719421138782
 20
189.95465302778925
 30
0.0
 11
-599.10719421138788
 21
189.95465302778925
 31
0.0
  0
CIRCLE
  5
B1
102
{ACAD_REACTORS
330
B2
102
}
100
AcDbEntity
  8
0
370
              -2
390
0
  6
Continuous
 62
               0
100
AcDbCircle
 10
-274.10719421138782
 20
189.95465302778925
 30
0.0
 40
4.99969482421875
  0
HATCH
  5
B2
100
AcDbEntity
  8
0
370
              -2
390
0
  6
Continuous
 62
               0
100
AcDbHatch
 10
0.0
 20
0.0
 30
0.0
210
0.0
220
0.0
230
1.0
  2
SOLID
 70
               1
 71
               1
 91
        1
 92
        1
 93
        1
 72
               2
 10
-274.10719421138782
 20
189.95465302778925
 40
4.99969482421875
 50
0.0
 51
360.0
 73
               0
 97
        1
330
B1
 75
               0
 76
               1
 98
        1
 10
0.0
 20
0.0
  0
CIRCLE
  5
B3
102
{ACAD_REACTORS
330
B4
102
}
100
AcDbEntity
  8
0
370
              -2
390
0
  6
Continuous
 62
               0
100
AcDbCircle
 10
-599.10719421138788
 20
189.95465302778925
 30
0.0
 40
4.99969482421875
  0
HATCH
  5
B4
100
AcDbEntity
  8
0
370
              -2
390
0
  6
Continuous
 62
               0
100
AcDbHatch
 10
0.0
 20
0.0
 30
0.0
210
0.0
220
0.0
230
1.0
  2
SOLID
 70
               1
 71
               1
 91
        1
 92
        1
 93
        1
 72
               2
 10
-599.10719421138788
 20
189.95465302778925
 40
4.99969482421875
 50
0.0
 51
360.0
 73
               0
 97
        1
330
B3
 75
               0
 76
               1
 98
        1
 10
0.0
 20
0.0
  0
MTEXT
  5
B5
100
AcDbEntity
  8
0
390
0
 62
               0
100
AcDbMText
 10
-460.41969589356341
 20
223.83227021528924
 30
0.0
 40
24.432617187500004
 41
0.0
 71
               1
 72
               1
  1
325
  7
ＭＳ ゴシック
 73
               1
 44
0.7828267384257843
  0
POINT
  5
B6
100
AcDbEntity
  8
Defpoints
370
               0
390
0
 62
               0
100
AcDbPoint
 10
-599.10719421138788
 20
359.33090805293006
 30
0.0
  0
POINT
  5
B7
100
AcDbEntity
  8
Defpoints
370
               0
390
0
 62
               0
100
AcDbPoint
 10
-274.10719421138782
 20
359.33090805293017
 30
0.0
  0
POINT
  5
B8
100
AcDbEntity
  8
Defpoints
370
               0
390
0
 62
               0
100
AcDbPoint
 10
-274.10719421138782
 20
189.95465302778925
 30
0.0
  0
ENDBLK
  5
B9
100
AcDbEntity
  8
notes
390
0
100
AcDbBlockEnd
  0
BLOCK
  5
BA
100
AcDbEntity
  8
notes
390
0
100
AcDbBlockBegin
  2
*D10
 70
               1
 10
0.0
 20
0.0
 30
0.0
  3
*D10
  1

  0
LINE
  5
BB
100
AcDbEntity
  8
0
370
              -2
390
0
  6
Continuous
 62
               0
100
AcDbLine
 10
145.41226560080668
 20
-506.62273649631106
 30
0.0
 11
145.41226560080668
 21
-707.53381991884169
 31
0.0
  0
LINE
  5
BC
100
AcDbEntity
  8
0
370
              -2
390
0
  6
Continuous
 62
               0
100
AcDbLine
 10
407.97229203130399
 20
-632.53381991884169
 30
0.0
 11
407.97229203130399
 21
-707.53381991884169
 31
0.0
  0
LINE
  5
BD
100
AcDbEntity
  8
0
370
              -2
390
0
  6
Continuous
 62
               0
100
AcDbLine
 10
145.41226560080668
 20
-707.53381991884169
 30
0.0
 11
407.97229203130399
 21
-707.53381991884169
 31
0.0
  0
CIRCLE
  5
BE
102
{ACAD_REACTORS
330
BF
102
}
100
AcDbEntity
  8
0
370
              -2
390
0
  6
Continuous
 62
               0
100
AcDbCircle
 10
145.41226560080668
 20
-707.53381991884169
 30
0.0
 40
4.99969482421875
  0
HATCH
  5
BF
100
AcDbEntity
  8
0
370
              -2
390
0
  6
Continuous
 62
               0
100
AcDbHatch
 10
0.0
 20
0.0
 30
0.0
210
0.0
220
0.0
230
1.0
  2
SOLID
 70
               1
 71
               1
 91
        1
 92
        1
 93
        1
 72
               2
 10
145.41226560080668
 20
-707.53381991884169
 40
4.99969482421875
 50
0.0
 51
360.0
 73
               0
 97
        1
330
BE
 75
               0
 76
               1
 98
        1
 10
0.0
 20
0.0
  0
CIRCLE
  5
C0
102
{ACAD_REACTORS
330
C1
102
}
100
AcDbEntity
  8
0
370
              -2
390
0
  6
Continuous
 62
               0
100
AcDbCircle
 10
407.97229203130399
 20
-707.53381991884169
 30
0.0
 40
4.99969482421875
  0
HATCH
  5
C1
100
AcDbEntity
  8
0
370
              -2
390
0
  6
Continuous
 62
               0
100
AcDbHatch
 10
0.0
 20
0.0
 30
0.0
210
0.0
220
0.0
230
1.0
  2
SOLID
 70
               1
 71
               1
 91
        1
 92
        1
 93
        1
 72
               2
 10
407.97229203130399
 20
-707.53381991884169
 40
4.99969482421875
 50
0.0
 51
360.0
 73
               0
 97
        1
330
C0
 75
               0
 76
               1
 98
        1
 10
0.0
 20
0.0
  0
MTEXT
  5
C2
100
AcDbEntity
  8
0
390
0
 62
               0
100
AcDbMText
 10
237.00477881605536
 20
-673.65620273134164
 30
0.0
 40
24.432617187500004
 41
0.0
 71
               1
 72
               1
  1
262.6
  7
ＭＳ ゴシック
 73
               1
 44
0.7828267384257843
  0
POINT
  5
C3
100
AcDbEntity
  8
Defpoints
370
               0
390
0
 62
               0
100
AcDbPoint
 10
407.97229203130399
 20
-607.53381991884169
 30
0.0
  0
POINT
  5
C4
100
AcDbEntity
  8
Defpoints
370
               0
390
0
 62
               0
100
AcDbPoint
 10
145.41226560080668
 20
-481.62273649631106
 30
0.0
  0
POINT
  5
C5
100
AcDbEntity
  8
Defpoints
370
               0
390
0
 62
               0
100
AcDbPoint
 10
145.41226560080668
 20
-707.53381991884169
 30
0.0
  0
ENDBLK
  5
C6
100
AcDbEntity
  8
notes
390
0
100
AcDbBlockEnd
  0
BLOCK
  5
C7
100
AcDbEntity
  8
notes
390
0
100
AcDbBlockBegin
  2
*D11
 70
               1
 10
0.0
 20
0.0
 30
0.0
  3
*D11
  1

  0
LINE
  5
C8
100
AcDbEntity
  8
0
370
              -2
390
0
  6
Continuous
 62
               0
100
AcDbLine
 10
-386.60719421138788
 20
739.95465302778928
 30
0.0
 11
-111.54716769928768
 21
739.95465302778928
 31
0.0
  0
LINE
  5
C9
100
AcDbEntity
  8
0
370
              -2
390
0
  6
Continuous
 62
               0
100
AcDbLine
 10
-386.60719421138788
 20
289.95465302778928
 30
0.0
 11
-111.54716769928768
 21
289.95465302778928
 31
0.0
  0
LINE
  5
CA
100
AcDbEntity
  8
0
370
              -2
390
0
  6
Continuous
 62
               0
100
AcDbLine
 10
-111.54716769928768
 20
739.95465302778928
 30
0.0
 11
-111.54716769928768
 21
289.95465302778928
 31
0.0
  0
CIRCLE
  5
CB
102
{ACAD_REACTORS
330
CC
102
}
100
AcDbEntity
  8
0
370
              -2
390
0
  6
Continuous
 62
               0
100
AcDbCircle
 10
-111.54716769928768
 20
739.95465302778928
 30
0.0
 40
4.99969482421875
  0
HATCH
  5
CC
100
AcDbEntity
  8
0
370
              -2
390
0
  6
Continuous
 62
               0
100
AcDbHatch
 10
0.0
 20
0.0
 30
0.0
210
0.0
220
0.0
230
1.0
  2
SOLID
 70
               1
 71
               1
 91
        1
 92
        1
 93
        1
 72
               2
 10
-111.54716769928768
 20
739.95465302778928
 40
4.99969482421875
 50
0.0
 51
360.0
 73
               0
 97
        1
330
CB
 75
               0
 76
               1
 98
        1
 10
0.0
 20
0.0
  0
CIRCLE
  5
CD
102
{ACAD_REACTORS
330
CE
102
}
100
AcDbEntity
  8
0
370
              -2
390
0
  6
Continuous
 62
               0
100
AcDbCircle
 10
-111.54716769928768
 20
289.95465302778928
 30
0.0
 40
4.99969482421875
  0
HATCH
  5
CE
100
AcDbEntity
  8
0
370
              -2
390
0
  6
Continuous
 62
               0
100
AcDbHatch
 10
0.0
 20
0.0
 30
0.0
210
0.0
220
0.0
230
1.0
  2
SOLID
 70
               1
 71
               1
 91
        1
 92
        1
 93
        1
 72
               2
 10
-111.54716769928768
 20
289.95465302778928
 40
4.99969482421875
 50
0.0
 51
360.0
 73
               0
 97
        1
330
CD
 75
               0
 76
               1
 98
        1
 10
0.0
 20
0.0
  0
MTEXT
  5
CF
100
AcDbEntity
  8
0
390
0
 62
               0
100
AcDbMText
 10
-145.42478488678768
 20
491.14215134561374
 30
0.0
 40
24.432617187500004
 41
0.0
 71
               1
 72
               1
  1
450
  7
ＭＳ ゴシック
 11
0.0
 21
1.0
 31
0.0
 73
               1
 44
0.7828267384257843
  0
POINT
  5
D0
100
AcDbEntity
  8
Defpoints
370
               0
390
0
 62
               0
100
AcDbPoint
 10
-411.60719421138788
 20
289.95465302778928
 30
0.0
  0
POINT
  5
D1
100
AcDbEntity
  8
Defpoints
370
               0
390
0
 62
               0
100
AcDbPoint
 10
-411.60719421138788
 20
739.95465302778928
 30
0.0
  0
POINT
  5
D2
100
AcDbEntity
  8
Defpoints
370
               0
390
0
 62
               0
100
AcDbPoint
 10
-111.54716769928768
 20
739.95465302778928
 30
0.0
  0
ENDBLK
  5
D3
100
AcDbEntity
  8
notes
390
0
100
AcDbBlockEnd
  0
BLOCK
  5
D4
100
AcDbEntity
  8
notes
390
0
100
AcDbBlockBegin
  2
*D12
 70
               1
 10
0.0
 20
0.0
 30
0.0
  3
*D12
  1

  0
LINE
  5
D5
100
AcDbEntity
  8
0
370
              -2
390
0
  6
Continuous
 62
               0
100
AcDbLine
 10
617.03285169205401
 20
-478.18381991884155
 30
0.0
 11
671.07869102537506
 21
-478.18381991884155
 31
0.0
  0
LINE
  5
D6
100
AcDbEntity
  8
0
370
              -2
390
0
  6
Continuous
 62
               0
100
AcDbLine
 10
619.8487270876542
 20
-486.18381991884166
 30
0.0
 11
671.07869102537506
 21
-486.18381991884166
 31
0.0
  0
LINE
  5
D7
100
AcDbEntity
  8
0
370
              -2
390
0
  6
Continuous
 62
               0
100
AcDbLine
 10
671.07869102537506
 20
-478.18381991884155
 30
0.0
 11
671.07869102537506
 21
-437.65470279909096
 31
0.0
  0
LINE
  5
D8
100
AcDbEntity
  8
0
370
              -2
390
0
  6
Continuous
 62
               0
100
AcDbLine
 10
671.07869102537506
 20
-478.18381991884155
 30
0.0
 11
671.07869102537506
 21
-486.18381991884166
 31
0.0
  0
CIRCLE
  5
D9
102
{ACAD_REACTORS
330
DA
102
}
100
AcDbEntity
  8
0
370
              -2
390
0
  6
Continuous
 62
               0
100
AcDbCircle
 10
671.07869102537506
 20
-478.18381991884155
 30
0.0
 40
4.99969482421875
  0
HATCH
  5
DA
100
AcDbEntity
  8
0
370
              -2
390
0
  6
Continuous
 62
               0
100
AcDbHatch
 10
0.0
 20
0.0
 30
0.0
210
0.0
220
0.0
230
1.0
  2
SOLID
 70
               1
 71
               1
 91
        1
 92
        1
 93
        1
 72
               2
 10
671.07869102537506
 20
-478.18381991884155
 40
4.99969482421875
 50
0.0
 51
360.0
 73
               0
 97
        1
330
D9
 75
               0
 76
               1
 98
        1
 10
0.0
 20
0.0
  0
CIRCLE
  5
DB
102
{ACAD_REACTORS
330
DC
102
}
100
AcDbEntity
  8
0
370
              -2
390
0
  6
Continuous
 62
               0
100
AcDbCircle
 10
671.07869102537506
 20
-486.18381991884166
 30
0.0
 40
4.99969482421875
  0
HATCH
  5
DC
100
AcDbEntity
  8
0
370
              -2
390
0
  6
Continuous
 62
               0
100
AcDbHatch
 10
0.0
 20
0.0
 30
0.0
210
0.0
220
0.0
230
1.0
  2
SOLID
 70
               1
 71
               1
 91
        1
 92
        1
 93
        1
 72
               2
 10
671.07869102537506
 20
-486.18381991884166
 40
4.99969482421875
 50
0.0
 51
360.0
 73
               0
 97
        1
330
DB
 75
               0
 76
               1
 98
        1
 10
0.0
 20
0.0
  0
MTEXT
  5
DD
100
AcDbEntity
  8
0
390
0
 62
               0
100
AcDbMText
 10
637.20107383787501
 20
-453.52970279909096
 30
0.0
 40
24.432617187500004
 41
0.0
 71
               1
 72
               1
  1
8
  7
ＭＳ ゴシック
 11
0.0
 21
1.0
 31
0.0
 73
               1
 44
0.7828267384257843
  0
POINT
  5
DE
100
AcDbEntity
  8
Defpoints
370
               0
390
0
 62
               0
100
AcDbPoint
 10
594.8487270876542
 20
-486.18381991884166
 30
0.0
  0
POINT
  5
DF
100
AcDbEntity
  8
Defpoints
370
               0
390
0
 62
               0
100
AcDbPoint
 10
592.03285169205401
 20
-478.18381991884155
 30
0.0
  0
POINT
  5
E0
100
AcDbEntity
  8
Defpoints
370
               0
390
0
 62
               0
100
AcDbPoint
 10
671.07869102537506
 20
-478.18381991884155
 30
0.0
  0
ENDBLK
  5
E1
100
AcDbEntity
  8
notes
390
0
100
AcDbBlockEnd
  0
BLOCK
  5
E2
100
AcDbEntity
  8
notes
390
0
100
AcDbBlockBegin
  2
*D13
 70
               1
 10
0.0
 20
0.0
 30
0.0
  3
*D13
  1

  0
LINE
  5
E3
100
AcDbEntity
  8
0
370
              -2
390
0
  6
Continuous
 62
               0
100
AcDbLine
 10
535.299523020229
 20
388.89316713052574
 30
0.0
 11
633.35722517566523
 21
313.89316713052585
 31
0.0
  0
CIRCLE
  5
E4
102
{ACAD_REACTORS
330
E5
102
}
100
AcDbEntity
  8
0
370
              -2
390
0
  6
Continuous
 62
               0
100
AcDbCircle
 10
535.299523020229
 20
388.89316713052574
 30
0.0
 40
4.99969482421875
  0
HATCH
  5
E5
100
AcDbEntity
  8
0
370
              -2
390
0
  6
Continuous
 62
               0
100
AcDbHatch
 10
0.0
 20
0.0
 30
0.0
210
0.0
220
0.0
230
1.0
  2
SOLID
 70
               1
 71
               1
 91
        1
 92
        1
 93
        1
 72
               2
 10
535.299523020229
 20
388.89316713052574
 40
4.99969482421875
 50
0.0
 51
360.0
 73
               0
 97
        1
330
E4
 75
               0
 76
               1
 98
        1
 10
0.0
 20
0.0
  0
LINE
  5
E6
100
AcDbEntity
  8
0
370
              -2
390
0
  6
Continuous
 62
               0
100
AcDbLine
 10
633.35722517566523
 20
313.89316713052585
 30
0.0
 11
772.73222517566523
 21
313.89316713052585
 31
0.0
  0
MTEXT
  5
E7
100
AcDbEntity
  8
0
390
0
 62
               0
100
AcDbMText
 10
693.35722517566523
 20
347.77078431802585
 30
0.0
 40
24.432617187500004
 41
0.0
 71
               1
 72
               1
  1
φ415
  7
ＭＳ ゴシック
 73
               1
 44
0.7828267384257843
  0
POINT
  5
E8
100
AcDbEntity
  8
Defpoints
370
               0
390
0
 62
               0
100
AcDbPoint
 10
205.66486602327976
 20
641.01613892505247
 30
0.0
  0
POINT
  5
E9
100
AcDbEntity
  8
Defpoints
370
               0
390
0
 62
               0
100
AcDbPoint
 10
535.299523020229
 20
388.89316713052574
 30
0.0
  0
ENDBLK
  5
EA
100
AcDbEntity
  8
notes
390
0
100
AcDbBlockEnd
  0
BLOCK
  5
EB
100
AcDbEntity
  8
notes
390
0
100
AcDbBlockBegin
  2
*D14
 70
               1
 10
0.0
 20
0.0
 30
0.0
  3
*D14
  1

  0
LINE
  5
EC
100
AcDbEntity
  8
0
370
              -2
390
0
  6
Continuous
 62
               0
100
AcDbLine
 10
-190.04663463228775
 20
-478.18381991884155
 30
0.0
 11
-128.01780547824569
 21
-478.18381991884155
 31
0.0
  0
LINE
  5
ED
100
AcDbEntity
  8
0
370
              -2
390
0
  6
Continuous
 62
               0
100
AcDbLine
 10
-376.61780547824571
 20
-650.18381991884155
 30
0.0
 11
-128.01780547824569
 21
-650.18381991884155
 31
0.0
  0
LINE
  5
EE
100
AcDbEntity
  8
0
370
              -2
390
0
  6
Continuous
 62
               0
100
AcDbLine
 10
-128.01780547824569
 20
-478.18381991884155
 30
0.0
 11
-128.01780547824569
 21
-650.18381991884155
 31
0.0
  0
CIRCLE
  5
EF
102
{ACAD_REACTORS
330
F0
102
}
100
AcDbEntity
  8
0
370
              -2
390
0
  6
Continuous
 62
               0
100
AcDbCircle
 10
-128.01780547824569
 20
-478.18381991884155
 30
0.0
 40
4.99969482421875
  0
HATCH
  5
F0
100
AcDbEntity
  8
0
370
              -2
390
0
  6
Continuous
 62
               0
100
AcDbHatch
 10
0.0
 20
0.0
 30
0.0
210
0.0
220
0.0
230
1.0
  2
SOLID
 70
               1
 71
               1
 91
        1
 92
        1
 93
        1
 72
               2
 10
-128.01780547824569
 20
-478.18381991884155
 40
4.99969482421875
 50
0.0
 51
360.0
 73
               0
 97
        1
330
EF
 75
               0
 76
               1
 98
        1
 10
0.0
 20
0.0
  0
CIRCLE
  5
F1
102
{ACAD_REACTORS
330
F2
102
}
100
AcDbEntity
  8
0
370
              -2
390
0
  6
Continuous
 62
               0
100
AcDbCircle
 10
-128.01780547824569
 20
-650.18381991884155
 30
0.0
 40
4.99969482421875
  0
HATCH
  5
F2
100
AcDbEntity
  8
0
370
              -2
390
0
  6
Continuous
 62
               0
100
AcDbHatch
 10
0.0
 20
0.0
 30
0.0
210
0.0
220
0.0
230
1.0
  2
SOLID
 70
               1
 71
               1
 91
        1
 92
        1
 93
        1
 72
               2
 10
-128.01780547824569
 20
-650.18381991884155
 40
4.99969482421875
 50
0.0
 51
360.0
 73
               0
 97
        1
330
F1
 75
               0
 76
               1
 98
        1
 10
0.0
 20
0.0
  0
MTEXT
  5
F3
100
AcDbEntity
  8
0
390
0
 62
               0
100
AcDbMText
 10
-161.89542266574568
 20
-587.99632160101703
 30
0.0
 40
24.432617187500004
 41
0.0
 71
               1
 72
               1
  1
172
  7
ＭＳ ゴシック
 11
0.0
 21
1.0
 31
0.0
 73
               1
 44
0.7828267384257843
  0
POINT
  5
F4
100
AcDbEntity
  8
Defpoints
370
               0
390
0
 62
               0
100
AcDbPoint
 10
-401.61780547824571
 20
-650.18381991884155
 30
0.0
  0
POINT
  5
F5
100
AcDbEntity
  8
Defpoints
370
               0
390
0
 62
               0
100
AcDbPoint
 10
-215.04663463228775
 20
-478.18381991884155
 30
0.0
  0
POINT
  5
F6
100
AcDbEntity
  8
Defpoints
370
               0
390
0
 62
               0
100
AcDbPoint
 10
-128.01780547824569
 20
-478.18381991884155
 30
0.0
  0
ENDBLK
  5
F7
100
AcDbEntity
  8
notes
390
0
100
AcDbBlockEnd
  0
ENDSEC
  0
SECTION
  2
ENTITIES
  0
MTEXT
  5
F8
100
AcDbEntity
  8
template
390
0
 62
               7
100
AcDbMText
 10
-967.99999999975921
 20
-1147.4176292337004
 30
0.0
 40
16.288411458333332
 41
0.0
 71
               1
 72
               1
  1
品名
  7
ＭＳ ゴシック
 73
               1
 44
0.7828267384257843
  0
MTEXT
  5
F9
100
AcDbEntity
  8
template
390
0
 62
               7
100
AcDbMText
 10
-967.99999999975921
 20
-1232.4176292337004
 30
0.0
 40
16.288411458333332
 41
0.0
 71
               1
 72
               1
  1
仕様
  7
ＭＳ ゴシック
 73
               1
 44
0.7828267384257843
  0
MTEXT
  5
FA
100
AcDbEntity
  8
template
390
0
 62
               7
100
AcDbMText
 10
-914.99999999975921
 20
-1176.0000901712006
 30
0.0
 40
24.432617187500004
 41
0.0
 71
               1
 72
               1
  1
洗面器 -ALAPE-
  7
ＭＳ ゴシック
 73
               1
 44
0.7828267384257843
  0
LINE
  5
FB
100
AcDbEntity
  8
template
370
               5
390
0
  6
Continuous
 62
               7
100
AcDbLine
 10
974.99999999975876
 20
-1224.0027073587005
 30
0.0
 11
-975.00000000024124
 21
-1224.0027073587005
 31
0.0
  0
LWPOLYLINE
  5
FC
100
AcDbEntity
  8
template
370
               5
390
0
  6
Continuous
 62
               7
100
AcDbPolyline
 90
        5
 70
             128
 10
975.00000000024124
 20
1405.9972926412995
 10
-974.99999999975921
 20
1405.9972926412995
 10
-974.99999999975921
 20
-1394.0027073587005
 10
975.00000000024124
 20
-1394.0027073587005
 10
975.00000000024124
 20
1405.9972926412995
  0
LINE
  5
FD
100
AcDbEntity
  8
template
370
               5
390
0
  6
Continuous
 62
               7
100
AcDbLine
 10
974.99999999975876
 20
-1139.0027073587005
 30
0.0
 11
-975.00000000024124
 21
-1139.0027073587005
 31
0.0
  0
LINE
  5
FE
100
AcDbEntity
  8
template
370
               5
390
0
  6
Continuous
 62
               7
100
AcDbLine
 10
975.00000000024124
 20
-1309.0027073587005
 30
0.0
 11
222.00000000024124
 21
-1309.0027073587005
 31
0.0
  0
MTEXT
  5
FF
100
AcDbEntity
  8
template
390
0
 62
               7
100
AcDbMText
 10
-974.99999999955594
 20
-1405.8565294155574
 30
0.0
 40
21.717881944444446
 41
0.0
 71
               1
 72
               1
  1
120501SH
  7
ＭＳ ゴシック
 73
               1
 44
0.7828267384257843
  0
MTEXT
  5
100
100
AcDbEntity
  8
template
390
0
 62
               7
100
AcDbMText
 10
251.87140625250089
 20
-1338.9131018320081
 30
0.0
 40
24.432617187500004
 41
0.0
 71
               1
 72
               1
  1
大洋金物株式会社 ティーフォルム事業部
  7
ＭＳ ゴシック
 73
               1
 44
0.7828267384257843
  0
INSERT
  5
101
100
AcDbEntity
  8
template
390
0
 62
               7
100
AcDbBlockReference
  2
グループ
 10
0.0
 20
60.325000000000024
 30
0.0
  0
MTEXT
  5
102
100
AcDbEntity
  8
template
390
0
 62
               7
100
AcDbMText
 10
784.00000000049999
 20
-1261.0000901712006
 30
0.0
 40
24.432617187500004
 41
0.0
 71
               1
 72
               1
  1
1:10
  7
ＭＳ ゴシック
 73
               1
 44
0.7828267384257843
  0
MTEXT
  5
103
100
AcDbEntity
  8
template
390
0
 62
               7
100
AcDbMText
 10
731.00000000049999
 20
-1232.4176292337004
 30
0.0
 40
16.288411458333332
 41
0.0
 71
               1
 72
               1
  1
縮尺
  7
ＭＳ ゴシック
 73
               1
 44
0.7828267384257843
  0
LINE
  5
104
100
AcDbEntity
  8
template
370
               5
390
0
  6
Continuous
 62
               7
100
AcDbLine
 10
724.00000000049999
 20
-1309.0027073587005
 30
0.0
 11
724.00000000049999
 21
-1224.0027073587005
 31
0.0
  0
MTEXT
  5
105
100
AcDbEntity
  8
template
390
0
 62
               7
100
AcDbMText
 10
480.00000000049999
 20
-1232.4176292337004
 30
0.0
 40
16.288411458333332
 41
0.0
 71
               1
 72
               1
  1
容量
  7
ＭＳ ゴシック
 73
               1
 44
0.7828267384257843
  0
LINE
  5
106
100
AcDbEntity
  8
template
370
               5
390
0
  6
Continuous
 62
               7
100
AcDbLine
 10
473.00000000049999
 20
-1309.0027073587005
 30
0.0
 11
473.00000000049999
 21
-1224.0027073587005
 31
0.0
  0
MTEXT
  5
107
100
AcDbEntity
  8
template
390
0
 62
               7
100
AcDbMText
 10
229.00000000049999
 20
-1147.4176292337004
 30
0.0
 40
16.288411458333332
 41
0.0
 71
               1
 72
               1
  1
品番
  7
ＭＳ ゴシック
 73
               1
 44
0.7828267384257843
  0
MTEXT
  5
108
100
AcDbEntity
  8
template
390
0
 62
               7
100
AcDbMText
 10
229.00000000049999
 20
-1232.4176292337004
 30
0.0
 40
16.288411458333332
 41
0.0
 71
               1
 72
               1
  1
重量
  7
ＭＳ ゴシック
 73
               1
 44
0.7828267384257843
  0
MTEXT
  5
109
100
AcDbEntity
  8
template
390
0
 62
               7
100
AcDbMText
 10
282.00000000049999
 20
-1176.0000901712006
 30
0.0
 40
24.432617187500004
 41
0.0
 71
               1
 72
               1
  1
FAN70-0302
  7
ＭＳ ゴシック
 73
               1
 44
0.7828267384257843
  0
LINE
  5
10A
100
AcDbEntity
  8
template
370
               5
390
0
  6
Continuous
 62
               7
100
AcDbLine
 10
222.00000000049999
 20
-1394.0027073587005
 30
0.0
 11
222.00000000049999
 21
-1139.0027073587005
 31
0.0
  0
MTEXT
  5
10B
100
AcDbEntity
  8
template
390
0
 62
               7
100
AcDbMText
 10
-914.99999999975921
 20
-1261.0000901712003
 30
0.0
 40
24.432617187500004
 41
0.0
 71
               1
 72
               1
  1
オーバーカウンター/オーバーフロー付き/型紙付属/\P鋼板ホーロー/ホワイト
  7
ＭＳ ゴシック
 73
               1
 44
1.1307497332816883
  0
MTEXT
  5
10C
100
AcDbEntity
  8
template
390
0
 62
               7
100
AcDbMText
 10
98.5
 20
98.002617187499993
 30
0.0
 40
24.432617187500004
 41
0.0
 71
               1
 72
               1
  1
※カウンターの切込は、商品に付属する型紙を\P　ご参照の上、加工を行ってください。
  7
ＭＳ ゴシック
 73
               1
 44
1.1742401076386764
  0
LINE
  5
10D
100
AcDbEntity
  8
template
370
               5
390
0
  6
Continuous
 62
               7
100
AcDbLine
 10
372.98219452175431
 20
-614.0
 30
0.0
 11
442.98219452175431
 21
-614.0
 31
0.0
  0
LINE
  5
10E
100
AcDbEntity
  8
template
370
               5
390
0
  6
Continuous
 62
               7
100
AcDbLine
 10
-471.6627768654273
 20
-614.0
 30
0.0
 11
-401.6627768654273
 21
-614.0
 31
0.0
  0
MTEXT
  5
10F
100
AcDbEntity
  8
template
390
0
 62
               7
100
AcDbMText
 10
286.25
 20
-1261.0000901712006
 30
0.0
 40
24.432617187500004
 41
0.0
 71
               1
 72
               1
  1
2.9kg
  7
ＭＳ ゴシック
 73
               1
 44
0.7828267384257843
  0
DIMENSION
  5
110
100
AcDbEntity
  8
notes
370
               5
390
0
  6
Continuous
 62
               7
100
AcDbDimension
  2
*D2
 10
145.41226560080668
 20
-382.43381991884155
 30
0.0
 11
170.41226560080668
 21
-382.43381991884155
 31
0.0
 71
               5
 72
               1
 41
1.0
 42
0.0
  3
tfrom線あり
100
AcDbAlignedDimension
 13
195.41226560080668
 23
-478.18381991884155
 33
0.0
 14
145.41226560080668
 24
-481.62273649631106
 34
0.0
100
AcDbRotatedDimension
1001
ACAD
1000
DSTYLE
1002
{
1070
             279
1070
               2
1070
             340
1005
31
1070
             147
1040
5.0
1002
}
  0
DIMENSION
  5
111
100
AcDbEntity
  8
notes
370
               5
390
0
  6
Continuous
 62
               7
100
AcDbDimension
  2
*D3
 10
407.98219452175431
 20
-478.18381991884155
 30
0.0
 11
412.98219452175431
 21
-428.10683286947415
 31
0.0
 70
             128
 71
               5
 72
               1
 41
1.0
 42
0.0
  3
tfrom線あり
100
AcDbAlignedDimension
 13
407.97229211295394
 23
-603.18381991884155
 33
0.0
 14
407.97229211295394
 24
-478.18381991884155
 34
0.0
 50
90.0
100
AcDbRotatedDimension
1001
ACAD
1000
DSTYLE
1002
{
1070
             279
1070
               2
1070
             340
1005
31
1070
               3
1000
<>(深さ)
1070
             174
1070
               0
1070
             147
1040
5.0
1002
}
  0
DIMENSION
  5
112
100
AcDbEntity
  8
notes
370
               5
390
0
  6
Continuous
 62
               7
100
AcDbDimension
  2
*D4
 10
-661.66722072348773
 20
839.95465302778928
 30
0.0
 11
-437.64345070828773
 21
844.95465302778928
 31
0.0
 70
             128
 71
               5
 72
               1
 41
1.0
 42
0.0
  3
tfrom線あり
100
AcDbAlignedDimension
 13
-211.54716769928768
 23
539.95465302778928
 33
0.0
 14
-661.66722072348773
 24
539.95465302778928
 34
0.0
100
AcDbRotatedDimension
1001
ACAD
1000
DSTYLE
1002
{
1070
             271
1070
               0
1070
             279
1070
               2
1070
             340
1005
31
1070
             147
1040
5.0
1002
}
  0
DIMENSION
  5
113
100
AcDbEntity
  8
notes
370
               5
390
0
  6
Continuous
 62
               7
100
AcDbDimension
  2
*D5
 10
-448.25809824353138
 20
676.23399578282852
 30
0.0
 11
-305.50079529896664
 21
773.69292129513883
 31
0.0
 70
               3
 71
               5
 72
               1
 41
1.0
 42
0.0
  3
tfrom線あり
100
AcDbDiametricDimension
 15
-424.95629017924421
 25
703.67531027275015
 35
0.0
 40
91.855439276840016
1001
ACAD
1000
DSTYLE
1002
{
1070
             289
1070
               0
1070
             342
1005
44
1070
             340
1005
31
1070
              75
1070
               1
1070
              76
1070
               1
1070
               3
1000

1070
             174
1070
               0
1070
             147
1040
5.0
1002
}
  0
MTEXT
  5
114
100
AcDbEntity
  8
notes
390
0
 62
               7
100
AcDbMText
 10
221.85719452175431
 20
926.0207843180259
 30
0.0
 40
24.432617187500004
 41
0.0
 71
               1
 72
               1
  1
カウンター切込寸法
  7
ＭＳ ゴシック
 73
               1
 44
0.7828267384257843
  0
DIMENSION
  5
115
100
AcDbEntity
  8
notes
370
               5
390
0
  6
Continuous
 62
               7
100
AcDbDimension
  2
*D6
 10
-761.66722072348762
 20
314.95465302778933
 30
0.0
 11
-761.66722072348762
 21
477.45465302778928
 31
0.0
 71
               5
 72
               1
 41
1.0
 42
0.0
  3
tfrom線あり
100
AcDbAlignedDimension
 13
-623.69006355008491
 23
639.95465302778928
 33
0.0
 14
-539.68483485182946
 24
314.95465302778933
 34
0.0
 50
90.0
100
AcDbRotatedDimension
1001
ACAD
1000
DSTYLE
1002
{
1070
             279
1070
               2
1070
             340
1005
31
1070
             147
1040
5.0
1002
}
  0
DIMENSION
  5
116
100
AcDbEntity
  8
notes
370
               5
390
0
  6
Continuous
 62
               7
100
AcDbDimension
  2
*D7
 10
-761.66722072348762
 20
639.95465302778928
 30
0.0
 11
-766.66722072348762
 21
689.95465302778928
 31
0.0
 70
             128
 71
               5
 72
               1
 41
1.0
 42
0.0
  3
tfrom線あり
100
AcDbAlignedDimension
 13
-461.60719421138788
 23
739.95465302778928
 33
0.0
 14
-623.69006355008491
 24
639.95465302778928
 34
0.0
 50
90.0
100
AcDbRotatedDimension
1001
ACAD
1000
DSTYLE
1002
{
1070
             279
1070
               2
1070
             340
1005
31
1070
             147
1040
5.0
1002
}
  0
DIMENSION
  5
117
100
AcDbEntity
  8
notes
370
               5
390
0
  6
Continuous
 62
               7
100
AcDbDimension
  2
*D8
 10
-761.66722072348773
 20
289.95465302778928
 30
0.0
 11
-766.66722072348773
 21
302.45465302778933
 31
0.0
 70
             128
 71
               5
 72
               1
 41
1.0
 42
0.0
  3
tfrom線あり
100
AcDbAlignedDimension
 13
-547.50079529896675
 23
314.95465302778933
 33
0.0
 14
-461.60719421138788
 24
289.95465302778928
 34
0.0
 50
90.0
100
AcDbRotatedDimension
1001
ACAD
1000
DSTYLE
1002
{
1070
             279
1070
               2
1070
             340
1005
31
1070
             147
1040
5.0
1002
}
  0
DIMENSION
  5
118
100
AcDbEntity
  8
notes
370
               5
390
0
  6
Continuous
 62
               7
100
AcDbDimension
  2
*D9
 10
-274.10719421138782
 20
189.95465302778925
 30
0.0
 11
-436.60719421138788
 21
189.95465302778925
 31
0.0
 71
               5
 72
               1
 41
1.0
 42
0.0
  3
tfrom線あり
100
AcDbAlignedDimension
 13
-599.10719421138788
 23
359.33090805293006
 33
0.0
 14
-274.10719421138782
 24
359.33090805293017
 34
0.0
100
AcDbRotatedDimension
1001
ACAD
1000
DSTYLE
1002
{
1070
             279
1070
               2
1070
             340
1005
31
1070
             147
1040
5.0
1002
}
  0
DIMENSION
  5
119
100
AcDbEntity
  8
notes
370
               5
390
0
  6
Continuous
 62
               7
100
AcDbDimension
  2
*D10
 10
145.41226560080668
 20
-707.53381991884169
 30
0.0
 11
276.69227881605536
 21
-707.53381991884169
 31
0.0
 71
               5
 72
               1
 41
1.0
 42
0.0
  3
tfrom線あり
100
AcDbAlignedDimension
 13
407.97229203130399
 23
-607.53381991884169
 33
0.0
 14
145.41226560080668
 24
-481.62273649631106
 34
0.0
100
AcDbRotatedDimension
1001
ACAD
1000
DSTYLE
1002
{
1070
             279
1070
               2
1070
             340
1005
31
1070
             147
1040
5.0
1002
}
  0
DIMENSION
  5
11A
100
AcDbEntity
  8
notes
370
               5
390
0
  6
Continuous
 62
               7
100
AcDbDimension
  2
*D11
 10
-111.54716769928768
 20
739.95465302778928
 30
0.0
 11
-111.54716769928768
 21
514.95465302778928
 31
0.0
 71
               5
 72
               1
 41
1.0
 42
0.0
  3
tfrom線あり
100
AcDbAlignedDimension
 13
-411.60719421138788
 23
289.95465302778928
 33
0.0
 14
-411.60719421138788
 24
739.95465302778928
 34
0.0
 50
90.0
100
AcDbRotatedDimension
1001
ACAD
1000
DSTYLE
1002
{
1070
             279
1070
               2
1070
             340
1005
31
1070
             147
1040
5.0
1002
}
  0
DIMENSION
  5
11B
100
AcDbEntity
  8
notes
370
               5
390
0
  6
Continuous
 62
               7
100
AcDbDimension
  2
*D12
 10
671.07869102537506
 20
-478.18381991884155
 30
0.0
 11
676.07869102537506
 21
-453.52970279909096
 31
0.0
 70
             128
 71
               5
 72
               1
 41
1.0
 42
0.0
  3
tfrom線あり
100
AcDbAlignedDimension
 13
594.8487270876542
 23
-486.18381991884166
 33
0.0
 14
592.03285169205401
 24
-478.18381991884155
 34
0.0
 50
90.0
100
AcDbRotatedDimension
1001
ACAD
1000
DSTYLE
1002
{
1070
             279
1070
               2
1070
             340
1005
31
1070
             174
1070
               0
1070
             147
1040
5.0
1002
}
  0
DIMENSION
  5
11C
100
AcDbEntity
  8
notes
370
               5
390
0
  6
Continuous
 62
               7
100
AcDbDimension
  2
*D13
 10
205.66486602327976
 20
641.01613892505247
 30
0.0
 11
693.35722517566523
 21
313.89316713052585
 31
0.0
 70
               3
 71
               5
 72
               1
 41
1.0
 42
0.0
  3
tfrom線あり
100
AcDbDiametricDimension
 15
535.299523020229
 25
388.89316713052574
 35
0.0
 40
123.4516624108571
1001
ACAD
1000
DSTYLE
1002
{
1070
             289
1070
               0
1070
             342
1005
44
1070
             340
1005
31
1070
              75
1070
               1
1070
              76
1070
               1
1070
               3
1000

1070
             174
1070
               0
1070
             147
1040
5.0
1002
}
  0
DIMENSION
  5
11D
100
AcDbEntity
  8
notes
370
               5
390
0
  6
Continuous
 62
               7
100
AcDbDimension
  2
*D14
 10
-128.01780547824569
 20
-478.18381991884155
 30
0.0
 11
-128.01780547824569
 21
-564.18381991884155
 31
0.0
 71
               5
 72
               1
 41
1.0
 42
0.0
  3
tfrom線あり
100
AcDbAlignedDimension
 13
-401.61780547824571
 23
-650.18381991884155
 33
0.0
 14
-215.04663463228775
 24
-478.18381991884155
 34
0.0
 50
90.0
100
AcDbRotatedDimension
1001
ACAD
1000
DSTYLE
1002
{
1070
             279
1070
               2
1070
             340
1005
31
1070
             147
1040
5.0
1002
}
  0
ARC
  5
11E
100
AcDbEntity
  8
FAN70-0302
370
              15
390
0
  6
Continuous
 62
               7
100
AcDbCircle
 10
-660.98362918608791
 20
-485.43381991884166
 30
0.0
 40
0.7499999999998966
100
AcDbArc
 50
178.9999999999981
 51
270.0
  0
ARC
  5
11F
100
AcDbEntity
  8
FAN70-0302
370
              15
390
0
  6
Continuous
 62
               7
100
AcDbCircle
 10
-212.23075923668779
 20
-485.43381991884166
 30
0.0
 40
0.75
100
AcDbArc
 50
270.0
 51
1.0000000000017624
  0
LINE
  5
120
100
AcDbEntity
  8
FAN70-0302
370
              15
390
0
  6
Continuous
 62
               7
100
AcDbLine
 10
-211.48087346528774
 20
-485.42073061404164
 30
0.0
 11
-211.54716769928774
 21
-481.62273649634153
 31
0.0
  0
LINE
  5
121
100
AcDbEntity
  8
FAN70-0302
370
              15
390
0
  6
Continuous
 62
               7
100
AcDbLine
 10
-661.66722072348784
 20
-481.62273649634153
 30
0.0
 11
-661.73351495748784
 21
-485.42073061404164
 31
0.0
  0
ARC
  5
122
100
AcDbEntity
  8
FAN70-0302
370
              15
390
0
  6
Continuous
 62
               7
100
AcDbCircle
 10
-215.04663463228775
 20
-481.68381991884155
 30
0.0
 40
3.5000000000000457
100
AcDbArc
 50
0.9999999999999008
 51
90.0
  0
ARC
  5
123
100
AcDbEntity
  8
FAN70-0302
370
              15
390
0
  6
Continuous
 62
               7
100
AcDbCircle
 10
-658.16775379048772
 20
-481.68381991884155
 30
0.0
 40
3.5
100
AcDbArc
 50
90.0
 51
179.00000000000011
  0
ARC
  5
124
100
AcDbEntity
  8
FAN70-0302
370
              15
390
0
  6
Continuous
 62
               7
100
AcDbCircle
 10
-436.60719421138788
 20
-433.0998199188416
 30
0.0
 40
170.08400000000003
100
AcDbArc
 50
284.17128870969998
 51
341.8138902445998
  0
ARC
  5
125
100
AcDbEntity
  8
FAN70-0302
370
              15
390
0
  6
Continuous
 62
               7
100
AcDbCircle
 10
-436.60719421138788
 20
-433.0998199188416
 30
0.0
 40
170.084
100
AcDbArc
 50
198.18610975539997
 51
255.82871129029991
  0
ARC
  5
126
100
AcDbEntity
  8
FAN70-0302
370
              15
390
0
  6
Continuous
 62
               7
100
AcDbCircle
 10
-466.00634638478778
 20
-549.52944204094149
 30
0.0
 40
49.999999999999993
100
AcDbArc
 50
255.82871129029982
 51
258.5859226284
  0
ARC
  5
127
100
AcDbEntity
  8
FAN70-0302
370
              15
390
0
  6
Continuous
 62
               7
100
AcDbCircle
 10
-407.20804203798787
 20
-549.52944204094149
 30
0.0
 40
50.000000000000021
100
AcDbArc
 50
281.41407737159994
 51
284.17128870969998
  0
ARC
  5
128
100
AcDbEntity
  8
FAN70-0302
370
              15
390
0
  6
Continuous
 62
               7
100
AcDbCircle
 10
-395.54986004248781
 20
-607.27435430644152
 30
0.0
 40
8.9099999999999788
100
AcDbArc
 50
101.4140773715998
 51
127.30000000000022
  0
ARC
  5
129
100
AcDbEntity
  8
FAN70-0302
370
              15
390
0
  6
Continuous
 62
               7
100
AcDbCircle
 10
-477.66452838028789
 20
-607.27435430644152
 30
0.0
 40
8.9099999999999699
100
AcDbArc
 50
52.699999999999775
 51
78.585922628399857
  0
LINE
  5
12A
100
AcDbEntity
  8
FAN70-0302
370
              15
390
0
  6
Continuous
 62
               7
100
AcDbLine
 10
-472.26517173388788
 20
-600.18668559204173
 30
0.0
 11
-464.46953162148776
 21
-606.12537191464151
 31
0.0
  0
LINE
  5
12B
100
AcDbEntity
  8
FAN70-0302
370
              15
390
0
  6
Continuous
 62
               7
100
AcDbLine
 10
-408.74485680128777
 20
-606.12537191464151
 30
0.0
 11
-400.94921668888787
 21
-600.18668559204173
 31
0.0
  0
ARC
  5
12C
100
AcDbEntity
  8
FAN70-0302
370
              15
390
0
  6
Continuous
 62
               7
100
AcDbCircle
 10
-412.60719421138788
 20
-601.53381991884157
 30
0.0
 40
6.0
100
AcDbArc
 50
270.0
 51
310.06999042470034
  0
ARC
  5
12D
100
AcDbEntity
  8
FAN70-0302
370
              15
390
0
  6
Continuous
 62
               7
100
AcDbCircle
 10
-460.60719421138788
 20
-601.53381991884157
 30
0.0
 40
5.9999999999999867
100
AcDbArc
 50
229.93000957529966
 51
270.0
  0
LINE
  5
12E
100
AcDbEntity
  8
FAN70-0302
370
              15
390
0
  6
Continuous
 62
               7
100
AcDbLine
 10
-212.23075923838786
 20
-486.18381991884155
 30
0.0
 11
-660.98362918608791
 21
-486.18381991884155
 31
0.0
  0
LINE
  5
12F
100
AcDbEntity
  8
FAN70-0302
370
              15
390
0
  6
Continuous
 62
               7
100
AcDbLine
 10
-658.16775379048772
 20
-478.18381991884155
 30
0.0
 11
-215.04663463228775
 21
-478.18381991884155
 31
0.0
  0
LINE
  5
130
100
AcDbEntity
  8
FAN70-0302
370
              15
390
0
  6
Continuous
 62
               7
100
AcDbLine
 10
-408.74485680128777
 20
-606.12537191464151
 30
0.0
 11
-464.46953162148776
 21
-606.12537191464151
 31
0.0
  0
LINE
  5
131
100
AcDbEntity
  8
FAN70-0302
370
              15
390
0
  6
Continuous
 62
               7
100
AcDbLine
 10
-412.60719421138788
 20
-607.53381991884169
 30
0.0
 11
-460.60719421138788
 21
-607.53381991884169
 31
0.0
  0
CIRCLE
  5
132
100
AcDbEntity
  8
FAN70-0302
370
              15
390
0
  6
Continuous
 62
               7
100
AcDbCircle
 10
-436.60719421138782
 20
689.95465302778928
 30
0.0
 40
18.0
  0
CIRCLE
  5
133
100
AcDbEntity
  8
FAN70-0302
370
              15
390
0
  6
Continuous
 62
               7
100
AcDbCircle
 10
-436.60719421138782
 20
514.95465302778928
 30
0.0
 40
225.0
  0
CIRCLE
  5
134
100
AcDbEntity
  8
FAN70-0302
370
              15
390
0
  6
Continuous
 62
               7
100
AcDbCircle
 10
-436.60719421138782
 20
477.45465302778928
 30
0.0
 40
162.5
  0
POLYLINE
  5
135
100
AcDbEntity
  8
FAN70-0302
370
              15
390
0
  6
Continuous
 62
               7
100
AcDb2dPolyline
 66
               1
 10
0.0
 20
0.0
 30
0.0
 75
               5
  0
VERTEX
  5
136
100
AcDbEntity
  8
FAN70-0302
370
              15
390
0
  6
Continuous
 62
               7
100
AcDbVertex
100
AcDb2dVertex
 10
-436.60719421138782
 20
614.90521761308923
 30
0.0
  0
VERTEX
  5
137
100
AcDbEntity
  8
FAN70-0302
370
              15
390
0
  6
Continuous
 62
               7
100
AcDbVertex
100
AcDb2dVertex
 10
-439.34314908998783
 20
614.98792430768935
 30
0.0
  0
VERTEX
  5
138
100
AcDbEntity
  8
FAN70-0302
370
              15
390
0
  6
Continuous
 62
               7
100
AcDbVertex
100
AcDb2dVertex
 10
-442.03417966518771
 20
615.23468634978929
 30
0.0
  0
VERTEX
  5
139
100
AcDbEntity
  8
FAN70-0302
370
              15
390
0
  6
Continuous
 62
               7
100
AcDbVertex
100
AcDb2dVertex
 10
-444.63609928918771
 20
615.64145191348916
 30
0.0
  0
VERTEX
  5
13A
100
AcDbEntity
  8
FAN70-0302
370
              15
390
0
  6
Continuous
 62
               7
100
AcDbVertex
100
AcDb2dVertex
 10
-447.10618451378775
 20
616.2015419195892
 30
0.0
  0
VERTEX
  5
13B
100
AcDbEntity
  8
FAN70-0302
370
              15
390
0
  6
Continuous
 62
               7
100
AcDbVertex
100
AcDb2dVertex
 10
-449.40387660788775
 20
616.90575970548934
 30
0.0
  0
VERTEX
  5
13C
100
AcDbEntity
  8
FAN70-0302
370
              15
390
0
  6
Continuous
 62
               7
100
AcDbVertex
100
AcDb2dVertex
 10
-451.49144753088785
 20
617.74254203468922
 30
0.0
  0
VERTEX
  5
13D
100
AcDbEntity
  8
FAN70-0302
370
              15
390
0
  6
Continuous
 62
               7
100
AcDbVertex
100
AcDb2dVertex
 10
-453.33461942578771
 20
618.69814896458922
 30
0.0
  0
VERTEX
  5
13E
100
AcDbEntity
  8
FAN70-0302
370
              15
390
0
  6
Continuous
 62
               7
100
AcDbVertex
100
AcDb2dVertex
 10
-454.90312746118775
 20
619.75688945568936
 30
0.0
  0
VERTEX
  5
13F
100
AcDbEntity
  8
FAN70-0302
370
              15
390
0
  6
Continuous
 62
               7
100
AcDbVertex
100
AcDb2dVertex
 10
-456.17121677838776
 20
620.90137901838932
 30
0.0
  0
VERTEX
  5
140
100
AcDbEntity
  8
FAN70-0302
370
              15
390
0
  6
Continuous
 62
               7
100
AcDbVertex
100
AcDb2dVertex
 10
-457.11806538598785
 20
622.11282516578922
 30
0.0
  0
VERTEX
  5
141
100
AcDbEntity
  8
FAN70-0302
370
              15
390
0
  6
Continuous
 62
               7
100
AcDbVertex
100
AcDb2dVertex
 10
-457.72812605588774
 20
623.37133598558921
 30
0.0
  0
VERTEX
  5
142
100
AcDbEntity
  8
FAN70-0302
370
              15
390
0
  6
Continuous
 62
               7
100
AcDbVertex
100
AcDb2dVertex
 10
-457.99138160888782
 20
624.65624676498931
 30
0.0
  0
VERTEX
  5
143
100
AcDbEntity
  8
FAN70-0302
370
              15
390
0
  6
Continuous
 62
               7
100
AcDbVertex
100
AcDb2dVertex
 10
-457.90350939598773
 20
625.94645930438924
 30
0.0
  0
VERTEX
  5
144
100
AcDbEntity
  8
FAN70-0302
370
              15
390
0
  6
Continuous
 62
               7
100
AcDbVertex
100
AcDb2dVertex
 10
-457.46595227648771
 20
627.22078834968931
 30
0.0
  0
VERTEX
  5
145
100
AcDbEntity
  8
FAN70-0302
370
              15
390
0
  6
Continuous
 62
               7
100
AcDbVertex
100
AcDb2dVertex
 10
-456.68589492628786
 20
628.45830945318926
 30
0.0
  0
VERTEX
  5
146
100
AcDbEntity
  8
FAN70-0302
370
              15
390
0
  6
Continuous
 62
               7
100
AcDbVertex
100
AcDb2dVertex
 10
-455.57614586538784
 20
629.63870255238919
 30
0.0
  0
VERTEX
  5
147
100
AcDbEntity
  8
FAN70-0302
370
              15
390
0
  6
Continuous
 62
               7
100
AcDbVertex
100
AcDb2dVertex
 10
-454.15492714278781
 20
630.74258562548926
 30
0.0
  0
VERTEX
  5
148
100
AcDbEntity
  8
FAN70-0302
370
              15
390
0
  6
Continuous
 62
               7
100
AcDbVertex
100
AcDb2dVertex
 10
-452.44557513058771
 20
631.75183294278918
 30
0.0
  0
VERTEX
  5
149
100
AcDbEntity
  8
FAN70-0302
370
              15
390
0
  6
Continuous
 62
               7
100
AcDbVertex
100
AcDb2dVertex
 10
-450.47615734158774
 20
632.64987269138931
 30
0.0
  0
VERTEX
  5
14A
100
AcDbEntity
  8
FAN70-0302
370
              15
390
0
  6
Continuous
 62
               7
100
AcDbVertex
100
AcDb2dVertex
 10
-448.27901156138773
 20
633.42195908328927
 30
0.0
  0
VERTEX
  5
14B
100
AcDbEntity
  8
FAN70-0302
370
              15
390
0
  6
Continuous
 62
               7
100
AcDbVertex
100
AcDb2dVertex
 10
-445.89021486298782
 20
634.05541448128929
 30
0.0
  0
VERTEX
  5
14C
100
AcDbEntity
  8
FAN70-0302
370
              15
390
0
  6
Continuous
 62
               7
100
AcDbVertex
100
AcDb2dVertex
 10
-443.34899122218781
 20
634.53983756538923
 30
0.0
  0
VERTEX
  5
14D
100
AcDbEntity
  8
FAN70-0302
370
              15
390
0
  6
Continuous
 62
               7
100
AcDbVertex
100
AcDb2dVertex
 10
-440.69706746078771
 20
634.86727412178925
 30
0.0
  0
VERTEX
  5
14E
100
AcDbEntity
  8
FAN70-0302
370
              15
390
0
  6
Continuous
 62
               7
100
AcDbVertex
100
AcDb2dVertex
 10
-437.97798809378776
 20
635.03234765138927
 30
0.0
  0
VERTEX
  5
14F
100
AcDbEntity
  8
FAN70-0302
370
              15
390
0
  6
Continuous
 62
               7
100
AcDbVertex
100
AcDb2dVertex
 10
-435.23640032898771
 20
635.03234765138927
 30
0.0
  0
VERTEX
  5
150
100
AcDbEntity
  8
FAN70-0302
370
              15
390
0
  6
Continuous
 62
               7
100
AcDbVertex
100
AcDb2dVertex
 10
-432.51732096198771
 20
634.86727412178925
 30
0.0
  0
VERTEX
  5
151
100
AcDbEntity
  8
FAN70-0302
370
              15
390
0
  6
Continuous
 62
               7
100
AcDbVertex
100
AcDb2dVertex
 10
-429.86539720058772
 20
634.53983756538923
 30
0.0
  0
VERTEX
  5
152
100
AcDbEntity
  8
FAN70-0302
370
              15
390
0
  6
Continuous
 62
               7
100
AcDbVertex
100
AcDb2dVertex
 10
-427.32417355978782
 20
634.05541448128929
 30
0.0
  0
VERTEX
  5
153
100
AcDbEntity
  8
FAN70-0302
370
              15
390
0
  6
Continuous
 62
               7
100
AcDbVertex
100
AcDb2dVertex
 10
-424.93537686138785
 20
633.42195908328927
 30
0.0
  0
VERTEX
  5
154
100
AcDbEntity
  8
FAN70-0302
370
              15
390
0
  6
Continuous
 62
               7
100
AcDbVertex
100
AcDb2dVertex
 10
-422.73823108118785
 20
632.64987269138931
 30
0.0
  0
VERTEX
  5
155
100
AcDbEntity
  8
FAN70-0302
370
              15
390
0
  6
Continuous
 62
               7
100
AcDbVertex
100
AcDb2dVertex
 10
-420.76881329218776
 20
631.75183294278918
 30
0.0
  0
VERTEX
  5
156
100
AcDbEntity
  8
FAN70-0302
370
              15
390
0
  6
Continuous
 62
               7
100
AcDbVertex
100
AcDb2dVertex
 10
-419.05946127998783
 20
630.74258562548926
 30
0.0
  0
VERTEX
  5
157
100
AcDbEntity
  8
FAN70-0302
370
              15
390
0
  6
Continuous
 62
               7
100
AcDbVertex
100
AcDb2dVertex
 10
-417.63824255738774
 20
629.63870255238919
 30
0.0
  0
VERTEX
  5
158
100
AcDbEntity
  8
FAN70-0302
370
              15
390
0
  6
Continuous
 62
               7
100
AcDbVertex
100
AcDb2dVertex
 10
-416.52849349648773
 20
628.45830945318926
 30
0.0
  0
VERTEX
  5
159
100
AcDbEntity
  8
FAN70-0302
370
              15
390
0
  6
Continuous
 62
               7
100
AcDbVertex
100
AcDb2dVertex
 10
-415.74843614628776
 20
627.22078834968931
 30
0.0
  0
VERTEX
  5
15A
100
AcDbEntity
  8
FAN70-0302
370
              15
390
0
  6
Continuous
 62
               7
100
AcDbVertex
100
AcDb2dVertex
 10
-415.31087902678775
 20
625.94645930438924
 30
0.0
  0
VERTEX
  5
15B
100
AcDbEntity
  8
FAN70-0302
370
              15
390
0
  6
Continuous
 62
               7
100
AcDbVertex
100
AcDb2dVertex
 10
-415.22300681388782
 20
624.65624676498931
 30
0.0
  0
VERTEX
  5
15C
100
AcDbEntity
  8
FAN70-0302
370
              15
390
0
  6
Continuous
 62
               7
100
AcDbVertex
100
AcDb2dVertex
 10
-415.48626236688784
 20
623.37133598558921
 30
0.0
  0
VERTEX
  5
15D
100
AcDbEntity
  8
FAN70-0302
370
              15
390
0
  6
Continuous
 62
               7
100
AcDbVertex
100
AcDb2dVertex
 10
-416.09632303678774
 20
622.11282516578922
 30
0.0
  0
VERTEX
  5
15E
100
AcDbEntity
  8
FAN70-0302
370
              15
390
0
  6
Continuous
 62
               7
100
AcDbVertex
100
AcDb2dVertex
 10
-417.04317164438771
 20
620.90137901838932
 30
0.0
  0
VERTEX
  5
15F
100
AcDbEntity
  8
FAN70-0302
370
              15
390
0
  6
Continuous
 62
               7
100
AcDbVertex
100
AcDb2dVertex
 10
-418.31126096158772
 20
619.75688945568936
 30
0.0
  0
VERTEX
  5
160
100
AcDbEntity
  8
FAN70-0302
370
              15
390
0
  6
Continuous
 62
               7
100
AcDbVertex
100
AcDb2dVertex
 10
-419.87976899698771
 20
618.69814896458922
 30
0.0
  0
VERTEX
  5
161
100
AcDbEntity
  8
FAN70-0302
370
              15
390
0
  6
Continuous
 62
               7
100
AcDbVertex
100
AcDb2dVertex
 10
-421.72294089188784
 20
617.74254203468922
 30
0.0
  0
VERTEX
  5
162
100
AcDbEntity
  8
FAN70-0302
370
              15
390
0
  6
Continuous
 62
               7
100
AcDbVertex
100
AcDb2dVertex
 10
-423.81051181488772
 20
616.90575970548934
 30
0.0
  0
VERTEX
  5
163
100
AcDbEntity
  8
FAN70-0302
370
              15
390
0
  6
Continuous
 62
               7
100
AcDbVertex
100
AcDb2dVertex
 10
-426.10820390898772
 20
616.2015419195892
 30
0.0
  0
VERTEX
  5
164
100
AcDbEntity
  8
FAN70-0302
370
              15
390
0
  6
Continuous
 62
               7
100
AcDbVertex
100
AcDb2dVertex
 10
-428.57828913358776
 20
615.64145191348916
 30
0.0
  0
VERTEX
  5
165
100
AcDbEntity
  8
FAN70-0302
370
              15
390
0
  6
Continuous
 62
               7
100
AcDbVertex
100
AcDb2dVertex
 10
-431.18020875758771
 20
615.23468634978929
 30
0.0
  0
VERTEX
  5
166
100
AcDbEntity
  8
FAN70-0302
370
              15
390
0
  6
Continuous
 62
               7
100
AcDbVertex
100
AcDb2dVertex
 10
-433.87123933278781
 20
614.98792430768935
 30
0.0
  0
VERTEX
  5
167
100
AcDbEntity
  8
FAN70-0302
370
              15
390
0
  6
Continuous
 62
               7
100
AcDbVertex
100
AcDb2dVertex
 10
-436.60719421138782
 20
614.90521761308923
 30
0.0
  0
SEQEND
  5
168
100
AcDbEntity
  8
FAN70-0302
370
              15
390
0
  6
Continuous
 62
               7
  0
CIRCLE
  5
169
100
AcDbEntity
  8
FAN70-0302
370
              15
390
0
  6
Continuous
 62
               7
100
AcDbCircle
 10
-436.60719421138782
 20
477.45465302778928
 30
0.0
 40
34.684075739099967
  0
CIRCLE
  5
16A
100
AcDbEntity
  8
FAN70-0302
370
              15
390
0
  6
Continuous
 62
               7
100
AcDbCircle
 10
-436.60719421138782
 20
477.45465302778928
 30
0.0
 40
24.0
  0
LINE
  5
16B
100
AcDbEntity
  8
FAN70-0302
370
              15
390
0
  6
Continuous
 62
               7
100
AcDbLine
 10
292.4011973275542
 20
-478.18381991884155
 30
0.0
 11
218.62907261395412
 21
-478.18381991884155
 31
0.0
  0
LINE
  5
16C
100
AcDbEntity
  8
FAN70-0302
370
              15
390
0
  6
Continuous
 62
               7
100
AcDbLine
 10
256.4221377212541
 20
-513.98426440504159
 30
0.0
 11
249.26995647825402
 21
-500.58349026974156
 31
0.0
  0
LINE
  5
16D
100
AcDbEntity
  8
FAN70-0302
370
              15
390
0
  6
Continuous
 62
               7
100
AcDbLine
 10
380.10995470285422
 20
-606.12537191464151
 30
0.0
 11
372.31431459045393
 21
-600.18668559204173
 31
0.0
  0
ARC
  5
16E
100
AcDbEntity
  8
FAN70-0302
370
              15
390
0
  6
Continuous
 62
               7
100
AcDbCircle
 10
366.91495794405398
 20
-607.27435430644152
 30
0.0
 40
8.9099999999999344
100
AcDbArc
 50
52.700000000000074
 51
82.342064520399703
  0
ARC
  5
16F
100
AcDbEntity
  8
FAN70-0302
370
              15
390
0
  6
Continuous
 62
               7
100
AcDbCircle
 10
383.97229211295394
 20
-601.53381991884157
 30
0.0
 40
5.9999999999999867
100
AcDbArc
 50
229.93000957529966
 51
270.0
  0
ARC
  5
170
100
AcDbEntity
  8
FAN70-0302
370
              15
390
0
  6
Continuous
 62
               7
100
AcDbCircle
 10
146.09585713825413
 20
-485.43381991884166
 30
0.0
 40
0.7500000000000103
100
AcDbArc
 50
178.99999999999827
 51
270.0
  0
ARC
  5
171
100
AcDbEntity
  8
FAN70-0302
370
              15
390
0
  6
Continuous
 62
               7
100
AcDbCircle
 10
594.8487270876542
 20
-485.43381991884166
 30
0.0
 40
0.75
100
AcDbArc
 50
270.0
 51
1.0000000004968683
  0
LINE
  5
172
100
AcDbEntity
  8
FAN70-0302
370
              15
390
0
  6
Continuous
 62
               7
100
AcDbLine
 10
595.59861285905413
 20
-485.42073061404164
 30
0.0
 11
595.53231862505413
 21
-481.62273649634153
 31
0.0
  0
LINE
  5
173
100
AcDbEntity
  8
FAN70-0302
370
              15
390
0
  6
Continuous
 62
               7
100
AcDbLine
 10
145.41226560085408
 20
-481.62273649634153
 30
0.0
 11
145.34597136685409
 21
-485.42073061404164
 31
0.0
  0
ARC
  5
174
100
AcDbEntity
  8
FAN70-0302
370
              15
390
0
  6
Continuous
 62
               7
100
AcDbCircle
 10
592.03285169205401
 20
-481.68381991884155
 30
0.0
 40
3.5000000000000457
100
AcDbArc
 50
0.9999999999999008
 51
90.0
  0
ARC
  5
175
100
AcDbEntity
  8
FAN70-0302
370
              15
390
0
  6
Continuous
 62
               7
100
AcDbCircle
 10
148.91173253385409
 20
-481.68381991884155
 30
0.0
 40
3.5
100
AcDbArc
 50
90.0
 51
179.00000000000011
  0
ARC
  5
176
100
AcDbEntity
  8
FAN70-0302
370
              15
390
0
  6
Continuous
 62
               7
100
AcDbCircle
 10
407.97229211295394
 20
-433.0998199188416
 30
0.0
 40
170.08400000000003
100
AcDbArc
 50
284.17128870969998
 51
341.8138902445998
  0
ARC
  5
177
100
AcDbEntity
  8
FAN70-0302
370
              15
390
0
  6
Continuous
 62
               7
100
AcDbCircle
 10
407.97229211295394
 20
-433.0998199188416
 30
0.0
 40
170.08400000000003
100
AcDbArc
 50
215.5531629468
 51
255.82871129029991
  0
ARC
  5
178
100
AcDbEntity
  8
FAN70-0302
370
              15
390
0
  6
Continuous
 62
               7
100
AcDbCircle
 10
407.97229211295394
 20
-433.0998199188416
 30
0.0
 40
170.084
100
AcDbArc
 50
198.18610975539997
 51
200.62576985759989
  0
ARC
  5
179
100
AcDbEntity
  8
FAN70-0302
370
              15
390
0
  6
Continuous
 62
               7
100
AcDbCircle
 10
378.57313993955404
 20
-549.52944204094149
 30
0.0
 40
49.999999999999993
100
AcDbArc
 50
255.82871129029982
 51
258.58592262840006
  0
ARC
  5
17A
100
AcDbEntity
  8
FAN70-0302
370
              15
390
0
  6
Continuous
 62
               7
100
AcDbCircle
 10
437.37144428635418
 20
-549.52944204094149
 30
0.0
 40
50.000000000000021
100
AcDbArc
 50
281.41407737159994
 51
284.17128870969998
  0
ARC
  5
17B
100
AcDbEntity
  8
FAN70-0302
370
              15
390
0
  6
Continuous
 62
               7
100
AcDbCircle
 10
449.02962628185401
 20
-607.27435430644152
 30
0.0
 40
8.9099999999999788
100
AcDbArc
 50
101.4140773715998
 51
127.29999999999994
  0
ARC
  5
17C
100
AcDbEntity
  8
FAN70-0302
370
              15
390
0
  6
Continuous
 62
               7
100
AcDbCircle
 10
366.91495794405398
 20
-607.27435430644152
 30
0.0
 40
8.9099999999999344
100
AcDbArc
 50
52.700000000000074
 51
78.585922628400226
  0
LINE
  5
17D
100
AcDbEntity
  8
FAN70-0302
370
              15
390
0
  6
Continuous
 62
               7
100
AcDbLine
 10
372.31431459045393
 20
-600.18668559204173
 30
0.0
 11
380.10995470285422
 21
-606.12537191464151
 31
0.0
  0
LINE
  5
17E
100
AcDbEntity
  8
FAN70-0302
370
              15
390
0
  6
Continuous
 62
               7
100
AcDbLine
 10
435.8346295230541
 20
-606.12537191464151
 30
0.0
 11
443.63026963545406
 21
-600.18668559204173
 31
0.0
  0
ARC
  5
17F
100
AcDbEntity
  8
FAN70-0302
370
              15
390
0
  6
Continuous
 62
               7
100
AcDbCircle
 10
431.97229211295405
 20
-601.53381991884157
 30
0.0
 40
6.0
100
AcDbArc
 50
270.0
 51
310.06999042470034
  0
ARC
  5
180
100
AcDbEntity
  8
FAN70-0302
370
              15
390
0
  6
Continuous
 62
               7
100
AcDbCircle
 10
383.97229211295394
 20
-601.53381991884157
 30
0.0
 40
5.9999999999999867
100
AcDbArc
 50
229.93000957529966
 51
270.0
  0
ARC
  5
181
100
AcDbEntity
  8
FAN70-0302
370
              15
390
0
  6
Continuous
 62
               7
100
AcDbCircle
 10
295.58553317495432
 20
-475.40092476754148
 30
0.0
 40
50.000000000000007
100
AcDbArc
 50
200.62576985759995
 51
202.06633631479991
  0
ARC
  5
182
100
AcDbEntity
  8
FAN70-0302
370
              15
390
0
  6
Continuous
 62
               7
100
AcDbCircle
 10
310.274789456554
 20
-502.92363412794168
 30
0.0
 40
50.000000000000007
100
AcDbArc
 50
214.11259648959995
 51
215.55316294679997
  0
ARC
  5
183
100
AcDbEntity
  8
FAN70-0302
370
              15
390
0
  6
Continuous
 62
               7
100
AcDbCircle
 10
247.78379300825395
 20
-494.77849006954159
 30
0.0
 40
1.579999999999959
100
AcDbArc
 50
332.01228461880032
 51
22.066336315101012
  0
ARC
  5
184
100
AcDbEntity
  8
FAN70-0302
370
              15
390
0
  6
Continuous
 62
               7
100
AcDbCircle
 10
267.56979600455406
 20
-531.85078286864155
 30
0.0
 40
1.5799999999999708
100
AcDbArc
 50
34.112596489399365
 51
84.166648185500563
  0
ARC
  5
185
100
AcDbEntity
  8
FAN70-0302
370
              15
390
0
  6
Continuous
 62
               7
100
AcDbCircle
 10
253.51739036025413
 20
-497.96512451654155
 30
0.0
 40
4.9800000000000457
100
AcDbArc
 50
150.59382192659996
 51
208.0894664021996
  0
ARC
  5
186
100
AcDbEntity
  8
FAN70-0302
370
              15
390
0
  6
Continuous
 62
               7
100
AcDbCircle
 10
268.11373099195407
 20
-525.31374130354152
 30
0.0
 40
4.9800000000000448
100
AcDbArc
 50
208.08946640219963
 51
265.5851108778001
  0
LINE
  5
187
100
AcDbEntity
  8
FAN70-0302
370
              15
390
0
  6
Continuous
 62
               7
100
AcDbLine
 10
370.47229211295394
 20
-486.18381991884155
 30
0.0
 11
146.09585713825413
 21
-486.18381991884155
 31
0.0
  0
LINE
  5
188
100
AcDbEntity
  8
FAN70-0302
370
              15
390
0
  6
Continuous
 62
               7
100
AcDbLine
 10
594.8487270876542
 20
-486.18381991884155
 30
0.0
 11
370.47229211295394
 21
-486.18381991884155
 31
0.0
  0
LINE
  5
189
100
AcDbEntity
  8
FAN70-0302
370
              15
390
0
  6
Continuous
 62
               7
100
AcDbLine
 10
148.91173253385409
 20
-478.18381991884155
 30
0.0
 11
592.03285169205401
 21
-478.18381991884155
 31
0.0
  0
LINE
  5
18A
100
AcDbEntity
  8
FAN70-0302
370
              15
390
0
  6
Continuous
 62
               7
100
AcDbLine
 10
435.8346295230541
 20
-606.12537191464151
 30
0.0
 11
380.10995470285422
 21
-606.12537191464151
 31
0.0
  0
LINE
  5
18B
100
AcDbEntity
  8
FAN70-0302
370
              15
390
0
  6
Continuous
 62
               7
100
AcDbLine
 10
431.97229194965405
 20
-607.53381991884169
 30
0.0
 11
383.97229211295394
 21
-607.53381991884169
 31
0.0
  0
LINE
  5
18C
100
AcDbEntity
  8
FAN70-0302
370
              15
390
0
  6
Continuous
 62
               7
100
AcDbLine
 10
249.17900921255398
 20
-495.51995601154158
 30
0.0
 11
267.73037993515402
 21
-530.27896455814152
 31
0.0
  0
LINE
  5
18D
100
AcDbEntity
  8
FAN70-0302
370
              15
390
0
  6
Continuous
 62
               7
100
AcDbLine
 10
249.12396742015403
 20
-500.30995603914153
 30
0.0
 11
263.72030803705411
 21
-527.65857279864167
 31
0.0
  0
LINE
  5
18E
100
AcDbEntity
  8
FAN70-0302
370
              15
390
0
  6
Continuous
 62
               7
100
AcDbLine
 10
178.60824446135405
 20
-498.68381991884155
 30
0.0
 11
179.12588255155401
 21
-496.68381991884166
 31
0.0
  0
LINE
  5
18F
100
AcDbEntity
  8
FAN70-0302
370
              15
390
0
  6
Continuous
 62
               7
100
AcDbLine
 10
171.8789492886541
 20
-498.68381991884155
 30
0.0
 11
178.60824446135405
 21
-498.68381991884155
 31
0.0
  0
LINE
  5
190
100
AcDbEntity
  8
FAN70-0302
370
              15
390
0
  6
Continuous
 62
               7
100
AcDbLine
 10
171.36131119845402
 20
-496.68381991884166
 30
0.0
 11
171.8789492886541
 21
-498.68381991884155
 31
0.0
  0
LINE
  5
191
100
AcDbEntity
  8
FAN70-0302
370
              15
390
0
  6
Continuous
 62
               7
100
AcDbLine
 10
171.36131119845402
 20
-486.18381991884155
 30
0.0
 11
171.36131119845402
 21
-496.68381991884166
 31
0.0
  0
LINE
  5
192
100
AcDbEntity
  8
FAN70-0302
370
              15
390
0
  6
Continuous
 62
               7
100
AcDbLine
 10
179.12588255155401
 20
-486.18381991884155
 30
0.0
 11
179.12588255155401
 21
-496.68381991884166
 31
0.0
  0
LINE
  5
193
100
AcDbEntity
  8
FAN70-0302
370
              15
390
0
  6
Continuous
 62
               7
100
AcDbLine
 10
174.20832069465393
 20
-494.68381991884155
 30
0.0
 11
174.20832069465393
 21
-488.68381991884166
 31
0.0
  0
LINE
  5
194
100
AcDbEntity
  8
FAN70-0302
370
              15
390
0
  6
Continuous
 62
               7
100
AcDbLine
 10
176.27887305545403
 20
-494.68381991884155
 30
0.0
 11
174.20832069465393
 21
-494.68381991884155
 31
0.0
  0
LINE
  5
195
100
AcDbEntity
  8
FAN70-0302
370
              15
390
0
  6
Continuous
 62
               7
100
AcDbLine
 10
176.27887305545403
 20
-488.68381991884166
 30
0.0
 11
176.27887305545403
 21
-494.68381991884155
 31
0.0
  0
LINE
  5
196
100
AcDbEntity
  8
FAN70-0302
370
              15
390
0
  6
Continuous
 62
               7
100
AcDbLine
 10
174.20832069465393
 20
-488.68381991884166
 30
0.0
 11
176.27887305545403
 21
-488.68381991884166
 31
0.0
  0
LINE
  5
197
100
AcDbEntity
  8
FAN70-0302
370
              15
390
0
  6
Continuous
 62
               7
100
AcDbLine
 10
179.57417028765394
 20
-498.68381991884155
 30
0.0
 11
178.60824446135405
 21
-498.68381991884155
 31
0.0
  0
LINE
  5
198
100
AcDbEntity
  8
FAN70-0302
370
              15
390
0
  6
Continuous
 62
               7
100
AcDbLine
 10
179.12588255155401
 20
-496.68381991884166
 30
0.0
 11
180.09180837785414
 21
-496.68381991884166
 31
0.0
  0
LINE
  5
199
100
AcDbEntity
  8
FAN70-0302
370
              15
390
0
  6
Continuous
 62
               7
100
AcDbLine
 10
180.09180837785414
 20
-496.68381991884166
 30
0.0
 11
179.57417028765394
 21
-498.68381991884155
 31
0.0
  0
LINE
  5
19A
100
AcDbEntity
  8
FAN70-0302
370
              15
390
0
  6
Continuous
 62
               7
100
AcDbLine
 10
180.09180837785414
 20
-486.18381991884155
 30
0.0
 11
180.09180837785414
 21
-496.68381991884166
 31
0.0
  0
LINE
  5
19B
100
AcDbEntity
  8
FAN70-0302
370
              15
390
0
  6
Continuous
 62
               7
100
AcDbLine
 10
175.17424652095406
 20
-494.68381991884155
 30
0.0
 11
175.17424652095406
 21
-488.68381991884166
 31
0.0
  0
ARC
  5
19C
100
AcDbEntity
  8
FAN70-0302
370
              15
390
0
  6
STYLE_12
 62
               7
100
AcDbCircle
 10
-436.60719421138788
 20
-433.0998199188416
 30
0.0
 40
168.60000000000011
100
AcDbArc
 50
195.50877916641105
 51
255.82871129029979
  0
ARC
  5
19D
100
AcDbEntity
  8
FAN70-0302
370
              15
390
0
  6
STYLE_12
 62
               7
100
AcDbCircle
 10
-480.19550938245629
 20
-612.01588304783434
 30
0.0
 40
15.618848880893406
100
AcDbArc
 50
49.683264614928518
 51
81.489661249204204
  0
LINE
  5
19E
100
AcDbEntity
  8
FAN70-0302
370
              15
390
0
  6
STYLE_12
 62
               7
100
AcDbLine
 10
-470.08991864200499
 20
-600.1068328694746
 30
0.0
 11
-460.01780547824569
 21
-607.53381991884169
 31
0.0
  0
ARC
  5
19F
100
AcDbEntity
  8
FAN70-0302
370
              15
390
0
  6
STYLE_12
 62
               7
100
AcDbCircle
 10
-436.60719421138788
 20
-433.0998199188416
 30
0.0
 40
168.60000000000005
100
AcDbArc
 50
284.17128870970021
 51
344.49122083358901
  0
ARC
  5
1A0
100
AcDbEntity
  8
FAN70-0302
370
              15
390
0
  6
STYLE_12
 62
               7
100
AcDbCircle
 10
-393.01887904031946
 20
-612.01588304783434
 30
0.0
 40
15.618848880893415
100
AcDbArc
 50
98.510338750795796
 51
130.31673538507164
  0
LINE
  5
1A1
100
AcDbEntity
  8
FAN70-0302
370
              15
390
0
  6
STYLE_12
 62
               7
100
AcDbLine
 10
-403.12446978077082
 20
-600.1068328694746
 30
0.0
 11
-413.19658294453006
 21
-607.53381991884169
 31
0.0
  0
ARC
  5
1A2
100
AcDbEntity
  8
FAN70-0302
370
              15
390
0
  6
STYLE_12
 62
               7
100
AcDbCircle
 10
407.97229203130399
 20
-433.14810743429558
 30
0.0
 40
168.60000000000011
100
AcDbArc
 50
195.50877916641105
 51
255.82871129029979
  0
ARC
  5
1A3
100
AcDbEntity
  8
FAN70-0302
370
              15
390
0
  6
STYLE_12
 62
               7
100
AcDbCircle
 10
364.38397686023558
 20
-612.06417056328849
 30
0.0
 40
15.618848880893319
100
AcDbArc
 50
49.683264614928255
 51
81.489661249204133
  0
LINE
  5
1A4
100
AcDbEntity
  8
FAN70-0302
370
              15
390
0
  6
STYLE_12
 62
               7
100
AcDbLine
 10
374.48956760068688
 20
-600.15512038492886
 30
0.0
 11
384.56168076444618
 21
-607.58210743429584
 31
0.0
  0
ARC
  5
1A5
100
AcDbEntity
  8
FAN70-0302
370
              15
390
0
  6
STYLE_12
 62
               7
100
AcDbCircle
 10
407.97229203130399
 20
-433.14810743429558
 30
0.0
 40
168.60000000000031
100
AcDbArc
 50
284.17128870970021
 51
344.49122083358895
  0
ARC
  5
1A6
100
AcDbEntity
  8
FAN70-0302
370
              15
390
0
  6
STYLE_12
 62
               7
100
AcDbCircle
 10
451.56060720237241
 20
-612.06417056328849
 30
0.0
 40
15.618848880893303
100
AcDbArc
 50
98.510338750795867
 51
130.31673538507192
  0
LINE
  5
1A7
100
AcDbEntity
  8
FAN70-0302
370
              15
390
0
  6
STYLE_12
 62
               7
100
AcDbLine
 10
441.45501646192105
 20
-600.15512038492886
 30
0.0
 11
431.38290329816181
 21
-607.58210743429584
 31
0.0
  0
CIRCLE
  5
1A8
100
AcDbEntity
  8
FAN70-0302
370
               5
390
0
  6
STYLE_12
 62
               7
100
AcDbCircle
 10
370.48219452175431
 20
689.95465302778916
 30
0.0
 40
18.0
  0
CIRCLE
  5
1A9
100
AcDbEntity
  8
FAN70-0302
370
               5
390
0
  6
STYLE_12
 62
               7
100
AcDbCircle
 10
370.48219452175431
 20
514.95465302778916
 30
0.0
 40
225.0
  0
CIRCLE
  5
1AA
100
AcDbEntity
  8
FAN70-0302
370
               5
390
0
  6
STYLE_12
 62
               7
100
AcDbCircle
 10
370.48219452175431
 20
477.45465302778916
 30
0.0
 40
24.0
  0
CIRCLE
  5
1AB
100
AcDbEntity
  8
FAN70-0302
370
              15
390
0
  6
Continuous
 62
               7
100
AcDbCircle
 10
370.48219452175431
 20
514.95465302778916
 30
0.0
 40
207.5
  0
POLYLINE
  5
1AC
100
AcDbEntity
  8
FAN70-0302
370
              15
390
0
  6
Continuous
 62
               7
100
AcDb2dPolyline
 66
               1
 10
0.0
 20
0.0
 30
0.0
 70
               1
 75
               5
  0
VERTEX
  5
1AD
100
AcDbEntity
  8
FAN70-0302
370
              15
390
0
  6
Continuous
 62
               7
100
AcDbVertex
100
AcDb2dVertex
 10
372.98219452175431
 20
-603.18381991884155
 30
0.0
  0
VERTEX
  5
1AE
100
AcDbEntity
  8
FAN70-0302
370
              15
390
0
  6
Continuous
 62
               7
100
AcDbVertex
100
AcDb2dVertex
 10
442.98219452175431
 20
-603.18381991884155
 30
0.0
  0
VERTEX
  5
1AF
100
AcDbEntity
  8
FAN70-0302
370
              15
390
0
  6
Continuous
 62
               7
100
AcDbVertex
100
AcDb2dVertex
 10
442.98219452175431
 20
-650.18381991884155
 30
0.0
  0
VERTEX
  5
1B0
100
AcDbEntity
  8
FAN70-0302
370
              15
390
0
  6
Continuous
 62
               7
100
AcDbVertex
100
AcDb2dVertex
 10
372.98219452175431
 20
-650.18381991884155
 30
0.0
  0
SEQEND
  5
1B1
100
AcDbEntity
  8
FAN70-0302
370
              15
390
0
  6
Continuous
 62
               7
  0
POLYLINE
  5
1B2
100
AcDbEntity
  8
FAN70-0302
370
              15
390
0
  6
Continuous
 62
               7
100
AcDb2dPolyline
 66
               1
 10
0.0
 20
0.0
 30
0.0
 70
               1
 75
               5
  0
VERTEX
  5
1B3
100
AcDbEntity
  8
FAN70-0302
370
              15
390
0
  6
Continuous
 62
               7
100
AcDbVertex
100
AcDb2dVertex
 10
-471.61780547824571
 20
-603.18381991884155
 30
0.0
  0
VERTEX
  5
1B4
100
AcDbEntity
  8
FAN70-0302
370
              15
390
0
  6
Continuous
 62
               7
100
AcDbVertex
100
AcDb2dVertex
 10
-401.61780547824571
 20
-603.18381991884155
 30
0.0
  0
VERTEX
  5
1B5
100
AcDbEntity
  8
FAN70-0302
370
              15
390
0
  6
Continuous
 62
               7
100
AcDbVertex
100
AcDb2dVertex
 10
-401.61780547824571
 20
-650.18381991884155
 30
0.0
  0
VERTEX
  5
1B6
100
AcDbEntity
  8
FAN70-0302
370
              15
390
0
  6
Continuous
 62
               7
100
AcDbVertex
100
AcDb2dVertex
 10
-471.61780547824571
 20
-650.18381991884155
 30
0.0
  0
SEQEND
  5
1B7
100
AcDbEntity
  8
FAN70-0302
370
              15
390
0
  6
Continuous
 62
               7
  0
ENDSEC
  0
SECTION
  2
OBJECTS
  0
DICTIONARY
  5
19
100
AcDbDictionary
280
               0
281
               1
  3
ACAD_GROUP
350
1A
  3
ACAD_MLINESTYLE
350
1B
  3
ACAD_LAYOUT
350
1E
  3
ACAD_PLOTSETTINGS
350
22
  3
ACAD_PLOTSTYLENAME
350
1F
  0
DICTIONARY
  5
1A
102
{ACAD_REACTORS
330
19
102
}
100
AcDbDictionary
280
               0
281
               1
  0
DICTIONARY
  5
1B
102
{ACAD_REACTORS
330
19
102
}
100
AcDbDictionary
280
               0
281
               1
  3
Standard
350
1C
  0
MLINESTYLE
  5
1C
102
{ACAD_REACTORS
330
1B
102
}
100
AcDbMlineStyle
  2
Standard
 70
               0
  3

 62
               0
 51
90.0
 52
90.0
 71
               2
 49
0.5
 62
             256
  6
ByLayer
 49
-0.5
 62
             256
  6
ByLayer
  0
ACDBDICTIONARYWDFLT
  5
1F
102
{ACAD_REACTORS
330
19
102
}
100
AcDbDictionary
281
               1
  3
Normal
350
1D
100
AcDbDictionaryWithDefault
340
1D
  0
ACDBPLACEHOLDER
  5
1D
102
{ACAD_REACTORS
330
1F
102
}
  0
LAYOUT
  5
20
102
{ACAD_REACTORS
330
1E
102
}
100
AcDbPlotSettings
  1

  2

  4

  6

 40
0.0
 41
0.0
 42
0.0
 43
0.0
 44
0.0
 45
0.0
 46
0.0
 47
0.0
 48
0.0
 49
0.0
140
0.0
141
0.0
142
1.0
143
1.0
 70
            1024
 72
               0
 73
               0
 74
               0
  7

 75
               0
147
1.0
148
0.0
149
0.0
100
AcDbLayout
  1
Model
 70
               0
 71
               0
 10
0.0
 20
0.0
 11
0.0
 21
0.0
 12
0.0
 22
0.0
 32
0.0
 14
0.0
 24
0.0
 34
0.0
 15
0.0
 25
0.0
 35
0.0
146
0.0
 13
0.0
 23
0.0
 33
0.0
 16
0.0
 26
0.0
 36
0.0
 17
0.0
 27
0.0
 37
0.0
 76
               0
330
A
331
0
345
0
346
0
  0
LAYOUT
  5
21
102
{ACAD_REACTORS
330
1E
102
}
100
AcDbPlotSettings
  1

  2

  4

  6

 40
0.0
 41
0.0
 42
0.0
 43
0.0
 44
0.0
 45
0.0
 46
0.0
 47
0.0
 48
0.0
 49
0.0
140
0.0
141
0.0
142
1.0
143
1.0
 70
               0
 72
               0
 73
               0
 74
               0
  7

 75
               0
147
1.0
148
0.0
149
0.0
100
AcDbLayout
  1
Layout1
 70
               0
 71
               0
 10
0.0
 20
0.0
 11
0.0
 21
0.0
 12
0.0
 22
0.0
 32
0.0
 14
0.0
 24
0.0
 34
0.0
 15
0.0
 25
0.0
 35
0.0
146
0.0
 13
0.0
 23
0.0
 33
0.0
 16
0.0
 26
0.0
 36
0.0
 17
0.0
 27
0.0
 37
0.0
 76
               0
330
B
331
0
345
0
346
0
  0
DICTIONARY
  5
1E
102
{ACAD_REACTORS
330
19
102
}
100
AcDbDictionary
280
               0
281
               1
  3
Layout1
350
21
  3
Model
350
20
  0
DICTIONARY
  5
22
102
{ACAD_REACTORS
330
19
102
}
100
AcDbDictionary
280
               0
281
               1
  0
ENDSEC
  0
EOF
