  0
SECTION
  2
HEADER
  9
$ACADVER
  1
AC1015
  9
$ACADMAINTVER
 70
               6
  9
$DWGCODEPAGE
  3
ANSI_932
  9
$INSBASE
 10
0.0
 20
0.0
 30
0.0
  9
$EXTMIN
 10
-975.00000000024124
 20
-1431.5255224711129
 30
-14.834305555555554
  9
$EXTMAX
 10
975.00000000024124
 20
1405.9972926412995
 30
14.834305555555554
  9
$LIMMIN
 10
0.0
 20
0.0
  9
$LIMMAX
 10
0.0
 20
0.0
  9
$ORTHOMODE
 70
               0
  9
$REGENMODE
 70
               1
  9
$FILLMODE
 70
               1
  9
$QTEXTMODE
 70
               0
  9
$MIRRTEXT
 70
               1
  9
$LTSCALE
 40
50.799999999999997
  9
$ATTMODE
 70
               1
  9
$TEXTSIZE
 40
0.2
  9
$TRACEWID
 40
1.0
  9
$TEXTSTYLE
  7
Standard
  9
$CLAYER
  8
template
  9
$CELTYPE
  6
Continuous
  9
$CECOLOR
 62
             256
  9
$CELTSCALE
 40
1.0
  9
$DISPSILH
 70
               0
  9
$DIMSCALE
 40
1.0
  9
$DIMASZ
 40
9.9993896484374982
  9
$DIMEXO
 40
24.999999999999996
  9
$DIMDLI
 40
0.9999999999999999
  9
$DIMRND
 40
0.0
  9
$DIMDLE
 40
0.0
  9
$DIMEXE
 40
0.0
  9
$DIMTP
 40
0.0
  9
$DIMTM
 40
0.0
  9
$DIMTXT
 40
24.432617187500004
  9
$DIMCEN
 40
0.0
  9
$DIMTSZ
 40
0.0
  9
$DIMTOL
 70
               0
  9
$DIMLIM
 70
               0
  9
$DIMTIH
 70
               0
  9
$DIMTOH
 70
               0
  9
$DIMSE1
 70
               0
  9
$DIMSE2
 70
               0
  9
$DIMTAD
 70
               1
  9
$DIMZIN
 70
              11
  9
$DIMBLK
  1
_DOT
  9
$DIMASO
 70
               1
  9
$DIMSHO
 70
               1
  9
$DIMPOST
  1
<>
  9
$DIMAPOST
  1
[]
  9
$DIMALT
 70
               0
  9
$DIMALTD
 70
               1
  9
$DIMALTF
 40
1.0
  9
$DIMLFAC
 40
1.0
  9
$DIMTOFL
 70
               0
  9
$DIMTVP
 40
0.0
  9
$DIMTIX
 70
               1
  9
$DIMSOXD
 70
               0
  9
$DIMSAH
 70
               0
  9
$DIMBLK1
  1

  9
$DIMBLK2
  1

  9
$DIMSTYLE
  2
tfrom線あり
  9
$DIMCLRD
 70
               0
  9
$DIMCLRE
 70
               0
  9
$DIMCLRT
 70
               0
  9
$DIMTFAC
 40
1.0
  9
$DIMGAP
 40
0.4999999999999999
  9
$DIMJUST
 70
               0
  9
$DIMSD1
 70
               0
  9
$DIMSD2
 70
               0
  9
$DIMTOLJ
 70
               1
  9
$DIMTZIN
 70
              11
  9
$DIMALTZ
 70
              11
  9
$DIMALTTZ
 70
              11
  9
$DIMUPT
 70
               0
  9
$DIMDEC
 70
               1
  9
$DIMTDEC
 70
               1
  9
$DIMALTU
 70
               2
  9
$DIMALTTD
 70
               2
  9
$DIMTXSTY
  7
ＭＳ ゴシック
  9
$DIMAUNIT
 70
               0
  9
$DIMADEC
 70
               2
  9
$DIMALTRND
 40
0.0
  9
$DIMAZIN
 70
               0
  9
$DIMDSEP
 70
              46
  9
$DIMATFIT
 70
               0
  9
$DIMFRAC
 70
               2
  9
$DIMLDRBLK
  1

  9
$DIMLUNIT
 70
               2
  9
$DIMLWD
 70
              -2
  9
$DIMLWE
 70
              -2
  9
$DIMTMOVE
 70
               0
  9
$LUNITS
 70
               2
  9
$LUPREC
 70
               4
  9
$SKETCHINC
 40
0.1
  9
$FILLETRAD
 40
0.0
  9
$AUNITS
 70
               0
  9
$AUPREC
 70
               0
  9
$MENU
  1
acad
  9
$ELEVATION
 40
0.0
  9
$PELEVATION
 40
0.0
  9
$THICKNESS
 40
0.0
  9
$LIMCHECK
 70
               0
  9
$CHAMFERA
 40
0.0
  9
$CHAMFERB
 40
0.0
  9
$CHAMFERC
 40
0.0
  9
$CHAMFERD
 40
0.0
  9
$SKPOLY
 70
               0
  9
$TDCREATE
 40
2456050.620208333
  9
$TDUCREATE
 40
0.000000000
  9
$TDUPDATE
 40
2456050.620208333
  9
$TDUUPDATE
 40
0.000000000
  9
$TDINDWG
 40
0.0000000000
  9
$TDUSRTIMER
 40
0.0000000000
  9
$USRTIMER
 70
               1
  9
$ANGBASE
 50
0.0
  9
$ANGDIR
 70
               0
  9
$PDMODE
 70
               1
  9
$PDSIZE
 40
-2.0
  9
$PLINEWID
 40
0.0
  9
$SPLFRAME
 70
               0
  9
$SPLINETYPE
 70
               6
  9
$SPLINESEGS
 70
               8
  9
$HANDSEED
  5
188
  9
$SURFTAB1
 70
               6
  9
$SURFTAB2
 70
               6
  9
$SURFTYPE
 70
               6
  9
$SURFU
 70
               6
  9
$SURFV
 70
               6
  9
$UCSBASE
  2

  9
$UCSNAME
  2

  9
$UCSORG
 10
0.0
 20
0.0
 30
0.0
  9
$UCSXDIR
 10
1.0
 20
0.0
 30
0.0
  9
$UCSYDIR
 10
0.0
 20
1.0
 30
0.0
  9
$UCSORTHOREF
  2

  9
$UCSORTHOVIEW
 70
               0
  9
$UCSORGTOP
 10
0.0
 20
0.0
 30
0.0
  9
$UCSORGBOTTOM
 10
0.0
 20
0.0
 30
0.0
  9
$UCSORGLEFT
 10
0.0
 20
0.0
 30
0.0
  9
$UCSORGRIGHT
 10
0.0
 20
0.0
 30
0.0
  9
$UCSORGFRONT
 10
0.0
 20
0.0
 30
0.0
  9
$UCSORGBACK
 10
0.0
 20
0.0
 30
0.0
  9
$PUCSBASE
  2

  9
$PUCSNAME
  2

  9
$PUCSORG
 10
0.0
 20
0.0
 30
0.0
  9
$PUCSXDIR
 10
1.0
 20
0.0
 30
0.0
  9
$PUCSYDIR
 10
0.0
 20
1.0
 30
0.0
  9
$PUCSORTHOREF
  2

  9
$PUCSORTHOVIEW
 70
               0
  9
$PUCSORGTOP
 10
0.0
 20
0.0
 30
0.0
  9
$PUCSORGBOTTOM
 10
0.0
 20
0.0
 30
0.0
  9
$PUCSORGLEFT
 10
0.0
 20
0.0
 30
0.0
  9
$PUCSORGRIGHT
 10
0.0
 20
0.0
 30
0.0
  9
$PUCSORGFRONT
 10
0.0
 20
0.0
 30
0.0
  9
$PUCSORGBACK
 10
0.0
 20
0.0
 30
0.0
  9
$USERI1
 70
               0
  9
$USERI2
 70
               0
  9
$USERI3
 70
               0
  9
$USERI4
 70
               0
  9
$USERI5
 70
               0
  9
$USERR1
 40
0.0
  9
$USERR2
 40
0.0
  9
$USERR3
 40
0.0
  9
$USERR4
 40
0.0
  9
$USERR5
 40
0.0
  9
$WORLDVIEW
 70
               1
  9
$SHADEDGE
 70
               3
  9
$SHADEDIF
 70
              70
  9
$TILEMODE
 70
               1
  9
$MAXACTVP
 70
              64
  9
$PINSBASE
 10
0.0
 20
0.0
 30
0.0
  9
$PLIMCHECK
 70
               0
  9
$PEXTMIN
 10
1.0000000000000000E+20
 20
1.0000000000000000E+20
 30
1.0000000000000000E+20
  9
$PEXTMAX
 10
-1.0000000000000000E+20
 20
-1.0000000000000000E+20
 30
-1.0000000000000000E+20
  9
$PLIMMIN
 10
0.0
 20
0.0
  9
$PLIMMAX
 10
12.0
 20
9.0
  9
$UNITMODE
 70
               0
  9
$VISRETAIN
 70
               0
  9
$PLINEGEN
 70
               1
  9
$PSLTSCALE
 70
               0
  9
$TREEDEPTH
 70
            3020
  9
$CMLSTYLE
  2
Standard
  9
$CMLJUST
 70
               0
  9
$CMLSCALE
 40
1.0
  9
$PROXYGRAPHICS
 70
               0
  9
$MEASUREMENT
 70
               1
  9
$CELWEIGHT
370
               0
  9
$ENDCAPS
280
               0
  9
$JOINSTYLE
280
               0
  9
$LWDISPLAY
290
               1
  9
$INSUNITS
 70
               4
  9
$HYPERLINKBASE
  1

  9
$STYLESHEET
  1

  9
$XEDIT
290
               1
  9
$CEPSNTYPE
380
               0
  9
$PSTYLEMODE
290
               1
  9
$FINGERPRINTGUID
  2

  9
$VERSIONGUID
  2

  9
$EXTNAMES
290
               1
  9
$PSVPSCALE
 40
0.0
  0
ENDSEC
  0
SECTION
  2
CLASSES
  0
CLASS
  1
LWPOLYLINE
  2
AcDbPolyline
  3
AutoCAD 2000
 90
        0
280
               0
281
               1
  0
CLASS
  1
IMAGE
  2
AcDbRasterImage
  3
ISM
 90
      127
280
               0
281
               1
  0
CLASS
  1
OLE2FRAME
  2
AcDbOle2Frame
  3
AutoCAD 2000
 90
        0
280
               0
281
               1
  0
CLASS
  1
HATCH
  2
AcDbHatch
  3
AutoCAD 2000
 90
        0
280
               0
281
               1
  0
CLASS
  1
DICTIONARYVAR
  2
AcDbDictionaryVar
  3
AutoCAD 2000
 90
        0
280
               0
281
               0
  0
CLASS
  1
RASTERVARIABLES
  2
AcDbRasterVariables
  3
ISM
 90
        0
280
               0
281
               0
  0
CLASS
  1
IMAGEDEF
  2
AcDbRasterImageDef
  3
ISM
 90
        0
280
               0
281
               0
  0
CLASS
  1
IMAGEDEF_REACTOR
  2
AcDbRasterImageDefReactor
  3
ISM
 90
        1
280
               0
281
               0
  0
CLASS
  1
IDBUFFER
  2
AcDbIdBuffer
  3
AutoCAD 2000
 90
        0
280
               0
281
               0
  0
CLASS
  1
SPATIAL_FILTER
  2
AcDbSpatialFilter
  3
AutoCAD 2000
 90
        0
280
               0
281
               0
  0
CLASS
  1
XRECORD
  2
AcDbXrecord
  3
AutoCAD 2000
 90
        0
280
               0
281
               0
  0
CLASS
  1
SORTENTSTABLE
  2
AcDbSortentsTable
  3
AutoCAD 2000
 90
        0
280
               0
281
               0
  0
CLASS
  1
LAYER_INDEX
  2
AcDbLayerIndex
  3
AutoCAD 2000
 90
        0
280
               0
281
               0
  0
CLASS
  1
SPATIAL_INDEX
  2
AcDbSpatialIndex
  3
AutoCAD 2000
 90
        0
280
               0
281
               0
  0
CLASS
  1
OBJECT_PTR
  2
CAseDLPNTableRecord
  3
"ASE-LPNTableRecord"
 90
        1
280
               0
281
               0
  0
CLASS
  1
LAYOUT
  2
AcDbLayout
  3
AutoCAD 2000
 90
        0
280
               0
281
               0
  0
CLASS
  1
PLOTSETTINGS
  2
AcDbPlotSettings
  3
AutoCAD 2000
 90
        0
280
               0
281
               0
  0
CLASS
  1
ACDBDICTIONARYWDFLT
  2
AcDbDictionaryWithDefault
  3
AutoCAD 2000
 90
        0
280
               0
281
               0
  0
CLASS
  1
ACDBPLACEHOLDER
  2
AcDbPlaceHolder
  3
AutoCAD 2000
 90
        0
280
               0
281
               0
  0
ENDSEC
  0
SECTION
  2
TABLES
  0
TABLE
  2
VPORT
  5
7
100
AcDbSymbolTable
 70
               1
  0
VPORT
  5
15
100
AcDbSymbolTableRecord
100
AcDbViewportTableRecord
  2
*ACTIVE
 70
               0
 10
0.0
 20
0.0
 11
1.0
 21
1.0
 12
0.0
 22
-12.764114914906713
 13
0.0
 23
0.0
 14
1.0
 24
1.0
 15
0.0
 25
0.0
 16
0.0
 26
0.0
 36
1.0
 17
0.0
 27
0.0
 37
0.0
 40
2837.5228151124124
 41
0.688564
 42
50.0
 43
0.0
 44
0.0
 50
0.0
 51
0.0
 71
               0
 72
            2000
 73
               1
 74
               1
 75
               0
 76
               0
 77
               0
 78
               0
281
               0
 65
               0
110
0.0
120
0.0
130
0.0
111
1.0
121
0.0
131
0.0
112
0.0
122
1.0
132
0.0
345
0
346
0
 79
               0
146
0.0
  0
ENDTAB
  0
TABLE
  2
LTYPE
  5
4
100
AcDbSymbolTable
 70
              17
  0
LTYPE
  5
11
100
AcDbSymbolTableRecord
100
AcDbLinetypeTableRecord
  2
ByBlock
 70
              64
  3

 72
              65
 73
               0
 40
0.0
  0
LTYPE
  5
12
100
AcDbSymbolTableRecord
100
AcDbLinetypeTableRecord
  2
ByLayer
 70
              64
  3

 72
              65
 73
               0
 40
0.0
  0
LTYPE
  5
13
100
AcDbSymbolTableRecord
100
AcDbLinetypeTableRecord
  2
Continuous
 70
              64
  3
Solid line
 72
              65
 73
               0
 40
0.0
  0
LTYPE
  5
33
100
AcDbSymbolTableRecord
100
AcDbLinetypeTableRecord
  2
STYLE_01
 70
               0
  3

 72
              65
 73
               4
 40
0.3999999999999999
 49
0.25
 74
               0
 49
-0.05
 74
               0
 49
0.05
 74
               0
 49
-0.05
 74
               0
  0
LTYPE
  5
34
100
AcDbSymbolTableRecord
100
AcDbLinetypeTableRecord
  2
STYLE_02
 70
               0
  3

 72
              65
 73
               2
 40
0.6944250000000001
 49
0.48607
 74
               0
 49
-0.2083550000000001
 74
               0
  0
LTYPE
  5
35
100
AcDbSymbolTableRecord
100
AcDbLinetypeTableRecord
  2
STYLE_03
 70
               0
  3

 72
              65
 73
               2
 40
1.25
 49
1.0416400000000001
 74
               0
 49
-0.2083599999999999
 74
               0
  0
LTYPE
  5
36
100
AcDbSymbolTableRecord
100
AcDbLinetypeTableRecord
  2
STYLE_04
 70
               0
  3

 72
              65
 73
               2
 40
1.5277099999999999
 49
1.3194249999999998
 74
               0
 49
-0.208285
 74
               0
  0
LTYPE
  5
37
100
AcDbSymbolTableRecord
100
AcDbLinetypeTableRecord
  2
STYLE_05
 70
               0
  3

 72
              65
 73
               2
 40
0.20828
 49
0.069425
 74
               0
 49
-0.138855
 74
               0
  0
LTYPE
  5
38
100
AcDbSymbolTableRecord
100
AcDbLinetypeTableRecord
  2
STYLE_06
 70
               0
  3

 72
              65
 73
               4
 40
1.0416400000000001
 49
0.625
 74
               0
 49
-0.20828
 74
               0
 49
0.06943
 74
               0
 49
-0.13893
 74
               0
  0
LTYPE
  5
39
100
AcDbSymbolTableRecord
100
AcDbLinetypeTableRecord
  2
STYLE_07
 70
               0
  3

 72
              65
 73
               6
 40
1.875
 49
0.625
 74
               0
 49
-0.20828
 74
               0
 49
0.6250000000000001
 74
               0
 49
-0.2083599999999999
 74
               0
 49
0.06943
 74
               0
 49
-0.1389299999999999
 74
               0
  0
LTYPE
  5
3A
100
AcDbSymbolTableRecord
100
AcDbLinetypeTableRecord
  2
STYLE_08
 70
               0
  3

 72
              65
 73
               6
 40
1.25
 49
0.625
 74
               0
 49
-0.20828
 74
               0
 49
0.06943
 74
               0
 49
-0.13893
 74
               0
 49
0.0694299999999999
 74
               0
 49
-0.13893
 74
               0
  0
LTYPE
  5
3B
100
AcDbSymbolTableRecord
100
AcDbLinetypeTableRecord
  2
STYLE_09
 70
               0
  3

 72
              65
 73
               4
 40
5.0
 49
3.75
 74
               0
 49
-0.2777849999999998
 74
               0
 49
0.6944300000000003
 74
               0
 49
-0.2777849999999998
 74
               0
  0
LTYPE
  5
3C
100
AcDbSymbolTableRecord
100
AcDbLinetypeTableRecord
  2
STYLE_10
 70
               0
  3

 72
              65
 73
               6
 40
5.9375
 49
3.75
 74
               0
 49
-0.2777849999999998
 74
               0
 49
0.6944300000000003
 74
               0
 49
-0.2777849999999998
 74
               0
 49
0.625
 74
               0
 49
-0.3125
 74
               0
  0
LTYPE
  5
3D
100
AcDbSymbolTableRecord
100
AcDbLinetypeTableRecord
  2
STYLE_11
 70
               0
  3

 72
              65
 73
               2
 40
0.0694444881889764
 49
0.0347222440944882
 74
               0
 49
-0.0347222440944882
 74
               0
  0
LTYPE
  5
3E
100
AcDbSymbolTableRecord
100
AcDbLinetypeTableRecord
  2
STYLE_12
 70
               0
  3

 72
              65
 73
               2
 40
0.3937007874015748
 49
0.1968503937007874
 74
               0
 49
-0.1968503937007874
 74
               0
  0
LTYPE
  5
3F
100
AcDbSymbolTableRecord
100
AcDbLinetypeTableRecord
  2
STYLE_13
 70
               0
  3

 72
              65
 73
               2
 40
0.5905511811023622
 49
0.2952755905511811
 74
               0
 49
-0.2952755905511811
 74
               0
  0
LTYPE
  5
40
100
AcDbSymbolTableRecord
100
AcDbLinetypeTableRecord
  2
STYLE_14
 70
               0
  3

 72
              65
 73
               2
 40
1.9685039370078738
 49
0.9842519685039369
 74
               0
 49
-0.9842519685039369
 74
               0
  0
ENDTAB
  0
TABLE
  2
LAYER
  5
2
100
AcDbSymbolTable
 70
               6
  0
LAYER
  5
14
100
AcDbSymbolTableRecord
100
AcDbLayerTableRecord
  2
0
 70
               0
 62
               7
  6
Continuous
290
               1
370
              -3
390
1D
  0
LAYER
  5
41
100
AcDbSymbolTableRecord
100
AcDbLayerTableRecord
  2
Defpoints
 70
               0
 62
               7
  6
Continuous
290
               0
370
              -3
390
1D
  0
LAYER
  5
42
100
AcDbSymbolTableRecord
100
AcDbLayerTableRecord
  2
template
 70
               0
 62
               7
  6
Continuous
290
               1
370
              -3
390
1D
  0
LAYER
  5
43
100
AcDbSymbolTableRecord
100
AcDbLayerTableRecord
  2
info
 70
               0
 62
               7
  6
Continuous
290
               1
370
              -3
390
1D
  0
LAYER
  5
44
100
AcDbSymbolTableRecord
100
AcDbLayerTableRecord
  2
notes
 70
               0
 62
               7
  6
Continuous
290
               1
370
              -3
390
1D
  0
LAYER
  5
45
100
AcDbSymbolTableRecord
100
AcDbLayerTableRecord
  2
FAN70-0303
 70
               0
 62
               7
  6
Continuous
290
               1
370
              -3
390
1D
  0
ENDTAB
  0
TABLE
  2
STYLE
  5
3
100
AcDbSymbolTable
 70
               2
  0
STYLE
  5
17
100
AcDbSymbolTableRecord
100
AcDbTextStyleTableRecord
  2
Standard
 70
               0
 40
0.0
 41
1.0
 50
0.0
 71
               0
 42
0.0
  3
txt
  4
BIGFONT.SHX
  0
STYLE
  5
32
100
AcDbSymbolTableRecord
100
AcDbTextStyleTableRecord
  2
ＭＳ ゴシック
 70
               0
 40
0.0
 41
1.0
 50
0.0
 71
               0
 42
0.0
  3

  4
ＭＳ ゴシック
1001
ACAD
1000
ＭＳ ゴシック
1071
        0
  0
ENDTAB
  0
TABLE
  2
VIEW
  5
5
100
AcDbSymbolTable
 70
               0
  0
ENDTAB
  0
TABLE
  2
UCS
  5
6
100
AcDbSymbolTable
 70
               0
  0
ENDTAB
  0
TABLE
  2
APPID
  5
8
100
AcDbSymbolTable
 70
               1
  0
APPID
  5
16
100
AcDbSymbolTableRecord
100
AcDbRegAppTableRecord
  2
ACAD
 70
               0
  0
ENDTAB
  0
TABLE
  2
DIMSTYLE
  5
9
100
AcDbSymbolTable
 70
               2
100
AcDbDimStyleTable
 71
               0
  0
DIMSTYLE
105
18
100
AcDbSymbolTableRecord
100
AcDbDimStyleTableRecord
  2
Standard
 70
               0
  3

  4

 40
1.0
 41
0.18
 42
0.0625
 43
0.38
 44
0.18
 45
0.0
 46
0.0
 47
0.0
 48
0.0
 71
               0
 72
               0
 73
               1
 74
               1
 75
               0
 76
               0
 77
               0
 78
               0
 79
               0
140
0.18
141
0.09
142
0.0
143
25.399999999999999
144
1.0
145
0.0
146
1.0
147
0.09
148
0.0
170
               0
171
               2
172
               0
173
               0
174
               0
175
               0
176
               0
177
               0
178
               0
179
               0
271
               4
272
               4
273
               2
274
               2
275
               0
276
               0
277
               2
278
              46
279
               0
280
               0
281
               0
282
               0
283
               1
284
               0
285
               0
286
               0
288
               0
289
               3
340
17
341
0
342
0
343
0
344
0
371
              -2
372
              -2
  0
DIMSTYLE
105
4E
100
AcDbSymbolTableRecord
100
AcDbDimStyleTableRecord
  2
tfrom線あり
 70
               0
  3
<>
  4
[]
 40
1.0
 41
9.9993896484374982
 42
24.999999999999996
 43
0.9999999999999999
 44
0.0
 45
0.0
 46
0.0
 47
0.0
 48
0.0
 71
               0
 72
               0
 73
               0
 74
               0
 75
               0
 76
               0
 77
               1
 78
              11
 79
               0
140
24.432617187500004
141
0.0
142
0.0
143
1.0
144
1.0
145
0.0
146
1.0
147
0.4999999999999999
148
0.0
170
               0
171
               1
172
               0
173
               0
174
               1
175
               0
176
               0
177
               0
178
               0
179
               2
271
               1
272
               1
273
               2
274
               2
275
               0
276
               2
277
               2
278
              46
279
               0
280
               0
281
               0
282
               0
283
               1
284
              11
285
              11
286
              11
288
               0
289
               0
340
32
341
46
342
46
343
0
344
0
371
              -2
372
              -2
  0
ENDTAB
  0
TABLE
  2
BLOCK_RECORD
  5
1
100
AcDbSymbolTable
 70
              16
  0
BLOCK_RECORD
  5
A
100
AcDbSymbolTableRecord
100
AcDbBlockTableRecord
  2
*MODEL_SPACE
340
20
  0
BLOCK_RECORD
  5
B
100
AcDbSymbolTableRecord
100
AcDbBlockTableRecord
  2
*PAPER_SPACE
340
21
  0
BLOCK_RECORD
  5
46
100
AcDbSymbolTableRecord
100
AcDbBlockTableRecord
  2
_DOT
340
0
  0
BLOCK_RECORD
  5
23
100
AcDbSymbolTableRecord
100
AcDbBlockTableRecord
  2
グループ
340
0
102
{BLKREFS
331
110
102
}
  0
BLOCK_RECORD
  5
24
100
AcDbSymbolTableRecord
100
AcDbBlockTableRecord
  2
*D2
340
0
  0
BLOCK_RECORD
  5
25
100
AcDbSymbolTableRecord
100
AcDbBlockTableRecord
  2
*D3
340
0
  0
BLOCK_RECORD
  5
26
100
AcDbSymbolTableRecord
100
AcDbBlockTableRecord
  2
*D4
340
0
  0
BLOCK_RECORD
  5
27
100
AcDbSymbolTableRecord
100
AcDbBlockTableRecord
  2
*D5
340
0
  0
BLOCK_RECORD
  5
28
100
AcDbSymbolTableRecord
100
AcDbBlockTableRecord
  2
*D6
340
0
  0
BLOCK_RECORD
  5
29
100
AcDbSymbolTableRecord
100
AcDbBlockTableRecord
  2
*D7
340
0
  0
BLOCK_RECORD
  5
2A
100
AcDbSymbolTableRecord
100
AcDbBlockTableRecord
  2
*D8
340
0
  0
BLOCK_RECORD
  5
2B
100
AcDbSymbolTableRecord
100
AcDbBlockTableRecord
  2
*D9
340
0
  0
BLOCK_RECORD
  5
2C
100
AcDbSymbolTableRecord
100
AcDbBlockTableRecord
  2
*D10
340
0
  0
BLOCK_RECORD
  5
2D
100
AcDbSymbolTableRecord
100
AcDbBlockTableRecord
  2
*D11
340
0
  0
BLOCK_RECORD
  5
2E
100
AcDbSymbolTableRecord
100
AcDbBlockTableRecord
  2
*D12
340
0
  0
BLOCK_RECORD
  5
2F
100
AcDbSymbolTableRecord
100
AcDbBlockTableRecord
  2
*D13
340
0
  0
BLOCK_RECORD
  5
30
100
AcDbSymbolTableRecord
100
AcDbBlockTableRecord
  2
*D14
340
0
  0
BLOCK_RECORD
  5
31
100
AcDbSymbolTableRecord
100
AcDbBlockTableRecord
  2
*D15
340
0
  0
ENDTAB
  0
ENDSEC
  0
SECTION
  2
BLOCKS
  0
BLOCK
  5
D
100
AcDbEntity
  8
0
390
0
100
AcDbBlockBegin
  2
*MODEL_SPACE
 70
               0
 10
0.0
 20
0.0
 30
0.0
  3
*MODEL_SPACE
  1

  0
ENDBLK
  5
E
100
AcDbEntity
  8
0
390
0
100
AcDbBlockEnd
  0
BLOCK
  5
F
100
AcDbEntity
 67
               1
  8
0
390
0
100
AcDbBlockBegin
  2
*PAPER_SPACE
 70
               0
 10
0.0
 20
0.0
 30
0.0
  3
*PAPER_SPACE
  1

  0
ENDBLK
  5
10
100
AcDbEntity
 67
               1
  8
0
390
0
100
AcDbBlockEnd
  0
BLOCK
  5
47
100
AcDbEntity
  8
0
390
0
100
AcDbBlockBegin
  2
_DOT
 70
               0
 10
0.0
 20
0.0
 30
0.0
  3
_DOT
  1

  0
POLYLINE
  5
48
100
AcDbEntity
  8
0
370
              -2
390
0
  6
ByBlock
 62
               0
100
AcDb2dPolyline
 66
               1
 10
0.0
 20
0.0
 30
0.0
 70
               1
 40
0.5
 41
0.5
  0
VERTEX
  5
49
100
AcDbEntity
  8
0
370
              -2
390
0
  6
ByBlock
 62
               0
100
AcDbVertex
100
AcDb2dVertex
 10
-0.25
 20
0.0
 30
0.0
 42
1.0
  0
VERTEX
  5
4A
100
AcDbEntity
  8
0
370
              -2
390
0
  6
ByBlock
 62
               0
100
AcDbVertex
100
AcDb2dVertex
 10
0.25
 20
0.0
 30
0.0
 42
1.0
  0
SEQEND
  5
4B
100
AcDbEntity
  8
0
390
0
  0
LINE
  5
4C
100
AcDbEntity
  8
0
370
              -2
390
0
  6
ByBlock
 62
               0
100
AcDbLine
 10
-0.5
 20
0.0
 30
0.0
 11
-1.0
 21
0.0
 31
0.0
  0
ENDBLK
  5
4D
100
AcDbEntity
  8
0
390
0
100
AcDbBlockEnd
  0
BLOCK
  5
4F
100
AcDbEntity
  8
template
390
0
100
AcDbBlockBegin
  2
グループ
 70
               0
 10
0.0
 20
0.0
 30
0.0
  3
グループ
  1

  0
LWPOLYLINE
  5
50
100
AcDbEntity
  8
0
370
              15
390
0
  6
Continuous
 62
               7
100
AcDbPolyline
 90
        8
 70
             129
 10
887.42850780307481
 20
-1385.7897210236858
 10
887.42850780307481
 20
-1391.7871097172617
 10
877.92731088507151
 20
-1391.7871097172617
 10
877.92731088507151
 20
-1416.2380729807705
 10
869.57193362328871
 20
-1416.2380729807705
 10
869.57193362328871
 20
-1391.7871097172617
 10
860.23897667697929
 20
-1391.7871097172617
 10
860.23897667697929
 20
-1385.7897210236858
  0
LWPOLYLINE
  5
51
100
AcDbEntity
  8
0
370
              15
390
0
  6
Continuous
 62
               7
100
AcDbPolyline
 90
      101
 70
             128
 10
900.15679963363175
 20
-1386.5179695166223
 10
900.17214966241681
 20
-1386.5136087599371
 42
-0.0222221607812283
 10
900.46215423908779
 20
-1386.4449842946926
 10
900.47794800308122
 20
-1386.4419808715957
 42
-0.0146883565586854
 10
900.74065070830557
 20
-1386.3999776846463
 42
-0.0127458844187406
 10
901.00528967545358
 20
-1386.3724407165741
 10
901.06774475377142
 20
-1386.3675472939856
 42
-0.0198099018566978
 10
901.45859386324832
 20
-1386.3524621365891
 10
901.51040533269202
 20
-1386.3525159122541
 42
-0.0147617382765147
 10
902.00502879366343
 20
-1386.3676359374988
 10
902.07772024853898
 20
-1386.3720085443865
 42
-0.0162624549004703
 10
902.46787387800578
 20
-1386.4082414196589
 10
902.58940626927017
 20
-1386.423527978656
 42
-0.0080020874660664
 10
902.73498530035658
 20
-1386.4442108259238
 10
902.77330477094858
 20
-1386.4502821037345
 42
-0.005382192967833
 10
902.84178887626638
 20
-1386.4618896275565
 10
902.11538317706777
 20
-1388.6428180832704
 42
0.0108667757394062
 10
902.04806610693299
 20
-1388.6296309680497
 10
902.01059808374748
 20
-1388.6231332254561
 42
0.017066320330763
 10
901.8673812968334
 20
-1388.6033036281644
 10
901.79950596414892
 20
-1388.5962564575768
 42
0.0220162375276392
 10
901.51912655629246
 20
-1388.5795740968067
 10
901.44127098924173
 20
-1388.5783747295402
 42
0.028260691578391
 10
901.10563466566362
 20
-1388.5921780065091
 10
901.06172139189118
 20
-1388.5964779965129
 42
0.0169677213690595
 10
900.8157968969324
 20
-1388.629015046065
 42
0.0190576269865374
 10
900.57288893435555
 20
-1388.6791619181704
 10
900.56662974624146
 20
-1388.6807048922806
 42
0.0213685642844021
 10
900.3162452617612
 20
-1388.7539051773861
 10
900.3107553668475
 20
-1388.7557681734443
 42
0.0237595297591213
 10
900.05726048194606
 20
-1388.855452695341
 10
900.05215840791914
 20
-1388.857744470818
 42
0.0261857468810989
 10
899.79998763168908
 20
-1388.9872808081925
 10
899.78956144260587
 20
-1388.9933462826589
 42
0.0272553062017633
 10
899.55313166736369
 20
-1389.1487184886055
 10
899.51836865385121
 20
-1389.1743796367
 42
0.0325996893180971
 10
899.36821331020269
 20
-1389.301127509669
 10
899.34450388107427
 20
-1389.323945538187
 42
0.0138050960639914
 10
899.25262072486953
 20
-1389.4173951997336
 42
0.0125280103805281
 10
899.16577819203565
 20
-1389.515558526334
 10
899.14209774712765
 20
-1389.5437170245209
 42
0.0205218024729119
 10
899.01699767161574
 20
-1389.7055103387474
 10
898.99453133112684
 20
-1389.7371700685769
 42
0.0163110129581913
 10
898.83882095187528
 20
-1389.9725005036471
 10
898.83609705582455
 20
-1389.9769242656323
 42
0.0131897341896935
 10
898.68929653491978
 20
-1390.2300563579945
 10
898.68759643955218
 20
-1390.2331745971323
 42
0.0107895576059858
 10
898.54981973734516
 20
-1390.4993898067601
 10
898.5490868478164
 20
-1390.5008840394141
 42
0.0091371507219095
 10
898.42060689916514
 20
-1390.7754092371777
 10
898.3908612677576
 20
-1390.8421157443327
 42
0.0135418326351206
 10
898.21914732868856
 20
-1391.2570535295947
 10
898.1855425202524
 20
-1391.3449196718809
 42
0.009283454240957
 10
898.01431346033087
 20
-1391.818818170188
 10
897.98869633261734
 20
-1391.8940592399692
 42
0.0054261043577207
 10
897.88105818432018
 20
-1392.2218232130463
 10
897.86353219811349
 20
-1392.277211375369
 42
0.0008225090822161
 10
897.79486214631277
 20
-1392.4954801334256
 10
896.8101730143793
 20
-1395.5203714266822
 10
900.04279685445317
 20
-1395.5203714266822
 10
899.53860442459973
 20
-1397.4248497250346
 10
896.28254814261641
 20
-1397.4248497250346
 10
890.45339911026258
 20
-1416.2380727910395
 10
888.62830149995227
 20
-1416.2380727910395
 10
894.4629795354532
 20
-1397.4248497250346
 10
892.05786316641286
 20
-1397.4248497250346
 10
892.5620555962663
 20
-1395.5203714266822
 10
894.99060440721632
 20
-1395.5203714266822
 10
895.85075932540497
 20
-1392.8839584259833
 42
-0.0005863560650262
 10
895.88749400353095
 20
-1392.7671320059374
 10
895.96358183726886
 20
-1392.5261397063061
 42
-0.0087522378925654
 10
896.16304998072576
 20
-1391.9308636191595
 10
896.25531425613713
 20
-1391.6707234506523
 42
-0.0077400953830562
 10
896.51324791527031
 20
-1390.9777187730983
 10
896.52901288684689
 20
-1390.9372878897182
 42
-0.0082369946330518
 10
896.77609735746114
 20
-1390.3332088235165
 42
-0.0085725238363833
 10
897.0433434534657
 20
-1389.7377827842261
 10
897.14497305447333
 20
-1389.5213616822405
 42
-0.0168109410595879
 10
897.43191748320146
 20
-1388.9601541561401
 10
897.55776087367406
 20
-1388.733190123118
 42
-0.0007817726859269
 10
897.61204522371713
 20
-1388.6356458781115
 10
897.61217352973449
 20
-1388.635416169375
 42
-0.0036626142157143
 10
897.6670613937556
 20
-1388.5388182894067
 42
-0.0080221150679748
 10
897.72418564916165
 20
-1388.443539054655
 10
897.75488560052349
 20
-1388.3941481055317
 42
-0.020213932556849
 10
897.88254134033025
 20
-1388.2061665048502
 10
897.93660880551784
 20
-1388.1330876406093
 42
-0.0249323791798447
 10
898.1957715992371
 20
-1387.8170423984548
 10
898.219911413364
 20
-1387.7904281255423
 42
-0.0242132121536684
 10
898.55959215490498
 20
-1387.4505446393393
 10
898.60750372765756
 20
-1387.4070355031515
 42
-0.025101752785879
 10
898.8914854282973
 20
-1387.1740427573877
 10
898.8929309051116
 20
-1387.1729734998084
 42
-0.0130868069040762
 10
899.19119155506837
 20
-1386.9641930312662
 10
899.19275337420993
 20
-1386.9631595909918
 42
-0.0290329526391372
 10
899.50386451560439
 20
-1386.7823340893619
 10
899.53371007759586
 20
-1386.7672317065196
 42
-0.0160250190043653
 10
899.79961449135521
 20
-1386.6432155963089
 42
-0.0267600374781006
 10
900.07489056882639
 20
-1386.5424672757597
 10
900.10162648834478
 20
-1386.5342747169348
 42
-0.0049981587670053
 10
900.15679963363175
 20
-1386.5179695166223
 42
-0.0049981587670053
  0
LWPOLYLINE
  5
52
100
AcDbEntity
  8
0
370
              15
390
0
  6
Continuous
 62
               7
100
AcDbPolyline
 90
      118
 70
             128
 10
919.97116719807866
 20
-1395.5943547545096
 10
921.84628912257813
 20
-1395.5943547545096
 10
921.00825021697824
 20
-1398.2759212809096
 42
-0.0010587229211422
 10
921.03970603257619
 20
-1398.2390167475237
 10
921.09790012318217
 20
-1398.1710344913786
 42
-0.0071874740407281
 10
921.24827534128485
 20
-1398.0003937993445
 10
921.38999811454244
 20
-1397.8441576580362
 42
-0.0148118053512363
 10
921.84012740725746
 20
-1397.3765438120211
 10
921.92734974215796
 20
-1397.2911464911688
 42
-0.0086273358692412
 10
922.26289854316542
 20
-1396.9737708571533
 10
922.30673225939188
 20
-1396.9337212128198
 42
-0.0103138323110657
 10
922.56475596162477
 20
-1396.707558075482
 10
922.61053036794067
 20
-1396.6690760282311
 42
-0.0060206748566775
 10
922.78337843206407
 20
-1396.5272813774673
 10
922.78540956294921
 20
-1396.5256556718366
 42
-0.0067069027288388
 10
922.95770237761258
 20
-1396.391505038041
 10
922.96025114353938
 20
-1396.389574868165
 42
-0.0076184352042701
 10
923.13115640940987
 20
-1396.2641999929219
 42
-0.0089652861674684
 10
923.30611737214042
 20
-1396.1445667325922
 10
923.34246909229182
 20
-1396.120655519105
 42
-0.0156916245935726
 10
923.5384285894495
 20
-1396.000393032632
 42
-0.002329901106332
 10
923.7386906333893
 20
-1395.8872150931136
 10
923.75407476580915
 20
-1395.8786150980266
 42
-0.0107669341484053
 10
923.98831159090878
 20
-1395.7542149646779
 10
924.0105763919853
 20
-1395.7429982147271
 42
-0.0078058045895926
 10
924.29416650993699
 20
-1395.6056367590891
 10
924.30407359764718
 20
-1395.6010276312202
 42
-0.0181829330473932
 10
924.61438300225871
 20
-1395.4701638901261
 10
924.66843844483174
 20
-1395.4496487701801
 42
-0.0208411536025736
 10
925.01752341227984
 20
-1395.3335583076878
 10
925.03187951240682
 20
-1395.3294398627345
 42
-0.0222799817135775
 10
925.3605993063245
 20
-1395.250798296594
 10
925.36948826956063
 20
-1395.2490862860091
 42
-0.0215509523883926
 10
925.68595923784142
 20
-1395.2021705974748
 10
925.72844119889146
 20
-1395.1977330706839
 42
-0.0182545924873351
 10
925.96254997819551
 20
-1395.181889245293
 10
926.00195099454572
 20
-1395.1806647002136
 42
-0.0072962856529064
 10
926.15787387423256
 20
-1395.1780953716916
 10
926.18697354479764
 20
-1395.1780405362879
 42
-0.0059227516312887
 10
926.2847230439495
 20
-1395.1790142480781
 10
926.31396526140736
 20
-1395.1796520146811
 42
-0.0011833111893351
 10
926.35321654515383
 20
-1395.1806010189916
 10
925.55782994954666
 20
-1397.7193349640906
 42
0.0143932051568036
 10
925.53142856719148
 20
-1397.7091359940437
 10
925.52415659477879
 20
-1397.7065647751879
 42
0.0234388603491699
 10
925.48232572884899
 20
-1397.6939455394734
 10
925.47364406593397
 20
-1397.6917645774677
 42
0.0199162742988474
 10
925.41335523185239
 20
-1397.6791478421324
 10
925.39254129404776
 20
-1397.6756506427041
 42
0.0293643550669223
 10
925.28946643528752
 20
-1397.6645005970508
 10
925.26478125456833
 20
-1397.6632889800323
 42
0.0214606686870448
 10
925.11164033861701
 20
-1397.662350419615
 10
925.10226842779787
 20
-1397.6626953311593
 42
0.0167564054187873
 10
924.93074823669042
 20
-1397.6747723735273
 10
924.92228844393048
 20
-1397.6756537139545
 42
0.0137677553246399
 10
924.73493513066614
 20
-1397.7004030224978
 10
924.72758339115785
 20
-1397.7015809424659
 42
0.0118497261481205
 10
924.52708562705527
 20
-1397.7385982926551
 10
924.52093561980928
 20
-1397.7398851553751
 42
0.0106421143891936
 10
924.31005473252526
 20
-1397.7887175309497
 10
924.30514592413522
 20
-1397.789964873635
 42
0.0099746379706426
 10
924.08668745497073
 20
-1397.8501394019504
 10
924.02513941480242
 20
-1397.8684212805804
 42
0.0191613675860962
 10
923.68915495228782
 20
-1397.9823986608671
 10
923.60109517953936
 20
-1398.0160855711924
 42
0.0205274080147135
 10
923.21578840764073
 20
-1398.181913979018
 10
923.15813912565523
 20
-1398.209581943592
 42
0.0181256912193595
 10
922.89986218499178
 20
-1398.345265762568
 10
922.84690680167512
 20
-1398.3755833757843
 42
0.0140709242412418
 10
922.7019518670495
 20
-1398.4640780492173
 10
922.6757029984326
 20
-1398.4811348679318
 42
0.0086667884399223
 10
922.58677683688848
 20
-1398.5411375358156
 42
0.003640819201488
 10
922.4993435988797
 20
-1398.6033183935901
 10
922.46411672438649
 20
-1398.6287593395207
 42
0.0052260781283436
 10
922.30788802698567
 20
-1398.7440917261622
 10
922.29168117073573
 20
-1398.7563198367729
 42
0.0050024435892504
 10
922.1056778276743
 20
-1398.8996024050373
 10
922.09035967116176
 20
-1398.9116484274809
 42
0.0136138710277092
 10
921.87991840283541
 20
-1399.0866149323954
 10
921.84625052704291
 20
-1399.1161939051085
 42
0.0172815186909998
 10
921.58184698538162
 20
-1399.3651905777306
 10
921.57928463953772
 20
-1399.367776394879
 42
0.0189403857991616
 10
921.32870284095702
 20
-1399.6405816596853
 10
921.29607134742253
 20
-1399.6789255911808
 42
0.0185044199506342
 10
921.10411490844263
 20
-1399.9221741723036
 42
0.0088565243901835
 10
920.92565480181418
 20
-1400.1756905924535
 10
920.91647682216569
 20
-1400.1892319722135
 42
0.0157195347233255
 10
920.73325621582558
 20
-1400.4787541815394
 10
920.68717327389959
 20
-1400.556906378552
 42
0.009545187978228
 10
920.52208772376309
 20
-1400.8495010209067
 10
920.51093980483051
 20
-1400.8701716930441
 42
0.0100351706259463
 10
920.3788960556742
 20
-1401.1272272535293
 42
0.0086935915427105
 10
920.25656490388042
 20
-1401.3890603989332
 10
920.25324416246565
 20
-1401.3965027219056
 42
0.0072580174868562
 10
920.13289771051973
 20
-1401.677094713491
 10
920.1296360772144
 20
-1401.6850147395066
 42
0.0060005122612748
 10
920.01043540887395
 20
-1401.9846244101057
 10
920.00722443053007
 20
-1401.9929859380163
 42
0.0049017786976053
 10
919.88832427167415
 20
-1402.3119149186166
 10
919.88515846528219
 20
-1402.3206678558513
 42
0.0039415167601332
 10
919.76572218722583
 20
-1402.6592099182635
 10
919.76259108457339
 20
-1402.6683131191405
 42
0.0031035838764651
 10
919.64178629887056
 20
-1403.0267529809435
 10
919.63867625434989
 20
-1403.0361736022887
 42
0.0025070747152459
 10
919.51577490304032
 20
-1403.4148208192148
 10
919.47848100660917
 20
-1403.5317124844858
 42
0.002908191028505
 10
919.28646270879403
 20
-1404.1458761427912
 10
919.24565954028128
 20
-1404.2790993850533
 42
0.000926645373586
 10
918.97724216595384
 20
-1405.1613238450188
 10
918.95635469337412
 20
-1405.2304357240532
 42
-0.0005809993666905
 10
918.67901801273479
 20
-1406.1442438308518
 10
918.61273621446674
 20
-1406.3617287629952
 42
-0.001201870816555
 10
918.46575190503268
 20
-1406.8398914275322
 10
918.41343205330679
 20
-1407.0086505689142
 42
-0.0002691059611808
 10
918.36986257229853
 20
-1407.1489181887398
 10
915.53690667400929
 20
-1416.2380727910395
 10
913.71891778203076
 20
-1416.2380727910395
 10
919.97116719807866
 20
-1395.5943547545096
  0
SPLINE
  5
53
100
AcDbEntity
  8
0
370
              15
390
0
  6
Continuous
 62
               7
100
AcDbSpline
210
0.0
220
0.0
230
1.0
 70
              13
 71
               2
 72
             782
 73
             779
 74
               0
 42
0.000001
 43
0.000001
 40
0.0
 40
0.0
 40
0.0
 40
1.0
 40
1.0
 40
2.0
 40
2.0
 40
3.0
 40
3.0
 40
4.0
 40
4.0
 40
5.0
 40
5.0
 40
6.0
 40
6.0
 40
7.0
 40
7.0
 40
8.0
 40
8.0
 40
9.0
 40
9.0
 40
10.0
 40
10.0
 40
11.0
 40
11.0
 40
12.0
 40
12.0
 40
13.0
 40
13.0
 40
14.0
 40
14.0
 40
15.0
 40
15.0
 40
16.0
 40
16.0
 40
17.0
 40
17.0
 40
18.0
 40
18.0
 40
19.0
 40
19.0
 40
20.0
 40
20.0
 40
21.0
 40
21.0
 40
22.0
 40
22.0
 40
23.0
 40
23.0
 40
24.0
 40
24.0
 40
25.0
 40
25.0
 40
26.0
 40
26.0
 40
27.0
 40
27.0
 40
28.0
 40
28.0
 40
29.0
 40
29.0
 40
30.0
 40
30.0
 40
31.0
 40
31.0
 40
32.0
 40
32.0
 40
33.0
 40
33.0
 40
34.0
 40
34.0
 40
35.0
 40
35.0
 40
36.0
 40
36.0
 40
37.0
 40
37.0
 40
38.0
 40
38.0
 40
39.0
 40
39.0
 40
40.0
 40
40.0
 40
41.0
 40
41.0
 40
42.0
 40
42.0
 40
43.0
 40
43.0
 40
44.0
 40
44.0
 40
45.0
 40
45.0
 40
46.0
 40
46.0
 40
47.0
 40
47.0
 40
48.0
 40
48.0
 40
49.0
 40
49.0
 40
50.0
 40
50.0
 40
51.0
 40
51.0
 40
52.0
 40
52.0
 40
53.0
 40
53.0
 40
54.0
 40
54.0
 40
55.0
 40
55.0
 40
56.0
 40
56.0
 40
57.0
 40
57.0
 40
58.0
 40
58.0
 40
59.0
 40
59.0
 40
60.0
 40
60.0
 40
61.0
 40
61.0
 40
62.0
 40
62.0
 40
63.0
 40
63.0
 40
64.0
 40
64.0
 40
65.0
 40
65.0
 40
66.0
 40
66.0
 40
67.0
 40
67.0
 40
68.0
 40
68.0
 40
69.0
 40
69.0
 40
70.0
 40
70.0
 40
71.0
 40
71.0
 40
72.0
 40
72.0
 40
73.0
 40
73.0
 40
74.0
 40
74.0
 40
75.0
 40
75.0
 40
76.0
 40
76.0
 40
77.0
 40
77.0
 40
78.0
 40
78.0
 40
79.0
 40
79.0
 40
80.0
 40
80.0
 40
81.0
 40
81.0
 40
82.0
 40
82.0
 40
83.0
 40
83.0
 40
84.0
 40
84.0
 40
85.0
 40
85.0
 40
86.0
 40
86.0
 40
87.0
 40
87.0
 40
88.0
 40
88.0
 40
89.0
 40
89.0
 40
90.0
 40
90.0
 40
91.0
 40
91.0
 40
92.0
 40
92.0
 40
93.0
 40
93.0
 40
94.0
 40
94.0
 40
95.0
 40
95.0
 40
96.0
 40
96.0
 40
97.0
 40
97.0
 40
98.0
 40
98.0
 40
99.0
 40
99.0
 40
100.0
 40
100.0
 40
101.0
 40
101.0
 40
102.0
 40
102.0
 40
103.0
 40
103.0
 40
104.0
 40
104.0
 40
105.0
 40
105.0
 40
106.0
 40
106.0
 40
107.0
 40
107.0
 40
108.0
 40
108.0
 40
109.0
 40
109.0
 40
110.0
 40
110.0
 40
111.0
 40
111.0
 40
112.0
 40
112.0
 40
113.0
 40
113.0
 40
114.0
 40
114.0
 40
115.0
 40
115.0
 40
116.0
 40
116.0
 40
117.0
 40
117.0
 40
118.0
 40
118.0
 40
119.0
 40
119.0
 40
120.0
 40
120.0
 40
121.0
 40
121.0
 40
122.0
 40
122.0
 40
123.0
 40
123.0
 40
124.0
 40
124.0
 40
125.0
 40
125.0
 40
126.0
 40
126.0
 40
127.0
 40
127.0
 40
128.0
 40
128.0
 40
129.0
 40
129.0
 40
130.0
 40
130.0
 40
131.0
 40
131.0
 40
132.0
 40
132.0
 40
133.0
 40
133.0
 40
134.0
 40
134.0
 40
135.0
 40
135.0
 40
136.0
 40
136.0
 40
137.0
 40
137.0
 40
138.0
 40
138.0
 40
139.0
 40
139.0
 40
140.0
 40
140.0
 40
141.0
 40
141.0
 40
142.0
 40
142.0
 40
143.0
 40
143.0
 40
144.0
 40
144.0
 40
145.0
 40
145.0
 40
146.0
 40
146.0
 40
147.0
 40
147.0
 40
148.0
 40
148.0
 40
149.0
 40
149.0
 40
150.0
 40
150.0
 40
151.0
 40
151.0
 40
152.0
 40
152.0
 40
153.0
 40
153.0
 40
154.0
 40
154.0
 40
155.0
 40
155.0
 40
156.0
 40
156.0
 40
157.0
 40
157.0
 40
158.0
 40
158.0
 40
159.0
 40
159.0
 40
160.0
 40
160.0
 40
161.0
 40
161.0
 40
162.0
 40
162.0
 40
163.0
 40
163.0
 40
164.0
 40
164.0
 40
165.0
 40
165.0
 40
166.0
 40
166.0
 40
167.0
 40
167.0
 40
168.0
 40
168.0
 40
169.0
 40
169.0
 40
170.0
 40
170.0
 40
171.0
 40
171.0
 40
172.0
 40
172.0
 40
173.0
 40
173.0
 40
174.0
 40
174.0
 40
175.0
 40
175.0
 40
176.0
 40
176.0
 40
177.0
 40
177.0
 40
178.0
 40
178.0
 40
179.0
 40
179.0
 40
180.0
 40
180.0
 40
181.0
 40
181.0
 40
182.0
 40
182.0
 40
183.0
 40
183.0
 40
184.0
 40
184.0
 40
185.0
 40
185.0
 40
186.0
 40
186.0
 40
187.0
 40
187.0
 40
188.0
 40
188.0
 40
189.0
 40
189.0
 40
190.0
 40
190.0
 40
191.0
 40
191.0
 40
192.0
 40
192.0
 40
193.0
 40
193.0
 40
194.0
 40
194.0
 40
195.0
 40
195.0
 40
196.0
 40
196.0
 40
197.0
 40
197.0
 40
198.0
 40
198.0
 40
199.0
 40
199.0
 40
200.0
 40
200.0
 40
201.0
 40
201.0
 40
202.0
 40
202.0
 40
203.0
 40
203.0
 40
204.0
 40
204.0
 40
205.0
 40
205.0
 40
206.0
 40
206.0
 40
207.0
 40
207.0
 40
208.0
 40
208.0
 40
209.0
 40
209.0
 40
210.0
 40
210.0
 40
211.0
 40
211.0
 40
212.0
 40
212.0
 40
213.0
 40
213.0
 40
214.0
 40
214.0
 40
215.0
 40
215.0
 40
216.0
 40
216.0
 40
217.0
 40
217.0
 40
218.0
 40
218.0
 40
219.0
 40
219.0
 40
220.0
 40
220.0
 40
221.0
 40
221.0
 40
222.0
 40
222.0
 40
223.0
 40
223.0
 40
224.0
 40
224.0
 40
225.0
 40
225.0
 40
226.0
 40
226.0
 40
227.0
 40
227.0
 40
228.0
 40
228.0
 40
229.0
 40
229.0
 40
230.0
 40
230.0
 40
231.0
 40
231.0
 40
232.0
 40
232.0
 40
233.0
 40
233.0
 40
234.0
 40
234.0
 40
235.0
 40
235.0
 40
236.0
 40
236.0
 40
237.0
 40
237.0
 40
238.0
 40
238.0
 40
239.0
 40
239.0
 40
240.0
 40
240.0
 40
241.0
 40
241.0
 40
242.0
 40
242.0
 40
243.0
 40
243.0
 40
244.0
 40
244.0
 40
245.0
 40
245.0
 40
246.0
 40
246.0
 40
247.0
 40
247.0
 40
248.0
 40
248.0
 40
249.0
 40
249.0
 40
250.0
 40
250.0
 40
251.0
 40
251.0
 40
252.0
 40
252.0
 40
253.0
 40
253.0
 40
254.0
 40
254.0
 40
255.0
 40
255.0
 40
256.0
 40
256.0
 40
257.0
 40
257.0
 40
258.0
 40
258.0
 40
259.0
 40
259.0
 40
260.0
 40
260.0
 40
261.0
 40
261.0
 40
262.0
 40
262.0
 40
263.0
 40
263.0
 40
264.0
 40
264.0
 40
265.0
 40
265.0
 40
266.0
 40
266.0
 40
267.0
 40
267.0
 40
268.0
 40
268.0
 40
269.0
 40
269.0
 40
270.0
 40
270.0
 40
271.0
 40
271.0
 40
272.0
 40
272.0
 40
273.0
 40
273.0
 40
274.0
 40
274.0
 40
275.0
 40
275.0
 40
276.0
 40
276.0
 40
277.0
 40
277.0
 40
278.0
 40
278.0
 40
279.0
 40
279.0
 40
280.0
 40
280.0
 40
281.0
 40
281.0
 40
282.0
 40
282.0
 40
283.0
 40
283.0
 40
284.0
 40
284.0
 40
285.0
 40
285.0
 40
286.0
 40
286.0
 40
287.0
 40
287.0
 40
288.0
 40
288.0
 40
289.0
 40
289.0
 40
290.0
 40
290.0
 40
291.0
 40
291.0
 40
292.0
 40
292.0
 40
293.0
 40
293.0
 40
294.0
 40
294.0
 40
295.0
 40
295.0
 40
296.0
 40
296.0
 40
297.0
 40
297.0
 40
298.0
 40
298.0
 40
299.0
 40
299.0
 40
300.0
 40
300.0
 40
301.0
 40
301.0
 40
302.0
 40
302.0
 40
303.0
 40
303.0
 40
304.0
 40
304.0
 40
305.0
 40
305.0
 40
306.0
 40
306.0
 40
307.0
 40
307.0
 40
308.0
 40
308.0
 40
309.0
 40
309.0
 40
310.0
 40
310.0
 40
311.0
 40
311.0
 40
312.0
 40
312.0
 40
313.0
 40
313.0
 40
314.0
 40
314.0
 40
315.0
 40
315.0
 40
316.0
 40
316.0
 40
317.0
 40
317.0
 40
318.0
 40
318.0
 40
319.0
 40
319.0
 40
320.0
 40
320.0
 40
321.0
 40
321.0
 40
322.0
 40
322.0
 40
323.0
 40
323.0
 40
324.0
 40
324.0
 40
325.0
 40
325.0
 40
326.0
 40
326.0
 40
327.0
 40
327.0
 40
328.0
 40
328.0
 40
329.0
 40
329.0
 40
330.0
 40
330.0
 40
331.0
 40
331.0
 40
332.0
 40
332.0
 40
333.0
 40
333.0
 40
334.0
 40
334.0
 40
335.0
 40
335.0
 40
336.0
 40
336.0
 40
337.0
 40
337.0
 40
338.0
 40
338.0
 40
339.0
 40
339.0
 40
340.0
 40
340.0
 40
341.0
 40
341.0
 40
342.0
 40
342.0
 40
343.0
 40
343.0
 40
344.0
 40
344.0
 40
345.0
 40
345.0
 40
346.0
 40
346.0
 40
347.0
 40
347.0
 40
348.0
 40
348.0
 40
349.0
 40
349.0
 40
350.0
 40
350.0
 40
351.0
 40
351.0
 40
352.0
 40
352.0
 40
353.0
 40
353.0
 40
354.0
 40
354.0
 40
355.0
 40
355.0
 40
356.0
 40
356.0
 40
357.0
 40
357.0
 40
358.0
 40
358.0
 40
359.0
 40
359.0
 40
360.0
 40
360.0
 40
361.0
 40
361.0
 40
362.0
 40
362.0
 40
363.0
 40
363.0
 40
364.0
 40
364.0
 40
365.0
 40
365.0
 40
366.0
 40
366.0
 40
367.0
 40
367.0
 40
368.0
 40
368.0
 40
369.0
 40
369.0
 40
370.0
 40
370.0
 40
371.0
 40
371.0
 40
372.0
 40
372.0
 40
373.0
 40
373.0
 40
374.0
 40
374.0
 40
375.0
 40
375.0
 40
376.0
 40
376.0
 40
377.0
 40
377.0
 40
378.0
 40
378.0
 40
379.0
 40
379.0
 40
380.0
 40
380.0
 40
381.0
 40
381.0
 40
382.0
 40
382.0
 40
383.0
 40
383.0
 40
384.0
 40
384.0
 40
385.0
 40
385.0
 40
386.0
 40
386.0
 40
387.0
 40
387.0
 40
388.0
 40
388.0
 40
389.0
 40
389.0
 40
389.0
 10
930.29987164881129
 20
-1395.5834283911472
 30
0.0
 41
1.0
 10
931.11829575753177
 20
-1395.5834283911472
 30
0.0
 41
1.0
 10
931.93671986625225
 20
-1395.5834283911472
 30
0.0
 41
1.0
 10
931.52296613073554
 20
-1396.9260546553969
 30
0.0
 41
1.0
 10
931.10921239521872
 20
-1398.2686809196466
 30
0.0
 41
1.0
 10
931.12755189036329
 20
-1398.2399801467709
 30
0.0
 41
0.9999957264449635
 10
931.14605888718995
 20
-1398.2113870966268
 30
0.0
 41
1.0
 10
931.17648821134094
 20
-1398.1643742182298
 30
0.0
 41
1.0
 10
931.20691753549204
 20
-1398.1173613398328
 30
0.0
 41
1.0
 10
931.2862831805985
 20
-1397.9947425329285
 30
0.0
 41
0.9995394069080581
 10
931.3729415721516
 20
-1397.8771644711856
 30
0.0
 41
1.0
 10
931.40869843440998
 20
-1397.828649578594
 30
0.0
 41
1.0
 10
931.44445529666837
 20
-1397.7801346860024
 30
0.0
 41
1.0
 10
931.57818196448693
 20
-1397.5986944108749
 30
0.0
 41
0.9994460617143366
 10
931.72368244577569
 20
-1397.4265520132244
 30
0.0
 41
1.0
 10
931.72807062675201
 20
-1397.4213603328403
 30
0.0
 41
1.0
 10
931.73245880772845
 20
-1397.416168652456
 30
0.0
 41
1.0
 10
931.86918292706423
 20
-1397.2544096155741
 30
0.0
 41
0.9994359394934378
 10
932.01645715741506
 20
-1397.1021934144101
 30
0.0
 41
1.0
 10
932.0188405113704
 20
-1397.0997300840349
 30
0.0
 41
1.0
 10
932.02122386532574
 20
-1397.0972667536596
 30
0.0
 41
1.0
 10
932.16373138776817
 20
-1396.9499772132438
 30
0.0
 41
0.9995293688567949
 10
932.31500306874864
 20
-1396.8117040010811
 30
0.0
 41
1.0
 10
932.33429682801216
 20
-1396.7940681154298
 30
0.0
 41
1.0
 10
932.35359058727568
 20
-1396.7764322297785
 30
0.0
 41
1.0
 10
932.46627474973195
 20
-1396.6734307889162
 30
0.0
 41
0.9997087614803569
 10
932.58379763868584
 20
-1396.5759865081193
 30
0.0
 41
1.0
 10
932.6029637118711
 20
-1396.5600949296031
 30
0.0
 41
1.0
 10
932.62212978505647
 20
-1396.5442033510872
 30
0.0
 41
1.0
 10
932.70132052764779
 20
-1396.4785422273158
 30
0.0
 41
0.9999595338701152
 10
932.78167979849604
 20
-1396.4143164966663
 30
0.0
 41
1.0
 10
932.86203906936078
 20
-1396.3500907660041
 30
0.0
 41
0.9999749417497325
 10
932.94329960370794
 20
-1396.2870092120547
 30
0.0
 41
1.0
 10
932.96428574986498
 20
-1396.2707179247573
 30
0.0
 41
1.0
 10
932.98527189602214
 20
-1396.2544266374598
 30
0.0
 41
1.0
 10
933.06983978132359
 20
-1396.1887776276192
 30
0.0
 41
0.9999792037126249
 10
933.15524738109707
 20
-1396.1242248459725
 30
0.0
 41
1.0
 10
933.17607220707259
 20
-1396.1084850236662
 30
0.0
 41
1.0
 10
933.19689703304812
 20
-1396.09274520136
 30
0.0
 41
1.0
 10
933.2406549809275
 20
-1396.0596720642827
 30
0.0
 41
0.9999993373911212
 10
933.28433666700971
 20
-1396.0264982689048
 30
0.0
 41
1.0
 10
933.32801835315365
 20
-1395.9933244734802
 30
0.0
 41
0.9999160953814502
 10
933.37254476407406
 20
-1395.9612934082813
 30
0.0
 41
1.0
 10
933.40536665149284
 20
-1395.937682252697
 30
0.0
 41
1.0
 10
933.4381885389115
 20
-1395.9140710971128
 30
0.0
 41
1.0
 10
933.54835872467049
 20
-1395.8348177207445
 30
0.0
 41
0.9980964527231465
 10
933.66744771817071
 20
-1395.7697302478889
 30
0.0
 41
1.0
 10
933.70448032510012
 20
-1395.7494902682952
 30
0.0
 41
1.0
 10
933.74151293202942
 20
-1395.7292502887012
 30
0.0
 41
1.0
 10
933.92083994530083
 20
-1395.6312400380009
 30
0.0
 41
0.9984572810572661
 10
934.10992851165884
 20
-1395.553717776655
 30
0.0
 41
1.0
 10
934.11357478105367
 20
-1395.5522228843174
 30
0.0
 41
1.0
 10
934.11722105044851
 20
-1395.55072799198
 30
0.0
 41
1.0
 10
934.29901707801673
 20
-1395.476195515309
 30
0.0
 41
0.9987838528033862
 10
934.48726973657699
 20
-1395.4199298751428
 30
0.0
 41
1.0
 10
934.4915076857742
 20
-1395.418663221453
 30
0.0
 41
1.0
 10
934.49574563497151
 20
-1395.4173965677633
 30
0.0
 41
1.0
 10
934.67552239513429
 20
-1395.3636642349775
 30
0.0
 41
0.9990652816207043
 10
934.85926832685209
 20
-1395.325660555435
 30
0.0
 41
1.0
 10
934.86445672788182
 20
-1395.3245874523288
 30
0.0
 41
1.0
 10
934.86964512891166
 20
-1395.3235143492227
 30
0.0
 41
1.0
 10
935.04301425856613
 20
-1395.2876568758932
 30
0.0
 41
0.9992909934270049
 10
935.21859002502629
 20
-1395.2649464434264
 30
0.0
 41
1.0
 10
935.39416579148281
 20
-1395.2422360109599
 30
0.0
 41
0.9994553539448754
 10
935.57085722457441
 20
-1395.2311567067538
 30
0.0
 41
1.0
 10
935.60629163237218
 20
-1395.228934818706
 30
0.0
 41
1.0
 10
935.64172604016983
 20
-1395.2267129306581
 30
0.0
 41
1.0
 10
935.80795180673897
 20
-1395.2162898682463
 30
0.0
 41
0.9990928098292961
 10
935.97446159864103
 20
-1395.2200495094808
 30
0.0
 41
1.0
 10
936.01302343391262
 20
-1395.2209202010138
 30
0.0
 41
1.0
 10
936.05158526918422
 20
-1395.2217908925468
 30
0.0
 41
1.0
 10
936.14097139054331
 20
-1395.2238091507154
 30
0.0
 41
0.9998382089205333
 10
936.23022707332984
 20
-1395.2290412772436
 30
0.0
 41
1.0
 10
936.23065697954962
 20
-1395.2290664781458
 30
0.0
 41
1.0
 10
936.2310868857694
 20
-1395.229091679048
 30
0.0
 41
1.0
 10
936.31948275611592
 20
-1395.2342734037716
 30
0.0
 41
0.9997558016758341
 10
936.40756333331683
 20
-1395.2433559191381
 30
0.0
 41
1.0
 10
936.40803947174948
 20
-1395.2434050166212
 30
0.0
 41
1.0
 10
936.40851561018212
 20
-1395.243454114104
 30
0.0
 41
1.0
 10
936.49564391052047
 20
-1395.2524384345049
 30
0.0
 41
0.9996565144181716
 10
936.58218176385981
 20
-1395.2659757411934
 30
0.0
 41
1.0
 10
936.58264768923573
 20
-1395.2660486269247
 30
0.0
 41
1.0
 10
936.58311361461176
 20
-1395.2661215126557
 30
0.0
 41
1.0
 10
936.66871961720017
 20
-1395.2795130478821
 30
0.0
 41
0.9995321806867199
 10
936.75334669752976
 20
-1395.2981135363118
 30
0.0
 41
1.0
 10
936.75373589210108
 20
-1395.2981990787775
 30
0.0
 41
1.0
 10
936.7541250866725
 20
-1395.2982846212433
 30
0.0
 41
1.0
 10
936.83797377785731
 20
-1395.316714024741
 30
0.0
 41
0.9993819199219232
 10
936.92032031205395
 20
-1395.3409894080019
 30
0.0
 41
1.0
 10
936.92055874555172
 20
-1395.3410596971112
 30
0.0
 41
1.0
 10
936.92079717904949
 20
-1395.3411299862205
 30
0.0
 41
1.0
 10
937.00266684624944
 20
-1395.365264791262
 30
0.0
 41
0.9992088568504867
 10
937.0823593652384
 20
-1395.3958300270569
 30
0.0
 41
1.0
 10
937.16204035611736
 20
-1395.4263896277901
 30
0.0
 41
0.9990226101773279
 10
937.23871102602459
 20
-1395.4638670594045
 30
0.0
 41
1.0
 10
937.31537016782215
 20
-1395.5013388559576
 30
0.0
 41
0.9988424273972592
 10
937.38807379503442
 20
-1395.5460036312106
 30
0.0
 41
1.0
 10
937.38834150341404
 20
-1395.5461680952831
 30
0.0
 41
1.0
 10
937.38860921179366
 20
-1395.5463325593555
 30
0.0
 41
1.0
 10
937.46184825576483
 20
-1395.591326262753
 30
0.0
 41
0.9986928844490697
 10
937.53011112247441
 20
-1395.6435619970325
 30
0.0
 41
1.0
 10
937.53069241469711
 20
-1395.6440068102604
 30
0.0
 41
1.0
 10
937.53127370691982
 20
-1395.6444516234883
 30
0.0
 41
1.0
 10
937.6006991580748
 20
-1395.6975769842234
 30
0.0
 41
0.9986007262277985
 10
937.66412532784125
 20
-1395.7577377539167
 30
0.0
 41
1.0
 10
937.66501974329879
 20
-1395.7585861217522
 30
0.0
 41
1.0
 10
937.66591415875632
 20
-1395.7594344895874
 30
0.0
 41
1.0
 10
937.73112915943818
 20
-1395.8212919949517
 30
0.0
 41
0.9985581491381195
 10
937.78933677113935
 20
-1395.8897844852229
 30
0.0
 41
1.0
 10
937.79859522473498
 20
-1395.9006788429247
 30
0.0
 41
1.0
 10
937.80785367833073
 20
-1395.9115732006262
 30
0.0
 41
1.0
 10
937.8845781972243
 20
-1396.0018544063016
 30
0.0
 41
0.9970460233520636
 10
937.9465700983842
 20
-1396.1028214904838
 30
0.0
 41
1.0
 10
937.96103946346375
 20
-1396.126387949565
 30
0.0
 41
1.0
 10
937.9755088285433
 20
-1396.1499544086464
 30
0.0
 41
1.0
 10
938.01524552855506
 20
-1396.2146741326776
 30
0.0
 41
0.9988468816637008
 10
938.0485918993063
 20
-1396.2829065851047
 30
0.0
 41
1.0
 10
938.05562792179842
 20
-1396.2973035062432
 30
0.0
 41
1.0
 10
938.06266394429053
 20
-1396.311700427382
 30
0.0
 41
1.0
 10
938.08193827005812
 20
-1396.3511390375331
 30
0.0
 41
0.9998431189996929
 10
938.09980359755286
 20
-1396.3912355919731
 30
0.0
 41
1.0
 10
938.11766892506489
 20
-1396.4313321464524
 30
0.0
 41
0.9999989989972418
 10
938.13564764850821
 20
-1396.4713779840836
 30
0.0
 41
1.0
 10
938.14181996008324
 20
-1396.4851262008533
 30
0.0
 41
1.0
 10
938.14799227165827
 20
-1396.498874417623
 30
0.0
 41
1.0
 10
938.17831561826631
 20
-1396.5664166888259
 30
0.0
 41
0.999879035632118
 10
938.20652349840441
 20
-1396.6348694407639
 30
0.0
 41
1.0
 10
938.21335867969003
 20
-1396.6514565421944
 30
0.0
 41
1.0
 10
938.22019386097566
 20
-1396.668043643625
 30
0.0
 41
1.0
 10
938.24375152335676
 20
-1396.7252115985125
 30
0.0
 41
0.9998227574560588
 10
938.26514027174494
 20
-1396.7832259067868
 30
0.0
 41
1.0
 10
938.28652902013471
 20
-1396.8412402150659
 30
0.0
 41
0.9996797971041512
 10
938.30495530509313
 20
-1396.9002623341814
 30
0.0
 41
1.0
 10
938.30885910781876
 20
-1396.9127667923508
 30
0.0
 41
1.0
 10
938.31276291054451
 20
-1396.9252712505204
 30
0.0
 41
1.0
 10
938.33899680095487
 20
-1397.0093022859764
 30
0.0
 41
0.9979274938734355
 10
938.35422132443409
 20
-1397.0960066446369
 30
0.0
 41
1.0
 10
938.35644501169509
 20
-1397.1086706454571
 30
0.0
 41
1.0
 10
938.35866869895608
 20
-1397.1213346462771
 30
0.0
 41
1.0
 10
938.36959863865457
 20
-1397.1835811535682
 30
0.0
 41
0.999498598213714
 10
938.37656680383157
 20
-1397.2463946547114
 30
0.0
 41
1.0
 10
938.38353496900834
 20
-1397.3092081558486
 30
0.0
 41
0.9996372611201243
 10
938.38711083477608
 20
-1397.372305734531
 30
0.0
 41
1.0
 10
938.38727941226557
 20
-1397.3752803516154
 30
0.0
 41
1.0
 10
938.38744798975495
 20
-1397.3782549686998
 30
0.0
 41
1.0
 10
938.39136101050144
 20
-1397.4473017815453
 30
0.0
 41
0.9997730630736228
 10
938.39232932398932
 20
-1397.5164526055785
 30
0.0
 41
1.0
 10
938.39238643040744
 20
-1397.5205307847211
 30
0.0
 41
1.0
 10
938.39244353682557
 20
-1397.5246089638638
 30
0.0
 41
1.0
 10
938.39352606315003
 20
-1397.6019161461845
 30
0.0
 41
0.9998772614070121
 10
938.39218597641786
 20
-1397.6792192927589
 30
0.0
 41
1.0
 10
938.39209671321919
 20
-1397.6843684565874
 30
0.0
 41
1.0
 10
938.39200745002063
 20
-1397.6895176204159
 30
0.0
 41
1.0
 10
938.39048883689088
 20
-1397.7771190946639
 30
0.0
 41
0.9999415567328087
 10
938.38707652664482
 20
-1397.864667256342
 30
0.0
 41
1.0
 10
938.38683520596987
 20
-1397.8708587160709
 30
0.0
 41
1.0
 10
938.38659388529481
 20
-1397.8770501757999
 30
0.0
 41
1.0
 10
938.38269893369772
 20
-1397.9769812569577
 30
0.0
 41
0.9999716810421983
 10
938.37730035057973
 20
-1398.0768423951779
 30
0.0
 41
1.0
 10
938.37408755179058
 20
-1398.1362716448434
 30
0.0
 41
1.0
 10
938.37087475300132
 20
-1398.1957008945089
 30
0.0
 41
1.0
 10
938.36280084384907
 20
-1398.345049295782
 30
0.0
 41
0.9999819129911648
 10
938.35293105223286
 20
-1398.4942897734854
 30
0.0
 41
1.0
 10
938.34306126061631
 20
-1398.6435302511968
 30
0.0
 41
1.0
 10
938.34062194005242
 20
-1398.6807232970461
 30
0.0
 41
1.0
 10
938.36332017385212
 20
-1398.6419822997691
 30
0.0
 41
0.9999982128158768
 10
938.38616473258503
 20
-1398.6033274058495
 30
0.0
 41
1.0
 10
938.41307429249673
 20
-1398.5577941917488
 30
0.0
 41
1.0
 10
938.43998385240855
 20
-1398.5122609776481
 30
0.0
 41
1.0
 10
938.51664753093371
 20
-1398.3825396555792
 30
0.0
 41
0.9998609190058981
 10
938.59759484379924
 20
-1398.2554472736442
 30
0.0
 41
1.0
 10
938.62724316527749
 20
-1398.2088975406925
 30
0.0
 41
1.0
 10
938.65689148675574
 20
-1398.1623478077408
 30
0.0
 41
1.0
 10
938.7391637069951
 20
-1398.0331752377419
 30
0.0
 41
0.9999067609731702
 10
938.82493271646081
 20
-1397.9062975482984
 30
0.0
 41
1.0
 10
938.82733741966513
 20
-1397.9027402822385
 30
0.0
 41
1.0
 10
938.82974212286945
 20
-1397.8991830161788
 30
0.0
 41
1.0
 10
938.91070172592958
 20
-1397.7794198588504
 30
0.0
 41
0.9998784952151018
 10
938.99535533560618
 20
-1397.6622386421482
 30
0.0
 41
1.0
 10
939.08000894528914
 20
-1397.5450574254376
 30
0.0
 41
0.9998532968284247
 10
939.16862656611295
 20
-1397.4308445169656
 30
0.0
 41
1.0
 10
939.18858835510332
 20
-1397.4051171959463
 30
0.0
 41
1.0
 10
939.20855014409381
 20
-1397.379389874927
 30
0.0
 41
1.0
 10
939.32703419385189
 20
-1397.2266842639597
 30
0.0
 41
0.9991551975795382
 10
939.45765864347482
 20
-1397.0842247018768
 30
0.0
 41
1.0
 10
939.46116825945796
 20
-1397.0803971002488
 30
0.0
 41
1.0
 10
939.46467787544111
 20
-1397.0765694986208
 30
0.0
 41
1.0
 10
939.58828309310161
 20
-1396.94176513979
 30
0.0
 41
0.9997418144180776
 10
939.71788523279884
 20
-1396.8127157291808
 30
0.0
 41
1.0
 10
939.84748737249856
 20
-1396.6836663185691
 30
0.0
 41
0.9989238204632881
 10
939.98848992074863
 20
-1396.5671813565311
 30
0.0
 41
1.0
 10
940.03373759889155
 20
-1396.5298013649196
 30
0.0
 41
1.0
 10
940.07898527703435
 20
-1396.4924213733082
 30
0.0
 41
1.0
 10
940.21922533425413
 20
-1396.3765663200188
 30
0.0
 41
0.9990825084096954
 10
940.36886526685498
 20
-1396.2731373221882
 30
0.0
 41
1.0
 10
940.37891063091308
 20
-1396.2661941091078
 30
0.0
 41
1.0
 10
940.38895599497118
 20
-1396.2592508960274
 30
0.0
 41
1.0
 10
940.51850519945867
 20
-1396.1697083243553
 30
0.0
 41
0.9998164899825629
 10
940.65138940283521
 20
-1396.0851940828388
 30
0.0
 41
1.0
 10
940.66323496335917
 20
-1396.0776603163145
 30
0.0
 41
1.0
 10
940.67508052388314
 20
-1396.0701265497901
 30
0.0
 41
1.0
 10
940.78427360621083
 20
-1396.0006798413226
 30
0.0
 41
0.9997473449130689
 10
940.89647756346085
 20
-1395.9362108835066
 30
0.0
 41
1.0
 10
941.00868152070495
 20
-1395.8717419256939
 30
0.0
 41
0.999932786114679
 10
941.12235013146881
 20
-1395.8098919340123
 30
0.0
 41
1.0
 10
941.12290213403207
 20
-1395.8095915753318
 30
0.0
 41
1.0
 10
941.12345413659523
 20
-1395.8092912166512
 30
0.0
 41
1.0
 10
941.23822675248164
 20
-1395.7468405076108
 30
0.0
 41
0.9996956420484265
 10
941.35594007832333
 20
-1395.6901270406354
 30
0.0
 41
1.0
 10
941.38638048321604
 20
-1395.6754610639055
 30
0.0
 41
1.0
 10
941.41682088810865
 20
-1395.6607950871755
 30
0.0
 41
1.0
 10
941.51979799485105
 20
-1395.6111814287326
 30
0.0
 41
0.9998070570176726
 10
941.6246443837905
 20
-1395.5656508418324
 30
0.0
 41
1.0
 10
941.72949077272949
 20
-1395.520120254932
 30
0.0
 41
0.9997827436147982
 10
941.83614370933537
 20
-1395.4789990836218
 30
0.0
 41
1.0
 10
941.85536655896976
 20
-1395.4715875099882
 30
0.0
 41
1.0
 10
941.87458940860415
 20
-1395.4641759363546
 30
0.0
 41
1.0
 10
942.01968804447711
 20
-1395.4082316177778
 30
0.0
 41
0.9988031841976705
 10
942.16955840708192
 20
-1395.36673155361
 30
0.0
 41
1.0
 10
942.1944756554459
 20
-1395.3598318078029
 30
0.0
 41
1.0
 10
942.21939290380988
 20
-1395.3529320619959
 30
0.0
 41
1.0
 10
942.38666292945641
 20
-1395.3066139195894
 30
0.0
 41
0.9984748040550251
 10
942.55801983810409
 20
-1395.2790196873248
 30
0.0
 41
1.0
 10
942.56275897435319
 20
-1395.2782565268112
 30
0.0
 41
1.0
 10
942.56749811060229
 20
-1395.2774933662979
 30
0.0
 41
1.0
 10
942.72937674675313
 20
-1395.2514254550599
 30
0.0
 41
0.9984436495479774
 10
942.89315149047775
 20
-1395.2435475012412
 30
0.0
 41
1.0
 10
942.91484869860903
 20
-1395.2425038140416
 30
0.0
 41
1.0
 10
942.93654590674032
 20
-1395.241460126842
 30
0.0
 41
1.0
 10
943.05692623420248
 20
-1395.2356695474225
 30
0.0
 41
0.9987954789335299
 10
943.17729447911233
 20
-1395.2417060751648
 30
0.0
 41
1.0
 10
943.19725927160812
 20
-1395.2427073195036
 30
0.0
 41
1.0
 10
943.21722406410402
 20
-1395.2437085638421
 30
0.0
 41
1.0
 10
943.29766272402355
 20
-1395.2477426029072
 30
0.0
 41
0.9997941595876596
 10
943.37787150211659
 20
-1395.2550366688281
 30
0.0
 41
1.0
 10
943.45808028021474
 20
-1395.2623307347496
 30
0.0
 41
0.9998589466238764
 10
943.53799882707324
 20
-1395.2723145892001
 30
0.0
 41
1.0
 10
943.57040502887787
 20
-1395.2763629461188
 30
0.0
 41
1.0
 10
943.60281123068251
 20
-1395.2804113030377
 30
0.0
 41
1.0
 10
943.74754218115129
 20
-1395.2984918713257
 30
0.0
 41
0.9993495063249205
 10
943.8905934249143
 20
-1395.3269575810668
 30
0.0
 41
1.0
 10
943.9235271220673
 20
-1395.3335110442817
 30
0.0
 41
1.0
 10
943.9564608192203
 20
-1395.3400645074969
 30
0.0
 41
1.0
 10
944.06575464242678
 20
-1395.3618128416324
 30
0.0
 41
0.9996788715560496
 10
944.17380621438463
 20
-1395.3890706409959
 30
0.0
 41
1.0
 10
944.17586921692441
 20
-1395.389591067569
 30
0.0
 41
1.0
 10
944.1779322194642
 20
-1395.390111494142
 30
0.0
 41
1.0
 10
944.28185778634236
 20
-1395.4163284403594
 30
0.0
 41
0.9995480654492276
 10
944.38402002157045
 20
-1395.4487433969834
 30
0.0
 41
1.0
 10
944.38570966369957
 20
-1395.4492795018973
 30
0.0
 41
1.0
 10
944.38739930582869
 20
-1395.4498156068114
 30
0.0
 41
1.0
 10
944.48618225680048
 20
-1395.481158353608
 30
0.0
 41
0.9993867959456048
 10
944.58252941524245
 20
-1395.5193377228975
 30
0.0
 41
1.0
 10
944.58377236432659
 20
-1395.5198302647934
 30
0.0
 41
1.0
 10
944.58501531341074
 20
-1395.5203228066894
 30
0.0
 41
1.0
 10
944.6788765736834
 20
-1395.5575170921866
 30
0.0
 41
0.9992050256521992
 10
944.76947624871832
 20
-1395.602070991426
 30
0.0
 41
1.0
 10
944.77021093143162
 20
-1395.6024322838873
 30
0.0
 41
1.0
 10
944.77094561414503
 20
-1395.6027935763486
 30
0.0
 41
1.0
 10
944.86007592375188
 20
-1395.6466248906647
 30
0.0
 41
0.999022235074129
 10
944.94498598514542
 20
-1395.6981581583632
 30
0.0
 41
1.0
 10
944.94516987042812
 20
-1395.698269761268
 30
0.0
 41
1.0
 10
944.94535375571081
 20
-1395.6983813641727
 30
0.0
 41
1.0
 10
945.02989604653919
 20
-1395.7496914260614
 30
0.0
 41
0.9988642743805237
 10
945.10917058115797
 20
-1395.8088156135866
 30
0.0
 41
1.0
 10
945.18844511577709
 20
-1395.867939801112
 30
0.0
 41
0.9987681233311242
 10
945.26146890005339
 20
-1395.9346304925127
 30
0.0
 41
1.0
 10
945.2617978280191
 20
-1395.9349308937267
 30
0.0
 41
1.0
 10
945.26212675598481
 20
-1395.9352312949409
 30
0.0
 41
1.0
 10
945.33580839619231
 20
-1396.00252278877
 30
0.0
 41
0.9987496570898801
 10
945.40240220151941
 20
-1396.0768356028566
 30
0.0
 41
1.0
 10
945.40317437127999
 20
-1396.0776972762146
 30
0.0
 41
1.0
 10
945.40394654104057
 20
-1396.0785589495727
 30
0.0
 41
1.0
 10
945.47208468588781
 20
-1396.1545951103737
 30
0.0
 41
0.9988147669826533
 10
945.53250694011274
 20
-1396.2368961172162
 30
0.0
 41
1.0
 10
945.53362626619094
 20
-1396.2384207485693
 30
0.0
 41
1.0
 10
945.53474559226913
 20
-1396.2399453799226
 30
0.0
 41
1.0
 10
945.59740649864955
 20
-1396.32529564947
 30
0.0
 41
0.9989452636216141
 10
945.65197341161104
 20
-1396.4160343386279
 30
0.0
 41
1.0
 10
945.6533221376967
 20
-1396.418277119654
 30
0.0
 41
1.0
 10
945.65467086378226
 20
-1396.4205199006801
 30
0.0
 41
1.0
 10
945.71193522891485
 20
-1396.5157441518902
 30
0.0
 41
0.9991046436070412
 10
945.76094444223747
 20
-1396.6154685849176
 30
0.0
 41
1.0
 10
945.76240830382699
 20
-1396.6184472649893
 30
0.0
 41
1.0
 10
945.76387216541661
 20
-1396.6214259450608
 30
0.0
 41
1.0
 10
945.81580910191849
 20
-1396.7271077382322
 30
0.0
 41
0.9992763831101611
 10
945.85956223047424
 20
-1396.8364318001891
 30
0.0
 41
1.0
 10
945.86104150013716
 20
-1396.8401279877216
 30
0.0
 41
1.0
 10
945.86252076980008
 20
-1396.8438241752544
 30
0.0
 41
1.0
 10
945.90923243768168
 20
-1396.9605406122778
 30
0.0
 41
0.9994163472884043
 10
945.94786546887065
 20
-1397.0801742007388
 30
0.0
 41
1.0
 10
945.94910362111807
 20
-1397.0840083445237
 30
0.0
 41
1.0
 10
945.95034177336549
 20
-1397.0878424883085
 30
0.0
 41
1.0
 10
945.99022533438188
 20
-1397.2113485497839
 30
0.0
 41
0.9997268055891129
 10
946.02429339029436
 20
-1397.3365835817362
 30
0.0
 41
1.0
 10
946.02522357056375
 20
-1397.3400029478444
 30
0.0
 41
1.0
 10
946.02615375083315
 20
-1397.3434223139527
 30
0.0
 41
1.0
 10
946.05836144620616
 20
-1397.4618186136861
 30
0.0
 41
0.9996701319000749
 10
946.08444706297678
 20
-1397.5817125669505
 30
0.0
 41
1.0
 10
946.11053267974785
 20
-1397.7016065202165
 30
0.0
 41
0.9995785451109355
 10
946.12961625708795
 20
-1397.8228122812511
 30
0.0
 41
1.0
 10
946.13383603926104
 20
-1397.8496134360121
 30
0.0
 41
1.0
 10
946.13805582143402
 20
-1397.8764145907728
 30
0.0
 41
1.0
 10
946.16463079737321
 20
-1398.0452005644775
 30
0.0
 41
0.9979925101215773
 10
946.16965638329941
 20
-1398.2159918925702
 30
0.0
 41
1.0
 10
946.17048119572405
 20
-1398.2440226160534
 30
0.0
 41
1.0
 10
946.1713060081488
 20
-1398.2720533395363
 30
0.0
 41
1.0
 10
946.17468196922573
 20
-1398.3867832206652
 30
0.0
 41
0.9995314902263373
 10
946.17103177708725
 20
-1398.5015047044139
 30
0.0
 41
1.0
 10
946.16738158494866
 20
-1398.6162261881652
 30
0.0
 41
0.9996245486944176
 10
946.15745248981796
 20
-1398.7305754592899
 30
0.0
 41
1.0
 10
946.15728944182365
 20
-1398.732453215425
 30
0.0
 41
1.0
 10
946.15712639382946
 20
-1398.7343309715602
 30
0.0
 41
1.0
 10
946.14687120270969
 20
-1398.8524357549568
 30
0.0
 41
0.9997286095000868
 10
946.13112587913815
 20
-1398.9699346638524
 30
0.0
 41
1.0
 10
946.13073238648803
 20
-1398.9728710885529
 30
0.0
 41
1.0
 10
946.13033889383792
 20
-1398.9758075132531
 30
0.0
 41
1.0
 10
946.11380658496682
 20
-1399.0991792715456
 30
0.0
 41
0.9998265533969816
 10
946.09269112623417
 20
-1399.2218497463339
 30
0.0
 41
1.0
 10
946.09201458409643
 20
-1399.2257801248443
 30
0.0
 41
1.0
 10
946.09133804195881
 20
-1399.2297105033549
 30
0.0
 41
1.0
 10
946.06886949895136
 20
-1399.3602417351613
 30
0.0
 41
0.9999022530851953
 10
946.0427600343412
 20
-1399.4900937038008
 30
0.0
 41
1.0
 10
946.04178139317628
 20
-1399.4949608461861
 30
0.0
 41
1.0
 10
946.04080275201125
 20
-1399.4998279885715
 30
0.0
 41
1.0
 10
946.01273600506806
 20
-1399.6394142419958
 30
0.0
 41
0.9999524761938338
 10
945.98195303623356
 20
-1399.7784267351594
 30
0.0
 41
1.0
 10
945.9806769290592
 20
-1399.7841894944568
 30
0.0
 41
1.0
 10
945.97940082188484
 20
-1399.7899522537541
 30
0.0
 41
1.0
 10
945.94606563869854
 20
-1399.9404902655256
 30
0.0
 41
0.9999813588717741
 10
945.91089463790593
 20
-1400.0906099781682
 30
0.0
 41
1.0
 10
945.90934071244806
 20
-1400.0972425685959
 30
0.0
 41
1.0
 10
945.9077867869903
 20
-1400.1038751590238
 30
0.0
 41
1.0
 10
945.86950793528104
 20
-1400.2672600525257
 30
0.0
 41
0.9999955237627469
 10
945.8302520572995
 20
-1400.4304129561367
 30
0.0
 41
1.0
 10
945.81797042166579
 20
-1400.4814571466568
 30
0.0
 41
1.0
 10
945.80568878603208
 20
-1400.5325013371771
 30
0.0
 41
1.0
 10
945.74186963678403
 20
-1400.7977426218245
 30
0.0
 41
0.9999993604774109
 10
945.67745068963688
 20
-1401.0628388724228
 30
0.0
 41
1.0
 10
945.67273185407885
 20
-1401.0822577805088
 30
0.0
 41
1.0
 10
945.66801301852081
 20
-1401.1016766885946
 30
0.0
 41
1.0
 10
945.5941564002577
 20
-1401.4056107553638
 30
0.0
 41
0.9999659914736995
 10
945.51529680437352
 20
-1401.7082853019187
 30
0.0
 41
1.0
 10
945.51034411544367
 20
-1401.7272944390982
 30
0.0
 41
1.0
 10
945.50539142651382
 20
-1401.7463035762776
 30
0.0
 41
1.0
 10
945.41662645276983
 20
-1402.0869963971918
 30
0.0
 41
0.9999441976030029
 10
945.32068341980698
 20
-1402.4257378224886
 30
0.0
 41
1.0
 10
945.30398290138044
 20
-1402.4847015350197
 30
0.0
 41
1.0
 10
945.28728238295389
 20
-1402.543665247551
 30
0.0
 41
1.0
 10
945.15793831314215
 20
-1403.0003340978953
 30
0.0
 41
0.9999625120733445
 10
945.02070554581849
 20
-1403.4546946318926
 30
0.0
 41
1.0
 10
944.98491560272782
 20
-1403.5731906585452
 30
0.0
 41
1.0
 10
944.94912565963705
 20
-1403.6916866851975
 30
0.0
 41
1.0
 10
944.87460545560293
 20
-1403.9384137632765
 30
0.0
 41
0.9999793386319124
 10
944.79691943247121
 20
-1404.1841624024937
 30
0.0
 41
1.0
 10
944.7192334093337
 20
-1404.4299110417298
 30
0.0
 41
1.0
 10
944.708453850463
 20
-1404.4639289461045
 30
0.0
 41
1.0
 10
942.85808079719391
 20
-1410.3510008685721
 30
0.0
 41
1.0
 10
941.0077077439247
 20
-1416.2380727910395
 30
0.0
 41
1.0
 10
940.04645105390114
 20
-1416.2380727910395
 30
0.0
 41
1.0
 10
939.08519436387758
 20
-1416.2380727910395
 30
0.0
 41
1.0
 10
940.70413914255596
 20
-1411.09004428925
 30
0.0
 41
1.0
 10
942.32308392123446
 20
-1405.9420157874606
 30
0.0
 41
1.0
 10
942.36824974441424
 20
-1405.7979845651732
 30
0.0
 41
1.0
 10
942.41341556759403
 20
-1405.6539533428859
 30
0.0
 41
1.0
 10
942.58371998495204
 20
-1405.1108623137388
 30
0.0
 41
0.9999911657914182
 10
942.74945279662597
 20
-1404.5663587823947
 30
0.0
 41
1.0
 10
942.77914874012822
 20
-1404.4687948423384
 30
0.0
 41
1.0
 10
942.80884468363047
 20
-1404.3712309022819
 30
0.0
 41
1.0
 10
942.91518560830787
 20
-1404.021855251026
 30
0.0
 41
0.9999952428153767
 10
943.01936919763125
 20
-1403.6718302266813
 30
0.0
 41
1.0
 10
943.02442866795548
 20
-1403.6548319524341
 30
0.0
 41
1.0
 10
943.0294881382797
 20
-1403.6378336781866
 30
0.0
 41
1.0
 10
943.12355278694929
 20
-1403.3218052023544
 30
0.0
 41
0.9999931687465478
 10
943.21527862482981
 20
-1403.0050899890614
 30
0.0
 41
1.0
 10
943.22021388928897
 20
-1402.9880492797915
 30
0.0
 41
1.0
 10
943.22514915374813
 20
-1402.9710085705217
 30
0.0
 41
1.0
 10
943.30700446270021
 20
-1402.6883747758025
 30
0.0
 41
0.9999893840818839
 10
943.3862516891603
 20
-1402.4049986465443
 30
0.0
 41
1.0
 10
943.46549891561517
 20
-1402.121622517305
 30
0.0
 41
0.9999833980091085
 10
943.54147515635339
 20
-1401.8373519342902
 30
0.0
 41
1.0
 10
943.55047909307996
 20
-1401.8036630557958
 30
0.0
 41
1.0
 10
943.55948302980642
 20
-1401.7699741773015
 30
0.0
 41
1.0
 10
943.62844757867265
 20
-1401.5119383450051
 30
0.0
 41
0.9999233658068563
 10
943.69100254989064
 20
-1401.2522741862913
 30
0.0
 41
1.0
 10
943.75355752111091
 20
-1400.9926100275688
 30
0.0
 41
1.0
 10
943.79304093996848
 20
-1400.8288033631427
 30
0.0
 41
1.0
 10
943.7980195439427
 20
-1400.8081484012846
 30
0.0
 41
1.0
 10
943.80299814791704
 20
-1400.7874934394265
 30
0.0
 41
1.0
 10
943.83252435882378
 20
-1400.6649966987263
 30
0.0
 41
0.9999868670850101
 10
943.86079344282223
 20
-1400.5422037530711
 30
0.0
 41
1.0
 10
943.86469092998459
 20
-1400.5252741656336
 30
0.0
 41
1.0
 10
943.86858841714707
 20
-1400.5083445781961
 30
0.0
 41
1.0
 10
943.8890625268225
 20
-1400.4194108074082
 30
0.0
 41
0.9999778173347331
 10
943.9083501249338
 20
-1400.3302121901952
 30
0.0
 41
1.0
 10
943.92763772305011
 20
-1400.2410135729617
 30
0.0
 41
0.9999602692868953
 10
943.94533208168241
 20
-1400.1514852845266
 30
0.0
 41
1.0
 10
943.94853591375886
 20
-1400.1352748296467
 30
0.0
 41
1.0
 10
943.95173974583531
 20
-1400.119064374767
 30
0.0
 41
1.0
 10
943.97584176862176
 20
-1399.9971151765676
 30
0.0
 41
0.9995617985319965
 10
943.99268511584046
 20
-1399.8739534288602
 30
0.0
 41
1.0
 10
943.99514960574629
 20
-1399.8559326114973
 30
0.0
 41
1.0
 10
943.99761409565212
 20
-1399.8379117941345
 30
0.0
 41
1.0
 10
944.01789735670059
 20
-1399.6895967444323
 30
0.0
 41
0.9991121410639693
 10
944.0256227102891
 20
-1399.5401006456245
 30
0.0
 41
1.0
 10
944.02654150031367
 20
-1399.5223208090474
 30
0.0
 41
1.0
 10
944.02746029033835
 20
-1399.5045409724703
 30
0.0
 41
1.0
 10
944.03334806387761
 20
-1399.3906045468163
 30
0.0
 41
0.9989792494904508
 10
944.02892897176002
 20
-1399.2766017109202
 30
0.0
 41
1.0
 10
944.02828099989142
 20
-1399.2598854649932
 30
0.0
 41
1.0
 10
944.02763302802271
 20
-1399.2431692190664
 30
0.0
 41
1.0
 10
944.02450987964266
 20
-1399.1625988750247
 30
0.0
 41
0.9997820295394546
 10
944.01802588226701
 20
-1399.0822291532777
 30
0.0
 41
1.0
 10
944.01154188489124
 20
-1399.0018594315325
 30
0.0
 41
0.9998335105971562
 10
944.00212968937922
 20
-1398.921779815081
 30
0.0
 41
1.0
 10
944.00053476470305
 20
-1398.9082100845994
 30
0.0
 41
1.0
 10
943.99893984002688
 20
-1398.8946403541177
 30
0.0
 41
1.0
 10
943.98633779516274
 20
-1398.7874212767026
 30
0.0
 41
0.9996876457879326
 10
943.96839388236458
 20
-1398.6809658489881
 30
0.0
 41
1.0
 10
943.9661622192192
 20
-1398.6677261137456
 30
0.0
 41
1.0
 10
943.96393055607382
 20
-1398.654486378503
 30
0.0
 41
1.0
 10
943.95013473465247
 20
-1398.5726402345438
 30
0.0
 41
0.9995547496495519
 10
943.93148141275992
 20
-1398.4917627373522
 30
0.0
 41
1.0
 10
943.93110745588888
 20
-1398.490141326648
 30
0.0
 41
1.0
 10
943.93073349901783
 20
-1398.4885199159435
 30
0.0
 41
1.0
 10
943.91282809086761
 20
-1398.4108852401621
 30
0.0
 41
0.9994899427175379
 10
943.89000318218791
 20
-1398.3345519573268
 30
0.0
 41
1.0
 10
943.8895446554468
 20
-1398.333018507537
 30
0.0
 41
1.0
 10
943.88908612870569
 20
-1398.3314850577474
 30
0.0
 41
1.0
 10
943.86717827350833
 20
-1398.2582186744914
 30
0.0
 41
0.9993784877590231
 10
943.84016263840203
 20
-1398.1866779693332
 30
0.0
 41
1.0
 10
943.83963094742512
 20
-1398.1852699866126
 30
0.0
 41
1.0
 10
943.83909925644821
 20
-1398.183862003892
 30
0.0
 41
1.0
 10
943.81314700329528
 20
-1398.1151372641737
 30
0.0
 41
0.9992430832254525
 10
943.78193046813612
 20
-1398.0486381121059
 30
0.0
 41
1.0
 10
943.7813483520797
 20
-1398.0473980569891
 30
0.0
 41
1.0
 10
943.78076623602328
 20
-1398.0461580018721
 30
0.0
 41
1.0
 10
943.75071393297685
 20
-1397.9821389600381
 30
0.0
 41
0.9990789632799295
 10
943.71528330620004
 20
-1397.920932348288
 30
0.0
 41
1.0
 10
943.71468760001767
 20
-1397.9199032624283
 30
0.0
 41
1.0
 10
943.71409189383542
 20
-1397.9188741765686
 30
0.0
 41
1.0
 10
943.67985267942231
 20
-1397.8597257365366
 30
0.0
 41
0.9988874801120632
 10
943.64019340339132
 20
-1397.8040660241204
 30
0.0
 41
1.0
 10
943.63963787732769
 20
-1397.8032863724466
 30
0.0
 41
1.0
 10
943.63908235126394
 20
-1397.8025067207725
 30
0.0
 41
1.0
 10
943.60053412736033
 20
-1397.748406311704
 30
0.0
 41
0.998676206069311
 10
943.55663165608303
 20
-1397.6985525972636
 30
0.0
 41
1.0
 10
943.55618769575131
 20
-1397.6980484554474
 30
0.0
 41
1.0
 10
943.55574373541958
 20
-1397.6975443136314
 30
0.0
 41
1.0
 10
943.51272918480731
 20
-1397.6486988828249
 30
0.0
 41
0.9984621642488807
 10
943.46457162802903
 20
-1397.6049155823532
 30
0.0
 41
1.0
 10
943.46432499351272
 20
-1397.60469135019
 30
0.0
 41
1.0
 10
943.46407835899629
 20
-1397.6044671180266
 30
0.0
 41
1.0
 10
943.41641407125087
 20
-1397.5611322818818
 30
0.0
 41
0.998272469385192
 10
943.36399543940979
 20
-1397.5236879313643
 30
0.0
 41
1.0
 10
943.31157680756894
 20
-1397.486243580847
 30
0.0
 41
0.9981399180158652
 10
943.25499074417519
 20
-1397.4554570614034
 30
0.0
 41
1.0
 10
943.25494508209658
 20
-1397.4554322182462
 30
0.0
 41
1.0
 10
943.25489942001809
 20
-1397.455407375089
 30
0.0
 41
1.0
 10
943.19822203246781
 20
-1397.4245711693311
 30
0.0
 41
0.9980927086837029
 10
943.13817668140155
 20
-1397.4009543604786
 30
0.0
 41
1.0
 10
943.13773651168981
 20
-1397.4007812346035
 30
0.0
 41
1.0
 10
943.13729634197807
 20
-1397.4006081087286
 30
0.0
 41
1.0
 10
943.07637065148765
 20
-1397.376645048126
 30
0.0
 41
0.9981411356560805
 10
943.01298213008727
 20
-1397.3602724066202
 30
0.0
 41
1.0
 10
943.01210001338666
 20
-1397.3600445644149
 30
0.0
 41
1.0
 10
943.01121789668605
 20
-1397.3598167222096
 30
0.0
 41
1.0
 10
942.9460651418832
 20
-1397.3429883962929
 30
0.0
 41
0.9983031812935216
 10
942.87939771288757
 20
-1397.3338490351166
 30
0.0
 41
1.0
 10
942.87052668748595
 20
-1397.3326329164456
 30
0.0
 41
1.0
 10
942.86165566208433
 20
-1397.3314167977746
 30
0.0
 41
1.0
 10
942.80730601957862
 20
-1397.3239660677834
 30
0.0
 41
0.9983887708263813
 10
942.75246217028428
 20
-1397.32272139415
 30
0.0
 41
1.0
 10
942.74439876507051
 20
-1397.3225383962751
 30
0.0
 41
1.0
 10
942.73633535985675
 20
-1397.3223553984003
 30
0.0
 41
1.0
 10
942.69761832099516
 20
-1397.3214767205166
 30
0.0
 41
0.9998869563079831
 10
942.65889236778878
 20
-1397.3217625898762
 30
0.0
 41
1.0
 10
942.62016641454261
 20
-1397.3220484592362
 30
0.0
 41
0.9999972320085627
 10
942.58144223528654
 20
-1397.322516558766
 30
0.0
 41
1.0
 10
942.562089218751
 20
-1397.3227504988549
 30
0.0
 41
1.0
 10
942.54273620221534
 20
-1397.3229844389439
 30
0.0
 41
1.0
 10
942.4653059898435
 20
-1397.3239204186516
 30
0.0
 41
0.9997304945087844
 10
942.38800268360478
 20
-1397.3284495124376
 30
0.0
 41
1.0
 10
942.3789530419017
 20
-1397.3289797184275
 30
0.0
 41
1.0
 10
942.3699034001985
 20
-1397.3295099244174
 30
0.0
 41
1.0
 10
942.27450081055133
 20
-1397.3350994301834
 30
0.0
 41
0.9997888306415331
 10
942.17940847470788
 20
-1397.3446043946728
 30
0.0
 41
1.0
 10
942.17068741313608
 20
-1397.3454761093049
 30
0.0
 41
1.0
 10
942.16196635156427
 20
-1397.3463478239369
 30
0.0
 41
1.0
 10
942.0494318925754
 20
-1397.3575962176901
 30
0.0
 41
0.998417023819027
 10
941.93887274522331
 20
-1397.3814122996262
 30
0.0
 41
1.0
 10
941.90249161423731
 20
-1397.3892493354322
 30
0.0
 41
1.0
 10
941.86611048325142
 20
-1397.3970863712382
 30
0.0
 41
1.0
 10
941.75091941483038
 20
-1397.4219002377476
 30
0.0
 41
0.9976592854198687
 10
941.64019124842548
 20
-1397.462198914895
 30
0.0
 41
1.0
 10
941.52946308201967
 20
-1397.5024975920423
 30
0.0
 41
0.9993255074351625
 10
941.42199128322716
 20
-1397.5508144905357
 30
0.0
 41
1.0
 10
941.41736610430507
 20
-1397.5528938667348
 30
0.0
 41
1.0
 10
941.4127409253831
 20
-1397.554973242934
 30
0.0
 41
1.0
 10
941.29601876874528
 20
-1397.6074488938261
 30
0.0
 41
0.9976475078274926
 10
941.18757142443451
 20
-1397.6753968834846
 30
0.0
 41
1.0
 10
941.16922903030127
 20
-1397.6868893622982
 30
0.0
 41
1.0
 10
941.15088663616814
 20
-1397.6983818411115
 30
0.0
 41
1.0
 10
941.06668444461548
 20
-1397.7511389618803
 30
0.0
 41
0.9995131336406915
 10
940.98593672965615
 20
-1397.8090451738349
 30
0.0
 41
1.0
 10
940.9051890146992
 20
-1397.8669513857876
 30
0.0
 41
0.9995810107606254
 10
940.82792736697081
 20
-1397.9294330682533
 30
0.0
 41
1.0
 10
940.82495733576025
 20
-1397.9318349397181
 30
0.0
 41
1.0
 10
940.82198730454979
 20
-1397.9342368111829
 30
0.0
 41
1.0
 10
940.73878559440129
 20
-1398.0015222365778
 30
0.0
 41
0.9996617837954557
 10
940.65919490726583
 20
-1398.0730426921377
 30
0.0
 41
1.0
 10
940.6470641563883
 20
-1398.0839434251288
 30
0.0
 41
1.0
 10
940.63493340551065
 20
-1398.0948441581202
 30
0.0
 41
1.0
 10
940.56665787811448
 20
-1398.156196773592
 30
0.0
 41
0.9997267750052974
 10
940.5013243698304
 20
-1398.2206733101179
 30
0.0
 41
1.0
 10
940.43599086154632
 20
-1398.2851498466434
 30
0.0
 41
0.9999667288965898
 10
940.37171791839887
 20
-1398.3506836535387
 30
0.0
 41
1.0
 10
940.30289047062433
 20
-1398.4208613122964
 30
0.0
 41
1.0
 10
940.2340630228498
 20
-1398.491038971054
 30
0.0
 41
1.0
 10
940.03213518415453
 20
-1398.6969280954631
 30
0.0
 41
0.998820533517514
 10
939.85112956717626
 20
-1398.9214323275221
 30
0.0
 41
1.0
 10
939.82048960227019
 20
-1398.9594355779536
 30
0.0
 41
1.0
 10
939.78984963736411
 20
-1398.9974388283854
 30
0.0
 41
1.0
 10
939.54756409057325
 20
-1399.2979495613083
 30
0.0
 41
0.9997077826754861
 10
939.32008613946687
 20
-1399.6098193555265
 30
0.0
 41
1.0
 10
939.31836272433793
 20
-1399.6121821389038
 30
0.0
 41
1.0
 10
939.31663930920899
 20
-1399.6145449222813
 30
0.0
 41
1.0
 10
939.08571452784452
 20
-1399.9311402832545
 30
0.0
 41
0.9989147567078999
 10
938.88525102496089
 20
-1400.267849744439
 30
0.0
 41
1.0
 10
938.86050987965189
 20
-1400.3094063249951
 30
0.0
 41
1.0
 10
938.83576873434288
 20
-1400.3509629055509
 30
0.0
 41
1.0
 10
938.68055743570767
 20
-1400.6116642900001
 30
0.0
 41
0.9997476598181253
 10
938.53721244819849
 20
-1400.8790740385816
 30
0.0
 41
1.0
 10
938.39386746068806
 20
-1401.1464837871656
 30
0.0
 41
0.9996258967109512
 10
938.26535920875733
 20
-1401.4213317237877
 30
0.0
 41
1.0
 10
938.25215929930755
 20
-1401.4495631238835
 30
0.0
 41
1.0
 10
938.23895938985777
 20
-1401.4777945239794
 30
0.0
 41
1.0
 10
938.09875066885945
 20
-1401.777666921929
 30
0.0
 41
0.9998735413945121
 10
937.96814932213738
 20
-1402.0818465214006
 30
0.0
 41
1.0
 10
937.96470649407593
 20
-1402.0898651068674
 30
0.0
 41
1.0
 10
937.96126366601459
 20
-1402.0978836923341
 30
0.0
 41
1.0
 10
937.8375479754186
 20
-1402.3860261208647
 30
0.0
 41
0.9999377418864015
 10
937.72029317324223
 20
-1402.676857588543
 30
0.0
 41
1.0
 10
937.60303837106551
 20
-1402.9676890562228
 30
0.0
 41
0.9999508299509609
 10
937.49157442768796
 20
-1403.2607887330453
 30
0.0
 41
1.0
 10
937.4884936590264
 20
-1403.2688897590069
 30
0.0
 41
1.0
 10
937.48541289036484
 20
-1403.2769907849683
 30
0.0
 41
1.0
 10
937.36778740966452
 20
-1403.5862925137117
 30
0.0
 41
0.9999609228435281
 10
937.25564880679542
 20
-1403.8976255297139
 30
0.0
 41
1.0
 10
937.25269279644226
 20
-1403.9058323701329
 30
0.0
 41
1.0
 10
937.24973678608922
 20
-1403.9140392105519
 30
0.0
 41
1.0
 10
937.13168616251562
 20
-1404.2417859073873
 30
0.0
 41
0.9999674607401626
 10
937.01893863645057
 20
-1404.5713945273733
 30
0.0
 41
1.0
 10
936.9675402458854
 20
-1404.7216537230729
 30
0.0
 41
1.0
 10
936.91614185532035
 20
-1404.8719129187723
 30
0.0
 41
1.0
 10
936.80013124856373
 20
-1405.211060901272
 30
0.0
 41
0.9999287532305349
 10
936.69224984459424
 20
-1405.5528816402439
 30
0.0
 41
1.0
 10
936.64577258847521
 20
-1405.7001441845509
 30
0.0
 41
1.0
 10
936.59929533235606
 20
-1405.847406728858
 30
0.0
 41
1.0
 10
936.58436844066614
 20
-1405.8947023790847
 30
0.0
 41
0.9999998223906256
 10
936.56949793189301
 20
-1405.9420157874606
 30
0.0
 41
1.0
 10
934.94884179509756
 20
-1411.09004428925
 30
0.0
 41
1.0
 10
933.32818565830212
 20
-1416.2380727910395
 30
0.0
 41
1.0
 10
932.42287721441119
 20
-1416.2380727910395
 30
0.0
 41
1.0
 10
931.51756877052026
 20
-1416.2380727910395
 30
0.0
 41
1.0
 10
933.3696531819063
 20
-1410.3510008685721
 30
0.0
 41
1.0
 10
935.22173759329235
 20
-1404.4639289461045
 30
0.0
 41
1.0
 10
935.23185935159506
 20
-1404.4318857326548
 30
0.0
 41
1.0
 10
935.3044670204448
 20
-1404.2015861908289
 30
0.0
 41
1.0
 10
935.37707468929659
 20
-1403.9712866489967
 30
0.0
 41
0.9999825681973988
 10
935.44695772851026
 20
-1403.7401457539243
 30
0.0
 41
1.0
 10
935.49524879066848
 20
-1403.5804211704367
 30
0.0
 41
1.0
 10
935.54353985282671
 20
-1403.4206965869494
 30
0.0
 41
1.0
 10
935.64069220614124
 20
-1403.0993613651822
 30
0.0
 41
0.9999672528966247
 10
935.7326310117669
 20
-1402.776495819588
 30
0.0
 41
1.0
 10
935.73541989542923
 20
-1402.7667019742244
 30
0.0
 41
1.0
 10
935.73820877909145
 20
-1402.7569081288605
 30
0.0
 41
1.0
 10
935.82456981738642
 20
-1402.453630274015
 30
0.0
 41
0.9999899749146598
 10
935.90821142692494
 20
-1402.1495911855495
 30
0.0
 41
1.0
 10
935.91831734594246
 20
-1402.1128559478711
 30
0.0
 41
1.0
 10
935.92842326495997
 20
-1402.0761207101928
 30
0.0
 41
1.0
 10
935.99185303645891
 20
-1401.8455520970992
 30
0.0
 41
0.999921420050221
 10
936.04948246483741
 20
-1401.6134657548878
 30
0.0
 41
1.0
 10
936.06224831702048
 20
-1401.5620548694815
 30
0.0
 41
1.0
 10
936.07501416920354
 20
-1401.5106439840752
 30
0.0
 41
1.0
 10
936.10711189321501
 20
-1401.3813794126788
 30
0.0
 41
0.9999828681675399
 10
936.1376941452105
 20
-1401.2517479382109
 30
0.0
 41
1.0
 10
936.16827639720327
 20
-1401.1221164637541
 30
0.0
 41
0.9999389844483548
 10
936.19598738599063
 20
-1400.9918410078644
 30
0.0
 41
1.0
 10
936.20312512971304
 20
-1400.9582849040164
 30
0.0
 41
1.0
 10
936.21026287343557
 20
-1400.9247288001684
 30
0.0
 41
1.0
 10
936.25224934966684
 20
-1400.7273411365857
 30
0.0
 41
0.9998933699441034
 10
936.288453614069
 20
-1400.5288115288267
 30
0.0
 41
1.0
 10
936.28982643928452
 20
-1400.5212835081343
 30
0.0
 41
1.0
 10
936.29119926450016
 20
-1400.5137554874418
 30
0.0
 41
1.0
 10
936.33014917933508
 20
-1400.3001698382905
 30
0.0
 41
0.9996850305193759
 10
936.35833285559374
 20
-1400.0848988328542
 30
0.0
 41
1.0
 10
936.36032788896284
 20
-1400.0696604787336
 30
0.0
 41
1.0
 10
936.36232292233194
 20
-1400.054422124613
 30
0.0
 41
1.0
 10
936.38973078479125
 20
-1399.8450768974565
 30
0.0
 41
0.999469793670707
 10
936.40345534401104
 20
-1399.634391702124
 30
0.0
 41
1.0
 10
936.40393241326069
 20
-1399.6270682299132
 30
0.0
 41
1.0
 10
936.40440948251035
 20
-1399.6197447577024
 30
0.0
 41
1.0
 10
936.41717990323059
 20
-1399.4237065067939
 30
0.0
 41
0.9991804893137241
 10
936.41405158695784
 20
-1399.22727765682
 30
0.0
 41
1.0
 10
936.41396770813571
 20
-1399.2220108554075
 30
0.0
 41
1.0
 10
936.41388382931359
 20
-1399.2167440539947
 30
0.0
 41
1.0
 10
936.41092327068509
 20
-1399.0308488068465
 30
0.0
 41
0.9988448329321498
 10
936.39013172506134
 20
-1398.8460962170132
 30
0.0
 41
1.0
 10
936.38853765135832
 20
-1398.8319313612421
 30
0.0
 41
1.0
 10
936.3869435776553
 20
-1398.8177665054711
 30
0.0
 41
1.0
 10
936.36934017943759
 20
-1398.6613436271803
 30
0.0
 41
0.9985503209458699
 10
936.33502390713807
 20
-1398.5077194430905
 30
0.0
 41
1.0
 10
936.32743791506709
 20
-1398.4737591156918
 30
0.0
 41
1.0
 10
936.31985192299624
 20
-1398.4397987882928
 30
0.0
 41
1.0
 10
936.300707634839
 20
-1398.354095259004
 30
0.0
 41
0.9991036781371003
 10
936.2743827731872
 20
-1398.2703181716763
 30
0.0
 41
1.0
 10
936.27040054773101
 20
-1398.2576450091651
 30
0.0
 41
1.0
 10
936.26641832227483
 20
-1398.2449718466539
 30
0.0
 41
1.0
 10
936.24805791153574
 20
-1398.1865410843504
 30
0.0
 41
0.9998874504368696
 10
936.22795270385768
 20
-1398.128687482128
 30
0.0
 41
1.0
 10
936.20784749617826
 20
-1398.0708338799027
 30
0.0
 41
0.9994041637544384
 10
936.18379888324409
 20
-1398.0145051760128
 30
0.0
 41
1.0
 10
936.17960209902037
 20
-1398.0046751115317
 30
0.0
 41
1.0
 10
936.17540531479665
 20
-1397.9948450470506
 30
0.0
 41
1.0
 10
936.14752648380215
 20
-1397.9295448810835
 30
0.0
 41
0.9991846840701656
 10
936.11447012710926
 20
-1397.8667068498037
 30
0.0
 41
1.0
 10
936.11333352071449
 20
-1397.8645462333495
 30
0.0
 41
1.0
 10
936.11219691431972
 20
-1397.8623856168954
 30
0.0
 41
1.0
 10
936.08141377041682
 20
-1397.8038688185247
 30
0.0
 41
0.9989253167923567
 10
936.04534434636116
 20
-1397.7484538901331
 30
0.0
 41
1.0
 10
936.04429022168711
 20
-1397.746834395371
 30
0.0
 41
1.0
 10
936.04323609701316
 20
-1397.7452149006092
 30
0.0
 41
1.0
 10
936.00927492230687
 20
-1397.6930389617442
 30
0.0
 41
0.9986467172838246
 10
935.97007776966893
 20
-1397.6446729281133
 30
0.0
 41
1.0
 10
935.9692036409682
 20
-1397.6435943258352
 30
0.0
 41
1.0
 10
935.96832951226747
 20
-1397.6425157235569
 30
0.0
 41
1.0
 10
935.93088061703133
 20
-1397.5963068944836
 30
0.0
 41
0.998400110426685
 10
935.8884538865143
 20
-1397.5546217871151
 30
0.0
 41
1.0
 10
935.88786674840503
 20
-1397.5540449122341
 30
0.0
 41
1.0
 10
935.88727961029588
 20
-1397.553468037353
 30
0.0
 41
1.0
 10
935.84602715599783
 20
-1397.5129366797469
 30
0.0
 41
0.9982442159082329
 10
935.80027105466161
 20
-1397.477568118486
 30
0.0
 41
1.0
 10
935.80005625919966
 20
-1397.4774020858426
 30
0.0
 41
1.0
 10
935.79984146373772
 20
-1397.4772360531992
 30
0.0
 41
1.0
 10
935.75451495332584
 20
-1397.4421995572259
 30
0.0
 41
0.9982450060837329
 10
935.70536397425417
 20
-1397.4127677741922
 30
0.0
 41
1.0
 10
935.65621299518284
 20
-1397.3833359911589
 30
0.0
 41
0.9983922639635626
 10
935.60404668901776
 20
-1397.3596563565047
 30
0.0
 41
1.0
 10
935.60381981169326
 20
-1397.3595533710231
 30
0.0
 41
1.0
 10
935.60359293436863
 20
-1397.3594503855418
 30
0.0
 41
1.0
 10
935.55097287355466
 20
-1397.3355647799249
 30
0.0
 41
0.9986517147149977
 10
935.49615990068673
 20
-1397.3172636608031
 30
0.0
 41
1.0
 10
935.49548197925901
 20
-1397.3170373143716
 30
0.0
 41
1.0
 10
935.49480405783129
 20
-1397.3168109679402
 30
0.0
 41
1.0
 10
935.4386352421086
 20
-1397.298057155956
 30
0.0
 41
0.9989435598957306
 10
935.38098185495801
 20
-1397.2845394537214
 30
0.0
 41
1.0
 10
935.37990173537537
 20
-1397.2842862034681
 30
0.0
 41
1.0
 10
935.37882161579273
 20
-1397.284032953215
 30
0.0
 41
1.0
 10
935.31900798947754
 20
-1397.2700087504745
 30
0.0
 41
0.9992249241240742
 10
935.25827648058032
 20
-1397.2607334077591
 30
0.0
 41
1.0
 10
935.25686279228944
 20
-1397.2605174993514
 30
0.0
 41
1.0
 10
935.25544910399856
 20
-1397.2603015909435
 30
0.0
 41
1.0
 10
935.19189021851855
 20
-1397.2505944314128
 30
0.0
 41
0.9994396597833952
 10
935.12782428198057
 20
-1397.245161509067
 30
0.0
 41
1.0
 10
935.10868361450355
 20
-1397.2435383413485
 30
0.0
 41
1.0
 10
935.08954294702653
 20
-1397.2419151736299
 30
0.0
 41
1.0
 10
934.98719567553405
 20
-1397.2332359158468
 30
0.0
 41
0.9987693403121726
 10
934.8844920519474
 20
-1397.2347389792992
 30
0.0
 41
1.0
 10
934.87423771771842
 20
-1397.2348890510734
 30
0.0
 41
1.0
 10
934.86398338348943
 20
-1397.2350391228476
 30
0.0
 41
1.0
 10
934.75442761731222
 20
-1397.2366424671352
 30
0.0
 41
0.9989753644966141
 10
934.64546561729708
 20
-1397.2481454740605
 30
0.0
 41
1.0
 10
934.53650361727944
 20
-1397.2596484809858
 30
0.0
 41
0.9983190067305373
 10
934.42960480631359
 20
-1397.2836834727727
 30
0.0
 41
1.0
 10
934.42070385470788
 20
-1397.2856847513353
 30
0.0
 41
1.0
 10
934.41180290310217
 20
-1397.2876860298977
 30
0.0
 41
1.0
 10
934.28710218892331
 20
-1397.3157235788099
 30
0.0
 41
0.9985539388302972
 10
934.16613243524512
 20
-1397.3569872548558
 30
0.0
 41
1.0
 10
934.16378700428515
 20
-1397.3577872986716
 30
0.0
 41
1.0
 10
934.16144157332519
 20
-1397.3585873424872
 30
0.0
 41
1.0
 10
934.03578095772764
 20
-1397.4014511061641
 30
0.0
 41
0.9988468746493737
 10
933.91481061542822
 20
-1397.4561691912259
 30
0.0
 41
1.0
 10
933.91162779343858
 20
-1397.4576088657864
 30
0.0
 41
1.0
 10
933.90844497144894
 20
-1397.4590485403467
 30
0.0
 41
1.0
 10
933.78110898517116
 20
-1397.516645974529
 30
0.0
 41
0.9991322885918755
 10
933.6590084011151
 20
-1397.5846413067106
 30
0.0
 41
1.0
 10
933.64140639006996
 20
-1397.594443508701
 30
0.0
 41
1.0
 10
933.62380437902482
 20
-1397.6042457106914
 30
0.0
 41
1.0
 10
933.52162769796848
 20
-1397.6611458264715
 30
0.0
 41
0.9993860037849144
 10
933.423686693896
 20
-1397.7250618420596
 30
0.0
 41
1.0
 10
933.41806838104776
 20
-1397.7287283367518
 30
0.0
 41
1.0
 10
933.4124500681994
 20
-1397.7323948314443
 30
0.0
 41
1.0
 10
933.32574568982659
 20
-1397.7889778576455
 30
0.0
 41
0.9998821494952409
 10
933.24081931400974
 20
-1397.8481960877248
 30
0.0
 41
1.0
 10
933.15589293819244
 20
-1397.9074143178048
 30
0.0
 41
0.9997976482744052
 10
933.07341730778421
 20
-1397.9700007258502
 30
0.0
 41
1.0
 10
933.05878104298381
 20
-1397.9811074156266
 30
0.0
 41
1.0
 10
933.04414477818352
 20
-1397.992214105403
 30
0.0
 41
1.0
 10
932.93239661817563
 20
-1398.0770138930002
 30
0.0
 41
0.9998091630800557
 10
932.82404634015336
 20
-1398.1661142436967
 30
0.0
 41
1.0
 10
932.8110405876705
 20
-1398.1768093441474
 30
0.0
 41
1.0
 10
932.79803483518776
 20
-1398.1875044445978
 30
0.0
 41
1.0
 10
932.66367305220615
 20
-1398.2979949961912
 30
0.0
 41
0.9995035112317322
 10
932.53653717444479
 20
-1398.4167288132037
 30
0.0
 41
1.0
 10
932.5268898640561
 20
-1398.4257385593628
 30
0.0
 41
1.0
 10
932.5172425536673
 20
-1398.4347483055221
 30
0.0
 41
1.0
 10
932.39381949090239
 20
-1398.5500146772779
 30
0.0
 41
0.9994630424299369
 10
932.2782110851183
 20
-1398.6731174205131
 30
0.0
 41
1.0
 10
932.2745282463477
 20
-1398.6770390000252
 30
0.0
 41
1.0
 10
932.27084540757721
 20
-1398.6809605795372
 30
0.0
 41
1.0
 10
932.16260267933535
 20
-1398.796220163747
 30
0.0
 41
0.9995160693749906
 10
932.06173664980236
 20
-1398.9179875816208
 30
0.0
 41
1.0
 10
932.05980292972504
 20
-1398.9203220058248
 30
0.0
 41
1.0
 10
932.05786920964772
 20
-1398.9226564300288
 30
0.0
 41
1.0
 10
931.96087062027323
 20
-1399.03975499949
 30
0.0
 41
0.9996561470514556
 10
931.87014440160453
 20
-1399.1617777619426
 30
0.0
 41
1.0
 10
931.86398673570034
 20
-1399.1700595509878
 30
0.0
 41
1.0
 10
931.85782906979614
 20
-1399.1783413400333
 30
0.0
 41
1.0
 10
931.77941818293448
 20
-1399.2838005243975
 30
0.0
 41
0.99983490551725
 10
931.70489090100637
 20
-1399.3920391080551
 30
0.0
 41
1.0
 10
931.63036361907075
 20
-1399.500277691724
 30
0.0
 41
0.9999728109573848
 10
931.557440723166
 20
-1399.609603617271
 30
0.0
 41
1.0
 10
931.55612550775322
 20
-1399.6115753867748
 30
0.0
 41
1.0
 10
931.55481029234056
 20
-1399.6135471562789
 30
0.0
 41
1.0
 10
931.47925696561629
 20
-1399.7268166208253
 30
0.0
 41
0.9999972147395209
 10
931.40423915525093
 20
-1399.8404414636475
 30
0.0
 41
1.0
 10
931.3992676126195
 20
-1399.8479715521335
 30
0.0
 41
1.0
 10
931.39429606998817
 20
-1399.8555016406194
 30
0.0
 41
1.0
 10
931.30933517437552
 20
-1399.9841866603906
 30
0.0
 41
0.9999371979007919
 10
931.22727982497349
 20
-1400.1147435741641
 30
0.0
 41
1.0
 10
931.22377094060732
 20
-1400.1203265022361
 30
0.0
 41
1.0
 10
931.22026205624115
 20
-1400.1259094303082
 30
0.0
 41
1.0
 10
931.13118893811179
 20
-1400.267632200218
 30
0.0
 41
0.9998272025611418
 10
931.0474455472314
 20
-1400.4125680769575
 30
0.0
 41
1.0
 10
931.03223037520684
 20
-1400.438901191415
 30
0.0
 41
1.0
 10
931.01701520318238
 20
-1400.4652343058724
 30
0.0
 41
1.0
 10
930.90284146825195
 20
-1400.662836411529
 30
0.0
 41
0.9995217214838064
 10
930.80110177869619
 20
-1400.8671187393913
 30
0.0
 41
1.0
 10
930.79345821606103
 20
-1400.8824661890944
 30
0.0
 41
1.0
 10
930.78581465342586
 20
-1400.8978136387977
 30
0.0
 41
1.0
 10
930.69890936083664
 20
-1401.072310096878
 30
0.0
 41
0.9998269762607343
 10
930.6185548945648
 20
-1401.2499183836012
 30
0.0
 41
1.0
 10
930.53820042829329
 20
-1401.427526670323
 30
0.0
 41
0.9998944747386324
 10
930.46303963372668
 20
-1401.6073943959573
 30
0.0
 41
1.0
 10
930.45808596413485
 20
-1401.6192490508765
 30
0.0
 41
1.0
 10
930.45313229454291
 20
-1401.6311037057956
 30
0.0
 41
1.0
 10
930.37248523399148
 20
-1401.8241006458106
 30
0.0
 41
0.999950673441408
 10
930.29568770508899
 20
-1402.0186614506642
 30
0.0
 41
1.0
 10
930.28108773981705
 20
-1402.055649372473
 30
0.0
 41
1.0
 10
930.26648777454511
 20
-1402.0926372942815
 30
0.0
 41
1.0
 10
930.21889017618173
 20
-1402.2132222555297
 30
0.0
 41
0.9999912393922587
 10
930.17230373216285
 20
-1402.3342014582161
 30
0.0
 41
1.0
 10
930.12571728813487
 20
-1402.4551806609265
 30
0.0
 41
0.9999927113965598
 10
930.0800559937453
 20
-1402.5765120684164
 30
0.0
 41
1.0
 10
930.066087562348
 20
-1402.6136290504141
 30
0.0
 41
1.0
 10
930.05211913095081
 20
-1402.6507460324117
 30
0.0
 41
1.0
 10
929.97852097376051
 20
-1402.8463114039132
 30
0.0
 41
0.999948755095228
 10
929.90889734878874
 20
-1403.043326769096
 30
0.0
 41
1.0
 10
929.88530373885487
 20
-1403.1100900793804
 30
0.0
 41
1.0
 10
929.861710128921
 20
-1403.1768533896645
 30
0.0
 41
1.0
 10
929.7670244945482
 20
-1403.4447872244959
 30
0.0
 41
0.9999808436942207
 10
929.67566290590366
 20
-1403.7138726557689
 30
0.0
 41
1.0
 10
929.58430131726232
 20
-1403.9829580870332
 30
0.0
 41
0.9999873932890966
 10
929.49564660854458
 20
-1404.2529474420455
 30
0.0
 41
1.0
 10
929.47555425167502
 20
-1404.314136774799
 30
0.0
 41
1.0
 10
929.45546189480547
 20
-1404.3753261075526
 30
0.0
 41
1.0
 10
929.32662247234953
 20
-1404.7676941280686
 30
0.0
 41
0.999979488302439
 10
929.20281968739164
 20
-1405.1616803343461
 30
0.0
 41
1.0
 10
929.19166742795346
 20
-1405.1971709445852
 30
0.0
 41
1.0
 10
929.1805151685154
 20
-1405.2326615548243
 30
0.0
 41
1.0
 10
929.03795700461239
 20
-1405.6863343069278
 30
0.0
 41
0.9999982761701056
 10
928.89708456460289
 20
-1406.1405333290329
 30
0.0
 41
1.0
 10
927.30894423203029
 20
-1411.1893030600363
 30
0.0
 41
1.0
 10
925.72080389945768
 20
-1416.2380727910395
 30
0.0
 41
1.0
 10
924.77205328798129
 20
-1416.2380727910395
 30
0.0
 41
1.0
 10
923.82330267650491
 20
-1416.2380727910395
 30
0.0
 41
1.0
 10
927.06158716265804
 20
-1405.9107505910933
 30
0.0
 41
1.0
 10
930.29987164881129
 20
-1395.5834283911472
 30
0.0
 41
1.0
  0
LWPOLYLINE
  5
54
100
AcDbEntity
  8
0
370
              15
390
0
  6
Continuous
 62
               7
100
AcDbPolyline
 90
      232
 70
             128
 10
904.59632587498425
 20
-1396.6677712226624
 42
0.0004370800691959
 10
904.54344870091234
 20
-1396.7364378619184
 10
904.50416446978477
 20
-1396.7875449748153
 42
0.003048199217171
 10
904.37382575268362
 20
-1396.9592666671356
 10
904.33531408091517
 20
-1397.0106534509475
 42
0.0042058245764033
 10
904.131329030232
 20
-1397.2876591960396
 10
904.07892390774464
 20
-1397.3600920428021
 42
0.0120948898744094
 10
903.78287999098211
 20
-1397.7908416473526
 10
903.68668749186156
 20
-1397.9383223825753
 42
0.0141601263947062
 10
903.38304344493929
 20
-1398.4339917193113
 10
903.34350617750772
 20
-1398.5028356867526
 42
0.007113108130372
 10
903.13823385427486
 20
-1398.8723384855812
 42
0.0068458791003417
 10
902.9433543274306
 20
-1399.2474300490596
 10
902.93654246497408
 20
-1399.260991762781
 42
0.0064120880289223
 10
902.73840021493447
 20
-1399.6684162376898
 10
902.73086552941277
 20
-1399.684428094421
 42
0.0058857236448259
 10
902.52811013754138
 20
-1400.1288042054555
 10
902.51993521124712
 20
-1400.14729435909
 42
0.0053189741896757
 10
902.31123089858136
 20
-1400.6332578330037
 10
902.30248309289823
 20
-1400.6542397112039
 42
0.0047503650417849
 10
902.08650936674803
 20
-1401.1864391444121
 10
902.07724111839934
 20
-1401.2099155205215
 42
0.0042071762169229
 10
901.85269373467156
 20
-1401.7930091145915
 10
901.84294433232299
 20
-1401.8189752894609
 42
0.003668008648511
 10
901.60848968901075
 20
-1402.457610673993
 10
901.59828190916312
 20
-1402.4860592083369
 42
0.0032573142627999
 10
901.35264962319297
 20
-1403.1849118681002
 10
901.28399910235282
 20
-1403.3843749521518
 42
0.0026133366650121
 10
900.93555390359779
 20
-1404.414238235815
 10
900.87229711609712
 20
-1404.6044690712079
 42
0.0020592950739362
 10
900.65843404712996
 20
-1405.2565727238211
 10
900.65538225597163
 20
-1405.266009212216
 42
0.0025609928533873
 10
900.45356175448103
 20
-1405.9011544345967
 10
900.45097038735128
 20
-1405.9094567755471
 42
0.0031362356242951
 10
900.26147960167737
 20
-1406.5302196317168
 10
900.25934855875028
 20
-1406.5373609379269
 42
0.0037229918030943
 10
900.08254817182365
 20
-1407.146346239902
 10
900.08086958261606
 20
-1407.1522931300806
 42
0.0043077623707283
 10
899.91712878055216
 20
-1407.7521118618456
 42
0.0047654161821928
 10
899.76430005803581
 20
-1408.3547979507489
 10
899.72983544919703
 20
-1408.4963597278975
 42
0.0112969368443199
 10
899.53397109105424
 20
-1409.388051888518
 10
899.50596470195683
 20
-1409.5308799346196
 42
0.0130056762570148
 10
899.30512745831015
 20
-1410.7178210062646
 10
899.28458770816292
 20
-1410.8618991197432
 42
0.0138721532145176
 10
899.18088470362522
 20
-1411.7687286055673
 10
899.16158921571753
 20
-1411.9922263274907
 42
0.0071254697010102
 10
899.12824256979479
 20
-1412.4554133363395
 10
899.1232815956306
 20
-1412.5414173309164
 42
0.0028881799202717
 10
899.10814330234166
 20
-1412.8331590407424
 42
0.0060297297132672
 10
899.09821110256621
 20
-1413.1251079768497
 10
899.09714882089884
 20
-1413.173500348795
 42
0.0229523164157624
 10
899.10487984868473
 20
-1413.4962551950739
 10
899.10910562220511
 20
-1413.5566587290893
 42
0.0123673300666928
 10
899.12818426872343
 20
-1413.7577794542649
 42
0.0128577674467638
 10
899.15737965912933
 20
-1413.9576773041892
 10
899.16450553251673
 20
-1413.9990061187887
 42
0.0285717853763926
 10
899.22899953421245
 20
-1414.2771222701017
 10
899.24266805787886
 20
-1414.323777039579
 42
0.0316283099153373
 10
899.35847863779304
 20
-1414.6427915414049
 10
899.36152732954861
 20
-1414.6497779137305
 42
0.0338984824234845
 10
899.51095904051579
 20
-1414.9373438779196
 10
899.51326776988617
 20
-1414.9411349071963
 42
0.0350228718351254
 10
899.69562806055922
 20
-1415.1981868918724
 10
899.6965133123341
 20
-1415.1992659696364
 42
0.0347476747530243
 10
899.91093799957434
 20
-1415.4264510168564
 42
0.0331337701909162
 10
900.15418132532091
 20
-1415.6225796789342
 10
900.15528142383687
 20
-1415.6233523821065
 42
0.0305233319079248
 10
900.42382611941002
 20
-1415.7884805521976
 10
900.4270561639114
 20
-1415.7902045640603
 42
0.0273744481157507
 10
900.71960987548698
 20
-1415.9263427079513
 10
900.72471441062328
 20
-1415.9283862924206
 42
0.0240964406197849
 10
901.04019148627094
 20
-1416.0373700187024
 10
901.04677481547901
 20
-1416.0392947583769
 42
0.0209636179812975
 10
901.38417496813292
 20
-1416.1227629063094
 10
901.39180742858025
 20
-1416.1243148193105
 42
0.0181388704693399
 10
901.75012982057876
 20
-1416.1837309125244
 10
901.75841066895691
 20
-1416.1847970963415
 42
0.015608654758589
 10
902.13659803314567
 20
-1416.2215332829182
 10
902.17979328547915
 20
-1416.2243717853976
 42
0.0137148329026534
 10
902.50746643077161
 20
-1416.2368920406484
 10
902.55340262071343
 20
-1416.2373864737635
 42
0.0051057823887141
 10
902.78954820728984
 20
-1416.237516728173
 42
0.0052256693311805
 10
903.02564549107444
 20
-1416.2327679037085
 10
903.09587227481791
 20
-1416.2306209376945
 42
0.0161507179048061
 10
903.47160935291924
 20
-1416.206970567368
 10
903.49162231329228
 20
-1416.2050603720804
 42
0.0101216737832719
 10
903.90564953478167
 20
-1416.1570674417151
 10
903.93970282420969
 20
-1416.1524197449053
 42
0.0245291776397457
 10
904.41649247975909
 20
-1416.0633446668294
 10
904.50131579528295
 20
-1416.0431487464837
 42
0.014350921255892
 10
904.85794689922443
 20
-1415.9473441127043
 42
0.0156557857041937
 10
905.20816296395094
 20
-1415.8303328968857
 10
905.21566417844633
 20
-1415.8275627351313
 42
0.0170137333631318
 10
905.57226017412859
 20
-1415.6819051202599
 10
905.57936409653519
 20
-1415.6787172846966
 42
0.0183105364409703
 10
905.93871376470281
 20
-1415.5013822428716
 10
905.94566052934022
 20
-1415.4976318080003
 42
0.0194899958149863
 10
906.30414127032441
 20
-1415.2856528261093
 10
906.31115514966086
 20
-1415.2811274838145
 42
0.020486985295207
 10
906.66516945175999
 20
-1415.0316074687248
 10
906.67243506034185
 20
-1415.0260274033803
 42
0.0212516938555694
 10
907.01842499145016
 20
-1414.7361234064854
 10
907.0649416855241
 20
-1414.6936560963934
 42
0.0215248918250838
 10
907.32496785441322
 20
-1414.4348918173973
 10
907.36999758878915
 20
-1414.3860476960526
 42
0.0114578554953019
 10
907.52478974247106
 20
-1414.2102247625894
 10
907.53598427844099
 20
-1414.1969059990638
 42
0.0061531305117666
 10
907.66245892445215
 20
-1414.0426164657383
 42
0.0006325587120629
 10
907.78683740858332
 20
-1413.8866130900883
 10
907.80987754365538
 20
-1413.8576395694031
 42
0.0041897761554223
 10
907.97833294762052
 20
-1413.642120193351
 10
908.0367950675203
 20
-1413.5660188463562
 42
0.0092993880039111
 10
908.31340699474765
 20
-1413.191740082467
 10
908.39580148794039
 20
-1413.075803078907
 42
0.0159321727087909
 10
908.7424079705853
 20
-1412.5536288581475
 10
908.7867641059712
 20
-1412.4819492939025
 42
0.0085547317020393
 10
909.02127587130008
 20
-1412.0880743446728
 42
0.0084601156889796
 10
909.24225204874233
 20
-1411.6864474956406
 10
909.25036752257256
 20
-1411.6710878133676
 42
0.0081429654285291
 10
909.47361679301139
 20
-1411.2313663008242
 10
909.48247695719408
 20
-1411.2131874588076
 42
0.0076574581328677
 10
909.70888446776098
 20
-1410.7300045835539
 10
909.71836410848448
 20
-1410.7089401052513
 42
0.0070682724199216
 10
909.94880901629006
 20
-1410.1769028004733
 10
909.95879930027297
 20
-1410.1529136114586
 42
0.0064559514449747
 10
910.19413250845673
 20
-1409.566601344934
 10
910.20454186661959
 20
-1409.5396664194973
 42
0.0058311413906434
 10
910.44558860337986
 20
-1408.893634325121
 10
910.45634368076992
 20
-1408.8637499839533
 42
0.0052312425819601
 10
910.70392495881345
 20
-1408.1525475701105
 10
910.71496879519054
 20
-1408.1197208580488
 42
0.0046680544795548
 10
910.96989722291733
 20
-1407.3378945423185
 10
911.01188937296331
 20
-1407.2049113050189
 42
0.004166685644559
 10
911.21517538536364
 20
-1406.5419425299965
 10
911.25283782602673
 20
-1406.4153614223451
 42
0.0015170975158235
 10
911.37402440444043
 20
-1406.0034930708491
 42
-0.0004887993109788
 10
911.49436417760501
 20
-1405.5913746586655
 10
911.57084143505858
 20
-1405.330417272866
 42
0.0002583378927851
 10
911.84405600512878
 20
-1404.396360569667
 10
911.92582885467425
 20
-1404.1162613101906
 42
0.0006636169672048
 10
912.11969661471085
 20
-1403.4489083865169
 10
912.12479326907146
 20
-1403.43127680359
 42
0.001058913132359
 10
912.30624196997451
 20
-1402.798545460588
 10
912.31122404044811
 20
-1402.7810325535922
 42
0.0015655524461306
 10
912.47949424763783
 20
-1402.1824158743671
 10
912.48432444805621
 20
-1402.165023715419
 42
0.0021640440476036
 10
912.63861442003872
 20
-1401.5999966974132
 10
912.64324863947218
 20
-1401.5827319674063
 42
0.0028763871852557
 10
912.78276435752173
 20
-1401.0507640165722
 10
912.78715022168842
 20
-1401.0336400384199
 42
0.0037310511946031
 10
912.91110691352583
 20
-1400.5341924443937
 10
912.91518213381289
 20
-1400.5172321731563
 42
0.0047652197767401
 10
913.02280603432325
 20
-1400.0497544048433
 10
913.02649663364798
 20
-1400.0329948496869
 42
0.0060276699306858
 10
913.11702673280024
 20
-1399.5969190545491
 10
913.12024542308689
 20
-1399.5804178402529
 42
0.0075824337756349
 10
913.19293473250491
 20
-1399.1751506758137
 10
913.19558010988442
 20
-1399.1589957283682
 42
0.009513062460807
 10
913.24969534551633
 20
-1398.7839063752913
 10
913.25668156939889
 20
-1398.7279728171745
 42
0.0121054653234112
 10
913.28327289997685
 20
-1398.463076988701
 10
913.28413938973745
 20
-1398.4516735457573
 42
0.006905082739061
 10
913.29922820777415
 20
-1398.2087323189276
 10
913.30036350744251
 20
-1398.1852060618864
 42
0.0169063976692705
 10
913.30319078642287
 20
-1397.9890133345821
 10
913.30202013489179
 20
-1397.9286775732382
 42
0.0052007732893967
 10
913.29976668629865
 20
-1397.8530841830809
 42
0.0054038123292089
 10
913.27980317446122
 20
-1397.7330658870787
 10
913.27471731858941
 20
-1397.7044074004898
 42
0.0112050460458512
 10
913.23933295653046
 20
-1397.5280809621493
 10
913.22150799449014
 20
-1397.4485393754298
 42
0.024076446800975
 10
913.13061062834413
 20
-1397.1183023399292
 10
913.11205186553093
 20
-1397.0616821749359
 42
0.0256812331834053
 10
912.968688945341
 20
-1396.6899579686776
 10
912.96327951951946
 20
-1396.6778266336876
 42
0.0268360501217043
 10
912.79385227866976
 20
-1396.3468334996669
 10
912.78831587103537
 20
-1396.3373138293557
 42
0.0274670231731511
 10
912.59611489462145
 20
-1396.0450264544374
 10
912.59073359465879
 20
-1396.0377473068961
 42
0.0275035967101781
 10
912.37916071509699
 20
-1395.7822314165919
 10
912.37409121413066
 20
-1395.7767523289617
 42
0.0269557673526001
 10
912.14668767069088
 20
-1395.5561100429991
 10
912.14194461290776
 20
-1395.5519800885379
 42
0.0259124802208897
 10
911.9023897814775
 20
-1395.3642895613862
 10
911.89785893629505
 20
-1395.3611040590554
 42
0.0245162153003859
 10
911.64994258320075
 20
-1395.2043710499452
 10
911.64541603687599
 20
-1395.2018108527441
 42
0.0229282588838199
 10
911.39299648004919
 20
-1395.0739426602454
 10
911.38821598621178
 20
-1395.0717903604832
 42
0.0212984135693725
 10
911.13517803375066
 20
-1394.9705914432411
 10
911.12987374878207
 20
-1394.9687278804815
 42
0.0197555462341033
 10
910.88009541105816
 20
-1394.8919124625163
 42
0.0183511896788373
 10
910.62516668559488
 20
-1394.834329555551
 10
910.53880148887231
 20
-1394.818126765166
 42
0.0338057877150354
 10
910.25329413961174
 20
-1394.7843183600257
 10
910.16228873457555
 20
-1394.7797387047644
 42
0.0091990524488401
 10
910.0564416259358
 20
-1394.7763628488422
 42
0.0028333980777237
 10
909.9505277099438
 20
-1394.7755347413254
 10
909.94961225689349
 20
-1394.7755327715013
 42
-0.0023619827812149
 10
909.84186624179131
 20
-1394.7747919304229
 10
909.80546107161172
 20
-1394.77436962396
 42
0.0008824598485377
 10
909.62490508169446
 20
-1394.7725938457211
 10
909.58104364935593
 20
-1394.7722398841961
 42
0.0038132665768056
 10
909.31276075349149
 20
-1394.7721209481292
 10
909.29622709868363
 20
-1394.7722397142729
 42
0.0060665569335579
 10
908.9949466070974
 20
-1394.7780600136937
 10
908.98069627506698
 20
-1394.7785083216613
 42
0.0080356953336903
 10
908.65123755872389
 20
-1394.7941760437284
 10
908.6391675436405
 20
-1394.7949446266687
 42
0.0098996399105945
 10
908.28640445898736
 20
-1394.824429855867
 10
908.27635874961493
 20
-1394.825470152065
 42
0.0117740981366489
 10
907.90520189126732
 20
-1394.8727623995946
 10
907.89697919478363
 20
-1394.8740075161656
 42
0.0137435215135065
 10
907.51239037529808
 20
-1394.9431044897274
 10
907.50573333617513
 20
-1394.9444903859608
 42
0.015835986938262
 10
907.11273624237356
 20
-1395.0393824744413
 10
907.1073230555055
 20
-1395.0408724153122
 42
0.018055412402713
 10
906.71100801089335
 20
-1395.1655104315507
 10
906.70645122280973
 20
-1395.1671264678171
 42
0.0203657431282945
 10
906.3119737049991
 20
-1395.3253868093327
 10
906.30783016599105
 20
-1395.3272484307749
 42
0.022681968465513
 10
905.92039410978794
 20
-1395.5228910094454
 10
905.91619431876927
 20
-1395.5252566013655
 42
0.0248634984606092
 10
905.5410123775888
 20
-1395.7618832473124
 10
905.49281744880352
 20
-1395.7957402891391
 42
0.0267044190885524
 10
905.21852475188757
 20
-1396.0111806650066
 42
0.0139303002197481
 10
904.9623575859506
 20
-1396.2484195059169
 10
904.95750420022785
 20
-1396.2531721687787
 42
0.0283460963442526
 10
904.71343160599974
 20
-1396.520902829225
 10
904.6737631008441
 20
-1396.5697044066969
 42
0.0070695364826285
 10
904.59632587498425
 20
-1396.6677712226624
 42
0.0070695364826285
  0
LWPOLYLINE
  5
55
100
AcDbEntity
  8
0
370
              15
390
0
  6
Continuous
 62
               7
100
AcDbPolyline
 90
      226
 70
             128
 10
901.06750543773785
 20
-1412.3893600288463
 42
-0.0026277636607717
 10
901.06742755393793
 20
-1412.3225881030562
 10
901.06764491216984
 20
-1412.2694328856601
 42
-0.0088680296731272
 10
901.07142152846279
 20
-1412.0964171032604
 10
901.07376788757529
 20
-1412.0371370778034
 42
-0.0077381705614697
 10
901.08981399833795
 20
-1411.7458765820127
 10
901.09068190951155
 20
-1411.7335883483202
 42
-0.0068872530537054
 10
901.11731398925804
 20
-1411.418366596268
 10
901.11851821344578
 20
-1411.4061256172326
 42
-0.0062130021486449
 10
901.15611193027257
 20
-1411.067255926002
 10
901.15761583380868
 20
-1411.0550820540775
 42
-0.005672692966261
 10
901.20653769331216
 20
-1410.6928868319558
 10
901.20831113895542
 20
-1410.6807930317186
 42
-0.0052341884491334
 10
901.26892172521434
 20
-1410.2955997762069
 10
901.27093971399199
 20
-1410.2835948462084
 42
-0.0049768450170808
 10
901.3436783954179
 20
-1409.8757502787789
 10
901.36792741014017
 20
-1409.74720229577
 42
-0.0089029805624026
 10
901.5050082619357
 20
-1409.085426848344
 10
901.53775363725345
 20
-1408.940395417824
 42
-0.0080318257100698
 10
901.76730225159565
 20
-1407.9946857859645
 10
901.77928717804241
 20
-1407.9485551507801
 42
-0.0074265721319319
 10
902.06329871689195
 20
-1406.9184905724012
 10
902.08317826000621
 20
-1406.8503565118203
 42
-0.00697119227034
 10
902.41048283851569
 20
-1405.7840887714824
 10
902.47043478562171
 20
-1405.5980674131104
 42
-0.005207042289633
 10
902.69986001088046
 20
-1404.9107953360804
 10
902.71714120305626
 20
-1404.860768055453
 42
-0.0009167004448166
 10
902.92023309034221
 20
-1404.2763122073093
 42
-0.0025162726947047
 10
903.12733072059621
 20
-1403.6932709431703
 10
903.16455533241003
 20
-1403.5901213972413
 42
-0.0028212681457016
 10
903.41273125137332
 20
-1402.91439076507
 10
903.42256201412999
 20
-1402.8880833203771
 42
-0.00319649168192
 10
903.65885427178625
 20
-1402.2678785582664
 10
903.66848872578657
 20
-1402.2430685681195
 42
-0.0036281836450856
 10
903.89359468688644
 20
-1401.6756278872299
 10
903.90303309704564
 20
-1401.6523304557229
 42
-0.0041269166833236
 10
904.11765079370309
 20
-1401.1348895597489
 10
904.15028375012298
 20
-1401.0580111133897
 42
-0.004747221305617
 10
904.30732855567749
 20
-1400.6975896455044
 10
904.31422263688773
 20
-1400.6821690481679
 42
-0.0025651659996072
 10
904.46258067073586
 20
-1400.354840992424
 42
-0.0057144634997853
 10
904.61633036450633
 20
-1400.030031319063
 10
904.6443610699049
 20
-1399.9725229366745
 42
-0.0065388068375537
 10
904.82782809764819
 20
-1399.6082904400023
 10
904.83628655342488
 20
-1399.5920308606362
 42
-0.0074510843021667
 10
905.01246879930454
 20
-1399.2653425795102
 10
905.02064846983785
 20
-1399.2507018022372
 42
-0.0084648979862929
 10
905.19028232293567
 20
-1398.9587927912801
 10
905.19813844941734
 20
-1398.9457857996399
 42
-0.0095638542813491
 10
905.36197389701795
 20
-1398.6858969276507
 10
905.36944884069146
 20
-1398.6745275661926
 42
-0.0107191626802504
 10
905.52825042107725
 20
-1398.4439163316511
 10
905.53526715480757
 20
-1398.4341802392873
 42
-0.0118458573901384
 10
905.68981525332083
 20
-1398.2301080439759
 42
-0.0129184518193446
 10
905.85426787692177
 20
-1398.0339475278063
 10
905.88441264928747
 20
-1397.9998214489037
 42
-0.02177425796298
 10
906.06102497162078
 20
-1397.8166146786557
 10
906.0717705160755
 20
-1397.8063978454582
 42
-0.0097266568651055
 10
906.23782813493699
 20
-1397.6545502710155
 42
-0.0187720905728109
 10
906.41217571082154
 20
-1397.5124814176302
 10
906.44288170149389
 20
-1397.4893223352353
 42
-0.017942820752556
 10
906.67530242149678
 20
-1397.3267701581185
 10
906.67895474841396
 20
-1397.32440622323
 42
-0.0170047877699502
 10
906.91471838594293
 20
-1397.1829457090794
 10
906.91850137469214
 20
-1397.1808474040415
 42
-0.0160190788367999
 10
907.15540992232479
 20
-1397.059196102055
 42
-0.0151102861496382
 10
907.39944170477122
 20
-1396.9525133260004
 10
907.45182820698324
 20
-1396.9314731931056
 42
-0.0271945441887192
 10
907.81049076604165
 20
-1396.8096083823996
 10
907.87955556653117
 20
-1396.790258841133
 42
-0.0237596594021696
 10
908.29535241355211
 20
-1396.6948081291516
 10
908.36341526728256
 20
-1396.682553441025
 42
-0.0213715440554983
 10
908.64929019872784
 20
-1396.6436064095151
 10
908.70943736494155
 20
-1396.6380166948145
 42
-0.0101465655815797
 10
908.87692989693994
 20
-1396.62587315155
 10
908.88627028313556
 20
-1396.6253862365529
 42
-0.0100375910879744
 10
909.03542438370073
 20
-1396.6206104186276
 10
909.04568365337718
 20
-1396.6204879796132
 42
-0.0103625633384108
 10
909.17439164803591
 20
-1396.6216194131398
 10
909.19665729930318
 20
-1396.6222767716047
 42
-0.0115689250225358
 10
909.28070803683079
 20
-1396.6267062778497
 42
-0.0072438037433455
 10
909.36454631627089
 20
-1396.6342954775994
 10
909.38134682574275
 20
-1396.6360620203234
 42
-0.0217917313134732
 10
909.49791658905451
 20
-1396.6534819130441
 10
909.56351667962474
 20
-1396.6662285214593
 42
-0.0332943556753909
 10
909.7679088446514
 20
-1396.7202688127659
 10
909.79808141320382
 20
-1396.7304368898851
 42
-0.0184824084788148
 10
909.93658646966696
 20
-1396.7828879052709
 42
-0.0198002050689465
 10
910.07066081016615
 20
-1396.8457719654702
 10
910.07254744754323
 20
-1396.8467497523502
 42
-0.0212242342982324
 10
910.20468638994589
 20
-1396.9225124911438
 10
910.20650168548855
 20
-1396.9236582933518
 42
-0.0226090605805313
 10
910.33500558671074
 20
-1397.0131379369166
 10
910.33685002844777
 20
-1397.0145501899037
 42
-0.0238457052245872
 10
910.4600321097405
 20
-1397.118546085766
 10
910.46198483829971
 20
-1397.1203609635322
 42
-0.0248160564157572
 10
910.57818634559987
 20
-1397.2396355647404
 10
910.58028997900237
 20
-1397.2420208984454
 42
-0.0254109591459934
 10
910.68789519686845
 20
-1397.3773092844099
 10
910.6901432187824
 20
-1397.3804508328103
 42
-0.0255528488285827
 10
910.78758989758001
 20
-1397.5324778870452
 10
910.78992099749576
 20
-1397.536559498652
 42
-0.0252146793219262
 10
910.87570202350503
 20
-1397.7060617446496
 10
910.87800426266244
 20
-1397.7112438265619
 42
-0.0244265635947783
 10
910.95065895642415
 20
-1397.8989903986089
 10
910.95990535789269
 20
-1397.9268558169474
 42
-0.0231319612902914
 10
911.00582813688436
 20
-1398.090156863748
 42
-0.0112130424358419
 10
911.04046415942298
 20
-1398.2563604639379
 10
911.04166668453513
 20
-1398.2628570508241
 42
-0.0210527881241506
 10
911.06735315990591
 20
-1398.4439126962657
 10
911.07086375472772
 20
-1398.4793182448125
 42
-0.0190029892425786
 10
911.08630522827229
 20
-1398.7328540910814
 10
911.08711520471638
 20
-1398.7683297054537
 42
-0.0137974553662444
 10
911.08556635188086
 20
-1399.0933611121873
 10
911.08472089692543
 20
-1399.1194798567751
 42
-0.0081336634214859
 10
911.06986156170274
 20
-1399.4248273243793
 42
-0.0073526923576519
 10
911.0455530283283
 20
-1399.7295755686632
 10
911.04429160454538
 20
-1399.7429122433305
 42
-0.0066886138694153
 10
911.00855601849935
 20
-1400.0734982868235
 10
911.00689892902892
 20
-1400.0871199058192
 42
-0.0061359187353877
 10
910.95904832697772
 20
-1400.4438838859212
 10
910.95701082590517
 20
-1400.4577786887485
 42
-0.005669861006001
 10
910.89636049513717
 20
-1400.8410572575924
 10
910.89395506181518
 20
-1400.8552163768172
 42
-0.0052721077271153
 10
910.81982286101743
 20
-1401.2653437164852
 10
910.81705971217377
 20
-1401.2797603518811
 42
-0.0049289272177728
 10
910.72876559407416
 20
-1401.7170688630015
 10
910.72565309939114
 20
-1401.7317377158192
 42
-0.0047415956711864
 10
910.62241510785884
 20
-1402.1965344732298
 10
910.5876468974991
 20
-1402.3463415686131
 42
-0.0084404470905287
 10
910.39763045392795
 20
-1403.1065655931416
 10
910.39150376594159
 20
-1403.1294297172976
 42
-0.0039635940257029
 10
910.17005008165768
 20
-1403.9304185815447
 10
910.15667328647805
 20
-1403.9773501981367
 42
-0.0072475040837385
 10
909.88922639861846
 20
-1404.866569914516
 10
909.81901407179146
 20
-1405.0883102644873
 42
-0.0051345458829194
 10
909.5322546997287
 20
-1405.9626354523102
 10
909.51072843295651
 20
-1406.0260617194542
 42
-0.0019150016601091
 10
909.2551950260945
 20
-1406.7696108396663
 10
909.24872742170169
 20
-1406.7881983045775
 42
-0.0021524362752816
 10
909.00024937063449
 20
-1407.4925241262958
 10
908.99103894992834
 20
-1407.5182777046246
 42
-0.0024331286818218
 10
908.75478369090206
 20
-1408.1688770127153
 10
908.74573573834994
 20
-1408.193420319074
 42
-0.0027449721789537
 10
908.52112116751607
 20
-1408.7925501979942
 10
908.51223116013296
 20
-1408.8158727878226
 42
-0.0031083229770231
 10
908.29868867351388
 20
-1409.3657968254261
 10
908.28995254183644
 20
-1409.3878865412885
 42
-0.0035311343283131
 10
908.08691135624645
 20
-1409.8908696670139
 10
908.07832601709913
 20
-1409.9117123905235
 42
-0.0040245640948877
 10
907.88521421330438
 20
-1410.3700217131168
 10
907.87677809969796
 20
-1410.3896010811966
 42
-0.0046015135849637
 10
907.69302180653756
 20
-1410.8055061108309
 10
907.6847356287127
 20
-1410.8238032502757
 42
-0.0052768638267054
 10
907.50975810975365
 20
-1411.1995761345534
 10
907.50162589912986
 20
-1411.21656947309
 42
-0.0060672675646069
 10
907.33484628636074
 20
-1411.5544850962108
 10
907.32687680588197
 20
-1411.5701503552025
 42
-0.0069904648875863
 10
907.16770841187781
 20
-1411.8724861618716
 10
907.15991701226267
 20
-1411.8867967111069
 42
-0.0080637022764263
 10
907.00776515192115
 20
-1412.1558320142522
 10
907.00017611929013
 20
-1412.1687598798526
 42
-0.0093006455662364
 10
906.85443544275836
 20
-1412.4067742783559
 10
906.84708477601657
 20
-1412.4182922475261
 42
-0.0107060778059551
 10
906.7071362325762
 20
-1412.6275625649082
 10
906.70007446429724
 20
-1412.6376481074733
 42
-0.012272311141508
 10
906.56528074609855
 20
-1412.8204414369629
 10
906.56495452253762
 20
-1412.8208618247813
 42
-0.0141836319627482
 10
906.42137291957033
 20
-1412.9954315826021
 10
906.41442516391794
 20
-1413.0034065828675
 42
-0.0175957477207174
 10
906.27451899588368
 20
-1413.1530274712718
 42
-0.0080466359680596
 10
906.12705523085583
 20
-1413.2953499994208
 10
906.08102068633605
 20
-1413.3383704375142
 42
-0.0269600260392118
 10
905.82774044035125
 20
-1413.5506936960248
 10
905.76117330405248
 20
-1413.60064511065
 42
-0.0178362839751624
 10
905.52122881440027
 20
-1413.7676630368996
 10
905.51398384340109
 20
-1413.7723315491037
 42
-0.0174650732652146
 10
905.2776476459585
 20
-1413.9131925140637
 42
-0.0169240130163348
 10
905.03218140009903
 20
-1414.0374847738419
 10
904.98619524454307
 20
-1414.0588467294083
 42
-0.03188830368418
 10
904.63584438892519
 20
-1414.1951850389178
 10
904.56747885375785
 20
-1414.2168856593939
 42
-0.0284435909903825
 10
904.19142872746727
 20
-1414.3131030948684
 10
904.15627056696667
 20
-1414.3199966906973
 42
-0.0243909341014052
 10
903.84282710604975
 20
-1414.3657177217272
 10
903.79254637928307
 20
-1414.3705632686285
 42
-0.0196639292931304
 10
903.57695080175131
 20
-1414.3828115541423
 10
903.52512673058823
 20
-1414.3837148148791
 42
-0.0100501510681376
 10
903.41270344892359
 20
-1414.383414416526
 10
903.38104358754617
 20
-1414.3826933446398
 42
-0.0019752031102469
 10
903.33195125089821
 20
-1414.3813811844311
 10
903.32919094767999
 20
-1414.3812964926049
 42
0.0065378751992157
 10
903.28561437292137
 20
-1414.3805296013898
 42
-0.0167974694687329
 10
903.24208354999348
 20
-1414.3788697028638
 10
903.23800421072747
 20
-1414.3785766919686
 42
-0.0081283276280967
 10
903.18644441298738
 20
-1414.3740296983308
 10
903.17470483911029
 20
-1414.3728017807525
 42
-0.0126703440183889
 10
903.09998654331741
 20
-1414.3630669896811
 10
903.07719867564015
 20
-1414.3595087337658
 42
-0.0117852088426585
 10
902.95765968980265
 20
-1414.3379457386077
 10
902.90227923804468
 20
-1414.3266021983741
 42
-0.025177459229294
 10
902.67543519903802
 20
-1414.2681041889416
 10
902.63071600918704
 20
-1414.2541373696063
 42
-0.0146525199883699
 10
902.44432302164728
 20
-1414.1898708424078
 42
-0.0166929435854634
 10
902.26234536552101
 20
-1414.1140637093533
 10
902.25768873424749
 20
-1414.1119388087391
 42
-0.0191684358438663
 10
902.07250510299923
 20
-1414.0187027249497
 10
902.06917251724121
 20
-1414.0168614773957
 42
-0.0221181781813434
 10
901.88586221333844
 20
-1413.9047279790245
 10
901.88351240933059
 20
-1413.903143681034
 42
-0.0254984685387022
 10
901.70722225894519
 20
-1413.7707325310641
 10
901.6847401112434
 20
-1413.7519802221282
 42
-0.0292492648806343
 10
901.55997117240031
 20
-1413.634887422485
 42
-0.0159048957495093
 10
901.44613117495066
 20
-1413.5068674308866
 10
901.44481238437083
 20
-1413.505285817866
 42
-0.0343813379558462
 10
901.34217512274461
 20
-1413.3634144920964
 10
901.31068359138294
 20
-1413.3129111000012
 42
-0.0369117275698362
 10
901.22479108948653
 20
-1413.1494338590539
 42
-0.0191751379920098
 10
901.1575977039297
 20
-1412.9770292530482
 10
901.15583438017006
 20
-1412.9719359083731
 42
-0.0378178042228349
 10
901.10603966138569
 20
-1412.7829951322913
 10
901.10004436565589
 20
-1412.7504345140972
 42
-0.0184846046476622
 10
901.07932716636105
 20
-1412.6086816935499
 42
-0.0179866351323981
 10
901.06899416128738
 20
-1412.4657908804668
 10
901.06893771884165
 20
-1412.4642331938562
 42
-0.0085497186109164
 10
901.06750543773785
 20
-1412.3893600288463
 42
-0.0085497186109164
  0
ENDBLK
  5
56
100
AcDbEntity
  8
template
390
0
100
AcDbBlockEnd
  0
BLOCK
  5
57
100
AcDbEntity
  8
template
390
0
100
AcDbBlockBegin
  2
*D2
 70
               1
 10
0.0
 20
0.0
 30
0.0
  3
*D2
  1

  0
LINE
  5
58
100
AcDbEntity
  8
0
370
              -2
390
0
  6
Continuous
 62
               0
100
AcDbLine
 10
465.08621919068952
 20
360.0000000000004
 30
0.0
 11
528.16474883988326
 21
260.0
 31
0.0
  0
CIRCLE
  5
59
102
{ACAD_REACTORS
330
5A
102
}
100
AcDbEntity
  8
0
370
              -2
390
0
  6
Continuous
 62
               0
100
AcDbCircle
 10
465.08621919068952
 20
360.0000000000004
 30
0.0
 40
4.99969482421875
  0
HATCH
  5
5A
100
AcDbEntity
  8
0
370
              -2
390
0
  6
Continuous
 62
               0
100
AcDbHatch
 10
0.0
 20
0.0
 30
0.0
210
0.0
220
0.0
230
1.0
  2
SOLID
 70
               1
 71
               1
 91
        1
 92
        1
 93
        1
 72
               2
 10
465.08621919068952
 20
360.0000000000004
 40
4.99969482421875
 50
0.0
 51
360.0
 73
               0
 97
        1
330
59
 75
               0
 76
               1
 98
        1
 10
0.0
 20
0.0
  0
LINE
  5
5B
100
AcDbEntity
  8
0
370
              -2
390
0
  6
Continuous
 62
               0
100
AcDbLine
 10
528.16474883988326
 20
260.0
 30
0.0
 11
667.53974883988326
 21
260.0
 31
0.0
  0
MTEXT
  5
5C
100
AcDbEntity
  8
0
390
0
 62
               0
100
AcDbMText
 10
588.16474883988326
 20
293.87761718750005
 30
0.0
 40
24.432617187500004
 41
0.0
 71
               1
 72
               1
  1
φ365
  7
ＭＳ ゴシック
 73
               1
 44
0.7828267384257843
  0
POINT
  5
5D
100
AcDbEntity
  8
Defpoints
370
               0
390
0
 62
               0
100
AcDbPoint
 10
270.35395531032583
 20
668.71401880061717
 30
0.0
  0
POINT
  5
5E
100
AcDbEntity
  8
Defpoints
370
               0
390
0
 62
               0
100
AcDbPoint
 10
465.08621919068952
 20
360.0000000000004
 30
0.0
  0
ENDBLK
  5
5F
100
AcDbEntity
  8
template
390
0
100
AcDbBlockEnd
  0
BLOCK
  5
60
100
AcDbEntity
  8
notes
390
0
100
AcDbBlockBegin
  2
*D3
 70
               1
 10
0.0
 20
0.0
 30
0.0
  3
*D3
  1

  0
LINE
  5
61
100
AcDbEntity
  8
0
370
              -2
390
0
  6
Continuous
 62
               0
100
AcDbLine
 10
-639.36930148263468
 20
564.35700940030847
 30
0.0
 11
-639.36930148263468
 21
814.3570094003087
 31
0.0
  0
LINE
  5
62
100
AcDbEntity
  8
0
370
              -2
390
0
  6
Continuous
 62
               0
100
AcDbLine
 10
-239.36930148263457
 20
564.35700940030847
 30
0.0
 11
-239.36930148263457
 21
814.3570094003087
 31
0.0
  0
LINE
  5
63
100
AcDbEntity
  8
0
370
              -2
390
0
  6
Continuous
 62
               0
100
AcDbLine
 10
-639.36930148263468
 20
814.3570094003087
 30
0.0
 11
-239.36930148263457
 21
814.3570094003087
 31
0.0
  0
CIRCLE
  5
64
102
{ACAD_REACTORS
330
65
102
}
100
AcDbEntity
  8
0
370
              -2
390
0
  6
Continuous
 62
               0
100
AcDbCircle
 10
-639.36930148263468
 20
814.3570094003087
 30
0.0
 40
4.99969482421875
  0
HATCH
  5
65
100
AcDbEntity
  8
0
370
              -2
390
0
  6
Continuous
 62
               0
100
AcDbHatch
 10
0.0
 20
0.0
 30
0.0
210
0.0
220
0.0
230
1.0
  2
SOLID
 70
               1
 71
               1
 91
        1
 92
        1
 93
        1
 72
               2
 10
-639.36930148263468
 20
814.3570094003087
 40
4.99969482421875
 50
0.0
 51
360.0
 73
               0
 97
        1
330
64
 75
               0
 76
               1
 98
        1
 10
0.0
 20
0.0
  0
CIRCLE
  5
66
102
{ACAD_REACTORS
330
67
102
}
100
AcDbEntity
  8
0
370
              -2
390
0
  6
Continuous
 62
               0
100
AcDbCircle
 10
-239.36930148263457
 20
814.3570094003087
 30
0.0
 40
4.99969482421875
  0
HATCH
  5
67
100
AcDbEntity
  8
0
370
              -2
390
0
  6
Continuous
 62
               0
100
AcDbHatch
 10
0.0
 20
0.0
 30
0.0
210
0.0
220
0.0
230
1.0
  2
SOLID
 70
               1
 71
               1
 91
        1
 92
        1
 93
        1
 72
               2
 10
-239.36930148263457
 20
814.3570094003087
 40
4.99969482421875
 50
0.0
 51
360.0
 73
               0
 97
        1
330
66
 75
               0
 76
               1
 98
        1
 10
0.0
 20
0.0
  0
MTEXT
  5
68
100
AcDbEntity
  8
0
390
0
 62
               0
100
AcDbMText
 10
-460.7936754764101
 20
848.23462658780886
 30
0.0
 40
24.432617187500004
 41
0.0
 71
               1
 72
               1
  1
400
  7
ＭＳ ゴシック
 73
               1
 44
0.7828267384257843
  0
POINT
  5
69
100
AcDbEntity
  8
Defpoints
370
               0
390
0
 62
               0
100
AcDbPoint
 10
-239.36930148263457
 20
539.35700940030858
 30
0.0
  0
POINT
  5
6A
100
AcDbEntity
  8
Defpoints
370
               0
390
0
 62
               0
100
AcDbPoint
 10
-639.36930148263468
 20
539.35700940030858
 30
0.0
  0
POINT
  5
6B
100
AcDbEntity
  8
Defpoints
370
               0
390
0
 62
               0
100
AcDbPoint
 10
-639.36930148263468
 20
814.3570094003087
 30
0.0
  0
ENDBLK
  5
6C
100
AcDbEntity
  8
notes
390
0
100
AcDbBlockEnd
  0
BLOCK
  5
6D
100
AcDbEntity
  8
notes
390
0
100
AcDbBlockBegin
  2
*D4
 70
               1
 10
0.0
 20
0.0
 30
0.0
  3
*D4
  1

  0
LINE
  5
6E
100
AcDbEntity
  8
0
370
              -2
390
0
  6
Continuous
 62
               0
100
AcDbLine
 10
-429.11308314022216
 20
679.14923659274928
 30
0.0
 11
-388.77991274949233
 21
737.32052350304502
 31
0.0
  0
CIRCLE
  5
6F
102
{ACAD_REACTORS
330
70
102
}
100
AcDbEntity
  8
0
370
              -2
390
0
  6
Continuous
 62
               0
100
AcDbCircle
 10
-429.11308314022216
 20
679.14923659274928
 30
0.0
 40
4.99969482421875
  0
HATCH
  5
70
100
AcDbEntity
  8
0
370
              -2
390
0
  6
Continuous
 62
               0
100
AcDbHatch
 10
0.0
 20
0.0
 30
0.0
210
0.0
220
0.0
230
1.0
  2
SOLID
 70
               1
 71
               1
 91
        1
 92
        1
 93
        1
 72
               2
 10
-429.11308314022216
 20
679.14923659274928
 40
4.99969482421875
 50
0.0
 51
360.0
 73
               0
 97
        1
330
6F
 75
               0
 76
               1
 98
        1
 10
0.0
 20
0.0
  0
LINE
  5
71
100
AcDbEntity
  8
0
370
              -2
390
0
  6
Continuous
 62
               0
100
AcDbLine
 10
-388.77991274949233
 20
737.32052350304502
 30
0.0
 11
-265.27991274949233
 21
737.32052350304502
 31
0.0
  0
MTEXT
  5
72
100
AcDbEntity
  8
0
390
0
 62
               0
100
AcDbMText
 10
-328.77991274949233
 20
771.19814069054519
 30
0.0
 40
24.432617187500004
 41
0.0
 71
               1
 72
               1
  1
φ36
  7
ＭＳ ゴシック
 73
               1
 44
0.7828267384257843
  0
POINT
  5
73
100
AcDbEntity
  8
Defpoints
370
               0
390
0
 62
               0
100
AcDbPoint
 10
-449.62551982504687
 20
649.56478220786744
 30
0.0
  0
POINT
  5
74
100
AcDbEntity
  8
Defpoints
370
               0
390
0
 62
               0
100
AcDbPoint
 10
-429.11308314022216
 20
679.14923659274928
 30
0.0
  0
ENDBLK
  5
75
100
AcDbEntity
  8
notes
390
0
100
AcDbBlockEnd
  0
BLOCK
  5
76
100
AcDbEntity
  8
notes
390
0
100
AcDbBlockBegin
  2
*D5
 70
               1
 10
0.0
 20
0.0
 30
0.0
  3
*D5
  1

  0
LINE
  5
77
100
AcDbEntity
  8
0
370
              -2
390
0
  6
Continuous
 62
               0
100
AcDbLine
 10
-491.01079601501306
 20
714.35700940030847
 30
0.0
 11
-739.36930148263457
 21
714.35700940030847
 31
0.0
  0
LINE
  5
78
100
AcDbEntity
  8
0
370
              -2
390
0
  6
Continuous
 62
               0
100
AcDbLine
 10
-639.22156489659812
 20
614.3537253599834
 30
0.0
 11
-739.36930148263457
 21
614.3537253599834
 31
0.0
  0
LINE
  5
79
100
AcDbEntity
  8
0
370
              -2
390
0
  6
Continuous
 62
               0
100
AcDbLine
 10
-739.36930148263457
 20
714.35700940030847
 30
0.0
 11
-739.36930148263457
 21
614.3537253599834
 31
0.0
  0
CIRCLE
  5
7A
102
{ACAD_REACTORS
330
7B
102
}
100
AcDbEntity
  8
0
370
              -2
390
0
  6
Continuous
 62
               0
100
AcDbCircle
 10
-739.36930148263457
 20
714.35700940030847
 30
0.0
 40
4.99969482421875
  0
HATCH
  5
7B
100
AcDbEntity
  8
0
370
              -2
390
0
  6
Continuous
 62
               0
100
AcDbHatch
 10
0.0
 20
0.0
 30
0.0
210
0.0
220
0.0
230
1.0
  2
SOLID
 70
               1
 71
               1
 91
        1
 92
        1
 93
        1
 72
               2
 10
-739.36930148263457
 20
714.35700940030847
 40
4.99969482421875
 50
0.0
 51
360.0
 73
               0
 97
        1
330
7A
 75
               0
 76
               1
 98
        1
 10
0.0
 20
0.0
  0
CIRCLE
  5
7C
102
{ACAD_REACTORS
330
7D
102
}
100
AcDbEntity
  8
0
370
              -2
390
0
  6
Continuous
 62
               0
100
AcDbCircle
 10
-739.36930148263457
 20
614.3537253599834
 30
0.0
 40
4.99969482421875
  0
HATCH
  5
7D
100
AcDbEntity
  8
0
370
              -2
390
0
  6
Continuous
 62
               0
100
AcDbHatch
 10
0.0
 20
0.0
 30
0.0
210
0.0
220
0.0
230
1.0
  2
SOLID
 70
               1
 71
               1
 91
        1
 92
        1
 93
        1
 72
               2
 10
-739.36930148263457
 20
614.3537253599834
 40
4.99969482421875
 50
0.0
 51
360.0
 73
               0
 97
        1
330
7C
 75
               0
 76
               1
 98
        1
 10
0.0
 20
0.0
  0
MTEXT
  5
7E
100
AcDbEntity
  8
0
390
0
 62
               0
100
AcDbMText
 10
-773.24691867013462
 20
640.54286569797046
 30
0.0
 40
24.432617187500004
 41
0.0
 71
               1
 72
               1
  1
100
  7
ＭＳ ゴシック
 11
0.0
 21
1.0
 31
0.0
 73
               1
 44
0.7828267384257843
  0
POINT
  5
7F
100
AcDbEntity
  8
Defpoints
370
               0
390
0
 62
               0
100
AcDbPoint
 10
-614.22156489659812
 20
614.3537253599834
 30
0.0
  0
POINT
  5
80
100
AcDbEntity
  8
Defpoints
370
               0
390
0
 62
               0
100
AcDbPoint
 10
-466.01079601501306
 20
714.35700940030847
 30
0.0
  0
POINT
  5
81
100
AcDbEntity
  8
Defpoints
370
               0
390
0
 62
               0
100
AcDbPoint
 10
-739.36930148263457
 20
714.35700940030847
 30
0.0
  0
ENDBLK
  5
82
100
AcDbEntity
  8
notes
390
0
100
AcDbBlockEnd
  0
BLOCK
  5
83
100
AcDbEntity
  8
notes
390
0
100
AcDbBlockBegin
  2
*D6
 70
               1
 10
0.0
 20
0.0
 30
0.0
  3
*D6
  1

  0
LINE
  5
84
100
AcDbEntity
  8
0
370
              -2
390
0
  6
Continuous
 62
               0
100
AcDbLine
 10
-637.57438223952238
 20
614.35700940030847
 30
0.0
 11
-739.36930148263468
 21
614.35700940030847
 31
0.0
  0
LINE
  5
85
100
AcDbEntity
  8
0
370
              -2
390
0
  6
Continuous
 62
               0
100
AcDbLine
 10
-561.19388513781985
 20
339.35700940030898
 30
0.0
 11
-739.36930148263468
 21
339.35700940030898
 31
0.0
  0
LINE
  5
86
100
AcDbEntity
  8
0
370
              -2
390
0
  6
Continuous
 62
               0
100
AcDbLine
 10
-739.36930148263468
 20
614.35700940030847
 30
0.0
 11
-739.36930148263468
 21
339.35700940030898
 31
0.0
  0
CIRCLE
  5
87
102
{ACAD_REACTORS
330
88
102
}
100
AcDbEntity
  8
0
370
              -2
390
0
  6
Continuous
 62
               0
100
AcDbCircle
 10
-739.36930148263468
 20
614.35700940030847
 30
0.0
 40
4.99969482421875
  0
HATCH
  5
88
100
AcDbEntity
  8
0
370
              -2
390
0
  6
Continuous
 62
               0
100
AcDbHatch
 10
0.0
 20
0.0
 30
0.0
210
0.0
220
0.0
230
1.0
  2
SOLID
 70
               1
 71
               1
 91
        1
 92
        1
 93
        1
 72
               2
 10
-739.36930148263468
 20
614.35700940030847
 40
4.99969482421875
 50
0.0
 51
360.0
 73
               0
 97
        1
330
87
 75
               0
 76
               1
 98
        1
 10
0.0
 20
0.0
  0
CIRCLE
  5
89
102
{ACAD_REACTORS
330
8A
102
}
100
AcDbEntity
  8
0
370
              -2
390
0
  6
Continuous
 62
               0
100
AcDbCircle
 10
-739.36930148263468
 20
339.35700940030898
 30
0.0
 40
4.99969482421875
  0
HATCH
  5
8A
100
AcDbEntity
  8
0
370
              -2
390
0
  6
Continuous
 62
               0
100
AcDbHatch
 10
0.0
 20
0.0
 30
0.0
210
0.0
220
0.0
230
1.0
  2
SOLID
 70
               1
 71
               1
 91
        1
 92
        1
 93
        1
 72
               2
 10
-739.36930148263468
 20
339.35700940030898
 40
4.99969482421875
 50
0.0
 51
360.0
 73
               0
 97
        1
330
89
 75
               0
 76
               1
 98
        1
 10
0.0
 20
0.0
  0
MTEXT
  5
8B
100
AcDbEntity
  8
0
390
0
 62
               0
100
AcDbMText
 10
-773.24691867013473
 20
453.04450771813316
 30
0.0
 40
24.432617187500004
 41
0.0
 71
               1
 72
               1
  1
275
  7
ＭＳ ゴシック
 11
0.0
 21
1.0
 31
0.0
 73
               1
 44
0.7828267384257843
  0
POINT
  5
8C
100
AcDbEntity
  8
Defpoints
370
               0
390
0
 62
               0
100
AcDbPoint
 10
-536.19388513781985
 20
339.35700940030898
 30
0.0
  0
POINT
  5
8D
100
AcDbEntity
  8
Defpoints
370
               0
390
0
 62
               0
100
AcDbPoint
 10
-612.57438223952238
 20
614.35700940030847
 30
0.0
  0
POINT
  5
8E
100
AcDbEntity
  8
Defpoints
370
               0
390
0
 62
               0
100
AcDbPoint
 10
-739.36930148263468
 20
614.35700940030847
 30
0.0
  0
ENDBLK
  5
8F
100
AcDbEntity
  8
notes
390
0
100
AcDbBlockEnd
  0
BLOCK
  5
90
100
AcDbEntity
  8
notes
390
0
100
AcDbBlockBegin
  2
*D7
 70
               1
 10
0.0
 20
0.0
 30
0.0
  3
*D7
  1

  0
LINE
  5
91
100
AcDbEntity
  8
0
370
              -2
390
0
  6
Continuous
 62
               0
100
AcDbLine
 10
-576.86930148263468
 20
344.12013391753095
 30
0.0
 11
-576.86930148263468
 21
214.3570094003091
 31
0.0
  0
LINE
  5
92
100
AcDbEntity
  8
0
370
              -2
390
0
  6
Continuous
 62
               0
100
AcDbLine
 10
-301.86930148263451
 20
344.12013391753095
 30
0.0
 11
-301.86930148263451
 21
214.3570094003091
 31
0.0
  0
LINE
  5
93
100
AcDbEntity
  8
0
370
              -2
390
0
  6
Continuous
 62
               0
100
AcDbLine
 10
-576.86930148263468
 20
214.3570094003091
 30
0.0
 11
-301.86930148263451
 21
214.3570094003091
 31
0.0
  0
CIRCLE
  5
94
102
{ACAD_REACTORS
330
95
102
}
100
AcDbEntity
  8
0
370
              -2
390
0
  6
Continuous
 62
               0
100
AcDbCircle
 10
-576.86930148263468
 20
214.3570094003091
 30
0.0
 40
4.99969482421875
  0
HATCH
  5
95
100
AcDbEntity
  8
0
370
              -2
390
0
  6
Continuous
 62
               0
100
AcDbHatch
 10
0.0
 20
0.0
 30
0.0
210
0.0
220
0.0
230
1.0
  2
SOLID
 70
               1
 71
               1
 91
        1
 92
        1
 93
        1
 72
               2
 10
-576.86930148263468
 20
214.3570094003091
 40
4.99969482421875
 50
0.0
 51
360.0
 73
               0
 97
        1
330
94
 75
               0
 76
               1
 98
        1
 10
0.0
 20
0.0
  0
CIRCLE
  5
96
102
{ACAD_REACTORS
330
97
102
}
100
AcDbEntity
  8
0
370
              -2
390
0
  6
Continuous
 62
               0
100
AcDbCircle
 10
-301.86930148263451
 20
214.3570094003091
 30
0.0
 40
4.99969482421875
  0
HATCH
  5
97
100
AcDbEntity
  8
0
370
              -2
390
0
  6
Continuous
 62
               0
100
AcDbHatch
 10
0.0
 20
0.0
 30
0.0
210
0.0
220
0.0
230
1.0
  2
SOLID
 70
               1
 71
               1
 91
        1
 92
        1
 93
        1
 72
               2
 10
-301.86930148263451
 20
214.3570094003091
 40
4.99969482421875
 50
0.0
 51
360.0
 73
               0
 97
        1
330
96
 75
               0
 76
               1
 98
        1
 10
0.0
 20
0.0
  0
MTEXT
  5
98
100
AcDbEntity
  8
0
390
0
 62
               0
100
AcDbMText
 10
-463.18180316481011
 20
248.23462658780909
 30
0.0
 40
24.432617187500004
 41
0.0
 71
               1
 72
               1
  1
275
  7
ＭＳ ゴシック
 73
               1
 44
0.7828267384257843
  0
POINT
  5
99
100
AcDbEntity
  8
Defpoints
370
               0
390
0
 62
               0
100
AcDbPoint
 10
-301.86930148263451
 20
369.12013391753095
 30
0.0
  0
POINT
  5
9A
100
AcDbEntity
  8
Defpoints
370
               0
390
0
 62
               0
100
AcDbPoint
 10
-576.86930148263468
 20
369.12013391753095
 30
0.0
  0
POINT
  5
9B
100
AcDbEntity
  8
Defpoints
370
               0
390
0
 62
               0
100
AcDbPoint
 10
-576.86930148263468
 20
214.3570094003091
 30
0.0
  0
ENDBLK
  5
9C
100
AcDbEntity
  8
notes
390
0
100
AcDbBlockEnd
  0
BLOCK
  5
9D
100
AcDbEntity
  8
notes
390
0
100
AcDbBlockBegin
  2
*D8
 70
               1
 10
0.0
 20
0.0
 30
0.0
  3
*D8
  1

  0
LINE
  5
9E
100
AcDbEntity
  8
0
370
              -2
390
0
  6
Continuous
 62
               0
100
AcDbLine
 10
-561.19388513781985
 20
339.35700940030898
 30
0.0
 11
-739.36930148263468
 21
339.35700940030898
 31
0.0
  0
LINE
  5
9F
100
AcDbEntity
  8
0
370
              -2
390
0
  6
Continuous
 62
               0
100
AcDbLine
 10
-489.36930148263446
 20
314.35700940030898
 30
0.0
 11
-739.36930148263468
 21
314.35700940030898
 31
0.0
  0
LINE
  5
A0
100
AcDbEntity
  8
0
370
              -2
390
0
  6
Continuous
 62
               0
100
AcDbLine
 10
-739.36930148263468
 20
339.35700940030898
 30
0.0
 11
-739.36930148263468
 21
314.35700940030898
 31
0.0
  0
CIRCLE
  5
A1
102
{ACAD_REACTORS
330
A2
102
}
100
AcDbEntity
  8
0
370
              -2
390
0
  6
Continuous
 62
               0
100
AcDbCircle
 10
-739.36930148263468
 20
339.35700940030898
 30
0.0
 40
4.99969482421875
  0
HATCH
  5
A2
100
AcDbEntity
  8
0
370
              -2
390
0
  6
Continuous
 62
               0
100
AcDbHatch
 10
0.0
 20
0.0
 30
0.0
210
0.0
220
0.0
230
1.0
  2
SOLID
 70
               1
 71
               1
 91
        1
 92
        1
 93
        1
 72
               2
 10
-739.36930148263468
 20
339.35700940030898
 40
4.99969482421875
 50
0.0
 51
360.0
 73
               0
 97
        1
330
A1
 75
               0
 76
               1
 98
        1
 10
0.0
 20
0.0
  0
CIRCLE
  5
A3
102
{ACAD_REACTORS
330
A4
102
}
100
AcDbEntity
  8
0
370
              -2
390
0
  6
Continuous
 62
               0
100
AcDbCircle
 10
-739.36930148263468
 20
314.35700940030898
 30
0.0
 40
4.99969482421875
  0
HATCH
  5
A4
100
AcDbEntity
  8
0
370
              -2
390
0
  6
Continuous
 62
               0
100
AcDbHatch
 10
0.0
 20
0.0
 30
0.0
210
0.0
220
0.0
230
1.0
  2
SOLID
 70
               1
 71
               1
 91
        1
 92
        1
 93
        1
 72
               2
 10
-739.36930148263468
 20
314.35700940030898
 40
4.99969482421875
 50
0.0
 51
360.0
 73
               0
 97
        1
330
A3
 75
               0
 76
               1
 98
        1
 10
0.0
 20
0.0
  0
MTEXT
  5
A5
100
AcDbEntity
  8
0
390
0
 62
               0
100
AcDbMText
 10
-773.24691867013473
 20
310.98200940030898
 30
0.0
 40
24.432617187500004
 41
0.0
 71
               1
 72
               1
  1
25
  7
ＭＳ ゴシック
 11
0.0
 21
1.0
 31
0.0
 73
               1
 44
0.7828267384257843
  0
POINT
  5
A6
100
AcDbEntity
  8
Defpoints
370
               0
390
0
 62
               0
100
AcDbPoint
 10
-464.36930148263446
 20
314.35700940030898
 30
0.0
  0
POINT
  5
A7
100
AcDbEntity
  8
Defpoints
370
               0
390
0
 62
               0
100
AcDbPoint
 10
-536.19388513781985
 20
339.35700940030898
 30
0.0
  0
POINT
  5
A8
100
AcDbEntity
  8
Defpoints
370
               0
390
0
 62
               0
100
AcDbPoint
 10
-739.36930148263468
 20
339.35700940030898
 30
0.0
  0
ENDBLK
  5
A9
100
AcDbEntity
  8
notes
390
0
100
AcDbBlockEnd
  0
BLOCK
  5
AA
100
AcDbEntity
  8
notes
390
0
100
AcDbBlockBegin
  2
*D9
 70
               1
 10
0.0
 20
0.0
 30
0.0
  3
*D9
  1

  0
LINE
  5
AB
100
AcDbEntity
  8
0
370
              -2
390
0
  6
Continuous
 62
               0
100
AcDbLine
 10
405.2101847600573
 20
-638.18146354632245
 30
0.0
 11
405.2101847600573
 21
-756.78146354632236
 31
0.0
  0
LINE
  5
AC
100
AcDbEntity
  8
0
370
              -2
390
0
  6
Continuous
 62
               0
100
AcDbLine
 10
167.7101847600573
 20
-536.78146354632213
 30
0.0
 11
167.7101847600573
 21
-756.78146354632236
 31
0.0
  0
LINE
  5
AD
100
AcDbEntity
  8
0
370
              -2
390
0
  6
Continuous
 62
               0
100
AcDbLine
 10
405.2101847600573
 20
-756.78146354632236
 30
0.0
 11
167.7101847600573
 21
-756.78146354632236
 31
0.0
  0
CIRCLE
  5
AE
102
{ACAD_REACTORS
330
AF
102
}
100
AcDbEntity
  8
0
370
              -2
390
0
  6
Continuous
 62
               0
100
AcDbCircle
 10
405.2101847600573
 20
-756.78146354632236
 30
0.0
 40
4.99969482421875
  0
HATCH
  5
AF
100
AcDbEntity
  8
0
370
              -2
390
0
  6
Continuous
 62
               0
100
AcDbHatch
 10
0.0
 20
0.0
 30
0.0
210
0.0
220
0.0
230
1.0
  2
SOLID
 70
               1
 71
               1
 91
        1
 92
        1
 93
        1
 72
               2
 10
405.2101847600573
 20
-756.78146354632236
 40
4.99969482421875
 50
0.0
 51
360.0
 73
               0
 97
        1
330
AE
 75
               0
 76
               1
 98
        1
 10
0.0
 20
0.0
  0
CIRCLE
  5
B0
102
{ACAD_REACTORS
330
B1
102
}
100
AcDbEntity
  8
0
370
              -2
390
0
  6
Continuous
 62
               0
100
AcDbCircle
 10
167.7101847600573
 20
-756.78146354632236
 30
0.0
 40
4.99969482421875
  0
HATCH
  5
B1
100
AcDbEntity
  8
0
370
              -2
390
0
  6
Continuous
 62
               0
100
AcDbHatch
 10
0.0
 20
0.0
 30
0.0
210
0.0
220
0.0
230
1.0
  2
SOLID
 70
               1
 71
               1
 91
        1
 92
        1
 93
        1
 72
               2
 10
167.7101847600573
 20
-756.78146354632236
 40
4.99969482421875
 50
0.0
 51
360.0
 73
               0
 97
        1
330
B0
 75
               0
 76
               1
 98
        1
 10
0.0
 20
0.0
  0
MTEXT
  5
B2
100
AcDbEntity
  8
0
390
0
 62
               0
100
AcDbMText
 10
246.7726847600573
 20
-722.90384635882242
 30
0.0
 40
24.432617187500004
 41
0.0
 71
               1
 72
               1
  1
237.5
  7
ＭＳ ゴシック
 73
               1
 44
0.7828267384257843
  0
POINT
  5
B3
100
AcDbEntity
  8
Defpoints
370
               0
390
0
 62
               0
100
AcDbPoint
 10
167.7101847600573
 20
-511.78146354632207
 30
0.0
  0
POINT
  5
B4
100
AcDbEntity
  8
Defpoints
370
               0
390
0
 62
               0
100
AcDbPoint
 10
405.2101847600573
 20
-613.18146354632245
 30
0.0
  0
POINT
  5
B5
100
AcDbEntity
  8
Defpoints
370
               0
390
0
 62
               0
100
AcDbPoint
 10
405.2101847600573
 20
-756.78146354632236
 30
0.0
  0
ENDBLK
  5
B6
100
AcDbEntity
  8
notes
390
0
100
AcDbBlockEnd
  0
BLOCK
  5
B7
100
AcDbEntity
  8
notes
390
0
100
AcDbBlockBegin
  2
*D10
 70
               1
 10
0.0
 20
0.0
 30
0.0
  3
*D10
  1

  0
LINE
  5
B8
100
AcDbEntity
  8
0
370
              -2
390
0
  6
Continuous
 62
               0
100
AcDbLine
 10
167.65015832950979
 20
-482.22038012379147
 30
0.0
 11
167.65015832950979
 21
-403.78146354632196
 31
0.0
  0
LINE
  5
B9
100
AcDbEntity
  8
0
370
              -2
390
0
  6
Continuous
 62
               0
100
AcDbLine
 10
217.65015832950979
 20
-478.78146354632196
 30
0.0
 11
217.65015832950979
 21
-403.78146354632196
 31
0.0
  0
LINE
  5
BA
100
AcDbEntity
  8
0
370
              -2
390
0
  6
Continuous
 62
               0
100
AcDbLine
 10
167.65015832950979
 20
-403.78146354632196
 30
0.0
 11
217.65015832950979
 21
-403.78146354632196
 31
0.0
  0
CIRCLE
  5
BB
102
{ACAD_REACTORS
330
BC
102
}
100
AcDbEntity
  8
0
370
              -2
390
0
  6
Continuous
 62
               0
100
AcDbCircle
 10
167.65015832950979
 20
-403.78146354632196
 30
0.0
 40
4.99969482421875
  0
HATCH
  5
BC
100
AcDbEntity
  8
0
370
              -2
390
0
  6
Continuous
 62
               0
100
AcDbHatch
 10
0.0
 20
0.0
 30
0.0
210
0.0
220
0.0
230
1.0
  2
SOLID
 70
               1
 71
               1
 91
        1
 92
        1
 93
        1
 72
               2
 10
167.65015832950979
 20
-403.78146354632196
 40
4.99969482421875
 50
0.0
 51
360.0
 73
               0
 97
        1
330
BB
 75
               0
 76
               1
 98
        1
 10
0.0
 20
0.0
  0
CIRCLE
  5
BD
102
{ACAD_REACTORS
330
BE
102
}
100
AcDbEntity
  8
0
370
              -2
390
0
  6
Continuous
 62
               0
100
AcDbCircle
 10
217.65015832950979
 20
-403.78146354632196
 30
0.0
 40
4.99969482421875
  0
HATCH
  5
BE
100
AcDbEntity
  8
0
370
              -2
390
0
  6
Continuous
 62
               0
100
AcDbHatch
 10
0.0
 20
0.0
 30
0.0
210
0.0
220
0.0
230
1.0
  2
SOLID
 70
               1
 71
               1
 91
        1
 92
        1
 93
        1
 72
               2
 10
217.65015832950979
 20
-403.78146354632196
 40
4.99969482421875
 50
0.0
 51
360.0
 73
               0
 97
        1
330
BD
 75
               0
 76
               1
 98
        1
 10
0.0
 20
0.0
  0
MTEXT
  5
BF
100
AcDbEntity
  8
0
390
0
 62
               0
100
AcDbMText
 10
176.77515832950979
 20
-369.90384635882197
 30
0.0
 40
24.432617187500004
 41
0.0
 71
               1
 72
               1
  1
50
  7
ＭＳ ゴシック
 73
               1
 44
0.7828267384257843
  0
POINT
  5
C0
100
AcDbEntity
  8
Defpoints
370
               0
390
0
 62
               0
100
AcDbPoint
 10
217.65015832950979
 20
-503.78146354632196
 30
0.0
  0
POINT
  5
C1
100
AcDbEntity
  8
Defpoints
370
               0
390
0
 62
               0
100
AcDbPoint
 10
167.65015832950979
 20
-507.22038012379147
 30
0.0
  0
POINT
  5
C2
100
AcDbEntity
  8
Defpoints
370
               0
390
0
 62
               0
100
AcDbPoint
 10
167.65015832950979
 20
-403.78146354632196
 30
0.0
  0
ENDBLK
  5
C3
100
AcDbEntity
  8
notes
390
0
100
AcDbBlockEnd
  0
BLOCK
  5
C4
100
AcDbEntity
  8
notes
390
0
100
AcDbBlockBegin
  2
*D11
 70
               1
 10
0.0
 20
0.0
 30
0.0
  3
*D11
  1

  0
LINE
  5
C5
100
AcDbEntity
  8
0
370
              -2
390
0
  6
Continuous
 62
               0
100
AcDbLine
 10
589.27074442075718
 20
-503.78146354632196
 30
0.0
 11
667.7702113538046
 21
-503.78146354632196
 31
0.0
  0
LINE
  5
C6
100
AcDbEntity
  8
0
370
              -2
390
0
  6
Continuous
 62
               0
100
AcDbLine
 10
589.27074442075718
 20
-511.78146354632207
 30
0.0
 11
667.7702113538046
 21
-511.78146354632207
 31
0.0
  0
LINE
  5
C7
100
AcDbEntity
  8
0
370
              -2
390
0
  6
Continuous
 62
               0
100
AcDbLine
 10
667.7702113538046
 20
-503.78146354632196
 30
0.0
 11
667.7702113538046
 21
-465.8076356385223
 31
0.0
  0
LINE
  5
C8
100
AcDbEntity
  8
0
370
              -2
390
0
  6
Continuous
 62
               0
100
AcDbLine
 10
667.7702113538046
 20
-503.78146354632196
 30
0.0
 11
667.7702113538046
 21
-511.78146354632207
 31
0.0
  0
CIRCLE
  5
C9
102
{ACAD_REACTORS
330
CA
102
}
100
AcDbEntity
  8
0
370
              -2
390
0
  6
Continuous
 62
               0
100
AcDbCircle
 10
667.7702113538046
 20
-503.78146354632196
 30
0.0
 40
4.99969482421875
  0
HATCH
  5
CA
100
AcDbEntity
  8
0
370
              -2
390
0
  6
Continuous
 62
               0
100
AcDbHatch
 10
0.0
 20
0.0
 30
0.0
210
0.0
220
0.0
230
1.0
  2
SOLID
 70
               1
 71
               1
 91
        1
 92
        1
 93
        1
 72
               2
 10
667.7702113538046
 20
-503.78146354632196
 40
4.99969482421875
 50
0.0
 51
360.0
 73
               0
 97
        1
330
C9
 75
               0
 76
               1
 98
        1
 10
0.0
 20
0.0
  0
CIRCLE
  5
CB
102
{ACAD_REACTORS
330
CC
102
}
100
AcDbEntity
  8
0
370
              -2
390
0
  6
Continuous
 62
               0
100
AcDbCircle
 10
667.7702113538046
 20
-511.78146354632207
 30
0.0
 40
4.99969482421875
  0
HATCH
  5
CC
100
AcDbEntity
  8
0
370
              -2
390
0
  6
Continuous
 62
               0
100
AcDbHatch
 10
0.0
 20
0.0
 30
0.0
210
0.0
220
0.0
230
1.0
  2
SOLID
 70
               1
 71
               1
 91
        1
 92
        1
 93
        1
 72
               2
 10
667.7702113538046
 20
-511.78146354632207
 40
4.99969482421875
 50
0.0
 51
360.0
 73
               0
 97
        1
330
CB
 75
               0
 76
               1
 98
        1
 10
0.0
 20
0.0
  0
MTEXT
  5
CD
100
AcDbEntity
  8
0
390
0
 62
               0
100
AcDbMText
 10
633.89259416630455
 20
-481.6826356385223
 30
0.0
 40
24.432617187500004
 41
0.0
 71
               1
 72
               1
  1
8
  7
ＭＳ ゴシック
 11
0.0
 21
1.0
 31
0.0
 73
               1
 44
0.7828267384257843
  0
POINT
  5
CE
100
AcDbEntity
  8
Defpoints
370
               0
390
0
 62
               0
100
AcDbPoint
 10
564.27074442075718
 20
-511.78146354632207
 30
0.0
  0
POINT
  5
CF
100
AcDbEntity
  8
Defpoints
370
               0
390
0
 62
               0
100
AcDbPoint
 10
564.27074442075718
 20
-503.78146354632196
 30
0.0
  0
POINT
  5
D0
100
AcDbEntity
  8
Defpoints
370
               0
390
0
 62
               0
100
AcDbPoint
 10
667.7702113538046
 20
-503.78146354632196
 30
0.0
  0
ENDBLK
  5
D1
100
AcDbEntity
  8
notes
390
0
100
AcDbBlockEnd
  0
BLOCK
  5
D2
100
AcDbEntity
  8
notes
390
0
100
AcDbBlockBegin
  2
*D12
 70
               1
 10
0.0
 20
0.0
 30
0.0
  3
*D12
  1

  0
LINE
  5
D3
100
AcDbEntity
  8
0
370
              -2
390
0
  6
Continuous
 62
               0
100
AcDbLine
 10
430.21018484165728
 20
-503.78146354632196
 30
0.0
 11
409.10819779228984
 21
-503.78146354632196
 31
0.0
  0
LINE
  5
D4
100
AcDbEntity
  8
0
370
              -2
390
0
  6
Continuous
 62
               0
100
AcDbLine
 10
430.21018484165728
 20
-609.78146354632236
 30
0.0
 11
409.10819779228984
 21
-609.78146354632236
 31
0.0
  0
LINE
  5
D5
100
AcDbEntity
  8
0
370
              -2
390
0
  6
Continuous
 62
               0
100
AcDbLine
 10
409.10819779228984
 20
-503.78146354632196
 30
0.0
 11
409.10819779228984
 21
-348.80447649695452
 31
0.0
  0
LINE
  5
D6
100
AcDbEntity
  8
0
370
              -2
390
0
  6
Continuous
 62
               0
100
AcDbLine
 10
409.10819779228984
 20
-503.78146354632196
 30
0.0
 11
409.10819779228984
 21
-609.78146354632236
 31
0.0
  0
CIRCLE
  5
D7
102
{ACAD_REACTORS
330
D8
102
}
100
AcDbEntity
  8
0
370
              -2
390
0
  6
Continuous
 62
               0
100
AcDbCircle
 10
409.10819779228984
 20
-503.78146354632196
 30
0.0
 40
4.99969482421875
  0
HATCH
  5
D8
100
AcDbEntity
  8
0
370
              -2
390
0
  6
Continuous
 62
               0
100
AcDbHatch
 10
0.0
 20
0.0
 30
0.0
210
0.0
220
0.0
230
1.0
  2
SOLID
 70
               1
 71
               1
 91
        1
 92
        1
 93
        1
 72
               2
 10
409.10819779228984
 20
-503.78146354632196
 40
4.99969482421875
 50
0.0
 51
360.0
 73
               0
 97
        1
330
D7
 75
               0
 76
               1
 98
        1
 10
0.0
 20
0.0
  0
CIRCLE
  5
D9
102
{ACAD_REACTORS
330
DA
102
}
100
AcDbEntity
  8
0
370
              -2
390
0
  6
Continuous
 62
               0
100
AcDbCircle
 10
409.10819779228984
 20
-609.78146354632236
 30
0.0
 40
4.99969482421875
  0
HATCH
  5
DA
100
AcDbEntity
  8
0
370
              -2
390
0
  6
Continuous
 62
               0
100
AcDbHatch
 10
0.0
 20
0.0
 30
0.0
210
0.0
220
0.0
230
1.0
  2
SOLID
 70
               1
 71
               1
 91
        1
 92
        1
 93
        1
 72
               2
 10
409.10819779228984
 20
-609.78146354632236
 40
4.99969482421875
 50
0.0
 51
360.0
 73
               0
 97
        1
330
D9
 75
               0
 76
               1
 98
        1
 10
0.0
 20
0.0
  0
MTEXT
  5
DB
100
AcDbEntity
  8
0
390
0
 62
               0
100
AcDbMText
 10
375.23058060478985
 20
-491.67947649695446
 30
0.0
 40
24.432617187500004
 41
0.0
 71
               1
 72
               1
  1
106(深さ)
  7
ＭＳ ゴシック
 11
0.0
 21
1.0
 31
0.0
 73
               1
 44
0.7828267384257843
  0
POINT
  5
DC
100
AcDbEntity
  8
Defpoints
370
               0
390
0
 62
               0
100
AcDbPoint
 10
405.21018484165728
 20
-609.78146354632236
 30
0.0
  0
POINT
  5
DD
100
AcDbEntity
  8
Defpoints
370
               0
390
0
 62
               0
100
AcDbPoint
 10
405.21018484165728
 20
-503.78146354632196
 30
0.0
  0
POINT
  5
DE
100
AcDbEntity
  8
Defpoints
370
               0
390
0
 62
               0
100
AcDbPoint
 10
409.10819779228984
 20
-503.78146354632196
 30
0.0
  0
ENDBLK
  5
DF
100
AcDbEntity
  8
notes
390
0
100
AcDbBlockEnd
  0
BLOCK
  5
E0
100
AcDbEntity
  8
notes
390
0
100
AcDbBlockBegin
  2
*D13
 70
               1
 10
0.0
 20
0.0
 30
0.0
  3
*D13
  1

  0
LINE
  5
E1
100
AcDbEntity
  8
0
370
              -2
390
0
  6
Continuous
 62
               0
100
AcDbLine
 10
-389.36930148263457
 20
314.3570094003091
 30
0.0
 11
-139.36930148263457
 21
314.3570094003091
 31
0.0
  0
LINE
  5
E2
100
AcDbEntity
  8
0
370
              -2
390
0
  6
Continuous
 62
               0
100
AcDbLine
 10
-389.36930148263457
 20
714.35700940030847
 30
0.0
 11
-139.36930148263457
 21
714.35700940030847
 31
0.0
  0
LINE
  5
E3
100
AcDbEntity
  8
0
370
              -2
390
0
  6
Continuous
 62
               0
100
AcDbLine
 10
-139.36930148263457
 20
314.3570094003091
 30
0.0
 11
-139.36930148263457
 21
714.35700940030847
 31
0.0
  0
CIRCLE
  5
E4
102
{ACAD_REACTORS
330
E5
102
}
100
AcDbEntity
  8
0
370
              -2
390
0
  6
Continuous
 62
               0
100
AcDbCircle
 10
-139.36930148263457
 20
314.3570094003091
 30
0.0
 40
4.99969482421875
  0
HATCH
  5
E5
100
AcDbEntity
  8
0
370
              -2
390
0
  6
Continuous
 62
               0
100
AcDbHatch
 10
0.0
 20
0.0
 30
0.0
210
0.0
220
0.0
230
1.0
  2
SOLID
 70
               1
 71
               1
 91
        1
 92
        1
 93
        1
 72
               2
 10
-139.36930148263457
 20
314.3570094003091
 40
4.99969482421875
 50
0.0
 51
360.0
 73
               0
 97
        1
330
E4
 75
               0
 76
               1
 98
        1
 10
0.0
 20
0.0
  0
CIRCLE
  5
E6
102
{ACAD_REACTORS
330
E7
102
}
100
AcDbEntity
  8
0
370
              -2
390
0
  6
Continuous
 62
               0
100
AcDbCircle
 10
-139.36930148263457
 20
714.35700940030847
 30
0.0
 40
4.99969482421875
  0
HATCH
  5
E7
100
AcDbEntity
  8
0
370
              -2
390
0
  6
Continuous
 62
               0
100
AcDbHatch
 10
0.0
 20
0.0
 30
0.0
210
0.0
220
0.0
230
1.0
  2
SOLID
 70
               1
 71
               1
 91
        1
 92
        1
 93
        1
 72
               2
 10
-139.36930148263457
 20
714.35700940030847
 40
4.99969482421875
 50
0.0
 51
360.0
 73
               0
 97
        1
330
E6
 75
               0
 76
               1
 98
        1
 10
0.0
 20
0.0
  0
MTEXT
  5
E8
100
AcDbEntity
  8
0
390
0
 62
               0
100
AcDbMText
 10
-173.24691867013456
 20
490.54450771813322
 30
0.0
 40
24.432617187500004
 41
0.0
 71
               1
 72
               1
  1
400
  7
ＭＳ ゴシック
 11
0.0
 21
1.0
 31
0.0
 73
               1
 44
0.7828267384257843
  0
POINT
  5
E9
100
AcDbEntity
  8
Defpoints
370
               0
390
0
 62
               0
100
AcDbPoint
 10
-414.36930148263457
 20
714.35700940030847
 30
0.0
  0
POINT
  5
EA
100
AcDbEntity
  8
Defpoints
370
               0
390
0
 62
               0
100
AcDbPoint
 10
-414.36930148263457
 20
314.3570094003091
 30
0.0
  0
POINT
  5
EB
100
AcDbEntity
  8
Defpoints
370
               0
390
0
 62
               0
100
AcDbPoint
 10
-139.36930148263457
 20
314.3570094003091
 30
0.0
  0
ENDBLK
  5
EC
100
AcDbEntity
  8
notes
390
0
100
AcDbBlockEnd
  0
BLOCK
  5
ED
100
AcDbEntity
  8
notes
390
0
100
AcDbBlockBegin
  2
*D14
 70
               1
 10
0.0
 20
0.0
 30
0.0
  3
*D14
  1

  0
LINE
  5
EE
100
AcDbEntity
  8
0
370
              -2
390
0
  6
Continuous
 62
               0
100
AcDbLine
 10
-217.80874190353455
 20
-503.78146354632196
 30
0.0
 11
-139.36930148263457
 21
-503.78146354632196
 31
0.0
  0
LINE
  5
EF
100
AcDbEntity
  8
0
370
              -2
390
0
  6
Continuous
 62
               0
100
AcDbLine
 10
-379.37991274949241
 20
-656.78146354632236
 30
0.0
 11
-139.36930148263457
 21
-656.78146354632236
 31
0.0
  0
LINE
  5
F0
100
AcDbEntity
  8
0
370
              -2
390
0
  6
Continuous
 62
               0
100
AcDbLine
 10
-139.36930148263457
 20
-503.78146354632196
 30
0.0
 11
-139.36930148263457
 21
-656.78146354632236
 31
0.0
  0
CIRCLE
  5
F1
102
{ACAD_REACTORS
330
F2
102
}
100
AcDbEntity
  8
0
370
              -2
390
0
  6
Continuous
 62
               0
100
AcDbCircle
 10
-139.36930148263457
 20
-503.78146354632196
 30
0.0
 40
4.99969482421875
  0
HATCH
  5
F2
100
AcDbEntity
  8
0
370
              -2
390
0
  6
Continuous
 62
               0
100
AcDbHatch
 10
0.0
 20
0.0
 30
0.0
210
0.0
220
0.0
230
1.0
  2
SOLID
 70
               1
 71
               1
 91
        1
 92
        1
 93
        1
 72
               2
 10
-139.36930148263457
 20
-503.78146354632196
 40
4.99969482421875
 50
0.0
 51
360.0
 73
               0
 97
        1
330
F1
 75
               0
 76
               1
 98
        1
 10
0.0
 20
0.0
  0
CIRCLE
  5
F3
102
{ACAD_REACTORS
330
F4
102
}
100
AcDbEntity
  8
0
370
              -2
390
0
  6
Continuous
 62
               0
100
AcDbCircle
 10
-139.36930148263457
 20
-656.78146354632236
 30
0.0
 40
4.99969482421875
  0
HATCH
  5
F4
100
AcDbEntity
  8
0
370
              -2
390
0
  6
Continuous
 62
               0
100
AcDbHatch
 10
0.0
 20
0.0
 30
0.0
210
0.0
220
0.0
230
1.0
  2
SOLID
 70
               1
 71
               1
 91
        1
 92
        1
 93
        1
 72
               2
 10
-139.36930148263457
 20
-656.78146354632236
 40
4.99969482421875
 50
0.0
 51
360.0
 73
               0
 97
        1
330
F3
 75
               0
 76
               1
 98
        1
 10
0.0
 20
0.0
  0
MTEXT
  5
F5
100
AcDbEntity
  8
0
390
0
 62
               0
100
AcDbMText
 10
-173.24691867013456
 20
-604.09396522849761
 30
0.0
 40
24.432617187500004
 41
0.0
 71
               1
 72
               1
  1
153
  7
ＭＳ ゴシック
 11
0.0
 21
1.0
 31
0.0
 73
               1
 44
0.7828267384257843
  0
POINT
  5
F6
100
AcDbEntity
  8
Defpoints
370
               0
390
0
 62
               0
100
AcDbPoint
 10
-404.37991274949241
 20
-656.78146354632236
 30
0.0
  0
POINT
  5
F7
100
AcDbEntity
  8
Defpoints
370
               0
390
0
 62
               0
100
AcDbPoint
 10
-242.80874190353455
 20
-503.78146354632196
 30
0.0
  0
POINT
  5
F8
100
AcDbEntity
  8
Defpoints
370
               0
390
0
 62
               0
100
AcDbPoint
 10
-139.36930148263457
 20
-503.78146354632196
 30
0.0
  0
ENDBLK
  5
F9
100
AcDbEntity
  8
notes
390
0
100
AcDbBlockEnd
  0
BLOCK
  5
FA
100
AcDbEntity
  8
notes
390
0
100
AcDbBlockBegin
  2
*D15
 70
               1
 10
0.0
 20
0.0
 30
0.0
  3
*D15
  1

  0
LINE
  5
FB
100
AcDbEntity
  8
0
370
              -2
390
0
  6
Continuous
 62
               0
100
AcDbLine
 10
-404.37991274949241
 20
-681.78146354632236
 30
0.0
 11
-404.37991274949241
 21
-756.78146354632236
 31
0.0
  0
LINE
  5
FC
100
AcDbEntity
  8
0
370
              -2
390
0
  6
Continuous
 62
               0
100
AcDbLine
 10
-474.37991274949241
 20
-681.78146354632236
 30
0.0
 11
-474.37991274949241
 21
-756.78146354632236
 31
0.0
  0
LINE
  5
FD
100
AcDbEntity
  8
0
370
              -2
390
0
  6
Continuous
 62
               0
100
AcDbLine
 10
-404.37991274949241
 20
-756.78146354632236
 30
0.0
 11
-474.37991274949241
 21
-756.78146354632236
 31
0.0
  0
CIRCLE
  5
FE
102
{ACAD_REACTORS
330
FF
102
}
100
AcDbEntity
  8
0
370
              -2
390
0
  6
Continuous
 62
               0
100
AcDbCircle
 10
-404.37991274949241
 20
-756.78146354632236
 30
0.0
 40
4.99969482421875
  0
HATCH
  5
FF
100
AcDbEntity
  8
0
370
              -2
390
0
  6
Continuous
 62
               0
100
AcDbHatch
 10
0.0
 20
0.0
 30
0.0
210
0.0
220
0.0
230
1.0
  2
SOLID
 70
               1
 71
               1
 91
        1
 92
        1
 93
        1
 72
               2
 10
-404.37991274949241
 20
-756.78146354632236
 40
4.99969482421875
 50
0.0
 51
360.0
 73
               0
 97
        1
330
FE
 75
               0
 76
               1
 98
        1
 10
0.0
 20
0.0
  0
CIRCLE
  5
100
102
{ACAD_REACTORS
330
101
102
}
100
AcDbEntity
  8
0
370
              -2
390
0
  6
Continuous
 62
               0
100
AcDbCircle
 10
-474.37991274949241
 20
-756.78146354632236
 30
0.0
 40
4.99969482421875
  0
HATCH
  5
101
100
AcDbEntity
  8
0
370
              -2
390
0
  6
Continuous
 62
               0
100
AcDbHatch
 10
0.0
 20
0.0
 30
0.0
210
0.0
220
0.0
230
1.0
  2
SOLID
 70
               1
 71
               1
 91
        1
 92
        1
 93
        1
 72
               2
 10
-474.37991274949241
 20
-756.78146354632236
 40
4.99969482421875
 50
0.0
 51
360.0
 73
               0
 97
        1
330
100
 75
               0
 76
               1
 98
        1
 10
0.0
 20
0.0
  0
MTEXT
  5
102
100
AcDbEntity
  8
0
390
0
 62
               0
100
AcDbMText
 10
-455.25491274949241
 20
-722.90384635882242
 30
0.0
 40
24.432617187500004
 41
0.0
 71
               1
 72
               1
  1
70
  7
ＭＳ ゴシック
 73
               1
 44
0.7828267384257843
  0
POINT
  5
103
100
AcDbEntity
  8
Defpoints
370
               0
390
0
 62
               0
100
AcDbPoint
 10
-474.37991274949241
 20
-656.78146354632236
 30
0.0
  0
POINT
  5
104
100
AcDbEntity
  8
Defpoints
370
               0
390
0
 62
               0
100
AcDbPoint
 10
-404.37991274949241
 20
-656.78146354632236
 30
0.0
  0
POINT
  5
105
100
AcDbEntity
  8
Defpoints
370
               0
390
0
 62
               0
100
AcDbPoint
 10
-404.37991274949241
 20
-756.78146354632236
 30
0.0
  0
ENDBLK
  5
106
100
AcDbEntity
  8
notes
390
0
100
AcDbBlockEnd
  0
ENDSEC
  0
SECTION
  2
ENTITIES
  0
MTEXT
  5
107
100
AcDbEntity
  8
template
390
0
 62
               7
100
AcDbMText
 10
-967.99999999975921
 20
-1147.4176292337004
 30
0.0
 40
16.288411458333332
 41
0.0
 71
               1
 72
               1
  1
品名
  7
ＭＳ ゴシック
 73
               1
 44
0.7828267384257843
  0
MTEXT
  5
108
100
AcDbEntity
  8
template
390
0
 62
               7
100
AcDbMText
 10
-967.99999999975921
 20
-1232.4176292337004
 30
0.0
 40
16.288411458333332
 41
0.0
 71
               1
 72
               1
  1
仕様
  7
ＭＳ ゴシック
 73
               1
 44
0.7828267384257843
  0
MTEXT
  5
109
100
AcDbEntity
  8
template
390
0
 62
               7
100
AcDbMText
 10
-914.99999999975921
 20
-1176.0000901712006
 30
0.0
 40
24.432617187500004
 41
0.0
 71
               1
 72
               1
  1
手洗器 -ALAPE-
  7
ＭＳ ゴシック
 73
               1
 44
0.7828267384257843
  0
LINE
  5
10A
100
AcDbEntity
  8
template
370
               5
390
0
  6
Continuous
 62
               7
100
AcDbLine
 10
974.99999999975876
 20
-1224.0027073587005
 30
0.0
 11
-975.00000000024124
 21
-1224.0027073587005
 31
0.0
  0
LWPOLYLINE
  5
10B
100
AcDbEntity
  8
template
370
               5
390
0
  6
Continuous
 62
               7
100
AcDbPolyline
 90
        5
 70
             128
 10
975.00000000024124
 20
1405.9972926412995
 10
-974.99999999975921
 20
1405.9972926412995
 10
-974.99999999975921
 20
-1394.0027073587005
 10
975.00000000024124
 20
-1394.0027073587005
 10
975.00000000024124
 20
1405.9972926412995
  0
LINE
  5
10C
100
AcDbEntity
  8
template
370
               5
390
0
  6
Continuous
 62
               7
100
AcDbLine
 10
974.99999999975876
 20
-1139.0027073587005
 30
0.0
 11
-975.00000000024124
 21
-1139.0027073587005
 31
0.0
  0
LINE
  5
10D
100
AcDbEntity
  8
template
370
               5
390
0
  6
Continuous
 62
               7
100
AcDbLine
 10
975.00000000024124
 20
-1309.0027073587005
 30
0.0
 11
222.00000000024124
 21
-1309.0027073587005
 31
0.0
  0
MTEXT
  5
10E
100
AcDbEntity
  8
template
390
0
 62
               7
100
AcDbMText
 10
-974.99999999955594
 20
-1405.8565294155574
 30
0.0
 40
21.717881944444446
 41
0.0
 71
               1
 72
               1
  1
120413SH
  7
ＭＳ ゴシック
 73
               1
 44
0.7828267384257843
  0
MTEXT
  5
10F
100
AcDbEntity
  8
template
390
0
 62
               7
100
AcDbMText
 10
251.87140625250089
 20
-1338.9131018320081
 30
0.0
 40
24.432617187500004
 41
0.0
 71
               1
 72
               1
  1
大洋金物株式会社 ティーフォルム事業部
  7
ＭＳ ゴシック
 73
               1
 44
0.7828267384257843
  0
INSERT
  5
110
100
AcDbEntity
  8
template
390
0
 62
               7
100
AcDbBlockReference
  2
グループ
 10
0.0
 20
51.300000000000011
 30
0.0
  0
MTEXT
  5
111
100
AcDbEntity
  8
template
390
0
 62
               7
100
AcDbMText
 10
784.00000000049999
 20
-1261.0000901712006
 30
0.0
 40
24.432617187500004
 41
0.0
 71
               1
 72
               1
  1
1:10
  7
ＭＳ ゴシック
 73
               1
 44
0.7828267384257843
  0
MTEXT
  5
112
100
AcDbEntity
  8
template
390
0
 62
               7
100
AcDbMText
 10
731.00000000049999
 20
-1232.4176292337004
 30
0.0
 40
16.288411458333332
 41
0.0
 71
               1
 72
               1
  1
縮尺
  7
ＭＳ ゴシック
 73
               1
 44
0.7828267384257843
  0
LINE
  5
113
100
AcDbEntity
  8
template
370
               5
390
0
  6
Continuous
 62
               7
100
AcDbLine
 10
724.00000000049999
 20
-1309.0027073587005
 30
0.0
 11
724.00000000049999
 21
-1224.0027073587005
 31
0.0
  0
MTEXT
  5
114
100
AcDbEntity
  8
template
390
0
 62
               7
100
AcDbMText
 10
480.00000000049999
 20
-1232.4176292337004
 30
0.0
 40
16.288411458333332
 41
0.0
 71
               1
 72
               1
  1
容量
  7
ＭＳ ゴシック
 73
               1
 44
0.7828267384257843
  0
LINE
  5
115
100
AcDbEntity
  8
template
370
               5
390
0
  6
Continuous
 62
               7
100
AcDbLine
 10
473.00000000049999
 20
-1309.0027073587005
 30
0.0
 11
473.00000000049999
 21
-1224.0027073587005
 31
0.0
  0
MTEXT
  5
116
100
AcDbEntity
  8
template
390
0
 62
               7
100
AcDbMText
 10
229.00000000049999
 20
-1147.4176292337004
 30
0.0
 40
16.288411458333332
 41
0.0
 71
               1
 72
               1
  1
品番
  7
ＭＳ ゴシック
 73
               1
 44
0.7828267384257843
  0
MTEXT
  5
117
100
AcDbEntity
  8
template
390
0
 62
               7
100
AcDbMText
 10
229.00000000049999
 20
-1232.4176292337004
 30
0.0
 40
16.288411458333332
 41
0.0
 71
               1
 72
               1
  1
重量
  7
ＭＳ ゴシック
 73
               1
 44
0.7828267384257843
  0
MTEXT
  5
118
100
AcDbEntity
  8
template
390
0
 62
               7
100
AcDbMText
 10
282.00000000049999
 20
-1176.0000901712006
 30
0.0
 40
24.432617187500004
 41
0.0
 71
               1
 72
               1
  1
FAN70-0303
  7
ＭＳ ゴシック
 73
               1
 44
0.7828267384257843
  0
LINE
  5
119
100
AcDbEntity
  8
template
370
               5
390
0
  6
Continuous
 62
               7
100
AcDbLine
 10
222.00000000049999
 20
-1394.0027073587005
 30
0.0
 11
222.00000000049999
 21
-1139.0027073587005
 31
0.0
  0
MTEXT
  5
11A
100
AcDbEntity
  8
template
390
0
 62
               7
100
AcDbMText
 10
-914.99999999975921
 20
-1261.0000901712003
 30
0.0
 40
24.432617187500004
 41
0.0
 71
               1
 72
               1
  1
オーバーカウンター/オーバーフローなし/{\H0.9777x;\l型 紙付属/\P}鋼板ホーロー/ホワイト
  7
ＭＳ ゴシック
 73
               1
 44
1.1307497332816883
  0
DIMENSION
  5
11B
100
AcDbEntity
  8
template
370
               5
390
0
  6
Continuous
 62
               7
100
AcDbDimension
  2
*D2
 10
270.35395531032583
 20
668.71401880061717
 30
0.0
 11
588.16474883988326
 21
260.0
 31
0.0
 70
               3
 71
               5
 72
               1
 41
1.0
 42
0.0
  3
tfrom線あり
100
AcDbDiametricDimension
 15
465.08621919068952
 25
360.0000000000004
 35
0.0
 40
118.23240208464125
1001
ACAD
1000
DSTYLE
1002
{
1070
             289
1070
               0
1070
             342
1005
46
1070
             340
1005
32
1070
              75
1070
               1
1070
              76
1070
               1
1070
               3
1000

1070
             174
1070
               0
1070
             147
1040
5.0
1002
}
  0
MTEXT
  5
11C
100
AcDbEntity
  8
template
390
0
 62
               7
100
AcDbMText
 10
51.625
 20
134.75261718749999
 30
0.0
 40
24.432617187500004
 41
0.0
 71
               1
 72
               1
  1
※カウンターの切込は、商品に付属する型紙を\P　ご参照の上、加工を行ってください。
  7
ＭＳ ゴシック
 73
               1
 44
1.1742401076386764
  0
MTEXT
  5
11D
100
AcDbEntity
  8
template
390
0
 62
               7
100
AcDbMText
 10
-396.0
 20
-1034.8723828125001
 30
0.0
 40
24.432617187500004
 41
0.0
 71
               1
 72
               1
  1
 
  7
ＭＳ ゴシック
 73
               1
 44
0.7828267384257843
  0
LINE
  5
11E
100
AcDbEntity
  8
template
370
              15
390
0
  6
Continuous
 62
               7
100
AcDbLine
 10
370.22008725050762
 20
-618.0
 30
0.0
 11
440.22008725050762
 21
-618.0
 31
0.0
  0
LINE
  5
11F
100
AcDbEntity
  8
template
370
              15
390
0
  6
Continuous
 62
               7
100
AcDbLine
 10
-474.84814486610094
 20
-618.0
 30
0.0
 11
-404.84814486610094
 21
-618.0
 31
0.0
  0
MTEXT
  5
120
100
AcDbEntity
  8
template
390
0
 62
               7
100
AcDbMText
 10
290.00000000049999
 20
-1261.0000901712006
 30
0.0
 40
24.432617187500004
 41
0.0
 71
               1
 72
               1
  1
2.1kg
  7
ＭＳ ゴシック
 73
               1
 44
0.7828267384257843
  0
DIMENSION
  5
121
100
AcDbEntity
  8
notes
370
               5
390
0
  6
Continuous
 62
               7
100
AcDbDimension
  2
*D3
 10
-639.36930148263468
 20
814.3570094003087
 30
0.0
 11
-436.98117379423456
 21
819.3570094003087
 31
0.0
 70
             128
 71
               5
 72
               1
 41
1.0
 42
0.0
  3
tfrom線あり
100
AcDbAlignedDimension
 13
-239.36930148263457
 23
539.35700940030858
 33
0.0
 14
-639.36930148263468
 24
539.35700940030858
 34
0.0
100
AcDbRotatedDimension
1001
ACAD
1000
DSTYLE
1002
{
1070
             271
1070
               2
1070
             279
1070
               2
1070
             340
1005
32
1070
             147
1040
5.0
1002
}
  0
DIMENSION
  5
122
100
AcDbEntity
  8
notes
370
               5
390
0
  6
Continuous
 62
               7
100
AcDbDimension
  2
*D4
 10
-449.62551982504687
 20
649.56478220786744
 30
0.0
 11
-328.77991274949227
 21
737.32052350304502
 31
0.0
 70
               3
 71
               5
 72
               1
 41
1.0
 42
0.0
  3
tfrom線あり
100
AcDbDiametricDimension
 15
-429.11308314022216
 25
679.14923659274928
 35
0.0
 40
70.786038556819946
1001
ACAD
1000
DSTYLE
1002
{
1070
             289
1070
               0
1070
             342
1005
46
1070
             340
1005
32
1070
              75
1070
               1
1070
              76
1070
               1
1070
               3
1000

1070
             174
1070
               0
1070
             147
1040
5.0
1002
}
  0
DIMENSION
  5
123
100
AcDbEntity
  8
notes
370
               5
390
0
  6
Continuous
 62
               7
100
AcDbDimension
  2
*D5
 10
-739.36930148263457
 20
714.35700940030847
 30
0.0
 11
-739.36930148263457
 21
664.35536738014594
 31
0.0
 71
               5
 72
               1
 41
1.0
 42
0.0
  3
tfrom線あり
100
AcDbAlignedDimension
 13
-614.22156489659812
 23
614.3537253599834
 33
0.0
 14
-466.01079601501306
 24
714.35700940030847
 34
0.0
 50
90.0
100
AcDbRotatedDimension
1001
ACAD
1000
DSTYLE
1002
{
1070
             279
1070
               2
1070
             340
1005
32
1070
             147
1040
5.0
1002
}
  0
DIMENSION
  5
124
100
AcDbEntity
  8
notes
370
               5
390
0
  6
Continuous
 62
               7
100
AcDbDimension
  2
*D6
 10
-739.36930148263468
 20
614.35700940030847
 30
0.0
 11
-739.36930148263468
 21
476.8570094003087
 31
0.0
 71
               5
 72
               1
 41
1.0
 42
0.0
  3
tfrom線あり
100
AcDbAlignedDimension
 13
-536.19388513781985
 23
339.35700940030898
 33
0.0
 14
-612.57438223952238
 24
614.35700940030847
 34
0.0
 50
90.0
100
AcDbRotatedDimension
1001
ACAD
1000
DSTYLE
1002
{
1070
             279
1070
               2
1070
             340
1005
32
1070
             147
1040
5.0
1002
}
  0
DIMENSION
  5
125
100
AcDbEntity
  8
notes
370
               5
390
0
  6
Continuous
 62
               7
100
AcDbDimension
  2
*D7
 10
-576.86930148263468
 20
214.3570094003091
 30
0.0
 11
-439.36930148263457
 21
214.3570094003091
 31
0.0
 71
               5
 72
               1
 41
1.0
 42
0.0
  3
tfrom線あり
100
AcDbAlignedDimension
 13
-301.86930148263451
 23
369.12013391753095
 33
0.0
 14
-576.86930148263468
 24
369.12013391753095
 34
0.0
100
AcDbRotatedDimension
1001
ACAD
1000
DSTYLE
1002
{
1070
             279
1070
               2
1070
             340
1005
32
1070
             147
1040
5.0
1002
}
  0
DIMENSION
  5
126
100
AcDbEntity
  8
notes
370
               5
390
0
  6
Continuous
 62
               7
100
AcDbDimension
  2
*D8
 10
-739.36930148263468
 20
339.35700940030898
 30
0.0
 11
-739.36930148263468
 21
326.85700940030898
 31
0.0
 71
               5
 72
               1
 41
1.0
 42
0.0
  3
tfrom線あり
100
AcDbAlignedDimension
 13
-464.36930148263446
 23
314.35700940030898
 33
0.0
 14
-536.19388513781985
 24
339.35700940030898
 34
0.0
 50
90.0
100
AcDbRotatedDimension
1001
ACAD
1000
DSTYLE
1002
{
1070
             279
1070
               2
1070
             340
1005
32
1070
             147
1040
5.0
1002
}
  0
DIMENSION
  5
127
100
AcDbEntity
  8
notes
370
               5
390
0
  6
Continuous
 62
               7
100
AcDbDimension
  2
*D9
 10
405.2101847600573
 20
-756.78146354632236
 30
0.0
 11
286.4601847600573
 21
-756.78146354632236
 31
0.0
 71
               5
 72
               1
 41
1.0
 42
0.0
  3
tfrom線あり
100
AcDbAlignedDimension
 13
167.7101847600573
 23
-511.78146354632207
 33
0.0
 14
405.2101847600573
 24
-613.18146354632245
 34
0.0
100
AcDbRotatedDimension
1001
ACAD
1000
DSTYLE
1002
{
1070
             279
1070
               2
1070
             340
1005
32
1070
             147
1040
5.0
1002
}
  0
DIMENSION
  5
128
100
AcDbEntity
  8
notes
370
               5
390
0
  6
Continuous
 62
               7
100
AcDbDimension
  2
*D10
 10
167.65015832950979
 20
-403.78146354632196
 30
0.0
 11
192.65015832950979
 21
-403.78146354632196
 31
0.0
 71
               5
 72
               1
 41
1.0
 42
0.0
  3
tfrom線あり
100
AcDbAlignedDimension
 13
217.65015832950979
 23
-503.78146354632196
 33
0.0
 14
167.65015832950979
 24
-507.22038012379147
 34
0.0
100
AcDbRotatedDimension
1001
ACAD
1000
DSTYLE
1002
{
1070
             279
1070
               2
1070
             340
1005
32
1070
             147
1040
5.0
1002
}
  0
DIMENSION
  5
129
100
AcDbEntity
  8
notes
370
               5
390
0
  6
Continuous
 62
               7
100
AcDbDimension
  2
*D11
 10
667.7702113538046
 20
-503.78146354632196
 30
0.0
 11
672.7702113538046
 21
-481.6826356385223
 31
0.0
 70
             128
 71
               5
 72
               1
 41
1.0
 42
0.0
  3
tfrom線あり
100
AcDbAlignedDimension
 13
564.27074442075718
 23
-511.78146354632207
 33
0.0
 14
564.27074442075718
 24
-503.78146354632196
 34
0.0
 50
90.0
100
AcDbRotatedDimension
1001
ACAD
1000
DSTYLE
1002
{
1070
             279
1070
               2
1070
             340
1005
32
1070
             174
1070
               0
1070
             147
1040
5.0
1002
}
  0
DIMENSION
  5
12A
100
AcDbEntity
  8
notes
370
               5
390
0
  6
Continuous
 62
               7
100
AcDbDimension
  2
*D12
 10
409.10819779228984
 20
-503.78146354632196
 30
0.0
 11
414.10819779228984
 21
-491.67947649695446
 31
0.0
 70
             128
 71
               5
 72
               1
 41
1.0
 42
0.0
  3
tfrom線あり
100
AcDbAlignedDimension
 13
405.21018484165728
 23
-609.78146354632236
 33
0.0
 14
405.21018484165728
 24
-503.78146354632196
 34
0.0
 50
90.0
100
AcDbRotatedDimension
1001
ACAD
1000
DSTYLE
1002
{
1070
             279
1070
               2
1070
             340
1005
32
1070
               3
1000
<>(深さ)
1070
             174
1070
               0
1070
             147
1040
5.0
1002
}
  0
MTEXT
  5
12B
100
AcDbEntity
  8
notes
390
0
 62
               7
100
AcDbMText
 10
224.57886496848599
 20
883.69666232327427
 30
0.0
 40
24.432617187500004
 41
0.0
 71
               1
 72
               1
  1
カウンター切込寸法
  7
ＭＳ ゴシック
 73
               1
 44
0.7828267384257843
  0
DIMENSION
  5
12C
100
AcDbEntity
  8
notes
370
               5
390
0
  6
Continuous
 62
               7
100
AcDbDimension
  2
*D13
 10
-139.36930148263457
 20
314.3570094003091
 30
0.0
 11
-139.36930148263457
 21
514.3570094003087
 31
0.0
 71
               5
 72
               1
 41
1.0
 42
0.0
  3
tfrom線あり
100
AcDbAlignedDimension
 13
-414.36930148263457
 23
714.35700940030847
 33
0.0
 14
-414.36930148263457
 24
314.3570094003091
 34
0.0
 50
90.0
100
AcDbRotatedDimension
1001
ACAD
1000
DSTYLE
1002
{
1070
             279
1070
               2
1070
             340
1005
32
1070
             147
1040
5.0
1002
}
  0
DIMENSION
  5
12D
100
AcDbEntity
  8
notes
370
               5
390
0
  6
Continuous
 62
               7
100
AcDbDimension
  2
*D14
 10
-139.36930148263457
 20
-503.78146354632196
 30
0.0
 11
-139.36930148263457
 21
-580.28146354632213
 31
0.0
 71
               5
 72
               1
 41
1.0
 42
0.0
  3
tfrom線あり
100
AcDbAlignedDimension
 13
-404.37991274949241
 23
-656.78146354632236
 33
0.0
 14
-242.80874190353455
 24
-503.78146354632196
 34
0.0
 50
90.0
100
AcDbRotatedDimension
1001
ACAD
1000
DSTYLE
1002
{
1070
             279
1070
               2
1070
             340
1005
32
1070
             147
1040
5.0
1002
}
  0
DIMENSION
  5
12E
100
AcDbEntity
  8
notes
370
               5
390
0
  6
Continuous
 62
               7
100
AcDbDimension
  2
*D15
 10
-404.37991274949241
 20
-756.78146354632236
 30
0.0
 11
-439.37991274949241
 21
-756.78146354632236
 31
0.0
 71
               5
 72
               1
 41
1.0
 42
0.0
  3
tfrom線あり
100
AcDbAlignedDimension
 13
-474.37991274949241
 23
-656.78146354632236
 33
0.0
 14
-404.37991274949241
 24
-656.78146354632236
 34
0.0
100
AcDbRotatedDimension
1001
ACAD
1000
DSTYLE
1002
{
1070
             279
1070
               2
1070
             340
1005
32
1070
             147
1040
5.0
1002
}
  0
ARC
  5
12F
100
AcDbEntity
  8
FAN70-0303
370
              15
390
0
  6
Continuous
 62
               7
100
AcDbCircle
 10
-638.7457364573346
 20
-511.03146354632207
 30
0.0
 40
0.7500000000000097
100
AcDbArc
 50
178.9999999995031
 51
270.0
  0
ARC
  5
130
100
AcDbEntity
  8
FAN70-0303
370
              15
390
0
  6
Continuous
 62
               7
100
AcDbCircle
 10
-239.68520544012222
 20
-511.01341193200102
 30
0.0
 40
0.75
100
AcDbArc
 50
270.0
 51
1.0000000004968683
  0
LINE
  5
131
100
AcDbEntity
  8
FAN70-0303
370
              15
390
0
  6
Continuous
 62
               7
100
AcDbLine
 10
-238.93531966872229
 20
-511.00032262710118
 30
0.0
 11
-239.00161390262224
 21
-507.20232850940107
 31
0.0
  0
LINE
  5
132
100
AcDbEntity
  8
FAN70-0303
370
              15
390
0
  6
Continuous
 62
               7
100
AcDbLine
 10
-639.42932799473465
 20
-507.22038012372201
 30
0.0
 11
-639.4956222286346
 21
-511.01837424142224
 31
0.0
  0
ARC
  5
133
100
AcDbEntity
  8
FAN70-0303
370
              15
390
0
  6
Continuous
 62
               7
100
AcDbCircle
 10
-242.50108083572223
 20
-507.26341193200102
 30
0.0
 40
3.4999999999999889
100
AcDbArc
 50
0.9999999999999172
 51
90.0
  0
ARC
  5
134
100
AcDbEntity
  8
FAN70-0303
370
              15
390
0
  6
Continuous
 62
               7
100
AcDbCircle
 10
-635.92986106173464
 20
-507.28146354632196
 30
0.0
 40
3.5
100
AcDbArc
 50
90.0
 51
179.00000000000011
  0
ARC
  5
135
100
AcDbEntity
  8
FAN70-0303
370
              15
390
0
  6
Continuous
 62
               7
100
AcDbCircle
 10
-439.36930148263451
 20
-465.64467109342178
 30
0.0
 40
144.13679245280068
100
AcDbArc
 50
287.60790396039988
 51
341.33161267639986
  0
ARC
  5
136
100
AcDbEntity
  8
FAN70-0303
370
              15
390
0
  6
Continuous
 62
               7
100
AcDbCircle
 10
-439.36930148263451
 20
-465.64467109342178
 30
0.0
 40
144.13679245280022
100
AcDbArc
 50
198.66838732360017
 51
252.39209603960006
  0
ARC
  5
137
100
AcDbEntity
  8
FAN70-0303
370
              15
390
0
  6
Continuous
 62
               7
100
AcDbCircle
 10
-467.84581116983452
 20
-555.37105567092249
 30
0.0
 40
50.000000000000071
100
AcDbArc
 50
252.39209603959995
 51
257.66893576380005
  0
ARC
  5
138
100
AcDbEntity
  8
FAN70-0303
370
              15
390
0
  6
Continuous
 62
               7
100
AcDbCircle
 10
-410.8927917954345
 20
-555.37105567092249
 30
0.0
 40
50.000000000000092
100
AcDbArc
 50
282.33106423620001
 51
287.60790396039988
  0
ARC
  5
139
100
AcDbEntity
  8
FAN70-0303
370
              15
390
0
  6
Continuous
 62
               7
100
AcDbCircle
 10
-398.3119673137345
 20
-612.92199793392251
 30
0.0
 40
8.9099999999999611
100
AcDbArc
 50
102.33106423619998
 51
127.30000000000022
  0
ARC
  5
13A
100
AcDbEntity
  8
FAN70-0303
370
              15
390
0
  6
Continuous
 62
               7
100
AcDbCircle
 10
-480.42663565143454
 20
-612.92199793392251
 30
0.0
 40
8.9099999999999699
100
AcDbArc
 50
52.699999999999775
 51
77.668935763800064
  0
LINE
  5
13B
100
AcDbEntity
  8
FAN70-0303
370
              15
390
0
  6
Continuous
 62
               7
100
AcDbLine
 10
-475.02727900513452
 20
-605.83432921952249
 30
0.0
 11
-467.23163889273451
 21
-611.77301554212249
 31
0.0
  0
LINE
  5
13C
100
AcDbEntity
  8
FAN70-0303
370
              15
390
0
  6
Continuous
 62
               7
100
AcDbLine
 10
-411.50696407253457
 20
-611.77301554212249
 30
0.0
 11
-403.71132396013456
 21
-605.83432921952249
 31
0.0
  0
ARC
  5
13D
100
AcDbEntity
  8
FAN70-0303
370
              15
390
0
  6
Continuous
 62
               7
100
AcDbCircle
 10
-415.36930148263451
 20
-607.18146354632245
 30
0.0
 40
6.0
100
AcDbArc
 50
270.0
 51
310.06999042470034
  0
ARC
  5
13E
100
AcDbEntity
  8
FAN70-0303
370
              15
390
0
  6
Continuous
 62
               7
100
AcDbCircle
 10
-463.36930148263451
 20
-607.18146354632245
 30
0.0
 40
5.9999999999999867
100
AcDbArc
 50
229.93000957529966
 51
270.0
  0
LINE
  5
13F
100
AcDbEntity
  8
FAN70-0303
370
              15
390
0
  6
Continuous
 62
               7
100
AcDbLine
 10
-239.68520544012222
 20
-511.76341193200102
 30
0.0
 11
-638.7457364573346
 21
-511.78146354632207
 31
0.0
  0
LINE
  5
140
100
AcDbEntity
  8
FAN70-0303
370
              15
390
0
  6
Continuous
 62
               7
100
AcDbLine
 10
-635.92986106173464
 20
-503.78146354632196
 30
0.0
 11
-242.80874190353455
 21
-503.78146354632196
 31
0.0
  0
LINE
  5
141
100
AcDbEntity
  8
FAN70-0303
370
              15
390
0
  6
Continuous
 62
               7
100
AcDbLine
 10
-411.50696407253457
 20
-611.77301554212249
 30
0.0
 11
-467.23163889273451
 21
-611.77301554212249
 31
0.0
  0
LINE
  5
142
100
AcDbEntity
  8
FAN70-0303
370
              15
390
0
  6
Continuous
 62
               7
100
AcDbLine
 10
-415.36930148263451
 20
-613.18146354632245
 30
0.0
 11
-463.36930148263451
 21
-613.18146354632245
 31
0.0
  0
CIRCLE
  5
143
100
AcDbEntity
  8
FAN70-0303
370
              15
390
0
  6
Continuous
 62
               7
100
AcDbCircle
 10
-439.36930148263451
 20
514.3570094003087
 30
0.0
 40
200.0
  0
CIRCLE
  5
144
100
AcDbEntity
  8
FAN70-0303
370
              15
390
0
  6
Continuous
 62
               7
100
AcDbCircle
 10
-439.36930148263451
 20
664.35700940030847
 30
0.0
 40
18.0
  0
CIRCLE
  5
145
100
AcDbEntity
  8
FAN70-0303
370
              15
390
0
  6
Continuous
 62
               7
100
AcDbCircle
 10
-439.36930148263451
 20
476.85700940030898
 30
0.0
 40
137.5
  0
CIRCLE
  5
146
100
AcDbEntity
  8
FAN70-0303
370
              15
390
0
  6
Continuous
 62
               7
100
AcDbCircle
 10
-439.36930148263451
 20
476.85700940030898
 30
0.0
 40
34.748994922099996
  0
CIRCLE
  5
147
100
AcDbEntity
  8
FAN70-0303
370
              15
390
0
  6
Continuous
 62
               7
100
AcDbCircle
 10
-439.36930148263451
 20
476.85700940030898
 30
0.0
 40
24.0
  0
LINE
  5
148
100
AcDbEntity
  8
FAN70-0303
370
              15
390
0
  6
Continuous
 62
               7
100
AcDbLine
 10
301.27974818305728
 20
-503.78146354632196
 30
0.0
 11
238.14432839895738
 21
-503.78146354632196
 31
0.0
  0
ARC
  5
149
100
AcDbEntity
  8
FAN70-0303
370
              15
390
0
  6
Continuous
 62
               7
100
AcDbCircle
 10
168.33374986695725
 20
-511.03146354632207
 30
0.0
 40
0.7500000000000097
100
AcDbArc
 50
178.9999999995031
 51
270.0
  0
ARC
  5
14A
100
AcDbEntity
  8
FAN70-0303
370
              15
390
0
  6
Continuous
 62
               7
100
AcDbCircle
 10
567.08661981635714
 20
-511.03146354632207
 30
0.0
 40
0.75
100
AcDbArc
 50
270.0
 51
1.0000000010008421
  0
LINE
  5
14B
100
AcDbEntity
  8
FAN70-0303
370
              15
390
0
  6
Continuous
 62
               7
100
AcDbLine
 10
567.8365055877573
 20
-511.01837424142224
 30
0.0
 11
567.77021135385712
 21
-507.22038012372201
 31
0.0
  0
LINE
  5
14C
100
AcDbEntity
  8
FAN70-0303
370
              15
390
0
  6
Continuous
 62
               7
100
AcDbLine
 10
167.65015832955731
 20
-507.22038012372201
 30
0.0
 11
167.58386409565736
 21
-511.01837424142224
 31
0.0
  0
ARC
  5
14D
100
AcDbEntity
  8
FAN70-0303
370
              15
390
0
  6
Continuous
 62
               7
100
AcDbCircle
 10
564.27074442075718
 20
-507.28146354632196
 30
0.0
 40
3.5000000000000457
100
AcDbArc
 50
0.9999999999999008
 51
90.0
  0
ARC
  5
14E
100
AcDbEntity
  8
FAN70-0303
370
              15
390
0
  6
Continuous
 62
               7
100
AcDbCircle
 10
171.14962526255721
 20
-507.28146354632196
 30
0.0
 40
3.5
100
AcDbArc
 50
90.0
 51
179.00000000000011
  0
ARC
  5
14F
100
AcDbEntity
  8
FAN70-0303
370
              15
390
0
  6
Continuous
 62
               7
100
AcDbCircle
 10
405.21018484165728
 20
-465.64467109342178
 30
0.0
 40
144.13679245280071
100
AcDbArc
 50
287.60790396039988
 51
341.33161267639986
  0
ARC
  5
150
100
AcDbEntity
  8
FAN70-0303
370
              15
390
0
  6
Continuous
 62
               7
100
AcDbCircle
 10
405.21018484165728
 20
-465.64467109342178
 30
0.0
 40
144.13679245280017
100
AcDbArc
 50
198.66838732360017
 51
252.39209603960006
  0
ARC
  5
151
100
AcDbEntity
  8
FAN70-0303
370
              15
390
0
  6
Continuous
 62
               7
100
AcDbCircle
 10
376.73367515445722
 20
-555.37105567092249
 30
0.0
 40
50.000000000000071
100
AcDbArc
 50
252.39209603959995
 51
257.66893576380005
  0
ARC
  5
152
100
AcDbEntity
  8
FAN70-0303
370
              15
390
0
  6
Continuous
 62
               7
100
AcDbCircle
 10
433.68669452885734
 20
-555.37105567092249
 30
0.0
 40
50.000000000000085
100
AcDbArc
 50
282.33106423620001
 51
287.60790396039988
  0
ARC
  5
153
100
AcDbEntity
  8
FAN70-0303
370
              15
390
0
  6
Continuous
 62
               7
100
AcDbCircle
 10
446.26751901055724
 20
-612.92199793392251
 30
0.0
 40
8.9099999999999717
100
AcDbArc
 50
102.33106423620032
 51
127.29999999999994
  0
ARC
  5
154
100
AcDbEntity
  8
FAN70-0303
370
              15
390
0
  6
Continuous
 62
               7
100
AcDbCircle
 10
364.15285067285737
 20
-612.92199793392251
 30
0.0
 40
8.9099999999999344
100
AcDbArc
 50
52.700000000000074
 51
77.668935763799681
  0
LINE
  5
155
100
AcDbEntity
  8
FAN70-0303
370
              15
390
0
  6
Continuous
 62
               7
100
AcDbLine
 10
369.55220731915728
 20
-605.83432921952249
 30
0.0
 11
377.34784743155734
 21
-611.77301554212249
 31
0.0
  0
LINE
  5
156
100
AcDbEntity
  8
FAN70-0303
370
              15
390
0
  6
Continuous
 62
               7
100
AcDbLine
 10
433.07252225175733
 20
-611.77301554212249
 30
0.0
 11
440.86816236415729
 21
-605.83432921952249
 31
0.0
  0
ARC
  5
157
100
AcDbEntity
  8
FAN70-0303
370
              15
390
0
  6
Continuous
 62
               7
100
AcDbCircle
 10
429.21018484165728
 20
-607.18146354632245
 30
0.0
 40
6.0
100
AcDbArc
 50
270.0
 51
310.06999042470034
  0
ARC
  5
158
100
AcDbEntity
  8
FAN70-0303
370
              15
390
0
  6
Continuous
 62
               7
100
AcDbCircle
 10
381.21018484165728
 20
-607.18146354632245
 30
0.0
 40
5.9999999999999867
100
AcDbArc
 50
229.93000957529966
 51
270.0
  0
LINE
  5
159
100
AcDbEntity
  8
FAN70-0303
370
              15
390
0
  6
Continuous
 62
               7
100
AcDbLine
 10
202.84885134525729
 20
-524.28146354632213
 30
0.0
 11
203.49998765425738
 21
-522.28146354632213
 31
0.0
  0
LINE
  5
15A
100
AcDbEntity
  8
FAN70-0303
370
              15
390
0
  6
Continuous
 62
               7
100
AcDbLine
 10
194.38407932945728
 20
-524.28146354632213
 30
0.0
 11
202.84885134525729
 21
-524.28146354632213
 31
0.0
  0
LINE
  5
15B
100
AcDbEntity
  8
FAN70-0303
370
              15
390
0
  6
Continuous
 62
               7
100
AcDbLine
 10
193.7329430204573
 20
-522.28146354632213
 30
0.0
 11
194.38407932945728
 21
-524.28146354632213
 31
0.0
  0
LINE
  5
15C
100
AcDbEntity
  8
FAN70-0303
370
              15
390
0
  6
Continuous
 62
               7
100
AcDbLine
 10
193.7329430204573
 20
-511.78146354632207
 30
0.0
 11
193.7329430204573
 21
-522.28146354632213
 31
0.0
  0
LINE
  5
15D
100
AcDbEntity
  8
FAN70-0303
370
              15
390
0
  6
Continuous
 62
               7
100
AcDbLine
 10
203.49998765425738
 20
-511.78146354632207
 30
0.0
 11
203.49998765425738
 21
-522.28146354632213
 31
0.0
  0
LINE
  5
15E
100
AcDbEntity
  8
FAN70-0303
370
              15
390
0
  6
Continuous
 62
               7
100
AcDbLine
 10
197.31419271955741
 20
-520.28146354632213
 30
0.0
 11
197.31419271955741
 21
-514.28146354632213
 31
0.0
  0
LINE
  5
15F
100
AcDbEntity
  8
FAN70-0303
370
              15
390
0
  6
Continuous
 62
               7
100
AcDbLine
 10
199.91873795515738
 20
-520.28146354632213
 30
0.0
 11
197.31419271955741
 21
-520.28146354632213
 31
0.0
  0
LINE
  5
160
100
AcDbEntity
  8
FAN70-0303
370
              15
390
0
  6
Continuous
 62
               7
100
AcDbLine
 10
199.91873795515738
 20
-514.28146354632213
 30
0.0
 11
199.91873795515738
 21
-520.28146354632213
 31
0.0
  0
LINE
  5
161
100
AcDbEntity
  8
FAN70-0303
370
              15
390
0
  6
Continuous
 62
               7
100
AcDbLine
 10
197.31419271955741
 20
-514.28146354632213
 30
0.0
 11
199.91873795515738
 21
-514.28146354632213
 31
0.0
  0
LINE
  5
162
100
AcDbEntity
  8
FAN70-0303
370
              15
390
0
  6
Continuous
 62
               7
100
AcDbLine
 10
203.79436992085726
 20
-524.28146354632213
 30
0.0
 11
202.84885134525729
 21
-524.28146354632213
 31
0.0
  0
LINE
  5
163
100
AcDbEntity
  8
FAN70-0303
370
              15
390
0
  6
Continuous
 62
               7
100
AcDbLine
 10
203.49998765425738
 20
-522.28146354632213
 30
0.0
 11
204.44550622985736
 21
-522.28146354632213
 31
0.0
  0
LINE
  5
164
100
AcDbEntity
  8
FAN70-0303
370
              15
390
0
  6
Continuous
 62
               7
100
AcDbLine
 10
204.44550622985736
 20
-522.28146354632213
 30
0.0
 11
203.79436992085726
 21
-524.28146354632213
 31
0.0
  0
LINE
  5
165
100
AcDbEntity
  8
FAN70-0303
370
              15
390
0
  6
Continuous
 62
               7
100
AcDbLine
 10
204.44550622985736
 20
-511.78146354632207
 30
0.0
 11
204.44550622985736
 21
-522.28146354632213
 31
0.0
  0
LINE
  5
166
100
AcDbEntity
  8
FAN70-0303
370
              15
390
0
  6
Continuous
 62
               7
100
AcDbLine
 10
198.25971129515739
 20
-520.28146354632213
 30
0.0
 11
198.25971129515739
 21
-514.28146354632213
 31
0.0
  0
LINE
  5
167
100
AcDbEntity
  8
FAN70-0303
370
              15
390
0
  6
Continuous
 62
               7
100
AcDbLine
 10
367.71018484165728
 20
-511.78146354632207
 30
0.0
 11
168.33374986695725
 21
-511.78146354632207
 31
0.0
  0
LINE
  5
168
100
AcDbEntity
  8
FAN70-0303
370
              15
390
0
  6
Continuous
 62
               7
100
AcDbLine
 10
567.08661981635714
 20
-511.78146354632207
 30
0.0
 11
367.71018484165728
 21
-511.78146354632207
 31
0.0
  0
LINE
  5
169
100
AcDbEntity
  8
FAN70-0303
370
              15
390
0
  6
Continuous
 62
               7
100
AcDbLine
 10
171.14962526255721
 20
-503.78146354632196
 30
0.0
 11
564.27074442075718
 21
-503.78146354632196
 31
0.0
  0
LINE
  5
16A
100
AcDbEntity
  8
FAN70-0303
370
              15
390
0
  6
Continuous
 62
               7
100
AcDbLine
 10
433.07252225175733
 20
-611.77301554212249
 30
0.0
 11
377.34784743155734
 21
-611.77301554212249
 31
0.0
  0
LINE
  5
16B
100
AcDbEntity
  8
FAN70-0303
370
              15
390
0
  6
Continuous
 62
               7
100
AcDbLine
 10
429.21018467845732
 20
-613.18146354632245
 30
0.0
 11
381.21018484165728
 21
-613.18146354632245
 31
0.0
  0
CIRCLE
  5
16C
100
AcDbEntity
  8
FAN70-0303
370
               5
390
0
  6
STYLE_12
 62
               7
100
AcDbCircle
 10
367.72008725050762
 20
514.3570094003087
 30
0.0
 40
199.99999999999989
  0
CIRCLE
  5
16D
100
AcDbEntity
  8
FAN70-0303
370
               5
390
0
  6
STYLE_12
 62
               7
100
AcDbCircle
 10
367.72008725050762
 20
664.35700940030847
 30
0.0
 40
18.0
  0
CIRCLE
  5
16E
100
AcDbEntity
  8
FAN70-0303
370
               5
390
0
  6
STYLE_12
 62
               7
100
AcDbCircle
 10
367.72008725050762
 20
476.85700940030898
 30
0.0
 40
24.0
  0
POLYLINE
  5
16F
100
AcDbEntity
  8
FAN70-0303
370
              15
390
0
  6
Continuous
 62
               7
100
AcDb2dPolyline
 66
               1
 10
0.0
 20
0.0
 30
0.0
 70
               1
 75
               5
  0
VERTEX
  5
170
100
AcDbEntity
  8
FAN70-0303
370
              15
390
0
  6
Continuous
 62
               7
100
AcDbVertex
100
AcDb2dVertex
 10
370.22008725050762
 20
-609.78146354632236
 30
0.0
  0
VERTEX
  5
171
100
AcDbEntity
  8
FAN70-0303
370
              15
390
0
  6
Continuous
 62
               7
100
AcDbVertex
100
AcDb2dVertex
 10
440.22008725050762
 20
-609.78146354632236
 30
0.0
  0
VERTEX
  5
172
100
AcDbEntity
  8
FAN70-0303
370
              15
390
0
  6
Continuous
 62
               7
100
AcDbVertex
100
AcDb2dVertex
 10
440.22008725050762
 20
-656.78146354632236
 30
0.0
  0
VERTEX
  5
173
100
AcDbEntity
  8
FAN70-0303
370
              15
390
0
  6
Continuous
 62
               7
100
AcDbVertex
100
AcDb2dVertex
 10
370.22008725050762
 20
-656.78146354632236
 30
0.0
  0
SEQEND
  5
174
100
AcDbEntity
  8
FAN70-0303
370
              15
390
0
  6
Continuous
 62
               7
  0
POLYLINE
  5
175
100
AcDbEntity
  8
FAN70-0303
370
              15
390
0
  6
Continuous
 62
               7
100
AcDb2dPolyline
 66
               1
 10
0.0
 20
0.0
 30
0.0
 70
               1
 75
               5
  0
VERTEX
  5
176
100
AcDbEntity
  8
FAN70-0303
370
              15
390
0
  6
Continuous
 62
               7
100
AcDbVertex
100
AcDb2dVertex
 10
-474.37991274949241
 20
-609.78146354632236
 30
0.0
  0
VERTEX
  5
177
100
AcDbEntity
  8
FAN70-0303
370
              15
390
0
  6
Continuous
 62
               7
100
AcDbVertex
100
AcDb2dVertex
 10
-404.37991274949241
 20
-609.78146354632236
 30
0.0
  0
VERTEX
  5
178
100
AcDbEntity
  8
FAN70-0303
370
              15
390
0
  6
Continuous
 62
               7
100
AcDbVertex
100
AcDb2dVertex
 10
-404.37991274949241
 20
-656.78146354632236
 30
0.0
  0
VERTEX
  5
179
100
AcDbEntity
  8
FAN70-0303
370
              15
390
0
  6
Continuous
 62
               7
100
AcDbVertex
100
AcDb2dVertex
 10
-474.37991274949241
 20
-656.78146354632236
 30
0.0
  0
SEQEND
  5
17A
100
AcDbEntity
  8
FAN70-0303
370
              15
390
0
  6
Continuous
 62
               7
  0
ARC
  5
17B
100
AcDbEntity
  8
FAN70-0303
370
              15
390
0
  6
STYLE_12
 62
               7
100
AcDbCircle
 10
357.25129701401693
 20
-627.89656085841511
 30
0.0
 40
27.899999999999959
100
AcDbArc
 50
49.042265948911712
 51
79.622716591054626
  0
LINE
  5
17C
100
AcDbEntity
  8
FAN70-0303
370
              15
390
0
  6
STYLE_12
 62
               7
100
AcDbLine
 10
375.53980606146888
 20
-606.82666677179782
 30
0.0
 11
383.06823211660856
 21
-613.18146354632245
 31
0.0
  0
ARC
  5
17D
100
AcDbEntity
  8
FAN70-0303
370
              15
390
0
  6
STYLE_12
 62
               7
100
AcDbCircle
 10
405.21018492325732
 20
-465.64467109342178
 30
0.0
 40
141.60000000000005
100
AcDbArc
 50
195.51051786917904
 51
252.39209603960009
  0
ARC
  5
17E
100
AcDbEntity
  8
FAN70-0303
370
              15
390
0
  6
STYLE_12
 62
               7
100
AcDbCircle
 10
-487.32818931027498
 20
-627.89656085841511
 30
0.0
 40
27.899999999999959
100
AcDbArc
 50
49.042265948911712
 51
79.622716591054626
  0
LINE
  5
17F
100
AcDbEntity
  8
FAN70-0303
370
              15
390
0
  6
STYLE_12
 62
               7
100
AcDbLine
 10
-469.03968026282303
 20
-606.82666677179782
 30
0.0
 11
-461.51125420768335
 21
-613.18146354632245
 31
0.0
  0
ARC
  5
180
100
AcDbEntity
  8
FAN70-0303
370
              15
390
0
  6
STYLE_12
 62
               7
100
AcDbCircle
 10
-439.36930140103453
 20
-465.64467109342178
 30
0.0
 40
141.60000000000019
100
AcDbArc
 50
195.51051786917898
 51
252.39209603960009
  0
ARC
  5
181
100
AcDbEntity
  8
FAN70-0303
370
              15
390
0
  6
STYLE_12
 62
               7
100
AcDbCircle
 10
-391.41041365499416
 20
-627.89656085841511
 30
0.0
 40
27.899999999999999
100
AcDbArc
 50
100.37728340894537
 51
130.95773405108829
  0
LINE
  5
182
100
AcDbEntity
  8
FAN70-0303
370
              15
390
0
  6
STYLE_12
 62
               7
100
AcDbLine
 10
-409.69892270244611
 20
-606.82666677179782
 30
0.0
 11
-417.22734875758579
 21
-613.18146354632245
 31
0.0
  0
ARC
  5
183
100
AcDbEntity
  8
FAN70-0303
370
              15
390
0
  6
STYLE_12
 62
               7
100
AcDbCircle
 10
-439.36930156423455
 20
-465.64467109342178
 30
0.0
 40
141.60000000000068
100
AcDbArc
 50
287.60790396039982
 51
344.48948213082099
  0
CIRCLE
  5
184
100
AcDbEntity
  8
FAN70-0303
370
              15
390
0
  6
Continuous
 62
               7
100
AcDbCircle
 10
367.72008725050762
 20
514.3570094003087
 30
0.0
 40
182.49999999999989
  0
ARC
  5
185
100
AcDbEntity
  8
FAN70-0303
370
               5
390
0
  6
STYLE_12
 62
               7
100
AcDbCircle
 10
453.16907266929775
 20
-627.89656085841511
 30
0.0
 40
27.899999999999999
100
AcDbArc
 50
100.37728340894537
 51
130.95773405108829
  0
LINE
  5
186
100
AcDbEntity
  8
FAN70-0303
370
               5
390
0
  6
STYLE_12
 62
               7
100
AcDbLine
 10
434.88056362184579
 20
-606.82666677179782
 30
0.0
 11
427.35213756670612
 21
-613.18146354632245
 31
0.0
  0
ARC
  5
187
100
AcDbEntity
  8
FAN70-0303
370
               5
390
0
  6
STYLE_12
 62
               7
100
AcDbCircle
 10
405.2101847600573
 20
-465.64467109342178
 30
0.0
 40
141.60000000000068
100
AcDbArc
 50
287.60790396039988
 51
344.48948213082099
  0
ENDSEC
  0
SECTION
  2
OBJECTS
  0
DICTIONARY
  5
19
100
AcDbDictionary
280
               0
281
               1
  3
ACAD_GROUP
350
1A
  3
ACAD_MLINESTYLE
350
1B
  3
ACAD_LAYOUT
350
1E
  3
ACAD_PLOTSETTINGS
350
22
  3
ACAD_PLOTSTYLENAME
350
1F
  0
DICTIONARY
  5
1A
102
{ACAD_REACTORS
330
19
102
}
100
AcDbDictionary
280
               0
281
               1
  0
DICTIONARY
  5
1B
102
{ACAD_REACTORS
330
19
102
}
100
AcDbDictionary
280
               0
281
               1
  3
Standard
350
1C
  0
MLINESTYLE
  5
1C
102
{ACAD_REACTORS
330
1B
102
}
100
AcDbMlineStyle
  2
Standard
 70
               0
  3

 62
               0
 51
90.0
 52
90.0
 71
               2
 49
0.5
 62
             256
  6
ByLayer
 49
-0.5
 62
             256
  6
ByLayer
  0
ACDBDICTIONARYWDFLT
  5
1F
102
{ACAD_REACTORS
330
19
102
}
100
AcDbDictionary
281
               1
  3
Normal
350
1D
100
AcDbDictionaryWithDefault
340
1D
  0
ACDBPLACEHOLDER
  5
1D
102
{ACAD_REACTORS
330
1F
102
}
  0
LAYOUT
  5
20
102
{ACAD_REACTORS
330
1E
102
}
100
AcDbPlotSettings
  1

  2

  4

  6

 40
0.0
 41
0.0
 42
0.0
 43
0.0
 44
0.0
 45
0.0
 46
0.0
 47
0.0
 48
0.0
 49
0.0
140
0.0
141
0.0
142
1.0
143
1.0
 70
            1024
 72
               0
 73
               0
 74
               0
  7

 75
               0
147
1.0
148
0.0
149
0.0
100
AcDbLayout
  1
Model
 70
               0
 71
               0
 10
0.0
 20
0.0
 11
0.0
 21
0.0
 12
0.0
 22
0.0
 32
0.0
 14
0.0
 24
0.0
 34
0.0
 15
0.0
 25
0.0
 35
0.0
146
0.0
 13
0.0
 23
0.0
 33
0.0
 16
0.0
 26
0.0
 36
0.0
 17
0.0
 27
0.0
 37
0.0
 76
               0
330
A
331
0
345
0
346
0
  0
LAYOUT
  5
21
102
{ACAD_REACTORS
330
1E
102
}
100
AcDbPlotSettings
  1

  2

  4

  6

 40
0.0
 41
0.0
 42
0.0
 43
0.0
 44
0.0
 45
0.0
 46
0.0
 47
0.0
 48
0.0
 49
0.0
140
0.0
141
0.0
142
1.0
143
1.0
 70
               0
 72
               0
 73
               0
 74
               0
  7

 75
               0
147
1.0
148
0.0
149
0.0
100
AcDbLayout
  1
Layout1
 70
               0
 71
               0
 10
0.0
 20
0.0
 11
0.0
 21
0.0
 12
0.0
 22
0.0
 32
0.0
 14
0.0
 24
0.0
 34
0.0
 15
0.0
 25
0.0
 35
0.0
146
0.0
 13
0.0
 23
0.0
 33
0.0
 16
0.0
 26
0.0
 36
0.0
 17
0.0
 27
0.0
 37
0.0
 76
               0
330
B
331
0
345
0
346
0
  0
DICTIONARY
  5
1E
102
{ACAD_REACTORS
330
19
102
}
100
AcDbDictionary
280
               0
281
               1
  3
Layout1
350
21
  3
Model
350
20
  0
DICTIONARY
  5
22
102
{ACAD_REACTORS
330
19
102
}
100
AcDbDictionary
280
               0
281
               1
  0
ENDSEC
  0
EOF
